  0
SECTION
  2
HEADER
  9
$ACADVER
  1
AC1024
  9
$ACADMAINTVER
 70
   182
  9
$DWGCODEPAGE
  3
ANSI_1252
  9
$LASTSAVEDBY
  1
kamerka
  9
$INSBASE
 10
0.0
 20
0.0
 30
0.0
  9
$EXTMIN
 10
-59.40577329146719
 20
-36.92124170797308
 30
-0.0015258207003583
  9
$EXTMAX
 10
83.74737418790983
 20
43.93765082668619
 30
0.0000000349246037
  9
$LIMMIN
 10
0.0
 20
0.0
  9
$LIMMAX
 10
420.0
 20
297.0
  9
$ORTHOMODE
 70
     1
  9
$REGENMODE
 70
     1
  9
$FILLMODE
 70
     1
  9
$QTEXTMODE
 70
     0
  9
$MIRRTEXT
 70
     0
  9
$LTSCALE
 40
23.1
  9
$ATTMODE
 70
     1
  9
$TEXTSIZE
 40
3.5
  9
$TRACEWID
 40
0.05
  9
$TEXTSTYLE
  7
STANDARD
  9
$CLAYER
  8
0
  9
$CELTYPE
  6
BYLAYER
  9
$CECOLOR
 62
   256
  9
$CELTSCALE
 40
1.0
  9
$DISPSILH
 70
     0
  9
$DIMSCALE
 40
1.0
  9
$DIMASZ
 40
4.57
  9
$DIMEXO
 40
0.0625
  9
$DIMDLI
 40
0.38
  9
$DIMRND
 40
0.0
  9
$DIMDLE
 40
0.0
  9
$DIMEXE
 40
0.18
  9
$DIMTP
 40
0.01
  9
$DIMTM
 40
0.01
  9
$DIMTXT
 40
3.5
  9
$DIMCEN
 40
0.09
  9
$DIMTSZ
 40
0.0
  9
$DIMTOL
 70
     0
  9
$DIMLIM
 70
     0
  9
$DIMTIH
 70
     0
  9
$DIMTOH
 70
     0
  9
$DIMSE1
 70
     0
  9
$DIMSE2
 70
     0
  9
$DIMTAD
 70
     1
  9
$DIMZIN
 70
     8
  9
$DIMBLK
  1

  9
$DIMASO
 70
     1
  9
$DIMSHO
 70
     1
  9
$DIMPOST
  1

  9
$DIMAPOST
  1

  9
$DIMALT
 70
     0
  9
$DIMALTD
 70
     2
  9
$DIMALTF
 40
25.4
  9
$DIMLFAC
 40
1.0
  9
$DIMTOFL
 70
     0
  9
$DIMTVP
 40
0.0
  9
$DIMTIX
 70
     0
  9
$DIMSOXD
 70
     0
  9
$DIMSAH
 70
     0
  9
$DIMBLK1
  1

  9
$DIMBLK2
  1

  9
$DIMSTYLE
  2
STANDARD
  9
$DIMCLRD
 70
     0
  9
$DIMCLRE
 70
     0
  9
$DIMCLRT
 70
     0
  9
$DIMTFAC
 40
1.0
  9
$DIMGAP
 40
0.09
  9
$DIMJUST
 70
     0
  9
$DIMSD1
 70
     0
  9
$DIMSD2
 70
     0
  9
$DIMTOLJ
 70
     1
  9
$DIMTZIN
 70
     8
  9
$DIMALTZ
 70
     0
  9
$DIMALTTZ
 70
     0
  9
$DIMUPT
 70
     0
  9
$DIMDEC
 70
     3
  9
$DIMTDEC
 70
     3
  9
$DIMALTU
 70
     2
  9
$DIMALTTD
 70
     2
  9
$DIMTXSTY
  7
STANDARD
  9
$DIMAUNIT
 70
     0
  9
$DIMADEC
 70
     0
  9
$DIMALTRND
 40
0.0
  9
$DIMAZIN
 70
     0
  9
$DIMDSEP
 70
    46
  9
$DIMATFIT
 70
     0
  9
$DIMFRAC
 70
     0
  9
$DIMLDRBLK
  1

  9
$DIMLUNIT
 70
     2
  9
$DIMLWD
 70
    -2
  9
$DIMLWE
 70
    -2
  9
$DIMTMOVE
 70
     0
  9
$DIMFXL
 40
1.0
  9
$DIMFXLON
 70
     0
  9
$DIMJOGANG
 40
0.7853981633974483
  9
$DIMTFILL
 70
     0
  9
$DIMTFILLCLR
 70
     0
  9
$DIMARCSYM
 70
     0
  9
$DIMLTYPE
  6

  9
$DIMLTEX1
  6

  9
$DIMLTEX2
  6

  9
$DIMTXTDIRECTION
 70
     0
  9
$LUNITS
 70
     2
  9
$LUPREC
 70
     4
  9
$SKETCHINC
 40
0.1
  9
$FILLETRAD
 40
0.0
  9
$AUNITS
 70
     0
  9
$AUPREC
 70
     0
  9
$MENU
  1
.
  9
$ELEVATION
 40
0.0
  9
$PELEVATION
 40
0.0
  9
$THICKNESS
 40
0.0
  9
$LIMCHECK
 70
     0
  9
$CHAMFERA
 40
0.0
  9
$CHAMFERB
 40
0.0
  9
$CHAMFERC
 40
0.0
  9
$CHAMFERD
 40
0.0
  9
$SKPOLY
 70
     0
  9
$TDCREATE
 40
2458446.405227107
  9
$TDUCREATE
 40
2458446.321893773
  9
$TDUPDATE
 40
2458996.427382303
  9
$TDUUPDATE
 40
2458996.344048970
  9
$TDINDWG
 40
0.0405790509
  9
$TDUSRTIMER
 40
0.0405779977
  9
$USRTIMER
 70
     1
  9
$ANGBASE
 50
0.0
  9
$ANGDIR
 70
     0
  9
$PDMODE
 70
     3
  9
$PDSIZE
 40
0.3125
  9
$PLINEWID
 40
0.0
  9
$SPLFRAME
 70
     0
  9
$SPLINETYPE
 70
     6
  9
$SPLINESEGS
 70
     8
  9
$HANDSEED
  5
224B5
  9
$SURFTAB1
 70
     6
  9
$SURFTAB2
 70
     6
  9
$SURFTYPE
 70
     6
  9
$SURFU
 70
     6
  9
$SURFV
 70
     6
  9
$UCSBASE
  2

  9
$UCSNAME
  2

  9
$UCSORG
 10
0.0
 20
0.0
 30
0.0
  9
$UCSXDIR
 10
1.0
 20
0.0
 30
0.0
  9
$UCSYDIR
 10
0.0
 20
1.0
 30
0.0
  9
$UCSORTHOREF
  2

  9
$UCSORTHOVIEW
 70
     0
  9
$UCSORGTOP
 10
0.0
 20
0.0
 30
0.0
  9
$UCSORGBOTTOM
 10
0.0
 20
0.0
 30
0.0
  9
$UCSORGLEFT
 10
0.0
 20
0.0
 30
0.0
  9
$UCSORGRIGHT
 10
0.0
 20
0.0
 30
0.0
  9
$UCSORGFRONT
 10
0.0
 20
0.0
 30
0.0
  9
$UCSORGBACK
 10
0.0
 20
0.0
 30
0.0
  9
$PUCSBASE
  2

  9
$PUCSNAME
  2

  9
$PUCSORG
 10
0.0
 20
0.0
 30
0.0
  9
$PUCSXDIR
 10
1.0
 20
0.0
 30
0.0
  9
$PUCSYDIR
 10
0.0
 20
1.0
 30
0.0
  9
$PUCSORTHOREF
  2

  9
$PUCSORTHOVIEW
 70
     0
  9
$PUCSORGTOP
 10
0.0
 20
0.0
 30
0.0
  9
$PUCSORGBOTTOM
 10
0.0
 20
0.0
 30
0.0
  9
$PUCSORGLEFT
 10
0.0
 20
0.0
 30
0.0
  9
$PUCSORGRIGHT
 10
0.0
 20
0.0
 30
0.0
  9
$PUCSORGFRONT
 10
0.0
 20
0.0
 30
0.0
  9
$PUCSORGBACK
 10
0.0
 20
0.0
 30
0.0
  9
$USERI1
 70
     0
  9
$USERI2
 70
     0
  9
$USERI3
 70
     0
  9
$USERI4
 70
     0
  9
$USERI5
 70
     0
  9
$USERR1
 40
0.0
  9
$USERR2
 40
0.0
  9
$USERR3
 40
0.0
  9
$USERR4
 40
0.0
  9
$USERR5
 40
0.0
  9
$WORLDVIEW
 70
     1
  9
$SHADEDGE
 70
     3
  9
$SHADEDIF
 70
    70
  9
$TILEMODE
 70
     1
  9
$MAXACTVP
 70
    64
  9
$PINSBASE
 10
0.0
 20
0.0
 30
0.0
  9
$PLIMCHECK
 70
     0
  9
$PEXTMIN
 10
28.69141678810127
 20
19.6363175392151
 30
0.0
  9
$PEXTMAX
 10
258.2227510929107
 20
176.7268578529358
 30
0.0
  9
$PLIMMIN
 10
-5.027069091796875
 20
-6.805083274841307
  9
$PLIMMAX
 10
291.9412536621094
 20
203.1682443618775
  9
$UNITMODE
 70
     0
  9
$VISRETAIN
 70
     1
  9
$PLINEGEN
 70
     0
  9
$PSLTSCALE
 70
     1
  9
$TREEDEPTH
 70
  3020
  9
$CMLSTYLE
  2
STANDARD
  9
$CMLJUST
 70
     0
  9
$CMLSCALE
 40
1.0
  9
$PROXYGRAPHICS
 70
     1
  9
$MEASUREMENT
 70
     1
  9
$CELWEIGHT
370
    -1
  9
$ENDCAPS
280
     0
  9
$JOINSTYLE
280
     0
  9
$LWDISPLAY
290
     0
  9
$INSUNITS
 70
     0
  9
$HYPERLINKBASE
  1

  9
$STYLESHEET
  1
A1-A2.CTB
  9
$XEDIT
290
     1
  9
$CEPSNTYPE
380
     0
  9
$PSTYLEMODE
290
     1
  9
$FINGERPRINTGUID
  2
{6D3BC7B5-ACA7-406D-8A0D-A7DBBE093430}
  9
$VERSIONGUID
  2
{3197FBC8-7273-4049-8573-3411BAE963D1}
  9
$EXTNAMES
290
     1
  9
$PSVPSCALE
 40
0.0
  9
$OLESTARTUP
290
     0
  9
$SORTENTS
280
   127
  9
$INDEXCTL
280
     0
  9
$HIDETEXT
280
     0
  9
$XCLIPFRAME
280
     2
  9
$HALOGAP
280
     0
  9
$OBSCOLOR
 70
   257
  9
$OBSLTYPE
280
     0
  9
$INTERSECTIONDISPLAY
280
     0
  9
$INTERSECTIONCOLOR
 70
   257
  9
$DIMASSOC
280
     1
  9
$PROJECTNAME
  1

  9
$CAMERADISPLAY
290
     0
  9
$LENSLENGTH
 40
50.0
  9
$CAMERAHEIGHT
 40
0.0
  9
$STEPSPERSEC
 40
2.0
  9
$STEPSIZE
 40
6.0
  9
$3DDWFPREC
 40
2.0
  9
$PSOLWIDTH
 40
0.25
  9
$PSOLHEIGHT
 40
4.0
  9
$LOFTANG1
 40
1.570795999999999
  9
$LOFTANG2
 40
1.570795999999999
  9
$LOFTMAG1
 40
0.0
  9
$LOFTMAG2
 40
0.0
  9
$LOFTPARAM
 70
     7
  9
$LOFTNORMALS
280
     1
  9
$LATITUDE
 40
37.795
  9
$LONGITUDE
 40
-122.394
  9
$NORTHDIRECTION
 40
0.0
  9
$TIMEZONE
 70
 -8000
  9
$LIGHTGLYPHDISPLAY
280
     1
  9
$TILEMODELIGHTSYNCH
280
     1
  9
$CMATERIAL
347
318C
  9
$SOLIDHIST
280
     0
  9
$SHOWHIST
280
     1
  9
$DWFFRAME
280
     2
  9
$DGNFRAME
280
     0
  9
$REALWORLDSCALE
290
     1
  9
$INTERFERECOLOR
 62
     1
  9
$INTERFEREOBJVS
345
3199
  9
$INTERFEREVPVS
346
1B2E3
  9
$CSHADOW
280
     0
  9
$SHADOWPLANELOCATION
 40
0.0
  0
ENDSEC
  0
SECTION
  2
CLASSES
  0
CLASS
  1
ACDBDICTIONARYWDFLT
  2
AcDbDictionaryWithDefault
  3
ObjectDBX Classes
 90
        0
 91
        1
280
     0
281
     0
  0
CLASS
  1
MATERIAL
  2
AcDbMaterial
  3
ObjectDBX Classes
 90
     1153
 91
        3
280
     0
281
     0
  0
CLASS
  1
VISUALSTYLE
  2
AcDbVisualStyle
  3
ObjectDBX Classes
 90
     4095
 91
       26
280
     0
281
     0
  0
CLASS
  1
TABLESTYLE
  2
AcDbTableStyle
  3
ObjectDBX Classes
 90
     4095
 91
        1
280
     0
281
     0
  0
CLASS
  1
SORTENTSTABLE
  2
AcDbSortentsTable
  3
ObjectDBX Classes
 90
        0
 91
        1
280
     0
281
     0
  0
CLASS
  1
DICTIONARYVAR
  2
AcDbDictionaryVar
  3
ObjectDBX Classes
 90
        0
 91
       12
280
     0
281
     0
  0
CLASS
  1
EXACXREFPANELOBJECT
  2
ExAcXREFPanelObject
  3
EXAC_ESW
 90
     1025
 91
        0
280
     1
281
     0
  0
CLASS
  1
NPOCOLLECTION
  2
AcDbImpNonPersistentObjectsCollection
  3
ObjectDBX Classes
 90
     1153
 91
        0
280
     1
281
     0
  0
CLASS
  1
SCALE
  2
AcDbScale
  3
ObjectDBX Classes
 90
     1153
 91
       33
280
     0
281
     0
  0
CLASS
  1
MLEADERSTYLE
  2
AcDbMLeaderStyle
  3
ACDB_MLEADERSTYLE_CLASS
 90
     4095
 91
        1
280
     0
281
     0
  0
CLASS
  1
ACDBSECTIONVIEWSTYLE
  2
AcDbSectionViewStyle
  3
ObjectDBX Classes
 90
     1025
 91
        2
280
     0
281
     0
  0
CLASS
  1
ACDBDETAILVIEWSTYLE
  2
AcDbDetailViewStyle
  3
ObjectDBX Classes
 90
     1025
 91
        2
280
     0
281
     0
  0
CLASS
  1
CELLSTYLEMAP
  2
AcDbCellStyleMap
  3
ObjectDBX Classes
 90
     1152
 91
        2
280
     0
281
     0
  0
CLASS
  1
ACAD_EVALUATION_GRAPH
  2
AcDbEvalGraph
  3
ObjectDBX Classes
 90
     1153
 91
        0
280
     0
281
     0
  0
CLASS
  1
ACAECUSTOBJ
  2
AcAeEditorObj
  3
AcAeEditorObj
 90
     1024
 91
        0
280
     0
281
     0
  0
CLASS
  1
ACDB_DYNAMICBLOCKPURGEPREVENTER_VERSION
  2
AcDbDynamicBlockPurgePreventer
  3
ObjectDBX Classes
 90
     1153
 91
        0
280
     0
281
     0
  0
CLASS
  1
FIELD
  2
AcDbField
  3
ObjectDBX Classes
 90
     1152
 91
        0
280
     0
281
     0
  0
CLASS
  1
FIELDLIST
  2
AcDbFieldList
  3
ObjectDBX Classes
 90
     1152
 91
        1
280
     0
281
     0
  0
CLASS
  1
ACDB_ALDIMOBJECTCONTEXTDATA_CLASS
  2
AcDbAlignedDimensionObjectContextData
  3
ObjectDBX Classes
 90
     1153
 91
        0
280
     0
281
     0
  0
ENDSEC
  0
SECTION
  2
TABLES
  0
TABLE
  2
VPORT
  5
8
330
0
100
AcDbSymbolTable
 70
     1
  0
VPORT
  5
1F4
330
8
100
AcDbSymbolTableRecord
100
AcDbViewportTableRecord
  2
*ACTIVE
 70
     0
 10
0.0
 20
0.0
 11
1.0
 21
1.0
 12
12.17080044822131
 22
3.508204559356556
 13
0.0
 23
0.0
 14
1.0
 24
1.0
 15
0.0
 25
0.0
 16
0.0
 26
0.0
 36
1.0
 17
0.0
 27
0.0
 37
0.0
 40
81.55196875638493
 41
2.698140200286123
 42
50.0
 43
0.0
 44
0.0
 50
0.0
 51
0.0
 71
     0
 72
  2000
 73
     1
 74
     1
 75
     0
 76
     0
 77
     0
 78
     0
281
     0
 65
     1
110
0.0
120
0.0
130
0.0
111
1.0
121
0.0
131
0.0
112
0.0
122
1.0
132
0.0
 79
     0
146
0.0
348
3195
 60
     3
 61
     5
292
     1
282
     1
141
0.0
142
0.0
 63
   250
421
  3355443
1001
ACAD_NAV_VCDISPLAY
1070
     3
  0
ENDTAB
  0
TABLE
  2
LTYPE
  5
5
330
0
100
AcDbSymbolTable
 70
     4
  0
LTYPE
  5
14
330
5
100
AcDbSymbolTableRecord
100
AcDbLinetypeTableRecord
  2
BYBLOCK
 70
     0
  3

 72
    65
 73
     0
 40
0.0
  0
LTYPE
  5
15
330
5
100
AcDbSymbolTableRecord
100
AcDbLinetypeTableRecord
  2
BYLAYER
 70
     0
  3

 72
    65
 73
     0
 40
0.0
  0
LTYPE
  5
16
330
5
100
AcDbSymbolTableRecord
100
AcDbLinetypeTableRecord
  2
CONTINUOUS
 70
     0
  3
Solid line
 72
    65
 73
     0
 40
0.0
  0
LTYPE
  5
9C48
330
5
100
AcDbSymbolTableRecord
100
AcDbLinetypeTableRecord
  2
CENTER
 70
     0
  3
____ _ ____ _ ____ _ ____ _ ____ _ ____ _ ____
 72
    65
 73
     4
 40
0.6
 49
0.375
 74
     0
 49
-0.075
 74
     0
 49
0.075
 74
     0
 49
-0.075
 74
     0
  0
LTYPE
  5
20A82
330
5
100
AcDbSymbolTableRecord
100
AcDbLinetypeTableRecord
  2
HIDDEN
 70
     0
  3
- - - - - - - - - - - - - - - - - - - -
 72
    65
 73
     2
 40
0.2
 49
0.1
 74
     0
 49
-0.1
 74
     0
  0
ENDTAB
  0
TABLE
  2
LAYER
  5
2
102
{ACAD_XDICTIONARY
360
422A
102
}
330
0
100
AcDbSymbolTable
 70
    14
  0
LAYER
  5
10
102
{ACAD_XDICTIONARY
360
1B2F5
102
}
330
2
100
AcDbSymbolTableRecord
100
AcDbLayerTableRecord
  2
0
 70
     0
 62
     7
  6
CONTINUOUS
370
    -3
390
318A
347
318E
  0
LAYER
  5
3F8C
102
{ACAD_XDICTIONARY
360
1B2F7
102
}
330
2
100
AcDbSymbolTableRecord
100
AcDbLayerTableRecord
  2
1
 70
     0
 62
     4
  6
BYBLOCK
370
    50
390
318A
347
318E
  0
LAYER
  5
3FA7
330
2
100
AcDbSymbolTableRecord
100
AcDbLayerTableRecord
  2
Defpoints
 70
     0
 62
     7
  6
CONTINUOUS
290
     0
370
    -3
390
318A
347
318E
  0
LAYER
  5
9C4A
102
{ACAD_XDICTIONARY
360
1B2F9
102
}
330
2
100
AcDbSymbolTableRecord
100
AcDbLayerTableRecord
  2
2
 70
     0
 62
     7
  6
BYBLOCK
370
    25
390
318A
347
318E
  0
LAYER
  5
9C4B
102
{ACAD_XDICTIONARY
360
1B2FB
102
}
330
2
100
AcDbSymbolTableRecord
100
AcDbLayerTableRecord
  2
4
 70
     0
 62
     2
  6
CENTER
370
    25
390
318A
347
318E
  0
LAYER
  5
9C4D
102
{ACAD_XDICTIONARY
360
1B2FD
102
}
330
2
100
AcDbSymbolTableRecord
100
AcDbLayerTableRecord
  2
CUT
 70
     0
 62
     1
  6
BYBLOCK
370
    25
390
318A
347
318E
  0
LAYER
  5
9C4E
102
{ACAD_XDICTIONARY
360
1B2FF
102
}
330
2
100
AcDbSymbolTableRecord
100
AcDbLayerTableRecord
  2
NOCUT
 70
     0
 62
     7
  6
BYBLOCK
370
    25
390
318A
347
318E
  0
LAYER
  5
9C4F
102
{ACAD_XDICTIONARY
360
1B301
102
}
330
2
100
AcDbSymbolTableRecord
100
AcDbLayerTableRecord
  2
SK2
 70
     0
 62
     7
  6
BYBLOCK
370
    25
390
318A
347
318E
  0
LAYER
  5
9C50
102
{ACAD_XDICTIONARY
360
1B303
102
}
330
2
100
AcDbSymbolTableRecord
100
AcDbLayerTableRecord
  2
SK1
 70
     0
 62
     4
  6
BYBLOCK
370
    50
390
318A
347
318E
  0
LAYER
  5
9C51
102
{ACAD_XDICTIONARY
360
1B305
102
}
330
2
100
AcDbSymbolTableRecord
100
AcDbLayerTableRecord
  2
SK4
 70
     0
 62
     2
  6
CENTER
370
    25
390
318A
347
318E
  0
LAYER
  5
13335
102
{ACAD_XDICTIONARY
360
1B307
102
}
330
2
100
AcDbSymbolTableRecord
100
AcDbLayerTableRecord
  2
INFTOTAL
 70
     0
 62
     9
  6
BYBLOCK
370
    18
390
318A
347
318E
1001
AcAecLayerStandard
1000

1000

  0
LAYER
  5
1686E
102
{ACAD_XDICTIONARY
360
1B309
102
}
330
2
100
AcDbSymbolTableRecord
100
AcDbLayerTableRecord
  2
SK6
 70
     0
 62
     5
  6
BYBLOCK
370
    -3
390
318A
347
318E
  0
LAYER
  5
20A83
102
{ACAD_XDICTIONARY
360
20A84
102
}
330
2
100
AcDbSymbolTableRecord
100
AcDbLayerTableRecord
  2
3
 70
     0
 62
     1
  6
HIDDEN
370
    -3
390
318A
347
318E
1001
AcAecLayerStandard
1000

1000

1001
AcCmTransparency
1071
        0
  0
ENDTAB
  0
TABLE
  2
STYLE
  5
3
330
0
100
AcDbSymbolTable
 70
     1
  0
STYLE
  5
11
330
3
100
AcDbSymbolTableRecord
100
AcDbTextStyleTableRecord
  2
STANDARD
 70
     0
 40
3.5
 41
0.8
 50
0.0
 71
     0
 42
3.5
  3
monos.ttf
  4

1001
ACAD
1000
Monospac821 BT
1071
       49
  0
ENDTAB
  0
TABLE
  2
VIEW
  5
6
330
0
100
AcDbSymbolTable
 70
     0
  0
ENDTAB
  0
TABLE
  2
UCS
  5
7
330
0
100
AcDbSymbolTable
 70
     0
  0
ENDTAB
  0
TABLE
  2
APPID
  5
9
330
0
100
AcDbSymbolTable
 70
    13
  0
APPID
  5
23B
330
9
100
AcDbSymbolTableRecord
100
AcDbRegAppTableRecord
  2
ACAD
 70
     0
  0
APPID
  5
3395
330
9
100
AcDbSymbolTableRecord
100
AcDbRegAppTableRecord
  2
ACAD_EXEMPT_FROM_CAD_STANDARDS
 70
     0
  0
APPID
  5
4229
330
9
100
AcDbSymbolTableRecord
100
AcDbRegAppTableRecord
  2
AcAecLayerStandard
 70
     0
  0
APPID
  5
9A1B
330
9
100
AcDbSymbolTableRecord
100
AcDbRegAppTableRecord
  2
ACAD_PSEXT
 70
     0
  0
APPID
  5
1B313
330
9
100
AcDbSymbolTableRecord
100
AcDbRegAppTableRecord
  2
ACAD_NAV_VCDISPLAY
 70
     0
  0
APPID
  5
1B355
330
9
100
AcDbSymbolTableRecord
100
AcDbRegAppTableRecord
  2
ACAD_MLEADERVER
 70
     0
  0
APPID
  5
1EC7F
330
9
100
AcDbSymbolTableRecord
100
AcDbRegAppTableRecord
  2
ACAUTHENVIRON
 70
     0
  0
APPID
  5
1EC82
330
9
100
AcDbSymbolTableRecord
100
AcDbRegAppTableRecord
  2
AcDbDynamicBlockTrueName
 70
     0
  0
APPID
  5
1EC83
330
9
100
AcDbSymbolTableRecord
100
AcDbRegAppTableRecord
  2
AcDbDynamicBlockGUID
 70
     0
  0
APPID
  5
20A85
330
9
100
AcDbSymbolTableRecord
100
AcDbRegAppTableRecord
  2
AcCmTransparency
 70
     0
  0
APPID
  5
20AE2
330
9
100
AcDbSymbolTableRecord
100
AcDbRegAppTableRecord
  2
ACAD_DSTYLE_DIMRADIAL_EXTENSION
 70
     0
  0
APPID
  5
20CB0
330
9
100
AcDbSymbolTableRecord
100
AcDbRegAppTableRecord
  2
AcadAnnotative
 70
     0
  0
APPID
  5
21667
330
9
100
AcDbSymbolTableRecord
100
AcDbRegAppTableRecord
  2
AcadAnnoMonitorAlertIconDisabled
 70
     0
  0
ENDTAB
  0
TABLE
  2
DIMSTYLE
  5
A
330
0
100
AcDbSymbolTable
 70
     2
100
AcDbDimStyleTable
 71
     1
340
243
  0
DIMSTYLE
105
243
102
{ACAD_REACTORS
330
220EC
330
2220A
330
22236
330
22267
330
222AB
102
}
330
A
100
AcDbSymbolTableRecord
100
AcDbDimStyleTableRecord
  2
STANDARD
 70
     0
 41
4.57
 47
0.01
 48
0.01
 73
     0
 74
     0
 77
     1
 78
     8
140
3.5
271
     3
272
     3
284
     8
289
     0
340
11
  0
ENDTAB
  0
TABLE
  2
BLOCK_RECORD
  5
1
330
0
100
AcDbSymbolTable
 70
     9
  0
BLOCK_RECORD
  5
1F
102
{ACAD_XDICTIONARY
360
339C
102
}
330
1
100
AcDbSymbolTableRecord
100
AcDbBlockTableRecord
  2
*MODEL_SPACE
340
31A6
 70
     0
280
     1
281
     0
  0
BLOCK_RECORD
  5
1B
330
1
100
AcDbSymbolTableRecord
100
AcDbBlockTableRecord
  2
*PAPER_SPACE
340
31A7
 70
     0
280
     1
281
     0
  0
BLOCK_RECORD
  5
1B3D7
102
{ACAD_XDICTIONARY
360
1DE81
102
}
330
1
100
AcDbSymbolTableRecord
100
AcDbBlockTableRecord
  2
cero_point
340
0
310
28000000200000002000000001002000000000000010000001000000010000000000000000000000302821FF302821FF302821FF302821FF302821FF302821FF302821FF302821FF302821FF302821FF302821FF302821FF302821FF302821FF302821FF302821FF302821FF302821FF302821FF302821FF302821FF302821
310
FF302821FF302821FF302821FF302821FF302821FF302821FF302821FF302821FF302821FF302821FF302821FF302821FF302821FF302821FF302821FF302821FF302821FF302821FF302821FF302821FF302821FF302821FF302821FF302821FF302821FFFFFF00FFFFFF00FFFFFF00FF302821FF302821FF302821FF3028
310
21FF302821FF302821FF302821FF302821FF302821FF302821FF302821FF302821FF302821FF302821FF302821FF302821FF302821FF302821FF302821FF302821FF302821FF302821FF302821FF302821FFFFFF00FFFFFF00FFFFFF00FFFFFF00FFFFFF00FFFFFF00FFFFFF00FF302821FFFFFF00FFFFFF00FFFFFF00FF30
310
2821FF302821FF302821FF302821FF302821FF302821FF302821FF302821FF302821FF302821FF302821FF302821FF302821FF302821FF302821FF302821FF302821FF302821FF302821FFFFFF00FFFFFF00FFFFFF00FFFFFF00FFFFFF00FFFFFF00FFFFFF00FFFFFF00FFFFFF00FF302821FF302821FF302821FF302821FF
310
FFFF00FFFFFF00FF302821FF302821FF302821FF302821FF302821FF302821FF302821FF302821FF302821FF302821FF302821FF302821FF302821FF302821FF302821FF302821FFFFFF00FFFFFF00FFFFFF00FFFFFF00FFFFFF00FFFFFF00FFFFFF00FFFFFF00FFFFFF00FFFFFF00FF302821FF302821FF302821FF302821
310
FF302821FF302821FFFFFF00FFFFFF00FF302821FF302821FF302821FF302821FF302821FF302821FF302821FF302821FF302821FF302821FF302821FF302821FF302821FFFFFF00FFFFFF00FFFFFF00FFFFFF00FFFFFF00FFFFFF00FFFFFF00FFFFFF00FFFFFF00FFFFFF00FFFFFF00FF302821FF302821FF302821FF3028
310
21FF302821FF302821FF302821FF302821FFFFFF00FF302821FF302821FF302821FF302821FF302821FF302821FF302821FF302821FF302821FF302821FF302821FFFFFF00FFFFFF00FFFFFF00FFFFFF00FFFFFF00FFFFFF00FFFFFF00FFFFFF00FFFFFF00FFFFFF00FFFFFF00FFFFFF00FF302821FF302821FF302821FF30
310
2821FF302821FF302821FF302821FF302821FF302821FFFFFF00FF302821FF302821FF302821FF302821FF302821FF302821FF302821FF302821FF302821FFFFFF00FFFFFF00FFFFFF00FFFFFF00FFFFFF00FFFFFF00FFFFFF00FFFFFF00FFFFFF00FFFFFF00FFFFFF00FFFFFF00FFFFFF00FF302821FF302821FF302821FF
310
302821FF302821FF302821FF302821FF302821FF302821FF302821FFFFFF00FF302821FF302821FF302821FF302821FF302821FF302821FF302821FFFFFF00FFFFFF00FFFFFF00FFFFFF00FFFFFF00FFFFFF00FFFFFF00FFFFFF00FFFFFF00FFFFFF00FFFFFF00FFFFFF00FFFFFF00FFFFFF00FF302821FF302821FF302821
310
FF302821FF302821FF302821FF302821FF302821FF302821FF302821FFFFFF00FF302821FF302821FF302821FF302821FF302821FF302821FF302821FFFFFF00FFFFFF00FFFFFF00FFFFFF00FFFFFF00FFFFFF00FFFFFF00FFFFFF00FFFFFF00FFFFFF00FFFFFF00FFFFFF00FFFFFF00FFFFFF00FF302821FF302821FF3028
310
21FF302821FF302821FF302821FF302821FF302821FF302821FF302821FF302821FFFFFF00FF302821FF302821FF302821FF302821FF302821FFFFFF00FFFFFF00FFFFFF00FFFFFF00FFFFFF00FFFFFF00FFFFFF00FFFFFF00FFFFFF00FFFFFF00FFFFFF00FFFFFF00FFFFFF00FFFFFF00FFFFFF00FF302821FF302821FF30
310
2821FF302821FF302821FF302821FF302821FF302821FF302821FF302821FF302821FF302821FFFFFF00FF302821FF302821FF302821FF302821FFFFFF00FFFFFF00FFFFFF00FFFFFF00FFFFFF00FFFFFF00FFFFFF00FFFFFF00FFFFFF00FFFFFF00FFFFFF00FFFFFF00FFFFFF00FFFFFF00FFFFFF00FF302821FF302821FF
310
302821FF302821FF302821FF302821FF302821FF302821FF302821FF302821FF302821FF302821FFFFFF00FF302821FF302821FF302821FF302821FFFFFF00FFFFFF00FFFFFF00FFFFFF00FFFFFF00FFFFFF00FFFFFF00FFFFFF00FFFFFF00FFFFFF00FFFFFF00FFFFFF00FFFFFF00FFFFFF00FFFFFF00FF302821FF302821
310
FF302821FF302821FF302821FF302821FF302821FF302821FF302821FF302821FF302821FF302821FFFFFF00FF302821FF302821FF302821FF302821FFFFFF00FFFFFF00FFFFFF00FFFFFF00FFFFFF00FFFFFF00FFFFFF00FFFFFF00FFFFFF00FFFFFF00FFFFFF00FFFFFF00FFFFFF00FFFFFF00FFFFFF00FF302821FF3028
310
21FF302821FF302821FF302821FF302821FF302821FF302821FF302821FF302821FF302821FF302821FFFFFF00FF302821FF302821FF302821FFFFFF00FFFFFF00FFFFFF00FFFFFF00FFFFFF00FFFFFF00FFFFFF00FFFFFF00FFFFFF00FFFFFF00FFFFFF00FFFFFF00FFFFFF00FFFFFF00FFFFFF00FFFFFF00FF302821FF30
310
2821FF302821FF302821FF302821FF302821FF302821FF302821FF302821FF302821FF302821FF302821FF302821FFFFFF00FF302821FF302821FFFFFF00FFFFFF00FFFFFF00FFFFFF00FFFFFF00FFFFFF00FFFFFF00FFFFFF00FFFFFF00FFFFFF00FFFFFF00FFFFFF00FFFFFF00FFFFFF00FFFFFF00FFFFFF00FFFFFF00FF
310
FFFF00FFFFFF00FFFFFF00FFFFFF00FFFFFF00FFFFFF00FFFFFF00FFFFFF00FFFFFF00FFFFFF00FFFFFF00FFFFFF00FFFFFF00FF302821FF302821FFFFFF00FF302821FF302821FF302821FF302821FF302821FF302821FF302821FF302821FF302821FF302821FF302821FF302821FF302821FF302821FFFFFF00FFFFFF00
310
FFFFFF00FFFFFF00FFFFFF00FFFFFF00FFFFFF00FFFFFF00FFFFFF00FFFFFF00FFFFFF00FFFFFF00FFFFFF00FFFFFF00FFFFFF00FF302821FF302821FFFFFF00FF302821FF302821FF302821FF302821FF302821FF302821FF302821FF302821FF302821FF302821FF302821FF302821FF302821FF302821FFFFFF00FFFFFF
310
00FFFFFF00FFFFFF00FFFFFF00FFFFFF00FFFFFF00FFFFFF00FFFFFF00FFFFFF00FFFFFF00FFFFFF00FFFFFF00FFFFFF00FF302821FF302821FF302821FF302821FFFFFF00FF302821FF302821FF302821FF302821FF302821FF302821FF302821FF302821FF302821FF302821FF302821FF302821FF302821FFFFFF00FFFF
310
FF00FFFFFF00FFFFFF00FFFFFF00FFFFFF00FFFFFF00FFFFFF00FFFFFF00FFFFFF00FFFFFF00FFFFFF00FFFFFF00FFFFFF00FF302821FF302821FF302821FF302821FFFFFF00FF302821FF302821FF302821FF302821FF302821FF302821FF302821FF302821FF302821FF302821FF302821FF302821FF302821FFFFFF00FF
310
FFFF00FFFFFF00FFFFFF00FFFFFF00FFFFFF00FFFFFF00FFFFFF00FFFFFF00FFFFFF00FFFFFF00FFFFFF00FFFFFF00FFFFFF00FF302821FF302821FF302821FF302821FFFFFF00FF302821FF302821FF302821FF302821FF302821FF302821FF302821FF302821FF302821FF302821FF302821FF302821FF302821FFFFFF00
310
FFFFFF00FFFFFF00FFFFFF00FFFFFF00FFFFFF00FFFFFF00FFFFFF00FFFFFF00FFFFFF00FFFFFF00FFFFFF00FFFFFF00FFFFFF00FF302821FF302821FF302821FF302821FF302821FFFFFF00FF302821FF302821FF302821FF302821FF302821FF302821FF302821FF302821FF302821FF302821FF302821FF302821FFFFFF
310
00FFFFFF00FFFFFF00FFFFFF00FFFFFF00FFFFFF00FFFFFF00FFFFFF00FFFFFF00FFFFFF00FFFFFF00FFFFFF00FFFFFF00FFFFFF00FF302821FF302821FF302821FF302821FF302821FFFFFF00FF302821FF302821FF302821FF302821FF302821FF302821FF302821FF302821FF302821FF302821FF302821FF302821FFFF
310
FF00FFFFFF00FFFFFF00FFFFFF00FFFFFF00FFFFFF00FFFFFF00FFFFFF00FFFFFF00FFFFFF00FFFFFF00FFFFFF00FFFFFF00FF302821FF302821FF302821FF302821FF302821FF302821FF302821FFFFFF00FF302821FF302821FF302821FF302821FF302821FF302821FF302821FF302821FF302821FF302821FF302821FF
310
FFFF00FFFFFF00FFFFFF00FFFFFF00FFFFFF00FFFFFF00FFFFFF00FFFFFF00FFFFFF00FFFFFF00FFFFFF00FFFFFF00FFFFFF00FF302821FF302821FF302821FF302821FF302821FF302821FF302821FFFFFF00FF302821FF302821FF302821FF302821FF302821FF302821FF302821FF302821FF302821FF302821FF302821
310
FFFFFF00FFFFFF00FFFFFF00FFFFFF00FFFFFF00FFFFFF00FFFFFF00FFFFFF00FFFFFF00FFFFFF00FFFFFF00FFFFFF00FF302821FF302821FF302821FF302821FF302821FF302821FF302821FF302821FF302821FFFFFF00FF302821FF302821FF302821FF302821FF302821FF302821FF302821FF302821FF302821FF3028
310
21FFFFFF00FFFFFF00FFFFFF00FFFFFF00FFFFFF00FFFFFF00FFFFFF00FFFFFF00FFFFFF00FFFFFF00FFFFFF00FF302821FF302821FF302821FF302821FF302821FF302821FF302821FF302821FF302821FF302821FF302821FFFFFF00FF302821FF302821FF302821FF302821FF302821FF302821FF302821FF302821FF30
310
2821FFFFFF00FFFFFF00FFFFFF00FFFFFF00FFFFFF00FFFFFF00FFFFFF00FFFFFF00FFFFFF00FFFFFF00FF302821FF302821FF302821FF302821FF302821FF302821FF302821FF302821FF302821FF302821FF302821FF302821FF302821FFFFFF00FF302821FF302821FF302821FF302821FF302821FF302821FF302821FF
310
302821FFFFFF00FFFFFF00FFFFFF00FFFFFF00FFFFFF00FFFFFF00FFFFFF00FFFFFF00FFFFFF00FF302821FF302821FF302821FF302821FF302821FF302821FF302821FF302821FF302821FF302821FF302821FF302821FF302821FF302821FF302821FFFFFF00FFFFFF00FF302821FF302821FF302821FF302821FF302821
310
FF302821FFFFFF00FFFFFF00FFFFFF00FFFFFF00FFFFFF00FFFFFF00FFFFFF00FFFFFF00FF302821FF302821FF302821FF302821FF302821FF302821FF302821FF302821FF302821FF302821FF302821FF302821FF302821FF302821FF302821FF302821FF302821FF302821FFFFFF00FFFFFF00FFFFFF00FFFFFF00FFFFFF
310
00FF302821FFFFFF00FFFFFF00FFFFFF00FFFFFF00FFFFFF00FFFFFF00FF302821FF302821FF302821FF302821FF302821FF302821FF302821FF302821FF302821FF302821FF302821FF302821FF302821FF302821FF302821FF302821FF302821FF302821FF302821FF302821FF302821FF302821FF302821FF302821FF30
310
2821FFFFFF00FFFFFF00FFFFFF00FF302821FF302821FF302821FF302821FF302821FF302821FF302821FF302821FF302821FF302821FF302821FF302821FF302821FF302821FF302821FF302821FF302821FF302821FF302821FF302821FF302821FF302821FF302821FF302821FF302821FF302821FF302821FF302821FF
310
302821FF302821FF302821FF302821FF302821FF302821FF302821FF302821FF302821FF302821FF302821FF302821FF302821FF302821FF302821FF302821FF302821FF302821FF
102
{BLKREFS
331
20A18
102
}
 70
     0
280
     1
281
     1
  0
BLOCK_RECORD
  5
221DC
330
1
100
AcDbSymbolTableRecord
100
AcDbBlockTableRecord
  2
*D1
340
0
 70
     0
280
     1
281
     0
  0
BLOCK_RECORD
  5
2220B
330
1
100
AcDbSymbolTableRecord
100
AcDbBlockTableRecord
  2
*D2
340
0
 70
     0
280
     1
281
     0
  0
BLOCK_RECORD
  5
22237
330
1
100
AcDbSymbolTableRecord
100
AcDbBlockTableRecord
  2
*D3
340
0
 70
     0
280
     1
281
     0
  0
BLOCK_RECORD
  5
22268
330
1
100
AcDbSymbolTableRecord
100
AcDbBlockTableRecord
  2
*D4
340
0
 70
     0
280
     1
281
     0
  0
BLOCK_RECORD
  5
222AC
330
1
100
AcDbSymbolTableRecord
100
AcDbBlockTableRecord
  2
*D5
340
0
 70
     0
280
     1
281
     0
  0
ENDTAB
  0
ENDSEC
  0
SECTION
  2
BLOCKS
  0
BLOCK
  5
20
330
1F
100
AcDbEntity
  8
0
100
AcDbBlockBegin
  2
*MODEL_SPACE
 70
     0
 10
0.0
 20
0.0
 30
0.0
  3
*MODEL_SPACE
  1

  0
ENDBLK
  5
21
330
1F
100
AcDbEntity
  8
0
100
AcDbBlockEnd
  0
BLOCK
  5
1C
330
1B
100
AcDbEntity
 67
     1
  8
0
100
AcDbBlockBegin
  2
*PAPER_SPACE
 70
     0
 10
0.0
 20
0.0
 30
0.0
  3
*PAPER_SPACE
  1

  0
ENDBLK
  5
1D
330
1B
100
AcDbEntity
 67
     1
  8
0
100
AcDbBlockEnd
  0
BLOCK
  5
1B3D8
330
1B3D7
100
AcDbEntity
  8
0
100
AcDbBlockBegin
  2
cero_point
 70
     0
 10
0.0
 20
0.0
 30
0.0
  3
cero_point
  1

  0
HATCH
  5
1B3DA
330
1B3D7
100
AcDbEntity
  8
1
  6
ByBlock
370
    50
100
AcDbHatch
 10
0.0
 20
0.0
 30
0.0
210
0.0
220
0.0
230
1.0
  2
SOLID
 70
     1
 71
     0
 91
        2
 92
        7
 72
     1
 73
     1
 93
        3
 10
-0.0000000000001137
 20
0.0
 42
0.0
 10
-2.950972054112752
 20
0.0
 42
0.4142135623730968
 10
-0.0000000000001137
 20
-2.950972054112583
 42
0.0
 97
        0
 92
        7
 72
     1
 73
     1
 93
        3
 10
-0.0000000000001137
 20
2.950972054112638
 42
0.0
 10
-0.0000000000001137
 20
0.0
 42
0.0
 10
2.950972054112526
 20
0.0
 42
0.4142135623730966
 97
        0
 75
     0
 76
     1
 47
0.1190009775223266
 98
        2
 10
-0.7445530588121301
 20
-0.9212244733764125
 10
1.279464601852737
 20
1.696796923046345
450
        0
451
        0
460
0.0
461
0.0
452
        0
462
0.0
453
        0
470

  0
LWPOLYLINE
  5
1B3DB
330
1B3D7
100
AcDbEntity
  8
1
  6
ByBlock
370
    50
100
AcDbPolyline
 90
        3
 70
     1
 43
0.0
 10
-0.0000000000001137
 20
0.0
 10
2.950972054112526
 20
0.0
 42
0.4142135623730966
 10
-0.0000000000001137
 20
2.950972054112638
  0
LINE
  5
1B3DC
330
1B3D7
100
AcDbEntity
  8
1
  6
ByBlock
370
    50
100
AcDbLine
 10
-0.0000000000001137
 20
-2.950972054112583
 30
0.0
 11
-0.0000000000001137
 21
2.950972054112638
 31
0.0
  0
LWPOLYLINE
  5
1B3DD
330
1B3D7
100
AcDbEntity
  8
1
  6
ByBlock
370
    50
100
AcDbPolyline
 90
        3
 70
     1
 43
0.0
 10
-0.0000000000001137
 20
-2.950972054112583
 10
-0.0000000000001137
 20
0.0
 10
-2.950972054112752
 20
0.0
 42
0.4142135623730966
  0
LINE
  5
1B3DE
330
1B3D7
100
AcDbEntity
  8
1
  6
ByBlock
370
    50
100
AcDbLine
 10
2.950972054112638
 20
0.0
 30
0.0
 11
-2.950972054112638
 21
0.0
 31
0.0
  0
CIRCLE
  5
1B3DF
330
1B3D7
100
AcDbEntity
  8
1
  6
ByBlock
370
    50
100
AcDbCircle
 10
-0.0000000000001137
 20
0.0
 30
0.0
 40
2.950972054112601
  0
ENDBLK
  5
1B3D9
330
1B3D7
100
AcDbEntity
  8
0
100
AcDbBlockEnd
  0
BLOCK
  5
221DD
330
221DC
100
AcDbEntity
  8
0
100
AcDbBlockBegin
  2
*D1
 70
     1
 10
0.0
 20
0.0
 30
0.0
  3
*D1
  1

  0
LINE
  5
2246E
330
221DC
100
AcDbEntity
  8
2
 62
     0
440
 16777216
370
    -2
100
AcDbLine
 10
43.0
 20
14.88233701602246
 30
0.0
 11
43.0
 21
26.0800795785667
 31
0.0
  0
LINE
  5
2246F
330
221DC
100
AcDbEntity
  8
2
 62
     0
440
 16777216
370
    -2
100
AcDbLine
 10
0.0
 20
16.69314131606666
 30
0.0
 11
0.0000000000000006
 21
26.0800795785667
 31
0.0
  0
LINE
  5
22470
330
221DC
100
AcDbEntity
  8
2
 62
     0
440
 16777216
370
    -2
100
AcDbLine
 10
38.43
 20
25.9000795785667
 30
0.0
 11
4.570000000000001
 21
25.9000795785667
 31
0.0
  0
SOLID
  5
22471
330
221DC
100
AcDbEntity
  8
2
 62
     0
440
 16777216
100
AcDbTrace
 10
38.43
 20
26.66174624523337
 30
0.0
 11
38.43
 21
25.13841291190003
 31
0.0
 12
43.0
 22
25.9000795785667
 32
0.0
 13
43.0
 23
25.9000795785667
 33
0.0
  0
SOLID
  5
22472
330
221DC
100
AcDbEntity
  8
2
 62
     0
440
 16777216
100
AcDbTrace
 10
4.570000000000001
 20
26.66174624523337
 30
0.0
 11
4.570000000000001
 21
25.13841291190003
 31
0.0
 12
0.0000000000000006
 22
25.9000795785667
 32
0.0
 13
0.0000000000000006
 23
25.9000795785667
 33
0.0
  0
MTEXT
  5
22473
330
221DC
100
AcDbEntity
  8
2
 62
     0
440
 16777216
100
AcDbMText
 10
21.5
 20
27.80156938882671
 30
0.0
 40
3.5
 41
0.0
 46
0.0
 71
     5
 72
     1
  1
\A1;43
 73
     1
 44
1.0
  0
POINT
  5
22474
330
221DC
100
AcDbEntity
  8
Defpoints
 62
     0
440
 16777216
100
AcDbPoint
 10
43.0
 20
14.81983701602246
 30
0.0
  0
POINT
  5
22475
330
221DC
100
AcDbEntity
  8
Defpoints
 62
     0
440
 16777216
100
AcDbPoint
 10
0.0
 20
16.63064131606666
 30
0.0
  0
POINT
  5
22476
330
221DC
100
AcDbEntity
  8
Defpoints
 62
     0
440
 16777216
100
AcDbPoint
 10
0.0000000000000006
 20
25.9000795785667
 30
0.0
  0
ENDBLK
  5
221DE
330
221DC
100
AcDbEntity
  8
0
100
AcDbBlockEnd
  0
BLOCK
  5
2220C
330
2220B
100
AcDbEntity
  8
0
100
AcDbBlockBegin
  2
*D2
 70
     1
 10
0.0
 20
0.0
 30
0.0
  3
*D2
  1

  0
LINE
  5
222F8
330
2220B
100
AcDbEntity
  8
SK2
 62
     0
440
 16777216
370
    -2
100
AcDbLine
 10
-24.0
 20
6.503654273266704
 30
0.0
 11
-24.0
 21
25.0294075908734
 31
0.0
  0
LINE
  5
222F9
330
2220B
100
AcDbEntity
  8
SK2
 62
     0
440
 16777216
370
    -2
100
AcDbLine
 10
0.0
 20
13.93749999999994
 30
0.0
 11
0.0000000000000007
 21
25.0294075908734
 31
0.0
  0
LINE
  5
222FA
330
2220B
100
AcDbEntity
  8
SK2
 62
     0
440
 16777216
370
    -2
100
AcDbLine
 10
-19.43
 20
24.8494075908734
 30
0.0
 11
-4.569999999999998
 21
24.8494075908734
 31
0.0
  0
SOLID
  5
222FB
330
2220B
100
AcDbEntity
  8
SK2
 62
     0
440
 16777216
100
AcDbTrace
 10
-19.43
 20
25.61107425754006
 30
0.0
 11
-19.43
 21
24.08774092420673
 31
0.0
 12
-24.0
 22
24.8494075908734
 32
0.0
 13
-24.0
 23
24.8494075908734
 33
0.0
  0
SOLID
  5
222FC
330
2220B
100
AcDbEntity
  8
SK2
 62
     0
440
 16777216
100
AcDbTrace
 10
-4.569999999999998
 20
25.61107425754006
 30
0.0
 11
-4.569999999999998
 21
24.08774092420673
 31
0.0
 12
0.0000000000000007
 22
24.8494075908734
 32
0.0
 13
0.0000000000000007
 23
24.8494075908734
 33
0.0
  0
MTEXT
  5
222FD
330
2220B
100
AcDbEntity
  8
SK2
 62
     0
440
 16777216
100
AcDbMText
 10
-12.0
 20
26.7004757567202
 30
0.0
 40
3.5
 41
0.0
 46
0.0
 71
     5
 72
     1
  1
\A1;24
 73
     1
 44
1.0
1001
ACAD
1000
MTEXTBEGIN
1070
    73
1070
     1
1070
    44
1040
1.0
1070
    74
1070
     0
1000
MTEXTEND
  0
POINT
  5
222FE
330
2220B
100
AcDbEntity
  8
Defpoints
 62
     0
440
 16777216
100
AcDbPoint
 10
-24.0
 20
6.441154273266704
 30
0.0
  0
POINT
  5
222FF
330
2220B
100
AcDbEntity
  8
Defpoints
 62
     0
440
 16777216
100
AcDbPoint
 10
0.0
 20
13.87499999999994
 30
0.0
  0
POINT
  5
22300
330
2220B
100
AcDbEntity
  8
Defpoints
 62
     0
440
 16777216
100
AcDbPoint
 10
0.0000000000000007
 20
24.8494075908734
 30
0.0
  0
ENDBLK
  5
2220D
330
2220B
100
AcDbEntity
  8
0
100
AcDbBlockEnd
  0
BLOCK
  5
22238
330
22237
100
AcDbEntity
  8
0
100
AcDbBlockBegin
  2
*D3
 70
     1
 10
0.0
 20
0.0
 30
0.0
  3
*D3
  1

  0
LINE
  5
223C8
330
22237
100
AcDbEntity
  8
SK2
 62
     0
440
 16777216
370
    -2
100
AcDbLine
 10
0.4375
 20
14.37500000000006
 30
0.0
 11
-49.88650877296294
 21
14.37500000000007
 31
0.0
  0
LINE
  5
223C9
330
22237
100
AcDbEntity
  8
SK2
 62
     0
440
 16777216
370
    -2
100
AcDbLine
 10
0.4375
 20
-14.375
 30
0.0
 11
-49.88650877296294
 21
-14.37499999999998
 31
0.0
  0
LINE
  5
223CA
330
22237
100
AcDbEntity
  8
SK2
 62
     0
440
 16777216
370
    -2
100
AcDbLine
 10
-49.70650877296293
 20
9.805000000000074
 30
0.0
 11
-49.70650877296293
 21
-9.804999999999983
 31
0.0
  0
SOLID
  5
223CB
330
22237
100
AcDbEntity
  8
SK2
 62
     0
440
 16777216
100
AcDbTrace
 10
-50.4681754396296
 20
9.805000000000074
 30
0.0
 11
-48.94484210629626
 21
9.805000000000074
 31
0.0
 12
-49.70650877296293
 22
14.37500000000007
 32
0.0
 13
-49.70650877296293
 23
14.37500000000007
 33
0.0
  0
SOLID
  5
223CC
330
22237
100
AcDbEntity
  8
SK2
 62
     0
440
 16777216
100
AcDbTrace
 10
-50.4681754396296
 20
-9.804999999999983
 30
0.0
 11
-48.94484210629626
 21
-9.804999999999983
 31
0.0
 12
-49.70650877296293
 22
-14.37499999999998
 32
0.0
 13
-49.70650877296293
 23
-14.37499999999998
 33
0.0
  0
MTEXT
  5
223CD
330
22237
100
AcDbEntity
  8
SK2
 62
     0
440
 16777216
100
AcDbMText
 10
-51.65965002384137
 20
-0.2783928966275651
 30
0.0
 40
3.5
 41
0.0
 46
0.0
 71
     5
 72
     1
  1
\A1;%%C29
 11
0.0000000000000001
 21
1.0
 31
0.0
 73
     1
 44
1.0
  0
POINT
  5
223CE
330
22237
100
AcDbEntity
  8
Defpoints
 62
     0
440
 16777216
100
AcDbPoint
 10
0.5
 20
14.37500000000006
 30
0.0
  0
POINT
  5
223CF
330
22237
100
AcDbEntity
  8
Defpoints
 62
     0
440
 16777216
100
AcDbPoint
 10
0.5
 20
-14.375
 30
0.0
  0
POINT
  5
223D0
330
22237
100
AcDbEntity
  8
Defpoints
 62
     0
440
 16777216
100
AcDbPoint
 10
-49.70650877296293
 20
-14.37499999999998
 30
0.0
  0
ENDBLK
  5
22239
330
22237
100
AcDbEntity
  8
0
100
AcDbBlockEnd
  0
BLOCK
  5
22269
330
22268
100
AcDbEntity
  8
0
100
AcDbBlockBegin
  2
*D4
 70
     1
 10
0.0
 20
0.0
 30
0.0
  3
*D4
  1

  0
LINE
  5
2230A
330
22268
100
AcDbEntity
  8
SK2
 62
     0
440
 16777216
370
    -2
100
AcDbLine
 10
-23.16250000000002
 20
8.000000000066677
 30
0.0
 11
-36.86637912969644
 21
8.000000000066679
 31
0.0
  0
LINE
  5
2230B
330
22268
100
AcDbEntity
  8
SK2
 62
     0
440
 16777216
370
    -2
100
AcDbLine
 10
-23.16250000000002
 20
-8.000000000099987
 30
0.0
 11
-36.86637912969644
 21
-8.000000000099984
 31
0.0
  0
LINE
  5
2230C
330
22268
100
AcDbEntity
  8
SK2
 62
     0
440
 16777216
370
    -2
100
AcDbLine
 10
-36.68637912969643
 20
3.430000000066676
 30
0.0
 11
-36.68637912969643
 21
-3.430000000099981
 31
0.0
  0
SOLID
  5
2230D
330
22268
100
AcDbEntity
  8
SK2
 62
     0
440
 16777216
100
AcDbTrace
 10
-37.44804579636311
 20
3.43000000006668
 30
0.0
 11
-35.92471246302976
 21
3.430000000066676
 31
0.0
 12
-36.68637912969643
 22
8.000000000066679
 32
0.0
 13
-36.68637912969643
 23
8.000000000066679
 33
0.0
  0
SOLID
  5
2230E
330
22268
100
AcDbEntity
  8
SK2
 62
     0
440
 16777216
100
AcDbTrace
 10
-37.44804579636311
 20
-3.430000000099981
 30
0.0
 11
-35.92471246302976
 21
-3.430000000099981
 31
0.0
 12
-36.68637912969643
 22
-8.000000000099984
 32
0.0
 13
-36.68637912969643
 23
-8.000000000099984
 33
0.0
  0
MTEXT
  5
2230F
330
22268
100
AcDbEntity
  8
SK2
 62
     0
440
 16777216
100
AcDbMText
 10
-38.63952038057486
 20
-0.508630614736603
 30
0.0
 40
3.5
 41
0.0
 46
0.0
 71
     5
 72
     1
  1
\A1;%%C16
 11
0.0000000000000001
 21
1.0
 31
0.0
 73
     1
 44
1.0
1001
ACAD
1000
MTEXTBEGIN
1070
    73
1070
     1
1070
    44
1040
1.0
1070
    74
1070
     0
1000
MTEXTEND
  0
POINT
  5
22310
330
22268
100
AcDbEntity
  8
Defpoints
 62
     0
440
 16777216
100
AcDbPoint
 10
-23.10000000000002
 20
8.000000000066677
 30
0.0
  0
POINT
  5
22311
330
22268
100
AcDbEntity
  8
Defpoints
 62
     0
440
 16777216
100
AcDbPoint
 10
-23.10000000000002
 20
-8.000000000099987
 30
0.0
  0
POINT
  5
22312
330
22268
100
AcDbEntity
  8
Defpoints
 62
     0
440
 16777216
100
AcDbPoint
 10
-36.68637912969643
 20
-8.000000000099984
 30
0.0
  0
ENDBLK
  5
2226A
330
22268
100
AcDbEntity
  8
0
100
AcDbBlockEnd
  0
BLOCK
  5
222AD
330
222AC
100
AcDbEntity
  8
0
100
AcDbBlockBegin
  2
*D5
 70
     1
 10
0.0
 20
0.0
 30
0.0
  3
*D5
  1

  0
LINE
  5
22313
330
222AC
100
AcDbEntity
  8
2
 62
     0
440
 16777216
370
    -2
100
AcDbLine
 10
42.68423174662127
 20
14.99946863760377
 30
0.0
 11
60.30392798910059
 21
14.99946863760376
 31
0.0
  0
LINE
  5
22314
330
222AC
100
AcDbEntity
  8
2
 62
     0
440
 16777216
370
    -2
100
AcDbLine
 10
42.61921199999995
 20
-14.997885
 30
0.0
 11
60.30392798910059
 21
-14.997885
 31
0.0
  0
LINE
  5
22315
330
222AC
100
AcDbEntity
  8
2
 62
     0
440
 16777216
370
    -2
100
AcDbLine
 10
60.1239279891006
 20
10.42946863760376
 30
0.0
 11
60.1239279891006
 21
-10.427885
 31
0.0
  0
SOLID
  5
22316
330
222AC
100
AcDbEntity
  8
2
 62
     0
440
 16777216
100
AcDbTrace
 10
59.36226132243392
 20
10.42946863760376
 30
0.0
 11
60.88559465576725
 21
10.42946863760376
 31
0.0
 12
60.1239279891006
 22
14.99946863760376
 32
0.0
 13
60.1239279891006
 23
14.99946863760376
 33
0.0
  0
SOLID
  5
22317
330
222AC
100
AcDbEntity
  8
2
 62
     0
440
 16777216
100
AcDbTrace
 10
59.36226132243392
 20
-10.427885
 30
0.0
 11
60.88559465576725
 21
-10.427885
 31
0.0
 12
60.1239279891006
 22
-14.997885
 32
0.0
 13
60.1239279891006
 23
-14.997885
 33
0.0
  0
MTEXT
  5
22318
330
222AC
100
AcDbEntity
  8
2
 62
     0
440
 16777216
100
AcDbMText
 10
58.17078673822217
 20
0.1236813744933445
 30
0.0
 40
3.5
 41
0.0
 46
0.0
 71
     5
 72
     1
  1
\A1;%%C30
 11
0.0000000000000001
 21
1.0
 31
0.0
 73
     1
 44
1.0
1001
ACAD
1000
MTEXTBEGIN
1070
    73
1070
     1
1070
    44
1040
1.0
1070
    74
1070
     0
1000
MTEXTEND
  0
POINT
  5
22319
330
222AC
100
AcDbEntity
  8
Defpoints
 62
     0
440
 16777216
100
AcDbPoint
 10
42.62173174662128
 20
14.99946863760377
 30
0.0
  0
POINT
  5
2231A
330
222AC
100
AcDbEntity
  8
Defpoints
 62
     0
440
 16777216
100
AcDbPoint
 10
42.55671199999992
 20
-14.997885
 30
0.0
  0
POINT
  5
2231B
330
222AC
100
AcDbEntity
  8
Defpoints
 62
     0
440
 16777216
100
AcDbPoint
 10
60.1239279891006
 20
-14.997885
 30
0.0
  0
ENDBLK
  5
222AE
330
222AC
100
AcDbEntity
  8
0
100
AcDbBlockEnd
  0
ENDSEC
  0
SECTION
  2
ENTITIES
  0
INSERT
  5
20A18
330
1F
100
AcDbEntity
  8
1
100
AcDbBlockReference
  2
cero_point
 10
0.0000000000002274
 20
0.0
 30
0.0
 41
0.5
 42
0.5
 43
0.5
  0
LINE
  5
20B14
330
1F
100
AcDbEntity
  8
INFTOTAL
370
    18
100
AcDbLine
 10
83.72842782900352
 20
-36.91105232878225
 30
0.0
 11
83.72842782900352
 21
-11.58887225922416
 31
0.0
  0
LINE
  5
20B15
330
1F
100
AcDbEntity
  8
INFTOTAL
370
    18
100
AcDbLine
 10
-59.39114455091338
 20
43.91820597553606
 30
0.0
 11
-31.07543052390747
 21
43.91820597553606
 31
0.0
  0
LINE
  5
20B16
330
1F
100
AcDbEntity
  8
INFTOTAL
370
    18
100
AcDbLine
 10
57.58083215969215
 20
-36.91105232878225
 30
0.0
 11
83.72842782900352
 21
-36.91105232878225
 31
0.0
  0
LINE
  5
20B17
330
1F
100
AcDbEntity
  8
INFTOTAL
370
    18
100
AcDbLine
 10
-59.39114455091338
 20
17.99914033530743
 30
0.0
 11
-59.39114455091338
 21
43.918205975536
 31
0.0
  0
MTEXT
  5
211A0
330
1F
100
AcDbEntity
  8
SK6
100
AcDbMText
 10
41.33910960799949
 20
-27.59305272102807
 30
0.0
 40
3.5
 41
41.87058589293636
 46
0.0
 71
     2
 72
     1
  1
12F1D030043X8R00
 73
     1
 44
1.0
1001
ACAD
1000
MTEXTBEGIN
1070
    73
1070
     1
1070
    44
1040
1.0
1070
    74
1070
     0
1000
MTEXTEND
  0
DIMENSION
  5
220EC
330
1F
100
AcDbEntity
  8
2
100
AcDbDimension
280
     0
  2
*D1
 10
0.0000000000000006
 20
25.9000795785667
 30
0.0
 11
21.5
 21
25.9000795785667
 31
0.0
 70
   160
 71
     5
 42
43.0
 73
     0
 74
     0
 75
     0
  3
STANDARD
100
AcDbAlignedDimension
 13
43.0
 23
14.81983701602246
 33
0.0
 14
0.0
 24
16.63064131606666
 34
0.0
 50
180.0
100
AcDbRotatedDimension
  0
LINE
  5
220ED
330
1F
100
AcDbEntity
  8
1
100
AcDbLine
 10
42.99997895950002
 20
-1.746629851899967
 30
0.0
 11
42.99861346676664
 21
-1.764097624533349
 31
0.0
  0
LINE
  5
220EE
330
1F
100
AcDbEntity
  8
1
100
AcDbLine
 10
42.99997895950002
 20
14.42890975433335
 30
0.0
 11
42.99861346676664
 21
13.42818173186669
 31
0.0
  0
LINE
  5
220F0
330
1F
100
AcDbEntity
  8
1
100
AcDbLine
 10
42.71394640929996
 20
14.36776095329998
 30
0.0
 11
42.7129058813
 21
13.60518967766671
 31
0.0
  0
LINE
  5
220F2
330
1F
100
AcDbEntity
  8
1
100
AcDbLine
 10
42.60000000000002
 20
2.319075304833345
 30
0.0
 11
42.60000000000002
 21
1.999401010266694
 31
0.0
  0
LINE
  5
220F3
330
1F
100
AcDbEntity
  8
1
100
AcDbLine
 10
42.60000000000002
 20
-2.553484140999954
 30
0.0
 11
42.60000000000002
 21
-0.4805989897333234
 31
0.0
  0
LINE
  5
220F4
330
1F
100
AcDbEntity
  8
1
100
AcDbLine
 10
42.60000000000002
 20
13.4090349668333
 30
0.0
 11
42.60000000000002
 21
14.14806970910001
 31
0.0
  0
LINE
  5
220F5
330
1F
100
AcDbEntity
  8
1
100
AcDbLine
 10
42.33159597133329
 20
14.33608666586667
 30
0.0
 11
42.33159597133329
 21
14.06619907279997
 31
0.0
  0
LINE
  5
220F6
330
1F
100
AcDbEntity
  8
1
100
AcDbLine
 10
42.33159597133329
 20
-0.4805989897333234
 30
0.0
 11
42.33159597133329
 21
-2.778223311233318
 31
0.0
  0
LINE
  5
220F7
330
1F
100
AcDbEntity
  8
1
100
AcDbLine
 10
41.07384247546668
 20
-3.831361292966616
 30
0.0
 11
41.07384247546668
 21
-0.4805989897333234
 31
0.0
  0
LINE
  5
220F8
330
1F
100
AcDbEntity
  8
1
100
AcDbLine
 10
41.07384247546668
 20
13.34088966636665
 30
0.0
 11
41.07384247546668
 21
13.87810570923335
 31
0.0
  0
LINE
  5
220F9
330
1F
100
AcDbEntity
  8
1
100
AcDbLine
 10
42.99997895950002
 20
-14.46600735639998
 30
0.0
 11
42.99861346676664
 21
-13.46512689496666
 31
0.0
  0
LWPOLYLINE
  5
220FA
330
1F
100
AcDbEntity
  8
1
100
AcDbPolyline
 90
       16
 70
     0
 43
0.0
 10
42.60000000000002
 20
13.91769444776668
 10
42.59841812986667
 20
13.94290110526668
 10
42.59391809466672
 20
13.96668974616665
 10
42.58649989439994
 20
13.9890603705
 10
42.57598278273337
 20
14.01037430963333
 10
42.56254750603329
 20
14.03027023220005
 10
42.54673630323338
 20
14.04766414396664
 10
42.52845639773329
 20
14.06242560866661
 10
42.50780056616668
 20
14.07468506256669
 10
42.48558937733331
 20
14.08374982003335
 10
42.46171505450002
 20
14.08951733006671
 10
42.43628537436666
 20
14.09209014366666
 10
42.41044423610002
 20
14.091083228
 10
42.38457293936664
 20
14.08636823883336
 10
42.35829018443324
 20
14.07807352043335
 10
42.33159597133329
 20
14.06619907279997
  0
LWPOLYLINE
  5
220FB
330
1F
100
AcDbEntity
  8
1
100
AcDbPolyline
 90
        9
 70
     0
 43
0.0
 10
40.98719224043327
 20
1.999401010266694
 10
40.98609290119997
 20
2.015972760699979
 10
40.98450778536665
 20
2.052298249399995
 10
40.98371248373324
 20
2.090251932666717
 10
40.98376348523331
 20
2.129600501966705
 10
40.98448752856664
 20
2.170436847633311
 10
40.98591838499999
 20
2.212615118833355
 10
40.98822720403325
 20
2.25570869239999
 10
40.99148599423336
 20
2.299401010266648
  0
LINE
  5
220FC
330
1F
100
AcDbEntity
  8
1
100
AcDbLine
 10
42.78247160230001
 20
0.1135378611333522
 30
0.0
 11
42.99861346676664
 21
-1.764097624533349
 31
0.0
  0
LINE
  5
220FD
330
1F
100
AcDbEntity
  8
1
100
AcDbLine
 10
42.78385865383336
 20
0.1255640721333293
 30
0.0
 11
42.99997852213333
 21
-1.746606377966656
 31
0.0
  0
LWPOLYLINE
  5
220FE
330
1F
100
AcDbEntity
  8
1
100
AcDbPolyline
 90
       17
 70
     0
 43
0.0
 10
40.26300647660002
 20
10.75666388093333
 10
40.15736569119996
 20
10.97652846576665
 10
40.01102505796665
 20
11.17168981946668
 10
39.82955864613325
 20
11.33471430676667
 10
39.61592523153331
 20
11.46123887366667
 10
39.3857344948334
 20
11.54201867386672
 10
39.14423510280007
 20
11.57655589666666
 10
38.90062569226666
 20
11.56353502990004
 10
38.6600840486334
 20
11.50196278039999
 10
38.4401859722667
 20
11.39633808463333
 10
38.24499488999993
 20
11.25001973976663
 10
38.08194556953333
 20
11.06858096613331
 10
37.95540172936661
 20
10.85498008893336
 10
37.87460962413331
 20
10.62482441139997
 10
37.84006714036662
 20
10.38336180089999
 10
37.85308999056667
 20
10.13978949326667
 10
37.91467165669997
 20
9.899284382666676
  0
LWPOLYLINE
  5
220FF
330
1F
100
AcDbEntity
  8
1
100
AcDbPolyline
 90
        7
 70
     0
 43
0.0
 10
41.06723742890006
 20
-4.619166233899988
 10
41.06079076726667
 20
-4.65909561706661
 10
41.05585519083331
 20
-4.697826228999986
 10
41.05243069959999
 20
-4.735358069699997
 10
41.0505172935667
 20
-4.771691139200012
 10
41.05011497273334
 20
-4.806825437499981
 10
41.05122373710003
 20
-4.84076096459995
  0
LINE
  5
22100
330
1F
100
AcDbEntity
  8
1
100
AcDbLine
 10
42.71394640929996
 20
-0.4805989897333234
 30
0.0
 11
42.99997895950002
 21
1.999401010266694
 31
0.0
  0
LINE
  5
22101
330
1F
100
AcDbEntity
  8
1
100
AcDbLine
 10
42.47824746863329
 20
1.983112317400014
 30
0.0
 11
42.48012613653338
 21
1.999401010266694
 31
0.0
  0
LINE
  5
22102
330
1F
100
AcDbEntity
  8
1
100
AcDbLine
 10
40.90283240380006
 20
13.8479384838667
 30
0.0
 11
40.90283240380006
 21
13.26745813313334
 31
0.0
  0
LINE
  5
22103
330
1F
100
AcDbEntity
  8
1
100
AcDbLine
 10
40.90283240380006
 20
-0.4805989897333234
 30
0.0
 11
40.90283240380006
 21
-3.974550878466683
 31
0.0
  0
LINE
  5
22104
330
1F
100
AcDbEntity
  8
1
100
AcDbLine
 10
39.00259689096664
 20
-0.4805989897333234
 30
0.0
 11
39.00259689096664
 21
0.6026293115333488
 31
0.0
  0
LWPOLYLINE
  5
22105
330
1F
100
AcDbEntity
  8
1
100
AcDbPolyline
 90
       43
 70
     0
 43
0.0
 10
38.31383904789993
 20
10.32971942376667
 10
38.31610629379998
 20
10.27128291180003
 10
38.32258324980001
 20
10.21380709236666
 10
38.33326991596664
 20
10.15729196546664
 10
38.34827274326665
 20
10.10143335796664
 10
38.36748528069995
 20
10.04653544299998
 10
38.39058817529997
 20
9.993510739966666
 10
38.41764645326668
 20
9.942390559033301
 10
38.44859508843331
 20
9.893143590066692
 10
38.48291964899999
 20
9.846588421700003
 10
38.5206765626333
 20
9.802770046733314
 10
38.56180940173329
 20
9.76164347240001
 10
38.6056344514667
 20
9.723892309299968
 10
38.65219671146667
 20
9.689572976533328
 10
38.70145118213338
 20
9.658629055000004
 10
38.75257915009991
 20
9.631574898133351
 10
38.80561193029996
 20
9.608475522199967
 10
38.86051820776663
 20
9.589265910933306
 10
38.91638532409991
 20
9.574265368666658
 10
38.97322933946668
 20
9.563544248766676
 10
39.03103419366664
 20
9.557032197866703
 10
39.08883904790002
 20
9.554837459999987
 10
39.14664390213329
 20
9.557032197866703
 10
39.20444875636667
 20
9.563544248766676
 10
39.26129277173334
 20
9.574265368666658
 10
39.31715988806661
 20
9.589265910933306
 10
39.37206616553329
 20
9.608475522199967
 10
39.42509894573334
 20
9.631574898133351
 10
39.47622691366666
 20
9.658629055000004
 10
39.52548138436668
 20
9.689572976533328
 10
39.57204364436666
 20
9.723892309299968
 10
39.61586869409996
 20
9.76164347240001
 10
39.65700153316664
 20
9.802770046733314
 10
39.69475844683336
 20
9.846588421700003
 10
39.72908300739994
 20
9.893143590066692
 10
39.76003164253337
 20
9.942390559033301
 10
39.78708992053327
 20
9.993510739966666
 10
39.81019281513329
 20
10.04653544299998
 10
39.82940535256659
 20
10.10143335796664
 10
39.84440817986672
 20
10.15729196546664
 10
39.85509484600004
 20
10.21380709236666
 10
39.86157180203338
 20
10.27128291180003
 10
39.8638390479
 20
10.32971942376667
  0
LWPOLYLINE
  5
22106
330
1F
100
AcDbEntity
  8
1
100
AcDbPolyline
 90
        7
 70
     0
 43
0.0
 10
40.98607920109997
 20
-4.019529543766623
 10
40.9845002075666
 20
-3.991194516800021
 10
40.9837104909667
 20
-3.966485372433281
 10
40.98376503473331
 20
-3.945442948366633
 10
40.98449237413331
 20
-3.92818080316664
 10
40.98592582216666
 20
-3.914844834699977
 10
40.98823359573327
 20
-3.905529830466662
  0
LINE
  5
22107
330
1F
100
AcDbEntity
  8
1
100
AcDbLine
 10
40.03671679703336
 20
10.32797059243336
 30
0.0
 11
40.02423314856661
 21
10.49389431083335
 31
0.0
  0
LINE
  5
22108
330
1F
100
AcDbEntity
  8
1
100
AcDbLine
 10
38.15344494723332
 20
10.1620540554
 30
0.0
 11
38.14096129879999
 21
10.3279777738
 31
0.0
  0
LWPOLYLINE
  5
22109
330
1F
100
AcDbEntity
  8
1
100
AcDbPolyline
 90
        5
 70
     0
 43
0.0
 10
40.99995523283324
 20
-4.166422215933323
 10
40.99539517213327
 20
-4.124923527233304
 10
40.99149567616666
 20
-4.08647934969997
 10
40.98835321773331
 20
-4.05135305826667
 10
40.98607920109997
 20
-4.019529543766623
  0
LINE
  5
2210A
330
1F
100
AcDbEntity
  8
1
100
AcDbLine
 10
41.16704857169998
 20
-3.986593852833323
 30
0.0
 11
41.14260579276661
 21
-3.773784620399965
 31
0.0
  0
LWPOLYLINE
  5
2210B
330
1F
100
AcDbEntity
  8
1
100
AcDbPolyline
 90
        4
 70
     0
 43
0.0
 10
41.27725318333328
 20
-4.873744639633343
 10
41.25486135413336
 20
-4.701790434299994
 10
41.20961176576668
 20
-4.340217291100032
 10
41.16704857169998
 20
-3.986593852833323
  0
LWPOLYLINE
  5
2210C
330
1F
100
AcDbEntity
  8
1
100
AcDbPolyline
 90
        5
 70
     0
 43
0.0
 10
41.02502005743338
 20
-4.354013275133352
 10
41.01787375153333
 20
-4.304755347099955
 10
41.01137363293331
 20
-4.256552035866659
 10
41.00534779336668
 20
-4.210343458299973
 10
40.99995523283324
 20
-4.166422215933323
  0
LWPOLYLINE
  5
2210D
330
1F
100
AcDbEntity
  8
1
100
AcDbPolyline
 90
        5
 70
     0
 43
0.0
 10
37.61190099423334
 20
10.11159777806665
 10
37.60201758503331
 20
10.17535530059996
 10
37.59486682399995
 20
10.23951601693335
 10
37.59047132416663
 20
10.3039627064
 10
37.58883904790002
 20
10.37395248326669
  0
LINE
  5
2210E
330
1F
100
AcDbEntity
  8
1
100
AcDbLine
 10
41.0484682251
 20
-4.504738548899978
 30
0.0
 11
41.02502005743338
 21
-4.354013275133352
 31
0.0
  0
LINE
  5
2210F
330
1F
100
AcDbEntity
  8
1
100
AcDbLine
 10
41.0484682251
 20
-4.504738548899978
 30
0.0
 11
41.06723742890006
 21
-4.619166233899988
 31
0.0
  0
LINE
  5
22110
330
1F
100
AcDbEntity
  8
1
100
AcDbLine
 10
42.99861346676664
 20
-13.46512689496666
 30
0.0
 11
41.55084786376664
 21
-5.203860770066683
 31
0.0
  0
LINE
  5
22111
330
1F
100
AcDbEntity
  8
1
100
AcDbLine
 10
41.05515271523325
 20
-4.865036334433341
 30
0.0
 11
41.05093262620004
 21
-4.841004716599965
 31
0.0
  0
LINE
  5
22112
330
1F
100
AcDbEntity
  8
1
100
AcDbLine
 10
41.55084786376664
 20
-5.203860770066683
 30
0.0
 11
41.54224096576661
 21
-5.166334291966617
 31
0.0
  0
LWPOLYLINE
  5
22113
330
1F
100
AcDbEntity
  8
1
100
AcDbPolyline
 90
       18
 70
     0
 43
0.0
 10
38.15344494723332
 20
10.1620540554
 10
38.20122814230001
 20
9.995388270166642
 10
38.27065872496667
 20
9.846922691600012
 10
38.36173669519997
 20
9.716657319700003
 10
38.47846261616668
 20
9.601797594466683
 10
38.61683592473332
 20
9.50513807586668
 10
38.76485493136659
 20
9.435062443899994
 10
38.9233811549999
 20
9.393945075499972
 10
39.09155307670005
 20
9.379411593700011
 10
39.25478444993326
 20
9.3927225475
 10
39.41263400263336
 20
9.436364901600027
 10
39.56554300686672
 20
9.507851691300004
 10
39.7002490320333
 20
9.600982571600011
 10
39.81512625363336
 20
9.717690714666671
 10
39.91180049616661
 20
9.8560429483
 10
39.98188680263331
 20
10.00403941090002
 10
40.02259018736663
 20
10.15768014860003
 10
40.03671679703336
 20
10.32797059243336
  0
LWPOLYLINE
  5
22114
330
1F
100
AcDbEntity
  8
1
100
AcDbPolyline
 90
       17
 70
     0
 43
0.0
 10
37.91467161923332
 20
9.899284485300027
 10
38.02031240459996
 20
9.679419900466712
 10
38.1666530378667
 20
9.484258546733316
 10
38.34811944969999
 20
9.321234059466688
 10
38.56175286430005
 20
9.194709492566687
 10
38.79194360099996
 20
9.113929692333327
 10
39.03344299303331
 20
9.079392469566695
 10
39.27705240356671
 20
9.092413336333322
 10
39.51759404719997
 20
9.1539855858
 10
39.73749212356665
 20
9.259610281600032
 10
39.93268320583331
 20
9.405928626466675
 10
40.0957325262999
 20
9.587367400099992
 10
40.22227636643331
 20
9.800968277266687
 10
40.30306847169993
 20
10.03112395479996
 10
40.33761095546663
 20
10.27258656530006
 10
40.32458810526668
 20
10.51615887296662
 10
40.26300643909997
 20
10.75666398356662
  0
LWPOLYLINE
  5
22115
330
1F
100
AcDbEntity
  8
1
100
AcDbPolyline
 90
        7
 70
     0
 43
0.0
 10
37.8500081218
 20
9.524504018266668
 10
37.79287837083336
 20
9.615779673199995
 10
37.74254179166667
 20
9.710380019666672
 10
37.69916665686662
 20
9.807785778700008
 10
37.66288160329998
 20
9.907473502366656
 10
37.63377607856671
 20
10.00891851866669
 10
37.61190099423334
 20
10.11159777806665
  0
LINE
  5
22117
330
1F
100
AcDbEntity
  8
1
100
AcDbLine
 10
41.55084786376664
 20
5.168173837766686
 30
0.0
 11
41.54258619936661
 21
5.132907030133367
 31
0.0
  0
LINE
  5
22118
330
1F
100
AcDbEntity
  8
1
100
AcDbLine
 10
41.55084786376664
 20
5.168173837766686
 30
0.0
 11
41.54224096576661
 21
5.130653075166661
 31
0.0
  0
LINE
  5
22121
330
1F
100
AcDbEntity
  8
1
100
AcDbLine
 10
42.99861346676664
 20
13.42818173186669
 30
0.0
 11
41.55084786376664
 21
5.168173837766686
 31
0.0
  0
LINE
  5
22122
330
1F
100
AcDbEntity
  8
1
100
AcDbLine
 10
42.7129058813
 20
13.60518967766671
 30
0.0
 11
41.63729572423335
 21
7.468458448599957
 31
0.0
  0
LWPOLYLINE
  5
22123
330
1F
100
AcDbEntity
  8
1
100
AcDbPolyline
 90
       25
 70
     0
 43
0.0
 10
42.60000000000002
 20
13.4090349668333
 10
42.48796880299994
 20
12.7428219956667
 10
42.38015880463331
 20
12.09755347393337
 10
42.27657000496662
 20
11.47322940160001
 10
42.17722962269998
 20
10.8701859622667
 10
42.08211043913332
 20
10.28808697230005
 10
41.99113079803338
 20
9.725923881066648
 10
41.90429537919999
 20
9.183734732566676
 10
41.82159950280004
 20
8.661481482766646
 10
41.7429474734333
 20
8.158041448899949
 10
41.66834743499999
 20
7.67344791186673
 10
41.59779124356655
 20
7.207667590799982
 10
41.53115877203332
 20
6.759477960466651
 10
41.46854935919995
 20
6.329595079333387
 10
41.40986366629999
 20
5.917302888899996
 10
41.35468354976672
 20
5.519230688599972
 10
41.30310839599997
 20
5.136567318466688
 10
41.25503881863335
 20
4.768123938400036
 10
41.20975851506671
 20
4.406963327399978
 10
41.16716697129993
 20
4.053723536266659
 10
41.12736470133325
 20
3.707766514200042
 10
41.08993694466664
 20
3.360240887900033
 10
41.05474544786659
 20
3.008196199566667
 10
41.02192846440003
 20
2.654582907033326
 10
40.99148599423336
 20
2.299401010266648
  0
LINE
  5
22124
330
1F
100
AcDbEntity
  8
1
100
AcDbLine
 10
41.54258619936661
 20
5.132907030133367
 30
0.0
 11
41.54224096576661
 21
5.130653075166661
 31
0.0
  0
LWPOLYLINE
  5
22125
330
1F
100
AcDbEntity
  8
1
100
AcDbPolyline
 90
       18
 70
     0
 43
0.0
 10
38.14096129879999
 20
10.3279777738
 10
38.15508790846673
 20
10.49826821763332
 10
38.19579129319993
 20
10.65190895530003
 10
38.26587759966662
 20
10.79990541789999
 10
38.36255184219999
 20
10.93825765156663
 10
38.47742906380008
 20
11.05496579463334
 10
38.61213508896663
 20
11.14809667490004
 10
38.76504409320001
 20
11.21958346463333
 10
38.92289364589999
 20
11.26322581873336
 10
39.08612501909999
 20
11.27653677253334
 10
39.25429694079993
 20
11.26200329073333
 10
39.41282316446666
 20
11.22088592233336
 10
39.56084217106661
 20
11.15081029036668
 10
39.69921547963338
 20
11.05415077176667
 10
39.81594140063329
 20
10.93929104653335
 10
39.90701937086658
 20
10.80902567460003
 10
39.97644995350004
 20
10.66056009603335
 10
40.02423314856661
 20
10.49389431083335
  0
LWPOLYLINE
  5
22126
330
1F
100
AcDbEntity
  8
1
100
AcDbPolyline
 90
       21
 70
     0
 43
0.0
 10
37.59327041459993
 20
10.3736919712
 10
37.60183308606668
 20
10.5193448736
 10
37.64447803406665
 20
10.73266093106667
 10
37.72124642166672
 20
10.94137352623335
 10
37.82980074399996
 20
11.14118021323332
 10
37.96312848663331
 20
11.31917365446668
 10
38.12286520946668
 20
11.47391372303337
 10
38.30737535256663
 20
11.60684054590001
 10
38.50473972179997
 20
11.70936716629995
 10
38.71580696283331
 20
11.77948653996662
 10
38.93972842999995
 20
11.81920571116666
 10
39.16203899200002
 20
11.82595885613335
 10
39.38263229560005
 20
11.79756953296663
 10
39.60161469403329
 20
11.73621418353337
 10
39.80484011553335
 20
11.64585630990001
 10
39.99126827253338
 20
11.52458114350003
 10
40.16193945259999
 20
11.37430345290005
 10
40.30582844643332
 20
11.20473104570004
 10
40.41926018436661
 20
11.01909985776666
 10
40.50590973606666
 20
10.81417395326667
 10
40.5657771016
 20
10.58995333213335
  0
LWPOLYLINE
  5
22127
330
1F
100
AcDbEntity
  8
1
100
AcDbPolyline
 90
       43
 70
     0
 43
0.0
 10
38.31383904789993
 20
10.32971942376667
 10
38.31610629379998
 20
10.38815593570001
 10
38.32258324980001
 20
10.44563175513332
 10
38.33326991596664
 20
10.50214688203334
 10
38.34827274326665
 20
10.55800548953334
 10
38.36748528069995
 20
10.6129034045
 10
38.39058817529997
 20
10.66592810756668
 10
38.41764645326668
 20
10.71704828846663
 10
38.44859508843331
 20
10.76629525746665
 10
38.48291964899999
 20
10.81285042580003
 10
38.5206765626333
 20
10.85666880076667
 10
38.56180940173329
 20
10.89779537513334
 10
38.6056344514667
 20
10.93554653819996
 10
38.65219671146667
 20
10.96986587096665
 10
38.70145118213338
 20
11.00080979249998
 10
38.75257915009991
 20
11.0278639494
 10
38.80561193029996
 20
11.05096332530002
 10
38.86051820776663
 20
11.07017293656668
 10
38.91638532409991
 20
11.08517347886669
 10
38.97322933946668
 20
11.09589459873331
 10
39.03103419366664
 20
11.10240664963334
 10
39.08883904790002
 20
11.10460138749999
 10
39.14664390213329
 20
11.10240664963334
 10
39.20444875636667
 20
11.09589459873331
 10
39.26129277173334
 20
11.08517347886669
 10
39.31715988806661
 20
11.07017293656668
 10
39.37206616553329
 20
11.05096332530002
 10
39.42509894573334
 20
11.0278639494
 10
39.47622691366666
 20
11.00080979249998
 10
39.52548138436668
 20
10.96986587096665
 10
39.57204364436666
 20
10.93554653819996
 10
39.61586869409996
 20
10.89779537513334
 10
39.65700153316664
 20
10.85666880076667
 10
39.69475844683336
 20
10.81285042580003
 10
39.72908300739994
 20
10.76629525746665
 10
39.76003164253337
 20
10.71704828846663
 10
39.78708992053327
 20
10.66592810756668
 10
39.81019281513329
 20
10.6129034045
 10
39.82940535256659
 20
10.55800548953334
 10
39.84440817986672
 20
10.50214688203334
 10
39.85509484600004
 20
10.44563175513332
 10
39.86157180203338
 20
10.38815593570001
 10
39.8638390479
 20
10.32971942376667
  0
LWPOLYLINE
  5
22128
330
1F
100
AcDbEntity
  8
1
100
AcDbPolyline
 90
       15
 70
     0
 43
0.0
 10
37.58883904790002
 20
10.37395248326669
 10
37.59001343793329
 20
10.43329132493335
 10
37.59396676143331
 20
10.49782865746664
 10
37.60069820346667
 20
10.56207625906671
 10
37.61019539956658
 20
10.62593348266665
 10
37.62243566343329
 20
10.68926004359997
 10
37.63738825303324
 20
10.75192084380001
 10
37.65502535813335
 20
10.81381829996661
 10
37.67532290373333
 20
10.87486960300003
 10
37.69826432436673
 20
10.93500982433335
 10
37.72379257279999
 20
10.99407565270002
 10
37.75180518319996
 20
11.05184421946666
 10
37.78221671780001
 20
11.10817778493339
 10
37.81497529173328
 20
11.16301686676667
 10
37.8500081218
 20
11.21626744496666
  0
LINE
  5
22129
330
1F
100
AcDbEntity
  8
1
100
AcDbLine
 10
37.8500081218
 20
11.21626744496666
 30
0.0
 11
37.8500081218
 21
12.21360082613336
 31
0.0
  0
LWPOLYLINE
  5
2212A
330
1F
100
AcDbEntity
  8
1
100
AcDbPolyline
 90
        6
 70
     0
 43
0.0
 10
36.79076154123335
 20
1.999401010266694
 10
36.7766740321
 20
2.049401010266649
 10
36.76447638733328
 20
2.10805929410003
 10
36.7556115791333
 20
2.169991487733339
 10
36.75023128679993
 20
2.234137914166693
 10
36.74842756866667
 20
2.299401010266648
  0
LWPOLYLINE
  5
2212B
330
1F
100
AcDbEntity
  8
1
100
AcDbPolyline
 90
        5
 70
     0
 43
0.0
 10
37.89301278356663
 20
2.049401503199984
 10
37.87444211089996
 20
2.108059716366653
 10
37.86094562256665
 20
2.169991804333335
 10
37.85275424273335
 20
2.234138088099996
 10
37.85000812186661
 20
2.299401010266648
  0
LINE
  5
2212C
330
1F
100
AcDbEntity
  8
1
100
AcDbLine
 10
37.9058817818667
 20
2.019401010266673
 30
0.0
 11
37.89301278356663
 21
2.049401503199984
 31
0.0
  0
LINE
  5
2212D
330
1F
100
AcDbEntity
  8
1
100
AcDbLine
 10
42.7129058813
 20
13.60518967766671
 30
0.0
 11
42.99861346676664
 21
13.42818173186669
 31
0.0
  0
LINE
  5
2212E
330
1F
100
AcDbEntity
  8
1
100
AcDbLine
 10
38.87302539730001
 20
1.799401010266649
 30
0.0
 11
38.81064221769998
 21
1.281565305099999
 31
0.0
  0
LWPOLYLINE
  5
2212F
330
1F
100
AcDbEntity
  8
1
100
AcDbPolyline
 90
       16
 70
     0
 43
0.0
 10
38.81064221769998
 20
1.281565305099999
 10
38.78648696376661
 20
1.072858425200024
 10
38.7748124246333
 20
0.9679251074666691
 10
38.76380187683333
 20
0.8623300039000126
 10
38.75340666953332
 20
0.7561057311333457
 10
38.74367545359996
 20
0.649230397066674
 10
38.73513577860001
 20
0.5413447303333215
 10
38.72777545859992
 20
0.4323855585666935
 10
38.72160667959997
 20
0.3224275392666982
 10
38.7171935491333
 20
0.2113181419333614
 10
38.71464616236665
 20
0.0990542872000333
 10
38.7138544241667
 20
-0.0143472482666312
 10
38.71505215666673
 20
-0.1290086661333021
 10
38.71831730060001
 20
-0.244965179199994
 10
38.72357191523327
 20
-0.362164986933351
 10
38.73081600056674
 20
-0.4805989897333234
  0
LINE
  5
22130
330
1F
100
AcDbEntity
  8
1
100
AcDbLine
 10
34.56497467110001
 20
1.999401010266694
 30
0.0
 11
34.56715419189993
 21
1.799401010266649
 31
0.0
  0
LINE
  5
22131
330
1F
100
AcDbEntity
  8
1
100
AcDbLine
 10
33.71633222466665
 20
1.799401010266649
 30
0.0
 11
33.6975040189667
 21
1.999401010266694
 31
0.0
  0
LINE
  5
22132
330
1F
100
AcDbEntity
  8
1
100
AcDbLine
 10
41.2096798018
 20
3.640155270133333
 30
0.0
 11
41.1287585791
 21
3.719881948833346
 31
0.0
  0
LINE
  5
22133
330
1F
100
AcDbEntity
  8
1
100
AcDbLine
 10
41.30299584226668
 20
3.549302394533356
 30
0.0
 11
41.2096798018
 21
3.640155270133333
 31
0.0
  0
LINE
  5
22134
330
1F
100
AcDbEntity
  8
1
100
AcDbLine
 10
41.46838423863335
 20
3.390025003299967
 30
0.0
 11
41.30299584226668
 21
3.549302394533356
 31
0.0
  0
LINE
  5
22135
330
1F
100
AcDbEntity
  8
1
100
AcDbLine
 10
41.66814807926663
 20
3.199334197100029
 30
0.0
 11
41.46838423863335
 21
3.390025003299967
 31
0.0
  0
LINE
  5
22136
330
1F
100
AcDbEntity
  8
1
100
AcDbLine
 10
41.99094328103329
 20
2.893270457100015
 30
0.0
 11
41.66814807926663
 21
3.199334197100029
 31
0.0
  0
LINE
  5
22137
330
1F
100
AcDbEntity
  8
1
100
AcDbLine
 10
42.60000000000002
 20
2.319075304833345
 30
0.0
 11
41.99094328103329
 21
2.893270457100015
 31
0.0
  0
LINE
  5
22138
330
1F
100
AcDbEntity
  8
1
100
AcDbLine
 10
33.65561298629997
 20
-10.79271920079998
 30
0.0
 11
33.62741755196669
 21
-10.81893623216666
 31
0.0
  0
LWPOLYLINE
  5
22139
330
1F
100
AcDbEntity
  8
1
100
AcDbPolyline
 90
       10
 70
     0
 43
0.0
 10
31.82861104896665
 20
2.8909385401667
 10
31.83096372223338
 20
2.819388727866678
 10
31.83843377109997
 20
2.748920060233331
 10
31.85102926706668
 20
2.679532537166664
 10
31.86882289973335
 20
2.610726544900046
 10
31.89177469643335
 20
2.543001697200054
 10
31.91973098519998
 20
2.477856835733345
 10
31.95266063489999
 20
2.415791574366664
 10
31.99065585643336
 20
2.356306299200014
 10
32.03375416360007
 20
2.299401010266648
  0
LINE
  5
2213A
330
1F
100
AcDbEntity
  8
1
100
AcDbLine
 10
33.51709054503329
 20
1.799401010266649
 30
0.0
 11
33.49826233936665
 21
1.999401010266694
 31
0.0
  0
LINE
  5
2213B
330
1F
100
AcDbEntity
  8
1
100
AcDbLine
 10
41.00107725343331
 20
-4.882749451800009
 30
0.0
 11
41.05122373710003
 21
-4.84076096459995
 31
0.0
  0
LINE
  5
2213C
330
1F
100
AcDbEntity
  8
1
100
AcDbLine
 10
40.21141176796663
 20
-5.335763335199999
 30
0.0
 11
41.06723742890006
 21
-4.619166233899988
 31
0.0
  0
LINE
  5
2213D
330
1F
100
AcDbEntity
  8
1
100
AcDbLine
 10
40.08619651640002
 20
-5.408284347433323
 30
0.0
 11
33.65561298629997
 21
-10.79271920079998
 31
0.0
  0
LINE
  5
2213E
330
1F
100
AcDbEntity
  8
1
100
AcDbLine
 10
41.0484682251
 20
-4.504738548899978
 30
0.0
 11
38.17100065056673
 21
-6.91409014586668
 31
0.0
  0
LINE
  5
2213F
330
1F
100
AcDbEntity
  8
1
100
AcDbLine
 10
42.60000000000002
 20
-2.553484140999954
 30
0.0
 11
37.8500081218
 21
-6.530731571566661
 31
0.0
  0
LINE
  5
22140
330
1F
100
AcDbEntity
  8
1
100
AcDbLine
 10
36.95926204210002
 20
-7.684270030233335
 30
0.0
 11
36.74842756866667
 21
-7.230895102833298
 31
0.0
  0
LWPOLYLINE
  5
22141
330
1F
100
AcDbEntity
  8
1
100
AcDbPolyline
 90
        4
 70
     0
 43
0.0
 10
32.87205425409991
 20
1.893823575966678
 10
32.85494885346668
 20
1.926408760500009
 10
32.83936400413324
 20
1.963033303400038
 10
32.82546848523328
 20
2.003300581266727
  0
LINE
  5
22142
330
1F
100
AcDbEntity
  8
1
100
AcDbLine
 10
40.95230167576665
 20
-4.906661565299997
 30
0.0
 11
40.08619651640002
 21
-5.408284347433323
 31
0.0
  0
LWPOLYLINE
  5
22143
330
1F
100
AcDbEntity
  8
1
100
AcDbPolyline
 90
        4
 70
     0
 43
0.0
 10
33.39972339510007
 20
-8.817423622733313
 10
33.47694901153329
 20
-8.766542080066642
 10
33.55009186996665
 20
-8.722137171033352
 10
33.61987988716658
 20
-8.685774195600004
  0
LWPOLYLINE
  5
22144
330
1F
100
AcDbEntity
  8
1
100
AcDbPolyline
 90
       16
 70
     0
 43
0.0
 10
28.06285717326671
 20
-13.65779099979994
 10
28.06162413310005
 20
-13.6663067842
 10
28.06606895873335
 20
-13.67439899216668
 10
28.07619165016661
 20
-13.6820832657333
 10
28.09213045196668
 20
-13.68944234776666
 10
28.11374711959991
 20
-13.69642053116666
 10
28.14062691929996
 20
-13.70283834053333
 10
28.17285115153334
 20
-13.70871966623332
 10
28.21033851583332
 20
-13.71409124370001
 10
28.25243037689995
 20
-13.71879905803331
 10
28.29942532886673
 20
-13.72287582819996
 10
28.35102477759995
 20
-13.72634467606667
 10
28.40567430520002
 20
-13.72904974983333
 10
28.46285577243327
 20
-13.73095581746662
 10
28.52308731849996
 20
-13.73213998966668
 10
28.58636894349991
 20
-13.73261286153331
  0
LWPOLYLINE
  5
22145
330
1F
100
AcDbEntity
  8
1
100
AcDbPolyline
 90
       16
 70
     0
 43
0.0
 10
28.06285717326671
 20
2.299401010266648
 10
28.06162413310005
 20
2.248234614099998
 10
28.06606895873335
 20
2.198479520633382
 10
28.07619165016661
 20
2.15013895133336
 10
28.09213045196668
 20
2.102776309299994
 10
28.11374711959991
 20
2.056833642666672
 10
28.14062691929996
 20
2.013633882633313
 10
28.17285115153334
 20
1.973196673699985
 10
28.21033851583332
 20
1.935510619800025
 10
28.25243037689995
 20
1.901854990666663
 10
28.29942532886673
 20
1.872212328733379
 10
28.35102477759995
 20
1.846608197166688
 10
28.40567430520002
 20
1.826387956366659
 10
28.46285577243327
 20
1.812002300966696
 10
28.52308731849996
 20
1.803006185366655
 10
28.58636894349991
 20
1.799401010266649
  0
LINE
  5
22146
330
1F
100
AcDbEntity
  8
1
100
AcDbLine
 10
32.99535687673336
 20
-9.527618234566659
 30
0.0
 11
32.82546848523328
 21
-9.162293077500008
 31
0.0
  0
LINE
  5
22147
330
1F
100
AcDbEntity
  8
1
100
AcDbLine
 10
38.17100065056673
 20
-6.91409014586668
 30
0.0
 11
37.85000812186661
 21
-6.530731571533292
 31
0.0
  0
LWPOLYLINE
  5
22148
330
1F
100
AcDbEntity
  8
1
100
AcDbPolyline
 90
       16
 70
     0
 43
0.0
 10
32.03375416360007
 20
2.299401010266648
 10
32.0658556374666
 20
2.265252504133343
 10
32.10140630556669
 20
2.233014619900016
 10
32.14036350906667
 20
2.202771389433336
 10
32.18281160483332
 20
2.174755144366653
 10
32.22857313646672
 20
2.148880683633365
 10
32.27722486990001
 20
2.12480582403333
 10
32.32871597396672
 20
2.102647446366688
 10
32.3830200256333
 20
2.082551604666662
 10
32.43976695566664
 20
2.064332962866672
 10
32.49889325516665
 20
2.048211450800009
 10
32.56036560303336
 20
2.034353893366699
 10
32.62386165683336
 20
2.022648646899995
 10
32.68922564083335
 20
2.013304507833311
 10
32.75646116190002
 20
2.006748752233363
 10
32.82546848523328
 20
2.003300581266727
  0
LWPOLYLINE
  5
22149
330
1F
100
AcDbEntity
  8
1
100
AcDbPolyline
 90
        4
 70
     0
 43
0.0
 10
32.62386165683336
 20
-9.243750478100023
 10
32.68922564083335
 20
-9.218375806999972
 10
32.75646116190002
 20
-9.191198424266644
 10
32.82546848523328
 20
-9.162293077500008
  0
LINE
  5
2214A
330
1F
100
AcDbEntity
  8
1
100
AcDbLine
 10
36.95926204210002
 20
-7.684270030233335
 30
0.0
 11
32.99535687673336
 21
-9.527618234566659
 31
0.0
  0
LINE
  5
2214B
330
1F
100
AcDbEntity
  8
1
100
AcDbLine
 10
36.7484274607333
 20
-7.230895153000004
 30
0.0
 11
32.7845224033
 21
-9.07424330716668
 31
0.0
  0
LINE
  5
2214C
330
1F
100
AcDbEntity
  8
1
100
AcDbLine
 10
32.82546848523328
 20
-9.162293077500008
 30
0.0
 11
32.93564512706666
 21
-9.109540269766679
 31
0.0
  0
LWPOLYLINE
  5
2214D
330
1F
100
AcDbEntity
  8
1
100
AcDbPolyline
 90
        9
 70
     0
 43
0.0
 10
32.04847759109998
 20
-9.455296698433301
 10
32.0658556374666
 20
-9.446463146999974
 10
32.10140630556669
 20
-9.429990467699953
 10
32.14036350906667
 20
-9.413413302399987
 10
32.18281160483332
 20
-9.396998412466643
 10
32.22857313646672
 20
-9.380601983166622
 10
32.27722486990001
 20
-9.363618168499952
 10
32.32871597396672
 20
-9.346046252899952
 10
32.3830200256333
 20
-9.32793932269999
  0
LWPOLYLINE
  5
2214E
330
1F
100
AcDbEntity
  8
1
100
AcDbPolyline
 90
        5
 70
     0
 43
0.0
 10
32.93564512706666
 20
-9.109540269766679
 10
33.03953071759997
 20
-9.053813376233335
 10
33.13735065219999
 20
-8.995597083266659
 10
33.22983602523334
 20
-8.934896176566667
 10
33.39972339510007
 20
-8.817423622733313
  0
LINE
  5
2214F
330
1F
100
AcDbEntity
  8
1
100
AcDbLine
 10
42.47824746863329
 20
1.983112317400014
 30
0.0
 11
42.44332380419996
 21
1.999401010266694
 31
0.0
  0
LINE
  5
22150
330
1F
100
AcDbEntity
  8
1
100
AcDbLine
 10
0.5
 20
-14.375
 30
0.0
 11
5.0
 21
-14.375
 31
0.0
  0
LINE
  5
22151
330
1F
100
AcDbEntity
  8
1
100
AcDbLine
 10
16.0
 20
-14.375
 30
0.0
 11
19.73159855929998
 21
-14.375
 31
0.0
  0
LINE
  5
22152
330
1F
100
AcDbEntity
  8
1
100
AcDbLine
 10
21.45540187683332
 20
-14.22530467156667
 30
0.0
 11
22.74459812320003
 21
-13.99969532843335
 31
0.0
  0
LWPOLYLINE
  5
22153
330
1F
100
AcDbEntity
  8
1
100
AcDbPolyline
 90
        4
 70
     0
 43
0.0
 10
32.3830200256333
 20
-9.32793932269999
 10
32.49889325516665
 20
-9.288396171999977
 10
32.56036560303336
 20
-9.267005430966662
 10
32.62386165683336
 20
-9.243750478100023
  0
LINE
  5
22154
330
1F
100
AcDbEntity
  8
1
100
AcDbLine
 10
34.81642202853334
 20
-12.05075035156665
 30
0.0
 11
34.78853207486668
 21
-12.05072114526666
 31
0.0
  0
LINE
  5
22155
330
1F
100
AcDbEntity
  8
1
100
AcDbLine
 10
38.7137673589333
 20
-13.84999999999996
 30
0.0
 11
24.46840144073338
 21
-13.84999999999996
 31
0.0
  0
LINE
  5
22156
330
1F
100
AcDbEntity
  8
1
100
AcDbLine
 10
38.73081600056674
 20
-13.84165902670003
 30
0.0
 11
39.72091675776665
 21
-13.84165902670003
 31
0.0
  0
LINE
  5
22157
330
1F
100
AcDbEntity
  8
1
100
AcDbLine
 10
38.87302539730001
 20
-13.73261286153331
 30
0.0
 11
28.58636894349991
 21
-13.73261286153331
 31
0.0
  0
LINE
  5
22158
330
1F
100
AcDbEntity
  8
1
100
AcDbLine
 10
16.0
 20
-11.0
 30
0.0
 11
5.0
 21
-11.0
 31
0.0
  0
LINE
  5
22159
330
1F
100
AcDbEntity
  8
SK1
100
AcDbLine
 10
-5.5
 20
-8.5
 30
0.0
 11
-1.200000000000042
 21
-8.5
 31
0.0
  0
LINE
  5
2215A
330
1F
100
AcDbEntity
  8
SK1
100
AcDbLine
 10
-0.3877635896666334
 20
-8.300000000000011
 30
0.0
 11
-0.2000000000000455
 21
-8.300000000000011
 31
0.0
  0
LINE
  5
2215B
330
1F
100
AcDbEntity
  8
SK1
100
AcDbLine
 10
-23.10000000000002
 20
-8.000000000099987
 30
0.0
 11
-10.70000000000004
 21
-8.000000000099987
 31
0.0
  0
LINE
  5
2215D
330
1F
100
AcDbEntity
  8
1
100
AcDbLine
 10
16.0
 20
14.375
 30
0.0
 11
16.0
 21
11.0
 31
0.0
  0
LINE
  5
2215E
330
1F
100
AcDbEntity
  8
1
100
AcDbLine
 10
16.0
 20
-11.0
 30
0.0
 11
16.0
 21
-14.375
 31
0.0
  0
LINE
  5
2215F
330
1F
100
AcDbEntity
  8
SK1
100
AcDbLine
 10
-8.948286437566707
 20
-6.662500000033332
 30
0.0
 11
-7.0
 21
-6.662500000033332
 31
0.0
  0
LINE
  5
22160
330
1F
100
AcDbEntity
  8
1
100
AcDbLine
 10
42.99861346676664
 20
-1.764097624533349
 30
0.0
 11
42.60000000000002
 21
-1.803794437733299
 31
0.0
  0
LINE
  5
22161
330
1F
100
AcDbEntity
  8
SK1
100
AcDbLine
 10
-1.200000000000042
 20
-8.5
 30
0.0
 11
-0.5171731122333087
 21
-8.317037086866662
 31
0.0
  0
LINE
  5
22162
330
1F
100
AcDbEntity
  8
1
100
AcDbLine
 10
37.71419803176661
 20
1.999401010266694
 30
0.0
 11
37.78883904789996
 21
2.019401010266673
 31
0.0
  0
LWPOLYLINE
  5
22163
330
1F
100
AcDbEntity
  8
1
100
AcDbPolyline
 90
        8
 70
     0
 43
0.0
 10
33.09052248416663
 20
2.022575709166686
 10
33.13735065219999
 20
2.032074333966704
 10
33.22983602523334
 20
2.059298362666651
 10
33.3173983275334
 20
2.095927049633303
 10
33.39972339510007
 20
2.138666526633354
 10
33.47694901153329
 20
2.186270028800038
 10
33.55009186996665
 20
2.239969384133303
 10
33.61987988716658
 20
2.299401010266648
  0
LWPOLYLINE
  5
22164
330
1F
100
AcDbEntity
  8
1
100
AcDbPolyline
 90
        7
 70
     0
 43
0.0
 10
41.07384247546668
 20
13.34088966636665
 10
41.04575608743334
 20
13.32449421296667
 10
41.01750358316667
 20
13.30976150536668
 10
40.98908496269996
 20
13.29669154360004
 10
40.96050022596671
 20
13.28528432763329
 10
40.931749373
 20
13.27553985746664
 10
40.90283240380006
 20
13.26745813313334
  0
LINE
  5
22165
330
1F
100
AcDbEntity
  8
1
100
AcDbLine
 10
33.6975040189667
 20
-11.45967500729995
 30
0.0
 11
34.56497467110001
 21
-11.95893268663332
 31
0.0
  0
LINE
  5
22166
330
1F
100
AcDbEntity
  8
1
100
AcDbLine
 10
38.73081600056674
 20
-0.4805989897333234
 30
0.0
 11
42.71394640929996
 21
-0.4805989897333234
 31
0.0
  0
LINE
  5
22167
330
1F
100
AcDbEntity
  8
4
100
AcDbLine
 10
45.07471600039989
 20
0.0
 30
0.0
 11
0.0000000000001705
 21
0.0
 31
0.0
  0
LINE
  5
22168
330
1F
100
AcDbEntity
  8
1
100
AcDbLine
 10
32.80101015289995
 20
4.002383041633319
 30
0.0
 11
32.7845224033
 21
3.999514575533337
 31
0.0
  0
LWPOLYLINE
  5
22169
330
1F
100
AcDbEntity
  8
1
100
AcDbPolyline
 90
       16
 70
     0
 43
0.0
 10
32.7845224033
 20
3.999514575533337
 10
32.66450844256667
 20
3.968407022866641
 10
32.55212930129995
 20
3.929021068700022
 10
32.44727617336673
 20
3.881356713033368
 10
32.34941967763337
 20
3.824608514900035
 10
32.25888220769991
 20
3.759581915266662
 10
32.1768159149666
 20
3.68869323713335
 10
32.10325026013334
 20
3.611825267366666
 10
32.03793309043329
 20
3.52909521910004
 10
31.98157534356665
 20
3.443271054633328
 10
31.93435754399991
 20
3.354458650666686
 10
31.89592038303329
 20
3.262552130466643
 10
31.86617465619998
 20
3.170001826100018
 10
31.84506029606666
 20
3.077624514933345
 10
31.83254663139996
 20
2.984603419633343
 10
31.82861104896665
 20
2.8909385401667
  0
LWPOLYLINE
  5
2216A
330
1F
100
AcDbEntity
  8
1
100
AcDbPolyline
 90
       10
 70
     0
 43
0.0
 10
37.8500081218
 20
12.21360082613336
 10
37.73364144983327
 20
12.16266937706672
 10
37.61563877950005
 20
12.11312257536667
 10
37.49600011079997
 20
12.06504827830002
 10
37.37455450166669
 20
12.01850737696668
 10
37.25147289416668
 20
11.97360153339997
 10
37.1272681145
 20
11.93047580720002
 10
37.00211110470002
 20
11.88922702916665
 10
36.87583092276668
 20
11.84990129110002
 10
36.74842756866667
 20
11.8125634818
  0
LINE
  5
2216B
330
1F
100
AcDbEntity
  8
1
100
AcDbLine
 10
34.43230218070005
 20
-9.674859795466661
 30
0.0
 11
34.82110465206665
 21
-9.816833588366648
 31
0.0
  0
LINE
  5
2216C
330
1F
100
AcDbEntity
  8
1
100
AcDbLine
 10
34.56497467110001
 20
-11.95893268663332
 30
0.0
 11
42.44332380419996
 21
-14.83576395816664
 31
0.0
  0
LINE
  5
2216D
330
1F
100
AcDbEntity
  8
1
100
AcDbLine
 10
38.98012018176667
 20
1.799401010266649
 30
0.0
 11
28.58636894349991
 21
1.799401010266649
 31
0.0
  0
LINE
  5
2216E
330
1F
100
AcDbEntity
  8
1
100
AcDbLine
 10
42.99997895950002
 20
1.999401010266694
 30
0.0
 11
33.49826322239994
 21
1.999401010266694
 31
0.0
  0
LINE
  5
2216F
330
1F
100
AcDbEntity
  8
1
100
AcDbLine
 10
40.38883904789996
 20
2.019401010266673
 30
0.0
 11
37.78883904789996
 21
2.019401010266673
 31
0.0
  0
LINE
  5
22170
330
1F
100
AcDbEntity
  8
1
100
AcDbLine
 10
40.99148599423336
 20
2.299401010266648
 30
0.0
 11
33.61987988716658
 21
2.299401010266648
 31
0.0
  0
LINE
  5
22171
330
1F
100
AcDbEntity
  8
1
100
AcDbLine
 10
32.03375416360007
 20
2.299401010266648
 30
0.0
 11
28.06285717326671
 21
2.299401010266648
 31
0.0
  0
LWPOLYLINE
  5
22172
330
1F
100
AcDbEntity
  8
1
100
AcDbPolyline
 90
        4
 70
     0
 43
0.0
 10
32.82546848523328
 20
2.003300581266727
 10
32.93564512706666
 20
2.005181396166674
 10
33.03953071759997
 20
2.014651130800018
 10
33.09052248416663
 20
2.022575709166686
  0
LINE
  5
22173
330
1F
100
AcDbEntity
  8
1
100
AcDbLine
 10
42.33159597133329
 20
14.33608666586667
 30
0.0
 11
41.07384247546668
 21
13.87810570923335
 31
0.0
  0
LINE
  5
22174
330
1F
100
AcDbEntity
  8
1
100
AcDbLine
 10
40.60867815863331
 20
13.8479384838667
 30
0.0
 11
42.6453108772
 21
14.59151511813337
 31
0.0
  0
LINE
  5
22175
330
1F
100
AcDbEntity
  8
1
100
AcDbLine
 10
39.83946468950001
 20
13.8479384838667
 30
0.0
 11
42.44332380419996
 21
14.79861004039998
 31
0.0
  0
LWPOLYLINE
  5
22176
330
1F
100
AcDbEntity
  8
1
100
AcDbPolyline
 90
       31
 70
     0
 43
0.0
 10
32.78452275106668
 20
10.46329829643338
 10
32.4633176522333
 20
10.32499223069999
 10
32.1543272719
 20
10.17591436809999
 10
31.85755161003328
 20
10.01566206950002
 10
31.5727864928333
 20
9.843248576266717
 10
31.30023609413331
 20
9.658806041266695
 10
31.04051293526663
 20
9.463695668400019
 10
30.79391588306669
 20
9.257657207533329
 10
30.56014607073337
 20
9.040302227000037
 10
30.33891941889999
 20
8.8129924308667
 10
30.13037280230003
 20
8.575511013033349
 10
29.93436934623332
 20
8.327649000533313
 10
29.75021434730002
 20
8.070975520566662
 10
29.57811663220002
 20
7.805651420366699
 10
29.4178673742
 20
7.531350132199974
 10
29.26814538993324
 20
7.249068137966673
 10
29.1289232081333
 20
6.958798072833303
 10
29.00022830003332
 20
6.660551818166652
 10
28.88082189586669
 20
6.355469998000046
 10
28.77069998870002
 20
6.043699080500004
 10
28.6698665854666
 20
5.725267453433332
 10
28.57709493693335
 20
5.401235947900032
 10
28.49234020360007
 20
5.071732062200053
 10
28.41564722496663
 20
4.736932901200018
 10
28.34592377053332
 20
4.398051760100031
 10
28.28313544560002
 20
4.055412256166675
 10
28.22731664490004
 20
3.709103953833333
 10
28.17747832196665
 20
3.360043650800037
 10
28.13329079463335
 20
3.008699454533314
 10
28.09508374506663
 20
2.65507300270002
 10
28.06285717326671
 20
2.299401010266648
  0
LINE
  5
22177
330
1F
100
AcDbEntity
  8
1
100
AcDbLine
 10
5.0
 20
14.375
 30
0.0
 11
5.0
 21
11.0
 31
0.0
  0
LINE
  5
22178
330
1F
100
AcDbEntity
  8
1
100
AcDbLine
 10
5.0
 20
-11.0
 30
0.0
 11
5.0
 21
-14.375
 31
0.0
  0
LINE
  5
22179
330
1F
100
AcDbEntity
  8
1
100
AcDbLine
 10
34.27559687179996
 20
-11.95972288216666
 30
0.0
 11
33.67769338196661
 21
-11.74139446996668
 31
0.0
  0
LINE
  5
2217A
330
1F
100
AcDbEntity
  8
1
100
AcDbLine
 10
42.44332380419996
 20
-14.83576395816664
 30
0.0
 11
42.48012613653338
 21
-14.84707340489996
 31
0.0
  0
LWPOLYLINE
  5
2217B
330
1F
100
AcDbEntity
  8
1
100
AcDbPolyline
 90
        7
 70
     0
 43
0.0
 10
32.99535687673336
 20
1.799401010266649
 10
32.97344613013331
 20
1.802108385833378
 10
32.95177265569999
 20
1.81020119819999
 10
32.93057116709997
 20
1.823591813800021
 10
32.91007126676664
 20
1.842135226666698
 10
32.89049496070004
 20
1.86563062726668
 10
32.87205425409991
 20
1.893823575966678
  0
LINE
  5
2217D
330
1F
100
AcDbEntity
  8
1
100
AcDbLine
 10
42.47824746863329
 20
14.80951613799999
 30
0.0
 11
42.44332380419996
 21
14.79861004039998
 31
0.0
  0
LINE
  5
22180
330
1F
100
AcDbEntity
  8
SK1
100
AcDbLine
 10
-1.200000000000042
 20
8.5
 30
0.0
 11
-0.5171731122333087
 21
8.317037086866719
 31
0.0
  0
LINE
  5
22181
330
1F
100
AcDbEntity
  8
SK1
100
AcDbLine
 10
-8.948286437566707
 20
6.662500000033332
 30
0.0
 11
-7.0
 21
6.662500000033332
 31
0.0
  0
LINE
  5
22182
330
1F
100
AcDbEntity
  8
1
100
AcDbLine
 10
42.71394640929996
 20
14.36776095329998
 30
0.0
 11
42.99997895950002
 21
14.42890975433335
 31
0.0
  0
LWPOLYLINE
  5
22183
330
1F
100
AcDbEntity
  8
1
100
AcDbPolyline
 90
       13
 70
     0
 43
0.0
 10
42.33159597133329
 20
14.33608666586667
 10
42.36345702170001
 20
14.34455367876666
 10
42.39477725256665
 20
14.34802906706664
 10
42.42555666400003
 20
14.34651283069996
 10
42.4565825727667
 20
14.33972903113334
 10
42.4870676621
 20
14.32795360689999
 10
42.51464998149993
 20
14.31201437383333
 10
42.53907783739999
 20
14.29154004503334
 10
42.56060292336667
 20
14.26690190740004
 10
42.57761836956671
 20
14.24004163733338
 10
42.58958855279991
 20
14.21160646033337
 10
42.59704909626669
 20
14.18094915093337
 10
42.60000000000002
 20
14.14806970910001
  0
LINE
  5
22185
330
1F
100
AcDbEntity
  8
1
100
AcDbLine
 10
0.5
 20
14.375
 30
0.0
 11
0.5
 21
-14.375
 31
0.0
  0
LINE
  5
22186
330
1F
100
AcDbEntity
  8
1
100
AcDbLine
 10
0.0
 20
13.875
 30
0.0
 11
0.0
 21
-13.875
 31
0.0
  0
LINE
  5
22187
330
1F
100
AcDbEntity
  8
SK1
100
AcDbLine
 10
-10.70000000000004
 20
8.000000000066677
 30
0.0
 11
-9.655393218766676
 21
6.955393218833306
 31
0.0
  0
LINE
  5
22188
330
1F
100
AcDbEntity
  8
1
100
AcDbLine
 10
40.46348006406661
 20
1.999401010266694
 30
0.0
 11
40.38883904789996
 21
2.019401010266673
 31
0.0
  0
LINE
  5
22189
330
1F
100
AcDbEntity
  8
SK1
100
AcDbLine
 10
-23.10000000000002
 20
8.000000000066677
 30
0.0
 11
-10.70000000000004
 21
8.000000000066677
 31
0.0
  0
LINE
  5
2218A
330
1F
100
AcDbEntity
  8
SK1
100
AcDbLine
 10
-0.3877635896666334
 20
8.300000000000011
 30
0.0
 11
-0.2000000000000455
 21
8.300000000000011
 31
0.0
  0
LINE
  5
2218B
330
1F
100
AcDbEntity
  8
SK1
100
AcDbLine
 10
-5.5
 20
8.5
 30
0.0
 11
-1.200000000000042
 21
8.5
 31
0.0
  0
LINE
  5
2218C
330
1F
100
AcDbEntity
  8
SK1
100
AcDbLine
 10
-10.70000000000004
 20
-8.000000000099987
 30
0.0
 11
-9.655393218766676
 21
-6.955393218866618
 31
0.0
  0
LINE
  5
2218D
330
1F
100
AcDbEntity
  8
SK1
100
AcDbLine
 10
-1.200000000000042
 20
8.5
 30
0.0
 11
-1.200000000000042
 21
-8.5
 31
0.0
  0
LINE
  5
2218E
330
1F
100
AcDbEntity
  8
1
100
AcDbLine
 10
16.0
 20
11.0
 30
0.0
 11
5.0
 21
11.0
 31
0.0
  0
LINE
  5
2218F
330
1F
100
AcDbEntity
  8
SK1
100
AcDbLine
 10
-6.0
 20
-8.211324865399943
 30
0.0
 11
-5.5
 21
-8.5
 31
0.0
  0
LWPOLYLINE
  5
22190
330
1F
100
AcDbEntity
  8
1
100
AcDbPolyline
 90
        7
 70
     0
 43
0.0
 10
38.7182368112334
 20
13.84999999999996
 10
38.71979568343329
 20
13.84994382293331
 10
38.72156961936673
 20
13.84977442463332
 10
38.72355861903328
 20
13.84949050133338
 10
38.72576268246668
 20
13.84909074526666
 10
38.72818180963339
 20
13.84857384470001
 10
38.73081600056674
 20
13.8479384838667
  0
LINE
  5
22191
330
1F
100
AcDbEntity
  8
1
100
AcDbLine
 10
38.73081600056674
 20
13.8479384838667
 30
0.0
 11
40.90283240380006
 21
13.8479384838667
 31
0.0
  0
LINE
  5
22192
330
1F
100
AcDbEntity
  8
1
100
AcDbLine
 10
24.46840144073338
 20
13.84999999999996
 30
0.0
 11
38.7182368112334
 21
13.84999999999996
 31
0.0
  0
LINE
  5
22193
330
1F
100
AcDbEntity
  8
1
100
AcDbLine
 10
0.5
 20
14.375
 30
0.0
 11
5.0
 21
14.375
 31
0.0
  0
LINE
  5
22194
330
1F
100
AcDbEntity
  8
1
100
AcDbLine
 10
16.0
 20
14.375
 30
0.0
 11
19.73159855929998
 21
14.375
 31
0.0
  0
LWPOLYLINE
  5
22195
330
1F
100
AcDbEntity
  8
1
100
AcDbPolyline
 90
        7
 70
     0
 43
0.0
 10
40.90283240380006
 20
13.8479384838667
 10
40.9320298435666
 20
13.84880200446668
 10
40.96094897886668
 20
13.85133126520003
 10
40.98958980969995
 20
13.85552626603334
 10
41.01795233606662
 20
13.86138700696671
 10
41.04603655799997
 20
13.86891348806665
 10
41.07384247546668
 20
13.87810570923335
  0
LINE
  5
22196
330
1F
100
AcDbEntity
  8
SK1
100
AcDbLine
 10
-6.0
 20
8.211324865399999
 30
0.0
 11
-5.5
 21
8.5
 31
0.0
  0
LINE
  5
22197
330
1F
100
AcDbEntity
  8
SK1
100
AcDbLine
 10
-5.5
 20
8.5
 30
0.0
 11
-5.5
 21
-8.5
 31
0.0
  0
LINE
  5
22198
330
1F
100
AcDbEntity
  8
SK1
100
AcDbLine
 10
-6.0
 20
8.211324865399999
 30
0.0
 11
-6.0
 21
-8.211324865399943
 31
0.0
  0
LINE
  5
22199
330
1F
100
AcDbEntity
  8
1
100
AcDbLine
 10
0.0
 20
-13.875
 30
0.0
 11
0.5
 21
-14.375
 31
0.0
  0
LINE
  5
2219A
330
1F
100
AcDbEntity
  8
1
100
AcDbLine
 10
21.45540187683332
 20
14.22530467156667
 30
0.0
 11
22.74459812320003
 21
13.99969532843335
 31
0.0
  0
LINE
  5
2219B
330
1F
100
AcDbEntity
  8
1
100
AcDbLine
 10
0.0
 20
13.875
 30
0.0
 11
0.5
 21
14.375
 31
0.0
  0
LINE
  5
2219C
330
1F
100
AcDbEntity
  8
SK1
100
AcDbLine
 10
-9.699999999899999
 20
-7.0
 30
0.0
 11
-9.699999999899999
 21
7.0
 31
0.0
  0
LINE
  5
2219D
330
1F
100
AcDbEntity
  8
SK1
100
AcDbLine
 10
-10.70000000000004
 20
8.000000000066677
 30
0.0
 11
-10.70000000000004
 21
-8.000000000099987
 31
0.0
  0
LINE
  5
2219E
330
1F
100
AcDbEntity
  8
SK1
100
AcDbLine
 10
-23.10000000000002
 20
8.000000000066677
 30
0.0
 11
-23.10000000000002
 21
-8.000000000099987
 31
0.0
  0
LINE
  5
2219F
330
1F
100
AcDbEntity
  8
SK1
100
AcDbLine
 10
-24.0
 20
6.441154273266704
 30
0.0
 11
-24.0
 21
-6.441154273266648
 31
0.0
  0
LINE
  5
221A0
330
1F
100
AcDbEntity
  8
SK1
100
AcDbLine
 10
-24.0
 20
-6.441154273266648
 30
0.0
 11
-23.10000000000002
 21
-8.000000000099987
 31
0.0
  0
LINE
  5
221A1
330
1F
100
AcDbEntity
  8
SK1
100
AcDbLine
 10
-24.0
 20
6.441154273266704
 30
0.0
 11
-23.10000000000002
 21
8.000000000066677
 31
0.0
  0
LWPOLYLINE
  5
221A2
330
1F
100
AcDbEntity
  8
CUT
100
AcDbPolyline
 90
      215
 70
     1
 43
0.0
 10
42.99861299999998
 20
13.62106399999999
 10
42.59923000000003
 20
11.38685400000003
 10
42.34961499999996
 20
10.00073500000002
 10
42.14992300000004
 20
8.900537999999981
 10
42.00015399999995
 20
8.082537999999999
 10
41.90030899999999
 20
7.541716000000008
 10
41.80046299999992
 20
7.005481999999972
 10
41.70061700000007
 20
6.474973000000034
 10
41.65069400000002
 20
6.212325000000021
 10
41.60077100000001
 20
5.951720999999962
 10
41.55084799999996
 20
5.693443000000002
 10
41.54224099999999
 20
5.659609999999986
 10
41.53907120396
 20
5.648101624239981
 10
41.53550699999994
 20
5.636708999999996
 10
41.53157740430002
 20
5.625518629099985
 10
41.52726300000006
 20
5.614470999999981
 10
41.52257410454001
 20
5.603596964719997
 10
41.51750900000002
 20
5.592893000000002
 10
41.51203768823996
 20
5.582304612120026
 10
41.50620300000002
 20
5.571911999999997
 10
41.49994425767999
 20
5.561607926899966
 10
41.49334099999999
 20
5.551520999999978
 10
41.48637938798002
 20
5.541622488439998
 10
41.47908999999993
 20
5.531962999999959
 10
41.47147996603997
 20
5.522556375959993
 10
41.46355900000003
 20
5.513409999999963
 10
41.45523899661998
 20
5.504425343859963
 10
41.44663000000003
 20
5.495716999999953
 10
41.43769130845996
 20
5.487235865260004
 10
41.42848600000002
 20
5.479044999999985
 10
41.41902850322003
 20
5.471157807639997
 10
41.40932299999996
 20
5.463577999999983
 10
41.39927462145999
 20
5.456237560359964
 10
41.38900000000001
 20
5.449217000000031
 10
41.37843318242004
 20
5.442464011879961
 10
41.36766499999999
 20
5.436036999999998
 10
41.35671284967997
 20
5.429944462060007
 10
41.34557899999992
 20
5.424191000000007
 10
41.3341971049
 20
5.41874891658
 10
41.32265500000005
 20
5.413655000000002
 10
41.31086844181992
 20
5.408866462160004
 10
41.298946
 20
5.404426999999997
 10
41.28690326817999
 20
5.400339885700016
 10
41.27474500000004
 20
5.396611000000007
 10
41.26246554591999
 20
5.393243232999961
 10
41.250092
 20
5.390239000000008
 10
41.23753426845996
 20
5.387573764119962
 10
41.22490500000004
 20
5.385270999999987
 10
41.21222082084
 20
5.383330853699987
 10
41.19948599999998
 20
5.38175799999999
 10
41.18675620321993
 20
5.380561919479987
 10
41.17399699999999
 20
5.379735999999978
 10
41.16113648977999
 20
5.379276048020017
 10
41.14826800000003
 20
5.379184000000008
 10
41.13541292799992
 20
5.379456109359978
 10
41.12257099999999
 20
5.380095999999981
 10
41.10984418223995
 20
5.381100123319979
 10
41.09715199999993
 20
5.382474000000001
 10
41.08446161042002
 20
5.38422438719999
 10
41.07182699999998
 20
5.386340999999958
 10
41.05927313131997
 20
5.3888148332
 10
41.04679599999996
 20
5.39164999999997
 10
41.03452556514002
 20
5.394817628780001
 10
41.02235400000006
 20
5.398346000000002
 10
41.01036494465995
 20
5.402212269659965
 10
40.99849600000005
 20
5.406432999999991
 10
40.98675032425999
 20
5.411006355459959
 10
40.97514499999999
 20
5.415924999999957
 10
40.96364280490002
 20
5.421206431299991
 10
40.95230200000003
 20
5.426826000000002
 10
40.623779
 20
5.597162999999965
 10
40.08619699999997
 20
5.878534999999997
 10
39.86445200000004
 20
6.047724999999957
 10
39.64270799999996
 20
6.217855999999982
 10
39.42096400000004
 20
6.388852999999982
 10
39.19921899999997
 20
6.560646999999959
 10
38.97747500000003
 20
6.733178000000008
 10
38.75573099999997
 20
6.906389999999986
 10
38.53398700000003
 20
7.080233999999959
 10
38.31224199999997
 20
7.254663999999992
 10
38.09049800000003
 20
7.429639000000008
 10
37.86875399999997
 20
7.605120999999996
 10
37.64701000000002
 20
7.781075999999981
 10
37.20352100000003
 20
8.134281999999982
 10
36.76003300000002
 20
8.489035999999996
 10
36.31654400000002
 20
8.845150999999988
 10
35.87305600000004
 20
9.202470000000003
 10
35.42956700000003
 20
9.560857999999996
 10
34.98607900000002
 20
9.92019799999997
 10
34.32084599999996
 20
10.46078099999999
 10
33.65561300000002
 20
11.00300199999998
 10
33.62741800000004
 20
11.02855900000003
 10
33.61794787131998
 20
11.03745355569998
 10
33.60876100000008
 20
11.04664099999996
 10
33.59996708048003
 20
11.05600942693996
 10
33.59147599999995
 20
11.06565299999999
 10
33.58335760757996
 20
11.07549432547995
 10
33.57556299999999
 20
11.08559399999996
 10
33.56810245433996
 20
11.09594540547999
 10
33.56098400000008
 20
11.10653500000001
 10
33.55418192406001
 20
11.11740102250002
 10
33.54773399999999
 20
11.12848100000002
 10
33.54166500025997
 20
11.13972434108001
 10
33.53596500000004
 20
11.15115900000001
 10
33.53068601673999
 20
11.16268689809999
 10
33.52579100000003
 20
11.17438299999998
 10
33.52126694854007
 20
11.18628505755998
 10
33.51713499999994
 20
11.198329
 10
33.51339947934003
 20
11.21048491452001
 10
33.51006199999995
 20
11.222756
 10
33.50715332862001
 20
11.23503114327997
 10
33.50465399999996
 20
11.24739599999998
 10
33.50256451103997
 20
11.25987625535998
 10
33.50088900000004
 20
11.27241899999996
 10
33.49962120911994
 20
11.28502270813999
 10
33.49876499999993
 20
11.297661
 10
33.49832645518006
 20
11.31023376929999
 10
33.49830600000007
 20
11.32281399999999
 10
33.49870980820004
 20
11.33539910756002
 10
33.49953199999993
 20
11.34796399999999
 10
33.50076967567998
 20
11.36053903342002
 10
33.50241700000004
 20
11.37306699999999
 10
33.50446277851995
 20
11.38547932305999
 10
33.50691799999993
 20
11.39781699999997
 10
33.50977980235997
 20
11.41004032886002
 10
33.51304600000003
 20
11.42216200000001
 10
33.51673004930002
 20
11.43423974763999
 10
33.52080599999999
 20
11.446191
 10
33.52525920206006
 20
11.45798234085998
 10
33.53009699999996
 20
11.46962100000002
 10
33.53529770217995
 20
11.48104648449998
 10
33.54087300000003
 20
11.49229399999996
 10
33.54685692203998
 20
11.50343023625999
 10
33.55319999999995
 20
11.51436599999999
 10
33.55989613925999
 20
11.52509852138001
 10
33.56693699999995
 20
11.53560799999997
 10
33.57428335141992
 20
11.54583321659998
 10
33.58196099999998
 20
11.555812
 10
33.59001712372003
 20
11.56559938777997
 10
33.59838600000002
 20
11.57512100000002
 10
33.60707951179995
 20
11.58439835168002
 10
33.61606599999993
 20
11.59339199999999
 10
33.62529510395996
 20
11.60204984242
 10
33.63479999999993
 20
11.61040399999996
 10
33.64456893455997
 20
11.61844309634
 10
33.65459199999998
 20
11.62616299999996
 10
33.66492755382001
 20
11.63360858469997
 10
33.67549399999997
 20
11.64072299999998
 10
33.68639519629994
 20
11.64757545844003
 10
33.69750399999998
 20
11.65408500000001
 10
34.56497500000001
 20
12.14258799999999
 10
36.19497799999999
 20
12.72606400000001
 10
37.82498099999997
 20
13.31057900000002
 10
39.72665199999994
 20
13.99365299999999
 10
41.89998899999999
 20
14.77560199999999
 10
42.44332399999996
 20
14.97128100000003
 10
42.48012600000004
 20
14.982437
 10
42.49276884719995
 20
14.98602813738
 10
42.50551699999994
 20
14.98922699999997
 10
42.51824070223995
 20
14.99200207808002
 10
42.53104500000006
 20
14.99437699999998
 10
42.54385057260003
 20
14.99633536706
 10
42.55671199999992
 20
14.997885
 10
42.56964011772004
 20
14.99902355030002
 10
42.58259800000007
 20
14.99974900000001
 10
42.59565270561995
 20
15.00006491994002
 10
42.60871099999996
 20
14.99997000000002
 10
42.6217317462
 20
14.99946863762
 10
42.63472999999999
 20
14.99855600000001
 10
42.6476064638
 20
14.99723653782001
 10
42.660434
 20
14.99550499999998
 10
42.67326376686003
 20
14.99335176853998
 10
42.68601899999999
 20
14.990793
 10
42.69867772069996
 20
14.98783916877999
 10
42.71123699999995
 20
14.984488
 10
42.72358547496003
 20
14.98076834725998
 10
42.73580800000003
 20
14.97665399999999
 10
42.74792737231996
 20
14.97213177331997
 10
42.75989600000002
 20
14.96722399999999
 10
42.77171188054
 20
14.96193814700001
 10
42.78335500000003
 20
14.95628199999998
 10
42.79472619718001
 20
14.95030489374
 10
42.80589900000006
 20
14.94396499999999
 10
42.81685893018003
 20
14.93726366354002
 10
42.82759699999997
 20
14.93021199999998
 10
42.83812914917995
 20
14.92280523573998
 10
42.84842100000003
 20
14.91506799999996
 10
42.85840356614005
 20
14.90705503274
 10
42.86812199999996
 20
14.89872399999996
 10
42.87752699858002
 20
14.89011020044
 10
42.88664699999992
 20
14.88119499999999
 10
42.89551067232003
 20
14.87195402435998
 10
42.90407399999992
 20
14.86243400000001
 10
42.91229803822
 20
14.85268249652
 10
42.92020200000002
 20
14.84267
 10
42.92772685681994
 20
14.83246634033998
 10
42.93491400000005
 20
14.822022
 10
42.94179063057993
 20
14.81129589066
 10
42.94831699999996
 20
14.80035300000003
 10
42.95447905018
 20
14.78922490960002
 10
42.96027700000002
 20
14.77790299999998
 10
42.96566326918003
 20
14.76647592742
 10
42.97067099999992
 20
14.75487800000002
 10
42.97531522639996
 20
14.74306662993996
 10
42.97957200000007
 20
14.73111
 10
42.98344426478002
 20
14.71901307797998
 10
42.98692199999993
 20
14.70679699999999
 10
42.9899781192399
 20
14.69455543051998
 10
42.99263000000006
 20
14.68221999999997
 10
42.99486771746001
 20
14.66983042926
 10
42.99669699999992
 20
14.657374
 10
42.99812547353996
 20
14.64479990294001
 10
42.999146
 20
14.63218599999999
 10
42.99976630251999
 20
14.61942844288001
 10
42.99997900000003
 20
14.60665799999998
  0
LINE
  5
221A3
330
1F
100
AcDbEntity
  8
3
100
AcDbLine
 10
19.0
 20
3.0
 30
0.0
 11
19.0
 21
-3.0
 31
0.0
  0
LINE
  5
221A4
330
1F
100
AcDbEntity
  8
3
100
AcDbLine
 10
19.7331630095
 20
0.9856511866333336
 30
0.0
 11
20.09191070279996
 21
0.0
 31
0.0
  0
LINE
  5
221A5
330
1F
100
AcDbEntity
  8
3
100
AcDbLine
 10
19.73032097166663
 20
-0.9934596213999498
 30
0.0
 11
20.09191070279996
 21
0.0
 31
0.0
  0
LINE
  5
221A6
330
1F
100
AcDbEntity
  8
3
100
AcDbLine
 10
34.03516641969998
 20
-8.492652097033326
 30
0.0
 11
19.73431954939997
 21
-0.8764922695666539
 31
0.0
  0
LINE
  5
221A7
330
1F
100
AcDbEntity
  8
3
100
AcDbLine
 10
-22.5
 20
-3.0
 30
0.0
 11
19.0
 21
-3.0
 31
0.0
  0
LINE
  5
221A8
330
1F
100
AcDbEntity
  8
3
100
AcDbLine
 10
31.82861104896665
 20
-9.58345927516666
 30
0.0
 11
19.0625343905666
 21
-2.784667491566665
 31
0.0
  0
LINE
  5
221A9
330
1F
100
AcDbEntity
  8
3
100
AcDbLine
 10
-22.5
 20
3.0
 30
0.0
 11
19.0
 21
3.0
 31
0.0
  0
ARC
  5
221AA
330
1F
100
AcDbEntity
  8
1
100
AcDbCircle
 10
37.00121187223329
 20
-18.14174185539997
 30
0.0
 40
10.0
100
AcDbArc
 50
114.9400000000029
 51
153.3592391571021
  0
ARC
  5
221AB
330
1F
100
AcDbEntity
  8
1
100
AcDbCircle
 10
24.46840144073338
 20
-23.84999999999997
 30
0.0
 40
10.0
100
AcDbArc
 50
90.0
 51
99.92624550670562
  0
ARC
  5
221AC
330
1F
100
AcDbEntity
  8
1
100
AcDbCircle
 10
19.73159855929998
 20
-4.375
 30
0.0
 40
10.0
100
AcDbArc
 50
270.0
 51
279.9262455067057
  0
ARC
  5
221AD
330
1F
100
AcDbEntity
  8
1
100
AcDbCircle
 10
37.00121187223329
 20
-18.14174185539997
 30
0.0
 40
9.5
100
AcDbArc
 50
114.9400000000029
 51
152.3467901218036
  0
ARC
  5
221AE
330
1F
100
AcDbEntity
  8
1
100
AcDbCircle
 10
34.64008283419993
 20
-2.697145828700001
 30
0.0
 40
5.5000008165
100
AcDbArc
 50
294.9400000000029
 51
309.9400000000025
  0
ARC
  5
221AF
330
1F
100
AcDbEntity
  8
1
100
AcDbCircle
 10
34.64008283419993
 20
-2.697145828700001
 30
0.0
 40
5.0
100
AcDbArc
 50
294.9399986362006
 51
309.9400000000025
  0
CIRCLE
  5
221B0
330
1F
100
AcDbEntity
  8
1
100
AcDbCircle
 10
39.21659488476667
 20
-10.27744797633335
 30
0.0
 40
2.029999999999998
  0
CIRCLE
  5
221B1
330
1F
100
AcDbEntity
  8
1
100
AcDbCircle
 10
39.21659488476667
 20
-10.27744797633335
 30
0.0
 40
1.946506498599998
  0
CIRCLE
  5
221B2
330
1F
100
AcDbEntity
  8
1
100
AcDbCircle
 10
39.08883904790002
 20
-10.2548292899333
 30
0.0
 40
1.75
  0
ARC
  5
221B3
330
1F
100
AcDbEntity
  8
1
100
AcDbCircle
 10
34.79010287093331
 20
-10.55072196773329
 30
0.0
 40
1.5
100
AcDbArc
 50
249.9399999999996
 51
269.9399999999961
  0
CIRCLE
  5
221B4
330
1F
100
AcDbEntity
  8
1
100
AcDbCircle
 10
39.08883904790002
 20
-10.2548292899333
 30
0.0
 40
1.299999999999998
  0
ARC
  5
221B5
330
1F
100
AcDbEntity
  8
1
100
AcDbCircle
 10
34.05499778133333
 20
-10.70812713273329
 30
0.0
 40
1.099999999999998
100
AcDbArc
 50
69.93999999999963
 51
249.9399999999996
  0
ARC
  5
221B6
330
1F
100
AcDbEntity
  8
1
100
AcDbCircle
 10
40.705661791
 20
-11.1883023359
 30
0.0
 40
0.88
100
AcDbArc
 50
127.7135534665005
 51
172.2864465334983
  0
ARC
  5
221B7
330
1F
100
AcDbEntity
  8
1
100
AcDbCircle
 10
39.08883904790002
 20
-12.12177538186665
 30
0.0
 40
0.88
100
AcDbArc
 50
67.71355346650768
 51
112.2864465334923
  0
ARC
  5
221B8
330
1F
100
AcDbEntity
  8
1
100
AcDbCircle
 10
37.47201630479992
 20
-11.1883023359
 30
0.0
 40
0.88
100
AcDbArc
 50
7.713553466501717
 51
52.28644653349951
  0
ARC
  5
221B9
330
1F
100
AcDbEntity
  8
1
100
AcDbCircle
 10
37.47201630479992
 20
-9.321356243966649
 30
0.0
 40
0.88
100
AcDbArc
 50
307.7135534665004
 51
352.2864465334983
  0
ARC
  5
221BA
330
1F
100
AcDbEntity
  8
1
100
AcDbCircle
 10
39.08883904790002
 20
-8.387883197999997
 30
0.0
 40
0.88
100
AcDbArc
 50
247.7135534665077
 51
292.2864465334923
  0
ARC
  5
221BB
330
1F
100
AcDbEntity
  8
1
100
AcDbCircle
 10
40.705661791
 20
-9.321356243966649
 30
0.0
 40
0.88
100
AcDbArc
 50
187.7135534665017
 51
232.2864465334995
  0
ARC
  5
221BC
330
1F
100
AcDbEntity
  8
1
100
AcDbCircle
 10
38.50259689096663
 20
-13.39678147273332
 30
0.0
 40
0.5
100
AcDbArc
 50
294.9824690182036
 51
339.9345797974967
  0
ARC
  5
221BD
330
1F
100
AcDbEntity
  8
1
100
AcDbCircle
 10
39.53633904790001
 20
-11.02992202629997
 30
0.0
 40
0.3
100
AcDbArc
 50
247.7135534665077
 51
352.2864465334983
  0
ARC
  5
221BE
330
1F
100
AcDbEntity
  8
1
100
AcDbCircle
 10
38.64133904790003
 20
-11.02992202629997
 30
0.0
 40
0.3
100
AcDbArc
 50
187.7135534665017
 51
292.2864465334923
  0
ARC
  5
221BF
330
1F
100
AcDbEntity
  8
1
100
AcDbCircle
 10
38.19383904790004
 20
-10.2548292899333
 30
0.0
 40
0.3
100
AcDbArc
 50
127.7135534665005
 51
232.2864465334995
  0
ARC
  5
221C0
330
1F
100
AcDbEntity
  8
1
100
AcDbCircle
 10
38.64133904790003
 20
-9.479736553533314
 30
0.0
 40
0.3
100
AcDbArc
 50
67.71355346650768
 51
172.2864465334983
  0
ARC
  5
221C1
330
1F
100
AcDbEntity
  8
1
100
AcDbCircle
 10
39.53633904790001
 20
-9.479736553533314
 30
0.0
 40
0.3
100
AcDbArc
 50
7.713553466501717
 51
112.2864465334923
  0
ARC
  5
221C2
330
1F
100
AcDbEntity
  8
1
100
AcDbCircle
 10
39.98383904790001
 20
-10.2548292899333
 30
0.0
 40
0.3
100
AcDbArc
 50
307.7135534665004
 51
52.28644653349951
  0
ARC
  5
221C3
330
1F
100
AcDbEntity
  8
1
100
AcDbCircle
 10
24.46840144073338
 20
23.84999999999997
 30
0.0
 40
10.0
100
AcDbArc
 50
260.0737544932944
 51
270.0
  0
ARC
  5
221C4
330
1F
100
AcDbEntity
  8
1
100
AcDbCircle
 10
19.73159855929998
 20
4.375
 30
0.0
 40
10.0
100
AcDbArc
 50
80.07375449329437
 51
90.0
  0
ARC
  5
221C5
330
1F
100
AcDbEntity
  8
SK1
100
AcDbCircle
 10
-8.948286437566707
 20
-7.662500000033332
 30
0.0
 40
1.0
100
AcDbArc
 50
90.0
 51
134.9999999999954
  0
ARC
  5
221C6
330
1F
100
AcDbEntity
  8
SK1
100
AcDbCircle
 10
-7.0
 20
-7.662500000033332
 30
0.0
 40
1.0
100
AcDbArc
 50
0.0
 51
90.0
  0
ARC
  5
221C7
330
1F
100
AcDbEntity
  8
SK1
100
AcDbCircle
 10
-0.3877635896666334
 20
-8.800000000000011
 30
0.0
 40
0.5
100
AcDbArc
 50
90.0
 51
105.0000000000079
  0
ARC
  5
221C8
330
1F
100
AcDbEntity
  8
SK1
100
AcDbCircle
 10
-0.2000000000000455
 20
-8.800000000000011
 30
0.0
 40
0.5
100
AcDbArc
 50
66.40440467759415
 51
90.0
  0
ARC
  5
221C9
330
1F
100
AcDbEntity
  8
SK1
100
AcDbCircle
 10
-8.948286437566707
 20
7.662500000033332
 30
0.0
 40
1.0
100
AcDbArc
 50
225.0000000000046
 51
270.0
  0
ARC
  5
221CA
330
1F
100
AcDbEntity
  8
SK1
100
AcDbCircle
 10
-7.0
 20
7.662500000033332
 30
0.0
 40
1.0
100
AcDbArc
 50
270.0
 51
0.0
  0
ARC
  5
221CB
330
1F
100
AcDbEntity
  8
SK1
100
AcDbCircle
 10
-0.3877635896666334
 20
8.800000000000011
 30
0.0
 40
0.5
100
AcDbArc
 50
254.9999999999921
 51
270.0
  0
ARC
  5
221CC
330
1F
100
AcDbEntity
  8
SK1
100
AcDbCircle
 10
-0.2000000000000455
 20
8.800000000000011
 30
0.0
 40
0.5
100
AcDbArc
 50
270.0
 51
293.5955953224059
  0
ELLIPSE
  5
221CD
330
1F
100
AcDbEntity
  8
1
100
AcDbEllipse
 10
42.22023033893331
 20
-1.270161636299974
 30
0.0
 11
0.2417701498666666
 21
3.257618735566667
 31
0.0
210
0.0
220
0.0
230
-1.0
 40
0.1155738096
 41
0.0437825656
 42
1.317415959099998
  0
ELLIPSE
  5
221CE
330
1F
100
AcDbEntity
  8
1
100
AcDbEllipse
 10
42.59732765420007
 20
14.42752286490003
 30
0.0
 11
-0.3794334715666666
 21
-0.1357817753
 31
0.0
210
0.0
220
0.0
230
-1.0
 40
0.9924299215999999
 41
1.7048412572
 42
3.484200110799998
  0
ELLIPSE
  5
221CF
330
1F
100
AcDbEntity
  8
1
100
AcDbEllipse
 10
41.15242606399998
 20
5.220366492233323
 30
0.0
 11
0.0709551875666667
 21
0.3966479093666666
 31
0.0
210
0.0
220
0.0
230
-0.9999999999999998
 40
0.9926881520999998
 41
-4.663558017799998
 42
-3.601666633699998
  0
ELLIPSE
  5
221D0
330
1F
100
AcDbEntity
  8
1
100
AcDbEllipse
 10
42.311295104
 20
14.36637406386665
 30
0.0
 11
-0.3794334715666666
 21
-0.1357817753
 31
0.0
210
0.0
220
0.0
230
-1.0
 40
0.9924299215999999
 41
2.890331204599998
 42
3.484200110799998
  0
ELLIPSE
  5
221D1
330
1F
100
AcDbEntity
  8
1
100
AcDbEllipse
 10
42.22023033893331
 20
14.34690599566664
 30
0.0
 11
0.4147996964000001
 21
0.4507896378
 31
0.0
210
0.0
220
0.0
230
-0.9999999999999998
 40
0.3721429518
 41
5.711336362299999
 42
6.9849697557
  0
ELLIPSE
  5
221D2
330
1F
100
AcDbEntity
  8
1
100
AcDbEllipse
 10
41.22172338920006
 20
5.672793646766705
 30
0.0
 11
-0.2469299708999999
 21
0.6485175355
 31
0.0
210
0.0
220
0.0
230
-1.0
 40
0.3429184569
 41
-3.6114899123
 42
-2.533434965999997
  0
ELLIPSE
  5
221D3
330
1F
100
AcDbEntity
  8
1
100
AcDbEllipse
 10
33.90003093606663
 20
-11.11166229839995
 30
0.0
 11
0.3089900241999999
 21
0.2587225012999999
 31
0.0
210
0.0
220
0.0
230
-0.9999999999999996
 40
0.9925461515999998
 41
2.792526803199998
 42
4.660029102799999
  0
ELLIPSE
  5
221D4
330
1F
100
AcDbEntity
  8
1
100
AcDbEllipse
 10
42.59732765420007
 20
-14.46462025569997
 30
0.0
 11
-0.3785552707666666
 21
0.1382319598333333
 31
0.0
210
0.0
220
0.0
230
-1.0
 40
0.9925461515999998
 41
2.792526803199998
 42
4.660029102799999
  0
ELLIPSE
  5
221D5
330
1F
100
AcDbEntity
  8
1
100
AcDbEllipse
 10
41.15242606399998
 20
-5.256061374899957
 30
0.0
 11
0.0695652465333334
 21
-0.3969544611333333
 31
0.0
210
0.0
220
0.0
230
-0.9999999999999998
 40
0.9925461515999998
 41
2.792526803199998
 42
4.660029102799999
  0
ELLIPSE
  5
221D6
330
1F
100
AcDbEntity
  8
1
100
AcDbEllipse
 10
38.50259689096663
 20
1.999401010266694
 30
0.0
 11
-0.1738078286666667
 21
4.072124049366665
 31
0.0
210
0.0
220
0.0
230
-1.0
 40
0.1151287511
 41
-4.6583414632
 42
-4.357362005099997
  0
ELLIPSE
  5
221D7
330
1F
100
AcDbEntity
  8
1
100
AcDbEllipse
 10
45.64960381336663
 20
0.0
 30
0.0
 11
-16.54093406596667
 21
0.0
 31
0.0
210
0.0
220
0.0
230
-1.0
 40
0.8373166802
 41
1.0797680003
 42
1.279732798599998
  0
ELLIPSE
  5
221D8
330
1F
100
AcDbEntity
  8
1
100
AcDbEllipse
 10
55.60015961576664
 20
0.0
 30
0.0
 11
-22.89133991326667
 21
0.0
 31
0.0
210
0.0
220
0.0
230
-1.0
 40
0.7540722058000001
 41
0.8833352856000001
 42
0.9525187465
  0
ELLIPSE
  5
221D9
330
1F
100
AcDbEntity
  8
1
100
AcDbEllipse
 10
32.89946829763336
 20
3.003731596100009
 30
0.0
 11
-1.059031643433332
 21
-0.4826410018999998
 31
0.0
210
0.0
220
0.0
230
-1.0
 40
0.8499024303
 41
1.8534880334
 42
4.3947816338
  0
ELLIPSE
  5
221DA
330
1F
100
AcDbEntity
  8
1
100
AcDbEllipse
 10
52.29762352693331
 20
0.0
 30
0.0
 11
-29.78280848489998
 21
0.0
 31
0.0
210
0.0
220
0.0
230
-1.0
 40
0.4650333768000002
 41
0.8563754493999999
 42
1.021501069199999
  0
ELLIPSE
  5
221DB
330
1F
100
AcDbEntity
  8
1
100
AcDbEllipse
 10
39.08883904790002
 20
10.35227970099998
 30
0.0
 11
-1.059006895666664
 21
1.077950522033332
 31
0.0
210
0.0
220
0.0
230
-1.0
 40
0.9854913126000001
 41
-0.1879333974
 42
4.897207355099999
  0
DIMENSION
  5
2220A
330
1F
100
AcDbEntity
  8
SK2
100
AcDbDimension
280
     0
  2
*D2
 10
0.0000000000000007
 20
24.8494075908734
 30
0.0
 11
-12.0
 21
26.7004757567202
 31
0.0
 70
    32
 71
     5
 42
24.0
 73
     0
 74
     0
 75
     0
  3
STANDARD
100
AcDbAlignedDimension
 13
-24.0
 23
6.441154273266704
 33
0.0
 14
0.0
 24
13.87499999999994
 34
0.0
100
AcDbRotatedDimension
  0
DIMENSION
  5
22236
330
1F
100
AcDbEntity
  8
SK2
100
AcDbDimension
280
     0
  2
*D3
 10
-49.70650877296293
 20
-14.37499999999998
 30
0.0
 11
-49.70650877296293
 21
-0.2783928966275653
 31
0.0
 70
   160
  1
%%C29
 71
     5
 42
28.75000000000006
 73
     0
 74
     0
 75
     0
  3
STANDARD
100
AcDbAlignedDimension
 13
0.5
 23
14.37500000000006
 33
0.0
 14
0.5
 24
-14.375
 34
0.0
 50
90.0
100
AcDbRotatedDimension
  0
DIMENSION
  5
22267
330
1F
100
AcDbEntity
  8
SK2
100
AcDbDimension
280
     0
  2
*D4
 10
-36.68637912969643
 20
-8.000000000099984
 30
0.0
 11
-36.68637912969643
 21
-0.5086306147366031
 31
0.0
 70
   160
  1
%%C<>
 71
     5
 42
16.00000000016666
 73
     0
 74
     0
 75
     0
  3
STANDARD
100
AcDbAlignedDimension
 13
-23.10000000000002
 23
8.000000000066677
 33
0.0
 14
-23.10000000000002
 24
-8.000000000099987
 34
0.0
 50
90.0
100
AcDbRotatedDimension
  0
DIMENSION
  5
222AB
330
1F
100
AcDbEntity
  8
2
100
AcDbDimension
280
     0
  2
*D5
 10
60.1239279891006
 20
-14.997885
 30
0.0
 11
60.1239279891006
 21
0.1236813744933443
 31
0.0
 70
   160
  1
%%C30
 71
     5
 42
29.99735363760377
 73
     0
 74
     0
 75
     0
  3
STANDARD
100
AcDbAlignedDimension
 13
42.62173174662128
 23
14.99946863760377
 33
0.0
 14
42.55671199999992
 24
-14.997885
 34
0.0
 50
90.0
100
AcDbRotatedDimension
  0
LINE
  5
222E5
330
1F
100
AcDbEntity
  8
SK4
100
AcDbLine
 10
0.0000000000001421
 20
0.0000000000000142
 30
0.0
 11
-25.52559901863333
 21
0.0
 31
0.0
  0
LWPOLYLINE
  5
2244C
330
1F
100
AcDbEntity
  8
NOCUT
100
AcDbPolyline
 90
       17
 70
     0
 43
0.0
 10
41.07384247553961
 20
13.88015368964703
 42
-0.0874886635848483
 10
40.90283240376686
 20
13.84999999999998
 10
24.46840144070021
 20
13.84999999999998
 42
-0.0433385192728763
 10
22.74459812316684
 20
13.99969532843331
 10
21.4554018767976
 20
14.22530467155558
 42
0.0433385192728763
 10
19.73159855926684
 20
14.37499999999998
 10
16.00000000000017
 20
14.37499999999998
 10
0.5000000000001706
 20
14.37499999999998
 10
0.0000000000001705
 20
13.87499999999998
 10
0.0000000000001705
 20
0.0000000000000036
 10
40.90000000000014
 20
-0.0000000000000178
 10
40.90000000000014
 20
3.571377589033321
 42
-0.04366094290807
 10
40.97596123493349
 20
4.439618477366654
 10
42.60000000000019
 20
13.65000000000022
 10
42.60000000000013
 20
14.14999999999998
 42
0.5205670505517275
 10
42.33159597133351
 20
14.33793852416664
 10
41.0738424754335
 20
13.8801536896
  0
VIEWPORT
  5
9C00
330
1B
100
AcDbEntity
 67
     1
  8
0
348
3195
100
AcDbViewport
 10
108.2280559557949
 20
71.69854161746989
 30
0.0
 40
251.8950231529317
 41
201.8884082081047
 68
     1
 69
     1
 12
108.2280559557949
 22
71.69854161746989
 13
0.0
 23
0.0
 14
10.0
 24
10.0
 15
10.0
 25
10.0
 16
0.0
 26
0.0
 36
1.0
 17
0.0
 27
0.0
 37
0.0
 42
50.0
 43
0.0
 44
0.0
 45
201.8884082081047
 50
0.0
 51
0.0
 72
   100
 90
   557088
  1

281
     0
 71
     1
 74
     0
110
0.0
120
0.0
130
0.0
111
1.0
121
0.0
131
0.0
112
0.0
122
1.0
132
0.0
 79
     0
146
0.0
170
     0
 61
     5
292
     1
282
     1
141
0.0
142
0.0
 63
   250
421
  3355443
  0
VIEWPORT
  5
9C02
330
1B
100
AcDbEntity
 67
     1
  8
1
348
3195
100
AcDbViewport
 10
143.457083940506
 20
98.18158769607544
 30
0.0
 40
229.5313343048095
 41
157.0905403137207
 68
     2
 69
     2
 12
-44.37697124786255
 22
-35.12342998133886
 13
0.0
 23
0.0
 14
10.0
 24
10.0
 15
10.0
 25
10.0
 16
0.0
 26
0.0
 36
1.0
 17
0.0
 27
0.0
 37
0.0
 42
50.0
 43
0.0
 44
0.0
 45
300.3886240724386
 50
0.0
 51
0.0
 72
   100
 90
   557088
  1

281
     0
 71
     1
 74
     0
110
0.0
120
0.0
130
0.0
111
1.0
121
0.0
131
0.0
112
0.0
122
1.0
132
0.0
 79
     0
146
0.0
170
     0
 61
     5
348
3195
292
     1
282
     1
141
0.0
142
0.0
 63
   250
421
  3355443
  0
ENDSEC
  0
SECTION
  2
OBJECTS
  0
DICTIONARY
  5
3182
330
0
100
AcDbDictionary
281
     1
  3
ACAD_CIP_PREVIOUS_PRODUCT_INFO
350
1B2F4
  3
ACAD_COLOR
350
31A0
  3
ACAD_DETAILVIEWSTYLE
350
1B2F0
  3
ACAD_FIELDLIST
350
20CBF
  3
ACAD_GROUP
350
3183
  3
ACAD_LAYOUT
350
31A5
  3
ACAD_MATERIAL
350
318B
  3
ACAD_MLEADERSTYLE
350
1B221
  3
ACAD_MLINESTYLE
350
3184
  3
ACAD_PLOTSETTINGS
350
31A4
  3
ACAD_PLOTSTYLENAME
350
3189
  3
ACAD_SCALELIST
350
1B1FC
  3
ACAD_SECTIONVIEWSTYLE
350
1B2EE
  3
ACAD_TABLESTYLE
350
31A1
  3
ACAD_VISUALSTYLE
350
318F
  3
ACDB_RECOMPOSE_DATA
350
22478
  3
AcDbVariableDictionary
350
33A3
  0
DICTIONARY
  5
422A
330
2
100
AcDbDictionary
280
     1
281
     1
  3
ACAD_LAYERFILTERS
360
1B063
  3
ACAD_LAYERSTATES
360
9A1C
  3
ACLYDICTIONARY
360
1B062
  0
DICTIONARY
  5
1B2F5
330
10
100
AcDbDictionary
280
     1
281
     1
  3
ADSK_XREC_LAYER_RECONCILED
360
21B8E
  0
DICTIONARY
  5
1B2F7
330
3F8C
100
AcDbDictionary
280
     1
281
     1
  3
ADSK_XREC_LAYER_RECONCILED
360
21B8F
  0
DICTIONARY
  5
1B2F9
330
9C4A
100
AcDbDictionary
280
     1
281
     1
  3
ADSK_XREC_LAYER_RECONCILED
360
21B90
  0
DICTIONARY
  5
1B2FB
330
9C4B
100
AcDbDictionary
280
     1
281
     1
  3
ADSK_XREC_LAYER_RECONCILED
360
21B91
  0
DICTIONARY
  5
1B2FD
330
9C4D
100
AcDbDictionary
280
     1
281
     1
  3
ADSK_XREC_LAYER_RECONCILED
360
21B92
  0
DICTIONARY
  5
1B2FF
330
9C4E
100
AcDbDictionary
280
     1
281
     1
  3
ADSK_XREC_LAYER_RECONCILED
360
21B93
  0
DICTIONARY
  5
1B301
330
9C4F
100
AcDbDictionary
280
     1
281
     1
  3
ADSK_XREC_LAYER_RECONCILED
360
21B94
  0
DICTIONARY
  5
1B303
330
9C50
100
AcDbDictionary
280
     1
281
     1
  3
ADSK_XREC_LAYER_RECONCILED
360
21B95
  0
DICTIONARY
  5
1B305
330
9C51
100
AcDbDictionary
280
     1
281
     1
  3
ADSK_XREC_LAYER_RECONCILED
360
21B96
  0
DICTIONARY
  5
1B307
330
13335
100
AcDbDictionary
280
     1
281
     1
  3
ADSK_XREC_LAYER_RECONCILED
360
21B97
  0
DICTIONARY
  5
1B309
330
1686E
100
AcDbDictionary
280
     1
281
     1
  3
ADSK_XREC_LAYER_RECONCILED
360
21B98
  0
DICTIONARY
  5
20A84
330
20A83
100
AcDbDictionary
280
     1
281
     1
  3
ADSK_XREC_LAYER_RECONCILED
360
21B99
  0
DICTIONARY
  5
339C
330
1F
100
AcDbDictionary
280
     1
281
     1
  3
ACAD_SORTENTS
360
339D
  0
DICTIONARY
  5
1DE81
330
1B3D7
100
AcDbDictionary
280
     1
281
     1
  0
XRECORD
  5
1B2F4
102
{ACAD_REACTORS
330
3182
102
}
330
3182
100
AcDbXrecord
280
     1
300
ACDLT
300
2015
300
ACDLT_F_S
  0
DICTIONARY
  5
31A0
102
{ACAD_REACTORS
330
3182
102
}
330
3182
100
AcDbDictionary
281
     1
  0
DICTIONARY
  5
1B2F0
102
{ACAD_REACTORS
330
3182
102
}
330
3182
100
AcDbDictionary
281
     1
  3
Imperial24
350
20CB3
  3
Metric50
350
1B2F1
  0
FIELDLIST
  5
20CBF
102
{ACAD_REACTORS
330
3182
102
}
330
3182
100
AcDbIdSet
 90
        0
100
AcDbFieldList
  0
DICTIONARY
  5
3183
102
{ACAD_REACTORS
330
3182
102
}
330
3182
100
AcDbDictionary
281
     1
  0
DICTIONARY
  5
31A5
102
{ACAD_REACTORS
330
3182
102
}
330
3182
100
AcDbDictionary
281
     1
  3
Layout1
350
31A7
  3
Model
350
31A6
  0
DICTIONARY
  5
318B
102
{ACAD_REACTORS
330
3182
102
}
330
3182
100
AcDbDictionary
281
     1
  3
ByBlock
350
318D
  3
ByLayer
350
318C
  3
Global
350
318E
  0
DICTIONARY
  5
1B221
102
{ACAD_REACTORS
330
3182
102
}
330
3182
100
AcDbDictionary
281
     1
  3
Standard
350
1B2ED
  0
DICTIONARY
  5
3184
102
{ACAD_REACTORS
330
3182
102
}
330
3182
100
AcDbDictionary
281
     1
  3
STANDARD
350
3185
  0
DICTIONARY
  5
31A4
102
{ACAD_REACTORS
330
3182
102
}
330
3182
100
AcDbDictionary
281
     1
  0
ACDBDICTIONARYWDFLT
  5
3189
102
{ACAD_REACTORS
330
3182
102
}
330
3182
100
AcDbDictionary
281
     1
  3
Normal
350
318A
100
AcDbDictionaryWithDefault
340
318A
  0
DICTIONARY
  5
1B1FC
102
{ACAD_REACTORS
330
3182
102
}
330
3182
100
AcDbDictionary
281
     1
  3
A0
350
1B1FD
  3
A1
350
1B1FE
  3
A2
350
1B1FF
  3
A3
350
1B200
  3
A4
350
1B201
  3
A5
350
1B202
  3
A6
350
1B203
  3
A7
350
1B204
  3
A8
350
1B205
  3
A9
350
1B206
  3
B0
350
1B207
  3
B1
350
1B208
  3
B2
350
1B209
  3
B3
350
1B20A
  3
B4
350
1B20B
  3
B5
350
1B20C
  3
B6
350
1B20D
  3
B7
350
1B20E
  3
B8
350
1B20F
  3
B9
350
1B210
  3
C0
350
1B211
  3
C1
350
1B212
  3
C2
350
1B213
  3
C3
350
1B214
  3
C4
350
1B215
  3
C5
350
1B216
  3
C6
350
1B217
  3
C7
350
1B218
  3
C8
350
1B219
  3
C9
350
1B21A
  3
D0
350
1B21B
  3
D1
350
1B21C
  3
D2
350
1B21D
  0
DICTIONARY
  5
1B2EE
102
{ACAD_REACTORS
330
3182
102
}
330
3182
100
AcDbDictionary
281
     1
  3
Imperial24
350
20CB1
  3
Metric50
350
1B2EF
  0
DICTIONARY
  5
31A1
102
{ACAD_REACTORS
330
3182
102
}
330
3182
100
AcDbDictionary
281
     1
  3
Standard
350
31A2
  0
DICTIONARY
  5
318F
102
{ACAD_REACTORS
330
3182
102
}
330
3182
100
AcDbDictionary
281
     1
  3
2dWireframe
350
3195
  3
3D Hidden
350
3197
  3
3dWireframe
350
3196
  3
Basic
350
3194
  3
Brighten
350
319B
  3
ColorChange
350
319F
  3
Conceptual
350
3198
  3
Dim
350
319A
  3
EdgeColorOff
350
1B2EC
  3
Facepattern
350
319E
  3
Flat
350
3190
  3
FlatWithEdges
350
3191
  3
Gouraud
350
3192
  3
GouraudWithEdges
350
3193
  3
Hidden
350
1B2E4
  3
JitterOff
350
1B2EA
  3
Linepattern
350
319D
  3
OverhangOff
350
1B2EB
  3
Realistic
350
3199
  3
Shaded
350
1B2E9
  3
Shaded with edges
350
1B2E8
  3
Shades of Gray
350
1B2E5
  3
Sketchy
350
1B2E6
  3
Thicken
350
319C
  3
Wireframe
350
1B2E3
  3
X-Ray
350
1B2E7
  0
XRECORD
  5
22478
102
{ACAD_REACTORS
330
3182
102
}
330
3182
100
AcDbXrecord
280
     1
 90
        1
330
31A2
  0
DICTIONARY
  5
33A3
102
{ACAD_REACTORS
330
3182
102
}
330
3182
100
AcDbDictionary
281
     1
  3
CANNOSCALE
350
1B222
  3
CMLEADERSTYLE
350
1B30F
  3
CTABLESTYLE
350
33A4
  3
CVIEWDETAILSTYLE
350
1B310
  3
CVIEWSECTIONSTYLE
350
1B311
  3
DIMASSOC
350
9BE8
  3
INDEXCTL
350
9BE7
  3
LAYEREVAL
350
20993
  3
LAYERNOTIFY
350
20994
  3
LIGHTINGUNITS
350
20992
  3
MSLTSCALE
350
20991
  3
SORTENTS
350
9BE6
  0
DICTIONARY
  5
1B063
102
{ACAD_REACTORS
330
422A
102
}
330
422A
100
AcDbDictionary
281
     1
  0
DICTIONARY
  5
9A1C
102
{ACAD_REACTORS
330
422A
102
}
330
422A
100
AcDbDictionary
281
     1
  0
DICTIONARY
  5
1B062
102
{ACAD_REACTORS
330
422A
102
}
330
422A
100
AcDbDictionary
281
     1
1001
ACAD
1000
<All
  0
XRECORD
  5
21B8E
102
{ACAD_REACTORS
330
1B2F5
102
}
330
1B2F5
100
AcDbXrecord
280
     1
290
     1
  0
XRECORD
  5
21B8F
102
{ACAD_REACTORS
330
1B2F7
102
}
330
1B2F7
100
AcDbXrecord
280
     1
290
     1
  0
XRECORD
  5
21B90
102
{ACAD_REACTORS
330
1B2F9
102
}
330
1B2F9
100
AcDbXrecord
280
     1
290
     1
  0
XRECORD
  5
21B91
102
{ACAD_REACTORS
330
1B2FB
102
}
330
1B2FB
100
AcDbXrecord
280
     1
290
     1
  0
XRECORD
  5
21B92
102
{ACAD_REACTORS
330
1B2FD
102
}
330
1B2FD
100
AcDbXrecord
280
     1
290
     1
  0
XRECORD
  5
21B93
102
{ACAD_REACTORS
330
1B2FF
102
}
330
1B2FF
100
AcDbXrecord
280
     1
290
     1
  0
XRECORD
  5
21B94
102
{ACAD_REACTORS
330
1B301
102
}
330
1B301
100
AcDbXrecord
280
     1
290
     1
  0
XRECORD
  5
21B95
102
{ACAD_REACTORS
330
1B303
102
}
330
1B303
100
AcDbXrecord
280
     1
290
     1
  0
XRECORD
  5
21B96
102
{ACAD_REACTORS
330
1B305
102
}
330
1B305
100
AcDbXrecord
280
     1
290
     1
  0
XRECORD
  5
21B97
102
{ACAD_REACTORS
330
1B307
102
}
330
1B307
100
AcDbXrecord
280
     1
290
     1
  0
XRECORD
  5
21B98
102
{ACAD_REACTORS
330
1B309
102
}
330
1B309
100
AcDbXrecord
280
     1
290
     1
  0
XRECORD
  5
21B99
102
{ACAD_REACTORS
330
20A84
102
}
330
20A84
100
AcDbXrecord
280
     1
290
     1
  0
SORTENTSTABLE
  5
339D
102
{ACAD_REACTORS
330
339C
102
}
330
339C
100
AcDbSortentsTable
330
1F
331
22194
  5
221A5
331
22155
  5
22165
331
22190
  5
221A1
331
221CF
  5
221F5
331
221CB
  5
221F1
331
22112
  5
22122
331
22151
  5
22161
331
2218C
  5
2219D
331
22188
  5
22199
331
222AB
  5
222E5
331
221C7
  5
221D8
331
2210E
  5
2211E
331
2214D
  5
2215D
331
22149
  5
22159
331
221C3
  5
221D4
331
2210A
  5
2211A
331
22106
  5
22116
331
22145
  5
22155
331
22267
  5
222AB
331
22180
  5
22191
331
221BF
  5
221D0
331
221BB
  5
221CC
331
22102
  5
22112
331
22141
  5
22151
331
22178
  5
22189
331
222E5
  5
22178
331
221B7
  5
221C8
331
220FE
  5
2210E
331
2213D
  5
2214D
331
22139
  5
22149
331
22174
  5
22185
331
221B3
  5
221C4
331
220FA
  5
2210A
331
220F6
  5
22106
331
22135
  5
22145
331
22170
  5
22181
331
221AF
  5
221C0
331
221AB
  5
221BC
331
220F2
  5
22102
331
22131
  5
22141
331
2216C
  5
2217D
331
22168
  5
22179
331
221DA
  5
22200
331
221D5
  5
221FB
331
221A7
  5
221B8
331
2212D
  5
2213D
331
22129
  5
22139
331
22164
  5
22174
331
221A3
  5
221B4
331
221D1
  5
221F7
331
20B16
  5
20B16
331
22125
  5
22135
331
22160
  5
22170
331
2219F
  5
221B0
331
22121
  5
22131
331
2219B
  5
221AC
331
22158
  5
22168
331
22197
  5
221A8
331
22193
  5
221A4
331
22115
  5
22125
331
22154
  5
22164
331
2218F
  5
221A0
331
221CE
  5
221F4
331
221CA
  5
221DB
331
22111
  5
22121
331
22150
  5
22160
331
2218B
  5
2219C
331
2214C
  5
2215C
331
22187
  5
22198
331
221C6
  5
221D7
331
2210D
  5
2211D
331
22148
  5
22158
331
22183
  5
22194
331
221C2
  5
221D3
331
22109
  5
22119
331
22105
  5
22115
331
22144
  5
22154
331
221BE
  5
221CF
331
221BA
  5
221CB
331
22101
  5
22111
331
22140
  5
22150
331
2217B
  5
2218C
331
22236
  5
22267
331
22177
  5
22188
331
221B6
  5
221C7
331
220FD
  5
2210D
331
2213C
  5
2214C
331
22138
  5
22148
331
22173
  5
22184
331
221B2
  5
221C3
331
220F9
  5
22109
331
220F5
  5
22105
331
22134
  5
22144
331
2216F
  5
22180
331
221AE
  5
221BF
331
221AA
  5
221BB
331
22130
  5
22140
331
2220A
  5
22236
331
2216B
  5
2217C
331
220EE
  5
220FE
331
221D9
  5
221FF
331
221D4
  5
221FA
331
22167
  5
22177
331
221A6
  5
221B7
331
2212C
  5
2213C
331
221D0
  5
221F6
331
22128
  5
22138
331
22163
  5
22173
331
221A2
  5
221B3
331
20B15
  5
20B15
331
22124
  5
22134
331
2215F
  5
2216F
331
2219E
  5
221AF
331
2219A
  5
221AB
331
2215B
  5
2216B
331
22196
  5
221A7
331
22118
  5
22128
331
22157
  5
22167
331
22192
  5
221A3
331
221CD
  5
221F3
331
22114
  5
22124
331
22153
  5
22163
331
2218E
  5
2219F
331
221C9
  5
221DA
331
22110
  5
22120
331
2218A
  5
2219B
331
2214F
  5
2215F
331
2214B
  5
2215B
331
22186
  5
22197
331
221C5
  5
221D6
331
2210C
  5
2211C
331
22108
  5
22118
331
22147
  5
22157
331
22182
  5
22193
331
221C1
  5
221D2
331
22104
  5
22114
331
22143
  5
22153
331
221BD
  5
221CE
331
221B9
  5
221CA
331
22100
  5
22110
331
2217A
  5
2218B
331
2213F
  5
2214F
331
2213B
  5
2214B
331
22176
  5
22187
331
221B5
  5
221C6
331
220FC
  5
2210C
331
22137
  5
22147
331
22172
  5
22183
331
221B1
  5
221C2
331
220F8
  5
22108
331
220F4
  5
22104
331
22133
  5
22143
331
2216E
  5
2217F
331
221AD
  5
221BE
331
221A9
  5
221BA
331
220F0
  5
22100
331
2216A
  5
2217B
331
220ED
  5
220FD
331
221D8
  5
221FE
331
221D7
  5
221FD
331
2212F
  5
2213F
331
221D3
  5
221F9
331
22166
  5
22176
331
221A5
  5
221B6
331
2212B
  5
2213B
331
211A0
  5
211A0
331
22127
  5
22137
331
22162
  5
22172
331
221A1
  5
221B2
331
20B14
  5
20B14
331
22123
  5
22133
331
2215E
  5
2216E
331
2219D
  5
221AE
331
22199
  5
221AA
331
2215A
  5
2216A
331
20A18
  5
20A18
331
22195
  5
221A6
331
22117
  5
22127
331
22156
  5
22166
331
22191
  5
221A2
331
221CC
  5
221F2
331
22113
  5
22123
331
22152
  5
22162
331
2218D
  5
2219E
331
22189
  5
2219A
331
221C8
  5
221D9
331
2210F
  5
2211F
331
2214E
  5
2215E
331
2214A
  5
2215A
331
22185
  5
22196
331
221C4
  5
221D5
331
2210B
  5
2211B
331
22107
  5
22117
331
22146
  5
22156
331
22181
  5
22192
331
221C0
  5
221D1
331
221BC
  5
221CD
331
22103
  5
22113
331
22142
  5
22152
331
2217D
  5
2218E
331
221B8
  5
221C9
331
22179
  5
2218A
331
220FF
  5
2210F
331
2213E
  5
2214E
331
2213A
  5
2214A
331
22175
  5
22186
331
221B4
  5
221C5
331
220FB
  5
2210B
331
220F7
  5
22107
331
22136
  5
22146
331
22171
  5
22182
331
221B0
  5
221C1
331
220F3
  5
22103
331
22132
  5
22142
331
2216D
  5
2217E
331
221AC
  5
221BD
331
221A8
  5
221B9
331
22169
  5
2217A
331
221DB
  5
2220A
331
220EC
  5
220FC
331
2244C
  5
2245B
331
221D6
  5
221FC
331
2212E
  5
2213E
331
2212A
  5
2213A
331
22165
  5
22175
331
221A4
  5
221B5
331
221D2
  5
221F8
331
20B17
  5
20B17
331
22126
  5
22136
331
22161
  5
22171
331
221A0
  5
221B1
331
22122
  5
22132
331
2215D
  5
2216D
331
2219C
  5
221AD
331
22198
  5
221A9
331
22159
  5
22169
  0
ACDBDETAILVIEWSTYLE
  5
20CB3
102
{ACAD_XDICTIONARY
360
224B3
102
}
102
{ACAD_REACTORS
330
1B2F0
102
}
330
1B2F0
100
AcDbModelDocViewStyle
 70
     0
  3
Imperial24
290
     0
100
AcDbDetailViewStyle
 70
     0
 71
     0
 90
        3
 71
     1
340
11
 62
   256
 40
0.24
340
0
 62
   256
 40
0.24
300

 40
0.36
280
     3
 71
     2
340
16
 90
       25
 62
   256
 71
     3
340
11
 62
   256
 40
0.24
 90
        1
 40
0.75
 90
        1
300
%<\AcVar ViewType \f "%tc1">% %<\AcVar ViewDetailId>%\PVARIA %<\AcVar ViewScale \f "%sn">%
 71
     4
340
16
 90
       25
 62
   256
340
16
 90
       25
 62
   256
280
     0
  0
ACDBDETAILVIEWSTYLE
  5
1B2F1
102
{ACAD_XDICTIONARY
360
224AF
102
}
102
{ACAD_REACTORS
330
1B2F0
102
}
330
1B2F0
100
AcDbModelDocViewStyle
 70
     0
  3
Metric50
290
     0
100
AcDbDetailViewStyle
 70
     0
 71
     0
 90
        3
 71
     1
340
11
 62
   256
 40
5.0
340
0
 62
   256
 40
5.0
300

 40
0.0
280
     1
 71
     2
340
16
 90
       25
 62
   256
 71
     3
340
11
 62
   256
 40
5.0
 90
        0
 40
15.0
 90
        1
300
%<\AcVar ViewDetailId>% (%<\AcVar ViewScale \f "%sn">%)
 71
     4
340
16
 90
       25
 62
   256
340
16
 90
       25
 62
   256
280
     0
  0
LAYOUT
  5
31A7
102
{ACAD_REACTORS
330
31A5
102
}
330
31A5
100
AcDbPlotSettings
  1

  2
\\ingdc01\ITB3
  4
A4
  6

 40
6.805083274841307
 41
5.027085781097412
 42
6.805068969726562
 43
5.027069091796875
 44
209.9733276367186
 45
296.9683227539062
 46
0.0
 47
0.0
 48
0.0
 49
0.0
140
0.0
141
0.0
142
1.0
143
1.0
 70
   688
 72
     1
 73
     1
 74
     5
  7

 75
    16
147
1.0
 76
     0
 77
     2
 78
   300
148
0.0
149
0.0
100
AcDbLayout
  1
Layout1
 70
     1
 71
     1
 10
-5.027069091796875
 20
-6.805083274841307
 11
291.9412536621094
 21
203.1682443618775
 12
0.0
 22
0.0
 32
0.0
 14
28.69141678810127
 24
19.6363175392151
 34
0.0
 15
258.2227510929107
 25
176.7268578529358
 35
0.0
146
0.0
 13
0.0
 23
0.0
 33
0.0
 16
1.0
 26
0.0
 36
0.0
 17
0.0
 27
1.0
 37
0.0
 76
     0
330
1B
331
9C00
1001
ACAD_PSEXT
1000
\\ingdc01\ITB3
1000
HP LaserJet 5000 Series PCL
1000
TB
1000

1070
     0
  0
LAYOUT
  5
31A6
102
{ACAD_REACTORS
330
31A5
102
}
330
31A5
100
AcDbPlotSettings
  1

  2
\\ingdc01\ITB3
  4
A4
  6

 40
6.805083274841307
 41
5.027085781097412
 42
6.805068969726562
 43
5.027069091796875
 44
209.9733276367186
 45
296.9683227539062
 46
0.0
 47
0.0
 48
0.0
 49
0.0
140
0.0
141
0.0
142
1.0
143
1.500313223655698
 70
 11952
 72
     1
 73
     1
 74
     0
  7

 75
     0
147
0.6665274852163048
 76
     0
 77
     2
 78
   300
148
239.0155119930048
149
102.2558208723354
100
AcDbLayout
  1
Model
 70
     1
 71
     0
 10
0.0
 20
0.0
 11
12.0
 21
9.0
 12
0.0
 22
0.0
 32
0.0
 14
0.0
 24
0.0
 34
0.0
 15
0.0
 25
0.0
 35
0.0
146
0.0
 13
0.0
 23
0.0
 33
0.0
 16
1.0
 26
0.0
 36
0.0
 17
0.0
 27
1.0
 37
0.0
 76
     0
330
1F
331
1F4
1001
ACAD_PSEXT
1000
\\ingdc01\ITB3
1000
HP LaserJet 5000 Series PCL
1000
TB
1000

1070
     0
  0
MATERIAL
  5
318D
102
{ACAD_XDICTIONARY
360
1B22B
102
}
102
{ACAD_REACTORS
330
318B
102
}
330
318B
100
AcDbMaterial
  1
ByBlock
  0
MATERIAL
  5
318C
102
{ACAD_XDICTIONARY
360
1B22D
102
}
102
{ACAD_REACTORS
330
318B
102
}
330
318B
100
AcDbMaterial
  1
ByLayer
  0
MATERIAL
  5
318E
102
{ACAD_XDICTIONARY
360
1B22F
102
}
102
{ACAD_REACTORS
330
318B
102
}
330
318B
100
AcDbMaterial
  1
Global
  0
MLEADERSTYLE
  5
1B2ED
102
{ACAD_REACTORS
330
1B221
102
}
330
1B221
100
AcDbMLeaderStyle
179
     2
170
     2
171
     1
172
     0
 90
        2
 40
0.0
 41
0.0
173
     1
 91
-1056964608
340
14
 92
       -2
290
     1
 42
2.0
291
     1
 43
0.36
  3
Standard
 44
4.0
300

342
11
174
     1
178
     6
175
     1
176
     0
 93
-1056964608
 45
4.0
292
     0
297
     0
 46
4.0
 94
-1056964608
 47
1.0
 49
1.0
140
1.0
293
     1
141
0.0
294
     1
177
     0
142
1.0
295
     0
296
     0
143
0.125
271
     0
272
     9
273
     9
1001
ACAD_MLEADERVER
1070
     2
  0
MLINESTYLE
  5
3185
102
{ACAD_REACTORS
330
3184
102
}
330
3184
100
AcDbMlineStyle
  2
STANDARD
 70
     0
  3

 62
   256
 51
90.0
 52
90.0
 71
     2
 49
0.5
 62
   256
  6
BYLAYER
 49
-0.5
 62
   256
  6
BYLAYER
  0
ACDBPLACEHOLDER
  5
318A
102
{ACAD_REACTORS
330
3189
102
}
330
3189
  0
SCALE
  5
1B1FD
102
{ACAD_REACTORS
330
1B1FC
102
}
330
1B1FC
100
AcDbScale
 70
     0
300
1:1
140
1.0
141
1.0
290
     1
1001
ACAD
1000
AcRTDxfName
1000
SCALE
  0
SCALE
  5
1B1FE
102
{ACAD_REACTORS
330
1B1FC
102
}
330
1B1FC
100
AcDbScale
 70
     0
300
1:2
140
1.0
141
2.0
290
     0
1001
ACAD
1000
AcRTDxfName
1000
SCALE
  0
SCALE
  5
1B1FF
102
{ACAD_REACTORS
330
1B1FC
102
}
330
1B1FC
100
AcDbScale
 70
     0
300
1:4
140
1.0
141
4.0
290
     0
1001
ACAD
1000
AcRTDxfName
1000
SCALE
  0
SCALE
  5
1B200
102
{ACAD_REACTORS
330
1B1FC
102
}
330
1B1FC
100
AcDbScale
 70
     0
300
1:5
140
1.0
141
5.0
290
     0
1001
ACAD
1000
AcRTDxfName
1000
SCALE
  0
SCALE
  5
1B201
102
{ACAD_REACTORS
330
1B1FC
102
}
330
1B1FC
100
AcDbScale
 70
     0
300
1:8
140
1.0
141
8.0
290
     0
1001
ACAD
1000
AcRTDxfName
1000
SCALE
  0
SCALE
  5
1B202
102
{ACAD_REACTORS
330
1B1FC
102
}
330
1B1FC
100
AcDbScale
 70
     0
300
1:10
140
1.0
141
10.0
290
     0
1001
ACAD
1000
AcRTDxfName
1000
SCALE
  0
SCALE
  5
1B203
102
{ACAD_REACTORS
330
1B1FC
102
}
330
1B1FC
100
AcDbScale
 70
     0
300
1:16
140
1.0
141
16.0
290
     0
1001
ACAD
1000
AcRTDxfName
1000
SCALE
  0
SCALE
  5
1B204
102
{ACAD_REACTORS
330
1B1FC
102
}
330
1B1FC
100
AcDbScale
 70
     0
300
1:20
140
1.0
141
20.0
290
     0
1001
ACAD
1000
AcRTDxfName
1000
SCALE
  0
SCALE
  5
1B205
102
{ACAD_REACTORS
330
1B1FC
102
}
330
1B1FC
100
AcDbScale
 70
     0
300
1:30
140
1.0
141
30.0
290
     0
1001
ACAD
1000
AcRTDxfName
1000
SCALE
  0
SCALE
  5
1B206
102
{ACAD_REACTORS
330
1B1FC
102
}
330
1B1FC
100
AcDbScale
 70
     0
300
1:40
140
1.0
141
40.0
290
     0
1001
ACAD
1000
AcRTDxfName
1000
SCALE
  0
SCALE
  5
1B207
102
{ACAD_REACTORS
330
1B1FC
102
}
330
1B1FC
100
AcDbScale
 70
     0
300
1:50
140
1.0
141
50.0
290
     0
1001
ACAD
1000
AcRTDxfName
1000
SCALE
  0
SCALE
  5
1B208
102
{ACAD_REACTORS
330
1B1FC
102
}
330
1B1FC
100
AcDbScale
 70
     0
300
1:100
140
1.0
141
100.0
290
     0
1001
ACAD
1000
AcRTDxfName
1000
SCALE
  0
SCALE
  5
1B209
102
{ACAD_REACTORS
330
1B1FC
102
}
330
1B1FC
100
AcDbScale
 70
     0
300
2:1
140
2.0
141
1.0
290
     0
1001
ACAD
1000
AcRTDxfName
1000
SCALE
  0
SCALE
  5
1B20A
102
{ACAD_REACTORS
330
1B1FC
102
}
330
1B1FC
100
AcDbScale
 70
     0
300
4:1
140
4.0
141
1.0
290
     0
1001
ACAD
1000
AcRTDxfName
1000
SCALE
  0
SCALE
  5
1B20B
102
{ACAD_REACTORS
330
1B1FC
102
}
330
1B1FC
100
AcDbScale
 70
     0
300
8:1
140
8.0
141
1.0
290
     0
1001
ACAD
1000
AcRTDxfName
1000
SCALE
  0
SCALE
  5
1B20C
102
{ACAD_REACTORS
330
1B1FC
102
}
330
1B1FC
100
AcDbScale
 70
     0
300
10:1
140
10.0
141
1.0
290
     0
1001
ACAD
1000
AcRTDxfName
1000
SCALE
  0
SCALE
  5
1B20D
102
{ACAD_REACTORS
330
1B1FC
102
}
330
1B1FC
100
AcDbScale
 70
     0
300
100:1
140
100.0
141
1.0
290
     0
1001
ACAD
1000
AcRTDxfName
1000
SCALE
  0
SCALE
  5
1B20E
102
{ACAD_REACTORS
330
1B1FC
102
}
330
1B1FC
100
AcDbScale
 70
     0
300
1/128" = 1'-0"
140
0.0078125
141
12.0
290
     0
1001
ACAD
1000
AcRTDxfName
1000
SCALE
  0
SCALE
  5
1B20F
102
{ACAD_REACTORS
330
1B1FC
102
}
330
1B1FC
100
AcDbScale
 70
     0
300
1/64" = 1'-0"
140
0.015625
141
12.0
290
     0
1001
ACAD
1000
AcRTDxfName
1000
SCALE
  0
SCALE
  5
1B210
102
{ACAD_REACTORS
330
1B1FC
102
}
330
1B1FC
100
AcDbScale
 70
     0
300
1/32" = 1'-0"
140
0.03125
141
12.0
290
     0
1001
ACAD
1000
AcRTDxfName
1000
SCALE
  0
SCALE
  5
1B211
102
{ACAD_REACTORS
330
1B1FC
102
}
330
1B1FC
100
AcDbScale
 70
     0
300
1/16" = 1'-0"
140
0.0625
141
12.0
290
     0
1001
ACAD
1000
AcRTDxfName
1000
SCALE
  0
SCALE
  5
1B212
102
{ACAD_REACTORS
330
1B1FC
102
}
330
1B1FC
100
AcDbScale
 70
     0
300
3/32" = 1'-0"
140
0.09375
141
12.0
290
     0
1001
ACAD
1000
AcRTDxfName
1000
SCALE
  0
SCALE
  5
1B213
102
{ACAD_REACTORS
330
1B1FC
102
}
330
1B1FC
100
AcDbScale
 70
     0
300
1/8" = 1'-0"
140
0.125
141
12.0
290
     0
1001
ACAD
1000
AcRTDxfName
1000
SCALE
  0
SCALE
  5
1B214
102
{ACAD_REACTORS
330
1B1FC
102
}
330
1B1FC
100
AcDbScale
 70
     0
300
3/16" = 1'-0"
140
0.1875
141
12.0
290
     0
1001
ACAD
1000
AcRTDxfName
1000
SCALE
  0
SCALE
  5
1B215
102
{ACAD_REACTORS
330
1B1FC
102
}
330
1B1FC
100
AcDbScale
 70
     0
300
1/4" = 1'-0"
140
0.25
141
12.0
290
     0
1001
ACAD
1000
AcRTDxfName
1000
SCALE
  0
SCALE
  5
1B216
102
{ACAD_REACTORS
330
1B1FC
102
}
330
1B1FC
100
AcDbScale
 70
     0
300
3/8" = 1'-0"
140
0.375
141
12.0
290
     0
1001
ACAD
1000
AcRTDxfName
1000
SCALE
  0
SCALE
  5
1B217
102
{ACAD_REACTORS
330
1B1FC
102
}
330
1B1FC
100
AcDbScale
 70
     0
300
1/2" = 1'-0"
140
0.5
141
12.0
290
     0
1001
ACAD
1000
AcRTDxfName
1000
SCALE
  0
SCALE
  5
1B218
102
{ACAD_REACTORS
330
1B1FC
102
}
330
1B1FC
100
AcDbScale
 70
     0
300
3/4" = 1'-0"
140
0.75
141
12.0
290
     0
1001
ACAD
1000
AcRTDxfName
1000
SCALE
  0
SCALE
  5
1B219
102
{ACAD_REACTORS
330
1B1FC
102
}
330
1B1FC
100
AcDbScale
 70
     0
300
1" = 1'-0"
140
1.0
141
12.0
290
     0
1001
ACAD
1000
AcRTDxfName
1000
SCALE
  0
SCALE
  5
1B21A
102
{ACAD_REACTORS
330
1B1FC
102
}
330
1B1FC
100
AcDbScale
 70
     0
300
1-1/2" = 1'-0"
140
1.5
141
12.0
290
     0
1001
ACAD
1000
AcRTDxfName
1000
SCALE
  0
SCALE
  5
1B21B
102
{ACAD_REACTORS
330
1B1FC
102
}
330
1B1FC
100
AcDbScale
 70
     0
300
3" = 1'-0"
140
3.0
141
12.0
290
     0
1001
ACAD
1000
AcRTDxfName
1000
SCALE
  0
SCALE
  5
1B21C
102
{ACAD_REACTORS
330
1B1FC
102
}
330
1B1FC
100
AcDbScale
 70
     0
300
6" = 1'-0"
140
6.0
141
12.0
290
     0
1001
ACAD
1000
AcRTDxfName
1000
SCALE
  0
SCALE
  5
1B21D
102
{ACAD_REACTORS
330
1B1FC
102
}
330
1B1FC
100
AcDbScale
 70
     0
300
1'-0" = 1'-0"
140
12.0
141
12.0
290
     0
1001
ACAD
1000
AcRTDxfName
1000
SCALE
  0
ACDBSECTIONVIEWSTYLE
  5
20CB1
102
{ACAD_XDICTIONARY
360
224B1
102
}
102
{ACAD_REACTORS
330
1B2EE
102
}
330
1B2EE
100
AcDbModelDocViewStyle
 70
     0
  3
Imperial24
290
     0
100
AcDbSectionViewStyle
 70
     0
 71
     0
 90
       78
 71
     1
340
11
 62
   256
 40
0.24
340
0
340
0
 62
   256
 40
0.24
300
I, O, Q, S, X, Z
 40
0.48
 90
        3
 40
0.18
 90
        1
 71
     2
340
16
 90
       25
 62
   256
340
16
 90
       50
 62
   256
 40
0.24
 40
0.0
 40
0.24
 71
     3
340
11
 62
   256
 40
0.24
 90
        1
 40
0.75
 90
        1
300
%<\AcVar ViewType \f "%tc1">% %<\AcVar ViewSectionStartId>%-%<\AcVar ViewSectionEndId>%\PVARIA %<\AcVar ViewScale \f "%sn">%
 71
     4
 62
   256
 62
   257
300
ANSI31
 40
1.0
 90
        0
290
     0
290
     0
 90
        6
 40
0.0
 40
1.570796326794896
 40
0.2617993877991494
 40
1.308996938995747
 40
-0.2617993877991494
 40
1.832595714594044
  0
ACDBSECTIONVIEWSTYLE
  5
1B2EF
102
{ACAD_XDICTIONARY
360
224AD
102
}
102
{ACAD_REACTORS
330
1B2EE
102
}
330
1B2EE
100
AcDbModelDocViewStyle
 70
     0
  3
Metric50
290
     0
100
AcDbSectionViewStyle
 70
     0
 71
     0
 90
      102
 71
     1
340
11
 62
   256
 40
5.0
340
0
340
0
 62
   256
 40
5.0
300
I, O, Q, S, X, Z
 40
10.0
 90
        0
 40
2.5
 90
        0
 71
     2
340
16
 90
       25
 62
   256
340
16
 90
       50
 62
   256
 40
5.0
 40
2.5
 40
5.0
 71
     3
340
11
 62
   256
 40
5.0
 90
        0
 40
15.0
 90
        1
300
%<\AcVar ViewSectionStartId>%-%<\AcVar ViewSectionEndId>% (%<\AcVar ViewScale \f "%sn">%)
 71
     4
 62
   256
 62
   257
300
ANSI31
 40
1.0
 90
        0
290
     0
290
     0
 90
        6
 40
0.0
 40
1.570796326794896
 40
0.2617993877991494
 40
1.308996938995747
 40
-0.2617993877991494
 40
1.832595714594044
  0
TABLESTYLE
  5
31A2
102
{ACAD_XDICTIONARY
360
1B314
102
}
102
{ACAD_REACTORS
330
31A1
102
}
330
31A1
100
AcDbTableStyle
280
     0
  3
Standard
 70
     0
 71
     0
 40
1.5
 41
1.5
280
     0
281
     0
  7
STANDARD
140
4.5
170
     2
 62
     0
 63
     7
283
     0
 90
        4
 91
        0
  1

274
    -2
284
     1
 64
     0
275
    -2
285
     1
 65
     0
276
    -2
286
     1
 66
     0
277
    -2
287
     1
 67
     0
278
    -2
288
     1
 68
     0
279
    -2
289
     1
 69
     0
  7
STANDARD
140
6.0
170
     5
 62
     0
 63
     7
283
     0
 90
        4
 91
        0
  1

274
    -2
284
     1
 64
     0
275
    -2
285
     1
 65
     0
276
    -2
286
     1
 66
     0
277
    -2
287
     1
 67
     0
278
    -2
288
     1
 68
     0
279
    -2
289
     1
 69
     0
  7
STANDARD
140
4.5
170
     5
 62
     0
 63
     7
283
     0
 90
        4
 91
        0
  1

274
    -2
284
     1
 64
     0
275
    -2
285
     1
 65
     0
276
    -2
286
     1
 66
     0
277
    -2
287
     1
 67
     0
278
    -2
288
     1
 68
     0
279
    -2
289
     1
 69
     0
  0
VISUALSTYLE
  5
3195
102
{ACAD_XDICTIONARY
360
22483
102
}
102
{ACAD_REACTORS
330
318F
102
}
330
318F
100
AcDbVisualStyle
  2

 70
     4
177
     2
291
     0
 71
     0
176
     1
 72
     2
176
     1
 73
     0
176
     1
 90
        0
176
     1
 40
0.6
176
     1
 41
30.0
176
     1
 63
     7
176
     1
 74
     1
176
     1
 91
        4
176
     1
 64
     7
176
     1
 65
   257
176
     1
 75
     1
176
     1
175
     1
176
     1
 42
1.0
176
     1
 92
        0
176
     1
 66
   257
176
     1
 43
1.0
176
     1
 76
     1
176
     1
 77
     6
176
     1
 78
     2
176
     1
 67
     7
176
     1
 79
     5
176
     1
170
     0
176
     1
171
     0
176
     1
290
     0
176
     1
 93
        1
176
     1
 44
0.0
176
     1
173
     0
176
     1
1001
ACAD
1000
AcDbSavedByObjectVersion
1070
     0
  0
VISUALSTYLE
  5
3197
102
{ACAD_XDICTIONARY
360
22487
102
}
102
{ACAD_REACTORS
330
318F
102
}
330
318F
100
AcDbVisualStyle
  2

 70
     6
177
     2
291
     0
 71
     1
176
     1
 72
     2
176
     1
 73
     2
176
     1
 90
        0
176
     1
 40
0.6
176
     1
 41
30.0
176
     1
 63
     7
176
     1
 74
     2
176
     1
 91
        2
176
     1
 64
     7
176
     1
 65
   257
176
     1
 75
     2
176
     1
175
     1
176
     1
 42
40.0
176
     1
 92
        0
176
     1
 66
   257
176
     1
 43
1.0
176
     1
 76
     1
176
     1
 77
     6
176
     1
 78
     2
176
     1
 67
     7
176
     1
 79
     3
176
     1
170
     0
176
     1
171
     0
176
     1
290
     0
176
     1
 93
        1
176
     1
 44
0.0
176
     1
173
     0
176
     1
1001
ACAD
1000
AcDbSavedByObjectVersion
1070
     0
  0
VISUALSTYLE
  5
3196
102
{ACAD_XDICTIONARY
360
22485
102
}
102
{ACAD_REACTORS
330
318F
102
}
330
318F
100
AcDbVisualStyle
  2

 70
     5
177
     2
291
     0
 71
     0
176
     1
 72
     2
176
     1
 73
     0
176
     1
 90
        0
176
     1
 40
0.6
176
     1
 41
30.0
176
     1
 63
     7
176
     1
 74
     1
176
     1
 91
        4
176
     1
 64
     7
176
     1
 65
   257
176
     1
 75
     1
176
     1
175
     1
176
     1
 42
1.0
176
     1
 92
        0
176
     1
 66
   257
176
     1
 43
1.0
176
     1
 76
     1
176
     1
 77
     6
176
     1
 78
     2
176
     1
 67
     7
176
     1
 79
     5
176
     1
170
     0
176
     1
171
     0
176
     1
290
     0
176
     1
 93
        1
176
     1
 44
0.0
176
     1
173
     0
176
     1
1001
ACAD
1000
AcDbSavedByObjectVersion
1070
     0
  0
VISUALSTYLE
  5
3194
102
{ACAD_XDICTIONARY
360
22481
102
}
102
{ACAD_REACTORS
330
318F
102
}
330
318F
100
AcDbVisualStyle
  2

 70
     7
177
     2
291
     1
 71
     1
176
     1
 72
     0
176
     1
 73
     1
176
     1
 90
        0
176
     1
 40
0.6
176
     1
 41
30.0
176
     1
 63
     7
176
     1
 74
     0
176
     1
 91
        4
176
     1
 64
     7
176
     1
 65
   257
176
     1
 75
     1
176
     1
175
     1
176
     1
 42
1.0
176
     1
 92
        8
176
     1
 66
     7
176
     1
 43
1.0
176
     1
 76
     1
176
     1
 77
     6
176
     1
 78
     2
176
     1
 67
     7
176
     1
 79
     5
176
     1
170
     0
176
     1
171
     0
176
     1
290
     0
176
     1
 93
        1
176
     1
 44
0.0
176
     1
173
     0
176
     1
1001
ACAD
1000
AcDbSavedByObjectVersion
1070
     0
  0
VISUALSTYLE
  5
319B
102
{ACAD_XDICTIONARY
360
2248F
102
}
102
{ACAD_REACTORS
330
318F
102
}
330
318F
100
AcDbVisualStyle
  2

 70
    12
177
     2
291
     1
 71
     2
176
     1
 72
     2
176
     1
 73
     0
176
     1
 90
        0
176
     1
 40
0.6
176
     1
 41
30.0
176
     1
 63
     7
176
     1
 74
     1
176
     1
 91
        4
176
     1
 64
     7
176
     1
 65
   257
176
     1
 75
     1
176
     1
175
     1
176
     1
 42
1.0
176
     1
 92
        8
176
     1
 66
     7
176
     1
 43
1.0
176
     1
 76
     1
176
     1
 77
     6
176
     1
 78
     2
176
     1
 67
     7
176
     1
 79
     5
176
     1
170
     0
176
     1
171
     0
176
     1
290
     0
176
     1
 93
        1
176
     1
 44
50.0
176
     1
173
     0
176
     1
1001
ACAD
1000
AcDbSavedByObjectVersion
1070
     0
  0
VISUALSTYLE
  5
319F
102
{ACAD_XDICTIONARY
360
22497
102
}
102
{ACAD_REACTORS
330
318F
102
}
330
318F
100
AcDbVisualStyle
  2

 70
    16
177
     2
291
     1
 71
     2
176
     1
 72
     2
176
     1
 73
     3
176
     1
 90
        0
176
     1
 40
0.6
176
     1
 41
30.0
176
     1
 63
     8
176
     1
 74
     1
176
     1
 91
        4
176
     1
 64
     7
176
     1
 65
   257
176
     1
 75
     1
176
     1
175
     1
176
     1
 42
1.0
176
     1
 92
        8
176
     1
 66
     8
176
     1
 43
1.0
176
     1
 76
     1
176
     1
 77
     6
176
     1
 78
     2
176
     1
 67
     7
176
     1
 79
     5
176
     1
170
     0
176
     1
171
     0
176
     1
290
     0
176
     1
 93
        1
176
     1
 44
0.0
176
     1
173
     0
176
     1
1001
ACAD
1000
AcDbSavedByObjectVersion
1070
     0
  0
VISUALSTYLE
  5
3198
102
{ACAD_XDICTIONARY
360
22489
102
}
102
{ACAD_REACTORS
330
318F
102
}
330
318F
100
AcDbVisualStyle
  2

 70
     9
177
     2
291
     0
 71
     3
176
     1
 72
     2
176
     1
 73
     0
176
     1
 90
        0
176
     1
 40
0.6
176
     1
 41
30.0
176
     1
 63
     7
176
     1
 74
     2
176
     1
 91
        2
176
     1
 64
     7
176
     1
 65
   257
176
     1
 75
     1
176
     1
175
     1
176
     1
 42
40.0
176
     1
 92
        8
176
     1
 66
     7
176
     1
 43
1.0
176
     1
 76
     1
176
     1
 77
     6
176
     1
 78
     2
176
     1
 67
     7
176
     1
 79
     3
176
     1
170
     0
176
     1
171
     0
176
     1
290
     0
176
     1
 93
        1
176
     1
 44
0.0
176
     1
173
     0
176
     1
1001
ACAD
1000
AcDbSavedByObjectVersion
1070
     0
  0
VISUALSTYLE
  5
319A
102
{ACAD_XDICTIONARY
360
2248D
102
}
102
{ACAD_REACTORS
330
318F
102
}
330
318F
100
AcDbVisualStyle
  2

 70
    11
177
     2
291
     1
 71
     2
176
     1
 72
     2
176
     1
 73
     0
176
     1
 90
        0
176
     1
 40
0.6
176
     1
 41
30.0
176
     1
 63
     7
176
     1
 74
     1
176
     1
 91
        4
176
     1
 64
     7
176
     1
 65
   257
176
     1
 75
     1
176
     1
175
     1
176
     1
 42
1.0
176
     1
 92
        8
176
     1
 66
     7
176
     1
 43
1.0
176
     1
 76
     1
176
     1
 77
     6
176
     1
 78
     2
176
     1
 67
     7
176
     1
 79
     5
176
     1
170
     0
176
     1
171
     0
176
     1
290
     0
176
     1
 93
        1
176
     1
 44
-50.0
176
     1
173
     0
176
     1
1001
ACAD
1000
AcDbSavedByObjectVersion
1070
     0
  0
VISUALSTYLE
  5
1B2EC
102
{ACAD_XDICTIONARY
360
224AB
102
}
102
{ACAD_REACTORS
330
318F
102
}
330
318F
100
AcDbVisualStyle
  2

 70
    22
177
     2
291
     1
 71
     2
176
     0
 72
     2
176
     0
 73
     0
176
     0
 90
        0
176
     0
 40
0.6
176
     0
 41
30.0
176
     0
 63
     7
176
     0
 74
     1
176
     0
 91
        4
176
     0
 64
     7
176
     0
 65
   257
176
     0
 75
     1
176
     0
175
     1
176
     0
 42
1.0
176
     0
 92
        8
176
     2
 66
     7
176
     0
 43
1.0
176
     0
 76
     1
176
     0
 77
     6
176
     0
 78
     2
176
     0
 67
     7
176
     0
 79
     5
176
     0
170
     0
176
     0
171
     0
176
     0
290
     0
176
     0
 93
        1
176
     0
 44
0.0
176
     0
173
     0
176
     0
1001
ACAD
1000
AcDbSavedByObjectVersion
1070
     0
  0
VISUALSTYLE
  5
319E
102
{ACAD_XDICTIONARY
360
22495
102
}
102
{ACAD_REACTORS
330
318F
102
}
330
318F
100
AcDbVisualStyle
  2

 70
    15
177
     2
291
     1
 71
     2
176
     1
 72
     2
176
     1
 73
     0
176
     1
 90
        0
176
     1
 40
0.6
176
     1
 41
30.0
176
     1
 63
     7
176
     1
 74
     1
176
     1
 91
        4
176
     1
 64
     7
176
     1
 65
   257
176
     1
 75
     1
176
     1
175
     1
176
     1
 42
1.0
176
     1
 92
        8
176
     1
 66
     7
176
     1
 43
1.0
176
     1
 76
     1
176
     1
 77
     6
176
     1
 78
     2
176
     1
 67
     7
176
     1
 79
     5
176
     1
170
     0
176
     1
171
     0
176
     1
290
     0
176
     1
 93
        1
176
     1
 44
0.0
176
     1
173
     0
176
     1
1001
ACAD
1000
AcDbSavedByObjectVersion
1070
     0
  0
VISUALSTYLE
  5
3190
102
{ACAD_XDICTIONARY
360
22479
102
}
102
{ACAD_REACTORS
330
318F
102
}
330
318F
100
AcDbVisualStyle
  2

 70
     0
177
     2
291
     1
 71
     2
176
     1
 72
     1
176
     1
 73
     1
176
     1
 90
        2
176
     1
 40
0.6
176
     1
 41
30.0
176
     1
 63
     7
176
     1
 74
     0
176
     1
 91
        4
176
     1
 64
     7
176
     1
 65
   257
176
     1
 75
     1
176
     1
175
     1
176
     1
 42
1.0
176
     1
 92
        8
176
     1
 66
     7
176
     1
 43
1.0
176
     1
 76
     1
176
     1
 77
     6
176
     1
 78
     2
176
     1
 67
     7
176
     1
 79
     5
176
     1
170
     0
176
     1
171
     0
176
     1
290
     0
176
     1
 93
       13
176
     1
 44
0.0
176
     1
173
     0
176
     1
1001
ACAD
1000
AcDbSavedByObjectVersion
1070
     0
  0
VISUALSTYLE
  5
3191
102
{ACAD_XDICTIONARY
360
2247B
102
}
102
{ACAD_REACTORS
330
318F
102
}
330
318F
100
AcDbVisualStyle
  2

 70
     1
177
     2
291
     1
 71
     2
176
     1
 72
     1
176
     1
 73
     1
176
     1
 90
        2
176
     1
 40
0.6
176
     1
 41
30.0
176
     1
 63
     7
176
     1
 74
     1
176
     1
 91
        4
176
     1
 64
     7
176
     1
 65
   257
176
     1
 75
     1
176
     1
175
     1
176
     1
 42
1.0
176
     1
 92
        0
176
     1
 66
   257
176
     1
 43
1.0
176
     1
 76
     1
176
     1
 77
     6
176
     1
 78
     2
176
     1
 67
     7
176
     1
 79
     5
176
     1
170
     0
176
     1
171
     0
176
     1
290
     0
176
     1
 93
       13
176
     1
 44
0.0
176
     1
173
     0
176
     1
1001
ACAD
1000
AcDbSavedByObjectVersion
1070
     0
  0
VISUALSTYLE
  5
3192
102
{ACAD_XDICTIONARY
360
2247D
102
}
102
{ACAD_REACTORS
330
318F
102
}
330
318F
100
AcDbVisualStyle
  2

 70
     2
177
     2
291
     1
 71
     2
176
     1
 72
     2
176
     1
 73
     1
176
     1
 90
        2
176
     1
 40
0.6
176
     1
 41
30.0
176
     1
 63
     7
176
     1
 74
     0
176
     1
 91
        4
176
     1
 64
     7
176
     1
 65
   257
176
     1
 75
     1
176
     1
175
     1
176
     1
 42
1.0
176
     1
 92
        0
176
     1
 66
     7
176
     1
 43
1.0
176
     1
 76
     1
176
     1
 77
     6
176
     1
 78
     2
176
     1
 67
     7
176
     1
 79
     5
176
     1
170
     0
176
     1
171
     0
176
     1
290
     0
176
     1
 93
       13
176
     1
 44
0.0
176
     1
173
     0
176
     1
1001
ACAD
1000
AcDbSavedByObjectVersion
1070
     0
  0
VISUALSTYLE
  5
3193
102
{ACAD_XDICTIONARY
360
2247F
102
}
102
{ACAD_REACTORS
330
318F
102
}
330
318F
100
AcDbVisualStyle
  2

 70
     3
177
     2
291
     1
 71
     2
176
     1
 72
     2
176
     1
 73
     1
176
     1
 90
        2
176
     1
 40
0.6
176
     1
 41
30.0
176
     1
 63
     7
176
     1
 74
     1
176
     1
 91
        4
176
     1
 64
     7
176
     1
 65
   257
176
     1
 75
     1
176
     1
175
     1
176
     1
 42
1.0
176
     1
 92
        0
176
     1
 66
   257
176
     1
 43
1.0
176
     1
 76
     1
176
     1
 77
     6
176
     1
 78
     2
176
     1
 67
     7
176
     1
 79
     5
176
     1
170
     0
176
     1
171
     0
176
     1
290
     0
176
     1
 93
       13
176
     1
 44
0.0
176
     1
173
     0
176
     1
1001
ACAD
1000
AcDbSavedByObjectVersion
1070
     0
  0
VISUALSTYLE
  5
1B2E4
102
{ACAD_XDICTIONARY
360
2249B
102
}
102
{ACAD_REACTORS
330
318F
102
}
330
318F
100
AcDbVisualStyle
  2

 70
     6
177
     2
291
     0
 71
     1
176
     1
 72
     2
176
     1
 73
     2
176
     1
 90
        0
176
     1
 40
0.6
176
     1
 41
30.0
176
     1
 63
     7
176
     1
 74
     2
176
     1
 91
        2
176
     1
 64
     7
176
     1
 65
   257
176
     1
 75
     2
176
     1
175
     1
176
     1
 42
40.0
176
     1
 92
        0
176
     1
 66
   257
176
     1
 43
1.0
176
     1
 76
     1
176
     1
 77
     6
176
     1
 78
     2
176
     1
 67
     7
176
     1
 79
     3
176
     1
170
     0
176
     1
171
     0
176
     1
290
     0
176
     1
 93
        1
176
     1
 44
0.0
176
     1
173
     0
176
     1
1001
ACAD
1000
AcDbSavedByObjectVersion
1070
     0
  0
VISUALSTYLE
  5
1B2EA
102
{ACAD_XDICTIONARY
360
224A7
102
}
102
{ACAD_REACTORS
330
318F
102
}
330
318F
100
AcDbVisualStyle
  2

 70
    20
177
     2
291
     1
 71
     2
176
     0
 72
     2
176
     0
 73
     0
176
     0
 90
        0
176
     0
 40
0.6
176
     0
 41
30.0
176
     0
 63
     7
176
     0
 74
     1
176
     0
 91
        4
176
     0
 64
     7
176
     0
 65
   257
176
     0
 75
     1
176
     0
175
     1
176
     0
 42
1.0
176
     0
 92
       10
176
     2
 66
     7
176
     0
 43
1.0
176
     0
 76
     1
176
     0
 77
     6
176
     0
 78
     2
176
     0
 67
     7
176
     0
 79
     5
176
     0
170
     0
176
     0
171
     0
176
     0
290
     0
176
     0
 93
        1
176
     0
 44
0.0
176
     0
173
     0
176
     0
1001
ACAD
1000
AcDbSavedByObjectVersion
1070
     0
  0
VISUALSTYLE
  5
319D
102
{ACAD_XDICTIONARY
360
22493
102
}
102
{ACAD_REACTORS
330
318F
102
}
330
318F
100
AcDbVisualStyle
  2

 70
    14
177
     2
291
     1
 71
     2
176
     1
 72
     2
176
     1
 73
     0
176
     1
 90
        0
176
     1
 40
0.6
176
     1
 41
30.0
176
     1
 63
     7
176
     1
 74
     1
176
     1
 91
        4
176
     1
 64
     7
176
     1
 65
   257
176
     1
 75
     7
176
     1
175
     7
176
     1
 42
1.0
176
     1
 92
        8
176
     1
 66
     7
176
     1
 43
1.0
176
     1
 76
     1
176
     1
 77
     6
176
     1
 78
     2
176
     1
 67
     7
176
     1
 79
     5
176
     1
170
     0
176
     1
171
     0
176
     1
290
     0
176
     1
 93
        1
176
     1
 44
0.0
176
     1
173
     0
176
     1
1001
ACAD
1000
AcDbSavedByObjectVersion
1070
     0
  0
VISUALSTYLE
  5
1B2EB
102
{ACAD_XDICTIONARY
360
224A9
102
}
102
{ACAD_REACTORS
330
318F
102
}
330
318F
100
AcDbVisualStyle
  2

 70
    21
177
     2
291
     1
 71
     2
176
     0
 72
     2
176
     0
 73
     0
176
     0
 90
        0
176
     0
 40
0.6
176
     0
 41
30.0
176
     0
 63
     7
176
     0
 74
     1
176
     0
 91
        4
176
     0
 64
     7
176
     0
 65
   257
176
     0
 75
     1
176
     0
175
     1
176
     0
 42
1.0
176
     0
 92
        9
176
     2
 66
     7
176
     0
 43
1.0
176
     0
 76
     1
176
     0
 77
     6
176
     0
 78
     2
176
     0
 67
     7
176
     0
 79
     5
176
     0
170
     0
176
     0
171
     0
176
     0
290
     0
176
     0
 93
        1
176
     0
 44
0.0
176
     0
173
     0
176
     0
1001
ACAD
1000
AcDbSavedByObjectVersion
1070
     0
  0
VISUALSTYLE
  5
3199
102
{ACAD_XDICTIONARY
360
2248B
102
}
102
{ACAD_REACTORS
330
318F
102
}
330
318F
100
AcDbVisualStyle
  2

 70
     8
177
     2
291
     0
 71
     2
176
     1
 72
     2
176
     1
 73
     0
176
     1
 90
        0
176
     1
 40
0.6
176
     1
 41
30.0
176
     1
 63
     7
176
     1
 74
     1
176
     1
 91
        0
176
     1
 64
     7
176
     1
 65
   257
176
     1
 75
     1
176
     1
175
     1
176
     1
 42
1.0
176
     1
 92
        8
176
     1
 66
     8
176
     1
 43
1.0
176
     1
 76
     1
176
     1
 77
     6
176
     1
 78
     2
176
     1
 67
     7
176
     1
 79
     5
176
     1
170
     0
176
     1
171
     0
176
     1
290
     0
176
     1
 93
       13
176
     1
 44
0.0
176
     1
173
     0
176
     1
1001
ACAD
1000
AcDbSavedByObjectVersion
1070
     0
  0
VISUALSTYLE
  5
1B2E9
102
{ACAD_XDICTIONARY
360
224A5
102
}
102
{ACAD_REACTORS
330
318F
102
}
330
318F
100
AcDbVisualStyle
  2

 70
    27
177
     2
291
     0
 71
     2
176
     1
 72
     2
176
     1
 73
     1
176
     1
 90
        2
176
     1
 40
0.6
176
     1
 41
30.0
176
     1
 63
     7
176
     1
 74
     0
176
     1
 91
        4
176
     1
 64
     7
176
     1
 65
   257
176
     1
 75
     1
176
     1
175
     1
176
     1
 42
1.0
176
     1
 92
        8
176
     1
 66
   257
176
     1
 43
1.0
176
     1
 76
     1
176
     1
 77
     6
176
     1
 78
     2
176
     1
 67
     8
176
     1
 79
     3
176
     1
170
     0
176
     1
171
     0
176
     1
290
     0
176
     1
 93
        5
176
     1
 44
0.0
176
     1
173
     0
176
     1
1001
ACAD
1000
AcDbSavedByObjectVersion
1070
     0
  0
VISUALSTYLE
  5
1B2E8
102
{ACAD_XDICTIONARY
360
224A3
102
}
102
{ACAD_REACTORS
330
318F
102
}
330
318F
100
AcDbVisualStyle
  2

 70
    26
177
     2
291
     0
 71
     2
176
     1
 72
     2
176
     1
 73
     1
176
     1
 90
        2
176
     1
 40
0.6
176
     1
 41
30.0
176
     1
 63
     7
176
     1
 74
     1
176
     1
 91
       10
176
     1
 64
     7
176
     1
 65
   257
176
     1
 75
     2
176
     1
175
     1
176
     1
 42
1.0
176
     1
 92
        8
176
     1
 66
   257
176
     1
 43
1.0
176
     1
 76
     1
176
     1
 77
     6
176
     1
 78
     2
176
     1
 67
     7
176
     1
 79
     3
176
     1
170
     0
176
     1
171
     0
176
     1
290
     0
176
     1
 93
        5
176
     1
 44
0.0
176
     1
173
     0
176
     1
1001
ACAD
1000
AcDbSavedByObjectVersion
1070
     0
  0
VISUALSTYLE
  5
1B2E5
102
{ACAD_XDICTIONARY
360
2249D
102
}
102
{ACAD_REACTORS
330
318F
102
}
330
318F
100
AcDbVisualStyle
  2

 70
    23
177
     2
291
     0
 71
     2
176
     1
 72
     2
176
     1
 73
     3
176
     1
 90
        0
176
     1
 40
0.6
176
     1
 41
30.0
176
     1
 63
     7
176
     1
 74
     2
176
     1
 91
        2
176
     1
 64
     7
176
     1
 65
     7
176
     1
 75
     1
176
     1
175
     1
176
     1
 42
40.0
176
     1
 92
        8
176
     1
 66
     7
176
     1
 43
1.0
176
     1
 76
     1
176
     1
 77
     6
176
     1
 78
     2
176
     1
 67
     7
176
     1
 79
     3
176
     1
170
     0
176
     1
171
     0
176
     1
290
     0
176
     1
 93
        1
176
     1
 44
0.0
176
     1
173
     0
176
     1
1001
ACAD
1000
AcDbSavedByObjectVersion
1070
     0
  0
VISUALSTYLE
  5
1B2E6
102
{ACAD_XDICTIONARY
360
2249F
102
}
102
{ACAD_REACTORS
330
318F
102
}
330
318F
100
AcDbVisualStyle
  2

 70
    24
177
     2
291
     0
 71
     1
176
     1
 72
     2
176
     1
 73
     2
176
     1
 90
        0
176
     1
 40
0.6
176
     1
 41
30.0
176
     1
 63
     7
176
     1
 74
     2
176
     1
 91
        2
176
     1
 64
     7
176
     1
 65
     7
176
     1
 75
     1
176
     1
175
     1
176
     1
 42
40.0
176
     1
 92
       11
176
     1
 66
     7
176
     1
 43
1.0
176
     1
 76
     1
176
     1
 77
     6
176
     1
 78
     2
176
     1
 67
     7
176
     1
 79
     6
176
     1
170
     0
176
     1
171
     0
176
     1
290
     0
176
     1
 93
        1
176
     1
 44
0.0
176
     1
173
     0
176
     1
1001
ACAD
1000
AcDbSavedByObjectVersion
1070
     0
  0
VISUALSTYLE
  5
319C
102
{ACAD_XDICTIONARY
360
22491
102
}
102
{ACAD_REACTORS
330
318F
102
}
330
318F
100
AcDbVisualStyle
  2

 70
    13
177
     2
291
     1
 71
     2
176
     1
 72
     2
176
     1
 73
     0
176
     1
 90
        0
176
     1
 40
0.6
176
     1
 41
30.0
176
     1
 63
     7
176
     1
 74
     1
176
     1
 91
        4
176
     1
 64
     7
176
     1
 65
   257
176
     1
 75
     1
176
     1
175
     1
176
     1
 42
1.0
176
     1
 92
       12
176
     1
 66
     7
176
     1
 43
1.0
176
     1
 76
     1
176
     1
 77
     6
176
     1
 78
     2
176
     1
 67
     7
176
     1
 79
     5
176
     1
170
     0
176
     1
171
     0
176
     1
290
     0
176
     1
 93
        1
176
     1
 44
0.0
176
     1
173
     0
176
     1
1001
ACAD
1000
AcDbSavedByObjectVersion
1070
     0
  0
VISUALSTYLE
  5
1B2E3
102
{ACAD_XDICTIONARY
360
22499
102
}
102
{ACAD_REACTORS
330
318F
102
}
330
318F
100
AcDbVisualStyle
  2

 70
     5
177
     2
291
     0
 71
     0
176
     1
 72
     2
176
     1
 73
     0
176
     1
 90
        0
176
     1
 40
0.6
176
     1
 41
30.0
176
     1
 63
     7
176
     1
 74
     1
176
     1
 91
        4
176
     1
 64
     7
176
     1
 65
   257
176
     1
 75
     1
176
     1
175
     1
176
     1
 42
1.0
176
     1
 92
        0
176
     1
 66
   257
176
     1
 43
1.0
176
     1
 76
     1
176
     1
 77
     6
176
     1
 78
     2
176
     1
 67
     7
176
     1
 79
     3
176
     1
170
     0
176
     1
171
     0
176
     1
290
     0
176
     1
 93
        1
176
     1
 44
0.0
176
     1
173
     0
176
     1
1001
ACAD
1000
AcDbSavedByObjectVersion
1070
     0
  0
VISUALSTYLE
  5
1B2E7
102
{ACAD_XDICTIONARY
360
224A1
102
}
102
{ACAD_REACTORS
330
318F
102
}
330
318F
100
AcDbVisualStyle
  2

 70
    25
177
     2
291
     0
 71
     2
176
     1
 72
     2
176
     1
 73
     1
176
     1
 90
        1
176
     1
 40
0.5
176
     1
 41
30.0
176
     1
 63
     7
176
     1
 74
     1
176
     1
 91
        0
176
     1
 64
     7
176
     1
 65
   257
176
     1
 75
     1
176
     1
175
     1
176
     1
 42
1.0
176
     1
 92
        8
176
     1
 66
     7
176
     1
 43
1.0
176
     1
 76
     1
176
     1
 77
     6
176
     1
 78
     2
176
     1
 67
     7
176
     1
 79
     3
176
     1
170
     0
176
     1
171
     0
176
     1
290
     0
176
     1
 93
       13
176
     1
 44
0.0
176
     1
173
     0
176
     1
1001
ACAD
1000
AcDbSavedByObjectVersion
1070
     0
  0
DICTIONARYVAR
  5
1B222
102
{ACAD_REACTORS
330
33A3
102
}
330
33A3
100
DictionaryVariables
280
     0
  1
1:1
  0
DICTIONARYVAR
  5
1B30F
102
{ACAD_REACTORS
330
33A3
102
}
330
33A3
100
DictionaryVariables
280
     0
  1
STANDARD
  0
DICTIONARYVAR
  5
33A4
102
{ACAD_REACTORS
330
33A3
102
}
330
33A3
100
DictionaryVariables
280
     0
  1
STANDARD
  0
DICTIONARYVAR
  5
1B310
102
{ACAD_REACTORS
330
33A3
102
}
330
33A3
100
DictionaryVariables
280
     0
  1
Metric50
  0
DICTIONARYVAR
  5
1B311
102
{ACAD_REACTORS
330
33A3
102
}
330
33A3
100
DictionaryVariables
280
     0
  1
Metric50
  0
DICTIONARYVAR
  5
9BE8
102
{ACAD_REACTORS
330
33A3
102
}
330
33A3
100
DictionaryVariables
280
     0
  1
1
  0
DICTIONARYVAR
  5
9BE7
102
{ACAD_REACTORS
330
33A3
102
}
330
33A3
100
DictionaryVariables
280
     0
  1
0
  0
DICTIONARYVAR
  5
20993
102
{ACAD_REACTORS
330
33A3
102
}
330
33A3
100
DictionaryVariables
280
     0
  1
1
  0
DICTIONARYVAR
  5
20994
102
{ACAD_REACTORS
330
33A3
102
}
330
33A3
100
DictionaryVariables
280
     0
  1
15
  0
DICTIONARYVAR
  5
20992
102
{ACAD_REACTORS
330
33A3
102
}
330
33A3
100
DictionaryVariables
280
     0
  1
0
  0
DICTIONARYVAR
  5
20991
102
{ACAD_REACTORS
330
33A3
102
}
330
33A3
100
DictionaryVariables
280
     0
  1
0
  0
DICTIONARYVAR
  5
9BE6
102
{ACAD_REACTORS
330
33A3
102
}
330
33A3
100
DictionaryVariables
280
     0
  1
127
  0
DICTIONARY
  5
224B3
330
20CB3
100
AcDbDictionary
280
     1
281
     1
  3
ACAD_XREC_ROUNDTRIP
360
224B4
  0
DICTIONARY
  5
224AF
330
1B2F1
100
AcDbDictionary
280
     1
281
     1
  3
ACAD_XREC_ROUNDTRIP
360
224B0
  0
DICTIONARY
  5
1B22B
330
318D
100
AcDbDictionary
280
     1
281
     1
  3
ACAD_XREC_ROUNDTRIP
360
1B22C
  0
DICTIONARY
  5
1B22D
330
318C
100
AcDbDictionary
280
     1
281
     1
  3
ACAD_XREC_ROUNDTRIP
360
1B22E
  0
DICTIONARY
  5
1B22F
330
318E
100
AcDbDictionary
280
     1
281
     1
  3
ACAD_XREC_ROUNDTRIP
360
1B230
  0
DICTIONARY
  5
224B1
330
20CB1
100
AcDbDictionary
280
     1
281
     1
  3
ACAD_XREC_ROUNDTRIP
360
224B2
  0
DICTIONARY
  5
224AD
330
1B2EF
100
AcDbDictionary
280
     1
281
     1
  3
ACAD_XREC_ROUNDTRIP
360
224AE
  0
DICTIONARY
  5
1B314
330
31A2
100
AcDbDictionary
280
     1
281
     1
  3
ACAD_ROUNDTRIP_2008_TABLESTYLE_CELLSTYLEMAP
360
22477
  0
DICTIONARY
  5
22483
330
3195
100
AcDbDictionary
280
     1
281
     1
  3
ACAD_XREC_ROUNDTRIP
360
22484
  0
DICTIONARY
  5
22487
330
3197
100
AcDbDictionary
280
     1
281
     1
  3
ACAD_XREC_ROUNDTRIP
360
22488
  0
DICTIONARY
  5
22485
330
3196
100
AcDbDictionary
280
     1
281
     1
  3
ACAD_XREC_ROUNDTRIP
360
22486
  0
DICTIONARY
  5
22481
330
3194
100
AcDbDictionary
280
     1
281
     1
  3
ACAD_XREC_ROUNDTRIP
360
22482
  0
DICTIONARY
  5
2248F
330
319B
100
AcDbDictionary
280
     1
281
     1
  3
ACAD_XREC_ROUNDTRIP
360
22490
  0
DICTIONARY
  5
22497
330
319F
100
AcDbDictionary
280
     1
281
     1
  3
ACAD_XREC_ROUNDTRIP
360
22498
  0
DICTIONARY
  5
22489
330
3198
100
AcDbDictionary
280
     1
281
     1
  3
ACAD_XREC_ROUNDTRIP
360
2248A
  0
DICTIONARY
  5
2248D
330
319A
100
AcDbDictionary
280
     1
281
     1
  3
ACAD_XREC_ROUNDTRIP
360
2248E
  0
DICTIONARY
  5
224AB
330
1B2EC
100
AcDbDictionary
280
     1
281
     1
  3
ACAD_XREC_ROUNDTRIP
360
224AC
  0
DICTIONARY
  5
22495
330
319E
100
AcDbDictionary
280
     1
281
     1
  3
ACAD_XREC_ROUNDTRIP
360
22496
  0
DICTIONARY
  5
22479
330
3190
100
AcDbDictionary
280
     1
281
     1
  3
ACAD_XREC_ROUNDTRIP
360
2247A
  0
DICTIONARY
  5
2247B
330
3191
100
AcDbDictionary
280
     1
281
     1
  3
ACAD_XREC_ROUNDTRIP
360
2247C
  0
DICTIONARY
  5
2247D
330
3192
100
AcDbDictionary
280
     1
281
     1
  3
ACAD_XREC_ROUNDTRIP
360
2247E
  0
DICTIONARY
  5
2247F
330
3193
100
AcDbDictionary
280
     1
281
     1
  3
ACAD_XREC_ROUNDTRIP
360
22480
  0
DICTIONARY
  5
2249B
330
1B2E4
100
AcDbDictionary
280
     1
281
     1
  3
ACAD_XREC_ROUNDTRIP
360
2249C
  0
DICTIONARY
  5
224A7
330
1B2EA
100
AcDbDictionary
280
     1
281
     1
  3
ACAD_XREC_ROUNDTRIP
360
224A8
  0
DICTIONARY
  5
22493
330
319D
100
AcDbDictionary
280
     1
281
     1
  3
ACAD_XREC_ROUNDTRIP
360
22494
  0
DICTIONARY
  5
224A9
330
1B2EB
100
AcDbDictionary
280
     1
281
     1
  3
ACAD_XREC_ROUNDTRIP
360
224AA
  0
DICTIONARY
  5
2248B
330
3199
100
AcDbDictionary
280
     1
281
     1
  3
ACAD_XREC_ROUNDTRIP
360
2248C
  0
DICTIONARY
  5
224A5
330
1B2E9
100
AcDbDictionary
280
     1
281
     1
  3
ACAD_XREC_ROUNDTRIP
360
224A6
  0
DICTIONARY
  5
224A3
330
1B2E8
100
AcDbDictionary
280
     1
281
     1
  3
ACAD_XREC_ROUNDTRIP
360
224A4
  0
DICTIONARY
  5
2249D
330
1B2E5
100
AcDbDictionary
280
     1
281
     1
  3
ACAD_XREC_ROUNDTRIP
360
2249E
  0
DICTIONARY
  5
2249F
330
1B2E6
100
AcDbDictionary
280
     1
281
     1
  3
ACAD_XREC_ROUNDTRIP
360
224A0
  0
DICTIONARY
  5
22491
330
319C
100
AcDbDictionary
280
     1
281
     1
  3
ACAD_XREC_ROUNDTRIP
360
22492
  0
DICTIONARY
  5
22499
330
1B2E3
100
AcDbDictionary
280
     1
281
     1
  3
ACAD_XREC_ROUNDTRIP
360
2249A
  0
DICTIONARY
  5
224A1
330
1B2E7
100
AcDbDictionary
280
     1
281
     1
  3
ACAD_XREC_ROUNDTRIP
360
224A2
  0
XRECORD
  5
224B4
102
{ACAD_REACTORS
330
224B3
102
}
330
224B3
100
AcDbXrecord
280
     1
102
DISPLAYNAME
  1
Imperial24
102
FLAGS
 90
        0
  0
XRECORD
  5
224B0
102
{ACAD_REACTORS
330
224AF
102
}
330
224AF
100
AcDbXrecord
280
     1
102
DISPLAYNAME
  1
Metric50
102
FLAGS
 90
        0
  0
XRECORD
  5
1B22C
102
{ACAD_REACTORS
330
1B22B
102
}
330
1B22B
100
AcDbXrecord
280
     1
102
MATERIAL
148
0.0
149
0.0
149
0.0
 93
        0
 94
      127
282
     0
 72
     1
 77
     1
171
     1
175
     1
179
     1
273
     0
  0
XRECORD
  5
1B22E
102
{ACAD_REACTORS
330
1B22D
102
}
330
1B22D
100
AcDbXrecord
280
     1
102
MATERIAL
148
0.0
149
0.0
149
0.0
 93
        0
 94
      127
282
     0
 72
     1
 77
     1
171
     1
175
     1
179
     1
273
     0
  0
XRECORD
  5
1B230
102
{ACAD_REACTORS
330
1B22F
102
}
330
1B22F
100
AcDbXrecord
280
     1
102
MATERIAL
148
0.0
149
0.0
149
0.0
 93
        0
 94
      127
282
     0
 72
     1
 77
     1
171
     1
175
     1
179
     1
273
     0
  0
XRECORD
  5
224B2
102
{ACAD_REACTORS
330
224B1
102
}
330
224B1
100
AcDbXrecord
280
     1
102
DISPLAYNAME
  1
Imperial24
102
FLAGS
 90
        0
  0
XRECORD
  5
224AE
102
{ACAD_REACTORS
330
224AD
102
}
330
224AD
100
AcDbXrecord
280
     1
102
DISPLAYNAME
  1
Metric50
102
FLAGS
 90
        0
  0
CELLSTYLEMAP
  5
22477
102
{ACAD_REACTORS
330
1B314
102
}
330
1B314
100
AcDbCellStyleMap
 90
        3
300
CELLSTYLE
  1
TABLEFORMAT_BEGIN
 90
        5
170
     1
 91
        0
 92
    32768
 62
   257
 93
        1
300
CONTENTFORMAT
  1
CONTENTFORMAT_BEGIN
 90
        0
 91
        0
 92
        4
 93
        0
300

 40
0.0
140
1.0
 94
        5
 62
     0
340
11
144
6.0
309
CONTENTFORMAT_END
171
     1
301
MARGIN
  1
CELLMARGIN_BEGIN
 40
1.5
 40
1.5
 40
1.5
 40
1.5
 40
0.18
 40
0.18
309
CELLMARGIN_END
 94
        6
 95
        1
302
GRIDFORMAT
  1
GRIDFORMAT_BEGIN
 90
        0
 91
        1
 62
     0
 92
       -2
340
0
 93
        0
 40
0.045
309
GRIDFORMAT_END
 95
        2
302
GRIDFORMAT
  1
GRIDFORMAT_BEGIN
 90
        0
 91
        1
 62
     0
 92
       -2
340
0
 93
        0
 40
0.045
309
GRIDFORMAT_END
 95
        4
302
GRIDFORMAT
  1
GRIDFORMAT_BEGIN
 90
        0
 91
        1
 62
     0
 92
       -2
340
0
 93
        0
 40
0.045
309
GRIDFORMAT_END
 95
        8
302
GRIDFORMAT
  1
GRIDFORMAT_BEGIN
 90
        0
 91
        1
 62
     0
 92
       -2
340
0
 93
        0
 40
0.045
309
GRIDFORMAT_END
 95
       16
302
GRIDFORMAT
  1
GRIDFORMAT_BEGIN
 90
        0
 91
        1
 62
     0
 92
       -2
340
0
 93
        0
 40
0.045
309
GRIDFORMAT_END
 95
       32
302
GRIDFORMAT
  1
GRIDFORMAT_BEGIN
 90
        0
 91
        1
 62
     0
 92
       -2
340
0
 93
        0
 40
0.045
309
GRIDFORMAT_END
309
TABLEFORMAT_END
  1
CELLSTYLE_BEGIN
 90
        1
 91
        1
300
_TITLE
309
CELLSTYLE_END
300
CELLSTYLE
  1
TABLEFORMAT_BEGIN
 90
        5
170
     1
 91
        0
 92
        0
 62
   257
 93
        1
300
CONTENTFORMAT
  1
CONTENTFORMAT_BEGIN
 90
        0
 91
        0
 92
        4
 93
        0
300

 40
0.0
140
1.0
 94
        5
 62
     0
340
11
144
4.5
309
CONTENTFORMAT_END
171
     1
301
MARGIN
  1
CELLMARGIN_BEGIN
 40
1.5
 40
1.5
 40
1.5
 40
1.5
 40
0.18
 40
0.18
309
CELLMARGIN_END
 94
        6
 95
        1
302
GRIDFORMAT
  1
GRIDFORMAT_BEGIN
 90
        0
 91
        1
 62
     0
 92
       -2
340
0
 93
        0
 40
0.045
309
GRIDFORMAT_END
 95
        2
302
GRIDFORMAT
  1
GRIDFORMAT_BEGIN
 90
        0
 91
        1
 62
     0
 92
       -2
340
0
 93
        0
 40
0.045
309
GRIDFORMAT_END
 95
        4
302
GRIDFORMAT
  1
GRIDFORMAT_BEGIN
 90
        0
 91
        1
 62
     0
 92
       -2
340
0
 93
        0
 40
0.045
309
GRIDFORMAT_END
 95
        8
302
GRIDFORMAT
  1
GRIDFORMAT_BEGIN
 90
        0
 91
        1
 62
     0
 92
       -2
340
0
 93
        0
 40
0.045
309
GRIDFORMAT_END
 95
       16
302
GRIDFORMAT
  1
GRIDFORMAT_BEGIN
 90
        0
 91
        1
 62
     0
 92
       -2
340
0
 93
        0
 40
0.045
309
GRIDFORMAT_END
 95
       32
302
GRIDFORMAT
  1
GRIDFORMAT_BEGIN
 90
        0
 91
        1
 62
     0
 92
       -2
340
0
 93
        0
 40
0.045
309
GRIDFORMAT_END
309
TABLEFORMAT_END
  1
CELLSTYLE_BEGIN
 90
        2
 91
        1
300
_HEADER
309
CELLSTYLE_END
300
CELLSTYLE
  1
TABLEFORMAT_BEGIN
 90
        5
170
     1
 91
        0
 92
        0
 62
   257
 93
        1
300
CONTENTFORMAT
  1
CONTENTFORMAT_BEGIN
 90
        0
 91
        0
 92
        4
 93
        0
300

 40
0.0
140
1.0
 94
        2
 62
     0
340
11
144
4.5
309
CONTENTFORMAT_END
171
     1
301
MARGIN
  1
CELLMARGIN_BEGIN
 40
1.5
 40
1.5
 40
1.5
 40
1.5
 40
0.18
 40
0.18
309
CELLMARGIN_END
 94
        6
 95
        1
302
GRIDFORMAT
  1
GRIDFORMAT_BEGIN
 90
        0
 91
        1
 62
     0
 92
       -2
340
0
 93
        0
 40
0.045
309
GRIDFORMAT_END
 95
        2
302
GRIDFORMAT
  1
GRIDFORMAT_BEGIN
 90
        0
 91
        1
 62
     0
 92
       -2
340
0
 93
        0
 40
0.045
309
GRIDFORMAT_END
 95
        4
302
GRIDFORMAT
  1
GRIDFORMAT_BEGIN
 90
        0
 91
        1
 62
     0
 92
       -2
340
0
 93
        0
 40
0.045
309
GRIDFORMAT_END
 95
        8
302
GRIDFORMAT
  1
GRIDFORMAT_BEGIN
 90
        0
 91
        1
 62
     0
 92
       -2
340
0
 93
        0
 40
0.045
309
GRIDFORMAT_END
 95
       16
302
GRIDFORMAT
  1
GRIDFORMAT_BEGIN
 90
        0
 91
        1
 62
     0
 92
       -2
340
0
 93
        0
 40
0.045
309
GRIDFORMAT_END
 95
       32
302
GRIDFORMAT
  1
GRIDFORMAT_BEGIN
 90
        0
 91
        1
 62
     0
 92
       -2
340
0
 93
        0
 40
0.045
309
GRIDFORMAT_END
309
TABLEFORMAT_END
  1
CELLSTYLE_BEGIN
 90
        3
 91
        2
300
_DATA
309
CELLSTYLE_END
  0
XRECORD
  5
22484
102
{ACAD_REACTORS
330
22483
102
}
330
22483
100
AcDbXrecord
280
     1
102
RTVSPost2010Prop28
280
     1
102
RTVSPost2010PropOp28
 70
     1
102
RTVSPost2010Prop29
280
     1
102
RTVSPost2010PropOp29
 70
     1
102
RTVSPost2010Prop30
280
     0
102
RTVSPost2010PropOp30
 70
     1
102
RTVSPost2010Prop31
280
     0
102
RTVSPost2010PropOp31
 70
     1
102
RTVSPost2010Prop32
280
     0
102
RTVSPost2010PropOp32
 70
     1
102
RTVSPost2010Prop33
280
     0
102
RTVSPost2010PropOp33
 70
     1
102
RTVSPost2010Prop34
280
     0
102
RTVSPost2010PropOp34
 70
     1
102
RTVSPost2010Prop35
280
     0
102
RTVSPost2010PropOp35
 70
     1
102
RTVSPost2010Prop36
280
     0
102
RTVSPost2010PropOp36
 70
     1
102
RTVSPost2010Prop37
 90
       50
102
RTVSPost2010PropOp37
 70
     1
102
RTVSPost2010Prop38
140
0.0
102
RTVSPost2010PropOp38
 70
     1
102
RTVSPost2010Prop39
140
1.0
102
RTVSPost2010PropOp39
 70
     1
102
RTVSPost2010Prop40
 90
        0
102
RTVSPost2010PropOp40
 70
     1
102
RTVSPost2010Prop41ColorIndex
 90
       18
102
RTVSPost2010Prop41ColorRGB
 90
        0
102
RTVSPost2010PropOp41
 70
     1
102
RTVSPost2010Prop42
 90
       50
102
RTVSPost2010PropOp42
 70
     1
102
RTVSPost2010Prop43
 90
        3
102
RTVSPost2010PropOp43
 70
     1
102
RTVSPost2010Prop44ColorIndex
 90
        5
102
RTVSPost2010Prop44ColorRGB
 90
      255
102
RTVSPost2010PropOp44
 70
     1
102
RTVSPost2010Prop45
280
     0
102
RTVSPost2010PropOp45
 70
     1
102
RTVSPost2010Prop46
 90
       50
102
RTVSPost2010PropOp46
 70
     1
102
RTVSPost2010Prop47
 90
       50
102
RTVSPost2010PropOp47
 70
     1
102
RTVSPost2010Prop48
 90
       50
102
RTVSPost2010PropOp48
 70
     1
102
RTVSPost2010Prop49
280
     0
102
RTVSPost2010PropOp49
 70
     1
102
RTVSPost2010Prop50
 90
       50
102
RTVSPost2010PropOp50
 70
     1
102
RTVSPost2010Prop51ColorIndex
 90
      256
102
RTVSPost2010Prop51ColorRGB
 90
-16777216
102
RTVSPost2010PropOp51
 70
     0
102
RTVSPost2010Prop52
140
1.0
102
RTVSPost2010PropOp52
 70
     0
102
RTVSPost2010Prop53
 90
        2
102
RTVSPost2010PropOp53
 70
     1
102
RTVSPost2010Prop54
  1
strokes_ogs.tif
102
RTVSPost2010PropOp54
 70
     1
102
RTVSPost2010Prop55
280
     0
102
RTVSPost2010PropOp55
 70
     1
102
RTVSPost2010Prop56
140
1.0
102
RTVSPost2010PropOp56
 70
     1
102
RTVSPost2010Prop57
140
1.0
102
RTVSPost2010PropOp57
 70
     1
  0
XRECORD
  5
22488
102
{ACAD_REACTORS
330
22487
102
}
330
22487
100
AcDbXrecord
280
     1
102
RTVSPost2010Prop28
280
     0
102
RTVSPost2010PropOp28
 70
     1
102
RTVSPost2010Prop29
280
     1
102
RTVSPost2010PropOp29
 70
     1
102
RTVSPost2010Prop30
280
     1
102
RTVSPost2010PropOp30
 70
     1
102
RTVSPost2010Prop31
280
     0
102
RTVSPost2010PropOp31
 70
     1
102
RTVSPost2010Prop32
280
     0
102
RTVSPost2010PropOp32
 70
     1
102
RTVSPost2010Prop33
280
     0
102
RTVSPost2010PropOp33
 70
     1
102
RTVSPost2010Prop34
280
     0
102
RTVSPost2010PropOp34
 70
     1
102
RTVSPost2010Prop35
280
     0
102
RTVSPost2010PropOp35
 70
     1
102
RTVSPost2010Prop36
280
     0
102
RTVSPost2010PropOp36
 70
     1
102
RTVSPost2010Prop37
 90
       50
102
RTVSPost2010PropOp37
 70
     1
102
RTVSPost2010Prop38
140
0.0
102
RTVSPost2010PropOp38
 70
     1
102
RTVSPost2010Prop39
140
1.0
102
RTVSPost2010PropOp39
 70
     1
102
RTVSPost2010Prop40
 90
        0
102
RTVSPost2010PropOp40
 70
     1
102
RTVSPost2010Prop41ColorIndex
 90
       18
102
RTVSPost2010Prop41ColorRGB
 90
        0
102
RTVSPost2010PropOp41
 70
     1
102
RTVSPost2010Prop42
 90
       50
102
RTVSPost2010PropOp42
 70
     1
102
RTVSPost2010Prop43
 90
        3
102
RTVSPost2010PropOp43
 70
     1
102
RTVSPost2010Prop44ColorIndex
 90
        5
102
RTVSPost2010Prop44ColorRGB
 90
      255
102
RTVSPost2010PropOp44
 70
     1
102
RTVSPost2010Prop45
280
     0
102
RTVSPost2010PropOp45
 70
     1
102
RTVSPost2010Prop46
 90
       50
102
RTVSPost2010PropOp46
 70
     1
102
RTVSPost2010Prop47
 90
       50
102
RTVSPost2010PropOp47
 70
     1
102
RTVSPost2010Prop48
 90
       50
102
RTVSPost2010PropOp48
 70
     1
102
RTVSPost2010Prop49
280
     0
102
RTVSPost2010PropOp49
 70
     1
102
RTVSPost2010Prop50
 90
       50
102
RTVSPost2010PropOp50
 70
     1
102
RTVSPost2010Prop51ColorIndex
 90
      256
102
RTVSPost2010Prop51ColorRGB
 90
-16777216
102
RTVSPost2010PropOp51
 70
     0
102
RTVSPost2010Prop52
140
1.0
102
RTVSPost2010PropOp52
 70
     0
102
RTVSPost2010Prop53
 90
        2
102
RTVSPost2010PropOp53
 70
     1
102
RTVSPost2010Prop54
  1
strokes_ogs.tif
102
RTVSPost2010PropOp54
 70
     1
102
RTVSPost2010Prop55
280
     0
102
RTVSPost2010PropOp55
 70
     1
102
RTVSPost2010Prop56
140
1.0
102
RTVSPost2010PropOp56
 70
     1
102
RTVSPost2010Prop57
140
1.0
102
RTVSPost2010PropOp57
 70
     1
  0
XRECORD
  5
22486
102
{ACAD_REACTORS
330
22485
102
}
330
22485
100
AcDbXrecord
280
     1
102
RTVSPost2010Prop28
280
     0
102
RTVSPost2010PropOp28
 70
     1
102
RTVSPost2010Prop29
280
     1
102
RTVSPost2010PropOp29
 70
     1
102
RTVSPost2010Prop30
280
     1
102
RTVSPost2010PropOp30
 70
     1
102
RTVSPost2010Prop31
280
     0
102
RTVSPost2010PropOp31
 70
     1
102
RTVSPost2010Prop32
280
     0
102
RTVSPost2010PropOp32
 70
     1
102
RTVSPost2010Prop33
280
     0
102
RTVSPost2010PropOp33
 70
     1
102
RTVSPost2010Prop34
280
     0
102
RTVSPost2010PropOp34
 70
     1
102
RTVSPost2010Prop35
280
     0
102
RTVSPost2010PropOp35
 70
     1
102
RTVSPost2010Prop36
280
     0
102
RTVSPost2010PropOp36
 70
     1
102
RTVSPost2010Prop37
 90
       50
102
RTVSPost2010PropOp37
 70
     1
102
RTVSPost2010Prop38
140
0.0
102
RTVSPost2010PropOp38
 70
     1
102
RTVSPost2010Prop39
140
1.0
102
RTVSPost2010PropOp39
 70
     1
102
RTVSPost2010Prop40
 90
        0
102
RTVSPost2010PropOp40
 70
     1
102
RTVSPost2010Prop41ColorIndex
 90
       18
102
RTVSPost2010Prop41ColorRGB
 90
        0
102
RTVSPost2010PropOp41
 70
     1
102
RTVSPost2010Prop42
 90
       50
102
RTVSPost2010PropOp42
 70
     1
102
RTVSPost2010Prop43
 90
        3
102
RTVSPost2010PropOp43
 70
     1
102
RTVSPost2010Prop44ColorIndex
 90
        5
102
RTVSPost2010Prop44ColorRGB
 90
      255
102
RTVSPost2010PropOp44
 70
     1
102
RTVSPost2010Prop45
280
     0
102
RTVSPost2010PropOp45
 70
     1
102
RTVSPost2010Prop46
 90
       50
102
RTVSPost2010PropOp46
 70
     1
102
RTVSPost2010Prop47
 90
       50
102
RTVSPost2010PropOp47
 70
     1
102
RTVSPost2010Prop48
 90
       50
102
RTVSPost2010PropOp48
 70
     1
102
RTVSPost2010Prop49
280
     0
102
RTVSPost2010PropOp49
 70
     1
102
RTVSPost2010Prop50
 90
       50
102
RTVSPost2010PropOp50
 70
     1
102
RTVSPost2010Prop51ColorIndex
 90
      256
102
RTVSPost2010Prop51ColorRGB
 90
-16777216
102
RTVSPost2010PropOp51
 70
     0
102
RTVSPost2010Prop52
140
1.0
102
RTVSPost2010PropOp52
 70
     0
102
RTVSPost2010Prop53
 90
        2
102
RTVSPost2010PropOp53
 70
     1
102
RTVSPost2010Prop54
  1
strokes_ogs.tif
102
RTVSPost2010PropOp54
 70
     1
102
RTVSPost2010Prop55
280
     0
102
RTVSPost2010PropOp55
 70
     1
102
RTVSPost2010Prop56
140
1.0
102
RTVSPost2010PropOp56
 70
     1
102
RTVSPost2010Prop57
140
1.0
102
RTVSPost2010PropOp57
 70
     1
  0
XRECORD
  5
22482
102
{ACAD_REACTORS
330
22481
102
}
330
22481
100
AcDbXrecord
280
     1
102
RTVSPost2010Prop28
280
     0
102
RTVSPost2010PropOp28
 70
     1
102
RTVSPost2010Prop29
280
     1
102
RTVSPost2010PropOp29
 70
     1
102
RTVSPost2010Prop30
280
     1
102
RTVSPost2010PropOp30
 70
     1
102
RTVSPost2010Prop31
280
     0
102
RTVSPost2010PropOp31
 70
     1
102
RTVSPost2010Prop32
280
     0
102
RTVSPost2010PropOp32
 70
     1
102
RTVSPost2010Prop33
280
     0
102
RTVSPost2010PropOp33
 70
     1
102
RTVSPost2010Prop34
280
     0
102
RTVSPost2010PropOp34
 70
     1
102
RTVSPost2010Prop35
280
     0
102
RTVSPost2010PropOp35
 70
     1
102
RTVSPost2010Prop36
280
     0
102
RTVSPost2010PropOp36
 70
     1
102
RTVSPost2010Prop37
 90
       50
102
RTVSPost2010PropOp37
 70
     1
102
RTVSPost2010Prop38
140
0.0
102
RTVSPost2010PropOp38
 70
     1
102
RTVSPost2010Prop39
140
1.0
102
RTVSPost2010PropOp39
 70
     1
102
RTVSPost2010Prop40
 90
        0
102
RTVSPost2010PropOp40
 70
     1
102
RTVSPost2010Prop41ColorIndex
 90
       18
102
RTVSPost2010Prop41ColorRGB
 90
        0
102
RTVSPost2010PropOp41
 70
     1
102
RTVSPost2010Prop42
 90
       50
102
RTVSPost2010PropOp42
 70
     1
102
RTVSPost2010Prop43
 90
        3
102
RTVSPost2010PropOp43
 70
     1
102
RTVSPost2010Prop44ColorIndex
 90
        5
102
RTVSPost2010Prop44ColorRGB
 90
      255
102
RTVSPost2010PropOp44
 70
     1
102
RTVSPost2010Prop45
280
     0
102
RTVSPost2010PropOp45
 70
     1
102
RTVSPost2010Prop46
 90
       50
102
RTVSPost2010PropOp46
 70
     1
102
RTVSPost2010Prop47
 90
       50
102
RTVSPost2010PropOp47
 70
     1
102
RTVSPost2010Prop48
 90
       50
102
RTVSPost2010PropOp48
 70
     1
102
RTVSPost2010Prop49
280
     0
102
RTVSPost2010PropOp49
 70
     1
102
RTVSPost2010Prop50
 90
       50
102
RTVSPost2010PropOp50
 70
     1
102
RTVSPost2010Prop51ColorIndex
 90
      256
102
RTVSPost2010Prop51ColorRGB
 90
-16777216
102
RTVSPost2010PropOp51
 70
     0
102
RTVSPost2010Prop52
140
1.0
102
RTVSPost2010PropOp52
 70
     0
102
RTVSPost2010Prop53
 90
        2
102
RTVSPost2010PropOp53
 70
     1
102
RTVSPost2010Prop54
  1
strokes_ogs.tif
102
RTVSPost2010PropOp54
 70
     1
102
RTVSPost2010Prop55
280
     0
102
RTVSPost2010PropOp55
 70
     1
102
RTVSPost2010Prop56
140
1.0
102
RTVSPost2010PropOp56
 70
     1
102
RTVSPost2010Prop57
140
1.0
102
RTVSPost2010PropOp57
 70
     1
  0
XRECORD
  5
22490
102
{ACAD_REACTORS
330
2248F
102
}
330
2248F
100
AcDbXrecord
280
     1
102
RTVSPost2010Prop28
280
     0
102
RTVSPost2010PropOp28
 70
     1
102
RTVSPost2010Prop29
280
     1
102
RTVSPost2010PropOp29
 70
     1
102
RTVSPost2010Prop30
280
     1
102
RTVSPost2010PropOp30
 70
     1
102
RTVSPost2010Prop31
280
     0
102
RTVSPost2010PropOp31
 70
     1
102
RTVSPost2010Prop32
280
     0
102
RTVSPost2010PropOp32
 70
     1
102
RTVSPost2010Prop33
280
     0
102
RTVSPost2010PropOp33
 70
     1
102
RTVSPost2010Prop34
280
     0
102
RTVSPost2010PropOp34
 70
     1
102
RTVSPost2010Prop35
280
     0
102
RTVSPost2010PropOp35
 70
     1
102
RTVSPost2010Prop36
280
     0
102
RTVSPost2010PropOp36
 70
     1
102
RTVSPost2010Prop37
 90
       50
102
RTVSPost2010PropOp37
 70
     1
102
RTVSPost2010Prop38
140
0.0
102
RTVSPost2010PropOp38
 70
     1
102
RTVSPost2010Prop39
140
1.0
102
RTVSPost2010PropOp39
 70
     1
102
RTVSPost2010Prop40
 90
        0
102
RTVSPost2010PropOp40
 70
     1
102
RTVSPost2010Prop41ColorIndex
 90
       18
102
RTVSPost2010Prop41ColorRGB
 90
        0
102
RTVSPost2010PropOp41
 70
     1
102
RTVSPost2010Prop42
 90
       50
102
RTVSPost2010PropOp42
 70
     1
102
RTVSPost2010Prop43
 90
        3
102
RTVSPost2010PropOp43
 70
     1
102
RTVSPost2010Prop44ColorIndex
 90
        5
102
RTVSPost2010Prop44ColorRGB
 90
      255
102
RTVSPost2010PropOp44
 70
     1
102
RTVSPost2010Prop45
280
     0
102
RTVSPost2010PropOp45
 70
     1
102
RTVSPost2010Prop46
 90
       50
102
RTVSPost2010PropOp46
 70
     1
102
RTVSPost2010Prop47
 90
       50
102
RTVSPost2010PropOp47
 70
     1
102
RTVSPost2010Prop48
 90
       50
102
RTVSPost2010PropOp48
 70
     1
102
RTVSPost2010Prop49
280
     0
102
RTVSPost2010PropOp49
 70
     1
102
RTVSPost2010Prop50
 90
       50
102
RTVSPost2010PropOp50
 70
     1
102
RTVSPost2010Prop51ColorIndex
 90
      256
102
RTVSPost2010Prop51ColorRGB
 90
-16777216
102
RTVSPost2010PropOp51
 70
     0
102
RTVSPost2010Prop52
140
1.0
102
RTVSPost2010PropOp52
 70
     0
102
RTVSPost2010Prop53
 90
        2
102
RTVSPost2010PropOp53
 70
     1
102
RTVSPost2010Prop54
  1
strokes_ogs.tif
102
RTVSPost2010PropOp54
 70
     1
102
RTVSPost2010Prop55
280
     0
102
RTVSPost2010PropOp55
 70
     1
102
RTVSPost2010Prop56
140
1.0
102
RTVSPost2010PropOp56
 70
     1
102
RTVSPost2010Prop57
140
1.0
102
RTVSPost2010PropOp57
 70
     1
  0
XRECORD
  5
22498
102
{ACAD_REACTORS
330
22497
102
}
330
22497
100
AcDbXrecord
280
     1
102
RTVSPost2010Prop28
280
     0
102
RTVSPost2010PropOp28
 70
     1
102
RTVSPost2010Prop29
280
     1
102
RTVSPost2010PropOp29
 70
     1
102
RTVSPost2010Prop30
280
     1
102
RTVSPost2010PropOp30
 70
     1
102
RTVSPost2010Prop31
280
     0
102
RTVSPost2010PropOp31
 70
     1
102
RTVSPost2010Prop32
280
     0
102
RTVSPost2010PropOp32
 70
     1
102
RTVSPost2010Prop33
280
     0
102
RTVSPost2010PropOp33
 70
     1
102
RTVSPost2010Prop34
280
     0
102
RTVSPost2010PropOp34
 70
     1
102
RTVSPost2010Prop35
280
     0
102
RTVSPost2010PropOp35
 70
     1
102
RTVSPost2010Prop36
280
     0
102
RTVSPost2010PropOp36
 70
     1
102
RTVSPost2010Prop37
 90
       50
102
RTVSPost2010PropOp37
 70
     1
102
RTVSPost2010Prop38
140
0.0
102
RTVSPost2010PropOp38
 70
     1
102
RTVSPost2010Prop39
140
1.0
102
RTVSPost2010PropOp39
 70
     1
102
RTVSPost2010Prop40
 90
        0
102
RTVSPost2010PropOp40
 70
     1
102
RTVSPost2010Prop41ColorIndex
 90
       18
102
RTVSPost2010Prop41ColorRGB
 90
        0
102
RTVSPost2010PropOp41
 70
     1
102
RTVSPost2010Prop42
 90
       50
102
RTVSPost2010PropOp42
 70
     1
102
RTVSPost2010Prop43
 90
        3
102
RTVSPost2010PropOp43
 70
     1
102
RTVSPost2010Prop44ColorIndex
 90
        5
102
RTVSPost2010Prop44ColorRGB
 90
      255
102
RTVSPost2010PropOp44
 70
     1
102
RTVSPost2010Prop45
280
     0
102
RTVSPost2010PropOp45
 70
     1
102
RTVSPost2010Prop46
 90
       50
102
RTVSPost2010PropOp46
 70
     1
102
RTVSPost2010Prop47
 90
       50
102
RTVSPost2010PropOp47
 70
     1
102
RTVSPost2010Prop48
 90
       50
102
RTVSPost2010PropOp48
 70
     1
102
RTVSPost2010Prop49
280
     0
102
RTVSPost2010PropOp49
 70
     1
102
RTVSPost2010Prop50
 90
       50
102
RTVSPost2010PropOp50
 70
     1
102
RTVSPost2010Prop51ColorIndex
 90
      256
102
RTVSPost2010Prop51ColorRGB
 90
-16777216
102
RTVSPost2010PropOp51
 70
     0
102
RTVSPost2010Prop52
140
1.0
102
RTVSPost2010PropOp52
 70
     0
102
RTVSPost2010Prop53
 90
        2
102
RTVSPost2010PropOp53
 70
     1
102
RTVSPost2010Prop54
  1
strokes_ogs.tif
102
RTVSPost2010PropOp54
 70
     1
102
RTVSPost2010Prop55
280
     0
102
RTVSPost2010PropOp55
 70
     1
102
RTVSPost2010Prop56
140
1.0
102
RTVSPost2010PropOp56
 70
     1
102
RTVSPost2010Prop57
140
1.0
102
RTVSPost2010PropOp57
 70
     1
  0
XRECORD
  5
2248A
102
{ACAD_REACTORS
330
22489
102
}
330
22489
100
AcDbXrecord
280
     1
102
RTVSPost2010Prop28
280
     0
102
RTVSPost2010PropOp28
 70
     1
102
RTVSPost2010Prop29
280
     1
102
RTVSPost2010PropOp29
 70
     1
102
RTVSPost2010Prop30
280
     1
102
RTVSPost2010PropOp30
 70
     1
102
RTVSPost2010Prop31
280
     0
102
RTVSPost2010PropOp31
 70
     1
102
RTVSPost2010Prop32
280
     0
102
RTVSPost2010PropOp32
 70
     1
102
RTVSPost2010Prop33
280
     0
102
RTVSPost2010PropOp33
 70
     1
102
RTVSPost2010Prop34
280
     0
102
RTVSPost2010PropOp34
 70
     1
102
RTVSPost2010Prop35
280
     0
102
RTVSPost2010PropOp35
 70
     1
102
RTVSPost2010Prop36
280
     0
102
RTVSPost2010PropOp36
 70
     1
102
RTVSPost2010Prop37
 90
       50
102
RTVSPost2010PropOp37
 70
     1
102
RTVSPost2010Prop38
140
0.0
102
RTVSPost2010PropOp38
 70
     1
102
RTVSPost2010Prop39
140
1.0
102
RTVSPost2010PropOp39
 70
     1
102
RTVSPost2010Prop40
 90
        0
102
RTVSPost2010PropOp40
 70
     1
102
RTVSPost2010Prop41ColorIndex
 90
       18
102
RTVSPost2010Prop41ColorRGB
 90
        0
102
RTVSPost2010PropOp41
 70
     1
102
RTVSPost2010Prop42
 90
       50
102
RTVSPost2010PropOp42
 70
     1
102
RTVSPost2010Prop43
 90
        3
102
RTVSPost2010PropOp43
 70
     1
102
RTVSPost2010Prop44ColorIndex
 90
        5
102
RTVSPost2010Prop44ColorRGB
 90
      255
102
RTVSPost2010PropOp44
 70
     1
102
RTVSPost2010Prop45
280
     0
102
RTVSPost2010PropOp45
 70
     1
102
RTVSPost2010Prop46
 90
       50
102
RTVSPost2010PropOp46
 70
     1
102
RTVSPost2010Prop47
 90
       50
102
RTVSPost2010PropOp47
 70
     1
102
RTVSPost2010Prop48
 90
       50
102
RTVSPost2010PropOp48
 70
     1
102
RTVSPost2010Prop49
280
     0
102
RTVSPost2010PropOp49
 70
     1
102
RTVSPost2010Prop50
 90
       50
102
RTVSPost2010PropOp50
 70
     1
102
RTVSPost2010Prop51ColorIndex
 90
      256
102
RTVSPost2010Prop51ColorRGB
 90
-16777216
102
RTVSPost2010PropOp51
 70
     0
102
RTVSPost2010Prop52
140
1.0
102
RTVSPost2010PropOp52
 70
     0
102
RTVSPost2010Prop53
 90
        2
102
RTVSPost2010PropOp53
 70
     1
102
RTVSPost2010Prop54
  1
strokes_ogs.tif
102
RTVSPost2010PropOp54
 70
     1
102
RTVSPost2010Prop55
280
     0
102
RTVSPost2010PropOp55
 70
     1
102
RTVSPost2010Prop56
140
1.0
102
RTVSPost2010PropOp56
 70
     1
102
RTVSPost2010Prop57
140
1.0
102
RTVSPost2010PropOp57
 70
     1
  0
XRECORD
  5
2248E
102
{ACAD_REACTORS
330
2248D
102
}
330
2248D
100
AcDbXrecord
280
     1
102
RTVSPost2010Prop28
280
     0
102
RTVSPost2010PropOp28
 70
     1
102
RTVSPost2010Prop29
280
     1
102
RTVSPost2010PropOp29
 70
     1
102
RTVSPost2010Prop30
280
     1
102
RTVSPost2010PropOp30
 70
     1
102
RTVSPost2010Prop31
280
     0
102
RTVSPost2010PropOp31
 70
     1
102
RTVSPost2010Prop32
280
     0
102
RTVSPost2010PropOp32
 70
     1
102
RTVSPost2010Prop33
280
     0
102
RTVSPost2010PropOp33
 70
     1
102
RTVSPost2010Prop34
280
     0
102
RTVSPost2010PropOp34
 70
     1
102
RTVSPost2010Prop35
280
     0
102
RTVSPost2010PropOp35
 70
     1
102
RTVSPost2010Prop36
280
     0
102
RTVSPost2010PropOp36
 70
     1
102
RTVSPost2010Prop37
 90
       50
102
RTVSPost2010PropOp37
 70
     1
102
RTVSPost2010Prop38
140
0.0
102
RTVSPost2010PropOp38
 70
     1
102
RTVSPost2010Prop39
140
1.0
102
RTVSPost2010PropOp39
 70
     1
102
RTVSPost2010Prop40
 90
        0
102
RTVSPost2010PropOp40
 70
     1
102
RTVSPost2010Prop41ColorIndex
 90
       18
102
RTVSPost2010Prop41ColorRGB
 90
        0
102
RTVSPost2010PropOp41
 70
     1
102
RTVSPost2010Prop42
 90
       50
102
RTVSPost2010PropOp42
 70
     1
102
RTVSPost2010Prop43
 90
        3
102
RTVSPost2010PropOp43
 70
     1
102
RTVSPost2010Prop44ColorIndex
 90
        5
102
RTVSPost2010Prop44ColorRGB
 90
      255
102
RTVSPost2010PropOp44
 70
     1
102
RTVSPost2010Prop45
280
     0
102
RTVSPost2010PropOp45
 70
     1
102
RTVSPost2010Prop46
 90
       50
102
RTVSPost2010PropOp46
 70
     1
102
RTVSPost2010Prop47
 90
       50
102
RTVSPost2010PropOp47
 70
     1
102
RTVSPost2010Prop48
 90
       50
102
RTVSPost2010PropOp48
 70
     1
102
RTVSPost2010Prop49
280
     0
102
RTVSPost2010PropOp49
 70
     1
102
RTVSPost2010Prop50
 90
       50
102
RTVSPost2010PropOp50
 70
     1
102
RTVSPost2010Prop51ColorIndex
 90
      256
102
RTVSPost2010Prop51ColorRGB
 90
-16777216
102
RTVSPost2010PropOp51
 70
     0
102
RTVSPost2010Prop52
140
1.0
102
RTVSPost2010PropOp52
 70
     0
102
RTVSPost2010Prop53
 90
        2
102
RTVSPost2010PropOp53
 70
     1
102
RTVSPost2010Prop54
  1
strokes_ogs.tif
102
RTVSPost2010PropOp54
 70
     1
102
RTVSPost2010Prop55
280
     0
102
RTVSPost2010PropOp55
 70
     1
102
RTVSPost2010Prop56
140
1.0
102
RTVSPost2010PropOp56
 70
     1
102
RTVSPost2010Prop57
140
1.0
102
RTVSPost2010PropOp57
 70
     1
  0
XRECORD
  5
224AC
102
{ACAD_REACTORS
330
224AB
102
}
330
224AB
100
AcDbXrecord
280
     1
102
RTVSPost2010Prop28
280
     0
102
RTVSPost2010PropOp28
 70
     1
102
RTVSPost2010Prop29
280
     1
102
RTVSPost2010PropOp29
 70
     1
102
RTVSPost2010Prop30
280
     1
102
RTVSPost2010PropOp30
 70
     1
102
RTVSPost2010Prop31
280
     0
102
RTVSPost2010PropOp31
 70
     1
102
RTVSPost2010Prop32
280
     0
102
RTVSPost2010PropOp32
 70
     1
102
RTVSPost2010Prop33
280
     0
102
RTVSPost2010PropOp33
 70
     1
102
RTVSPost2010Prop34
280
     0
102
RTVSPost2010PropOp34
 70
     1
102
RTVSPost2010Prop35
280
     0
102
RTVSPost2010PropOp35
 70
     1
102
RTVSPost2010Prop36
280
     0
102
RTVSPost2010PropOp36
 70
     1
102
RTVSPost2010Prop37
 90
       50
102
RTVSPost2010PropOp37
 70
     0
102
RTVSPost2010Prop38
140
0.0
102
RTVSPost2010PropOp38
 70
     0
102
RTVSPost2010Prop39
140
1.0
102
RTVSPost2010PropOp39
 70
     0
102
RTVSPost2010Prop40
 90
        0
102
RTVSPost2010PropOp40
 70
     0
102
RTVSPost2010Prop41ColorIndex
 90
       18
102
RTVSPost2010Prop41ColorRGB
 90
        0
102
RTVSPost2010PropOp41
 70
     0
102
RTVSPost2010Prop42
 90
       50
102
RTVSPost2010PropOp42
 70
     0
102
RTVSPost2010Prop43
 90
        3
102
RTVSPost2010PropOp43
 70
     0
102
RTVSPost2010Prop44ColorIndex
 90
        5
102
RTVSPost2010Prop44ColorRGB
 90
      255
102
RTVSPost2010PropOp44
 70
     0
102
RTVSPost2010Prop45
280
     0
102
RTVSPost2010PropOp45
 70
     1
102
RTVSPost2010Prop46
 90
       50
102
RTVSPost2010PropOp46
 70
     0
102
RTVSPost2010Prop47
 90
       50
102
RTVSPost2010PropOp47
 70
     0
102
RTVSPost2010Prop48
 90
       50
102
RTVSPost2010PropOp48
 70
     0
102
RTVSPost2010Prop49
280
     0
102
RTVSPost2010PropOp49
 70
     1
102
RTVSPost2010Prop50
 90
       50
102
RTVSPost2010PropOp50
 70
     0
102
RTVSPost2010Prop51ColorIndex
 90
      256
102
RTVSPost2010Prop51ColorRGB
 90
-16777216
102
RTVSPost2010PropOp51
 70
     0
102
RTVSPost2010Prop52
140
1.0
102
RTVSPost2010PropOp52
 70
     0
102
RTVSPost2010Prop53
 90
        2
102
RTVSPost2010PropOp53
 70
     0
102
RTVSPost2010Prop54
  1
strokes_ogs.tif
102
RTVSPost2010PropOp54
 70
     0
102
RTVSPost2010Prop55
280
     0
102
RTVSPost2010PropOp55
 70
     1
102
RTVSPost2010Prop56
140
1.0
102
RTVSPost2010PropOp56
 70
     0
102
RTVSPost2010Prop57
140
1.0
102
RTVSPost2010PropOp57
 70
     0
  0
XRECORD
  5
22496
102
{ACAD_REACTORS
330
22495
102
}
330
22495
100
AcDbXrecord
280
     1
102
RTVSPost2010Prop28
280
     0
102
RTVSPost2010PropOp28
 70
     1
102
RTVSPost2010Prop29
280
     1
102
RTVSPost2010PropOp29
 70
     1
102
RTVSPost2010Prop30
280
     1
102
RTVSPost2010PropOp30
 70
     1
102
RTVSPost2010Prop31
280
     0
102
RTVSPost2010PropOp31
 70
     1
102
RTVSPost2010Prop32
280
     0
102
RTVSPost2010PropOp32
 70
     1
102
RTVSPost2010Prop33
280
     0
102
RTVSPost2010PropOp33
 70
     1
102
RTVSPost2010Prop34
280
     0
102
RTVSPost2010PropOp34
 70
     1
102
RTVSPost2010Prop35
280
     0
102
RTVSPost2010PropOp35
 70
     1
102
RTVSPost2010Prop36
280
     0
102
RTVSPost2010PropOp36
 70
     1
102
RTVSPost2010Prop37
 90
       50
102
RTVSPost2010PropOp37
 70
     1
102
RTVSPost2010Prop38
140
0.0
102
RTVSPost2010PropOp38
 70
     1
102
RTVSPost2010Prop39
140
1.0
102
RTVSPost2010PropOp39
 70
     1
102
RTVSPost2010Prop40
 90
        0
102
RTVSPost2010PropOp40
 70
     1
102
RTVSPost2010Prop41ColorIndex
 90
       18
102
RTVSPost2010Prop41ColorRGB
 90
        0
102
RTVSPost2010PropOp41
 70
     1
102
RTVSPost2010Prop42
 90
       50
102
RTVSPost2010PropOp42
 70
     1
102
RTVSPost2010Prop43
 90
        3
102
RTVSPost2010PropOp43
 70
     1
102
RTVSPost2010Prop44ColorIndex
 90
        5
102
RTVSPost2010Prop44ColorRGB
 90
      255
102
RTVSPost2010PropOp44
 70
     1
102
RTVSPost2010Prop45
280
     0
102
RTVSPost2010PropOp45
 70
     1
102
RTVSPost2010Prop46
 90
       50
102
RTVSPost2010PropOp46
 70
     1
102
RTVSPost2010Prop47
 90
       50
102
RTVSPost2010PropOp47
 70
     1
102
RTVSPost2010Prop48
 90
       50
102
RTVSPost2010PropOp48
 70
     1
102
RTVSPost2010Prop49
280
     0
102
RTVSPost2010PropOp49
 70
     1
102
RTVSPost2010Prop50
 90
       50
102
RTVSPost2010PropOp50
 70
     1
102
RTVSPost2010Prop51ColorIndex
 90
      256
102
RTVSPost2010Prop51ColorRGB
 90
-16777216
102
RTVSPost2010PropOp51
 70
     0
102
RTVSPost2010Prop52
140
1.0
102
RTVSPost2010PropOp52
 70
     0
102
RTVSPost2010Prop53
 90
        2
102
RTVSPost2010PropOp53
 70
     1
102
RTVSPost2010Prop54
  1
strokes_ogs.tif
102
RTVSPost2010PropOp54
 70
     1
102
RTVSPost2010Prop55
280
     0
102
RTVSPost2010PropOp55
 70
     1
102
RTVSPost2010Prop56
140
1.0
102
RTVSPost2010PropOp56
 70
     1
102
RTVSPost2010Prop57
140
1.0
102
RTVSPost2010PropOp57
 70
     1
  0
XRECORD
  5
2247A
102
{ACAD_REACTORS
330
22479
102
}
330
22479
100
AcDbXrecord
280
     1
102
RTVSPost2010Prop28
280
     0
102
RTVSPost2010PropOp28
 70
     1
102
RTVSPost2010Prop29
280
     1
102
RTVSPost2010PropOp29
 70
     1
102
RTVSPost2010Prop30
280
     1
102
RTVSPost2010PropOp30
 70
     1
102
RTVSPost2010Prop31
280
     0
102
RTVSPost2010PropOp31
 70
     1
102
RTVSPost2010Prop32
280
     0
102
RTVSPost2010PropOp32
 70
     1
102
RTVSPost2010Prop33
280
     0
102
RTVSPost2010PropOp33
 70
     1
102
RTVSPost2010Prop34
280
     0
102
RTVSPost2010PropOp34
 70
     1
102
RTVSPost2010Prop35
280
     0
102
RTVSPost2010PropOp35
 70
     1
102
RTVSPost2010Prop36
280
     0
102
RTVSPost2010PropOp36
 70
     1
102
RTVSPost2010Prop37
 90
       50
102
RTVSPost2010PropOp37
 70
     1
102
RTVSPost2010Prop38
140
0.0
102
RTVSPost2010PropOp38
 70
     1
102
RTVSPost2010Prop39
140
1.0
102
RTVSPost2010PropOp39
 70
     1
102
RTVSPost2010Prop40
 90
        0
102
RTVSPost2010PropOp40
 70
     1
102
RTVSPost2010Prop41ColorIndex
 90
       18
102
RTVSPost2010Prop41ColorRGB
 90
        0
102
RTVSPost2010PropOp41
 70
     1
102
RTVSPost2010Prop42
 90
       50
102
RTVSPost2010PropOp42
 70
     1
102
RTVSPost2010Prop43
 90
        3
102
RTVSPost2010PropOp43
 70
     1
102
RTVSPost2010Prop44ColorIndex
 90
        5
102
RTVSPost2010Prop44ColorRGB
 90
      255
102
RTVSPost2010PropOp44
 70
     1
102
RTVSPost2010Prop45
280
     0
102
RTVSPost2010PropOp45
 70
     1
102
RTVSPost2010Prop46
 90
       50
102
RTVSPost2010PropOp46
 70
     1
102
RTVSPost2010Prop47
 90
       50
102
RTVSPost2010PropOp47
 70
     1
102
RTVSPost2010Prop48
 90
       50
102
RTVSPost2010PropOp48
 70
     1
102
RTVSPost2010Prop49
280
     0
102
RTVSPost2010PropOp49
 70
     1
102
RTVSPost2010Prop50
 90
       50
102
RTVSPost2010PropOp50
 70
     1
102
RTVSPost2010Prop51ColorIndex
 90
      256
102
RTVSPost2010Prop51ColorRGB
 90
-16777216
102
RTVSPost2010PropOp51
 70
     0
102
RTVSPost2010Prop52
140
1.0
102
RTVSPost2010PropOp52
 70
     0
102
RTVSPost2010Prop53
 90
        2
102
RTVSPost2010PropOp53
 70
     1
102
RTVSPost2010Prop54
  1
strokes_ogs.tif
102
RTVSPost2010PropOp54
 70
     1
102
RTVSPost2010Prop55
280
     0
102
RTVSPost2010PropOp55
 70
     1
102
RTVSPost2010Prop56
140
1.0
102
RTVSPost2010PropOp56
 70
     1
102
RTVSPost2010Prop57
140
1.0
102
RTVSPost2010PropOp57
 70
     1
  0
XRECORD
  5
2247C
102
{ACAD_REACTORS
330
2247B
102
}
330
2247B
100
AcDbXrecord
280
     1
102
RTVSPost2010Prop28
280
     0
102
RTVSPost2010PropOp28
 70
     1
102
RTVSPost2010Prop29
280
     1
102
RTVSPost2010PropOp29
 70
     1
102
RTVSPost2010Prop30
280
     1
102
RTVSPost2010PropOp30
 70
     1
102
RTVSPost2010Prop31
280
     0
102
RTVSPost2010PropOp31
 70
     1
102
RTVSPost2010Prop32
280
     0
102
RTVSPost2010PropOp32
 70
     1
102
RTVSPost2010Prop33
280
     0
102
RTVSPost2010PropOp33
 70
     1
102
RTVSPost2010Prop34
280
     0
102
RTVSPost2010PropOp34
 70
     1
102
RTVSPost2010Prop35
280
     0
102
RTVSPost2010PropOp35
 70
     1
102
RTVSPost2010Prop36
280
     0
102
RTVSPost2010PropOp36
 70
     1
102
RTVSPost2010Prop37
 90
       50
102
RTVSPost2010PropOp37
 70
     1
102
RTVSPost2010Prop38
140
0.0
102
RTVSPost2010PropOp38
 70
     1
102
RTVSPost2010Prop39
140
1.0
102
RTVSPost2010PropOp39
 70
     1
102
RTVSPost2010Prop40
 90
        0
102
RTVSPost2010PropOp40
 70
     1
102
RTVSPost2010Prop41ColorIndex
 90
       18
102
RTVSPost2010Prop41ColorRGB
 90
        0
102
RTVSPost2010PropOp41
 70
     1
102
RTVSPost2010Prop42
 90
       50
102
RTVSPost2010PropOp42
 70
     1
102
RTVSPost2010Prop43
 90
        3
102
RTVSPost2010PropOp43
 70
     1
102
RTVSPost2010Prop44ColorIndex
 90
        5
102
RTVSPost2010Prop44ColorRGB
 90
      255
102
RTVSPost2010PropOp44
 70
     1
102
RTVSPost2010Prop45
280
     0
102
RTVSPost2010PropOp45
 70
     1
102
RTVSPost2010Prop46
 90
       50
102
RTVSPost2010PropOp46
 70
     1
102
RTVSPost2010Prop47
 90
       50
102
RTVSPost2010PropOp47
 70
     1
102
RTVSPost2010Prop48
 90
       50
102
RTVSPost2010PropOp48
 70
     1
102
RTVSPost2010Prop49
280
     0
102
RTVSPost2010PropOp49
 70
     1
102
RTVSPost2010Prop50
 90
       50
102
RTVSPost2010PropOp50
 70
     1
102
RTVSPost2010Prop51ColorIndex
 90
      256
102
RTVSPost2010Prop51ColorRGB
 90
-16777216
102
RTVSPost2010PropOp51
 70
     0
102
RTVSPost2010Prop52
140
1.0
102
RTVSPost2010PropOp52
 70
     0
102
RTVSPost2010Prop53
 90
        2
102
RTVSPost2010PropOp53
 70
     1
102
RTVSPost2010Prop54
  1
strokes_ogs.tif
102
RTVSPost2010PropOp54
 70
     1
102
RTVSPost2010Prop55
280
     0
102
RTVSPost2010PropOp55
 70
     1
102
RTVSPost2010Prop56
140
1.0
102
RTVSPost2010PropOp56
 70
     1
102
RTVSPost2010Prop57
140
1.0
102
RTVSPost2010PropOp57
 70
     1
  0
XRECORD
  5
2247E
102
{ACAD_REACTORS
330
2247D
102
}
330
2247D
100
AcDbXrecord
280
     1
102
RTVSPost2010Prop28
280
     0
102
RTVSPost2010PropOp28
 70
     1
102
RTVSPost2010Prop29
280
     1
102
RTVSPost2010PropOp29
 70
     1
102
RTVSPost2010Prop30
280
     1
102
RTVSPost2010PropOp30
 70
     1
102
RTVSPost2010Prop31
280
     0
102
RTVSPost2010PropOp31
 70
     1
102
RTVSPost2010Prop32
280
     0
102
RTVSPost2010PropOp32
 70
     1
102
RTVSPost2010Prop33
280
     0
102
RTVSPost2010PropOp33
 70
     1
102
RTVSPost2010Prop34
280
     0
102
RTVSPost2010PropOp34
 70
     1
102
RTVSPost2010Prop35
280
     0
102
RTVSPost2010PropOp35
 70
     1
102
RTVSPost2010Prop36
280
     0
102
RTVSPost2010PropOp36
 70
     1
102
RTVSPost2010Prop37
 90
       50
102
RTVSPost2010PropOp37
 70
     1
102
RTVSPost2010Prop38
140
0.0
102
RTVSPost2010PropOp38
 70
     1
102
RTVSPost2010Prop39
140
1.0
102
RTVSPost2010PropOp39
 70
     1
102
RTVSPost2010Prop40
 90
        0
102
RTVSPost2010PropOp40
 70
     1
102
RTVSPost2010Prop41ColorIndex
 90
       18
102
RTVSPost2010Prop41ColorRGB
 90
        0
102
RTVSPost2010PropOp41
 70
     1
102
RTVSPost2010Prop42
 90
       50
102
RTVSPost2010PropOp42
 70
     1
102
RTVSPost2010Prop43
 90
        3
102
RTVSPost2010PropOp43
 70
     1
102
RTVSPost2010Prop44ColorIndex
 90
        5
102
RTVSPost2010Prop44ColorRGB
 90
      255
102
RTVSPost2010PropOp44
 70
     1
102
RTVSPost2010Prop45
280
     0
102
RTVSPost2010PropOp45
 70
     1
102
RTVSPost2010Prop46
 90
       50
102
RTVSPost2010PropOp46
 70
     1
102
RTVSPost2010Prop47
 90
       50
102
RTVSPost2010PropOp47
 70
     1
102
RTVSPost2010Prop48
 90
       50
102
RTVSPost2010PropOp48
 70
     1
102
RTVSPost2010Prop49
280
     0
102
RTVSPost2010PropOp49
 70
     1
102
RTVSPost2010Prop50
 90
       50
102
RTVSPost2010PropOp50
 70
     1
102
RTVSPost2010Prop51ColorIndex
 90
      256
102
RTVSPost2010Prop51ColorRGB
 90
-16777216
102
RTVSPost2010PropOp51
 70
     0
102
RTVSPost2010Prop52
140
1.0
102
RTVSPost2010PropOp52
 70
     0
102
RTVSPost2010Prop53
 90
        2
102
RTVSPost2010PropOp53
 70
     1
102
RTVSPost2010Prop54
  1
strokes_ogs.tif
102
RTVSPost2010PropOp54
 70
     1
102
RTVSPost2010Prop55
280
     0
102
RTVSPost2010PropOp55
 70
     1
102
RTVSPost2010Prop56
140
1.0
102
RTVSPost2010PropOp56
 70
     1
102
RTVSPost2010Prop57
140
1.0
102
RTVSPost2010PropOp57
 70
     1
  0
XRECORD
  5
22480
102
{ACAD_REACTORS
330
2247F
102
}
330
2247F
100
AcDbXrecord
280
     1
102
RTVSPost2010Prop28
280
     0
102
RTVSPost2010PropOp28
 70
     1
102
RTVSPost2010Prop29
280
     1
102
RTVSPost2010PropOp29
 70
     1
102
RTVSPost2010Prop30
280
     1
102
RTVSPost2010PropOp30
 70
     1
102
RTVSPost2010Prop31
280
     0
102
RTVSPost2010PropOp31
 70
     1
102
RTVSPost2010Prop32
280
     0
102
RTVSPost2010PropOp32
 70
     1
102
RTVSPost2010Prop33
280
     0
102
RTVSPost2010PropOp33
 70
     1
102
RTVSPost2010Prop34
280
     0
102
RTVSPost2010PropOp34
 70
     1
102
RTVSPost2010Prop35
280
     0
102
RTVSPost2010PropOp35
 70
     1
102
RTVSPost2010Prop36
280
     0
102
RTVSPost2010PropOp36
 70
     1
102
RTVSPost2010Prop37
 90
       50
102
RTVSPost2010PropOp37
 70
     1
102
RTVSPost2010Prop38
140
0.0
102
RTVSPost2010PropOp38
 70
     1
102
RTVSPost2010Prop39
140
1.0
102
RTVSPost2010PropOp39
 70
     1
102
RTVSPost2010Prop40
 90
        0
102
RTVSPost2010PropOp40
 70
     1
102
RTVSPost2010Prop41ColorIndex
 90
       18
102
RTVSPost2010Prop41ColorRGB
 90
        0
102
RTVSPost2010PropOp41
 70
     1
102
RTVSPost2010Prop42
 90
       50
102
RTVSPost2010PropOp42
 70
     1
102
RTVSPost2010Prop43
 90
        3
102
RTVSPost2010PropOp43
 70
     1
102
RTVSPost2010Prop44ColorIndex
 90
        5
102
RTVSPost2010Prop44ColorRGB
 90
      255
102
RTVSPost2010PropOp44
 70
     1
102
RTVSPost2010Prop45
280
     0
102
RTVSPost2010PropOp45
 70
     1
102
RTVSPost2010Prop46
 90
       50
102
RTVSPost2010PropOp46
 70
     1
102
RTVSPost2010Prop47
 90
       50
102
RTVSPost2010PropOp47
 70
     1
102
RTVSPost2010Prop48
 90
       50
102
RTVSPost2010PropOp48
 70
     1
102
RTVSPost2010Prop49
280
     0
102
RTVSPost2010PropOp49
 70
     1
102
RTVSPost2010Prop50
 90
       50
102
RTVSPost2010PropOp50
 70
     1
102
RTVSPost2010Prop51ColorIndex
 90
      256
102
RTVSPost2010Prop51ColorRGB
 90
-16777216
102
RTVSPost2010PropOp51
 70
     0
102
RTVSPost2010Prop52
140
1.0
102
RTVSPost2010PropOp52
 70
     0
102
RTVSPost2010Prop53
 90
        2
102
RTVSPost2010PropOp53
 70
     1
102
RTVSPost2010Prop54
  1
strokes_ogs.tif
102
RTVSPost2010PropOp54
 70
     1
102
RTVSPost2010Prop55
280
     0
102
RTVSPost2010PropOp55
 70
     1
102
RTVSPost2010Prop56
140
1.0
102
RTVSPost2010PropOp56
 70
     1
102
RTVSPost2010Prop57
140
1.0
102
RTVSPost2010PropOp57
 70
     1
  0
XRECORD
  5
2249C
102
{ACAD_REACTORS
330
2249B
102
}
330
2249B
100
AcDbXrecord
280
     1
102
RTVSPost2010Prop28
280
     0
102
RTVSPost2010PropOp28
 70
     1
102
RTVSPost2010Prop29
280
     1
102
RTVSPost2010PropOp29
 70
     1
102
RTVSPost2010Prop30
280
     1
102
RTVSPost2010PropOp30
 70
     1
102
RTVSPost2010Prop31
280
     0
102
RTVSPost2010PropOp31
 70
     1
102
RTVSPost2010Prop32
280
     0
102
RTVSPost2010PropOp32
 70
     1
102
RTVSPost2010Prop33
280
     0
102
RTVSPost2010PropOp33
 70
     1
102
RTVSPost2010Prop34
280
     0
102
RTVSPost2010PropOp34
 70
     1
102
RTVSPost2010Prop35
280
     0
102
RTVSPost2010PropOp35
 70
     1
102
RTVSPost2010Prop36
280
     0
102
RTVSPost2010PropOp36
 70
     1
102
RTVSPost2010Prop37
 90
       50
102
RTVSPost2010PropOp37
 70
     1
102
RTVSPost2010Prop38
140
0.0
102
RTVSPost2010PropOp38
 70
     1
102
RTVSPost2010Prop39
140
1.0
102
RTVSPost2010PropOp39
 70
     1
102
RTVSPost2010Prop40
 90
        0
102
RTVSPost2010PropOp40
 70
     1
102
RTVSPost2010Prop41ColorIndex
 90
       18
102
RTVSPost2010Prop41ColorRGB
 90
        0
102
RTVSPost2010PropOp41
 70
     1
102
RTVSPost2010Prop42
 90
       50
102
RTVSPost2010PropOp42
 70
     1
102
RTVSPost2010Prop43
 90
        3
102
RTVSPost2010PropOp43
 70
     1
102
RTVSPost2010Prop44ColorIndex
 90
        5
102
RTVSPost2010Prop44ColorRGB
 90
      255
102
RTVSPost2010PropOp44
 70
     1
102
RTVSPost2010Prop45
280
     0
102
RTVSPost2010PropOp45
 70
     1
102
RTVSPost2010Prop46
 90
       50
102
RTVSPost2010PropOp46
 70
     1
102
RTVSPost2010Prop47
 90
       50
102
RTVSPost2010PropOp47
 70
     1
102
RTVSPost2010Prop48
 90
       50
102
RTVSPost2010PropOp48
 70
     1
102
RTVSPost2010Prop49
280
     0
102
RTVSPost2010PropOp49
 70
     1
102
RTVSPost2010Prop50
 90
       50
102
RTVSPost2010PropOp50
 70
     1
102
RTVSPost2010Prop51ColorIndex
 90
      256
102
RTVSPost2010Prop51ColorRGB
 90
-16777216
102
RTVSPost2010PropOp51
 70
     0
102
RTVSPost2010Prop52
140
1.0
102
RTVSPost2010PropOp52
 70
     0
102
RTVSPost2010Prop53
 90
        2
102
RTVSPost2010PropOp53
 70
     1
102
RTVSPost2010Prop54
  1
strokes_ogs.tif
102
RTVSPost2010PropOp54
 70
     1
102
RTVSPost2010Prop55
280
     0
102
RTVSPost2010PropOp55
 70
     1
102
RTVSPost2010Prop56
140
1.0
102
RTVSPost2010PropOp56
 70
     1
102
RTVSPost2010Prop57
140
1.0
102
RTVSPost2010PropOp57
 70
     1
  0
XRECORD
  5
224A8
102
{ACAD_REACTORS
330
224A7
102
}
330
224A7
100
AcDbXrecord
280
     1
102
RTVSPost2010Prop28
280
     0
102
RTVSPost2010PropOp28
 70
     1
102
RTVSPost2010Prop29
280
     1
102
RTVSPost2010PropOp29
 70
     1
102
RTVSPost2010Prop30
280
     1
102
RTVSPost2010PropOp30
 70
     1
102
RTVSPost2010Prop31
280
     0
102
RTVSPost2010PropOp31
 70
     1
102
RTVSPost2010Prop32
280
     0
102
RTVSPost2010PropOp32
 70
     1
102
RTVSPost2010Prop33
280
     0
102
RTVSPost2010PropOp33
 70
     1
102
RTVSPost2010Prop34
280
     0
102
RTVSPost2010PropOp34
 70
     1
102
RTVSPost2010Prop35
280
     0
102
RTVSPost2010PropOp35
 70
     1
102
RTVSPost2010Prop36
280
     0
102
RTVSPost2010PropOp36
 70
     1
102
RTVSPost2010Prop37
 90
       50
102
RTVSPost2010PropOp37
 70
     0
102
RTVSPost2010Prop38
140
0.0
102
RTVSPost2010PropOp38
 70
     0
102
RTVSPost2010Prop39
140
1.0
102
RTVSPost2010PropOp39
 70
     0
102
RTVSPost2010Prop40
 90
        0
102
RTVSPost2010PropOp40
 70
     0
102
RTVSPost2010Prop41ColorIndex
 90
       18
102
RTVSPost2010Prop41ColorRGB
 90
        0
102
RTVSPost2010PropOp41
 70
     0
102
RTVSPost2010Prop42
 90
       50
102
RTVSPost2010PropOp42
 70
     0
102
RTVSPost2010Prop43
 90
        3
102
RTVSPost2010PropOp43
 70
     0
102
RTVSPost2010Prop44ColorIndex
 90
        5
102
RTVSPost2010Prop44ColorRGB
 90
      255
102
RTVSPost2010PropOp44
 70
     0
102
RTVSPost2010Prop45
280
     0
102
RTVSPost2010PropOp45
 70
     1
102
RTVSPost2010Prop46
 90
       50
102
RTVSPost2010PropOp46
 70
     0
102
RTVSPost2010Prop47
 90
       50
102
RTVSPost2010PropOp47
 70
     0
102
RTVSPost2010Prop48
 90
       50
102
RTVSPost2010PropOp48
 70
     0
102
RTVSPost2010Prop49
280
     0
102
RTVSPost2010PropOp49
 70
     1
102
RTVSPost2010Prop50
 90
       50
102
RTVSPost2010PropOp50
 70
     0
102
RTVSPost2010Prop51ColorIndex
 90
      256
102
RTVSPost2010Prop51ColorRGB
 90
-16777216
102
RTVSPost2010PropOp51
 70
     0
102
RTVSPost2010Prop52
140
1.0
102
RTVSPost2010PropOp52
 70
     0
102
RTVSPost2010Prop53
 90
        2
102
RTVSPost2010PropOp53
 70
     0
102
RTVSPost2010Prop54
  1
strokes_ogs.tif
102
RTVSPost2010PropOp54
 70
     0
102
RTVSPost2010Prop55
280
     0
102
RTVSPost2010PropOp55
 70
     1
102
RTVSPost2010Prop56
140
1.0
102
RTVSPost2010PropOp56
 70
     0
102
RTVSPost2010Prop57
140
1.0
102
RTVSPost2010PropOp57
 70
     0
  0
XRECORD
  5
22494
102
{ACAD_REACTORS
330
22493
102
}
330
22493
100
AcDbXrecord
280
     1
102
RTVSPost2010Prop28
280
     0
102
RTVSPost2010PropOp28
 70
     1
102
RTVSPost2010Prop29
280
     1
102
RTVSPost2010PropOp29
 70
     1
102
RTVSPost2010Prop30
280
     1
102
RTVSPost2010PropOp30
 70
     1
102
RTVSPost2010Prop31
280
     0
102
RTVSPost2010PropOp31
 70
     1
102
RTVSPost2010Prop32
280
     0
102
RTVSPost2010PropOp32
 70
     1
102
RTVSPost2010Prop33
280
     0
102
RTVSPost2010PropOp33
 70
     1
102
RTVSPost2010Prop34
280
     0
102
RTVSPost2010PropOp34
 70
     1
102
RTVSPost2010Prop35
280
     0
102
RTVSPost2010PropOp35
 70
     1
102
RTVSPost2010Prop36
280
     0
102
RTVSPost2010PropOp36
 70
     1
102
RTVSPost2010Prop37
 90
       50
102
RTVSPost2010PropOp37
 70
     1
102
RTVSPost2010Prop38
140
0.0
102
RTVSPost2010PropOp38
 70
     1
102
RTVSPost2010Prop39
140
1.0
102
RTVSPost2010PropOp39
 70
     1
102
RTVSPost2010Prop40
 90
        0
102
RTVSPost2010PropOp40
 70
     1
102
RTVSPost2010Prop41ColorIndex
 90
       18
102
RTVSPost2010Prop41ColorRGB
 90
        0
102
RTVSPost2010PropOp41
 70
     1
102
RTVSPost2010Prop42
 90
       50
102
RTVSPost2010PropOp42
 70
     1
102
RTVSPost2010Prop43
 90
        3
102
RTVSPost2010PropOp43
 70
     1
102
RTVSPost2010Prop44ColorIndex
 90
        5
102
RTVSPost2010Prop44ColorRGB
 90
      255
102
RTVSPost2010PropOp44
 70
     1
102
RTVSPost2010Prop45
280
     0
102
RTVSPost2010PropOp45
 70
     1
102
RTVSPost2010Prop46
 90
       50
102
RTVSPost2010PropOp46
 70
     1
102
RTVSPost2010Prop47
 90
       50
102
RTVSPost2010PropOp47
 70
     1
102
RTVSPost2010Prop48
 90
       50
102
RTVSPost2010PropOp48
 70
     1
102
RTVSPost2010Prop49
280
     0
102
RTVSPost2010PropOp49
 70
     1
102
RTVSPost2010Prop50
 90
       50
102
RTVSPost2010PropOp50
 70
     1
102
RTVSPost2010Prop51ColorIndex
 90
      256
102
RTVSPost2010Prop51ColorRGB
 90
-16777216
102
RTVSPost2010PropOp51
 70
     0
102
RTVSPost2010Prop52
140
1.0
102
RTVSPost2010PropOp52
 70
     0
102
RTVSPost2010Prop53
 90
        2
102
RTVSPost2010PropOp53
 70
     1
102
RTVSPost2010Prop54
  1
strokes_ogs.tif
102
RTVSPost2010PropOp54
 70
     1
102
RTVSPost2010Prop55
280
     0
102
RTVSPost2010PropOp55
 70
     1
102
RTVSPost2010Prop56
140
1.0
102
RTVSPost2010PropOp56
 70
     1
102
RTVSPost2010Prop57
140
1.0
102
RTVSPost2010PropOp57
 70
     1
  0
XRECORD
  5
224AA
102
{ACAD_REACTORS
330
224A9
102
}
330
224A9
100
AcDbXrecord
280
     1
102
RTVSPost2010Prop28
280
     0
102
RTVSPost2010PropOp28
 70
     1
102
RTVSPost2010Prop29
280
     1
102
RTVSPost2010PropOp29
 70
     1
102
RTVSPost2010Prop30
280
     1
102
RTVSPost2010PropOp30
 70
     1
102
RTVSPost2010Prop31
280
     0
102
RTVSPost2010PropOp31
 70
     1
102
RTVSPost2010Prop32
280
     0
102
RTVSPost2010PropOp32
 70
     1
102
RTVSPost2010Prop33
280
     0
102
RTVSPost2010PropOp33
 70
     1
102
RTVSPost2010Prop34
280
     0
102
RTVSPost2010PropOp34
 70
     1
102
RTVSPost2010Prop35
280
     0
102
RTVSPost2010PropOp35
 70
     1
102
RTVSPost2010Prop36
280
     0
102
RTVSPost2010PropOp36
 70
     1
102
RTVSPost2010Prop37
 90
       50
102
RTVSPost2010PropOp37
 70
     0
102
RTVSPost2010Prop38
140
0.0
102
RTVSPost2010PropOp38
 70
     0
102
RTVSPost2010Prop39
140
1.0
102
RTVSPost2010PropOp39
 70
     0
102
RTVSPost2010Prop40
 90
        0
102
RTVSPost2010PropOp40
 70
     0
102
RTVSPost2010Prop41ColorIndex
 90
       18
102
RTVSPost2010Prop41ColorRGB
 90
        0
102
RTVSPost2010PropOp41
 70
     0
102
RTVSPost2010Prop42
 90
       50
102
RTVSPost2010PropOp42
 70
     0
102
RTVSPost2010Prop43
 90
        3
102
RTVSPost2010PropOp43
 70
     0
102
RTVSPost2010Prop44ColorIndex
 90
        5
102
RTVSPost2010Prop44ColorRGB
 90
      255
102
RTVSPost2010PropOp44
 70
     0
102
RTVSPost2010Prop45
280
     0
102
RTVSPost2010PropOp45
 70
     1
102
RTVSPost2010Prop46
 90
       50
102
RTVSPost2010PropOp46
 70
     0
102
RTVSPost2010Prop47
 90
       50
102
RTVSPost2010PropOp47
 70
     0
102
RTVSPost2010Prop48
 90
       50
102
RTVSPost2010PropOp48
 70
     0
102
RTVSPost2010Prop49
280
     0
102
RTVSPost2010PropOp49
 70
     1
102
RTVSPost2010Prop50
 90
       50
102
RTVSPost2010PropOp50
 70
     0
102
RTVSPost2010Prop51ColorIndex
 90
      256
102
RTVSPost2010Prop51ColorRGB
 90
-16777216
102
RTVSPost2010PropOp51
 70
     0
102
RTVSPost2010Prop52
140
1.0
102
RTVSPost2010PropOp52
 70
     0
102
RTVSPost2010Prop53
 90
        2
102
RTVSPost2010PropOp53
 70
     0
102
RTVSPost2010Prop54
  1
strokes_ogs.tif
102
RTVSPost2010PropOp54
 70
     0
102
RTVSPost2010Prop55
280
     0
102
RTVSPost2010PropOp55
 70
     1
102
RTVSPost2010Prop56
140
1.0
102
RTVSPost2010PropOp56
 70
     0
102
RTVSPost2010Prop57
140
1.0
102
RTVSPost2010PropOp57
 70
     0
  0
XRECORD
  5
2248C
102
{ACAD_REACTORS
330
2248B
102
}
330
2248B
100
AcDbXrecord
280
     1
102
RTVSPost2010Prop28
280
     0
102
RTVSPost2010PropOp28
 70
     1
102
RTVSPost2010Prop29
280
     1
102
RTVSPost2010PropOp29
 70
     1
102
RTVSPost2010Prop30
280
     1
102
RTVSPost2010PropOp30
 70
     1
102
RTVSPost2010Prop31
280
     0
102
RTVSPost2010PropOp31
 70
     1
102
RTVSPost2010Prop32
280
     0
102
RTVSPost2010PropOp32
 70
     1
102
RTVSPost2010Prop33
280
     0
102
RTVSPost2010PropOp33
 70
     1
102
RTVSPost2010Prop34
280
     0
102
RTVSPost2010PropOp34
 70
     1
102
RTVSPost2010Prop35
280
     0
102
RTVSPost2010PropOp35
 70
     1
102
RTVSPost2010Prop36
280
     0
102
RTVSPost2010PropOp36
 70
     1
102
RTVSPost2010Prop37
 90
       50
102
RTVSPost2010PropOp37
 70
     1
102
RTVSPost2010Prop38
140
0.0
102
RTVSPost2010PropOp38
 70
     1
102
RTVSPost2010Prop39
140
1.0
102
RTVSPost2010PropOp39
 70
     1
102
RTVSPost2010Prop40
 90
        0
102
RTVSPost2010PropOp40
 70
     1
102
RTVSPost2010Prop41ColorIndex
 90
       18
102
RTVSPost2010Prop41ColorRGB
 90
        0
102
RTVSPost2010PropOp41
 70
     1
102
RTVSPost2010Prop42
 90
       50
102
RTVSPost2010PropOp42
 70
     1
102
RTVSPost2010Prop43
 90
        3
102
RTVSPost2010PropOp43
 70
     1
102
RTVSPost2010Prop44ColorIndex
 90
        5
102
RTVSPost2010Prop44ColorRGB
 90
      255
102
RTVSPost2010PropOp44
 70
     1
102
RTVSPost2010Prop45
280
     0
102
RTVSPost2010PropOp45
 70
     1
102
RTVSPost2010Prop46
 90
       50
102
RTVSPost2010PropOp46
 70
     1
102
RTVSPost2010Prop47
 90
       50
102
RTVSPost2010PropOp47
 70
     1
102
RTVSPost2010Prop48
 90
       50
102
RTVSPost2010PropOp48
 70
     1
102
RTVSPost2010Prop49
280
     0
102
RTVSPost2010PropOp49
 70
     1
102
RTVSPost2010Prop50
 90
       50
102
RTVSPost2010PropOp50
 70
     1
102
RTVSPost2010Prop51ColorIndex
 90
      256
102
RTVSPost2010Prop51ColorRGB
 90
-16777216
102
RTVSPost2010PropOp51
 70
     0
102
RTVSPost2010Prop52
140
1.0
102
RTVSPost2010PropOp52
 70
     0
102
RTVSPost2010Prop53
 90
        2
102
RTVSPost2010PropOp53
 70
     1
102
RTVSPost2010Prop54
  1
strokes_ogs.tif
102
RTVSPost2010PropOp54
 70
     1
102
RTVSPost2010Prop55
280
     0
102
RTVSPost2010PropOp55
 70
     1
102
RTVSPost2010Prop56
140
1.0
102
RTVSPost2010PropOp56
 70
     1
102
RTVSPost2010Prop57
140
1.0
102
RTVSPost2010PropOp57
 70
     1
  0
XRECORD
  5
224A6
102
{ACAD_REACTORS
330
224A5
102
}
330
224A5
100
AcDbXrecord
280
     1
102
RTVSPost2010Prop28
280
     0
102
RTVSPost2010PropOp28
 70
     1
102
RTVSPost2010Prop29
280
     1
102
RTVSPost2010PropOp29
 70
     1
102
RTVSPost2010Prop30
280
     1
102
RTVSPost2010PropOp30
 70
     1
102
RTVSPost2010Prop31
280
     0
102
RTVSPost2010PropOp31
 70
     1
102
RTVSPost2010Prop32
280
     0
102
RTVSPost2010PropOp32
 70
     1
102
RTVSPost2010Prop33
280
     0
102
RTVSPost2010PropOp33
 70
     1
102
RTVSPost2010Prop34
280
     0
102
RTVSPost2010PropOp34
 70
     1
102
RTVSPost2010Prop35
280
     0
102
RTVSPost2010PropOp35
 70
     1
102
RTVSPost2010Prop36
280
     0
102
RTVSPost2010PropOp36
 70
     1
102
RTVSPost2010Prop37
 90
       50
102
RTVSPost2010PropOp37
 70
     1
102
RTVSPost2010Prop38
140
0.0
102
RTVSPost2010PropOp38
 70
     1
102
RTVSPost2010Prop39
140
1.0
102
RTVSPost2010PropOp39
 70
     1
102
RTVSPost2010Prop40
 90
        0
102
RTVSPost2010PropOp40
 70
     1
102
RTVSPost2010Prop41ColorIndex
 90
       18
102
RTVSPost2010Prop41ColorRGB
 90
        0
102
RTVSPost2010PropOp41
 70
     1
102
RTVSPost2010Prop42
 90
       50
102
RTVSPost2010PropOp42
 70
     1
102
RTVSPost2010Prop43
 90
        3
102
RTVSPost2010PropOp43
 70
     1
102
RTVSPost2010Prop44ColorIndex
 90
        5
102
RTVSPost2010Prop44ColorRGB
 90
      255
102
RTVSPost2010PropOp44
 70
     1
102
RTVSPost2010Prop45
280
     0
102
RTVSPost2010PropOp45
 70
     1
102
RTVSPost2010Prop46
 90
       50
102
RTVSPost2010PropOp46
 70
     1
102
RTVSPost2010Prop47
 90
       50
102
RTVSPost2010PropOp47
 70
     1
102
RTVSPost2010Prop48
 90
       50
102
RTVSPost2010PropOp48
 70
     1
102
RTVSPost2010Prop49
280
     0
102
RTVSPost2010PropOp49
 70
     1
102
RTVSPost2010Prop50
 90
       50
102
RTVSPost2010PropOp50
 70
     1
102
RTVSPost2010Prop51ColorIndex
 90
      256
102
RTVSPost2010Prop51ColorRGB
 90
-16777216
102
RTVSPost2010PropOp51
 70
     0
102
RTVSPost2010Prop52
140
1.0
102
RTVSPost2010PropOp52
 70
     0
102
RTVSPost2010Prop53
 90
        2
102
RTVSPost2010PropOp53
 70
     1
102
RTVSPost2010Prop54
  1
strokes_ogs.tif
102
RTVSPost2010PropOp54
 70
     1
102
RTVSPost2010Prop55
280
     0
102
RTVSPost2010PropOp55
 70
     1
102
RTVSPost2010Prop56
140
1.0
102
RTVSPost2010PropOp56
 70
     1
102
RTVSPost2010Prop57
140
1.0
102
RTVSPost2010PropOp57
 70
     1
  0
XRECORD
  5
224A4
102
{ACAD_REACTORS
330
224A3
102
}
330
224A3
100
AcDbXrecord
280
     1
102
RTVSPost2010Prop28
280
     0
102
RTVSPost2010PropOp28
 70
     1
102
RTVSPost2010Prop29
280
     1
102
RTVSPost2010PropOp29
 70
     1
102
RTVSPost2010Prop30
280
     1
102
RTVSPost2010PropOp30
 70
     1
102
RTVSPost2010Prop31
280
     0
102
RTVSPost2010PropOp31
 70
     1
102
RTVSPost2010Prop32
280
     0
102
RTVSPost2010PropOp32
 70
     1
102
RTVSPost2010Prop33
280
     0
102
RTVSPost2010PropOp33
 70
     1
102
RTVSPost2010Prop34
280
     0
102
RTVSPost2010PropOp34
 70
     1
102
RTVSPost2010Prop35
280
     0
102
RTVSPost2010PropOp35
 70
     1
102
RTVSPost2010Prop36
280
     0
102
RTVSPost2010PropOp36
 70
     1
102
RTVSPost2010Prop37
 90
       50
102
RTVSPost2010PropOp37
 70
     1
102
RTVSPost2010Prop38
140
0.0
102
RTVSPost2010PropOp38
 70
     1
102
RTVSPost2010Prop39
140
1.0
102
RTVSPost2010PropOp39
 70
     1
102
RTVSPost2010Prop40
 90
        0
102
RTVSPost2010PropOp40
 70
     1
102
RTVSPost2010Prop41ColorIndex
 90
       18
102
RTVSPost2010Prop41ColorRGB
 90
        0
102
RTVSPost2010PropOp41
 70
     1
102
RTVSPost2010Prop42
 90
       50
102
RTVSPost2010PropOp42
 70
     1
102
RTVSPost2010Prop43
 90
        3
102
RTVSPost2010PropOp43
 70
     1
102
RTVSPost2010Prop44ColorIndex
 90
        5
102
RTVSPost2010Prop44ColorRGB
 90
      255
102
RTVSPost2010PropOp44
 70
     1
102
RTVSPost2010Prop45
280
     0
102
RTVSPost2010PropOp45
 70
     1
102
RTVSPost2010Prop46
 90
       50
102
RTVSPost2010PropOp46
 70
     1
102
RTVSPost2010Prop47
 90
       50
102
RTVSPost2010PropOp47
 70
     1
102
RTVSPost2010Prop48
 90
       50
102
RTVSPost2010PropOp48
 70
     1
102
RTVSPost2010Prop49
280
     0
102
RTVSPost2010PropOp49
 70
     1
102
RTVSPost2010Prop50
 90
       50
102
RTVSPost2010PropOp50
 70
     1
102
RTVSPost2010Prop51ColorIndex
 90
      256
102
RTVSPost2010Prop51ColorRGB
 90
-16777216
102
RTVSPost2010PropOp51
 70
     0
102
RTVSPost2010Prop52
140
1.0
102
RTVSPost2010PropOp52
 70
     0
102
RTVSPost2010Prop53
 90
        2
102
RTVSPost2010PropOp53
 70
     1
102
RTVSPost2010Prop54
  1
strokes_ogs.tif
102
RTVSPost2010PropOp54
 70
     1
102
RTVSPost2010Prop55
280
     0
102
RTVSPost2010PropOp55
 70
     1
102
RTVSPost2010Prop56
140
1.0
102
RTVSPost2010PropOp56
 70
     1
102
RTVSPost2010Prop57
140
1.0
102
RTVSPost2010PropOp57
 70
     1
  0
XRECORD
  5
2249E
102
{ACAD_REACTORS
330
2249D
102
}
330
2249D
100
AcDbXrecord
280
     1
102
RTVSPost2010Prop28
280
     0
102
RTVSPost2010PropOp28
 70
     1
102
RTVSPost2010Prop29
280
     1
102
RTVSPost2010PropOp29
 70
     1
102
RTVSPost2010Prop30
280
     1
102
RTVSPost2010PropOp30
 70
     1
102
RTVSPost2010Prop31
280
     0
102
RTVSPost2010PropOp31
 70
     1
102
RTVSPost2010Prop32
280
     0
102
RTVSPost2010PropOp32
 70
     1
102
RTVSPost2010Prop33
280
     0
102
RTVSPost2010PropOp33
 70
     1
102
RTVSPost2010Prop34
280
     0
102
RTVSPost2010PropOp34
 70
     1
102
RTVSPost2010Prop35
280
     0
102
RTVSPost2010PropOp35
 70
     1
102
RTVSPost2010Prop36
280
     0
102
RTVSPost2010PropOp36
 70
     1
102
RTVSPost2010Prop37
 90
       50
102
RTVSPost2010PropOp37
 70
     1
102
RTVSPost2010Prop38
140
0.0
102
RTVSPost2010PropOp38
 70
     1
102
RTVSPost2010Prop39
140
1.0
102
RTVSPost2010PropOp39
 70
     1
102
RTVSPost2010Prop40
 90
        0
102
RTVSPost2010PropOp40
 70
     1
102
RTVSPost2010Prop41ColorIndex
 90
       18
102
RTVSPost2010Prop41ColorRGB
 90
        0
102
RTVSPost2010PropOp41
 70
     1
102
RTVSPost2010Prop42
 90
       50
102
RTVSPost2010PropOp42
 70
     1
102
RTVSPost2010Prop43
 90
        3
102
RTVSPost2010PropOp43
 70
     1
102
RTVSPost2010Prop44ColorIndex
 90
        5
102
RTVSPost2010Prop44ColorRGB
 90
      255
102
RTVSPost2010PropOp44
 70
     1
102
RTVSPost2010Prop45
280
     0
102
RTVSPost2010PropOp45
 70
     1
102
RTVSPost2010Prop46
 90
       50
102
RTVSPost2010PropOp46
 70
     1
102
RTVSPost2010Prop47
 90
       50
102
RTVSPost2010PropOp47
 70
     1
102
RTVSPost2010Prop48
 90
       50
102
RTVSPost2010PropOp48
 70
     1
102
RTVSPost2010Prop49
280
     0
102
RTVSPost2010PropOp49
 70
     1
102
RTVSPost2010Prop50
 90
       50
102
RTVSPost2010PropOp50
 70
     1
102
RTVSPost2010Prop51ColorIndex
 90
      256
102
RTVSPost2010Prop51ColorRGB
 90
-16777216
102
RTVSPost2010PropOp51
 70
     0
102
RTVSPost2010Prop52
140
1.0
102
RTVSPost2010PropOp52
 70
     0
102
RTVSPost2010Prop53
 90
        2
102
RTVSPost2010PropOp53
 70
     1
102
RTVSPost2010Prop54
  1
strokes_ogs.tif
102
RTVSPost2010PropOp54
 70
     1
102
RTVSPost2010Prop55
280
     0
102
RTVSPost2010PropOp55
 70
     1
102
RTVSPost2010Prop56
140
1.0
102
RTVSPost2010PropOp56
 70
     1
102
RTVSPost2010Prop57
140
1.0
102
RTVSPost2010PropOp57
 70
     1
  0
XRECORD
  5
224A0
102
{ACAD_REACTORS
330
2249F
102
}
330
2249F
100
AcDbXrecord
280
     1
102
RTVSPost2010Prop28
280
     0
102
RTVSPost2010PropOp28
 70
     1
102
RTVSPost2010Prop29
280
     1
102
RTVSPost2010PropOp29
 70
     1
102
RTVSPost2010Prop30
280
     1
102
RTVSPost2010PropOp30
 70
     1
102
RTVSPost2010Prop31
280
     0
102
RTVSPost2010PropOp31
 70
     1
102
RTVSPost2010Prop32
280
     0
102
RTVSPost2010PropOp32
 70
     1
102
RTVSPost2010Prop33
280
     0
102
RTVSPost2010PropOp33
 70
     1
102
RTVSPost2010Prop34
280
     0
102
RTVSPost2010PropOp34
 70
     1
102
RTVSPost2010Prop35
280
     0
102
RTVSPost2010PropOp35
 70
     1
102
RTVSPost2010Prop36
280
     0
102
RTVSPost2010PropOp36
 70
     1
102
RTVSPost2010Prop37
 90
       50
102
RTVSPost2010PropOp37
 70
     1
102
RTVSPost2010Prop38
140
0.0
102
RTVSPost2010PropOp38
 70
     1
102
RTVSPost2010Prop39
140
1.0
102
RTVSPost2010PropOp39
 70
     1
102
RTVSPost2010Prop40
 90
        0
102
RTVSPost2010PropOp40
 70
     1
102
RTVSPost2010Prop41ColorIndex
 90
       18
102
RTVSPost2010Prop41ColorRGB
 90
        0
102
RTVSPost2010PropOp41
 70
     1
102
RTVSPost2010Prop42
 90
       50
102
RTVSPost2010PropOp42
 70
     1
102
RTVSPost2010Prop43
 90
        3
102
RTVSPost2010PropOp43
 70
     1
102
RTVSPost2010Prop44ColorIndex
 90
        5
102
RTVSPost2010Prop44ColorRGB
 90
      255
102
RTVSPost2010PropOp44
 70
     1
102
RTVSPost2010Prop45
280
     0
102
RTVSPost2010PropOp45
 70
     1
102
RTVSPost2010Prop46
 90
       50
102
RTVSPost2010PropOp46
 70
     1
102
RTVSPost2010Prop47
 90
       50
102
RTVSPost2010PropOp47
 70
     1
102
RTVSPost2010Prop48
 90
       50
102
RTVSPost2010PropOp48
 70
     1
102
RTVSPost2010Prop49
280
     0
102
RTVSPost2010PropOp49
 70
     1
102
RTVSPost2010Prop50
 90
       50
102
RTVSPost2010PropOp50
 70
     1
102
RTVSPost2010Prop51ColorIndex
 90
      256
102
RTVSPost2010Prop51ColorRGB
 90
-16777216
102
RTVSPost2010PropOp51
 70
     0
102
RTVSPost2010Prop52
140
1.0
102
RTVSPost2010PropOp52
 70
     0
102
RTVSPost2010Prop53
 90
        2
102
RTVSPost2010PropOp53
 70
     1
102
RTVSPost2010Prop54
  1
strokes_ogs.tif
102
RTVSPost2010PropOp54
 70
     1
102
RTVSPost2010Prop55
280
     0
102
RTVSPost2010PropOp55
 70
     1
102
RTVSPost2010Prop56
140
1.0
102
RTVSPost2010PropOp56
 70
     1
102
RTVSPost2010Prop57
140
1.0
102
RTVSPost2010PropOp57
 70
     1
  0
XRECORD
  5
22492
102
{ACAD_REACTORS
330
22491
102
}
330
22491
100
AcDbXrecord
280
     1
102
RTVSPost2010Prop28
280
     0
102
RTVSPost2010PropOp28
 70
     1
102
RTVSPost2010Prop29
280
     1
102
RTVSPost2010PropOp29
 70
     1
102
RTVSPost2010Prop30
280
     1
102
RTVSPost2010PropOp30
 70
     1
102
RTVSPost2010Prop31
280
     0
102
RTVSPost2010PropOp31
 70
     1
102
RTVSPost2010Prop32
280
     0
102
RTVSPost2010PropOp32
 70
     1
102
RTVSPost2010Prop33
280
     0
102
RTVSPost2010PropOp33
 70
     1
102
RTVSPost2010Prop34
280
     0
102
RTVSPost2010PropOp34
 70
     1
102
RTVSPost2010Prop35
280
     0
102
RTVSPost2010PropOp35
 70
     1
102
RTVSPost2010Prop36
280
     0
102
RTVSPost2010PropOp36
 70
     1
102
RTVSPost2010Prop37
 90
       50
102
RTVSPost2010PropOp37
 70
     1
102
RTVSPost2010Prop38
140
0.0
102
RTVSPost2010PropOp38
 70
     1
102
RTVSPost2010Prop39
140
1.0
102
RTVSPost2010PropOp39
 70
     1
102
RTVSPost2010Prop40
 90
        0
102
RTVSPost2010PropOp40
 70
     1
102
RTVSPost2010Prop41ColorIndex
 90
       18
102
RTVSPost2010Prop41ColorRGB
 90
        0
102
RTVSPost2010PropOp41
 70
     1
102
RTVSPost2010Prop42
 90
       50
102
RTVSPost2010PropOp42
 70
     1
102
RTVSPost2010Prop43
 90
        3
102
RTVSPost2010PropOp43
 70
     1
102
RTVSPost2010Prop44ColorIndex
 90
        5
102
RTVSPost2010Prop44ColorRGB
 90
      255
102
RTVSPost2010PropOp44
 70
     1
102
RTVSPost2010Prop45
280
     0
102
RTVSPost2010PropOp45
 70
     1
102
RTVSPost2010Prop46
 90
       50
102
RTVSPost2010PropOp46
 70
     1
102
RTVSPost2010Prop47
 90
       50
102
RTVSPost2010PropOp47
 70
     1
102
RTVSPost2010Prop48
 90
       50
102
RTVSPost2010PropOp48
 70
     1
102
RTVSPost2010Prop49
280
     0
102
RTVSPost2010PropOp49
 70
     1
102
RTVSPost2010Prop50
 90
       50
102
RTVSPost2010PropOp50
 70
     1
102
RTVSPost2010Prop51ColorIndex
 90
      256
102
RTVSPost2010Prop51ColorRGB
 90
-16777216
102
RTVSPost2010PropOp51
 70
     0
102
RTVSPost2010Prop52
140
1.0
102
RTVSPost2010PropOp52
 70
     0
102
RTVSPost2010Prop53
 90
        2
102
RTVSPost2010PropOp53
 70
     1
102
RTVSPost2010Prop54
  1
strokes_ogs.tif
102
RTVSPost2010PropOp54
 70
     1
102
RTVSPost2010Prop55
280
     0
102
RTVSPost2010PropOp55
 70
     1
102
RTVSPost2010Prop56
140
1.0
102
RTVSPost2010PropOp56
 70
     1
102
RTVSPost2010Prop57
140
1.0
102
RTVSPost2010PropOp57
 70
     1
  0
XRECORD
  5
2249A
102
{ACAD_REACTORS
330
22499
102
}
330
22499
100
AcDbXrecord
280
     1
102
RTVSPost2010Prop28
280
     0
102
RTVSPost2010PropOp28
 70
     1
102
RTVSPost2010Prop29
280
     1
102
RTVSPost2010PropOp29
 70
     1
102
RTVSPost2010Prop30
280
     1
102
RTVSPost2010PropOp30
 70
     1
102
RTVSPost2010Prop31
280
     0
102
RTVSPost2010PropOp31
 70
     1
102
RTVSPost2010Prop32
280
     0
102
RTVSPost2010PropOp32
 70
     1
102
RTVSPost2010Prop33
280
     0
102
RTVSPost2010PropOp33
 70
     1
102
RTVSPost2010Prop34
280
     0
102
RTVSPost2010PropOp34
 70
     1
102
RTVSPost2010Prop35
280
     0
102
RTVSPost2010PropOp35
 70
     1
102
RTVSPost2010Prop36
280
     0
102
RTVSPost2010PropOp36
 70
     1
102
RTVSPost2010Prop37
 90
       50
102
RTVSPost2010PropOp37
 70
     1
102
RTVSPost2010Prop38
140
0.0
102
RTVSPost2010PropOp38
 70
     1
102
RTVSPost2010Prop39
140
1.0
102
RTVSPost2010PropOp39
 70
     1
102
RTVSPost2010Prop40
 90
        0
102
RTVSPost2010PropOp40
 70
     1
102
RTVSPost2010Prop41ColorIndex
 90
       18
102
RTVSPost2010Prop41ColorRGB
 90
        0
102
RTVSPost2010PropOp41
 70
     1
102
RTVSPost2010Prop42
 90
       50
102
RTVSPost2010PropOp42
 70
     1
102
RTVSPost2010Prop43
 90
        3
102
RTVSPost2010PropOp43
 70
     1
102
RTVSPost2010Prop44ColorIndex
 90
        5
102
RTVSPost2010Prop44ColorRGB
 90
      255
102
RTVSPost2010PropOp44
 70
     1
102
RTVSPost2010Prop45
280
     0
102
RTVSPost2010PropOp45
 70
     1
102
RTVSPost2010Prop46
 90
       50
102
RTVSPost2010PropOp46
 70
     1
102
RTVSPost2010Prop47
 90
       50
102
RTVSPost2010PropOp47
 70
     1
102
RTVSPost2010Prop48
 90
       50
102
RTVSPost2010PropOp48
 70
     1
102
RTVSPost2010Prop49
280
     0
102
RTVSPost2010PropOp49
 70
     1
102
RTVSPost2010Prop50
 90
       50
102
RTVSPost2010PropOp50
 70
     1
102
RTVSPost2010Prop51ColorIndex
 90
      256
102
RTVSPost2010Prop51ColorRGB
 90
-16777216
102
RTVSPost2010PropOp51
 70
     0
102
RTVSPost2010Prop52
140
1.0
102
RTVSPost2010PropOp52
 70
     0
102
RTVSPost2010Prop53
 90
        2
102
RTVSPost2010PropOp53
 70
     1
102
RTVSPost2010Prop54
  1
strokes_ogs.tif
102
RTVSPost2010PropOp54
 70
     1
102
RTVSPost2010Prop55
280
     0
102
RTVSPost2010PropOp55
 70
     1
102
RTVSPost2010Prop56
140
1.0
102
RTVSPost2010PropOp56
 70
     1
102
RTVSPost2010Prop57
140
1.0
102
RTVSPost2010PropOp57
 70
     1
  0
XRECORD
  5
224A2
102
{ACAD_REACTORS
330
224A1
102
}
330
224A1
100
AcDbXrecord
280
     1
102
RTVSPost2010Prop28
280
     0
102
RTVSPost2010PropOp28
 70
     1
102
RTVSPost2010Prop29
280
     1
102
RTVSPost2010PropOp29
 70
     1
102
RTVSPost2010Prop30
280
     1
102
RTVSPost2010PropOp30
 70
     1
102
RTVSPost2010Prop31
280
     0
102
RTVSPost2010PropOp31
 70
     1
102
RTVSPost2010Prop32
280
     0
102
RTVSPost2010PropOp32
 70
     1
102
RTVSPost2010Prop33
280
     0
102
RTVSPost2010PropOp33
 70
     1
102
RTVSPost2010Prop34
280
     0
102
RTVSPost2010PropOp34
 70
     1
102
RTVSPost2010Prop35
280
     0
102
RTVSPost2010PropOp35
 70
     1
102
RTVSPost2010Prop36
280
     0
102
RTVSPost2010PropOp36
 70
     1
102
RTVSPost2010Prop37
 90
       50
102
RTVSPost2010PropOp37
 70
     1
102
RTVSPost2010Prop38
140
0.0
102
RTVSPost2010PropOp38
 70
     1
102
RTVSPost2010Prop39
140
1.0
102
RTVSPost2010PropOp39
 70
     1
102
RTVSPost2010Prop40
 90
        0
102
RTVSPost2010PropOp40
 70
     1
102
RTVSPost2010Prop41ColorIndex
 90
       18
102
RTVSPost2010Prop41ColorRGB
 90
        0
102
RTVSPost2010PropOp41
 70
     1
102
RTVSPost2010Prop42
 90
       50
102
RTVSPost2010PropOp42
 70
     1
102
RTVSPost2010Prop43
 90
        3
102
RTVSPost2010PropOp43
 70
     1
102
RTVSPost2010Prop44ColorIndex
 90
        5
102
RTVSPost2010Prop44ColorRGB
 90
      255
102
RTVSPost2010PropOp44
 70
     1
102
RTVSPost2010Prop45
280
     0
102
RTVSPost2010PropOp45
 70
     1
102
RTVSPost2010Prop46
 90
       50
102
RTVSPost2010PropOp46
 70
     1
102
RTVSPost2010Prop47
 90
       50
102
RTVSPost2010PropOp47
 70
     1
102
RTVSPost2010Prop48
 90
       50
102
RTVSPost2010PropOp48
 70
     1
102
RTVSPost2010Prop49
280
     0
102
RTVSPost2010PropOp49
 70
     1
102
RTVSPost2010Prop50
 90
       50
102
RTVSPost2010PropOp50
 70
     1
102
RTVSPost2010Prop51ColorIndex
 90
      256
102
RTVSPost2010Prop51ColorRGB
 90
-16777216
102
RTVSPost2010PropOp51
 70
     0
102
RTVSPost2010Prop52
140
1.0
102
RTVSPost2010PropOp52
 70
     0
102
RTVSPost2010Prop53
 90
        2
102
RTVSPost2010PropOp53
 70
     1
102
RTVSPost2010Prop54
  1
strokes_ogs.tif
102
RTVSPost2010PropOp54
 70
     1
102
RTVSPost2010Prop55
280
     0
102
RTVSPost2010PropOp55
 70
     1
102
RTVSPost2010Prop56
140
1.0
102
RTVSPost2010PropOp56
 70
     1
102
RTVSPost2010Prop57
140
1.0
102
RTVSPost2010PropOp57
 70
     1
  0
ENDSEC
  0
EOF
