  0
SECTION
  2
HEADER
  9
$ACADVER
  1
AC1015
  9
$ACADMAINTVER
 70
    20
  9
$DWGCODEPAGE
  3
ANSI_1252
  9
$INSBASE
 10
0.0
 20
0.0
 30
0.0
  9
$EXTMIN
 10
-86.2927054504343
 20
-39.07881813077871
 30
0.0
  9
$EXTMAX
 10
93.19740683795773
 20
46.54212077966548
 30
0.0
  9
$LIMMIN
 10
0.0
 20
0.0
  9
$LIMMAX
 10
420.0
 20
297.0
  9
$ORTHOMODE
 70
     1
  9
$REGENMODE
 70
     1
  9
$FILLMODE
 70
     1
  9
$QTEXTMODE
 70
     0
  9
$MIRRTEXT
 70
     1
  9
$LTSCALE
 40
1.0
  9
$ATTMODE
 70
     1
  9
$TEXTSIZE
 40
3.5
  9
$TRACEWID
 40
1.0
  9
$TEXTSTYLE
  7
STANDARD
  9
$CLAYER
  8
0
  9
$CELTYPE
  6
ByLayer
  9
$CECOLOR
 62
   256
  9
$CELTSCALE
 40
1.0
  9
$DISPSILH
 70
     0
  9
$DIMSCALE
 40
1.0
  9
$DIMASZ
 40
2.5
  9
$DIMEXO
 40
0.625
  9
$DIMDLI
 40
3.75
  9
$DIMRND
 40
0.0
  9
$DIMDLE
 40
0.0
  9
$DIMEXE
 40
1.25
  9
$DIMTP
 40
0.0
  9
$DIMTM
 40
0.0
  9
$DIMTXT
 40
3.5
  9
$DIMCEN
 40
0.0
  9
$DIMTSZ
 40
0.0
  9
$DIMTOL
 70
     0
  9
$DIMLIM
 70
     0
  9
$DIMTIH
 70
     0
  9
$DIMTOH
 70
     0
  9
$DIMSE1
 70
     0
  9
$DIMSE2
 70
     0
  9
$DIMTAD
 70
     1
  9
$DIMZIN
 70
     8
  9
$DIMBLK
  1

  9
$DIMASO
 70
     1
  9
$DIMSHO
 70
     1
  9
$DIMPOST
  1

  9
$DIMAPOST
  1

  9
$DIMALT
 70
     0
  9
$DIMALTD
 70
     3
  9
$DIMALTF
 40
0.03937
  9
$DIMLFAC
 40
1.0
  9
$DIMTOFL
 70
     0
  9
$DIMTVP
 40
0.0
  9
$DIMTIX
 70
     0
  9
$DIMSOXD
 70
     0
  9
$DIMSAH
 70
     0
  9
$DIMBLK1
  1

  9
$DIMBLK2
  1

  9
$DIMSTYLE
  2
STANDARD
  9
$DIMCLRD
 70
     0
  9
$DIMCLRE
 70
     0
  9
$DIMCLRT
 70
     0
  9
$DIMTFAC
 40
1.0
  9
$DIMGAP
 40
0.625
  9
$DIMJUST
 70
     0
  9
$DIMSD1
 70
     0
  9
$DIMSD2
 70
     0
  9
$DIMTOLJ
 70
     0
  9
$DIMTZIN
 70
     8
  9
$DIMALTZ
 70
     0
  9
$DIMALTTZ
 70
     0
  9
$DIMUPT
 70
     0
  9
$DIMDEC
 70
     1
  9
$DIMTDEC
 70
     1
  9
$DIMALTU
 70
     2
  9
$DIMALTTD
 70
     3
  9
$DIMTXSTY
  7
STANDARD
  9
$DIMAUNIT
 70
     0
  9
$DIMADEC
 70
     0
  9
$DIMALTRND
 40
0.0
  9
$DIMAZIN
 70
     0
  9
$DIMDSEP
 70
    46
  9
$DIMATFIT
 70
     3
  9
$DIMFRAC
 70
     0
  9
$DIMLDRBLK
  1

  9
$DIMLUNIT
 70
     2
  9
$DIMLWD
 70
    -2
  9
$DIMLWE
 70
    -2
  9
$DIMTMOVE
 70
     0
  9
$LUNITS
 70
     2
  9
$LUPREC
 70
     4
  9
$SKETCHINC
 40
1.0
  9
$FILLETRAD
 40
0.0
  9
$AUNITS
 70
     0
  9
$AUPREC
 70
     0
  9
$MENU
  1
.
  9
$ELEVATION
 40
0.0
  9
$PELEVATION
 40
0.0
  9
$THICKNESS
 40
0.0
  9
$LIMCHECK
 70
     0
  9
$CHAMFERA
 40
2.5
  9
$CHAMFERB
 40
2.5
  9
$CHAMFERC
 40
0.0
  9
$CHAMFERD
 40
0.0
  9
$SKPOLY
 70
     0
  9
$TDCREATE
 40
2455362.076310394
  9
$TDUCREATE
 40
2455362.034643727
  9
$TDUPDATE
 40
2457338.460037326
  9
$TDUUPDATE
 40
2457338.418370660
  9
$TDINDWG
 40
0.3779146412
  9
$TDUSRTIMER
 40
0.3779108102
  9
$USRTIMER
 70
     1
  9
$ANGBASE
 50
0.0
  9
$ANGDIR
 70
     0
  9
$PDMODE
 70
     3
  9
$PDSIZE
 40
0.0
  9
$PLINEWID
 40
0.0
  9
$SPLFRAME
 70
     0
  9
$SPLINETYPE
 70
     6
  9
$SPLINESEGS
 70
     8
  9
$HANDSEED
  5
51E4
  9
$SURFTAB1
 70
     6
  9
$SURFTAB2
 70
     6
  9
$SURFTYPE
 70
     6
  9
$SURFU
 70
     6
  9
$SURFV
 70
     6
  9
$UCSBASE
  2

  9
$UCSNAME
  2

  9
$UCSORG
 10
0.0
 20
0.0
 30
0.0
  9
$UCSXDIR
 10
1.0
 20
0.0
 30
0.0
  9
$UCSYDIR
 10
0.0
 20
1.0
 30
0.0
  9
$UCSORTHOREF
  2

  9
$UCSORTHOVIEW
 70
     0
  9
$UCSORGTOP
 10
1.272020064438208
 20
427.8421177338604
 30
0.0
  9
$UCSORGBOTTOM
 10
0.0
 20
0.0
 30
0.0
  9
$UCSORGLEFT
 10
0.0
 20
0.0
 30
0.0
  9
$UCSORGRIGHT
 10
0.0
 20
0.0
 30
0.0
  9
$UCSORGFRONT
 10
0.0
 20
0.0
 30
0.0
  9
$UCSORGBACK
 10
0.0
 20
0.0
 30
0.0
  9
$PUCSBASE
  2

  9
$PUCSNAME
  2

  9
$PUCSORG
 10
0.0
 20
0.0
 30
0.0
  9
$PUCSXDIR
 10
1.0
 20
0.0
 30
0.0
  9
$PUCSYDIR
 10
0.0
 20
1.0
 30
0.0
  9
$PUCSORTHOREF
  2

  9
$PUCSORTHOVIEW
 70
     0
  9
$PUCSORGTOP
 10
0.0
 20
0.0
 30
0.0
  9
$PUCSORGBOTTOM
 10
0.0
 20
0.0
 30
0.0
  9
$PUCSORGLEFT
 10
0.0
 20
0.0
 30
0.0
  9
$PUCSORGRIGHT
 10
0.0
 20
0.0
 30
0.0
  9
$PUCSORGFRONT
 10
0.0
 20
0.0
 30
0.0
  9
$PUCSORGBACK
 10
0.0
 20
0.0
 30
0.0
  9
$USERI1
 70
     0
  9
$USERI2
 70
     0
  9
$USERI3
 70
     0
  9
$USERI4
 70
     0
  9
$USERI5
 70
     0
  9
$USERR1
 40
0.0
  9
$USERR2
 40
0.0
  9
$USERR3
 40
0.0
  9
$USERR4
 40
0.0
  9
$USERR5
 40
0.0
  9
$WORLDVIEW
 70
     1
  9
$SHADEDGE
 70
     3
  9
$SHADEDIF
 70
    70
  9
$TILEMODE
 70
     1
  9
$MAXACTVP
 70
    48
  9
$PINSBASE
 10
0.0
 20
0.0
 30
0.0
  9
$PLIMCHECK
 70
     0
  9
$PEXTMIN
 10
0.0
 20
0.0
 30
0.0
  9
$PEXTMAX
 10
301.680481
 20
116.822281
 30
2.0
  9
$PLIMMIN
 10
0.0
 20
0.0
  9
$PLIMMAX
 10
420.0
 20
297.0
  9
$UNITMODE
 70
     0
  9
$VISRETAIN
 70
     0
  9
$PLINEGEN
 70
     0
  9
$PSLTSCALE
 70
     1
  9
$TREEDEPTH
 70
  3020
  9
$CMLSTYLE
  2
Standard
  9
$CMLJUST
 70
     0
  9
$CMLSCALE
 40
20.0
  9
$PROXYGRAPHICS
 70
     1
  9
$MEASUREMENT
 70
     1
  9
$CELWEIGHT
370
    -1
  9
$ENDCAPS
280
     0
  9
$JOINSTYLE
280
     0
  9
$LWDISPLAY
290
     0
  9
$INSUNITS
 70
     0
  9
$HYPERLINKBASE
  1

  9
$STYLESHEET
  1

  9
$XEDIT
290
     1
  9
$CEPSNTYPE
380
     0
  9
$PSTYLEMODE
290
     0
  9
$FINGERPRINTGUID
  2

  9
$VERSIONGUID
  2
{A6F4D478-290D-48B4-A278-53512855DDF0}
  9
$EXTNAMES
290
     0
  9
$PSVPSCALE
 40
0.0
  9
$OLESTARTUP
290
     0
  0
ENDSEC
  0
SECTION
  2
CLASSES
  0
CLASS
  1
IMAGE
  2
AcDbRasterImage
  3
ISM
 90
    34943
280
     0
281
     1
  0
CLASS
  1
DICTIONARYVAR
  2
AcDbDictionaryVar
  3
ObjectDBX Classes
 90
        0
280
     0
281
     0
  0
CLASS
  1
RASTERVARIABLES
  2
AcDbRasterVariables
  3
ISM
 90
    32768
280
     0
281
     0
  0
CLASS
  1
IMAGEDEF
  2
AcDbRasterImageDef
  3
ISM
 90
    32768
280
     0
281
     0
  0
CLASS
  1
IMAGEDEF_REACTOR
  2
AcDbRasterImageDefReactor
  3
ISM
 90
    32769
280
     0
281
     0
  0
CLASS
  1
IDBUFFER
  2
AcDbIdBuffer
  3
ObjectDBX Classes
 90
    32768
280
     0
281
     0
  0
CLASS
  1
SPATIAL_FILTER
  2
AcDbSpatialFilter
  3
ObjectDBX Classes
 90
    32768
280
     0
281
     0
  0
CLASS
  1
SORTENTSTABLE
  2
AcDbSortentsTable
  3
ObjectDBX Classes
 90
        0
280
     0
281
     0
  0
CLASS
  1
LAYER_INDEX
  2
AcDbLayerIndex
  3
ObjectDBX Classes
 90
    32768
280
     0
281
     0
  0
CLASS
  1
SPATIAL_INDEX
  2
AcDbSpatialIndex
  3
ObjectDBX Classes
 90
    32768
280
     0
281
     0
  0
CLASS
  1
OBJECT_PTR
  2
CAseDLPNTableRecord
  3
"ASE-LPNTableRecord"
 90
    32769
280
     0
281
     0
  0
CLASS
  1
PLOTSETTINGS
  2
AcDbPlotSettings
  3
ObjectDBX Classes
 90
    32768
280
     0
281
     0
  0
CLASS
  1
ACDBDICTIONARYWDFLT
  2
AcDbDictionaryWithDefault
  3
ObjectDBX Classes
 90
        0
280
     0
281
     0
  0
CLASS
  1
WIPEOUT
  2
AcDbWipeout
  3
WipeOut|Product Desc: Object Enabler for WipeOut entity | Company: Autodesk, Inc. | WEB Address: www.autodesk.com
 90
    34943
280
     0
281
     1
  0
CLASS
  1
WIPEOUTVARIABLES
  2
AcDbWipeoutVariables
  3
"WipeOut|Product Desc:     WipeOut Dbx Application|Company:          Autodesk, Inc.|WEB Address:      www.autodesk.com"
 90
        0
280
     0
281
     0
  0
CLASS
  1
RTEXT
  2
RText
  3
RText|AutoCAD Express Tool|expresstools@autodesk.com
 90
    32768
280
     0
281
     1
  0
CLASS
  1
ARCALIGNEDTEXT
  2
AcDbArcAlignedText
  3
ATEXT|AutoCAD Express Tool|expresstools@autodesk.com
 90
    32768
280
     0
281
     1
  0
CLASS
  1
TABLESTYLE
  2
AcDbTableStyle
  3
ObjectDBX Classes
 90
     4095
280
     0
281
     0
  0
CLASS
  1
MATERIAL
  2
AcDbMaterial
  3
ObjectDBX Classes
 90
     1153
280
     0
281
     0
  0
CLASS
  1
VISUALSTYLE
  2
AcDbVisualStyle
  3
ObjectDBX Classes
 90
     4095
280
     0
281
     0
  0
CLASS
  1
SCALE
  2
AcDbScale
  3
ObjectDBX Classes
 90
     1153
280
     0
281
     0
  0
CLASS
  1
MLEADERSTYLE
  2
AcDbMLeaderStyle
  3
ACDB_MLEADERSTYLE_CLASS
 90
     4095
280
     0
281
     0
  0
CLASS
  1
CELLSTYLEMAP
  2
AcDbCellStyleMap
  3
ObjectDBX Classes
 90
     1152
280
     0
281
     0
  0
CLASS
  1
ACDBSECTIONVIEWSTYLE
  2
AcDbSectionViewStyle
  3
ObjectDBX Classes
 90
     1025
280
     0
281
     0
  0
CLASS
  1
ACDBDETAILVIEWSTYLE
  2
AcDbDetailViewStyle
  3
ObjectDBX Classes
 90
     1025
280
     0
281
     0
  0
CLASS
  1
ACDBPLACEHOLDER
  2
AcDbPlaceHolder
  3
ObjectDBX Classes
 90
        0
280
     0
281
     0
  0
CLASS
  1
LAYOUT
  2
AcDbLayout
  3
ObjectDBX Classes
 90
        0
280
     0
281
     0
  0
ENDSEC
  0
SECTION
  2
TABLES
  0
TABLE
  2
VPORT
  5
7
330
0
100
AcDbSymbolTable
 70
     1
  0
VPORT
  5
4D9E
330
7
100
AcDbSymbolTableRecord
100
AcDbViewportTableRecord
  2
*Active
 70
     0
 10
0.0
 20
0.0
 11
1.0
 21
1.0
 12
3.454798507514226
 22
7.006826470398003
 13
0.0
 23
0.0
 14
1.0
 24
1.0
 15
0.0
 25
0.0
 16
0.0
 26
0.0
 36
1.0
 17
0.0
 27
0.0
 37
0.0
 40
85.60079349358415
 41
2.336194563662374
 42
50.0
 43
0.0
 44
0.0
 50
0.0
 51
0.0
 71
     0
 72
   100
 73
     1
 74
     3
 75
     0
 76
     0
 77
     0
 78
     0
281
     0
 65
     0
110
0.0
120
0.0
130
0.0
111
1.0
121
0.0
131
0.0
112
0.0
122
1.0
132
0.0
 79
     0
146
0.0
1001
ACAD_NAV_VCDISPLAY
1070
     3
  0
ENDTAB
  0
TABLE
  2
LTYPE
  5
4
330
0
100
AcDbSymbolTable
 70
     2
  0
LTYPE
  5
11
330
4
100
AcDbSymbolTableRecord
100
AcDbLinetypeTableRecord
  2
ByBlock
 70
     0
  3

 72
    65
 73
     0
 40
0.0
  0
LTYPE
  5
12
330
4
100
AcDbSymbolTableRecord
100
AcDbLinetypeTableRecord
  2
ByLayer
 70
     0
  3

 72
    65
 73
     0
 40
0.0
  0
LTYPE
  5
13
330
4
100
AcDbSymbolTableRecord
100
AcDbLinetypeTableRecord
  2
Continuous
 70
     0
  3
Solid line
 72
    65
 73
     0
 40
0.0
  0
LTYPE
  5
45C
330
4
100
AcDbSymbolTableRecord
100
AcDbLinetypeTableRecord
  2
CENTER2
 70
     0
  3
Center (.5x) ___ _ ___ _ ___ _ ___ _ ___ _ ___
 72
    65
 73
     4
 40
28.575
 49
19.05
 74
     0
 49
-3.174999999999998
 74
     0
 49
3.174999999999998
 74
     0
 49
-3.174999999999998
 74
     0
  0
ENDTAB
  0
TABLE
  2
LAYER
  5
2
102
{ACAD_XDICTIONARY
360
468
102
}
330
0
100
AcDbSymbolTable
 70
    13
  0
LAYER
  5
14
102
{ACAD_XDICTIONARY
360
4E1D
102
}
330
2
100
AcDbSymbolTableRecord
100
AcDbLayerTableRecord
  2
0
 70
     0
 62
     7
  6
Continuous
370
    -3
390
1D
  0
LAYER
  5
456
102
{ACAD_XDICTIONARY
360
4E1F
102
}
330
2
100
AcDbSymbolTableRecord
100
AcDbLayerTableRecord
  2
1
 70
     0
 62
     4
  6
Continuous
370
    50
390
1D
1001
AcAecLayerStandard
1000

1000

  0
LAYER
  5
458
102
{ACAD_XDICTIONARY
360
4E21
102
}
330
2
100
AcDbSymbolTableRecord
100
AcDbLayerTableRecord
  2
2
 70
     0
 62
     7
  6
Continuous
370
    25
390
1D
1001
AcAecLayerStandard
1000

1000

  0
LAYER
  5
459
102
{ACAD_XDICTIONARY
360
4E23
102
}
330
2
100
AcDbSymbolTableRecord
100
AcDbLayerTableRecord
  2
4
 70
     0
 62
     2
  6
CENTER2
370
    25
390
1D
1001
AcAecLayerStandard
1000

1000

  0
LAYER
  5
45D
102
{ACAD_XDICTIONARY
360
4E25
102
}
330
2
100
AcDbSymbolTableRecord
100
AcDbLayerTableRecord
  2
CUT
 70
     0
 62
     1
  6
Continuous
370
    25
390
1D
1001
AcAecLayerStandard
1000

1000

  0
LAYER
  5
45E
330
2
100
AcDbSymbolTableRecord
100
AcDbLayerTableRecord
  2
DEFPOINTS
 70
     0
 62
     7
  6
Continuous
290
     0
370
    25
390
1D
1001
AcAecLayerStandard
1000

1000

  0
LAYER
  5
45F
102
{ACAD_XDICTIONARY
360
4E27
102
}
330
2
100
AcDbSymbolTableRecord
100
AcDbLayerTableRecord
  2
INFTOTAL
 70
     0
 62
     9
  6
Continuous
370
    18
390
1D
1001
AcAecLayerStandard
1000

1000

  0
LAYER
  5
460
102
{ACAD_XDICTIONARY
360
4E29
102
}
330
2
100
AcDbSymbolTableRecord
100
AcDbLayerTableRecord
  2
NOCUT
 70
     0
 62
     7
  6
Continuous
370
    -3
390
1D
1001
AcAecLayerStandard
1000

1000

  0
LAYER
  5
461
102
{ACAD_XDICTIONARY
360
4E2B
102
}
330
2
100
AcDbSymbolTableRecord
100
AcDbLayerTableRecord
  2
SK1
 70
     0
 62
     4
  6
Continuous
370
    50
390
1D
1001
AcAecLayerStandard
1000

1000

  0
LAYER
  5
462
102
{ACAD_XDICTIONARY
360
4E2D
102
}
330
2
100
AcDbSymbolTableRecord
100
AcDbLayerTableRecord
  2
SK2
 70
     0
 62
     7
  6
Continuous
370
    25
390
1D
1001
AcAecLayerStandard
1000

1000

  0
LAYER
  5
466
102
{ACAD_XDICTIONARY
360
4E2F
102
}
330
2
100
AcDbSymbolTableRecord
100
AcDbLayerTableRecord
  2
SK6
 70
     0
 62
     5
  6
Continuous
370
    -3
390
1D
1001
AcAecLayerStandard
1000

1000

  0
LAYER
  5
4ED9
330
2
100
AcDbSymbolTableRecord
100
AcDbLayerTableRecord
  2
SK4
 70
     0
 62
     2
  6
CENTER2
370
    25
390
1D
1001
AcAecLayerStandard
1000

1000

  0
ENDTAB
  0
TABLE
  2
STYLE
  5
3
330
0
100
AcDbSymbolTable
 70
     1
  0
STYLE
  5
17
330
3
100
AcDbSymbolTableRecord
100
AcDbTextStyleTableRecord
  2
STANDARD
 70
     0
 40
0.0
 41
1.0
 50
0.0
 71
     0
 42
3.5
  3
monos.ttf
  4

1001
ACAD
1000
Monospac821 BT
1071
       49
  0
ENDTAB
  0
TABLE
  2
VIEW
  5
5
330
0
100
AcDbSymbolTable
 70
     0
  0
ENDTAB
  0
TABLE
  2
UCS
  5
6
330
0
100
AcDbSymbolTable
 70
     0
  0
ENDTAB
  0
TABLE
  2
APPID
  5
8
330
0
100
AcDbSymbolTable
 70
    21
  0
APPID
  5
16
330
8
100
AcDbSymbolTableRecord
100
AcDbRegAppTableRecord
  2
ACAD
 70
     0
  0
APPID
  5
457
330
8
100
AcDbSymbolTableRecord
100
AcDbRegAppTableRecord
  2
AcAecLayerStandard
 70
     0
  0
APPID
  5
475
330
8
100
AcDbSymbolTableRecord
100
AcDbRegAppTableRecord
  2
ACAD_DSTYLE_DIMTEXT_FILL
 70
     0
  0
APPID
  5
476
330
8
100
AcDbSymbolTableRecord
100
AcDbRegAppTableRecord
  2
ACAD_DSTYLE_DIMEXT_LENGTH
 70
     0
  0
APPID
  5
477
330
8
100
AcDbSymbolTableRecord
100
AcDbRegAppTableRecord
  2
ACAD_DSTYLE_DIMEXT_ENABLED
 70
     0
  0
APPID
  5
478
330
8
100
AcDbSymbolTableRecord
100
AcDbRegAppTableRecord
  2
ACAD_DSTYLE_DIM_LINETYPE
 70
     0
  0
APPID
  5
479
330
8
100
AcDbSymbolTableRecord
100
AcDbRegAppTableRecord
  2
ACAD_DSTYLE_DIM_EXT1_LINETYPE
 70
     0
  0
APPID
  5
47A
330
8
100
AcDbSymbolTableRecord
100
AcDbRegAppTableRecord
  2
ACAD_DSTYLE_DIM_EXT2_LINETYPE
 70
     0
  0
APPID
  5
536
330
8
100
AcDbSymbolTableRecord
100
AcDbRegAppTableRecord
  2
ACAD_DSTYLE_DIMJOGGED_JOGANGLE_SYMBOL
 70
     0
  0
APPID
  5
7AF
330
8
100
AcDbSymbolTableRecord
100
AcDbRegAppTableRecord
  2
ACAD_DSTYLE_DIMARC_LENGTH_SYMBOL
 70
     0
  0
APPID
  5
163B
330
8
100
AcDbSymbolTableRecord
100
AcDbRegAppTableRecord
  2
ACAD_EXEMPT_FROM_CAD_STANDARDS
 70
     0
  0
APPID
  5
45C4
330
8
100
AcDbSymbolTableRecord
100
AcDbRegAppTableRecord
  2
ACAD_PSEXT
 70
     0
  0
APPID
  5
45C5
330
8
100
AcDbSymbolTableRecord
100
AcDbRegAppTableRecord
  2
ACAD_MLEADERVER
 70
     0
  0
APPID
  5
45C6
330
8
100
AcDbSymbolTableRecord
100
AcDbRegAppTableRecord
  2
ACAD_DSTYLE_DIMJAG
 70
     0
  0
APPID
  5
45C7
330
8
100
AcDbSymbolTableRecord
100
AcDbRegAppTableRecord
  2
ACAD_DSTYLE_DIMBREAK
 70
     0
  0
APPID
  5
45C8
330
8
100
AcDbSymbolTableRecord
100
AcDbRegAppTableRecord
  2
ACAD_DSTYLE_DIMTALN
 70
     0
  0
APPID
  5
45C9
330
8
100
AcDbSymbolTableRecord
100
AcDbRegAppTableRecord
  2
DCO15
 70
     0
  0
APPID
  5
45CA
330
8
100
AcDbSymbolTableRecord
100
AcDbRegAppTableRecord
  2
AcadAnnoPO
 70
     0
  0
APPID
  5
45CB
330
8
100
AcDbSymbolTableRecord
100
AcDbRegAppTableRecord
  2
ACAD_DSTYLE_DIMRADIAL_EXTENSION
 70
     0
  0
APPID
  5
4EC0
330
8
100
AcDbSymbolTableRecord
100
AcDbRegAppTableRecord
  2
AcLayerTools
 70
     0
  0
APPID
  5
5107
330
8
100
AcDbSymbolTableRecord
100
AcDbRegAppTableRecord
  2
ACAD_NAV_VCDISPLAY
 70
     0
  0
ENDTAB
  0
TABLE
  2
DIMSTYLE
  5
9
330
0
100
AcDbSymbolTable
 70
     1
100
AcDbDimStyleTable
 71
     1
340
18
  0
DIMSTYLE
105
18
102
{ACAD_REACTORS
330
414C
330
414D
330
414E
330
414F
102
}
330
9
100
AcDbSymbolTableRecord
100
AcDbDimStyleTableRecord
  2
STANDARD
 70
     0
 41
2.5
 42
0.625
 43
3.75
 44
1.25
 73
     0
 74
     0
 77
     1
 78
     8
140
3.5
141
0.0
143
0.03937
147
0.625
171
     3
271
     1
272
     1
274
     3
283
     0
284
     8
340
17
1001
ACAD_DSTYLE_DIMEXT_LENGTH
1070
   378
1040
1.25
1001
ACAD_DSTYLE_DIMJOGGED_JOGANGLE_SYMBOL
1070
   384
1040
1.570796326794896
  0
ENDTAB
  0
TABLE
  2
BLOCK_RECORD
  5
1
330
0
100
AcDbSymbolTable
 70
     5
  0
BLOCK_RECORD
  5
A
102
{ACAD_XDICTIONARY
360
BCD
102
}
330
1
100
AcDbSymbolTableRecord
100
AcDbBlockTableRecord
  2
*MODEL_SPACE
340
20
  0
BLOCK_RECORD
  5
B
330
1
100
AcDbSymbolTableRecord
100
AcDbBlockTableRecord
  2
*PAPER_SPACE
340
21
  0
BLOCK_RECORD
  5
415B
330
1
100
AcDbSymbolTableRecord
100
AcDbBlockTableRecord
  2
*D0
340
0
  0
BLOCK_RECORD
  5
4167
330
1
100
AcDbSymbolTableRecord
100
AcDbBlockTableRecord
  2
*D1
340
0
  0
BLOCK_RECORD
  5
4173
330
1
100
AcDbSymbolTableRecord
100
AcDbBlockTableRecord
  2
*D2
340
0
  0
BLOCK_RECORD
  5
417F
330
1
100
AcDbSymbolTableRecord
100
AcDbBlockTableRecord
  2
*D3
340
0
  0
BLOCK_RECORD
  5
42A5
330
1
100
AcDbSymbolTableRecord
100
AcDbBlockTableRecord
  2
CERO_POINT
340
0
310
2800000020000000200000000100080000000000000400000000000000000000000000000000000000000000000080000080000000808000800000008000800080800000C0C0C000C0DCC000F0CAA6000020400000206000002080000020A0000020C0000020E00000400000004020000040400000406000004080000040A0
310
000040C0000040E00000600000006020000060400000606000006080000060A0000060C0000060E00000800000008020000080400000806000008080000080A0000080C0000080E00000A0000000A0200000A0400000A0600000A0800000A0A00000A0C00000A0E00000C0000000C0200000C0400000C0600000C0800000C0
310
A00000C0C00000C0E00000E0000000E0200000E0400000E0600000E0800000E0A00000E0C00000E0E00040000000400020004000400040006000400080004000A0004000C0004000E00040200000402020004020400040206000402080004020A0004020C0004020E000404000004040200040404000404060004040800040
310
40A0004040C0004040E00040600000406020004060400040606000406080004060A0004060C0004060E00040800000408020004080400040806000408080004080A0004080C0004080E00040A0000040A0200040A0400040A0600040A0800040A0A00040A0C00040A0E00040C0000040C0200040C0400040C0600040C08000
310
40C0A00040C0C00040C0E00040E0000040E0200040E0400040E0600040E0800040E0A00040E0C00040E0E00080000000800020008000400080006000800080008000A0008000C0008000E00080200000802020008020400080206000802080008020A0008020C0008020E00080400000804020008040400080406000804080
310
008040A0008040C0008040E00080600000806020008060400080606000806080008060A0008060C0008060E00080800000808020008080400080806000808080008080A0008080C0008080E00080A0000080A0200080A0400080A0600080A0800080A0A00080A0C00080A0E00080C0000080C0200080C0400080C0600080C0
310
800080C0A00080C0C00080C0E00080E0000080E0200080E0400080E0600080E0800080E0A00080E0C00080E0E000C0000000C0002000C0004000C0006000C0008000C000A000C000C000C000E000C0200000C0202000C0204000C0206000C0208000C020A000C020C000C020E000C0400000C0402000C0404000C0406000C0
310
408000C040A000C040C000C040E000C0600000C0602000C0604000C0606000C0608000C060A000C060C000C060E000C0800000C0802000C0804000C0806000C0808000C080A000C080C000C080E000C0A00000C0A02000C0A04000C0A06000C0A08000C0A0A000C0A0C000C0A0E000C0C00000C0C02000C0C04000C0C06000
310
C0C08000C0C0A000F0FBFF00A4A0A000808080000000FF0000FF000000FFFF00FF000000FF00FF00FFFF0000FFFFFF00000000000000000000000000000000000000000000000000000000000000000000000000000000000000000000000000FF0000000000000000000000000000000000000000000000000000000000FF
310
FFFFFFFF000000000000000000000000000000000000000000FFFFFFFFFFFF0000FF0000FFFF00FF00000000000000000000000000000000FF00000000000000FFFFFF0000FFFFFFFF000000000000000000000000000000FF0000000000000000FF00FF0000FF00FFFF00000000000000000000000000FF00000000000000
310
0000FFFF00FF0000FF0000FFFF00000000000000000000FF000000000000000000FFFF00FF00FF0000FF0000FF000000000000000000FF0000000000000000000000FF0000FF00FF0000FF0000FF0000000000000000FF00000000000000000000FFFFFF0000FFFFFF0000FF00FFFF000000000000FF000000000000000000
310
000000FF00FF000000FFFF0000FF00FF0000000000FF00000000000000000000000000FFFF00FFFF0000FFFF0000FFFF0000000000FF000000000000000000000000FFFF00FF0000FF0000FFFF0000FF0000000000FF00000000000000000000000000FF0000FF0000FF0000FFFF0000FF00000000FF000000000000000000
310
000000FFFFFF0000FF0000FF0000FFFF00FF00000000FF00FF00000000FF0000FF00FF00FFFFFF0000FF0000FF0000FFFF00FF0000FFFFFFFFFFFFFFFFFFFFFFFFFFFFFFFFFFFFFFFFFFFFFFFFFFFFFFFFFFFF000000FF00FF00FF00FF0000FF0000FFFFFF00000000000000000000000000FF000000FF0000FF00FF00FF00
310
00FF0000FFFF000000000000000000000000FF00000000FFFF0000FF00FF00FF00FF000000FF000000000000000000000000FF00000000FF00FF0000FF00FF00FF00FF0000FF0000000000000000000000FF000000000000FF00FF0000FFFF0000FF00FF00FF0000000000000000000000FF000000000000FFFF00FF00FF00
310
FF0000FF00FFFF00000000000000000000FF0000000000000000FF0000FF00FF00FF0000FF00FF00000000000000000000FF000000000000000000FF0000FF00FF00FF0000FFFF000000000000000000FF0000000000000000000000FF0000FF00FF00FF0000FF000000000000000000FF000000000000000000000000FF00
310
00FF00FF00FF00FF00000000000000FFFF00000000000000000000000000FFFF0000FF00FF00FFFF0000000000FFFF00000000000000000000000000000000FFFFFFFFFF00FF00FF000000FFFF0000000000000000000000000000000000000000000000FFFFFFFFFFFFFF0000000000000000000000000000000000000000
310
0000000000000000FF0000000000000000000000000000000000000000000000000000000000000000000000000000000000000000000000
102
{BLKREFS
331
464F
102
}
1001
ACAD
1000
DesignCenter Data
1002
{
1070
     1
1070
     4
1002
}
  0
ENDTAB
  0
ENDSEC
  0
SECTION
  2
BLOCKS
  0
BLOCK
  5
D
330
A
100
AcDbEntity
  8
0
100
AcDbBlockBegin
  2
*MODEL_SPACE
 70
     0
 10
0.0
 20
0.0
 30
0.0
  3
*MODEL_SPACE
  1

  0
ENDBLK
  5
E
330
A
100
AcDbEntity
  8
0
100
AcDbBlockEnd
  0
BLOCK
  5
F
330
B
100
AcDbEntity
 67
     1
  8
0
100
AcDbBlockBegin
  2
*PAPER_SPACE
 70
     0
 10
0.0
 20
0.0
 30
0.0
  3
*PAPER_SPACE
  1

  0
ENDBLK
  5
10
330
B
100
AcDbEntity
 67
     1
  8
0
100
AcDbBlockEnd
  0
BLOCK
  5
4165
330
415B
100
AcDbEntity
  8
0
100
AcDbBlockBegin
  2
*D0
 70
     1
 10
0.0
 20
0.0
 30
0.0
  3
*D0
  1

  0
LINE
  5
5170
330
415B
100
AcDbEntity
  8
2
 62
     0
370
    -2
100
AcDbLine
 10
65.62499999999992
 20
-5.0
 30
0.0
 11
84.50559800000002
 21
-5.000000000000005
 31
0.0
  0
LINE
  5
5171
330
415B
100
AcDbEntity
  8
2
 62
     0
370
    -2
100
AcDbLine
 10
65.62499999999992
 20
4.999999999999943
 30
0.0
 11
84.50559800000002
 21
4.999999999999937
 31
0.0
  0
LINE
  5
5172
330
415B
100
AcDbEntity
  8
2
 62
     0
370
    -2
100
AcDbLine
 10
83.25559800000002
 20
-2.500000000000005
 30
0.0
 11
83.25559800000002
 21
2.499999999999937
 31
0.0
  0
SOLID
  5
5173
330
415B
100
AcDbEntity
  8
2
 62
     0
100
AcDbTrace
 10
82.83893133333334
 20
-2.500000000000004
 30
0.0
 11
83.6722646666667
 21
-2.500000000000005
 31
0.0
 12
83.25559800000002
 22
-5.000000000000005
 32
0.0
 13
83.25559800000002
 23
-5.000000000000005
 33
0.0
  0
SOLID
  5
5174
330
415B
100
AcDbEntity
  8
2
 62
     0
100
AcDbTrace
 10
82.83893133333334
 20
2.499999999999938
 30
0.0
 11
83.6722646666667
 21
2.499999999999937
 31
0.0
 12
83.25559800000002
 22
4.999999999999937
 32
0.0
 13
83.25559800000002
 23
4.999999999999937
 33
0.0
  0
MTEXT
  5
5175
330
415B
100
AcDbEntity
  8
2
 62
     0
100
AcDbMText
 10
80.76745674912158
 20
-0.0000000000000199
 30
0.0
 40
3.5
 41
0.0
 71
     5
 72
     1
  1
%%C10
 11
0.0000000000000001
 21
1.0
 31
0.0
 73
     1
 44
1.0
1001
ACAD
1000
MTEXTBEGIN
1070
    73
1070
     1
1070
    44
1040
1.0
1070
    74
1070
     0
1000
MTEXTEND
  0
POINT
  5
5176
330
415B
100
AcDbEntity
  8
DEFPOINTS
 62
     0
100
AcDbPoint
 10
64.99999999999992
 20
-5.0
 30
0.0
  0
POINT
  5
5177
330
415B
100
AcDbEntity
  8
DEFPOINTS
 62
     0
100
AcDbPoint
 10
64.99999999999992
 20
4.999999999999943
 30
0.0
  0
POINT
  5
5178
330
415B
100
AcDbEntity
  8
DEFPOINTS
 62
     0
100
AcDbPoint
 10
83.25559800000002
 20
4.999999999999937
 30
0.0
  0
ENDBLK
  5
4166
330
415B
100
AcDbEntity
  8
0
100
AcDbBlockEnd
  0
BLOCK
  5
4171
330
4167
100
AcDbEntity
  8
0
100
AcDbBlockBegin
  2
*D1
 70
     1
 10
0.0
 20
0.0
 30
0.0
  3
*D1
  1

  0
LINE
  5
5179
330
4167
100
AcDbEntity
  8
SK2
 62
     0
370
    -2
100
AcDbLine
 10
-60.00002081305137
 20
7.674999999653466
 30
0.0
 11
-60.00095213197095
 21
35.64179424965576
 31
0.0
  0
LINE
  5
517A
330
4167
100
AcDbEntity
  8
SK2
 62
     0
370
    -2
100
AcDbLine
 10
69.99997918694861
 20
0.6249999996534536
 30
0.0
 11
69.99881295264675
 21
35.64612335651311
 31
0.0
  0
LINE
  5
517B
330
4167
100
AcDbEntity
  8
SK2
 62
     0
370
    -2
100
AcDbLine
 10
-57.50091050725447
 20
34.3918775025542
 30
0.0
 11
67.4988545801356
 21
34.39604010500086
 31
0.0
  0
SOLID
  5
517C
330
4167
100
AcDbEntity
  8
SK2
 62
     0
100
AcDbTrace
 10
-57.50092438262202
 20
34.80854416898983
 30
0.0
 11
-57.50089663188691
 21
33.97521083611856
 31
0.0
 12
-60.00091050586828
 22
34.39179425034885
 32
0.0
 13
-60.00091050586828
 23
34.39179425034885
 33
0.0
  0
SOLID
  5
517D
330
4167
100
AcDbEntity
  8
SK2
 62
     0
100
AcDbTrace
 10
67.49884070476804
 20
34.81270677143649
 30
0.0
 11
67.49886845550316
 21
33.97937343856523
 31
0.0
 12
69.99885457874942
 22
34.3961233572062
 32
0.0
 13
69.99885457874942
 23
34.3961233572062
 33
0.0
  0
MTEXT
  5
517E
330
4167
100
AcDbEntity
  8
SK2
 62
     0
100
AcDbMText
 10
4.998890899180563
 20
36.83044861268657
 30
0.0
 40
3.5
 41
0.0
 71
     5
 72
     1
  1
130
 11
0.9999999994455256
 21
0.0000333008821372
 31
0.0
 73
     1
 44
1.0
1001
ACAD
1000
MTEXTBEGIN
1070
    73
1070
     1
1070
    44
1040
1.0
1070
    74
1070
     0
1000
MTEXTEND
  0
POINT
  5
517F
330
4167
100
AcDbEntity
  8
DEFPOINTS
 62
     0
100
AcDbPoint
 10
-60.00000000000003
 20
7.050000000000012
 30
0.0
  0
POINT
  5
5180
330
4167
100
AcDbEntity
  8
DEFPOINTS
 62
     0
100
AcDbPoint
 10
69.99999999999994
 20
0.0
 30
0.0
  0
POINT
  5
5181
330
4167
100
AcDbEntity
  8
DEFPOINTS
 62
     0
100
AcDbPoint
 10
69.99885457874942
 20
34.3961233572062
 30
0.0
  0
ENDBLK
  5
4172
330
4167
100
AcDbEntity
  8
0
100
AcDbBlockEnd
  0
BLOCK
  5
417D
330
4173
100
AcDbEntity
  8
0
100
AcDbBlockBegin
  2
*D2
 70
     1
 10
0.0
 20
0.0
 30
0.0
  3
*D2
  1

  0
LINE
  5
5182
330
4173
100
AcDbEntity
  8
SK2
 62
     0
370
    -2
100
AcDbLine
 10
-59.67500000000004
 20
-8.000000000000056
 30
0.0
 11
-76.82913199999993
 21
-8.000000000000049
 31
0.0
  0
LINE
  5
5183
330
4173
100
AcDbEntity
  8
SK2
 62
     0
370
    -2
100
AcDbLine
 10
-59.67500000000004
 20
8.0
 30
0.0
 11
-76.82913199999993
 21
8.000000000000005
 31
0.0
  0
LINE
  5
5184
330
4173
100
AcDbEntity
  8
SK2
 62
     0
370
    -2
100
AcDbLine
 10
-75.57913199999993
 20
-5.50000000000005
 30
0.0
 11
-75.57913199999993
 21
5.500000000000004
 31
0.0
  0
SOLID
  5
5185
330
4173
100
AcDbEntity
  8
SK2
 62
     0
100
AcDbTrace
 10
-75.9957986666666
 20
-5.50000000000005
 30
0.0
 11
-75.16246533333326
 21
-5.50000000000005
 31
0.0
 12
-75.57913199999993
 22
-8.000000000000051
 32
0.0
 13
-75.57913199999993
 23
-8.000000000000051
 33
0.0
  0
SOLID
  5
5186
330
4173
100
AcDbEntity
  8
SK2
 62
     0
100
AcDbTrace
 10
-75.9957986666666
 20
5.500000000000004
 30
0.0
 11
-75.16246533333326
 21
5.500000000000004
 31
0.0
 12
-75.57913199999993
 22
8.000000000000003
 32
0.0
 13
-75.57913199999993
 23
8.000000000000003
 33
0.0
  0
MTEXT
  5
5187
330
4173
100
AcDbEntity
  8
SK2
 62
     0
100
AcDbMText
 10
-78.06727325087836
 20
-0.000000000000035
 30
0.0
 40
3.5
 41
0.0
 71
     5
 72
     1
  1
%%C16
 11
0.0000000000000001
 21
1.0
 31
0.0
 73
     1
 44
1.0
1001
ACAD
1000
MTEXTBEGIN
1070
    73
1070
     1
1070
    44
1040
1.0
1070
    74
1070
     0
1000
MTEXTEND
  0
POINT
  5
5188
330
4173
100
AcDbEntity
  8
DEFPOINTS
 62
     0
100
AcDbPoint
 10
-59.05000000000004
 20
-8.000000000000056
 30
0.0
  0
POINT
  5
5189
330
4173
100
AcDbEntity
  8
DEFPOINTS
 62
     0
100
AcDbPoint
 10
-59.05000000000004
 20
8.0
 30
0.0
  0
POINT
  5
518A
330
4173
100
AcDbEntity
  8
DEFPOINTS
 62
     0
100
AcDbPoint
 10
-75.57913199999993
 20
8.000000000000003
 30
0.0
  0
ENDBLK
  5
417E
330
4173
100
AcDbEntity
  8
0
100
AcDbBlockEnd
  0
BLOCK
  5
4189
330
417F
100
AcDbEntity
  8
0
100
AcDbBlockBegin
  2
*D3
 70
     1
 10
0.0
 20
0.0
 30
0.0
  3
*D3
  1

  0
LINE
  5
518B
330
417F
100
AcDbEntity
  8
2
 62
     0
370
    -2
100
AcDbLine
 10
54.9999791869486
 20
5.497324999653441
 30
0.0
 11
54.99955683017397
 21
18.18037563645846
 31
0.0
  0
LINE
  5
518C
330
417F
100
AcDbEntity
  8
2
 62
     0
370
    -2
100
AcDbLine
 10
69.99997918694861
 20
0.6249999996534536
 30
0.0
 11
69.99939456081929
 21
18.18087514428708
 31
0.0
  0
LINE
  5
518D
330
417F
100
AcDbEntity
  8
2
 62
     0
370
    -2
100
AcDbLine
 10
57.49959845489045
 20
16.93045888935689
 30
0.0
 11
67.49943618830814
 21
16.93079189277483
 31
0.0
  0
SOLID
  5
518E
330
417F
100
AcDbEntity
  8
2
 62
     0
100
AcDbTrace
 10
57.49958457952289
 20
17.34712555579253
 30
0.0
 11
57.49961233025801
 21
16.51379222292125
 31
0.0
 12
54.99959845627664
 22
16.93037563715155
 32
0.0
 13
54.99959845627664
 23
16.93037563715155
 33
0.0
  0
SOLID
  5
518F
330
417F
100
AcDbEntity
  8
2
 62
     0
100
AcDbTrace
 10
67.49942231294058
 20
17.34745855921046
 30
0.0
 11
67.49945006367569
 21
16.51412522633919
 31
0.0
 12
69.99943618692196
 22
16.93087514498017
 32
0.0
 13
69.99943618692196
 23
16.93087514498017
 33
0.0
  0
MTEXT
  5
5190
330
417F
100
AcDbEntity
  8
2
 62
     0
100
AcDbMText
 10
62.49943618433929
 20
19.3671151999749
 30
0.0
 40
3.5
 41
0.0
 71
     5
 72
     1
  1
15
 11
0.9999999994455256
 21
0.0000333008821372
 31
0.0
 73
     1
 44
1.0
1001
ACAD
1000
MTEXTBEGIN
1070
    73
1070
     1
1070
    44
1040
1.0
1070
    74
1070
     0
1000
MTEXTEND
  0
POINT
  5
5191
330
417F
100
AcDbEntity
  8
DEFPOINTS
 62
     0
100
AcDbPoint
 10
54.99999999999993
 20
4.872324999999988
 30
0.0
  0
POINT
  5
5192
330
417F
100
AcDbEntity
  8
DEFPOINTS
 62
     0
100
AcDbPoint
 10
69.99999999999994
 20
0.0
 30
0.0
  0
POINT
  5
5193
330
417F
100
AcDbEntity
  8
DEFPOINTS
 62
     0
100
AcDbPoint
 10
69.99943618692196
 20
16.93087514498017
 30
0.0
  0
ENDBLK
  5
418A
330
417F
100
AcDbEntity
  8
0
100
AcDbBlockEnd
  0
BLOCK
  5
42A6
330
42A5
100
AcDbEntity
  8
0
100
AcDbBlockBegin
  2
CERO_POINT
 70
     0
 10
0.0
 20
0.0
 30
0.0
  3
CERO_POINT
  1

  0
CIRCLE
  5
42A7
102
{ACAD_REACTORS
330
42AC
102
}
330
42A5
100
AcDbEntity
  8
SK2
100
AcDbCircle
 10
0.0
 20
0.0
 30
0.0
 40
2.5
  0
LINE
  5
42A8
330
42A5
100
AcDbEntity
  8
SK2
100
AcDbLine
 10
0.0900000000037835
 20
0.0
 30
0.0
 11
-0.0899999999965076
 21
0.0
 31
0.0
  0
LINE
  5
42A9
330
42A5
100
AcDbEntity
  8
SK2
100
AcDbLine
 10
0.0
 20
0.0899999999999182
 30
0.0
 11
0.0
 21
-0.0899999999999182
 31
0.0
  0
LINE
  5
42AA
102
{ACAD_REACTORS
330
42AC
102
}
330
42A5
100
AcDbEntity
  8
SK2
100
AcDbLine
 10
0.0
 20
-2.5
 30
0.0
 11
0.0
 21
2.5
 31
0.0
  0
LINE
  5
42AB
102
{ACAD_REACTORS
330
42AC
102
}
330
42A5
100
AcDbEntity
  8
SK2
100
AcDbLine
 10
2.5
 20
0.0
 30
0.0
 11
-2.5
 21
0.0
 31
0.0
  0
HATCH
  5
42AC
330
42A5
100
AcDbEntity
  8
SK2
100
AcDbHatch
 10
0.0
 20
0.0
 30
0.0
210
0.0
220
0.0
230
1.0
  2
ANSI31
 70
     0
 71
     1
 91
        2
 92
        7
 72
     1
 73
     1
 93
        3
 10
0.0
 20
-2.5
 42
0.4142135623730951
 10
2.5
 20
0.0
 42
0.0
 10
0.0
 20
0.0
 42
0.0
 97
        3
330
42A7
330
42AB
330
42AA
 92
        7
 72
     1
 73
     1
 93
        3
 10
0.0
 20
0.0
 42
0.0
 10
0.0
 20
2.5
 42
0.4142135623730951
 10
-2.5
 20
0.0
 42
0.0
 97
        3
330
42AB
330
42AA
330
42A7
 75
     0
 76
     1
 52
180.0
 41
0.1
 77
     0
 78
     1
 53
225.0
 43
5.170976743218488
 44
0.0
 45
0.2245064030267288
 46
-0.2245064030267289
 79
     0
 47
0.0243816376539857
 98
        2
 10
0.8789156907296272
 20
-1.044463114528752
 10
-0.8545028512526187
 20
0.7841600866017872
  0
ENDBLK
  5
42AD
330
42A5
100
AcDbEntity
  8
0
100
AcDbBlockEnd
  0
ENDSEC
  0
SECTION
  2
ENTITIES
  0
DIMENSION
  5
414C
102
{ACAD_REACTORS
330
468B
102
}
330
A
100
AcDbEntity
  8
2
100
AcDbDimension
  2
*D0
 10
83.25559800000002
 20
4.999999999999937
 30
0.0
 11
80.76745674912158
 21
-0.0000000000000199
 31
0.0
 70
    33
  1
%%C<>
 71
     5
 42
9.999999999999943
  3
STANDARD
100
AcDbAlignedDimension
 13
64.99999999999992
 23
-5.0
 33
0.0
 14
64.99999999999992
 24
4.999999999999943
 34
0.0
  0
DIMENSION
  5
414D
102
{ACAD_REACTORS
330
4678
102
}
330
A
100
AcDbEntity
  8
SK2
100
AcDbDimension
  2
*D1
 10
69.99885457874942
 20
34.3961233572062
 30
0.0
 11
4.998890899180563
 21
36.83044861268657
 31
0.0
 70
    32
 71
     5
 42
129.9997651566992
  3
STANDARD
100
AcDbAlignedDimension
 13
-60.00000000000003
 23
7.050000000000013
 33
0.0
 14
69.99999999999992
 24
0.0
 34
0.0
 50
0.0019080000008742
100
AcDbRotatedDimension
  0
DIMENSION
  5
414E
102
{ACAD_REACTORS
330
4678
102
}
330
A
100
AcDbEntity
  8
SK2
100
AcDbDimension
  2
*D2
 10
-75.57913199999993
 20
8.000000000000003
 30
0.0
 11
-78.06727325087836
 21
-0.000000000000035
 31
0.0
 70
    33
  1
%%C<>
 71
     5
 42
16.00000000000006
  3
STANDARD
100
AcDbAlignedDimension
 13
-59.05000000000004
 23
-8.000000000000056
 33
0.0
 14
-59.05000000000004
 24
8.0
 34
0.0
  0
DIMENSION
  5
414F
102
{ACAD_REACTORS
330
468B
102
}
330
A
100
AcDbEntity
  8
2
100
AcDbDimension
  2
*D3
 10
69.99943618692196
 20
16.93087514498017
 30
0.0
 11
62.49943618433929
 21
19.3671151999749
 31
0.0
 70
    32
 71
     5
 42
14.99983773896232
  3
STANDARD
100
AcDbAlignedDimension
 13
54.99999999999993
 23
4.872324999999988
 33
0.0
 14
69.99999999999992
 24
0.0
 34
0.0
 50
0.0019080000008742
100
AcDbRotatedDimension
  0
LINE
  5
4151
330
A
100
AcDbEntity
  8
SK4
100
AcDbLine
 10
-65.07884200000003
 20
0.0
 30
0.0
 11
0.0
 21
0.0
 31
0.0
  0
SPLINE
  5
41C9
102
{ACAD_REACTORS
330
4BB7
102
}
330
A
100
AcDbEntity
  8
1
100
AcDbSpline
210
0.0
220
0.0
230
1.0
 70
     8
 71
     5
 72
    18
 73
    12
 74
     0
 42
0.000000001
 43
0.0000000001
 40
0.0
 40
0.0
 40
0.0
 40
0.0
 40
0.0
 40
0.0
 40
0.1853110478203294
 40
0.1853110478203294
 40
0.1853110478203294
 40
0.5446525179719652
 40
0.5446525179719652
 40
0.5446525179719652
 40
1.19148807909035
 40
1.19148807909035
 40
1.19148807909035
 40
1.19148807909035
 40
1.19148807909035
 40
1.19148807909035
 10
69.15025310234813
 20
-0.241867732629089
 30
0.0
 10
69.15610960169043
 20
-0.2289520948976929
 30
0.0
 10
69.15960993893463
 20
-0.2139901935382227
 30
0.0
 10
69.16049259579826
 20
-0.1968717464025076
 30
0.0
 10
69.15601598386231
 20
-0.1450561505717474
 30
0.0
 10
69.13431935898592
 20
-0.0890696035017413
 30
0.0
 10
69.11469778103256
 20
-0.0523697986375851
 30
0.0
 10
69.05250281936203
 20
0.0435513596014516
 30
0.0
 10
68.97200580082253
 20
0.1259846397814499
 30
0.0
 10
68.91725945967545
 20
0.1721489200321002
 30
0.0
 10
68.85978761524083
 20
0.2116956952301052
 30
0.0
 10
68.80167496363353
 20
0.2418677324498049
 30
0.0
  0
LINE
  5
41CA
102
{ACAD_REACTORS
330
4BB7
102
}
330
A
100
AcDbEntity
  8
1
100
AcDbLine
 10
68.63772199999994
 20
0.241867999999954
 30
0.0
 11
68.80167499999995
 21
0.241867999999954
 31
0.0
  0
LINE
  5
41CB
102
{ACAD_REACTORS
330
4BB7
102
}
330
A
100
AcDbEntity
  8
1
100
AcDbLine
 10
69.01565799999993
 20
-0.2418680000000108
 30
0.0
 11
69.15025299999993
 21
-0.2418680000000108
 31
0.0
  0
LINE
  5
41CC
102
{ACAD_REACTORS
330
4BB7
102
}
330
A
100
AcDbEntity
  8
1
100
AcDbLine
 10
69.15025299999993
 20
-0.2418680000000108
 30
0.0
 11
69.42603599999994
 21
-0.6388460000000578
 31
0.0
  0
LINE
  5
41CD
102
{ACAD_REACTORS
330
4BB7
102
}
330
A
100
AcDbEntity
  8
1
100
AcDbLine
 10
61.47388899999993
 20
-4.101775999999971
 30
0.0
 11
61.48584899999995
 21
-4.169606999999984
 31
0.0
  0
ARC
  5
41CE
102
{ACAD_REACTORS
330
4BB7
102
}
330
A
100
AcDbEntity
  8
1
100
AcDbCircle
 10
54.50642399999996
 20
-102.373675
 30
0.0
 40
98.451988
100
AcDbArc
 50
84.10886400000014
 51
85.93478799999967
  0
ARC
  5
41CF
102
{ACAD_REACTORS
330
4BB7
102
}
330
A
100
AcDbEntity
  8
1
100
AcDbCircle
 10
65.04199599999992
 20
0.0651079999999524
 30
0.0
 40
4.526953999999999
100
AcDbArc
 50
264.5423199999996
 51
288.3130210000004
  0
SPLINE
  5
41D0
102
{ACAD_REACTORS
330
4BB7
102
}
330
A
100
AcDbEntity
  8
1
100
AcDbSpline
210
0.0
220
0.0
230
1.0
 70
     8
 71
     5
 72
    57
 73
    51
 74
     0
 42
0.000000001
 43
0.0000000001
 40
0.6234621968118571
 40
0.6234621968118571
 40
0.6234621968118571
 40
0.6234621968118571
 40
0.6234621968118571
 40
0.6234621968118571
 40
1.080141027583249
 40
1.080141027583249
 40
1.080141027583249
 40
1.44136046633486
 40
1.44136046633486
 40
1.44136046633486
 40
2.173565038672887
 40
2.173565038672887
 40
2.173565038672887
 40
2.546371505594528
 40
2.546371505594528
 40
2.546371505594528
 40
2.918732242637318
 40
2.918732242637318
 40
2.918732242637318
 40
3.306320360617576
 40
3.306320360617576
 40
3.306320360617576
 40
3.693889752497214
 40
3.693889752497214
 40
3.693889752497214
 40
4.305562199423595
 40
4.305562199423595
 40
4.305562199423595
 40
4.509492149905271
 40
4.509492149905271
 40
4.509492149905271
 40
4.956099304011183
 40
4.956099304011183
 40
4.956099304011183
 40
5.179432422485461
 40
5.179432422485461
 40
5.179432422485461
 40
5.402765540959749
 40
5.402765540959749
 40
5.402765540959749
 40
6.436184396599597
 40
6.436184396599597
 40
6.436184396599597
 40
6.717781749067309
 40
6.717781749067309
 40
6.717781749067309
 40
6.999379101535025
 40
6.999379101535025
 40
6.999379101535025
 40
7.877517861620606
 40
7.877517861620606
 40
7.877517861620606
 40
7.877517861620606
 40
7.877517861620606
 40
7.877517861620606
 10
69.42603621926261
 20
-0.6388458283589671
 30
0.0
 10
69.41522988405651
 20
-0.6970339992470258
 30
0.0
 10
69.40366579658996
 20
-0.7551571579597294
 30
0.0
 10
69.39136159847437
 20
-0.8131958633513818
 30
0.0
 10
69.36802818395943
 20
-0.9169503845578788
 30
0.0
 10
69.34238771783537
 20
-1.0202977531315
 30
0.0
 10
69.33062965527057
 20
-1.065897967902285
 30
0.0
 10
69.29350345100944
 20
-1.203501245822224
 30
0.0
 10
69.25134298111757
 20
-1.340296030494583
 30
0.0
 10
69.22055976433163
 20
-1.431626824381453
 30
0.0
 10
69.17072966233168
 20
-1.568736350346338
 30
0.0
 10
69.11597552581989
 20
-1.704691741796693
 30
0.0
 10
69.09695148750266
 20
-1.750423635748004
 30
0.0
 10
69.05785175475307
 20
-1.84146929245787
 30
0.0
 10
69.01649185878283
 20
-1.931684515793676
 30
0.0
 10
68.9951148056531
 20
-1.976817616162463
 30
0.0
 10
68.95038149155528
 20
-2.067648560573274
 30
0.0
 10
68.90271468303469
 20
-2.157229132828604
 30
0.0
 10
68.87761784575111
 20
-2.202635844851497
 30
0.0
 10
68.82611314770206
 20
-2.292913056170787
 30
0.0
 10
68.77223600574892
 20
-2.382215514850996
 30
0.0
 10
68.74476090505304
 20
-2.426668256763662
 30
0.0
 10
68.67271672304052
 20
-2.540436608398064
 30
0.0
 10
68.59642907173199
 20
-2.651717199443509
 30
0.0
 10
68.54754133494188
 20
-2.718846172100654
 30
0.0
 10
68.47964043328324
 20
-2.806376679299205
 30
0.0
 10
68.40890948279163
 20
-2.891790739506575
 30
0.0
 10
68.39105870560013
 20
-2.913021863695345
 30
0.0
 10
68.33374414294941
 20
-2.980421059340073
 30
0.0
 10
68.27519882887488
 20
-3.046897145495221
 30
0.0
 10
68.23440595144363
 20
-3.092206529565711
 30
0.0
 10
68.17203332628043
 20
-3.159239168984356
 30
0.0
 10
68.10755851314057
 20
-3.224402351225421
 30
0.0
 10
68.08581038318061
 20
-3.245893908783783
 30
0.0
 10
68.04180043233269
 20
-3.288343984085201
 30
0.0
 10
67.9967531044832
 20
-3.329702333068778
 30
0.0
 10
67.97396311478992
 20
-3.350091893625176
 30
0.0
 10
67.844488732786
 20
-3.463464288715328
 30
0.0
 10
67.70845744002966
 20
-3.569816733685058
 30
0.0
 10
67.5938013270391
 20
-3.65489390611134
 30
0.0
 10
67.44486150461018
 20
-3.757617986190096
 30
0.0
 10
67.29082128898621
 20
-3.85206169188535
 30
0.0
 10
67.25758097416214
 20
-3.871899510751859
 30
0.0
 10
67.19059790722507
 20
-3.910645369182871
 30
0.0
 10
67.12261582789913
 20
-3.947547754143272
 30
0.0
 10
67.08837292056236
 20
-3.965533382046714
 30
0.0
 10
66.94646324358213
 20
-4.037707490731293
 30
0.0
 10
66.80110810412029
 20
-4.102560559104688
 30
0.0
 10
66.68955292161129
 20
-4.148263792185048
 30
0.0
 10
66.57757033675449
 20
-4.19210056110404
 30
0.0
 10
66.46412099699407
 20
-4.231724548796758
 30
0.0
  0
LINE
  5
41D1
102
{ACAD_REACTORS
330
4BB7
102
}
330
A
100
AcDbEntity
  8
1
100
AcDbLine
 10
67.78751199999994
 20
1.330085999999994
 30
0.0
 11
67.90584599999994
 21
1.398406000000022
 31
0.0
  0
ARC
  5
41D2
102
{ACAD_REACTORS
330
4BB7
102
}
330
A
100
AcDbEntity
  8
1
100
AcDbCircle
 10
45.42077299999993
 20
-16.94195900000005
 30
0.0
 40
29.016357
100
AcDbArc
 50
36.31407899999828
 51
39.20304100000083
  0
LINE
  5
41D3
102
{ACAD_REACTORS
330
4BB7
102
}
330
A
100
AcDbEntity
  8
1
100
AcDbLine
 10
69.98602799999993
 20
-0.0401440000000548
 30
0.0
 11
69.90559999999994
 21
-0.2810700000000565
 31
0.0
  0
ARC
  5
41D4
102
{ACAD_REACTORS
330
4BB7
102
}
330
A
100
AcDbEntity
  8
1
100
AcDbCircle
 10
72.77487099999993
 20
-4.628459000000018
 30
0.0
 40
5.208848999999998
100
AcDbArc
 50
123.4247580000012
 51
130.0096999999993
  0
SPLINE
  5
41D5
102
{ACAD_REACTORS
330
4BB7
102
}
330
A
100
AcDbEntity
  8
1
100
AcDbSpline
210
0.0
220
0.0
230
1.0
 70
     8
 71
     5
 72
    18
 73
    12
 74
     0
 42
0.000000001
 43
0.0000000001
 40
0.0
 40
0.0
 40
0.0
 40
0.0
 40
0.0
 40
0.0
 40
0.4017870457878396
 40
0.4017870457878396
 40
0.4017870457878396
 40
0.7218290171831993
 40
0.7218290171831993
 40
0.7218290171831993
 40
1.029917493158154
 40
1.029917493158154
 40
1.029917493158154
 40
1.029917493158154
 40
1.029917493158154
 40
1.029917493158154
 10
67.90584557271177
 20
1.398405922752374
 30
0.0
 10
67.9115030513924
 20
1.431054889526135
 30
0.0
 10
67.90940668686861
 20
1.468252842927654
 30
0.0
 10
67.89891228190963
 20
1.508262738829444
 30
0.0
 10
67.86659850894159
 20
1.579836566760263
 30
0.0
 10
67.8157031127451
 20
1.644299695966253
 30
0.0
 10
67.79033955389987
 20
1.670542059409284
 30
0.0
 10
67.73648939841995
 20
1.716416249295718
 30
0.0
 10
67.67807604368307
 20
1.749294674376301
 30
0.0
 10
67.64863002024306
 20
1.762073871854509
 30
0.0
 10
67.61991272563995
 20
1.770913665010595
 30
0.0
 10
67.59215780369617
 20
1.775867806622386
 30
0.0
  0
ARC
  5
41D6
102
{ACAD_REACTORS
330
4BB7
102
}
330
A
100
AcDbEntity
  8
1
100
AcDbCircle
 10
47.00087899999992
 20
-15.64322499999997
 30
0.0
 40
26.970821
100
AcDbArc
 50
40.22939000000103
 51
42.55885600000079
  0
SPLINE
  5
41D7
102
{ACAD_REACTORS
330
4BB7
102
}
330
A
100
AcDbEntity
  8
1
100
AcDbSpline
210
0.0
220
0.0
230
1.0
 70
     8
 71
     5
 72
    18
 73
    12
 74
     0
 42
0.000000001
 43
0.0000000001
 40
0.0
 40
0.0
 40
0.0
 40
0.0
 40
0.0
 40
0.0
 40
0.6471293052469271
 40
0.6471293052469271
 40
0.6471293052469271
 40
0.9807253322570208
 40
0.9807253322570208
 40
0.9807253322570208
 40
1.082213529125108
 40
1.082213529125108
 40
1.082213529125108
 40
1.082213529125108
 40
1.082213529125108
 40
1.082213529125108
 10
66.8671214875046
 20
2.598409585031105
 30
0.0
 10
66.85801408825111
 20
2.657482930970786
 30
0.0
 10
66.83694410828984
 20
2.719803360464084
 30
0.0
 10
66.80499008872775
 20
2.783284270143439
 30
0.0
 10
66.73930146096971
 20
2.875640188948747
 30
0.0
 10
66.65126517780418
 20
2.943290951123741
 30
0.0
 10
66.61861963917306
 20
2.962373232404388
 30
0.0
 10
66.57605336616832
 20
2.978007546747959
 30
0.0
 10
66.53653299819605
 20
2.98094132380794
 30
0.0
 10
66.52752179454892
 20
2.980917483811423
 30
0.0
 10
66.51896233083056
 20
2.980198925091656
 30
0.0
 10
66.51076863516246
 20
2.978824061027296
 30
0.0
  0
ARC
  5
41D8
102
{ACAD_REACTORS
330
4BB7
102
}
330
A
100
AcDbEntity
  8
1
100
AcDbCircle
 10
47.57871999999993
 20
-15.10900199999997
 30
0.0
 40
26.18381
100
AcDbArc
 50
43.69362000000077
 51
45.63943799999992
  0
LINE
  5
41D9
102
{ACAD_REACTORS
330
4BB7
102
}
330
A
100
AcDbEntity
  8
1
100
AcDbLine
 10
65.88568899999993
 20
3.611218999999948
 30
0.0
 11
66.11184999999995
 21
3.656612999999936
 31
0.0
  0
ARC
  5
41DA
102
{ACAD_REACTORS
330
4BB7
102
}
330
A
100
AcDbEntity
  8
1
100
AcDbCircle
 10
66.10938599999993
 20
3.680853000000013
 30
0.0
 40
0.024177
100
AcDbArc
 50
275.8054849999997
 51
358.3920059999987
  0
LINE
  5
41DB
102
{ACAD_REACTORS
330
4BB7
102
}
330
A
100
AcDbEntity
  8
1
100
AcDbLine
 10
61.07427699999995
 20
-4.138976000000068
 30
0.0
 11
61.09669799999995
 21
-4.266129999999971
 31
0.0
  0
ARC
  5
41DC
102
{ACAD_REACTORS
330
4BB7
102
}
330
A
100
AcDbEntity
  8
1
100
AcDbCircle
 10
64.34531199999995
 20
-16.529876
 30
0.0
 40
12.686719
100
AcDbArc
 50
103.0258290000003
 51
104.8366459999996
  0
LINE
  5
41DD
102
{ACAD_REACTORS
330
4BB7
102
}
330
A
100
AcDbEntity
  8
1
100
AcDbLine
 10
61.09669799999995
 20
-4.266129999999971
 30
0.0
 11
61.15820999999993
 21
-4.614980000000058
 31
0.0
  0
LINE
  5
41DE
102
{ACAD_REACTORS
330
4BB7
102
}
330
A
100
AcDbEntity
  8
1
100
AcDbLine
 10
61.19979399999993
 20
-4.651819999999986
 30
0.0
 11
61.15820999999993
 21
-4.614980000000058
 31
0.0
  0
LINE
  5
41DF
102
{ACAD_REACTORS
330
4BB7
102
}
330
A
100
AcDbEntity
  8
1
100
AcDbLine
 10
61.19979399999993
 20
-4.651819999999986
 30
0.0
 11
64.57183399999994
 21
-4.893957999999996
 31
0.0
  0
ARC
  5
41E0
102
{ACAD_REACTORS
330
4BB7
102
}
330
A
100
AcDbEntity
  8
1
100
AcDbCircle
 10
64.92301999999994
 20
-0.1417799999999829
 30
0.0
 40
4.765137999999998
100
AcDbArc
 50
265.7735249999995
 51
269.5141750000003
  0
ARC
  5
41E1
102
{ACAD_REACTORS
330
4BB7
102
}
330
A
100
AcDbEntity
  8
1
100
AcDbCircle
 10
64.92198399999994
 20
0.0200280000000248
 30
0.0
 40
4.926991
100
AcDbArc
 50
269.5421800000004
 51
289.8661930000009
  0
SPLINE
  5
41E2
102
{ACAD_REACTORS
330
4BB7
102
}
330
A
100
AcDbEntity
  8
1
100
AcDbSpline
210
0.0
220
0.0
230
1.0
 70
     8
 71
     5
 72
    21
 73
    15
 74
     0
 42
0.000000001
 43
0.0000000001
 40
0.0
 40
0.0
 40
0.0
 40
0.0
 40
0.0
 40
0.0
 40
1.030714113201548
 40
1.030714113201548
 40
1.030714113201548
 40
2.071658692978457
 40
2.071658692978457
 40
2.071658692978457
 40
3.119628486958225
 40
3.119628486958225
 40
3.119628486958225
 40
3.472958518507294
 40
3.472958518507294
 40
3.472958518507294
 40
3.472958518507294
 40
3.472958518507294
 40
3.472958518507294
 10
69.90559961508418
 20
-0.2810702470177375
 30
0.0
 10
69.90208683308317
 20
-0.4229653015578947
 30
0.0
 10
69.8923878008498
 20
-0.5650491666838775
 30
0.0
 10
69.87650604715579
 20
-0.7074424390648347
 30
0.0
 10
69.83257971814325
 20
-0.9915658145142174
 30
0.0
 10
69.76511513485822
 20
-1.271420496421284
 30
0.0
 10
69.72611144201725
 20
-1.408305391582473
 30
0.0
 10
69.63435719237732
 20
-1.685561862528061
 30
0.0
 10
69.51974747357822
 20
-1.956371103289879
 30
0.0
 10
69.45663847678281
 20
-2.090666289963678
 30
0.0
 10
69.36557543232176
 20
-2.265562618764191
 30
0.0
 10
69.2650091078265
 20
-2.43600276527104
 30
0.0
 10
69.23904872929906
 20
-2.478714281478289
 30
0.0
 10
69.21252590214696
 20
-2.521126372855003
 30
0.0
 10
69.18545459922663
 20
-2.563231540434798
 30
0.0
  0
SPLINE
  5
41E3
102
{ACAD_REACTORS
330
4BB7
102
}
330
A
100
AcDbEntity
  8
1
100
AcDbSpline
210
0.0
220
0.0
230
1.0
 70
     8
 71
     5
 72
    27
 73
    21
 74
     0
 42
0.000000001
 43
0.0000000001
 40
0.0
 40
0.0
 40
0.0
 40
0.0
 40
0.0
 40
0.0
 40
0.9356068708523761
 40
0.9356068708523761
 40
0.9356068708523761
 40
1.404943913783375
 40
1.404943913783375
 40
1.404943913783375
 40
1.874988526636719
 40
1.874988526636719
 40
1.874988526636719
 40
2.815627568584285
 40
2.815627568584285
 40
2.815627568584285
 40
3.759422656461231
 40
3.759422656461231
 40
3.759422656461231
 40
4.700706205411366
 40
4.700706205411366
 40
4.700706205411366
 40
4.700706205411366
 40
4.700706205411366
 40
4.700706205411366
 10
69.18545459922663
 20
-2.563231540434798
 30
0.0
 10
69.11377063592424
 20
-2.674724707072583
 30
0.0
 10
69.03824102810151
 20
-2.784065685770883
 30
0.0
 10
68.96035587501332
 20
-2.889441580212006
 30
0.0
 10
68.83560534997148
 20
-3.046031905442703
 30
0.0
 10
68.70302158785979
 20
-3.196312440572738
 30
0.0
 10
68.65794637291286
 20
-3.245782668778588
 30
0.0
 10
68.56622743852103
 20
-3.343479954617691
 30
0.0
 10
68.47129834021949
 20
-3.438433761460259
 30
0.0
 10
68.42295931252316
 20
-3.485245157378926
 30
0.0
 10
68.27551567324133
 20
-3.623169765735381
 30
0.0
 10
68.12100303893696
 20
-3.753250077018265
 30
0.0
 10
68.01343277621389
 20
-3.837850013970122
 30
0.0
 10
67.79574211042643
 20
-3.998867525766056
 30
0.0
 10
67.56864087410697
 20
-4.145959411100931
 30
0.0
 10
67.45197527951194
 20
-4.216352160789483
 30
0.0
 10
67.21576688190594
 20
-4.347954529661251
 30
0.0
 10
66.97167539165009
 20
-4.463589175183471
 30
0.0
 10
66.84788433201269
 20
-4.517494252726915
 30
0.0
 10
66.7228621750986
 20
-4.567692156387238
 30
0.0
 10
66.59628018762425
 20
-4.61370537844624
 30
0.0
  0
LINE
  5
41E4
102
{ACAD_REACTORS
330
4BB7
102
}
330
A
100
AcDbEntity
  8
1
100
AcDbLine
 10
67.48676799999993
 20
1.715020999999921
 30
0.0
 11
67.59215799999992
 21
1.775868
 31
0.0
  0
ARC
  5
41E6
102
{ACAD_REACTORS
330
4BB7
102
}
330
A
100
AcDbEntity
  8
1
100
AcDbCircle
 10
69.52919799999993
 20
0.0676529999999502
 30
0.0
 40
0.4699060000000002
100
AcDbArc
 50
346.7229169999986
 51
1.999830999999893
  0
SPLINE
  5
41E7
102
{ACAD_REACTORS
330
4BB7
102
}
330
A
100
AcDbEntity
  8
1
100
AcDbSpline
210
0.0
220
0.0
230
1.0
 70
     8
 71
     5
 72
    18
 73
    12
 74
     0
 42
0.000000001
 43
0.0000000001
 40
0.0
 40
0.0
 40
0.0
 40
0.0
 40
0.0
 40
0.0
 40
0.0380001929224019
 40
0.0380001929224019
 40
0.0380001929224019
 40
0.1130649805160228
 40
0.1130649805160228
 40
0.1130649805160228
 40
0.1834329971661812
 40
0.1834329971661812
 40
0.1834329971661812
 40
0.1834329971661812
 40
0.1834329971661812
 40
0.1834329971661812
 10
66.10847598860885
 20
3.771304362598186
 30
0.0
 10
66.11153753971155
 20
3.768166013476673
 30
0.0
 10
66.11457868162784
 20
3.765007553893156
 30
0.0
 10
66.11720903024441
 20
3.761417668434431
 30
0.0
 10
66.12461715248544
 20
3.750709110874931
 30
0.0
 10
66.12981192947187
 20
3.738851508793743
 30
0.0
 10
66.13203919785606
 20
3.730275123026501
 30
0.0
 10
66.13443765573144
 20
3.714444967817937
 30
0.0
 10
66.13452829403493
 20
3.699421744266146
 30
0.0
 10
66.13426031002745
 20
3.692450082695643
 30
0.0
 10
66.13387645070694
 20
3.686013157912781
 30
0.0
 10
66.13352497584585
 20
3.680175276800297
 30
0.0
  0
LINE
  5
41E8
102
{ACAD_REACTORS
330
4BB7
102
}
330
A
100
AcDbEntity
  8
1
100
AcDbLine
 10
65.95693599999993
 20
3.923663999999916
 30
0.0
 11
66.10847599999994
 21
3.771303999999928
 31
0.0
  0
LINE
  5
41E9
102
{ACAD_REACTORS
330
4BB7
102
}
330
A
100
AcDbEntity
  8
1
100
AcDbLine
 10
69.99923399999993
 20
0.0840649999999528
 30
0.0
 11
69.99995099999994
 21
0.0207679999999186
 31
0.0
  0
LINE
  5
41EA
102
{ACAD_REACTORS
330
4BB7
102
}
330
A
100
AcDbEntity
  8
1
100
AcDbLine
 10
69.99995399999993
 20
0.0199939999999401
 30
0.0
 11
69.99999999999992
 21
0.0
 31
0.0
  0
LINE
  5
41EB
102
{ACAD_REACTORS
330
4BB7
102
}
330
A
100
AcDbEntity
  8
1
100
AcDbLine
 10
69.99999999999992
 20
0.0
 30
0.0
 11
69.99995299999993
 21
-0.0199969999999894
 31
0.0
  0
SPLINE
  5
41EC
102
{ACAD_REACTORS
330
4BB7
102
}
330
A
100
AcDbEntity
  8
1
100
AcDbSpline
210
0.0
220
0.0
230
1.0
 70
     8
 71
     5
 72
    18
 73
    12
 74
     0
 42
0.000000001
 43
0.0000000001
 40
0.0
 40
0.0
 40
0.0
 40
0.0
 40
0.0
 40
0.0
 40
1.420256382013231
 40
1.420256382013231
 40
1.420256382013231
 40
2.834627920932568
 40
2.834627920932568
 40
2.834627920932568
 40
4.704719487289315
 40
4.704719487289315
 40
4.704719487289315
 40
4.704719487289315
 40
4.704719487289315
 40
4.704719487289315
 10
69.1858109651625
 20
-2.562632963467706
 30
0.0
 10
69.27657172076255
 20
-2.428731968160775
 30
0.0
 10
69.36177321880943
 20
-2.291598885335247
 30
0.0
 10
69.4414215521258
 20
-2.151098559217073
 30
0.0
 10
69.58786940876371
 20
-1.865701004533093
 30
0.0
 10
69.70941896806263
 20
-1.570531176689085
 30
0.0
 10
69.76367625527771
 20
-1.421091190499566
 30
0.0
 10
69.87363610871341
 20
-1.0718229628485
 30
0.0
 10
69.94735036785527
 20
-0.7137103481913414
 30
0.0
 10
69.97705766809435
 20
-0.5077866121107491
 30
0.0
 10
69.99425704515198
 20
-0.3017295931295507
 30
0.0
 10
69.99891749937575
 20
-0.0957044240161622
 30
0.0
  0
LINE
  5
41ED
102
{ACAD_REACTORS
330
4BB7
102
}
330
A
100
AcDbEntity
  8
1
100
AcDbLine
 10
66.84075899999995
 20
2.541875
 30
0.0
 11
66.86712199999994
 21
2.598409999999943
 31
0.0
  0
LINE
  5
41EE
102
{ACAD_REACTORS
330
4BB7
102
}
330
A
100
AcDbEntity
  8
1
100
AcDbLine
 10
66.48316099999994
 20
2.919620000000008
 30
0.0
 11
66.51076899999994
 21
2.978823999999917
 31
0.0
  0
LINE
  5
41EF
102
{ACAD_REACTORS
330
4BB7
102
}
330
A
100
AcDbEntity
  8
1
100
AcDbLine
 10
61.41692099999993
 20
3.611218999999948
 30
0.0
 11
61.38731299999993
 21
3.575934000000017
 31
0.0
  0
LINE
  5
41F0
102
{ACAD_REACTORS
330
4BB7
102
}
330
A
100
AcDbEntity
  8
1
100
AcDbLine
 10
65.88568899999993
 20
3.611218999999948
 30
0.0
 11
61.41692099999993
 21
3.611218999999948
 31
0.0
  0
LINE
  5
41F1
102
{ACAD_REACTORS
330
4BB8
102
}
330
A
100
AcDbEntity
  8
1
100
AcDbLine
 10
60.99930399999993
 20
3.735811000000011
 30
0.0
 11
61.03832799999993
 21
3.782319000000028
 31
0.0
  0
LINE
  5
41F2
102
{ACAD_REACTORS
330
4BB7
102
}
330
A
100
AcDbEntity
  8
1
100
AcDbLine
 10
61.41692099999993
 20
3.611218999999948
 30
0.0
 11
61.20957999999993
 21
3.630185999999976
 31
0.0
  0
LINE
  5
41F3
102
{ACAD_REACTORS
330
4BB8
102
}
330
A
100
AcDbEntity
  8
1
100
AcDbLine
 10
61.03832799999993
 20
3.782319000000028
 30
0.0
 11
61.13253699999994
 21
3.894591999999761
 31
0.0
  0
ARC
  5
41F4
102
{ACAD_REACTORS
330
4BB7
102
}
330
A
100
AcDbEntity
  8
1
100
AcDbCircle
 10
61.84186699999994
 20
-3.885176999999998
 30
0.0
 40
1.0
100
AcDbArc
 50
230.053408000001
 51
236.7445410000004
  0
LINE
  5
41F5
102
{ACAD_REACTORS
330
4BB7
102
}
330
A
100
AcDbEntity
  8
1
100
AcDbLine
 10
65.02008699999993
 20
4.903704999999945
 30
0.0
 11
64.96380099999995
 21
4.905387999999788
 31
0.0
  0
LINE
  5
41F6
102
{ACAD_REACTORS
330
4BB7
102
}
330
A
100
AcDbEntity
  8
1
100
AcDbLine
 10
64.96380099999995
 20
4.905387999999788
 30
0.0
 11
65.95693599999993
 21
3.923663999999916
 31
0.0
  0
SPLINE
  5
41F7
102
{ACAD_REACTORS
330
4BB7
102
}
330
A
100
AcDbEntity
  8
1
100
AcDbSpline
210
0.0
220
0.0
230
1.0
 70
     8
 71
     5
 72
    18
 73
    12
 74
     0
 42
0.000000001
 43
0.0000000001
 40
0.0
 40
0.0
 40
0.0
 40
0.0
 40
0.0
 40
0.0
 40
0.9496836273057947
 40
0.9496836273057947
 40
0.9496836273057947
 40
2.83656436056699
 40
2.83656436056699
 40
2.83656436056699
 40
4.705735614871887
 40
4.705735614871887
 40
4.705735614871887
 40
4.705735614871887
 40
4.705735614871887
 40
4.705735614871887
 10
69.18585223272414
 20
2.562571788366938
 30
0.0
 10
69.2465484491217
 20
2.473024168205141
 30
0.0
 10
69.30472509613776
 20
2.382076465820375
 30
0.0
 10
69.35991732761334
 20
2.290514353451782
 30
0.0
 10
69.51835456983406
 20
2.010783794967835
 30
0.0
 10
69.65276225495739
 20
1.719913727443324
 30
0.0
 10
69.73131203856624
 20
1.521360297586454
 30
0.0
 10
69.86303750752563
 20
1.123270564649885
 30
0.0
 10
69.94731222279527
 20
0.7139040213544377
 30
0.0
 10
69.97707459369586
 20
0.5075838011753149
 30
0.0
 10
69.9942593386953
 20
0.3016282037314681
 30
0.0
 10
69.99891749937977
 20
0.0957044240084315
 30
0.0
  0
ARC
  5
41F8
102
{ACAD_REACTORS
330
4BB7
102
}
330
A
100
AcDbEntity
  8
1
100
AcDbCircle
 10
64.68475699999995
 20
-0.5275369999999953
 30
0.0
 40
5.460626
100
AcDbArc
 50
34.47052699999935
 51
69.59900199999954
  0
ARC
  5
41F9
102
{ACAD_REACTORS
330
4BB7
102
}
330
A
100
AcDbEntity
  8
1
100
AcDbCircle
 10
64.84082899999993
 20
-0.0276760000000422
 30
0.0
 40
4.934587
100
AcDbArc
 50
89.52066400000013
 51
93.13055199999979
  0
LINE
  5
41FA
102
{ACAD_REACTORS
330
4BB7
102
}
330
A
100
AcDbEntity
  8
1
100
AcDbLine
 10
64.88211099999993
 20
4.906740000000011
 30
0.0
 11
64.96380799999993
 21
4.905387999999788
 31
0.0
  0
LINE
  5
41FB
102
{ACAD_REACTORS
330
4BB7
102
}
330
A
100
AcDbEntity
  8
1
100
AcDbLine
 10
61.85325399999993
 20
4.753510000000003
 30
0.0
 11
64.57134499999994
 21
4.899546999999921
 31
0.0
  0
LINE
  5
41FC
102
{ACAD_REACTORS
330
4BB7
102
}
330
A
100
AcDbEntity
  8
1
100
AcDbLine
 10
61.85325399999993
 20
4.753510000000003
 30
0.0
 11
61.13253699999994
 21
3.894591999999761
 31
0.0
  0
LINE
  5
41FD
102
{ACAD_REACTORS
330
4BB7
102
}
330
A
100
AcDbEntity
  8
1
100
AcDbLine
 10
69.99995499999993
 20
-0.0199069999999893
 30
0.0
 11
69.99923399999993
 21
-0.0840529999999831
 31
0.0
  0
SPLINE
  5
41FE
102
{ACAD_REACTORS
330
4BB7
102
}
330
A
100
AcDbEntity
  8
1
100
AcDbSpline
210
0.0
220
0.0
230
1.0
 70
     8
 71
     5
 72
    27
 73
    21
 74
     0
 42
0.000000001
 43
0.0000000001
 40
0.0
 40
0.0
 40
0.0
 40
0.0
 40
0.0
 40
0.0
 40
0.9356068735892948
 40
0.9356068735892948
 40
0.9356068735892948
 40
1.404943918094391
 40
1.404943918094391
 40
1.404943918094391
 40
1.874988532502193
 40
1.874988532502193
 40
1.874988532502193
 40
2.815627577398167
 40
2.815627577398167
 40
2.815627577398167
 40
3.759422668443324
 40
3.759422668443324
 40
3.759422668443324
 40
4.700706220642886
 40
4.700706220642886
 40
4.700706220642886
 40
4.700706220642886
 40
4.700706220642886
 40
4.700706220642886
 10
69.18545460529381
 20
2.563231530997938
 30
0.0
 10
69.11377064204213
 20
2.674724698107751
 30
0.0
 10
69.03824103422742
 20
2.784065677283706
 30
0.0
 10
68.96035588101279
 20
2.889441572367502
 30
0.0
 10
68.83560535592287
 20
3.046031898307943
 30
0.0
 10
68.70302159366371
 20
3.196312434128401
 30
0.0
 10
68.65794637863922
 20
3.245782662571969
 30
0.0
 10
68.56622744409886
 20
3.343479948866728
 30
0.0
 10
68.47129834563093
 20
3.438433756156995
 30
0.0
 10
68.422959317847
 20
3.485245152300251
 30
0.0
 10
68.27551567830109
 20
3.623169761313647
 30
0.0
 10
68.12100304367215
 20
3.753250073224251
 30
0.0
 10
68.01343278058215
 20
3.837850010633928
 30
0.0
 10
67.79574211424149
 20
3.99886752315399
 30
0.0
 10
67.56864087728901
 20
4.145959409145913
 30
0.0
 10
67.45197528232077
 20
4.216352159169787
 30
0.0
 10
67.21576688398362
 20
4.347954528627781
 30
0.0
 10
66.97167539293227
 20
4.463589174625042
 30
0.0
 10
66.84788433287589
 20
4.517494252380288
 30
0.0
 10
66.72286217553557
 20
4.567692156228416
 30
0.0
 10
66.59628018762425
 20
4.613705378445843
 30
0.0
  0
LINE
  5
41FF
102
{ACAD_REACTORS
330
4BB7
102
}
330
A
100
AcDbEntity
  8
1
100
AcDbLine
 10
69.99923399999993
 20
-0.0840529999999831
 30
0.0
 11
69.99891799999993
 21
-0.0957020000000739
 31
0.0
  0
LINE
  5
4200
102
{ACAD_REACTORS
330
4BB7
102
}
330
A
100
AcDbEntity
  8
1
100
AcDbLine
 10
61.29713299999995
 20
-4.723786000000075
 30
0.0
 11
64.57134499999994
 21
-4.899546999999983
 31
0.0
  0
ARC
  5
4201
102
{ACAD_REACTORS
330
4BB7
102
}
330
A
100
AcDbEntity
  8
1
100
AcDbCircle
 10
64.84082899999993
 20
0.027684000000022
 30
0.0
 40
4.934594999999998
100
AcDbArc
 50
266.8694500000003
 51
270.4805640000003
  0
ARC
  5
4202
102
{ACAD_REACTORS
330
4BB7
102
}
330
A
100
AcDbEntity
  8
1
100
AcDbCircle
 10
64.83591599999993
 20
-0.1064549999999826
 30
0.0
 40
5.013612
100
AcDbArc
 50
69.54064700000002
 51
87.89478499999992
  0
ARC
  5
4203
102
{ACAD_REACTORS
330
4BB7
102
}
330
A
100
AcDbEntity
  8
1
100
AcDbCircle
 10
64.92198399999994
 20
-0.0200280000000817
 30
0.0
 40
4.926991
100
AcDbArc
 50
70.13380699999905
 51
90.4578199999996
  0
LINE
  5
4204
102
{ACAD_REACTORS
330
468F
102
}
330
A
100
AcDbEntity
  8
SK1
100
AcDbLine
 10
-60.00000000000007
 20
-6.186957000000002
 30
0.0
 11
-60.00000000000007
 21
-7.050000000000013
 31
0.0
  0
LINE
  5
4205
102
{ACAD_REACTORS
330
468F
102
}
330
A
100
AcDbEntity
  8
SK1
100
AcDbLine
 10
-60.00000000000007
 20
7.050000000000013
 30
0.0
 11
-60.00000000000007
 21
-6.186957000000002
 31
0.0
  0
LINE
  5
4206
102
{ACAD_REACTORS
330
468F
102
}
330
A
100
AcDbEntity
  8
SK1
100
AcDbLine
 10
-59.05000000000004
 20
-7.020660000000077
 30
0.0
 11
-59.05000000000004
 21
8.0
 31
0.0
  0
LINE
  5
4207
102
{ACAD_REACTORS
330
468F
102
}
330
A
100
AcDbEntity
  8
SK1
100
AcDbLine
 10
-59.05000000000004
 20
-8.000000000000056
 30
0.0
 11
-59.05000000000004
 21
-7.020660000000077
 31
0.0
  0
LINE
  5
4208
102
{ACAD_REACTORS
330
4BB8
102
}
330
A
100
AcDbEntity
  8
1
100
AcDbLine
 10
9.999999999999943
 20
-7.020660000000077
 30
0.0
 11
9.999999999999943
 21
-8.000000000000056
 31
0.0
  0
LINE
  5
4209
102
{ACAD_REACTORS
330
4BB8
102
}
330
A
100
AcDbEntity
  8
1
100
AcDbLine
 10
9.999999999999943
 20
8.0
 30
0.0
 11
9.999999999999943
 21
-7.020660000000077
 31
0.0
  0
ARC
  5
420A
102
{ACAD_REACTORS
330
4BB8
102
}
330
A
100
AcDbEntity
  8
1
100
AcDbCircle
 10
61.45852899999994
 20
-6.101715000000067
 30
0.0
 40
2.0
100
AcDbArc
 50
85.00000000000033
 51
137.4791760000006
  0
ARC
  5
420B
102
{ACAD_REACTORS
330
4BB7
102
}
330
A
100
AcDbEntity
  8
1
100
AcDbCircle
 10
63.72610699999993
 20
-0.8647619999999847
 30
0.0
 40
3.693073999999998
100
AcDbArc
 50
66.24134399999903
 51
69.69964099999903
  0
LINE
  5
420C
102
{ACAD_REACTORS
330
4BB8
102
}
330
A
100
AcDbEntity
  8
1
100
AcDbLine
 10
65.00738899999993
 20
3.439691999999693
 30
0.0
 11
65.00738899999993
 21
2.598926000000004
 31
0.0
  0
ARC
  5
420D
102
{ACAD_REACTORS
330
4BB8
102
}
330
A
100
AcDbEntity
  8
1
100
AcDbCircle
 10
64.78060099999995
 20
0.9499999999999886
 30
0.0
 40
2.5
100
AcDbArc
 50
38.00000000000132
 51
90.0
  0
SPLINE
  5
420E
102
{ACAD_REACTORS
330
4BB7
102
}
330
A
100
AcDbEntity
  8
1
100
AcDbSpline
210
0.0
220
0.0
230
1.0
 70
     8
 71
     5
 72
    24
 73
    18
 74
     0
 42
0.000000001
 43
0.0000000001
 40
0.0
 40
0.0
 40
0.0
 40
0.0
 40
0.0
 40
0.0
 40
2.157814534246544
 40
2.157814534246544
 40
2.157814534246544
 40
4.300770210254638
 40
4.300770210254638
 40
4.300770210254638
 40
7.499379053809392
 40
7.499379053809392
 40
7.499379053809392
 40
9.640786604186919
 40
9.640786604186919
 40
9.640786604186919
 40
10.64527636881618
 40
10.64527636881618
 40
10.64527636881618
 40
10.64527636881618
 40
10.64527636881618
 40
10.64527636881618
 10
65.21398977805133
 20
2.515322188735749
 30
0.0
 10
65.44006623014967
 20
2.415717124227739
 30
0.0
 10
65.64725522401109
 20
2.275605974952043
 30
0.0
 10
65.82811941978495
 20
2.103507922919618
 30
0.0
 10
66.13499321188244
 20
1.719684498910226
 30
0.0
 10
66.3423255029728
 20
1.276372111177749
 30
0.0
 10
66.42242966800345
 20
1.046494385753476
 30
0.0
 10
66.56879331890033
 20
0.4603868881198994
 30
0.0
 10
66.58802941360784
 20
-0.1451225114038834
 30
0.0
 10
66.55694239564986
 20
-0.5072247517712185
 30
0.0
 10
66.43033911750837
 20
-1.102173681338797
 30
0.0
 10
66.16403830206739
 20
-1.646837159605864
 30
0.0
 10
66.0329747826494
 20
-1.854002559613775
 30
0.0
 10
65.80196565551483
 20
-2.131315605877373
 30
0.0
 10
65.51725506761802
 20
-2.350330403159091
 30
0.0
 10
65.42037968378356
 20
-2.413809624999771
 30
0.0
 10
65.3192312056867
 20
-2.468954780316209
 30
0.0
 10
65.21398977805133
 20
-2.515322188735865
 30
0.0
  0
LINE
  5
420F
102
{ACAD_REACTORS
330
4BB8
102
}
330
A
100
AcDbEntity
  8
1
100
AcDbLine
 10
66.75062699999994
 20
2.489153999999928
 30
0.0
 11
69.08017699999994
 21
-0.4925329999999807
 31
0.0
  0
SPLINE
  5
4210
102
{ACAD_REACTORS
330
4BB8
102
}
330
A
100
AcDbEntity
  8
1
100
AcDbSpline
210
0.0
220
0.0
230
1.0
 70
     8
 71
     5
 72
    12
 73
     6
 74
     0
 42
0.000000001
 43
0.0000000001
 40
0.0
 40
0.0
 40
0.0
 40
0.0
 40
0.0
 40
0.0
 40
1.300456966331926
 40
1.300456966331926
 40
1.300456966331926
 40
1.300456966331926
 40
1.300456966331926
 40
1.300456966331926
 10
69.30778235935072
 20
-0.6157704123555165
 30
0.0
 10
69.26054967276008
 20
-0.6353431549402444
 30
0.0
 10
69.21397617403574
 20
-0.6242385187920833
 30
0.0
 10
69.1690077461828
 20
-0.5942077812102298
 30
0.0
 10
69.12450150803
 20
-0.5492666160781142
 30
0.0
 10
69.08017651860004
 20
-0.4925332167598527
 30
0.0
  0
ARC
  5
4211
102
{ACAD_REACTORS
330
4BB8
102
}
330
A
100
AcDbEntity
  8
1
100
AcDbCircle
 10
64.80011499999995
 20
-0.0000410000002944
 30
0.0
 40
4.549525
100
AcDbArc
 50
329.2291240000003
 51
352.2217590000014
  0
ARC
  5
4212
102
{ACAD_REACTORS
330
4BB8
102
}
330
A
100
AcDbEntity
  8
1
100
AcDbCircle
 10
64.83181799999993
 20
0.3287529999999492
 30
0.0
 40
4.7
100
AcDbArc
 50
272.1408180000002
 51
325.5854079999993
  0
SPLINE
  5
4213
102
{ACAD_REACTORS
330
4BB7
102
}
330
A
100
AcDbEntity
  8
1
100
AcDbSpline
210
0.0
220
0.0
230
1.0
 70
     8
 71
     5
 72
    30
 73
    24
 74
     0
 42
0.000000001
 43
0.0000000001
 40
0.0
 40
0.0
 40
0.0
 40
0.0
 40
0.0
 40
0.0
 40
2.792049239574224
 40
2.792049239574224
 40
2.792049239574224
 40
5.981445216481752
 40
5.981445216481752
 40
5.981445216481752
 40
8.287120584062106
 40
8.287120584062106
 40
8.287120584062106
 40
11.57474204429284
 40
11.57474204429284
 40
11.57474204429284
 40
13.87062995214435
 40
13.87062995214435
 40
13.87062995214435
 40
16.78212449321738
 40
16.78212449321738
 40
16.78212449321738
 40
18.83237024653318
 40
18.83237024653318
 40
18.83237024653318
 40
18.83237024653318
 40
18.83237024653318
 40
18.83237024653318
 10
65.00738947881538
 20
-2.598926305857787
 30
0.0
 10
64.69378450372531
 20
-2.664900527280281
 30
0.0
 10
64.37134022608167
 20
-2.697508154432681
 30
0.0
 10
64.04584644155431
 20
-2.698926610634654
 30
0.0
 10
63.35433489787003
 20
-2.635331589098029
 30
0.0
 10
62.70132959469382
 20
-2.419222890914681
 30
0.0
 10
62.37216589199832
 20
-2.257345648525017
 30
0.0
 10
61.86667256854192
 20
-1.888161580416465
 30
0.0
 10
61.50085026208431
 20
-1.383591122458879
 30
0.0
 10
61.3765986779606
 20
-1.150945163518199
 30
0.0
 10
61.15002059282676
 20
-0.5487873742627585
 30
0.0
 10
61.10834973808491
 20
0.1068755752838797
 30
0.0
 10
61.14863872384312
 20
0.4951658312821793
 30
0.0
 10
61.32886252841622
 20
1.12012556836737
 30
0.0
 10
61.68451722904425
 20
1.64561176940026
 30
0.0
 10
61.85824844848379
 20
1.839001615323809
 30
0.0
 10
62.30533246093538
 20
2.22094293675093
 30
0.0
 10
62.84518853099053
 20
2.472655543424024
 30
0.0
 10
63.16655839496053
 20
2.573026715730803
 30
0.0
 10
63.72977453234749
 20
2.682592816926443
 30
0.0
 10
64.30462343688944
 20
2.691134363431388
 30
0.0
 10
64.54205300643454
 20
2.677826203687516
 30
0.0
 10
64.77710440386619
 20
2.647372216260066
 30
0.0
 10
65.00738947881538
 20
2.598926305857728
 30
0.0
  0
ARC
  5
4214
102
{ACAD_REACTORS
330
4BB7
102
}
330
A
100
AcDbEntity
  8
1
100
AcDbCircle
 10
63.72610699999993
 20
0.8647619999999276
 30
0.0
 40
3.693073999999998
100
AcDbArc
 50
290.300359000001
 51
293.758656000001
  0
ARC
  5
4215
102
{ACAD_REACTORS
330
4BB7
102
}
330
A
100
AcDbEntity
  8
1
100
AcDbCircle
 10
63.85767299999995
 20
-0.092427999999984
 30
0.0
 40
2.619706
100
AcDbArc
 50
33.00000199999999
 51
122.9999979999985
  0
ARC
  5
4216
102
{ACAD_REACTORS
330
4BB7
102
}
330
A
100
AcDbEntity
  8
1
100
AcDbCircle
 10
63.99999999999995
 20
0.0
 30
0.0
 40
2.45
100
AcDbArc
 50
302.9999999999997
 51
33.00000000000153
  0
ARC
  5
4217
102
{ACAD_REACTORS
330
4BB7
102
}
330
A
100
AcDbEntity
  8
1
100
AcDbCircle
 10
63.90757199999995
 20
0.142327000000023
 30
0.0
 40
2.619706
100
AcDbArc
 50
213.0000000000015
 51
302.9999999999997
  0
ARC
  5
4218
102
{ACAD_REACTORS
330
4BB7
102
}
330
A
100
AcDbEntity
  8
1
100
AcDbCircle
 10
63.76524499999994
 20
0.0498989999999253
 30
0.0
 40
2.45
100
AcDbArc
 50
122.9999999999996
 51
213.0000000000015
  0
LINE
  5
4219
102
{ACAD_REACTORS
330
4BB8
102
}
330
A
100
AcDbEntity
  8
1
100
AcDbLine
 10
65.00738899999993
 20
-2.598926000000233
 30
0.0
 11
65.00738899999993
 21
-4.168517000000008
 31
0.0
  0
ARC
  5
421A
102
{ACAD_REACTORS
330
4BB8
102
}
330
A
100
AcDbEntity
  8
1
100
AcDbCircle
 10
64.83181799999993
 20
0.3287529999999492
 30
0.0
 40
4.7
100
AcDbArc
 50
265.0000000000003
 51
272.1408180000002
  0
LINE
  5
421B
102
{ACAD_REACTORS
330
4BB8
102
}
330
A
100
AcDbEntity
  8
1
100
AcDbLine
 10
69.30778199999989
 20
-0.6157700000000546
 30
0.0
 11
66.83217299999992
 21
2.552863999999999
 31
0.0
  0
ARC
  5
421C
102
{ACAD_REACTORS
330
4BB8
102
}
330
A
100
AcDbEntity
  8
1
100
AcDbCircle
 10
64.78058999999993
 20
0.9499789999999279
 30
0.0
 40
2.603504999999999
100
AcDbArc
 50
38.00021899999905
 51
89.99976299999962
  0
LINE
  5
421D
102
{ACAD_REACTORS
330
4BB8
102
}
330
A
100
AcDbEntity
  8
1
100
AcDbLine
 10
64.78060099999995
 20
3.553483000000028
 30
0.0
 11
62.80240199999994
 21
3.553483000000028
 31
0.0
  0
LINE
  5
421E
102
{ACAD_REACTORS
330
4BB8
102
}
330
A
100
AcDbEntity
  8
1
100
AcDbLine
 10
64.78060099999995
 20
3.44999999999993
 30
0.0
 11
61.99999999999993
 21
3.44999999999993
 31
0.0
  0
LINE
  5
421F
102
{ACAD_REACTORS
330
4BB8
102
}
330
A
100
AcDbEntity
  8
1
100
AcDbLine
 10
65.00738899999993
 20
-4.168517000000008
 30
0.0
 11
65.00738899999993
 21
-4.367966000000079
 31
0.0
  0
LINE
  5
4220
102
{ACAD_REACTORS
330
4BB8
102
}
330
A
100
AcDbEntity
  8
1
100
AcDbLine
 10
62.30940199999993
 20
-4.168517000000008
 30
0.0
 11
61.63284099999994
 21
-4.109326000000232
 31
0.0
  0
LINE
  5
4221
102
{ACAD_REACTORS
330
4BB8
102
}
330
A
100
AcDbEntity
  8
1
100
AcDbLine
 10
64.42218599999994
 20
-4.353362000000004
 30
0.0
 11
62.30940199999993
 21
-4.168517000000008
 31
0.0
  0
SPLINE
  5
4222
102
{ACAD_REACTORS
330
4BB8
102
}
330
A
100
AcDbEntity
  8
1
100
AcDbSpline
210
0.0
220
0.0
230
1.0
 70
     8
 71
     5
 72
    12
 73
     6
 74
     0
 42
0.000000001
 43
0.0000000001
 40
0.0
 40
0.0
 40
0.0
 40
0.0
 40
0.0
 40
0.0
 40
1.468005521578839
 40
1.468005521578839
 40
1.468005521578839
 40
1.468005521578839
 40
1.468005521578839
 40
1.468005521578839
 10
62.80240168546054
 20
3.553483445110714
 30
0.0
 10
62.66173296415901
 20
3.517598128004066
 30
0.0
 10
62.50568945911515
 20
3.497606665727801
 30
0.0
 10
62.33856498760811
 20
3.487129729818207
 30
0.0
 10
62.16948506778301
 20
3.481539803635428
 30
0.0
 10
61.9999999999942
 20
3.480912589965837
 30
0.0
  0
ARC
  5
4223
102
{ACAD_REACTORS
330
4BB8
102
}
330
A
100
AcDbEntity
  8
1
100
AcDbCircle
 10
61.97424899999994
 20
4.767601000000011
 30
0.0
 40
1.286305
100
AcDbArc
 50
249.7477199999995
 51
271.1465129999999
  0
ARC
  5
4224
102
{ACAD_REACTORS
330
4BB8
102
}
330
A
100
AcDbEntity
  8
1
100
AcDbCircle
 10
61.99999999999993
 20
5.449999999999986
 30
0.0
 40
2.0
100
AcDbArc
 50
214.8052639999988
 51
270.0
  0
ARC
  5
422B
102
{ACAD_REACTORS
330
4BB8
102
}
330
A
100
AcDbEntity
  8
1
100
AcDbCircle
 10
61.45852899999994
 20
6.101715000000012
 30
0.0
 40
2.0
100
AcDbArc
 50
222.5208230000005
 51
265.7673070000004
  0
LINE
  5
422C
102
{ACAD_REACTORS
330
4BB8
102
}
330
A
100
AcDbEntity
  8
1
100
AcDbLine
 10
61.31091099999993
 20
4.107169999999769
 30
0.0
 11
61.26369499999993
 21
4.050900000000011
 31
0.0
  0
SPLINE
  5
422D
102
{ACAD_REACTORS
330
4BB8
102
}
330
A
100
AcDbEntity
  8
1
100
AcDbSpline
210
0.0
220
0.0
230
1.0
 70
     8
 71
     5
 72
    15
 73
     9
 74
     0
 42
0.000000001
 43
0.0000000001
 40
0.0
 40
0.0
 40
0.0
 40
0.0
 40
0.0
 40
0.0
 40
0.8888279360748811
 40
0.8888279360748811
 40
0.8888279360748811
 40
1.233946357379399
 40
1.233946357379399
 40
1.233946357379399
 40
1.233946357379399
 40
1.233946357379399
 40
1.233946357379399
 10
61.26369478508929
 20
4.050900415939961
 30
0.0
 10
61.17597130462415
 20
4.081538079393681
 30
0.0
 10
61.08674949545733
 20
4.104111767755455
 30
0.0
 10
60.99712038056437
 20
4.11878160612315
 30
0.0
 10
60.88315435020765
 20
4.123304693125754
 30
0.0
 10
60.80199495237021
 20
4.100661125229748
 30
0.0
 10
60.78224983745897
 20
4.091921517386936
 30
0.0
 10
60.76669562567904
 20
4.08088941294045
 30
0.0
 10
60.7555313945521
 20
4.067584400386522
 30
0.0
  0
SPLINE
  5
422E
102
{ACAD_REACTORS
330
4BB8
102
}
330
A
100
AcDbEntity
  8
1
100
AcDbSpline
210
0.0
220
0.0
230
1.0
 70
     8
 71
     5
 72
    18
 73
    12
 74
     0
 42
0.000000001
 43
0.0000000001
 40
0.0
 40
0.0
 40
0.0
 40
0.0
 40
0.0
 40
0.0
 40
1.107741763927931
 40
1.107741763927931
 40
1.107741763927931
 40
1.770742562216323
 40
1.770742562216323
 40
1.770742562216323
 40
2.157342234967244
 40
2.157342234967244
 40
2.157342234967244
 40
2.157342234967244
 40
2.157342234967244
 40
2.157342234967244
 10
61.52925905346975
 20
3.561550144940951
 30
0.0
 10
61.43604140571919
 20
3.558890254813036
 30
0.0
 10
61.32255778450422
 20
3.580789983886404
 30
0.0
 10
61.20058285782673
 20
3.623967429961679
 30
0.0
 10
61.00972167294409
 20
3.717332106957937
 30
0.0
 10
60.85634222275867
 20
3.834867907320641
 30
0.0
 10
60.80651721428577
 20
3.881390279540426
 30
0.0
 10
60.74998780646303
 20
3.953224841827021
 30
0.0
 10
60.73521783586709
 20
4.014510082573393
 30
0.0
 10
60.73602853987837
 20
4.034924234507968
 30
0.0
 10
60.74302528698512
 20
4.052680201764017
 30
0.0
 10
60.7555313945521
 20
4.067584400386522
 30
0.0
  0
ARC
  5
422F
102
{ACAD_REACTORS
330
4BB8
102
}
330
A
100
AcDbEntity
  8
1
100
AcDbCircle
 10
60.56242799999992
 20
4.472615999999788
 30
0.0
 40
0.261605
100
AcDbArc
 50
180.4949030000014
 51
218.7445549999996
  0
LINE
  5
4230
102
{ACAD_REACTORS
330
4BB7
102
}
330
A
100
AcDbEntity
  8
1
100
AcDbLine
 10
60.99930399999993
 20
3.735811000000011
 30
0.0
 11
61.26369499999993
 21
4.050900000000011
 31
0.0
  0
LINE
  5
4231
102
{ACAD_REACTORS
330
468F
102
}
330
A
100
AcDbEntity
  8
SK1
100
AcDbLine
 10
-60.00000000000007
 20
7.050000000000013
 30
0.0
 11
-59.05000000000004
 21
8.0
 31
0.0
  0
LINE
  5
4232
102
{ACAD_REACTORS
330
468F
102
}
330
A
100
AcDbEntity
  8
SK1
100
AcDbLine
 10
-60.00000000000007
 20
-7.050000000000013
 30
0.0
 11
-59.05000000000004
 21
-8.000000000000056
 31
0.0
  0
ARC
  5
4233
102
{ACAD_REACTORS
330
4BB8
102
}
330
A
100
AcDbEntity
  8
1
100
AcDbCircle
 10
13.29415399999995
 20
-17.44185099999998
 30
0.0
 40
10.0
100
AcDbArc
 50
93.49999999999971
 51
109.233296999999
  0
LINE
  5
4234
102
{ACAD_REACTORS
330
4BB8
102
}
330
A
100
AcDbEntity
  8
1
100
AcDbLine
 10
9.999999999999943
 20
-8.000000000000056
 30
0.0
 11
-0.0000000000000542
 21
-8.000000000000056
 31
0.0
  0
ARC
  5
4235
102
{ACAD_REACTORS
330
4BB8
102
}
330
A
100
AcDbEntity
  8
1
100
AcDbCircle
 10
13.29415399999995
 20
17.44185099999976
 30
0.0
 40
10.0
100
AcDbArc
 50
250.766703000001
 51
266.5000000000002
  0
LINE
  5
4236
102
{ACAD_REACTORS
330
4BB8
102
}
330
A
100
AcDbEntity
  8
1
100
AcDbLine
 10
56.84752099999993
 20
-4.759326000000044
 30
0.0
 11
12.68366899999995
 21
-7.460503000000016
 31
0.0
  0
LINE
  5
4237
102
{ACAD_REACTORS
330
4BB8
102
}
330
A
100
AcDbEntity
  8
1
100
AcDbLine
 10
9.999999999999943
 20
8.0
 30
0.0
 11
-0.0000000000000542
 21
7.999999999999943
 31
0.0
  0
LINE
  5
4238
102
{ACAD_REACTORS
330
4BB8
102
}
330
A
100
AcDbEntity
  8
1
100
AcDbLine
 10
56.84752099999993
 20
4.759325999999987
 30
0.0
 11
12.68366899999995
 21
7.460502999999902
 31
0.0
  0
ARC
  5
4239
102
{ACAD_REACTORS
330
4BB8
102
}
330
A
100
AcDbEntity
  8
1
100
AcDbCircle
 10
57.15276399999993
 20
-9.750000000000056
 30
0.0
 40
5.0
100
AcDbArc
 50
90.0
 51
93.49999999999971
  0
ARC
  5
423A
102
{ACAD_REACTORS
330
4BB8
102
}
330
A
100
AcDbEntity
  8
1
100
AcDbCircle
 10
57.15276399999993
 20
9.75
 30
0.0
 40
5.0
100
AcDbArc
 50
266.5000000000002
 51
270.0
  0
LINE
  5
423B
102
{ACAD_REACTORS
330
4BB8
102
}
330
A
100
AcDbEntity
  8
1
100
AcDbLine
 10
59.98446699999995
 20
-4.750000000000056
 30
0.0
 11
57.15276399999993
 21
-4.750000000000056
 31
0.0
  0
LINE
  5
423C
102
{ACAD_REACTORS
330
4BB8
102
}
330
A
100
AcDbEntity
  8
1
100
AcDbLine
 10
59.98446699999995
 20
4.75
 30
0.0
 11
57.15276399999993
 21
4.75
 31
0.0
  0
ARC
  5
423D
102
{ACAD_REACTORS
330
4BB7
102
}
330
A
100
AcDbEntity
  8
1
100
AcDbCircle
 10
64.54999999999994
 20
-1.122497000000009
 30
0.0
 40
0.15
100
AcDbArc
 50
116.1038810000001
 51
180.0
  0
CIRCLE
  5
423E
102
{ACAD_REACTORS
330
4BB7
102
}
330
A
100
AcDbEntity
  8
1
100
AcDbCircle
 10
63.99999999999995
 20
0.0
 30
0.0
 40
1.030718
  0
LINE
  5
423F
102
{ACAD_REACTORS
330
4BB7
102
}
330
A
100
AcDbEntity
  8
1
100
AcDbLine
 10
64.39999999999995
 20
-1.275186000000019
 30
0.0
 11
64.39999999999995
 21
-1.122497000000009
 31
0.0
  0
CIRCLE
  5
4240
102
{ACAD_REACTORS
330
4BB7
102
}
330
A
100
AcDbEntity
  8
1
100
AcDbCircle
 10
63.99999999999995
 20
0.0
 30
0.0
 40
1.649999999999999
  0
LINE
  5
4241
102
{ACAD_REACTORS
330
4BB7
102
}
330
A
100
AcDbEntity
  8
1
100
AcDbLine
 10
64.77211099999994
 20
-0.9076590000001939
 30
0.0
 11
64.90434399999994
 21
-0.9840029999999726
 31
0.0
  0
ARC
  5
4242
102
{ACAD_REACTORS
330
4BB7
102
}
330
A
100
AcDbEntity
  8
1
100
AcDbCircle
 10
64.95434399999995
 20
-0.8974010000000587
 30
0.0
 40
0.1
100
AcDbArc
 50
239.9999999999991
 51
316.761346
  0
ARC
  5
4243
102
{ACAD_REACTORS
330
4BB7
102
}
330
A
100
AcDbEntity
  8
1
100
AcDbCircle
 10
63.99999999999995
 20
0.0
 30
0.0
 40
1.409999999999999
100
AcDbArc
 50
316.761346
 51
343.2386539999983
  0
ARC
  5
4244
102
{ACAD_REACTORS
330
4BB7
102
}
330
A
100
AcDbEntity
  8
1
100
AcDbCircle
 10
65.25434399999993
 20
-0.3777860000000714
 30
0.0
 40
0.1
100
AcDbArc
 50
343.2386539999983
 51
59.99999999999903
  0
LINE
  5
4245
102
{ACAD_REACTORS
330
4BB7
102
}
330
A
100
AcDbEntity
  8
1
100
AcDbLine
 10
65.30434399999993
 20
-0.2911829999999895
 30
0.0
 11
65.17211099999993
 21
-0.2148379999999861
 31
0.0
  0
ARC
  5
4246
102
{ACAD_REACTORS
330
4BB7
102
}
330
A
100
AcDbEntity
  8
1
100
AcDbCircle
 10
65.24711099999993
 20
-0.0849350000002005
 30
0.0
 40
0.15
100
AcDbArc
 50
176.1038810000009
 51
239.9999999999991
  0
ARC
  5
4247
102
{ACAD_REACTORS
330
4BB7
102
}
330
A
100
AcDbEntity
  8
1
100
AcDbCircle
 10
63.99999999999995
 20
0.0
 30
0.0
 40
1.1
100
AcDbArc
 50
356.1038810000009
 51
3.896118999999075
  0
ARC
  5
4248
102
{ACAD_REACTORS
330
4BB7
102
}
330
A
100
AcDbEntity
  8
1
100
AcDbCircle
 10
65.24711099999993
 20
0.0849349999999163
 30
0.0
 40
0.15
100
AcDbArc
 50
120.0000000000009
 51
183.896118999999
  0
LINE
  5
4249
102
{ACAD_REACTORS
330
4BB7
102
}
330
A
100
AcDbEntity
  8
1
100
AcDbLine
 10
65.17211099999993
 20
0.2148379999999292
 30
0.0
 11
65.30434399999993
 21
0.2911829999999327
 31
0.0
  0
ARC
  5
424A
102
{ACAD_REACTORS
330
4BB7
102
}
330
A
100
AcDbEntity
  8
1
100
AcDbCircle
 10
65.25434399999993
 20
0.3777860000000146
 30
0.0
 40
0.1
100
AcDbArc
 50
300.0000000000008
 51
16.76134599999831
  0
ARC
  5
424B
102
{ACAD_REACTORS
330
4BB7
102
}
330
A
100
AcDbEntity
  8
1
100
AcDbCircle
 10
63.99999999999995
 20
0.0
 30
0.0
 40
1.409999999999999
100
AcDbArc
 50
16.76134599999831
 51
43.23865400000012
  0
ARC
  5
424C
102
{ACAD_REACTORS
330
4BB7
102
}
330
A
100
AcDbEntity
  8
1
100
AcDbCircle
 10
64.95434399999995
 20
0.8974010000000021
 30
0.0
 40
0.1
100
AcDbArc
 50
43.23865400000012
 51
120.0000000000009
  0
LINE
  5
424D
102
{ACAD_REACTORS
330
4BB7
102
}
330
A
100
AcDbEntity
  8
1
100
AcDbLine
 10
64.90434399999994
 20
0.9840029999999158
 30
0.0
 11
64.77211099999994
 21
0.9076590000000235
 31
0.0
  0
ARC
  5
424E
102
{ACAD_REACTORS
330
4BB7
102
}
330
A
100
AcDbEntity
  8
1
100
AcDbCircle
 10
64.69711099999995
 20
1.03756299999992
 30
0.0
 40
0.15
100
AcDbArc
 50
236.1038810000006
 51
300.0000000000008
  0
ARC
  5
424F
102
{ACAD_REACTORS
330
4BB7
102
}
330
A
100
AcDbEntity
  8
1
100
AcDbCircle
 10
63.99999999999995
 20
0.0
 30
0.0
 40
1.1
100
AcDbArc
 50
56.10388100000061
 51
63.89611899999985
  0
ARC
  5
4250
102
{ACAD_REACTORS
330
4BB7
102
}
330
A
100
AcDbEntity
  8
1
100
AcDbCircle
 10
64.54999999999994
 20
1.122496999999953
 30
0.0
 40
0.15
100
AcDbArc
 50
180.0
 51
243.896119
  0
LINE
  5
4251
102
{ACAD_REACTORS
330
4BB7
102
}
330
A
100
AcDbEntity
  8
1
100
AcDbLine
 10
64.39999999999995
 20
1.122496999999953
 30
0.0
 11
64.39999999999995
 21
1.275185999999905
 31
0.0
  0
ARC
  5
4252
102
{ACAD_REACTORS
330
4BB7
102
}
330
A
100
AcDbEntity
  8
1
100
AcDbCircle
 10
64.29999999999994
 20
1.275185999999905
 30
0.0
 40
0.1
100
AcDbArc
 50
0.0
 51
76.76134599999946
  0
ARC
  5
4253
102
{ACAD_REACTORS
330
4BB7
102
}
330
A
100
AcDbEntity
  8
1
100
AcDbCircle
 10
63.99999999999995
 20
0.0
 30
0.0
 40
1.409999999999999
100
AcDbArc
 50
76.76134599999946
 51
103.2386540000005
  0
ARC
  5
4254
102
{ACAD_REACTORS
330
4BB7
102
}
330
A
100
AcDbEntity
  8
1
100
AcDbCircle
 10
63.69999999999993
 20
1.275185999999905
 30
0.0
 40
0.1
100
AcDbArc
 50
103.2386540000005
 51
180.0
  0
LINE
  5
4255
102
{ACAD_REACTORS
330
4BB7
102
}
330
A
100
AcDbEntity
  8
1
100
AcDbLine
 10
63.59999999999993
 20
1.275185999999905
 30
0.0
 11
63.59999999999993
 21
1.122496999999953
 31
0.0
  0
ARC
  5
4256
102
{ACAD_REACTORS
330
4BB7
102
}
330
A
100
AcDbEntity
  8
1
100
AcDbCircle
 10
63.44999999999995
 20
1.122496999999953
 30
0.0
 40
0.15
100
AcDbArc
 50
296.1038810000001
 51
0.0
  0
ARC
  5
4257
102
{ACAD_REACTORS
330
4BB7
102
}
330
A
100
AcDbEntity
  8
1
100
AcDbCircle
 10
63.99999999999995
 20
0.0
 30
0.0
 40
1.1
100
AcDbArc
 50
116.1038810000001
 51
123.8961189999993
  0
ARC
  5
4258
102
{ACAD_REACTORS
330
4BB7
102
}
330
A
100
AcDbEntity
  8
1
100
AcDbCircle
 10
63.30288899999994
 20
1.03756299999992
 30
0.0
 40
0.15
100
AcDbArc
 50
239.9999999999991
 51
303.8961189999994
  0
LINE
  5
4259
102
{ACAD_REACTORS
330
4BB7
102
}
330
A
100
AcDbEntity
  8
1
100
AcDbLine
 10
63.22788899999995
 20
0.9076590000000235
 30
0.0
 11
63.09565599999995
 21
0.9840029999999158
 31
0.0
  0
ARC
  5
425A
102
{ACAD_REACTORS
330
4BB7
102
}
330
A
100
AcDbEntity
  8
1
100
AcDbCircle
 10
63.04565599999992
 20
0.8974010000000021
 30
0.0
 40
0.1
100
AcDbArc
 50
59.99999999999903
 51
136.7613459999998
  0
ARC
  5
425B
102
{ACAD_REACTORS
330
4BB7
102
}
330
A
100
AcDbEntity
  8
1
100
AcDbCircle
 10
63.99999999999995
 20
0.0
 30
0.0
 40
1.409999999999999
100
AcDbArc
 50
136.7613459999998
 51
163.2386539999983
  0
ARC
  5
425C
102
{ACAD_REACTORS
330
4BB7
102
}
330
A
100
AcDbEntity
  8
1
100
AcDbCircle
 10
62.74565599999993
 20
0.3777860000000146
 30
0.0
 40
0.1
100
AcDbArc
 50
163.2386539999983
 51
239.9999999999991
  0
LINE
  5
425D
102
{ACAD_REACTORS
330
4BB7
102
}
330
A
100
AcDbEntity
  8
1
100
AcDbLine
 10
62.69565599999993
 20
0.2911829999999327
 30
0.0
 11
62.82788899999992
 21
0.2148379999999292
 31
0.0
  0
ARC
  5
425E
102
{ACAD_REACTORS
330
4BB7
102
}
330
A
100
AcDbEntity
  8
1
100
AcDbCircle
 10
62.75288899999993
 20
0.0849349999999163
 30
0.0
 40
0.15
100
AcDbArc
 50
356.1038810000009
 51
59.99999999999903
  0
ARC
  5
425F
102
{ACAD_REACTORS
330
4BB7
102
}
330
A
100
AcDbEntity
  8
1
100
AcDbCircle
 10
63.99999999999995
 20
0.0
 30
0.0
 40
1.1
100
AcDbArc
 50
176.1038810000009
 51
183.896118999999
  0
ARC
  5
4260
102
{ACAD_REACTORS
330
4BB7
102
}
330
A
100
AcDbEntity
  8
1
100
AcDbCircle
 10
62.75288899999993
 20
-0.0849350000002005
 30
0.0
 40
0.15
100
AcDbArc
 50
300.0000000000008
 51
3.896118999999075
  0
LINE
  5
4261
102
{ACAD_REACTORS
330
4BB7
102
}
330
A
100
AcDbEntity
  8
1
100
AcDbLine
 10
62.82788899999992
 20
-0.2148379999999861
 30
0.0
 11
62.69565599999993
 21
-0.2911829999999895
 31
0.0
  0
ARC
  5
4262
102
{ACAD_REACTORS
330
4BB7
102
}
330
A
100
AcDbEntity
  8
1
100
AcDbCircle
 10
62.74565599999993
 20
-0.3777860000000714
 30
0.0
 40
0.1
100
AcDbArc
 50
120.0000000000009
 51
196.7613459999983
  0
ARC
  5
4263
102
{ACAD_REACTORS
330
4BB7
102
}
330
A
100
AcDbEntity
  8
1
100
AcDbCircle
 10
63.99999999999995
 20
0.0
 30
0.0
 40
1.409999999999999
100
AcDbArc
 50
196.7613459999983
 51
223.2386540000002
  0
ARC
  5
4264
102
{ACAD_REACTORS
330
4BB7
102
}
330
A
100
AcDbEntity
  8
1
100
AcDbCircle
 10
63.04565599999992
 20
-0.8974010000000587
 30
0.0
 40
0.1
100
AcDbArc
 50
223.2386540000002
 51
300.0000000000008
  0
LINE
  5
4265
102
{ACAD_REACTORS
330
4BB7
102
}
330
A
100
AcDbEntity
  8
1
100
AcDbLine
 10
63.09565599999995
 20
-0.9840029999999726
 30
0.0
 11
63.22788899999995
 21
-0.9076590000001939
 31
0.0
  0
ARC
  5
4266
102
{ACAD_REACTORS
330
4BB7
102
}
330
A
100
AcDbEntity
  8
1
100
AcDbCircle
 10
63.30288899999994
 20
-1.037562999999977
 30
0.0
 40
0.15
100
AcDbArc
 50
56.10388100000061
 51
120.0000000000009
  0
ARC
  5
4267
102
{ACAD_REACTORS
330
4BB7
102
}
330
A
100
AcDbEntity
  8
1
100
AcDbCircle
 10
63.99999999999995
 20
0.0
 30
0.0
 40
1.1
100
AcDbArc
 50
236.1038810000006
 51
243.896119
  0
ARC
  5
4268
102
{ACAD_REACTORS
330
4BB7
102
}
330
A
100
AcDbEntity
  8
1
100
AcDbCircle
 10
63.44999999999995
 20
-1.122497000000009
 30
0.0
 40
0.15
100
AcDbArc
 50
0.0
 51
63.89611899999985
  0
LINE
  5
4269
102
{ACAD_REACTORS
330
4BB7
102
}
330
A
100
AcDbEntity
  8
1
100
AcDbLine
 10
63.59999999999993
 20
-1.122497000000009
 30
0.0
 11
63.59999999999993
 21
-1.275186000000019
 31
0.0
  0
ARC
  5
426A
102
{ACAD_REACTORS
330
4BB7
102
}
330
A
100
AcDbEntity
  8
1
100
AcDbCircle
 10
63.69999999999993
 20
-1.275186000000019
 30
0.0
 40
0.1
100
AcDbArc
 50
180.0
 51
256.7613459999995
  0
ARC
  5
426B
102
{ACAD_REACTORS
330
4BB7
102
}
330
A
100
AcDbEntity
  8
1
100
AcDbCircle
 10
63.99999999999995
 20
0.0
 30
0.0
 40
1.409999999999999
100
AcDbArc
 50
256.7613459999995
 51
283.2386540000005
  0
ARC
  5
426C
102
{ACAD_REACTORS
330
4BB7
102
}
330
A
100
AcDbEntity
  8
1
100
AcDbCircle
 10
64.29999999999994
 20
-1.275186000000019
 30
0.0
 40
0.1
100
AcDbArc
 50
283.2386540000005
 51
0.0
  0
ARC
  5
426D
102
{ACAD_REACTORS
330
4BB7
102
}
330
A
100
AcDbEntity
  8
1
100
AcDbCircle
 10
63.99999999999995
 20
0.0
 30
0.0
 40
1.1
100
AcDbArc
 50
296.1038810000001
 51
303.8961189999994
  0
ARC
  5
426E
102
{ACAD_REACTORS
330
4BB7
102
}
330
A
100
AcDbEntity
  8
1
100
AcDbCircle
 10
64.69711099999995
 20
-1.037562999999977
 30
0.0
 40
0.15
100
AcDbArc
 50
59.99999999999903
 51
123.8961189999993
  0
CIRCLE
  5
426F
102
{ACAD_REACTORS
330
4BB7
102
}
330
A
100
AcDbEntity
  8
1
100
AcDbCircle
 10
63.99999999999995
 20
0.0
 30
0.0
 40
2.299999999999998
  0
LINE
  5
4271
330
A
100
AcDbEntity
  8
4
100
AcDbLine
 10
66.98999999999994
 20
0.0
 30
0.0
 11
61.00999999999993
 21
0.0
 31
0.0
  0
LINE
  5
4272
330
A
100
AcDbEntity
  8
4
100
AcDbLine
 10
63.99999999999995
 20
2.990000000000009
 30
0.0
 11
63.99999999999995
 21
-2.990000000000065
 31
0.0
  0
LINE
  5
4277
102
{ACAD_REACTORS
330
468F
102
}
330
A
100
AcDbEntity
  8
SK1
100
AcDbLine
 10
0.0
 20
8.0
 30
0.0
 11
-59.05000000000004
 21
8.0
 31
0.0
  0
LINE
  5
4278
102
{ACAD_REACTORS
330
468F
102
}
330
A
100
AcDbEntity
  8
SK1
100
AcDbLine
 10
0.0
 20
-8.000000000000056
 30
0.0
 11
-59.05000000000004
 21
-8.000000000000056
 31
0.0
  0
INSERT
  5
464F
330
A
100
AcDbEntity
  8
SK2
100
AcDbBlockReference
  2
CERO_POINT
 10
0.0
 20
0.0
 30
0.0
  0
LINE
  5
4650
330
A
100
AcDbEntity
  8
INFTOTAL
100
AcDbLine
 10
-86.2927054504343
 20
46.54212077966548
 30
0.0
 11
-36.29270545043438
 21
46.54212077966548
 31
0.0
  0
LINE
  5
4651
330
A
100
AcDbEntity
  8
INFTOTAL
100
AcDbLine
 10
93.19740683795769
 20
10.92118186922118
 30
0.0
 11
93.19740683795773
 21
-39.07881813077871
 31
0.0
  0
LINE
  5
4652
330
A
100
AcDbEntity
  8
INFTOTAL
100
AcDbLine
 10
93.19740683795773
 20
-39.07881813077871
 30
0.0
 11
43.1974068379577
 21
-39.07881813077871
 31
0.0
  0
LINE
  5
4653
330
A
100
AcDbEntity
  8
INFTOTAL
100
AcDbLine
 10
-86.2927054504343
 20
-3.457879220334517
 30
0.0
 11
-86.2927054504343
 21
46.54212077966548
 31
0.0
  0
LINE
  5
48BA
330
A
100
AcDbEntity
  8
4
100
AcDbLine
 10
0.0000000000036389
 20
0.0
 30
0.0
 11
72.85164355423808
 21
0.0
 31
0.0
  0
LINE
  5
4EC9
102
{ACAD_REACTORS
330
4ECD
102
}
330
A
100
AcDbEntity
  8
CUT
100
AcDbLine
 10
61.99999999999993
 20
0.0
 30
0.0
 11
69.99999999999992
 21
0.0
 31
0.0
  0
ARC
  5
4ECA
102
{ACAD_REACTORS
330
4ECD
102
}
330
A
100
AcDbEntity
  8
CUT
100
AcDbCircle
 10
64.99999999999992
 20
0.0
 30
0.0
 40
5.000000000000011
100
AcDbArc
 50
0.0
 51
94.97531976746069
  0
LINE
  5
4ECB
102
{ACAD_REACTORS
330
4ECD
102
}
330
A
100
AcDbEntity
  8
CUT
100
AcDbLine
 10
64.5663668875197
 20
4.981160740606622
 30
0.0
 11
61.99999999999993
 21
4.756632999999624
 31
0.0
  0
LINE
  5
4ECC
102
{ACAD_REACTORS
330
4ECD
102
}
330
A
100
AcDbEntity
  8
CUT
100
AcDbLine
 10
61.99999999999993
 20
4.756632999999624
 30
0.0
 11
61.99999999999993
 21
0.0
 31
0.0
  0
LINE
  5
4ECE
102
{ACAD_REACTORS
330
4ED8
102
}
330
A
100
AcDbEntity
  8
NOCUT
100
AcDbLine
 10
0.0000000000036351
 20
0.0
 30
0.0
 11
69.4904160000036
 21
0.0
 31
0.0
  0
LINE
  5
4ECF
102
{ACAD_REACTORS
330
4ED8
102
}
330
A
100
AcDbEntity
  8
NOCUT
100
AcDbLine
 10
69.4904160000036
 20
0.0
 30
0.0
 11
69.49041600000365
 21
0.7499986704403013
 31
0.0
  0
ARC
  5
4ED0
102
{ACAD_REACTORS
330
4ED8
102
}
330
A
100
AcDbEntity
  8
NOCUT
100
AcDbCircle
 10
64.79999989561047
 20
0.0000000972038672
 30
0.0
 40
4.750000114969203
100
AcDbArc
 50
9.084702637011453
 51
85.00009134796039
  0
LINE
  5
4ED1
102
{ACAD_REACTORS
330
4ED8
102
}
330
A
100
AcDbEntity
  8
NOCUT
100
AcDbLine
 10
65.21398213946635
 20
4.731925687698661
 30
0.0
 11
65.00738900000365
 21
4.750000000000226
 31
0.0
  0
LINE
  5
4ED2
102
{ACAD_REACTORS
330
4ED8
102
}
330
A
100
AcDbEntity
  8
NOCUT
100
AcDbLine
 10
65.00738900000365
 20
4.750000000000226
 30
0.0
 11
57.15276400000369
 21
4.750000000000113
 31
0.0
  0
ARC
  5
4ED3
102
{ACAD_REACTORS
330
4ED8
102
}
330
A
100
AcDbEntity
  8
NOCUT
100
AcDbCircle
 10
57.15276356907065
 20
9.750000013166172
 30
0.0
 40
5.000000013166077
100
AcDbArc
 50
266.5000048143814
 51
270.0000049381291
  0
LINE
  5
4ED4
102
{ACAD_REACTORS
330
4ED8
102
}
330
A
100
AcDbEntity
  8
NOCUT
100
AcDbLine
 10
56.847521289943
 20
4.759325982266766
 30
0.0
 11
12.68366858360922
 21
7.460503025467676
 31
0.0
  0
ARC
  5
4ED5
102
{ACAD_REACTORS
330
4ED8
102
}
330
A
100
AcDbEntity
  8
NOCUT
100
AcDbCircle
 10
13.29415396997898
 20
17.44185100603604
 30
0.0
 40
9.999999995808362
100
AcDbArc
 50
250.7667044844651
 51
266.5000000500721
  0
LINE
  5
4ED6
102
{ACAD_REACTORS
330
4ED8
102
}
330
A
100
AcDbEntity
  8
NOCUT
100
AcDbLine
 10
10.00000013386499
 20
8.000000000000056
 30
0.0
 11
0.0000000000036351
 21
8.0
 31
0.0
  0
LINE
  5
4ED7
102
{ACAD_REACTORS
330
4ED8
102
}
330
A
100
AcDbEntity
  8
NOCUT
100
AcDbLine
 10
0.0000000000036351
 20
8.0
 30
0.0
 11
0.0000000000036351
 21
0.0
 31
0.0
  0
TEXT
  5
50FE
330
A
100
AcDbEntity
  8
SK6
100
AcDbText
 10
-19.66218792893445
 20
-30.00518118722681
 30
0.0
 40
3.5
  1
12A8S010060T3R00
100
AcDbText
1001
ACAD
1000
MTEXTBEGIN
1070
    73
1070
     1
1070
    44
1040
1.0
1070
    74
1070
     0
1000
MTEXTEND
  0
VIEWPORT
  5
32
102
{ACAD_XDICTIONARY
360
51A9
102
}
330
B
100
AcDbEntity
 67
     1
  8
0
 62
     0
370
     0
100
AcDbViewport
 10
0.0
 20
0.0
 30
0.0
 40
1000.0
 41
1000.0
 68
     1
 69
     1
 12
0.0
 22
0.0
 13
0.0
 23
0.0
 14
1.0
 24
1.0
 15
1.0
 25
1.0
 16
0.0
 26
0.0
 36
1.0
 17
0.0
 27
0.0
 37
0.0
 42
50.0
 43
0.0
 44
0.0
 45
1000.0
 50
0.0
 51
0.0
 72
   100
 90
        0
  1

281
     0
 71
     0
 74
     1
110
0.0
120
0.0
130
0.0
111
1.0
121
0.0
131
0.0
112
0.0
122
1.0
132
0.0
 79
     0
146
0.0
  0
ENDSEC
  0
SECTION
  2
OBJECTS
  0
DICTIONARY
  5
19
330
0
100
AcDbDictionary
281
     1
  3
ACAD_2007HEADERVARS_RT
350
51A2
  3
ACAD_CIP_PREVIOUS_PRODUCT_INFO
350
50FC
  3
ACAD_COLOR
350
451
  3
ACAD_DETAILVIEWSTYLE
350
50AF
  3
ACAD_GROUP
350
1A
  3
ACAD_LAYOUT
350
1E
  3
ACAD_MATERIAL
350
450
  3
ACAD_MLEADERSTYLE
350
4DD0
  3
ACAD_MLINESTYLE
350
1B
  3
ACAD_PLOTSETTINGS
350
22
  3
ACAD_PLOTSTYLENAME
350
1F
  3
ACAD_SCALELIST
350
4DBE
  3
ACAD_SECTIONVIEWSTYLE
350
50AD
  3
ACAD_TABLESTYLE
350
452
  3
ACAD_VISUALSTYLE
350
4DAA
  3
ACAD_WIPEOUT_VARS
350
23
  3
ACDB_RECOMPOSE_DATA
350
51A0
  3
AcDbVariableDictionary
350
5195
  3
DWGPROPS
350
51A1
  0
DICTIONARY
  5
468
330
2
100
AcDbDictionary
280
     1
281
     1
  3
ACAD_LAYERFILTERS
360
4D9D
  3
ACAD_LAYERSTATES
360
45D6
  3
ACLYDICTIONARY
360
4D9C
  0
DICTIONARY
  5
4E1D
330
14
100
AcDbDictionary
280
     1
281
     1
  3
ADSK_XREC_LAYER_RECONCILED
360
4E1E
  0
DICTIONARY
  5
4E1F
330
456
100
AcDbDictionary
280
     1
281
     1
  3
ADSK_XREC_LAYER_RECONCILED
360
4E20
  0
DICTIONARY
  5
4E21
330
458
100
AcDbDictionary
280
     1
281
     1
  3
ADSK_XREC_LAYER_RECONCILED
360
4E22
  0
DICTIONARY
  5
4E23
330
459
100
AcDbDictionary
280
     1
281
     1
  3
ADSK_XREC_LAYER_RECONCILED
360
4E24
  0
DICTIONARY
  5
4E25
330
45D
100
AcDbDictionary
280
     1
281
     1
  3
ADSK_XREC_LAYER_RECONCILED
360
4E26
  0
DICTIONARY
  5
4E27
330
45F
100
AcDbDictionary
280
     1
281
     1
  3
ADSK_XREC_LAYER_RECONCILED
360
4E28
  0
DICTIONARY
  5
4E29
330
460
100
AcDbDictionary
280
     1
281
     1
  3
ADSK_XREC_LAYER_RECONCILED
360
4E2A
  0
DICTIONARY
  5
4E2B
330
461
100
AcDbDictionary
280
     1
281
     1
  3
ADSK_XREC_LAYER_RECONCILED
360
4E2C
  0
DICTIONARY
  5
4E2D
330
462
100
AcDbDictionary
280
     1
281
     1
  3
ADSK_XREC_LAYER_RECONCILED
360
4E2E
  0
DICTIONARY
  5
4E2F
330
466
100
AcDbDictionary
280
     1
281
     1
  3
ADSK_XREC_LAYER_RECONCILED
360
4E30
  0
DICTIONARY
  5
BCD
330
A
100
AcDbDictionary
280
     1
281
     1
  3
ACAD_SORTENTS
360
BCE
  0
DICTIONARY
  5
51A9
330
32
100
AcDbDictionary
280
     1
281
     1
  3
ACAD_XREC_ROUNDTRIP
360
51AA
  0
DICTIONARY
  5
51A2
102
{ACAD_REACTORS
330
19
102
}
330
19
100
AcDbDictionary
281
     1
  3
DIMFXL
350
51A3
  3
DIMJOGANG
350
51A4
  0
XRECORD
  5
50FC
102
{ACAD_REACTORS
330
19
102
}
330
19
100
AcDbXrecord
280
     1
300
ACDLT
300
2015
300
ACDLT_F_S
  0
DICTIONARY
  5
451
102
{ACAD_REACTORS
330
19
102
}
330
19
100
AcDbDictionary
281
     1
  0
DICTIONARY
  5
50AF
102
{ACAD_REACTORS
330
19
102
}
330
19
100
AcDbDictionary
281
     1
  3
METRIC50
350
50B0
  0
DICTIONARY
  5
1A
102
{ACAD_REACTORS
330
19
102
}
330
19
100
AcDbDictionary
281
     1
  3
*A1
350
4ECD
  3
*A2
350
4ED8
  3
*A3
350
4BB7
  3
*A4
350
4BB8
  3
*A5
350
4678
  3
*A6
350
468B
  3
*A7
350
468F
  0
DICTIONARY
  5
1E
102
{ACAD_REACTORS
330
19
102
}
330
19
100
AcDbDictionary
281
     1
  3
Layout1
350
21
  3
Model
350
20
  0
DICTIONARY
  5
450
102
{ACAD_REACTORS
330
19
102
}
330
19
100
AcDbDictionary
281
     1
  3
ByBlock
350
45CD
  3
ByLayer
350
45D0
  3
Global
350
45D3
  0
DICTIONARY
  5
4DD0
102
{ACAD_REACTORS
330
19
102
}
330
19
100
AcDbDictionary
281
     1
  3
Standard
350
4DD1
  0
DICTIONARY
  5
1B
102
{ACAD_REACTORS
330
19
102
}
330
19
100
AcDbDictionary
281
     1
  3
Standard
350
1C
  0
DICTIONARY
  5
22
102
{ACAD_REACTORS
330
19
102
}
330
19
100
AcDbDictionary
281
     1
  0
ACDBDICTIONARYWDFLT
  5
1F
102
{ACAD_REACTORS
330
19
102
}
330
19
100
AcDbDictionary
281
     1
  3
Normal
350
1D
100
AcDbDictionaryWithDefault
340
1D
  0
DICTIONARY
  5
4DBE
102
{ACAD_REACTORS
330
19
102
}
330
19
100
AcDbDictionary
281
     1
  3
A0
350
4DBF
  3
A1
350
4DC0
  3
A2
350
4DC1
  3
A3
350
4DC2
  3
A4
350
4DC3
  3
A5
350
4DC4
  3
A6
350
4DC5
  3
A7
350
4DC6
  3
A8
350
4DC7
  3
A9
350
4DC8
  3
B0
350
4DC9
  3
B1
350
4DCA
  3
B2
350
4DCB
  3
B3
350
4DCC
  3
B4
350
4DCD
  3
B5
350
4DCE
  3
B6
350
4DCF
  0
DICTIONARY
  5
50AD
102
{ACAD_REACTORS
330
19
102
}
330
19
100
AcDbDictionary
281
     1
  3
METRIC50
350
50AE
  0
DICTIONARY
  5
452
102
{ACAD_REACTORS
330
19
102
}
330
19
100
AcDbDictionary
281
     1
  3
Standard
350
453
  0
DICTIONARY
  5
4DAA
102
{ACAD_REACTORS
330
19
102
}
330
19
100
AcDbDictionary
281
     1
  3
2dWireframe
350
4DB0
  3
3D Hidden
350
4DB2
  3
3dWireframe
350
4DB1
  3
Basic
350
4DAF
  3
Brighten
350
4DB6
  3
ColorChange
350
4DBA
  3
Conceptual
350
4DB3
  3
Dim
350
4DB5
  3
EdgeColorOff
350
4DBD
  3
Facepattern
350
4DB9
  3
Flat
350
4DAB
  3
FlatWithEdges
350
4DAC
  3
Gouraud
350
4DAD
  3
GouraudWithEdges
350
4DAE
  3
Hidden
350
50A7
  3
JitterOff
350
4DBB
  3
Linepattern
350
4DB8
  3
OverhangOff
350
4DBC
  3
Realistic
350
4DB4
  3
Shaded
350
50AC
  3
Shaded with edges
350
50AB
  3
Shades of Gray
350
50A8
  3
Sketchy
350
50A9
  3
Thicken
350
4DB7
  3
Wireframe
350
50A6
  3
X-Ray
350
50AA
  0
WIPEOUTVARIABLES
  5
23
330
19
100
AcDbWipeoutVariables
 70
     1
  0
XRECORD
  5
51A0
102
{ACAD_REACTORS
330
19
102
}
330
19
100
AcDbXrecord
280
     1
 90
        1
330
453
  0
DICTIONARY
  5
5195
102
{ACAD_REACTORS
330
19
102
}
330
19
100
AcDbDictionary
281
     1
  3
CANNOSCALE
350
519A
  3
CMLEADERSTYLE
350
5197
  3
CTABLESTYLE
350
5196
  3
CVIEWDETAILSTYLE
350
5198
  3
CVIEWSECTIONSTYLE
350
5199
  3
DIMASSOC
350
519E
  3
INDEXCTL
350
519C
  3
SORTENTS
350
519B
  3
XCLIPFRAME
350
519D
  0
XRECORD
  5
51A1
102
{ACAD_REACTORS
330
19
102
}
330
19
100
AcDbXrecord
280
     1
  1
DWGPROPS COOKIE
  2

  3

  4

  6

  7

  8
kamerka
  9

300
=
301
=
302
=
303
=
304
=
305
=
306
=
307
=
308
=
309
=
 40
0.3779134143518518
 41
2455362.076310394
 42
2457338.460037326
  1

 90
        0
  0
DICTIONARY
  5
4D9D
102
{ACAD_REACTORS
330
468
102
}
330
468
100
AcDbDictionary
281
     1
  0
DICTIONARY
  5
45D6
102
{ACAD_REACTORS
330
468
102
}
330
468
100
AcDbDictionary
281
     1
  3
_LAYISO_STATE
350
4EBD
1001
AcLayerTools
1000
20
1000
0
  0
DICTIONARY
  5
4D9C
102
{ACAD_REACTORS
330
468
102
}
330
468
100
AcDbDictionary
281
     1
1001
ACAD
1000
<All
  0
XRECORD
  5
4E1E
102
{ACAD_REACTORS
330
4E1D
102
}
330
4E1D
100
AcDbXrecord
280
     1
290
     1
  0
XRECORD
  5
4E20
102
{ACAD_REACTORS
330
4E1F
102
}
330
4E1F
100
AcDbXrecord
280
     1
290
     1
  0
XRECORD
  5
4E22
102
{ACAD_REACTORS
330
4E21
102
}
330
4E21
100
AcDbXrecord
280
     1
290
     1
  0
XRECORD
  5
4E24
102
{ACAD_REACTORS
330
4E23
102
}
330
4E23
100
AcDbXrecord
280
     1
290
     1
  0
XRECORD
  5
4E26
102
{ACAD_REACTORS
330
4E25
102
}
330
4E25
100
AcDbXrecord
280
     1
290
     1
  0
XRECORD
  5
4E28
102
{ACAD_REACTORS
330
4E27
102
}
330
4E27
100
AcDbXrecord
280
     1
290
     1
  0
XRECORD
  5
4E2A
102
{ACAD_REACTORS
330
4E29
102
}
330
4E29
100
AcDbXrecord
280
     1
290
     1
  0
XRECORD
  5
4E2C
102
{ACAD_REACTORS
330
4E2B
102
}
330
4E2B
100
AcDbXrecord
280
     1
290
     1
  0
XRECORD
  5
4E2E
102
{ACAD_REACTORS
330
4E2D
102
}
330
4E2D
100
AcDbXrecord
280
     1
290
     1
  0
XRECORD
  5
4E30
102
{ACAD_REACTORS
330
4E2F
102
}
330
4E2F
100
AcDbXrecord
280
     1
290
     1
  0
SORTENTSTABLE
  5
BCE
102
{ACAD_REACTORS
330
BCD
102
}
330
BCD
100
AcDbSortentsTable
330
A
331
4223
  5
420E
331
4ED5
  5
4ED3
331
425E
  5
424B
331
4ED1
  5
4ECF
331
421F
  5
420A
331
425A
  5
4247
331
41ED
  5
41D7
331
421B
  5
4206
331
4EC9
  5
4ED6
331
41E9
  5
41D3
331
4217
  5
4202
331
4256
  5
4243
331
4213
  5
41FE
331
4252
  5
423F
331
41E1
  5
41CB
331
420F
  5
41FA
331
424E
  5
423B
331
424A
  5
4237
331
414E
  5
414E
331
41DD
  5
41C7
331
420B
  5
41F6
331
4651
  5
4653
331
41D9
  5
41C3
331
4207
  5
41F1
331
4246
  5
4233
331
41D5
  5
41BF
331
4203
  5
41ED
331
4242
  5
422F
331
41D1
  5
41BB
331
41FF
  5
41E9
331
423E
  5
422B
331
423A
  5
4227
331
41CD
  5
41B7
331
41FB
  5
41E5
331
4271
  5
41B1
331
41C9
  5
41B3
331
4236
  5
4222
331
4232
  5
421D
331
426D
  5
425A
331
41F7
  5
41E1
331
422E
  5
4219
331
4269
  5
4256
331
4265
  5
4252
331
41F3
  5
41DD
331
4261
  5
424E
331
4151
  5
4151
331
4222
  5
420D
331
4ED4
  5
4ED2
331
425D
  5
424A
331
4ED0
  5
4ECE
331
421E
  5
4209
331
421A
  5
4205
331
4259
  5
4246
331
4ECC
  5
50FE
331
41EC
  5
41D6
331
41E8
  5
41D2
331
4216
  5
4201
331
4255
  5
4242
331
41E4
  5
41CE
331
4212
  5
41FD
331
464F
  5
4651
331
50FE
  5
4650
331
4251
  5
423E
331
424D
  5
423A
331
41E0
  5
41CA
331
420E
  5
41F9
331
4249
  5
4236
331
414D
  5
414D
331
41DC
  5
41C6
331
420A
  5
41F5
331
4650
  5
4652
331
41D8
  5
41C2
331
4206
  5
41F0
331
4245
  5
4232
331
41D4
  5
41BE
331
4202
  5
41EC
331
4241
  5
422E
331
4278
  5
4220
331
41D0
  5
41BA
331
41FE
  5
41E8
331
423D
  5
422A
331
4239
  5
4226
331
41CC
  5
41B6
331
41FA
  5
41E4
331
4235
  5
4221
331
4231
  5
421C
331
426C
  5
4259
331
4268
  5
4255
331
41F6
  5
41E0
331
422D
  5
4218
331
4264
  5
4251
331
41F2
  5
41DC
331
4260
  5
424D
331
4ED7
  5
4ED5
331
4ED3
  5
4ED1
331
4221
  5
420C
331
425C
  5
4249
331
4ECF
  5
4ECC
331
41EF
  5
41D9
331
421D
  5
4208
331
4219
  5
4204
331
4258
  5
4245
331
4ECB
  5
50FD
331
41EB
  5
41D5
331
4215
  5
4200
331
4254
  5
4241
331
41E7
  5
41D1
331
41E3
  5
41CD
331
4211
  5
41FC
331
4250
  5
423D
331
424C
  5
4239
331
41DF
  5
41C9
331
420D
  5
41F8
331
4209
  5
41F3
331
4248
  5
4235
331
414C
  5
414C
331
4653
  5
4EC9
331
41DB
  5
41C5
331
4205
  5
41EF
331
4244
  5
4231
331
41D7
  5
41C1
331
41D3
  5
41BD
331
4201
  5
41EB
331
4240
  5
422D
331
423C
  5
4229
331
4277
  5
4224
331
41CF
  5
41B9
331
41FD
  5
41E7
331
4238
  5
4225
331
41CB
  5
41B5
331
41F9
  5
41E3
331
4234
  5
421F
331
426F
  5
425C
331
4230
  5
421B
331
426B
  5
4258
331
4267
  5
4254
331
41F5
  5
41DF
331
422C
  5
4217
331
4263
  5
4250
331
41F1
  5
41DB
331
4224
  5
420F
331
4ED6
  5
4ED4
331
4ED2
  5
4ED0
331
4220
  5
420B
331
425F
  5
424C
331
425B
  5
4248
331
4ECE
  5
4ECB
331
41EE
  5
41D8
331
421C
  5
4207
331
4218
  5
4203
331
4ECA
  5
4ED7
331
41EA
  5
41D4
331
4257
  5
4244
331
41E6
  5
41D0
331
4214
  5
41FF
331
4253
  5
4240
331
48BA
  5
4ECA
331
41E2
  5
41CC
331
4210
  5
41FB
331
424F
  5
423C
331
424B
  5
4238
331
414F
  5
414F
331
41DE
  5
41C8
331
420C
  5
41F7
331
4208
  5
41F2
331
4652
  5
48BA
331
41DA
  5
41C4
331
4247
  5
4234
331
4204
  5
41EE
331
4243
  5
4230
331
41D6
  5
41C0
331
41D2
  5
41BC
331
4200
  5
41EA
331
423F
  5
422C
331
423B
  5
4228
331
41CE
  5
41B8
331
41FC
  5
41E6
331
41F8
  5
41E2
331
4272
  5
41B2
331
41CA
  5
41B4
331
4237
  5
4223
331
4233
  5
421E
331
426E
  5
425B
331
422F
  5
421A
331
426A
  5
4257
331
422B
  5
4216
331
4266
  5
4253
331
41F4
  5
41DE
331
4262
  5
424F
331
41F0
  5
41DA
  0
XRECORD
  5
51AA
102
{ACAD_REACTORS
330
51A9
102
}
330
51A9
100
AcDbXrecord
280
     1
102
SHADEPLOT
 70
     0
  0
XRECORD
  5
51A3
102
{ACAD_REACTORS
330
51A2
102
}
330
51A2
100
AcDbXrecord
280
     1
 40
1.25
  0
XRECORD
  5
51A4
102
{ACAD_REACTORS
330
51A2
102
}
330
51A2
100
AcDbXrecord
280
     1
 40
1.570796326794896
  0
ACDBDETAILVIEWSTYLE
  5
50B0
102
{ACAD_XDICTIONARY
360
51E2
102
}
102
{ACAD_REACTORS
330
50AF
102
}
330
50AF
100
AcDbModelDocViewStyle
 70
     0
  3
Metric50
290
     0
100
AcDbDetailViewStyle
 70
     0
 71
     0
 90
        3
 71
     1
340
17
 40
5.0
340
0
 40
5.0
300

 40
0.0
280
     1
 71
     2
340
13
 90
       25
 71
     3
340
17
 40
5.0
 90
        0
 40
15.0
 90
        1
300
%<\AcVar ViewDetailId>% (%<\AcVar ViewScale \f "%sn">%)
 71
     4
340
13
 90
       25
340
13
 90
       25
280
     0
  0
GROUP
  5
4ECD
102
{ACAD_REACTORS
330
1A
102
}
330
1A
100
AcDbGroup
300

 70
     0
 71
     1
340
4ECC
340
4ECB
340
4ECA
340
4EC9
  0
GROUP
  5
4ED8
102
{ACAD_REACTORS
330
1A
102
}
330
1A
100
AcDbGroup
300

 70
     0
 71
     1
340
4ED7
340
4ED6
340
4ED5
340
4ED4
340
4ED3
340
4ED2
340
4ED1
340
4ED0
340
4ECF
340
4ECE
  0
GROUP
  5
4BB7
102
{ACAD_REACTORS
330
1A
102
}
330
1A
100
AcDbGroup
300

 70
     1
 71
     1
340
426F
340
426E
340
426D
340
426C
340
426B
340
426A
340
4269
340
4268
340
4267
340
4266
340
4265
340
4264
340
4263
340
4262
340
4261
340
4260
340
425F
340
425E
340
425D
340
425C
340
425B
340
425A
340
4259
340
4258
340
4257
340
4256
340
4255
340
4254
340
4253
340
4252
340
4251
340
4250
340
424F
340
424E
340
424D
340
424C
340
424B
340
424A
340
4249
340
4248
340
4247
340
4246
340
4245
340
4244
340
4243
340
4242
340
4241
340
4240
340
423F
340
423E
340
423D
340
4230
340
4218
340
4217
340
4216
340
4215
340
4203
340
4202
340
4201
340
4200
340
41FF
340
41FE
340
41FD
340
41FC
340
41FB
340
41FA
340
41F9
340
41F8
340
41F7
340
41F6
340
41F5
340
41F4
340
41F2
340
41F0
340
41EF
340
41EE
340
41ED
340
41EC
340
41EB
340
41EA
340
41E9
340
41E8
340
41E7
340
41E6
340
41E4
340
41E3
340
41E2
340
41E1
340
41E0
340
41DF
340
41DE
340
41DD
340
41DC
340
41DB
340
41DA
340
41D9
340
41D8
340
41D7
340
41D6
340
41D5
340
41D4
340
41D3
340
41D2
340
41D1
340
41D0
340
41CF
340
41CE
340
41CD
340
41CC
340
41CB
340
41CA
340
41C9
340
420B
340
420E
340
4213
340
4214
  0
GROUP
  5
4BB8
102
{ACAD_REACTORS
330
1A
102
}
330
1A
100
AcDbGroup
300

 70
     1
 71
     1
340
423C
340
423B
340
423A
340
4239
340
4238
340
4237
340
4236
340
4235
340
4234
340
4233
340
422F
340
422E
340
422D
340
422C
340
422B
340
4224
340
4223
340
4222
340
4221
340
4220
340
421F
340
421E
340
421D
340
421C
340
421B
340
421A
340
4219
340
4212
340
4211
340
4210
340
420F
340
420D
340
420C
340
420A
340
4209
340
4208
340
41F3
340
41F1
  0
GROUP
  5
4678
102
{ACAD_REACTORS
330
1A
102
}
330
1A
100
AcDbGroup
300

 70
     1
 71
     1
340
414D
340
414E
  0
GROUP
  5
468B
102
{ACAD_REACTORS
330
1A
102
}
330
1A
100
AcDbGroup
300

 70
     1
 71
     1
340
414C
340
414F
  0
GROUP
  5
468F
102
{ACAD_REACTORS
330
1A
102
}
330
1A
100
AcDbGroup
300

 70
     1
 71
     1
340
4277
340
4278
340
4232
340
4231
340
4207
340
4206
340
4205
340
4204
  0
LAYOUT
  5
21
102
{ACAD_XDICTIONARY
360
51A7
102
}
102
{ACAD_REACTORS
330
1E
102
}
330
1E
100
AcDbPlotSettings
  1

  2

  4

  6

 40
0.0
 41
0.0
 42
0.0
 43
0.0
 44
0.0
 45
0.0
 46
0.0
 47
0.0
 48
0.0
 49
0.0
140
0.0
141
0.0
142
1.0
143
1.0
 70
     0
 72
     0
 73
     0
 74
     0
  7

 75
     0
147
1.0
148
0.0
149
0.0
100
AcDbLayout
  1
Layout1
 70
     1
 71
     1
 10
0.0
 20
0.0
 11
420.0
 21
297.0
 12
0.0
 22
0.0
 32
0.0
 14
0.0
 24
0.0
 34
0.0
 15
301.680481
 25
116.822281
 35
2.0
146
0.0
 13
0.0
 23
0.0
 33
0.0
 16
1.0
 26
0.0
 36
0.0
 17
0.0
 27
1.0
 37
0.0
 76
     0
330
B
331
32
  0
LAYOUT
  5
20
102
{ACAD_XDICTIONARY
360
51A5
102
}
102
{ACAD_REACTORS
330
1E
102
}
330
1E
100
AcDbPlotSettings
  1

  2

  4

  6

 40
0.0
 41
0.0
 42
0.0
 43
0.0
 44
0.0
 45
0.0
 46
0.0
 47
0.0
 48
0.0
 49
0.0
140
0.0
141
0.0
142
1.0
143
1.0
 70
  1024
 72
     0
 73
     0
 74
     0
  7

 75
     0
147
1.0
148
0.0
149
0.0
100
AcDbLayout
  1
Model
 70
     0
 71
     0
 10
0.0
 20
0.0
 11
0.0
 21
0.0
 12
0.0
 22
0.0
 32
0.0
 14
0.0
 24
0.0
 34
0.0
 15
0.0
 25
0.0
 35
0.0
146
0.0
 13
0.0
 23
0.0
 33
0.0
 16
0.0
 26
0.0
 36
0.0
 17
0.0
 27
0.0
 37
0.0
 76
     0
330
A
331
4D9E
  0
MATERIAL
  5
45CD
102
{ACAD_XDICTIONARY
360
45CE
102
}
102
{ACAD_REACTORS
330
450
102
}
330
450
100
AcDbMaterial
  1
ByBlock
  0
MATERIAL
  5
45D0
102
{ACAD_XDICTIONARY
360
45D1
102
}
102
{ACAD_REACTORS
330
450
102
}
330
450
100
AcDbMaterial
  1
ByLayer
  0
MATERIAL
  5
45D3
102
{ACAD_XDICTIONARY
360
45D4
102
}
102
{ACAD_REACTORS
330
450
102
}
330
450
100
AcDbMaterial
  1
Global
  0
MLEADERSTYLE
  5
4DD1
102
{ACAD_REACTORS
330
4DD0
102
}
330
4DD0
100
AcDbMLeaderStyle
170
     2
171
     1
172
     0
 90
        2
 40
0.0
 41
0.0
173
     1
 91
-1056964608
340
11
 92
       -2
290
     1
 42
2.0
291
     1
 43
0.36
  3
Standard
 44
4.0
300

342
17
174
     1
178
     6
175
     1
176
     0
 93
-1056964608
 45
4.0
292
     0
297
     0
 46
4.0
 94
-1056964608
 47
1.0
 49
1.0
140
1.0
293
     1
141
0.0
294
     1
177
     0
142
1.0
295
     0
296
     0
143
0.125
1001
ACAD_MLEADERVER
1070
     2
  0
MLINESTYLE
  5
1C
102
{ACAD_REACTORS
330
1B
102
}
330
1B
100
AcDbMlineStyle
  2
STANDARD
 70
     0
  3

 62
     0
 51
90.0
 52
90.0
 71
     2
 49
0.5
 62
   256
  6
BYLAYER
 49
-0.5
 62
   256
  6
BYLAYER
  0
ACDBPLACEHOLDER
  5
1D
102
{ACAD_REACTORS
330
1F
102
}
330
1F
  0
SCALE
  5
4DBF
102
{ACAD_REACTORS
330
4DBE
102
}
330
4DBE
100
AcDbScale
 70
     0
300
1:1
140
1.0
141
1.0
290
     1
  0
SCALE
  5
4DC0
102
{ACAD_REACTORS
330
4DBE
102
}
330
4DBE
100
AcDbScale
 70
     0
300
1:2
140
1.0
141
2.0
290
     0
  0
SCALE
  5
4DC1
102
{ACAD_REACTORS
330
4DBE
102
}
330
4DBE
100
AcDbScale
 70
     0
300
1:4
140
1.0
141
4.0
290
     0
  0
SCALE
  5
4DC2
102
{ACAD_REACTORS
330
4DBE
102
}
330
4DBE
100
AcDbScale
 70
     0
300
1:5
140
1.0
141
5.0
290
     0
  0
SCALE
  5
4DC3
102
{ACAD_REACTORS
330
4DBE
102
}
330
4DBE
100
AcDbScale
 70
     0
300
1:8
140
1.0
141
8.0
290
     0
  0
SCALE
  5
4DC4
102
{ACAD_REACTORS
330
4DBE
102
}
330
4DBE
100
AcDbScale
 70
     0
300
1:10
140
1.0
141
10.0
290
     0
  0
SCALE
  5
4DC5
102
{ACAD_REACTORS
330
4DBE
102
}
330
4DBE
100
AcDbScale
 70
     0
300
1:16
140
1.0
141
16.0
290
     0
  0
SCALE
  5
4DC6
102
{ACAD_REACTORS
330
4DBE
102
}
330
4DBE
100
AcDbScale
 70
     0
300
1:20
140
1.0
141
20.0
290
     0
  0
SCALE
  5
4DC7
102
{ACAD_REACTORS
330
4DBE
102
}
330
4DBE
100
AcDbScale
 70
     0
300
1:30
140
1.0
141
30.0
290
     0
  0
SCALE
  5
4DC8
102
{ACAD_REACTORS
330
4DBE
102
}
330
4DBE
100
AcDbScale
 70
     0
300
1:40
140
1.0
141
40.0
290
     0
  0
SCALE
  5
4DC9
102
{ACAD_REACTORS
330
4DBE
102
}
330
4DBE
100
AcDbScale
 70
     0
300
1:50
140
1.0
141
50.0
290
     0
  0
SCALE
  5
4DCA
102
{ACAD_REACTORS
330
4DBE
102
}
330
4DBE
100
AcDbScale
 70
     0
300
1:100
140
1.0
141
100.0
290
     0
  0
SCALE
  5
4DCB
102
{ACAD_REACTORS
330
4DBE
102
}
330
4DBE
100
AcDbScale
 70
     0
300
2:1
140
2.0
141
1.0
290
     0
  0
SCALE
  5
4DCC
102
{ACAD_REACTORS
330
4DBE
102
}
330
4DBE
100
AcDbScale
 70
     0
300
4:1
140
4.0
141
1.0
290
     0
  0
SCALE
  5
4DCD
102
{ACAD_REACTORS
330
4DBE
102
}
330
4DBE
100
AcDbScale
 70
     0
300
8:1
140
8.0
141
1.0
290
     0
  0
SCALE
  5
4DCE
102
{ACAD_REACTORS
330
4DBE
102
}
330
4DBE
100
AcDbScale
 70
     0
300
10:1
140
10.0
141
1.0
290
     0
  0
SCALE
  5
4DCF
102
{ACAD_REACTORS
330
4DBE
102
}
330
4DBE
100
AcDbScale
 70
     0
300
100:1
140
100.0
141
1.0
290
     0
  0
ACDBSECTIONVIEWSTYLE
  5
50AE
102
{ACAD_XDICTIONARY
360
51E0
102
}
102
{ACAD_REACTORS
330
50AD
102
}
330
50AD
100
AcDbModelDocViewStyle
 70
     0
  3
Metric50
290
     0
100
AcDbSectionViewStyle
 70
     0
 71
     0
 90
      102
 71
     1
340
17
 40
5.0
340
0
340
0
 40
5.0
300
I, O, Q, S, X, Z
 40
10.0
 90
        0
 40
2.5
 90
        0
 71
     2
340
13
 90
       25
340
13
 90
       50
 40
5.0
 40
2.5
 40
5.0
 71
     3
340
17
 40
5.0
 90
        0
 40
15.0
 90
        1
300
%<\AcVar ViewSectionStartId>%-%<\AcVar ViewSectionEndId>% (%<\AcVar ViewScale \f "%sn">%)
 71
     4
300
ANSI31
 40
1.0
 90
        0
290
     0
290
     0
 90
        6
 40
0.0
 40
1.570796326794896
 40
0.2617993877991494
 40
1.308996938995747
 40
-0.2617993877991494
 40
1.832595714594045
  0
TABLESTYLE
  5
453
102
{ACAD_XDICTIONARY
360
4E3A
102
}
102
{ACAD_REACTORS
330
452
102
}
330
452
100
AcDbTableStyle
  3
Standard
 70
     0
 71
     0
 40
1.5
 41
1.5
280
     0
281
     0
  7
STANDARD
140
4.5
170
     2
 62
     0
 63
     7
283
     0
274
    -2
284
     1
 64
     0
275
    -2
285
     1
 65
     0
276
    -2
286
     1
 66
     0
277
    -2
287
     1
 67
     0
278
    -2
288
     1
 68
     0
279
    -2
289
     1
 69
     0
  7
STANDARD
140
6.0
170
     5
 62
     0
 63
     7
283
     0
274
    -2
284
     1
 64
     0
275
    -2
285
     1
 65
     0
276
    -2
286
     1
 66
     0
277
    -2
287
     1
 67
     0
278
    -2
288
     1
 68
     0
279
    -2
289
     1
 69
     0
  7
STANDARD
140
4.5
170
     5
 62
     0
 63
     7
283
     0
274
    -2
284
     1
 64
     0
275
    -2
285
     1
 65
     0
276
    -2
286
     1
 66
     0
277
    -2
287
     1
 67
     0
278
    -2
288
     1
 68
     0
279
    -2
289
     1
 69
     0
  0
VISUALSTYLE
  5
4DB0
102
{ACAD_XDICTIONARY
360
51B6
102
}
102
{ACAD_REACTORS
330
4DAA
102
}
330
4DAA
100
AcDbVisualStyle
  2

 70
     4
 71
     0
 72
     2
 73
     0
 90
        0
 40
-0.6
 41
-30.0
 62
     5
 63
     7
 74
     1
 91
        4
 64
     7
 65
   257
 75
     1
175
     1
 42
1.0
 92
        0
 66
   257
 43
1.0
 76
     1
 77
     6
 78
     2
 67
     7
 79
     5
170
     0
171
     0
290
     0
174
     0
 93
        1
 44
0.0
173
     0
291
     0
 45
0.0
1001
ACAD
1000
AcDbSavedByObjectVersion
1070
     0
  0
VISUALSTYLE
  5
4DB2
102
{ACAD_XDICTIONARY
360
51BA
102
}
102
{ACAD_REACTORS
330
4DAA
102
}
330
4DAA
100
AcDbVisualStyle
  2

 70
     6
 71
     1
 72
     2
 73
     2
 90
        0
 40
-0.6
 41
-30.0
 62
     5
 63
     7
 74
     2
 91
        2
 64
     7
 65
   257
 75
     2
175
     1
 42
179.0
 92
        0
 66
   257
 43
1.0
 76
     1
 77
     6
 78
     2
 67
     7
 79
     3
170
     0
171
     0
290
     0
174
     0
 93
        1
 44
0.0
173
     0
291
     0
 45
0.0
1001
ACAD
1000
AcDbSavedByObjectVersion
1070
     0
  0
VISUALSTYLE
  5
4DB1
102
{ACAD_XDICTIONARY
360
51B8
102
}
102
{ACAD_REACTORS
330
4DAA
102
}
330
4DAA
100
AcDbVisualStyle
  2

 70
     5
 71
     0
 72
     2
 73
     0
 90
        0
 40
-0.6
 41
-30.0
 62
     5
 63
     7
 74
     1
 91
        4
 64
     7
 65
   257
 75
     1
175
     1
 42
1.0
 92
        0
 66
   257
 43
1.0
 76
     1
 77
     6
 78
     2
 67
     7
 79
     5
170
     0
171
     0
290
     0
174
     0
 93
        1
 44
0.0
173
     0
291
     0
 45
0.0
1001
ACAD
1000
AcDbSavedByObjectVersion
1070
     0
  0
VISUALSTYLE
  5
4DAF
102
{ACAD_XDICTIONARY
360
51B4
102
}
102
{ACAD_REACTORS
330
4DAA
102
}
330
4DAA
100
AcDbVisualStyle
  2

 70
     7
 71
     1
 72
     0
 73
     1
 90
        0
 40
-0.6
 41
-30.0
 62
     5
 63
     7
 74
     0
 91
        4
 64
     7
 65
   257
 75
     1
175
     1
 42
1.0
 92
        8
 66
     7
 43
1.0
 76
     1
 77
     6
 78
     2
 67
     7
 79
     5
170
     0
171
     0
290
     0
174
     0
 93
        1
 44
0.0
173
     0
291
     1
 45
0.0
1001
ACAD
1000
AcDbSavedByObjectVersion
1070
     0
  0
VISUALSTYLE
  5
4DB6
102
{ACAD_XDICTIONARY
360
51C2
102
}
102
{ACAD_REACTORS
330
4DAA
102
}
330
4DAA
100
AcDbVisualStyle
  2

 70
    12
 71
     2
 72
     2
 73
     0
 90
        0
 40
-0.6
 41
-30.0
 62
     5
 63
     7
 74
     1
 91
        4
 64
     7
 65
   257
 75
     1
175
     1
 42
1.0
 92
        8
 66
     7
 43
1.0
 76
     1
 77
     6
 78
     2
 67
     7
 79
     5
170
     0
171
     0
290
     0
174
     0
 93
        1
 44
50.0
173
     0
291
     1
 45
0.0
1001
ACAD
1000
AcDbSavedByObjectVersion
1070
     0
  0
VISUALSTYLE
  5
4DBA
102
{ACAD_XDICTIONARY
360
51CA
102
}
102
{ACAD_REACTORS
330
4DAA
102
}
330
4DAA
100
AcDbVisualStyle
  2

 70
    16
 71
     2
 72
     2
 73
     3
 90
        0
 40
-0.6
 41
-30.0
 62
     5
 63
     8
 74
     1
 91
        4
 64
     7
 65
   257
 75
     1
175
     1
 42
1.0
 92
        8
 66
     8
 43
1.0
 76
     1
 77
     6
 78
     2
 67
     7
 79
     5
170
     0
171
     0
290
     0
174
     0
 93
        1
 44
0.0
173
     0
291
     1
 45
0.0
1001
ACAD
1000
AcDbSavedByObjectVersion
1070
     0
  0
VISUALSTYLE
  5
4DB3
102
{ACAD_XDICTIONARY
360
51BC
102
}
102
{ACAD_REACTORS
330
4DAA
102
}
330
4DAA
100
AcDbVisualStyle
  2

 70
     9
 71
     3
 72
     2
 73
     0
 90
        0
 40
-0.6
 41
-30.0
 62
     5
 63
     7
 74
     2
 91
        2
 64
     7
 65
   257
 75
     1
175
     1
 42
179.0
 92
        8
 66
     7
 43
1.0
 76
     1
 77
     6
 78
     2
 67
     7
 79
     3
170
     0
171
     0
290
     0
174
     0
 93
        1
 44
0.0
173
     0
291
     0
 45
0.0
1001
ACAD
1000
AcDbSavedByObjectVersion
1070
     0
  0
VISUALSTYLE
  5
4DB5
102
{ACAD_XDICTIONARY
360
51C0
102
}
102
{ACAD_REACTORS
330
4DAA
102
}
330
4DAA
100
AcDbVisualStyle
  2

 70
    11
 71
     2
 72
     2
 73
     0
 90
        0
 40
-0.6
 41
-30.0
 62
     5
 63
     7
 74
     1
 91
        4
 64
     7
 65
   257
 75
     1
175
     1
 42
1.0
 92
        8
 66
     7
 43
1.0
 76
     1
 77
     6
 78
     2
 67
     7
 79
     5
170
     0
171
     0
290
     0
174
     0
 93
        1
 44
-50.0
173
     0
291
     1
 45
0.0
1001
ACAD
1000
AcDbSavedByObjectVersion
1070
     0
  0
VISUALSTYLE
  5
4DBD
102
{ACAD_XDICTIONARY
360
51D0
102
}
102
{ACAD_REACTORS
330
4DAA
102
}
330
4DAA
100
AcDbVisualStyle
  2

 70
    22
 71
     2
 72
     2
 73
     0
 90
        0
 40
-0.6
 41
-30.0
 62
     5
 63
     7
 74
     1
 91
        4
 64
     7
 65
   257
 75
     1
175
     1
 42
1.0
 92
        8
 66
     7
 43
1.0
 76
     1
 77
     6
 78
     2
 67
     7
 79
     5
170
     0
171
     0
290
     0
174
     0
 93
        1
 44
0.0
173
     0
291
     1
 45
0.0
1001
ACAD
1000
AcDbSavedByObjectVersion
1070
     0
  0
VISUALSTYLE
  5
4DB9
102
{ACAD_XDICTIONARY
360
51C8
102
}
102
{ACAD_REACTORS
330
4DAA
102
}
330
4DAA
100
AcDbVisualStyle
  2

 70
    15
 71
     2
 72
     2
 73
     0
 90
        0
 40
-0.6
 41
-30.0
 62
     5
 63
     7
 74
     1
 91
        4
 64
     7
 65
   257
 75
     1
175
     1
 42
1.0
 92
        8
 66
     7
 43
1.0
 76
     1
 77
     6
 78
     2
 67
     7
 79
     5
170
     0
171
     0
290
     0
174
     0
 93
        1
 44
0.0
173
     0
291
     1
 45
0.0
1001
ACAD
1000
AcDbSavedByObjectVersion
1070
     0
  0
VISUALSTYLE
  5
4DAB
102
{ACAD_XDICTIONARY
360
51AC
102
}
102
{ACAD_REACTORS
330
4DAA
102
}
330
4DAA
100
AcDbVisualStyle
  2

 70
     0
 71
     2
 72
     1
 73
     1
 90
        2
 40
-0.6
 41
30.0
 62
     5
 63
     7
 74
     0
 91
        4
 64
     7
 65
   257
 75
     1
175
     1
 42
1.0
 92
        8
 66
     7
 43
1.0
 76
     1
 77
     6
 78
     2
 67
     7
 79
     5
170
     0
171
     0
290
     0
174
     0
 93
       13
 44
0.0
173
     0
291
     1
 45
0.0
1001
ACAD
1000
AcDbSavedByObjectVersion
1070
     0
  0
VISUALSTYLE
  5
4DAC
102
{ACAD_XDICTIONARY
360
51AE
102
}
102
{ACAD_REACTORS
330
4DAA
102
}
330
4DAA
100
AcDbVisualStyle
  2

 70
     1
 71
     2
 72
     1
 73
     1
 90
        2
 40
-0.6
 41
30.0
 62
     5
 63
     7
 74
     1
 91
        4
 64
     7
 65
   257
 75
     1
175
     1
 42
1.0
 92
        0
 66
   257
 43
1.0
 76
     1
 77
     6
 78
     2
 67
     7
 79
     5
170
     0
171
     0
290
     0
174
     0
 93
       13
 44
0.0
173
     0
291
     1
 45
0.0
1001
ACAD
1000
AcDbSavedByObjectVersion
1070
     0
  0
VISUALSTYLE
  5
4DAD
102
{ACAD_XDICTIONARY
360
51B0
102
}
102
{ACAD_REACTORS
330
4DAA
102
}
330
4DAA
100
AcDbVisualStyle
  2

 70
     2
 71
     2
 72
     2
 73
     1
 90
        2
 40
-0.6
 41
30.0
 62
     5
 63
     7
 74
     0
 91
        4
 64
     7
 65
   257
 75
     1
175
     1
 42
1.0
 92
        0
 66
     7
 43
1.0
 76
     1
 77
     6
 78
     2
 67
     7
 79
     5
170
     0
171
     0
290
     0
174
     0
 93
       13
 44
0.0
173
     0
291
     1
 45
0.0
1001
ACAD
1000
AcDbSavedByObjectVersion
1070
     0
  0
VISUALSTYLE
  5
4DAE
102
{ACAD_XDICTIONARY
360
51B2
102
}
102
{ACAD_REACTORS
330
4DAA
102
}
330
4DAA
100
AcDbVisualStyle
  2

 70
     3
 71
     2
 72
     2
 73
     1
 90
        2
 40
-0.6
 41
30.0
 62
     5
 63
     7
 74
     1
 91
        4
 64
     7
 65
   257
 75
     1
175
     1
 42
1.0
 92
        0
 66
   257
 43
1.0
 76
     1
 77
     6
 78
     2
 67
     7
 79
     5
170
     0
171
     0
290
     0
174
     0
 93
       13
 44
0.0
173
     0
291
     1
 45
0.0
1001
ACAD
1000
AcDbSavedByObjectVersion
1070
     0
  0
VISUALSTYLE
  5
50A7
102
{ACAD_XDICTIONARY
360
51D4
102
}
102
{ACAD_REACTORS
330
4DAA
102
}
330
4DAA
100
AcDbVisualStyle
  2

 70
     6
 71
     1
 72
     2
 73
     2
 90
        0
 40
-0.6
 41
-30.0
 62
     5
 63
     7
 74
     2
 91
        2
 64
     7
 65
   257
 75
     2
175
     1
 42
40.0
 92
        0
 66
   257
 43
1.0
 76
     1
 77
     6
 78
     2
 67
     7
 79
     3
170
     0
171
     0
290
     0
174
     0
 93
        1
 44
0.0
173
     0
291
     0
 45
0.0
1001
ACAD
1000
AcDbSavedByObjectVersion
1070
     0
  0
VISUALSTYLE
  5
4DBB
102
{ACAD_XDICTIONARY
360
51CC
102
}
102
{ACAD_REACTORS
330
4DAA
102
}
330
4DAA
100
AcDbVisualStyle
  2

 70
    20
 71
     2
 72
     2
 73
     0
 90
        0
 40
-0.6
 41
-30.0
 62
     5
 63
     7
 74
     1
 91
        4
 64
     7
 65
   257
 75
     1
175
     1
 42
1.0
 92
       10
 66
     7
 43
1.0
 76
     1
 77
     6
 78
     2
 67
     7
 79
     5
170
     0
171
     0
290
     0
174
     0
 93
        1
 44
0.0
173
     0
291
     1
 45
0.0
1001
ACAD
1000
AcDbSavedByObjectVersion
1070
     0
  0
VISUALSTYLE
  5
4DB8
102
{ACAD_XDICTIONARY
360
51C6
102
}
102
{ACAD_REACTORS
330
4DAA
102
}
330
4DAA
100
AcDbVisualStyle
  2

 70
    14
 71
     2
 72
     2
 73
     0
 90
        0
 40
-0.6
 41
-30.0
 62
     5
 63
     7
 74
     1
 91
        4
 64
     7
 65
   257
 75
     7
175
     7
 42
1.0
 92
        8
 66
     7
 43
1.0
 76
     1
 77
     6
 78
     2
 67
     7
 79
     5
170
     0
171
     0
290
     0
174
     0
 93
        1
 44
0.0
173
     0
291
     1
 45
0.0
1001
ACAD
1000
AcDbSavedByObjectVersion
1070
     0
  0
VISUALSTYLE
  5
4DBC
102
{ACAD_XDICTIONARY
360
51CE
102
}
102
{ACAD_REACTORS
330
4DAA
102
}
330
4DAA
100
AcDbVisualStyle
  2

 70
    21
 71
     2
 72
     2
 73
     0
 90
        0
 40
-0.6
 41
-30.0
 62
     5
 63
     7
 74
     1
 91
        4
 64
     7
 65
   257
 75
     1
175
     1
 42
1.0
 92
        9
 66
     7
 43
1.0
 76
     1
 77
     6
 78
     2
 67
     7
 79
     5
170
     0
171
     0
290
     0
174
     0
 93
        1
 44
0.0
173
     0
291
     1
 45
0.0
1001
ACAD
1000
AcDbSavedByObjectVersion
1070
     0
  0
VISUALSTYLE
  5
4DB4
102
{ACAD_XDICTIONARY
360
51BE
102
}
102
{ACAD_REACTORS
330
4DAA
102
}
330
4DAA
100
AcDbVisualStyle
  2

 70
     8
 71
     2
 72
     2
 73
     0
 90
        0
 40
-0.6
 41
-30.0
 62
     5
 63
     7
 74
     1
 91
        0
 64
     7
 65
   257
 75
     1
175
     1
 42
1.0
 92
        8
 66
     8
 43
1.0
 76
     1
 77
     6
 78
     2
 67
     7
 79
     5
170
     0
171
     0
290
     0
174
     0
 93
       13
 44
0.0
173
     0
291
     0
 45
0.0
1001
ACAD
1000
AcDbSavedByObjectVersion
1070
     0
  0
VISUALSTYLE
  5
50AC
102
{ACAD_XDICTIONARY
360
51DE
102
}
102
{ACAD_REACTORS
330
4DAA
102
}
330
4DAA
100
AcDbVisualStyle
  2

 70
    27
 71
     2
 72
     2
 73
     1
 90
        2
 40
-0.6
 41
30.0
 62
     5
 63
     7
 74
     0
 91
        4
 64
     7
 65
   257
 75
     1
175
     1
 42
1.0
 92
        8
 66
   257
 43
1.0
 76
     1
 77
     6
 78
     2
 67
     8
 79
     3
170
     0
171
     0
290
     0
174
     0
 93
        5
 44
0.0
173
     0
291
     0
 45
0.0
1001
ACAD
1000
AcDbSavedByObjectVersion
1070
     0
  0
VISUALSTYLE
  5
50AB
102
{ACAD_XDICTIONARY
360
51DC
102
}
102
{ACAD_REACTORS
330
4DAA
102
}
330
4DAA
100
AcDbVisualStyle
  2

 70
    26
 71
     2
 72
     2
 73
     1
 90
        2
 40
-0.6
 41
30.0
 62
     5
 63
     7
 74
     1
 91
       10
 64
     7
 65
   257
 75
     2
175
     1
 42
1.0
 92
        8
 66
   257
 43
1.0
 76
     1
 77
     6
 78
     2
 67
     7
 79
     3
170
     0
171
     0
290
     0
174
     0
 93
        5
 44
0.0
173
     0
291
     0
 45
0.0
1001
ACAD
1000
AcDbSavedByObjectVersion
1070
     0
  0
VISUALSTYLE
  5
50A8
102
{ACAD_XDICTIONARY
360
51D6
102
}
102
{ACAD_REACTORS
330
4DAA
102
}
330
4DAA
100
AcDbVisualStyle
  2

 70
    23
 71
     2
 72
     2
 73
     3
 90
        0
 40
-0.6
 41
-30.0
 62
     5
 63
     7
 74
     2
 91
        2
 64
     7
 65
     7
 75
     1
175
     1
 42
40.0
 92
        8
 66
     7
 43
1.0
 76
     1
 77
     6
 78
     2
 67
     7
 79
     3
170
     0
171
     0
290
     0
174
     0
 93
        1
 44
0.0
173
     0
291
     0
 45
0.0
1001
ACAD
1000
AcDbSavedByObjectVersion
1070
     0
  0
VISUALSTYLE
  5
50A9
102
{ACAD_XDICTIONARY
360
51D8
102
}
102
{ACAD_REACTORS
330
4DAA
102
}
330
4DAA
100
AcDbVisualStyle
  2

 70
    24
 71
     1
 72
     2
 73
     2
 90
        0
 40
-0.6
 41
-30.0
 62
     5
 63
     7
 74
     2
 91
        2
 64
     7
 65
     7
 75
     1
175
     1
 42
40.0
 92
       11
 66
     7
 43
1.0
 76
     1
 77
     6
 78
     2
 67
     7
 79
     6
170
     0
171
     0
290
     0
174
     0
 93
        1
 44
0.0
173
     0
291
     0
 45
0.0
1001
ACAD
1000
AcDbSavedByObjectVersion
1070
     0
  0
VISUALSTYLE
  5
4DB7
102
{ACAD_XDICTIONARY
360
51C4
102
}
102
{ACAD_REACTORS
330
4DAA
102
}
330
4DAA
100
AcDbVisualStyle
  2

 70
    13
 71
     2
 72
     2
 73
     0
 90
        0
 40
-0.6
 41
-30.0
 62
     5
 63
     7
 74
     1
 91
        4
 64
     7
 65
   257
 75
     1
175
     1
 42
1.0
 92
       12
 66
     7
 43
1.0
 76
     1
 77
     6
 78
     2
 67
     7
 79
     5
170
     0
171
     0
290
     0
174
     0
 93
        1
 44
0.0
173
     0
291
     1
 45
0.0
1001
ACAD
1000
AcDbSavedByObjectVersion
1070
     0
  0
VISUALSTYLE
  5
50A6
102
{ACAD_XDICTIONARY
360
51D2
102
}
102
{ACAD_REACTORS
330
4DAA
102
}
330
4DAA
100
AcDbVisualStyle
  2

 70
     5
 71
     0
 72
     2
 73
     0
 90
        0
 40
-0.6
 41
-30.0
 62
     5
 63
     7
 74
     1
 91
        4
 64
     7
 65
   257
 75
     1
175
     1
 42
1.0
 92
        0
 66
   257
 43
1.0
 76
     1
 77
     6
 78
     2
 67
     7
 79
     3
170
     0
171
     0
290
     0
174
     0
 93
        1
 44
0.0
173
     0
291
     0
 45
0.0
1001
ACAD
1000
AcDbSavedByObjectVersion
1070
     0
  0
VISUALSTYLE
  5
50AA
102
{ACAD_XDICTIONARY
360
51DA
102
}
102
{ACAD_REACTORS
330
4DAA
102
}
330
4DAA
100
AcDbVisualStyle
  2

 70
    25
 71
     2
 72
     2
 73
     1
 90
        1
 40
0.5
 41
-30.0
 62
     5
 63
     7
 74
     1
 91
        0
 64
     7
 65
   257
 75
     1
175
     1
 42
1.0
 92
        8
 66
     7
 43
1.0
 76
     1
 77
     6
 78
     2
 67
     7
 79
     3
170
     0
171
     0
290
     0
174
     0
 93
       13
 44
0.0
173
     0
291
     0
 45
0.0
1001
ACAD
1000
AcDbSavedByObjectVersion
1070
     0
  0
DICTIONARYVAR
  5
519A
102
{ACAD_REACTORS
330
5195
102
}
330
5195
100
DictionaryVariables
280
     0
  1
1:1
  0
DICTIONARYVAR
  5
5197
102
{ACAD_REACTORS
330
5195
102
}
330
5195
100
DictionaryVariables
280
     0
  1
STANDARD
  0
DICTIONARYVAR
  5
5196
102
{ACAD_REACTORS
330
5195
102
}
330
5195
100
DictionaryVariables
280
     0
  1
STANDARD
  0
DICTIONARYVAR
  5
5198
102
{ACAD_REACTORS
330
5195
102
}
330
5195
100
DictionaryVariables
280
     0
  1
METRIC50
  0
DICTIONARYVAR
  5
5199
102
{ACAD_REACTORS
330
5195
102
}
330
5195
100
DictionaryVariables
280
     0
  1
METRIC50
  0
DICTIONARYVAR
  5
519E
102
{ACAD_REACTORS
330
5195
102
}
330
5195
100
DictionaryVariables
280
     0
  1
1
  0
DICTIONARYVAR
  5
519C
102
{ACAD_REACTORS
330
5195
102
}
330
5195
100
DictionaryVariables
280
     0
  1
0
  0
DICTIONARYVAR
  5
519B
102
{ACAD_REACTORS
330
5195
102
}
330
5195
100
DictionaryVariables
280
     0
  1
127
  0
DICTIONARYVAR
  5
519D
102
{ACAD_REACTORS
330
5195
102
}
330
5195
100
DictionaryVariables
280
     0
  1
0
  0
XRECORD
  5
4EBD
102
{ACAD_XDICTIONARY
360
4EBE
102
}
102
{ACAD_REACTORS
330
45D6
102
}
330
45D6
100
AcDbXrecord
280
     1
 91
      535
301

290
     0
302
0
330
3D4E
 90
        8
 62
     4
370
    50
331
13
390
1D
330
466
 90
        8
 62
     5
370
    -3
331
13
390
1D
330
462
 90
        8
 62
     7
370
    25
331
13
390
1D
330
461
 90
        8
 62
     4
370
    50
331
13
390
1D
330
460
 90
        8
 62
     7
370
    -3
331
13
390
1D
330
45F
 90
        8
 62
     9
370
    18
331
13
390
1D
330
45E
 90
        0
 62
     7
370
    25
331
13
390
1D
330
45D
 90
        8
 62
     1
370
    25
331
13
390
1D
330
459
 90
        8
 62
     2
370
    25
331
45C
390
1D
330
458
 90
        8
 62
     7
370
    25
331
13
390
1D
330
456
 90
        8
 62
     4
370
    50
331
13
390
1D
330
14
 90
        8
 62
     7
370
    -3
331
13
390
1D
  0
DICTIONARY
  5
51E2
330
50B0
100
AcDbDictionary
280
     1
281
     1
  3
ACAD_XREC_ROUNDTRIP
360
51E3
  0
DICTIONARY
  5
51A7
330
21
100
AcDbDictionary
280
     1
281
     1
  3
ACAD_XREC_ROUNDTRIP
360
51A8
  0
DICTIONARY
  5
51A5
330
20
100
AcDbDictionary
280
     1
281
     1
  3
ACAD_XREC_ROUNDTRIP
360
51A6
  0
DICTIONARY
  5
45CE
330
45CD
100
AcDbDictionary
280
     1
281
     1
  3
ACAD_XREC_ROUNDTRIP
360
45CF
  0
DICTIONARY
  5
45D1
330
45D0
100
AcDbDictionary
280
     1
281
     1
  3
ACAD_XREC_ROUNDTRIP
360
45D2
  0
DICTIONARY
  5
45D4
330
45D3
100
AcDbDictionary
280
     1
281
     1
  3
ACAD_XREC_ROUNDTRIP
360
45D5
  0
DICTIONARY
  5
51E0
330
50AE
100
AcDbDictionary
280
     1
281
     1
  3
ACAD_XREC_ROUNDTRIP
360
51E1
  0
DICTIONARY
  5
4E3A
330
453
100
AcDbDictionary
280
     1
281
     1
  3
ACAD_ROUNDTRIP_2008_TABLESTYLE_CELLSTYLEMAP
360
519F
  3
ACAD_XREC_ROUNDTRIP
360
51AB
  0
DICTIONARY
  5
51B6
330
4DB0
100
AcDbDictionary
280
     1
281
     1
  3
ACAD_XREC_ROUNDTRIP
360
51B7
  0
DICTIONARY
  5
51BA
330
4DB2
100
AcDbDictionary
280
     1
281
     1
  3
ACAD_XREC_ROUNDTRIP
360
51BB
  0
DICTIONARY
  5
51B8
330
4DB1
100
AcDbDictionary
280
     1
281
     1
  3
ACAD_XREC_ROUNDTRIP
360
51B9
  0
DICTIONARY
  5
51B4
330
4DAF
100
AcDbDictionary
280
     1
281
     1
  3
ACAD_XREC_ROUNDTRIP
360
51B5
  0
DICTIONARY
  5
51C2
330
4DB6
100
AcDbDictionary
280
     1
281
     1
  3
ACAD_XREC_ROUNDTRIP
360
51C3
  0
DICTIONARY
  5
51CA
330
4DBA
100
AcDbDictionary
280
     1
281
     1
  3
ACAD_XREC_ROUNDTRIP
360
51CB
  0
DICTIONARY
  5
51BC
330
4DB3
100
AcDbDictionary
280
     1
281
     1
  3
ACAD_XREC_ROUNDTRIP
360
51BD
  0
DICTIONARY
  5
51C0
330
4DB5
100
AcDbDictionary
280
     1
281
     1
  3
ACAD_XREC_ROUNDTRIP
360
51C1
  0
DICTIONARY
  5
51D0
330
4DBD
100
AcDbDictionary
280
     1
281
     1
  3
ACAD_XREC_ROUNDTRIP
360
51D1
  0
DICTIONARY
  5
51C8
330
4DB9
100
AcDbDictionary
280
     1
281
     1
  3
ACAD_XREC_ROUNDTRIP
360
51C9
  0
DICTIONARY
  5
51AC
330
4DAB
100
AcDbDictionary
280
     1
281
     1
  3
ACAD_XREC_ROUNDTRIP
360
51AD
  0
DICTIONARY
  5
51AE
330
4DAC
100
AcDbDictionary
280
     1
281
     1
  3
ACAD_XREC_ROUNDTRIP
360
51AF
  0
DICTIONARY
  5
51B0
330
4DAD
100
AcDbDictionary
280
     1
281
     1
  3
ACAD_XREC_ROUNDTRIP
360
51B1
  0
DICTIONARY
  5
51B2
330
4DAE
100
AcDbDictionary
280
     1
281
     1
  3
ACAD_XREC_ROUNDTRIP
360
51B3
  0
DICTIONARY
  5
51D4
330
50A7
100
AcDbDictionary
280
     1
281
     1
  3
ACAD_XREC_ROUNDTRIP
360
51D5
  0
DICTIONARY
  5
51CC
330
4DBB
100
AcDbDictionary
280
     1
281
     1
  3
ACAD_XREC_ROUNDTRIP
360
51CD
  0
DICTIONARY
  5
51C6
330
4DB8
100
AcDbDictionary
280
     1
281
     1
  3
ACAD_XREC_ROUNDTRIP
360
51C7
  0
DICTIONARY
  5
51CE
330
4DBC
100
AcDbDictionary
280
     1
281
     1
  3
ACAD_XREC_ROUNDTRIP
360
51CF
  0
DICTIONARY
  5
51BE
330
4DB4
100
AcDbDictionary
280
     1
281
     1
  3
ACAD_XREC_ROUNDTRIP
360
51BF
  0
DICTIONARY
  5
51DE
330
50AC
100
AcDbDictionary
280
     1
281
     1
  3
ACAD_XREC_ROUNDTRIP
360
51DF
  0
DICTIONARY
  5
51DC
330
50AB
100
AcDbDictionary
280
     1
281
     1
  3
ACAD_XREC_ROUNDTRIP
360
51DD
  0
DICTIONARY
  5
51D6
330
50A8
100
AcDbDictionary
280
     1
281
     1
  3
ACAD_XREC_ROUNDTRIP
360
51D7
  0
DICTIONARY
  5
51D8
330
50A9
100
AcDbDictionary
280
     1
281
     1
  3
ACAD_XREC_ROUNDTRIP
360
51D9
  0
DICTIONARY
  5
51C4
330
4DB7
100
AcDbDictionary
280
     1
281
     1
  3
ACAD_XREC_ROUNDTRIP
360
51C5
  0
DICTIONARY
  5
51D2
330
50A6
100
AcDbDictionary
280
     1
281
     1
  3
ACAD_XREC_ROUNDTRIP
360
51D3
  0
DICTIONARY
  5
51DA
330
50AA
100
AcDbDictionary
280
     1
281
     1
  3
ACAD_XREC_ROUNDTRIP
360
51DB
  0
DICTIONARY
  5
4EBE
330
4EBD
100
AcDbDictionary
280
     1
281
     1
  3
AcadLayerStateAnnoScale
360
4EBF
  0
XRECORD
  5
51E3
102
{ACAD_REACTORS
330
51E2
102
}
330
51E2
100
AcDbXrecord
280
     1
102
DISPLAYNAME
  1
METRIC50
102
FLAGS
 90
        0
  0
XRECORD
  5
51A8
102
{ACAD_REACTORS
330
51A7
102
}
330
51A7
100
AcDbXrecord
280
     1
102
SHADEPLOT
 70
     0
102
SHADEPLOTRESLEVEL
 70
     2
102
SHADEPLOTCUSTOMDPI
 70
   300
  0
XRECORD
  5
51A6
102
{ACAD_REACTORS
330
51A5
102
}
330
51A5
100
AcDbXrecord
280
     1
102
SHADEPLOT
 70
     0
102
SHADEPLOTRESLEVEL
 70
     2
102
SHADEPLOTCUSTOMDPI
 70
   300
  0
XRECORD
  5
45CF
102
{ACAD_REACTORS
330
45CE
102
}
330
45CE
100
AcDbXrecord
280
     1
102
MATERIAL
148
0.0
149
0.0
149
0.0
 93
        0
 94
      127
282
     0
 72
     1
 77
     1
171
     1
175
     1
179
     1
273
     0
  0
XRECORD
  5
45D2
102
{ACAD_REACTORS
330
45D1
102
}
330
45D1
100
AcDbXrecord
280
     1
102
MATERIAL
148
0.0
149
0.0
149
0.0
 93
        0
 94
      127
282
     0
 72
     1
 77
     1
171
     1
175
     1
179
     1
273
     0
  0
XRECORD
  5
45D5
102
{ACAD_REACTORS
330
45D4
102
}
330
45D4
100
AcDbXrecord
280
     1
102
MATERIAL
148
0.0
149
0.0
149
0.0
 93
        0
 94
      127
282
     0
 72
     1
 77
     1
171
     1
175
     1
179
     1
273
     0
  0
XRECORD
  5
51E1
102
{ACAD_REACTORS
330
51E0
102
}
330
51E0
100
AcDbXrecord
280
     1
102
DISPLAYNAME
  1
METRIC50
102
FLAGS
 90
        0
  0
CELLSTYLEMAP
  5
519F
102
{ACAD_REACTORS
330
4E3A
102
}
330
4E3A
100
AcDbCellStyleMap
 90
        3
300
CELLSTYLE
  1
TABLEFORMAT_BEGIN
 90
        5
170
     1
 91
        0
 92
    32768
 62
   257
 93
        1
300
CONTENTFORMAT
  1
CONTENTFORMAT_BEGIN
 90
        0
 91
        0
 92
        4
 93
        0
300

 40
0.0
140
1.0
 94
        5
 62
     0
340
17
144
6.0
309
CONTENTFORMAT_END
171
     1
301
MARGIN
  1
CELLMARGIN_BEGIN
 40
1.5
 40
1.5
 40
1.5
 40
1.5
 40
0.18
 40
0.18
309
CELLMARGIN_END
 94
        6
 95
        1
302
GRIDFORMAT
  1
GRIDFORMAT_BEGIN
 90
        0
 91
        1
 62
     0
 92
       -2
340
0
 93
        0
 40
0.045
309
GRIDFORMAT_END
 95
        2
302
GRIDFORMAT
  1
GRIDFORMAT_BEGIN
 90
        0
 91
        1
 62
     0
 92
       -2
340
0
 93
        0
 40
0.045
309
GRIDFORMAT_END
 95
        4
302
GRIDFORMAT
  1
GRIDFORMAT_BEGIN
 90
        0
 91
        1
 62
     0
 92
       -2
340
0
 93
        0
 40
0.045
309
GRIDFORMAT_END
 95
        8
302
GRIDFORMAT
  1
GRIDFORMAT_BEGIN
 90
        0
 91
        1
 62
     0
 92
       -2
340
0
 93
        0
 40
0.045
309
GRIDFORMAT_END
 95
       16
302
GRIDFORMAT
  1
GRIDFORMAT_BEGIN
 90
        0
 91
        1
 62
     0
 92
       -2
340
0
 93
        0
 40
0.045
309
GRIDFORMAT_END
 95
       32
302
GRIDFORMAT
  1
GRIDFORMAT_BEGIN
 90
        0
 91
        1
 62
     0
 92
       -2
340
0
 93
        0
 40
0.045
309
GRIDFORMAT_END
309
TABLEFORMAT_END
  1
CELLSTYLE_BEGIN
 90
        1
 91
        1
300
_TITLE
309
CELLSTYLE_END
300
CELLSTYLE
  1
TABLEFORMAT_BEGIN
 90
        5
170
     1
 91
        0
 92
        0
 62
   257
 93
        1
300
CONTENTFORMAT
  1
CONTENTFORMAT_BEGIN
 90
        0
 91
        0
 92
        4
 93
        0
300

 40
0.0
140
1.0
 94
        5
 62
     0
340
17
144
4.5
309
CONTENTFORMAT_END
171
     1
301
MARGIN
  1
CELLMARGIN_BEGIN
 40
1.5
 40
1.5
 40
1.5
 40
1.5
 40
0.18
 40
0.18
309
CELLMARGIN_END
 94
        6
 95
        1
302
GRIDFORMAT
  1
GRIDFORMAT_BEGIN
 90
        0
 91
        1
 62
     0
 92
       -2
340
0
 93
        0
 40
0.045
309
GRIDFORMAT_END
 95
        2
302
GRIDFORMAT
  1
GRIDFORMAT_BEGIN
 90
        0
 91
        1
 62
     0
 92
       -2
340
0
 93
        0
 40
0.045
309
GRIDFORMAT_END
 95
        4
302
GRIDFORMAT
  1
GRIDFORMAT_BEGIN
 90
        0
 91
        1
 62
     0
 92
       -2
340
0
 93
        0
 40
0.045
309
GRIDFORMAT_END
 95
        8
302
GRIDFORMAT
  1
GRIDFORMAT_BEGIN
 90
        0
 91
        1
 62
     0
 92
       -2
340
0
 93
        0
 40
0.045
309
GRIDFORMAT_END
 95
       16
302
GRIDFORMAT
  1
GRIDFORMAT_BEGIN
 90
        0
 91
        1
 62
     0
 92
       -2
340
0
 93
        0
 40
0.045
309
GRIDFORMAT_END
 95
       32
302
GRIDFORMAT
  1
GRIDFORMAT_BEGIN
 90
        0
 91
        1
 62
     0
 92
       -2
340
0
 93
        0
 40
0.045
309
GRIDFORMAT_END
309
TABLEFORMAT_END
  1
CELLSTYLE_BEGIN
 90
        2
 91
        1
300
_HEADER
309
CELLSTYLE_END
300
CELLSTYLE
  1
TABLEFORMAT_BEGIN
 90
        5
170
     1
 91
        0
 92
        0
 62
   257
 93
        1
300
CONTENTFORMAT
  1
CONTENTFORMAT_BEGIN
 90
        0
 91
        0
 92
        4
 93
        0
300

 40
0.0
140
1.0
 94
        2
 62
     0
340
17
144
4.5
309
CONTENTFORMAT_END
171
     1
301
MARGIN
  1
CELLMARGIN_BEGIN
 40
1.5
 40
1.5
 40
1.5
 40
1.5
 40
0.18
 40
0.18
309
CELLMARGIN_END
 94
        6
 95
        1
302
GRIDFORMAT
  1
GRIDFORMAT_BEGIN
 90
        0
 91
        1
 62
     0
 92
       -2
340
0
 93
        0
 40
0.045
309
GRIDFORMAT_END
 95
        2
302
GRIDFORMAT
  1
GRIDFORMAT_BEGIN
 90
        0
 91
        1
 62
     0
 92
       -2
340
0
 93
        0
 40
0.045
309
GRIDFORMAT_END
 95
        4
302
GRIDFORMAT
  1
GRIDFORMAT_BEGIN
 90
        0
 91
        1
 62
     0
 92
       -2
340
0
 93
        0
 40
0.045
309
GRIDFORMAT_END
 95
        8
302
GRIDFORMAT
  1
GRIDFORMAT_BEGIN
 90
        0
 91
        1
 62
     0
 92
       -2
340
0
 93
        0
 40
0.045
309
GRIDFORMAT_END
 95
       16
302
GRIDFORMAT
  1
GRIDFORMAT_BEGIN
 90
        0
 91
        1
 62
     0
 92
       -2
340
0
 93
        0
 40
0.045
309
GRIDFORMAT_END
 95
       32
302
GRIDFORMAT
  1
GRIDFORMAT_BEGIN
 90
        0
 91
        1
 62
     0
 92
       -2
340
0
 93
        0
 40
0.045
309
GRIDFORMAT_END
309
TABLEFORMAT_END
  1
CELLSTYLE_BEGIN
 90
        3
 91
        2
300
_DATA
309
CELLSTYLE_END
  0
XRECORD
  5
51AB
102
{ACAD_REACTORS
330
4E3A
102
}
330
4E3A
100
AcDbXrecord
280
     1
102
ACAD_ROUNDTRIP_PRE2007_TABLESTYLE
 90
        4
 91
        0
  1

 92
        4
 93
        0
  2

 94
        4
 95
        0
  3

  0
XRECORD
  5
51B7
102
{ACAD_REACTORS
330
51B6
102
}
330
51B6
100
AcDbXrecord
280
     1
102
RTVSPost2010Prop28
280
     1
102
RTVSPost2010PropOp28
 70
     1
102
RTVSPost2010Prop29
280
     1
102
RTVSPost2010PropOp29
 70
     1
102
RTVSPost2010Prop30
280
     0
102
RTVSPost2010PropOp30
 70
     1
102
RTVSPost2010Prop31
280
     0
102
RTVSPost2010PropOp31
 70
     1
102
RTVSPost2010Prop32
280
     0
102
RTVSPost2010PropOp32
 70
     1
102
RTVSPost2010Prop33
280
     0
102
RTVSPost2010PropOp33
 70
     1
102
RTVSPost2010Prop34
280
     0
102
RTVSPost2010PropOp34
 70
     1
102
RTVSPost2010Prop35
280
     0
102
RTVSPost2010PropOp35
 70
     1
102
RTVSPost2010Prop36
280
     0
102
RTVSPost2010PropOp36
 70
     1
102
RTVSPost2010Prop37
 90
       50
102
RTVSPost2010PropOp37
 70
     1
102
RTVSPost2010Prop38
140
0.0
102
RTVSPost2010PropOp38
 70
     1
102
RTVSPost2010Prop39
140
1.0
102
RTVSPost2010PropOp39
 70
     1
102
RTVSPost2010Prop40
 90
        0
102
RTVSPost2010PropOp40
 70
     1
102
RTVSPost2010Prop41ColorIndex
 90
       18
102
RTVSPost2010Prop41ColorRGB
 90
        0
102
RTVSPost2010PropOp41
 70
     1
102
RTVSPost2010Prop42
 90
       50
102
RTVSPost2010PropOp42
 70
     1
102
RTVSPost2010Prop43
 90
        3
102
RTVSPost2010PropOp43
 70
     1
102
RTVSPost2010Prop44ColorIndex
 90
        5
102
RTVSPost2010Prop44ColorRGB
 90
      255
102
RTVSPost2010PropOp44
 70
     1
102
RTVSPost2010Prop45
280
     0
102
RTVSPost2010PropOp45
 70
     1
102
RTVSPost2010Prop46
 90
       50
102
RTVSPost2010PropOp46
 70
     1
102
RTVSPost2010Prop47
 90
       50
102
RTVSPost2010PropOp47
 70
     1
102
RTVSPost2010Prop48
 90
       50
102
RTVSPost2010PropOp48
 70
     1
102
RTVSPost2010Prop49
280
     0
102
RTVSPost2010PropOp49
 70
     1
102
RTVSPost2010Prop50
 90
       50
102
RTVSPost2010PropOp50
 70
     1
102
RTVSPost2010Prop51ColorIndex
 90
      256
102
RTVSPost2010Prop51ColorRGB
 90
-16777216
102
RTVSPost2010PropOp51
 70
     0
102
RTVSPost2010Prop52
140
1.0
102
RTVSPost2010PropOp52
 70
     0
102
RTVSPost2010Prop53
 90
        2
102
RTVSPost2010PropOp53
 70
     1
102
RTVSPost2010Prop54
  1
strokes_ogs.tif
102
RTVSPost2010PropOp54
 70
     1
102
RTVSPost2010Prop55
280
     0
102
RTVSPost2010PropOp55
 70
     1
102
RTVSPost2010Prop56
140
1.0
102
RTVSPost2010PropOp56
 70
     1
102
RTVSPost2010Prop57
140
1.0
102
RTVSPost2010PropOp57
 70
     1
102
RTVSPropertyOp0
 70
     1
102
RTVSPropertyOp1
 70
     1
102
RTVSPropertyOp2
 70
     1
102
RTVSPropertyOp3
 70
     1
102
RTVSPropertyOp4
 70
     1
102
RTVSPropertyOp5
 70
     1
102
RTVSPropertyOp6
 70
     1
102
RTVSPropertyOp7
 70
     1
102
RTVSPropertyOp8
 70
     1
102
RTVSPropertyOp9
 70
     1
102
RTVSPropertyOp10
 70
     1
102
RTVSPropertyOp11
 70
     1
102
RTVSPropertyOp12
 70
     1
102
RTVSPropertyOp13
 70
     1
102
RTVSPropertyOp14
 70
     1
102
RTVSPropertyOp15
 70
     1
102
RTVSPropertyOp16
 70
     1
102
RTVSPropertyOp17
 70
     1
102
RTVSPropertyOp18
 70
     1
102
RTVSPropertyOp19
 70
     1
102
RTVSPropertyOp20
 70
     1
102
RTVSPropertyOp21
 70
     1
102
RTVSPropertyOp22
 70
     1
102
RTVSPropertyOp23
 70
     1
102
RTVSPropertyOp24
 70
     1
102
RTVSPropertyOp25
 70
     1
102
RTVSPropertyOp26
 70
     1
102
RTVSPropertyOp27
 70
     1
102
RTVSPropertyOp28
 70
     1
102
RTVSPropertyOp29
 70
     1
102
RTVSPropertyOp30
 70
     1
102
RTVSPropertyOp31
 70
     1
102
RTVSPropertyOp32
 70
     1
102
RTVSPropertyOp33
 70
     1
102
RTVSPropertyOp34
 70
     1
102
RTVSPropertyOp35
 70
     1
102
RTVSPropertyOp36
 70
     1
102
RTVSPropertyOp37
 70
     1
102
RTVSPropertyOp38
 70
     1
102
RTVSPropertyOp39
 70
     1
102
RTVSPropertyOp40
 70
     1
102
RTVSPropertyOp41
 70
     1
102
RTVSPropertyOp42
 70
     1
102
RTVSPropertyOp43
 70
     1
102
RTVSPropertyOp44
 70
     1
102
RTVSPropertyOp45
 70
     1
102
RTVSPropertyOp46
 70
     1
102
RTVSPropertyOp47
 70
     1
102
RTVSPropertyOp48
 70
     1
102
RTVSPropertyOp49
 70
     1
102
RTVSPropertyOp50
 70
     1
102
RTVSPropertyOp51
 70
     0
102
RTVSPropertyOp52
 70
     0
102
RTVSPropertyOp53
 70
     1
102
RTVSPropertyOp54
 70
     1
102
RTVSPropertyOp55
 70
     1
102
RTVSPropertyOp56
 70
     1
102
RTVSPropertyOp57
 70
     1
102
RTVSPropertyOp58
 70
     1
102
RTVSPropertyOp59
 70
     1
102
RTVSPropertyOp60
 70
     1
102
RTVSPropertyOp61
 70
     1
102
RTVSPropertyOp62
 70
     1
  0
XRECORD
  5
51BB
102
{ACAD_REACTORS
330
51BA
102
}
330
51BA
100
AcDbXrecord
280
     1
102
RTVSPost2010Prop28
280
     0
102
RTVSPost2010PropOp28
 70
     1
102
RTVSPost2010Prop29
280
     1
102
RTVSPost2010PropOp29
 70
     1
102
RTVSPost2010Prop30
280
     1
102
RTVSPost2010PropOp30
 70
     1
102
RTVSPost2010Prop31
280
     0
102
RTVSPost2010PropOp31
 70
     1
102
RTVSPost2010Prop32
280
     0
102
RTVSPost2010PropOp32
 70
     1
102
RTVSPost2010Prop33
280
     0
102
RTVSPost2010PropOp33
 70
     1
102
RTVSPost2010Prop34
280
     0
102
RTVSPost2010PropOp34
 70
     1
102
RTVSPost2010Prop35
280
     0
102
RTVSPost2010PropOp35
 70
     1
102
RTVSPost2010Prop36
280
     0
102
RTVSPost2010PropOp36
 70
     1
102
RTVSPost2010Prop37
 90
       50
102
RTVSPost2010PropOp37
 70
     1
102
RTVSPost2010Prop38
140
0.0
102
RTVSPost2010PropOp38
 70
     1
102
RTVSPost2010Prop39
140
1.0
102
RTVSPost2010PropOp39
 70
     1
102
RTVSPost2010Prop40
 90
        0
102
RTVSPost2010PropOp40
 70
     1
102
RTVSPost2010Prop41ColorIndex
 90
       18
102
RTVSPost2010Prop41ColorRGB
 90
        0
102
RTVSPost2010PropOp41
 70
     1
102
RTVSPost2010Prop42
 90
       50
102
RTVSPost2010PropOp42
 70
     1
102
RTVSPost2010Prop43
 90
        3
102
RTVSPost2010PropOp43
 70
     1
102
RTVSPost2010Prop44ColorIndex
 90
        5
102
RTVSPost2010Prop44ColorRGB
 90
      255
102
RTVSPost2010PropOp44
 70
     1
102
RTVSPost2010Prop45
280
     0
102
RTVSPost2010PropOp45
 70
     1
102
RTVSPost2010Prop46
 90
       50
102
RTVSPost2010PropOp46
 70
     1
102
RTVSPost2010Prop47
 90
       50
102
RTVSPost2010PropOp47
 70
     1
102
RTVSPost2010Prop48
 90
       50
102
RTVSPost2010PropOp48
 70
     1
102
RTVSPost2010Prop49
280
     0
102
RTVSPost2010PropOp49
 70
     1
102
RTVSPost2010Prop50
 90
       50
102
RTVSPost2010PropOp50
 70
     1
102
RTVSPost2010Prop51ColorIndex
 90
      256
102
RTVSPost2010Prop51ColorRGB
 90
-16777216
102
RTVSPost2010PropOp51
 70
     0
102
RTVSPost2010Prop52
140
1.0
102
RTVSPost2010PropOp52
 70
     0
102
RTVSPost2010Prop53
 90
        2
102
RTVSPost2010PropOp53
 70
     1
102
RTVSPost2010Prop54
  1
strokes_ogs.tif
102
RTVSPost2010PropOp54
 70
     1
102
RTVSPost2010Prop55
280
     0
102
RTVSPost2010PropOp55
 70
     1
102
RTVSPost2010Prop56
140
1.0
102
RTVSPost2010PropOp56
 70
     1
102
RTVSPost2010Prop57
140
1.0
102
RTVSPost2010PropOp57
 70
     1
102
RTVSPropertyOp0
 70
     1
102
RTVSPropertyOp1
 70
     1
102
RTVSPropertyOp2
 70
     1
102
RTVSPropertyOp3
 70
     1
102
RTVSPropertyOp4
 70
     1
102
RTVSPropertyOp5
 70
     1
102
RTVSPropertyOp6
 70
     1
102
RTVSPropertyOp7
 70
     1
102
RTVSPropertyOp8
 70
     1
102
RTVSPropertyOp9
 70
     1
102
RTVSPropertyOp10
 70
     1
102
RTVSPropertyOp11
 70
     1
102
RTVSPropertyOp12
 70
     1
102
RTVSPropertyOp13
 70
     1
102
RTVSPropertyOp14
 70
     1
102
RTVSPropertyOp15
 70
     1
102
RTVSPropertyOp16
 70
     1
102
RTVSPropertyOp17
 70
     1
102
RTVSPropertyOp18
 70
     1
102
RTVSPropertyOp19
 70
     1
102
RTVSPropertyOp20
 70
     1
102
RTVSPropertyOp21
 70
     1
102
RTVSPropertyOp22
 70
     1
102
RTVSPropertyOp23
 70
     1
102
RTVSPropertyOp24
 70
     1
102
RTVSPropertyOp25
 70
     1
102
RTVSPropertyOp26
 70
     1
102
RTVSPropertyOp27
 70
     1
102
RTVSPropertyOp28
 70
     1
102
RTVSPropertyOp29
 70
     1
102
RTVSPropertyOp30
 70
     1
102
RTVSPropertyOp31
 70
     1
102
RTVSPropertyOp32
 70
     1
102
RTVSPropertyOp33
 70
     1
102
RTVSPropertyOp34
 70
     1
102
RTVSPropertyOp35
 70
     1
102
RTVSPropertyOp36
 70
     1
102
RTVSPropertyOp37
 70
     1
102
RTVSPropertyOp38
 70
     1
102
RTVSPropertyOp39
 70
     1
102
RTVSPropertyOp40
 70
     1
102
RTVSPropertyOp41
 70
     1
102
RTVSPropertyOp42
 70
     1
102
RTVSPropertyOp43
 70
     1
102
RTVSPropertyOp44
 70
     1
102
RTVSPropertyOp45
 70
     1
102
RTVSPropertyOp46
 70
     1
102
RTVSPropertyOp47
 70
     1
102
RTVSPropertyOp48
 70
     1
102
RTVSPropertyOp49
 70
     1
102
RTVSPropertyOp50
 70
     1
102
RTVSPropertyOp51
 70
     0
102
RTVSPropertyOp52
 70
     0
102
RTVSPropertyOp53
 70
     1
102
RTVSPropertyOp54
 70
     1
102
RTVSPropertyOp55
 70
     1
102
RTVSPropertyOp56
 70
     1
102
RTVSPropertyOp57
 70
     1
102
RTVSPropertyOp58
 70
     1
102
RTVSPropertyOp59
 70
     1
102
RTVSPropertyOp60
 70
     1
102
RTVSPropertyOp61
 70
     1
102
RTVSPropertyOp62
 70
     1
  0
XRECORD
  5
51B9
102
{ACAD_REACTORS
330
51B8
102
}
330
51B8
100
AcDbXrecord
280
     1
102
RTVSPost2010Prop28
280
     0
102
RTVSPost2010PropOp28
 70
     1
102
RTVSPost2010Prop29
280
     1
102
RTVSPost2010PropOp29
 70
     1
102
RTVSPost2010Prop30
280
     1
102
RTVSPost2010PropOp30
 70
     1
102
RTVSPost2010Prop31
280
     0
102
RTVSPost2010PropOp31
 70
     1
102
RTVSPost2010Prop32
280
     0
102
RTVSPost2010PropOp32
 70
     1
102
RTVSPost2010Prop33
280
     0
102
RTVSPost2010PropOp33
 70
     1
102
RTVSPost2010Prop34
280
     0
102
RTVSPost2010PropOp34
 70
     1
102
RTVSPost2010Prop35
280
     0
102
RTVSPost2010PropOp35
 70
     1
102
RTVSPost2010Prop36
280
     0
102
RTVSPost2010PropOp36
 70
     1
102
RTVSPost2010Prop37
 90
       50
102
RTVSPost2010PropOp37
 70
     1
102
RTVSPost2010Prop38
140
0.0
102
RTVSPost2010PropOp38
 70
     1
102
RTVSPost2010Prop39
140
1.0
102
RTVSPost2010PropOp39
 70
     1
102
RTVSPost2010Prop40
 90
        0
102
RTVSPost2010PropOp40
 70
     1
102
RTVSPost2010Prop41ColorIndex
 90
       18
102
RTVSPost2010Prop41ColorRGB
 90
        0
102
RTVSPost2010PropOp41
 70
     1
102
RTVSPost2010Prop42
 90
       50
102
RTVSPost2010PropOp42
 70
     1
102
RTVSPost2010Prop43
 90
        3
102
RTVSPost2010PropOp43
 70
     1
102
RTVSPost2010Prop44ColorIndex
 90
        5
102
RTVSPost2010Prop44ColorRGB
 90
      255
102
RTVSPost2010PropOp44
 70
     1
102
RTVSPost2010Prop45
280
     0
102
RTVSPost2010PropOp45
 70
     1
102
RTVSPost2010Prop46
 90
       50
102
RTVSPost2010PropOp46
 70
     1
102
RTVSPost2010Prop47
 90
       50
102
RTVSPost2010PropOp47
 70
     1
102
RTVSPost2010Prop48
 90
       50
102
RTVSPost2010PropOp48
 70
     1
102
RTVSPost2010Prop49
280
     0
102
RTVSPost2010PropOp49
 70
     1
102
RTVSPost2010Prop50
 90
       50
102
RTVSPost2010PropOp50
 70
     1
102
RTVSPost2010Prop51ColorIndex
 90
      256
102
RTVSPost2010Prop51ColorRGB
 90
-16777216
102
RTVSPost2010PropOp51
 70
     0
102
RTVSPost2010Prop52
140
1.0
102
RTVSPost2010PropOp52
 70
     0
102
RTVSPost2010Prop53
 90
        2
102
RTVSPost2010PropOp53
 70
     1
102
RTVSPost2010Prop54
  1
strokes_ogs.tif
102
RTVSPost2010PropOp54
 70
     1
102
RTVSPost2010Prop55
280
     0
102
RTVSPost2010PropOp55
 70
     1
102
RTVSPost2010Prop56
140
1.0
102
RTVSPost2010PropOp56
 70
     1
102
RTVSPost2010Prop57
140
1.0
102
RTVSPost2010PropOp57
 70
     1
102
RTVSPropertyOp0
 70
     1
102
RTVSPropertyOp1
 70
     1
102
RTVSPropertyOp2
 70
     1
102
RTVSPropertyOp3
 70
     1
102
RTVSPropertyOp4
 70
     1
102
RTVSPropertyOp5
 70
     1
102
RTVSPropertyOp6
 70
     1
102
RTVSPropertyOp7
 70
     1
102
RTVSPropertyOp8
 70
     1
102
RTVSPropertyOp9
 70
     1
102
RTVSPropertyOp10
 70
     1
102
RTVSPropertyOp11
 70
     1
102
RTVSPropertyOp12
 70
     1
102
RTVSPropertyOp13
 70
     1
102
RTVSPropertyOp14
 70
     1
102
RTVSPropertyOp15
 70
     1
102
RTVSPropertyOp16
 70
     1
102
RTVSPropertyOp17
 70
     1
102
RTVSPropertyOp18
 70
     1
102
RTVSPropertyOp19
 70
     1
102
RTVSPropertyOp20
 70
     1
102
RTVSPropertyOp21
 70
     1
102
RTVSPropertyOp22
 70
     1
102
RTVSPropertyOp23
 70
     1
102
RTVSPropertyOp24
 70
     1
102
RTVSPropertyOp25
 70
     1
102
RTVSPropertyOp26
 70
     1
102
RTVSPropertyOp27
 70
     1
102
RTVSPropertyOp28
 70
     1
102
RTVSPropertyOp29
 70
     1
102
RTVSPropertyOp30
 70
     1
102
RTVSPropertyOp31
 70
     1
102
RTVSPropertyOp32
 70
     1
102
RTVSPropertyOp33
 70
     1
102
RTVSPropertyOp34
 70
     1
102
RTVSPropertyOp35
 70
     1
102
RTVSPropertyOp36
 70
     1
102
RTVSPropertyOp37
 70
     1
102
RTVSPropertyOp38
 70
     1
102
RTVSPropertyOp39
 70
     1
102
RTVSPropertyOp40
 70
     1
102
RTVSPropertyOp41
 70
     1
102
RTVSPropertyOp42
 70
     1
102
RTVSPropertyOp43
 70
     1
102
RTVSPropertyOp44
 70
     1
102
RTVSPropertyOp45
 70
     1
102
RTVSPropertyOp46
 70
     1
102
RTVSPropertyOp47
 70
     1
102
RTVSPropertyOp48
 70
     1
102
RTVSPropertyOp49
 70
     1
102
RTVSPropertyOp50
 70
     1
102
RTVSPropertyOp51
 70
     0
102
RTVSPropertyOp52
 70
     0
102
RTVSPropertyOp53
 70
     1
102
RTVSPropertyOp54
 70
     1
102
RTVSPropertyOp55
 70
     1
102
RTVSPropertyOp56
 70
     1
102
RTVSPropertyOp57
 70
     1
102
RTVSPropertyOp58
 70
     1
102
RTVSPropertyOp59
 70
     1
102
RTVSPropertyOp60
 70
     1
102
RTVSPropertyOp61
 70
     1
102
RTVSPropertyOp62
 70
     1
  0
XRECORD
  5
51B5
102
{ACAD_REACTORS
330
51B4
102
}
330
51B4
100
AcDbXrecord
280
     1
102
RTVSPost2010Prop28
280
     0
102
RTVSPost2010PropOp28
 70
     1
102
RTVSPost2010Prop29
280
     1
102
RTVSPost2010PropOp29
 70
     1
102
RTVSPost2010Prop30
280
     1
102
RTVSPost2010PropOp30
 70
     1
102
RTVSPost2010Prop31
280
     0
102
RTVSPost2010PropOp31
 70
     1
102
RTVSPost2010Prop32
280
     0
102
RTVSPost2010PropOp32
 70
     1
102
RTVSPost2010Prop33
280
     0
102
RTVSPost2010PropOp33
 70
     1
102
RTVSPost2010Prop34
280
     0
102
RTVSPost2010PropOp34
 70
     1
102
RTVSPost2010Prop35
280
     0
102
RTVSPost2010PropOp35
 70
     1
102
RTVSPost2010Prop36
280
     0
102
RTVSPost2010PropOp36
 70
     1
102
RTVSPost2010Prop37
 90
       50
102
RTVSPost2010PropOp37
 70
     1
102
RTVSPost2010Prop38
140
0.0
102
RTVSPost2010PropOp38
 70
     1
102
RTVSPost2010Prop39
140
1.0
102
RTVSPost2010PropOp39
 70
     1
102
RTVSPost2010Prop40
 90
        0
102
RTVSPost2010PropOp40
 70
     1
102
RTVSPost2010Prop41ColorIndex
 90
       18
102
RTVSPost2010Prop41ColorRGB
 90
        0
102
RTVSPost2010PropOp41
 70
     1
102
RTVSPost2010Prop42
 90
       50
102
RTVSPost2010PropOp42
 70
     1
102
RTVSPost2010Prop43
 90
        3
102
RTVSPost2010PropOp43
 70
     1
102
RTVSPost2010Prop44ColorIndex
 90
        5
102
RTVSPost2010Prop44ColorRGB
 90
      255
102
RTVSPost2010PropOp44
 70
     1
102
RTVSPost2010Prop45
280
     0
102
RTVSPost2010PropOp45
 70
     1
102
RTVSPost2010Prop46
 90
       50
102
RTVSPost2010PropOp46
 70
     1
102
RTVSPost2010Prop47
 90
       50
102
RTVSPost2010PropOp47
 70
     1
102
RTVSPost2010Prop48
 90
       50
102
RTVSPost2010PropOp48
 70
     1
102
RTVSPost2010Prop49
280
     0
102
RTVSPost2010PropOp49
 70
     1
102
RTVSPost2010Prop50
 90
       50
102
RTVSPost2010PropOp50
 70
     1
102
RTVSPost2010Prop51ColorIndex
 90
      256
102
RTVSPost2010Prop51ColorRGB
 90
-16777216
102
RTVSPost2010PropOp51
 70
     0
102
RTVSPost2010Prop52
140
1.0
102
RTVSPost2010PropOp52
 70
     0
102
RTVSPost2010Prop53
 90
        2
102
RTVSPost2010PropOp53
 70
     1
102
RTVSPost2010Prop54
  1
strokes_ogs.tif
102
RTVSPost2010PropOp54
 70
     1
102
RTVSPost2010Prop55
280
     0
102
RTVSPost2010PropOp55
 70
     1
102
RTVSPost2010Prop56
140
1.0
102
RTVSPost2010PropOp56
 70
     1
102
RTVSPost2010Prop57
140
1.0
102
RTVSPost2010PropOp57
 70
     1
102
RTVSPropertyOp0
 70
     1
102
RTVSPropertyOp1
 70
     1
102
RTVSPropertyOp2
 70
     1
102
RTVSPropertyOp3
 70
     1
102
RTVSPropertyOp4
 70
     1
102
RTVSPropertyOp5
 70
     1
102
RTVSPropertyOp6
 70
     1
102
RTVSPropertyOp7
 70
     1
102
RTVSPropertyOp8
 70
     1
102
RTVSPropertyOp9
 70
     1
102
RTVSPropertyOp10
 70
     1
102
RTVSPropertyOp11
 70
     1
102
RTVSPropertyOp12
 70
     1
102
RTVSPropertyOp13
 70
     1
102
RTVSPropertyOp14
 70
     1
102
RTVSPropertyOp15
 70
     1
102
RTVSPropertyOp16
 70
     1
102
RTVSPropertyOp17
 70
     1
102
RTVSPropertyOp18
 70
     1
102
RTVSPropertyOp19
 70
     1
102
RTVSPropertyOp20
 70
     1
102
RTVSPropertyOp21
 70
     1
102
RTVSPropertyOp22
 70
     1
102
RTVSPropertyOp23
 70
     1
102
RTVSPropertyOp24
 70
     1
102
RTVSPropertyOp25
 70
     1
102
RTVSPropertyOp26
 70
     1
102
RTVSPropertyOp27
 70
     1
102
RTVSPropertyOp28
 70
     1
102
RTVSPropertyOp29
 70
     1
102
RTVSPropertyOp30
 70
     1
102
RTVSPropertyOp31
 70
     1
102
RTVSPropertyOp32
 70
     1
102
RTVSPropertyOp33
 70
     1
102
RTVSPropertyOp34
 70
     1
102
RTVSPropertyOp35
 70
     1
102
RTVSPropertyOp36
 70
     1
102
RTVSPropertyOp37
 70
     1
102
RTVSPropertyOp38
 70
     1
102
RTVSPropertyOp39
 70
     1
102
RTVSPropertyOp40
 70
     1
102
RTVSPropertyOp41
 70
     1
102
RTVSPropertyOp42
 70
     1
102
RTVSPropertyOp43
 70
     1
102
RTVSPropertyOp44
 70
     1
102
RTVSPropertyOp45
 70
     1
102
RTVSPropertyOp46
 70
     1
102
RTVSPropertyOp47
 70
     1
102
RTVSPropertyOp48
 70
     1
102
RTVSPropertyOp49
 70
     1
102
RTVSPropertyOp50
 70
     1
102
RTVSPropertyOp51
 70
     0
102
RTVSPropertyOp52
 70
     0
102
RTVSPropertyOp53
 70
     1
102
RTVSPropertyOp54
 70
     1
102
RTVSPropertyOp55
 70
     1
102
RTVSPropertyOp56
 70
     1
102
RTVSPropertyOp57
 70
     1
102
RTVSPropertyOp58
 70
     1
102
RTVSPropertyOp59
 70
     1
102
RTVSPropertyOp60
 70
     1
102
RTVSPropertyOp61
 70
     1
102
RTVSPropertyOp62
 70
     1
  0
XRECORD
  5
51C3
102
{ACAD_REACTORS
330
51C2
102
}
330
51C2
100
AcDbXrecord
280
     1
102
RTVSPost2010Prop28
280
     0
102
RTVSPost2010PropOp28
 70
     1
102
RTVSPost2010Prop29
280
     1
102
RTVSPost2010PropOp29
 70
     1
102
RTVSPost2010Prop30
280
     1
102
RTVSPost2010PropOp30
 70
     1
102
RTVSPost2010Prop31
280
     0
102
RTVSPost2010PropOp31
 70
     1
102
RTVSPost2010Prop32
280
     0
102
RTVSPost2010PropOp32
 70
     1
102
RTVSPost2010Prop33
280
     0
102
RTVSPost2010PropOp33
 70
     1
102
RTVSPost2010Prop34
280
     0
102
RTVSPost2010PropOp34
 70
     1
102
RTVSPost2010Prop35
280
     0
102
RTVSPost2010PropOp35
 70
     1
102
RTVSPost2010Prop36
280
     0
102
RTVSPost2010PropOp36
 70
     1
102
RTVSPost2010Prop37
 90
       50
102
RTVSPost2010PropOp37
 70
     1
102
RTVSPost2010Prop38
140
0.0
102
RTVSPost2010PropOp38
 70
     1
102
RTVSPost2010Prop39
140
1.0
102
RTVSPost2010PropOp39
 70
     1
102
RTVSPost2010Prop40
 90
        0
102
RTVSPost2010PropOp40
 70
     1
102
RTVSPost2010Prop41ColorIndex
 90
       18
102
RTVSPost2010Prop41ColorRGB
 90
        0
102
RTVSPost2010PropOp41
 70
     1
102
RTVSPost2010Prop42
 90
       50
102
RTVSPost2010PropOp42
 70
     1
102
RTVSPost2010Prop43
 90
        3
102
RTVSPost2010PropOp43
 70
     1
102
RTVSPost2010Prop44ColorIndex
 90
        5
102
RTVSPost2010Prop44ColorRGB
 90
      255
102
RTVSPost2010PropOp44
 70
     1
102
RTVSPost2010Prop45
280
     0
102
RTVSPost2010PropOp45
 70
     1
102
RTVSPost2010Prop46
 90
       50
102
RTVSPost2010PropOp46
 70
     1
102
RTVSPost2010Prop47
 90
       50
102
RTVSPost2010PropOp47
 70
     1
102
RTVSPost2010Prop48
 90
       50
102
RTVSPost2010PropOp48
 70
     1
102
RTVSPost2010Prop49
280
     0
102
RTVSPost2010PropOp49
 70
     1
102
RTVSPost2010Prop50
 90
       50
102
RTVSPost2010PropOp50
 70
     1
102
RTVSPost2010Prop51ColorIndex
 90
      256
102
RTVSPost2010Prop51ColorRGB
 90
-16777216
102
RTVSPost2010PropOp51
 70
     0
102
RTVSPost2010Prop52
140
1.0
102
RTVSPost2010PropOp52
 70
     0
102
RTVSPost2010Prop53
 90
        2
102
RTVSPost2010PropOp53
 70
     1
102
RTVSPost2010Prop54
  1
strokes_ogs.tif
102
RTVSPost2010PropOp54
 70
     1
102
RTVSPost2010Prop55
280
     0
102
RTVSPost2010PropOp55
 70
     1
102
RTVSPost2010Prop56
140
1.0
102
RTVSPost2010PropOp56
 70
     1
102
RTVSPost2010Prop57
140
1.0
102
RTVSPost2010PropOp57
 70
     1
102
RTVSPropertyOp0
 70
     1
102
RTVSPropertyOp1
 70
     1
102
RTVSPropertyOp2
 70
     1
102
RTVSPropertyOp3
 70
     1
102
RTVSPropertyOp4
 70
     1
102
RTVSPropertyOp5
 70
     1
102
RTVSPropertyOp6
 70
     1
102
RTVSPropertyOp7
 70
     1
102
RTVSPropertyOp8
 70
     1
102
RTVSPropertyOp9
 70
     1
102
RTVSPropertyOp10
 70
     1
102
RTVSPropertyOp11
 70
     1
102
RTVSPropertyOp12
 70
     1
102
RTVSPropertyOp13
 70
     1
102
RTVSPropertyOp14
 70
     1
102
RTVSPropertyOp15
 70
     1
102
RTVSPropertyOp16
 70
     1
102
RTVSPropertyOp17
 70
     1
102
RTVSPropertyOp18
 70
     1
102
RTVSPropertyOp19
 70
     1
102
RTVSPropertyOp20
 70
     1
102
RTVSPropertyOp21
 70
     1
102
RTVSPropertyOp22
 70
     1
102
RTVSPropertyOp23
 70
     1
102
RTVSPropertyOp24
 70
     1
102
RTVSPropertyOp25
 70
     1
102
RTVSPropertyOp26
 70
     1
102
RTVSPropertyOp27
 70
     1
102
RTVSPropertyOp28
 70
     1
102
RTVSPropertyOp29
 70
     1
102
RTVSPropertyOp30
 70
     1
102
RTVSPropertyOp31
 70
     1
102
RTVSPropertyOp32
 70
     1
102
RTVSPropertyOp33
 70
     1
102
RTVSPropertyOp34
 70
     1
102
RTVSPropertyOp35
 70
     1
102
RTVSPropertyOp36
 70
     1
102
RTVSPropertyOp37
 70
     1
102
RTVSPropertyOp38
 70
     1
102
RTVSPropertyOp39
 70
     1
102
RTVSPropertyOp40
 70
     1
102
RTVSPropertyOp41
 70
     1
102
RTVSPropertyOp42
 70
     1
102
RTVSPropertyOp43
 70
     1
102
RTVSPropertyOp44
 70
     1
102
RTVSPropertyOp45
 70
     1
102
RTVSPropertyOp46
 70
     1
102
RTVSPropertyOp47
 70
     1
102
RTVSPropertyOp48
 70
     1
102
RTVSPropertyOp49
 70
     1
102
RTVSPropertyOp50
 70
     1
102
RTVSPropertyOp51
 70
     0
102
RTVSPropertyOp52
 70
     0
102
RTVSPropertyOp53
 70
     1
102
RTVSPropertyOp54
 70
     1
102
RTVSPropertyOp55
 70
     1
102
RTVSPropertyOp56
 70
     1
102
RTVSPropertyOp57
 70
     1
102
RTVSPropertyOp58
 70
     1
102
RTVSPropertyOp59
 70
     1
102
RTVSPropertyOp60
 70
     1
102
RTVSPropertyOp61
 70
     1
102
RTVSPropertyOp62
 70
     1
  0
XRECORD
  5
51CB
102
{ACAD_REACTORS
330
51CA
102
}
330
51CA
100
AcDbXrecord
280
     1
102
RTVSPost2010Prop28
280
     0
102
RTVSPost2010PropOp28
 70
     1
102
RTVSPost2010Prop29
280
     1
102
RTVSPost2010PropOp29
 70
     1
102
RTVSPost2010Prop30
280
     1
102
RTVSPost2010PropOp30
 70
     1
102
RTVSPost2010Prop31
280
     0
102
RTVSPost2010PropOp31
 70
     1
102
RTVSPost2010Prop32
280
     0
102
RTVSPost2010PropOp32
 70
     1
102
RTVSPost2010Prop33
280
     0
102
RTVSPost2010PropOp33
 70
     1
102
RTVSPost2010Prop34
280
     0
102
RTVSPost2010PropOp34
 70
     1
102
RTVSPost2010Prop35
280
     0
102
RTVSPost2010PropOp35
 70
     1
102
RTVSPost2010Prop36
280
     0
102
RTVSPost2010PropOp36
 70
     1
102
RTVSPost2010Prop37
 90
       50
102
RTVSPost2010PropOp37
 70
     1
102
RTVSPost2010Prop38
140
0.0
102
RTVSPost2010PropOp38
 70
     1
102
RTVSPost2010Prop39
140
1.0
102
RTVSPost2010PropOp39
 70
     1
102
RTVSPost2010Prop40
 90
        0
102
RTVSPost2010PropOp40
 70
     1
102
RTVSPost2010Prop41ColorIndex
 90
       18
102
RTVSPost2010Prop41ColorRGB
 90
        0
102
RTVSPost2010PropOp41
 70
     1
102
RTVSPost2010Prop42
 90
       50
102
RTVSPost2010PropOp42
 70
     1
102
RTVSPost2010Prop43
 90
        3
102
RTVSPost2010PropOp43
 70
     1
102
RTVSPost2010Prop44ColorIndex
 90
        5
102
RTVSPost2010Prop44ColorRGB
 90
      255
102
RTVSPost2010PropOp44
 70
     1
102
RTVSPost2010Prop45
280
     0
102
RTVSPost2010PropOp45
 70
     1
102
RTVSPost2010Prop46
 90
       50
102
RTVSPost2010PropOp46
 70
     1
102
RTVSPost2010Prop47
 90
       50
102
RTVSPost2010PropOp47
 70
     1
102
RTVSPost2010Prop48
 90
       50
102
RTVSPost2010PropOp48
 70
     1
102
RTVSPost2010Prop49
280
     0
102
RTVSPost2010PropOp49
 70
     1
102
RTVSPost2010Prop50
 90
       50
102
RTVSPost2010PropOp50
 70
     1
102
RTVSPost2010Prop51ColorIndex
 90
      256
102
RTVSPost2010Prop51ColorRGB
 90
-16777216
102
RTVSPost2010PropOp51
 70
     0
102
RTVSPost2010Prop52
140
1.0
102
RTVSPost2010PropOp52
 70
     0
102
RTVSPost2010Prop53
 90
        2
102
RTVSPost2010PropOp53
 70
     1
102
RTVSPost2010Prop54
  1
strokes_ogs.tif
102
RTVSPost2010PropOp54
 70
     1
102
RTVSPost2010Prop55
280
     0
102
RTVSPost2010PropOp55
 70
     1
102
RTVSPost2010Prop56
140
1.0
102
RTVSPost2010PropOp56
 70
     1
102
RTVSPost2010Prop57
140
1.0
102
RTVSPost2010PropOp57
 70
     1
102
RTVSPropertyOp0
 70
     1
102
RTVSPropertyOp1
 70
     1
102
RTVSPropertyOp2
 70
     1
102
RTVSPropertyOp3
 70
     1
102
RTVSPropertyOp4
 70
     1
102
RTVSPropertyOp5
 70
     1
102
RTVSPropertyOp6
 70
     1
102
RTVSPropertyOp7
 70
     1
102
RTVSPropertyOp8
 70
     1
102
RTVSPropertyOp9
 70
     1
102
RTVSPropertyOp10
 70
     1
102
RTVSPropertyOp11
 70
     1
102
RTVSPropertyOp12
 70
     1
102
RTVSPropertyOp13
 70
     1
102
RTVSPropertyOp14
 70
     1
102
RTVSPropertyOp15
 70
     1
102
RTVSPropertyOp16
 70
     1
102
RTVSPropertyOp17
 70
     1
102
RTVSPropertyOp18
 70
     1
102
RTVSPropertyOp19
 70
     1
102
RTVSPropertyOp20
 70
     1
102
RTVSPropertyOp21
 70
     1
102
RTVSPropertyOp22
 70
     1
102
RTVSPropertyOp23
 70
     1
102
RTVSPropertyOp24
 70
     1
102
RTVSPropertyOp25
 70
     1
102
RTVSPropertyOp26
 70
     1
102
RTVSPropertyOp27
 70
     1
102
RTVSPropertyOp28
 70
     1
102
RTVSPropertyOp29
 70
     1
102
RTVSPropertyOp30
 70
     1
102
RTVSPropertyOp31
 70
     1
102
RTVSPropertyOp32
 70
     1
102
RTVSPropertyOp33
 70
     1
102
RTVSPropertyOp34
 70
     1
102
RTVSPropertyOp35
 70
     1
102
RTVSPropertyOp36
 70
     1
102
RTVSPropertyOp37
 70
     1
102
RTVSPropertyOp38
 70
     1
102
RTVSPropertyOp39
 70
     1
102
RTVSPropertyOp40
 70
     1
102
RTVSPropertyOp41
 70
     1
102
RTVSPropertyOp42
 70
     1
102
RTVSPropertyOp43
 70
     1
102
RTVSPropertyOp44
 70
     1
102
RTVSPropertyOp45
 70
     1
102
RTVSPropertyOp46
 70
     1
102
RTVSPropertyOp47
 70
     1
102
RTVSPropertyOp48
 70
     1
102
RTVSPropertyOp49
 70
     1
102
RTVSPropertyOp50
 70
     1
102
RTVSPropertyOp51
 70
     0
102
RTVSPropertyOp52
 70
     0
102
RTVSPropertyOp53
 70
     1
102
RTVSPropertyOp54
 70
     1
102
RTVSPropertyOp55
 70
     1
102
RTVSPropertyOp56
 70
     1
102
RTVSPropertyOp57
 70
     1
102
RTVSPropertyOp58
 70
     1
102
RTVSPropertyOp59
 70
     1
102
RTVSPropertyOp60
 70
     1
102
RTVSPropertyOp61
 70
     1
102
RTVSPropertyOp62
 70
     1
  0
XRECORD
  5
51BD
102
{ACAD_REACTORS
330
51BC
102
}
330
51BC
100
AcDbXrecord
280
     1
102
RTVSPost2010Prop28
280
     0
102
RTVSPost2010PropOp28
 70
     1
102
RTVSPost2010Prop29
280
     1
102
RTVSPost2010PropOp29
 70
     1
102
RTVSPost2010Prop30
280
     1
102
RTVSPost2010PropOp30
 70
     1
102
RTVSPost2010Prop31
280
     0
102
RTVSPost2010PropOp31
 70
     1
102
RTVSPost2010Prop32
280
     0
102
RTVSPost2010PropOp32
 70
     1
102
RTVSPost2010Prop33
280
     0
102
RTVSPost2010PropOp33
 70
     1
102
RTVSPost2010Prop34
280
     0
102
RTVSPost2010PropOp34
 70
     1
102
RTVSPost2010Prop35
280
     0
102
RTVSPost2010PropOp35
 70
     1
102
RTVSPost2010Prop36
280
     0
102
RTVSPost2010PropOp36
 70
     1
102
RTVSPost2010Prop37
 90
       50
102
RTVSPost2010PropOp37
 70
     1
102
RTVSPost2010Prop38
140
0.0
102
RTVSPost2010PropOp38
 70
     1
102
RTVSPost2010Prop39
140
1.0
102
RTVSPost2010PropOp39
 70
     1
102
RTVSPost2010Prop40
 90
        0
102
RTVSPost2010PropOp40
 70
     1
102
RTVSPost2010Prop41ColorIndex
 90
       18
102
RTVSPost2010Prop41ColorRGB
 90
        0
102
RTVSPost2010PropOp41
 70
     1
102
RTVSPost2010Prop42
 90
       50
102
RTVSPost2010PropOp42
 70
     1
102
RTVSPost2010Prop43
 90
        3
102
RTVSPost2010PropOp43
 70
     1
102
RTVSPost2010Prop44ColorIndex
 90
        5
102
RTVSPost2010Prop44ColorRGB
 90
      255
102
RTVSPost2010PropOp44
 70
     1
102
RTVSPost2010Prop45
280
     0
102
RTVSPost2010PropOp45
 70
     1
102
RTVSPost2010Prop46
 90
       50
102
RTVSPost2010PropOp46
 70
     1
102
RTVSPost2010Prop47
 90
       50
102
RTVSPost2010PropOp47
 70
     1
102
RTVSPost2010Prop48
 90
       50
102
RTVSPost2010PropOp48
 70
     1
102
RTVSPost2010Prop49
280
     0
102
RTVSPost2010PropOp49
 70
     1
102
RTVSPost2010Prop50
 90
       50
102
RTVSPost2010PropOp50
 70
     1
102
RTVSPost2010Prop51ColorIndex
 90
      256
102
RTVSPost2010Prop51ColorRGB
 90
-16777216
102
RTVSPost2010PropOp51
 70
     0
102
RTVSPost2010Prop52
140
1.0
102
RTVSPost2010PropOp52
 70
     0
102
RTVSPost2010Prop53
 90
        2
102
RTVSPost2010PropOp53
 70
     1
102
RTVSPost2010Prop54
  1
strokes_ogs.tif
102
RTVSPost2010PropOp54
 70
     1
102
RTVSPost2010Prop55
280
     0
102
RTVSPost2010PropOp55
 70
     1
102
RTVSPost2010Prop56
140
1.0
102
RTVSPost2010PropOp56
 70
     1
102
RTVSPost2010Prop57
140
1.0
102
RTVSPost2010PropOp57
 70
     1
102
RTVSPropertyOp0
 70
     1
102
RTVSPropertyOp1
 70
     1
102
RTVSPropertyOp2
 70
     1
102
RTVSPropertyOp3
 70
     1
102
RTVSPropertyOp4
 70
     1
102
RTVSPropertyOp5
 70
     1
102
RTVSPropertyOp6
 70
     1
102
RTVSPropertyOp7
 70
     1
102
RTVSPropertyOp8
 70
     1
102
RTVSPropertyOp9
 70
     1
102
RTVSPropertyOp10
 70
     1
102
RTVSPropertyOp11
 70
     1
102
RTVSPropertyOp12
 70
     1
102
RTVSPropertyOp13
 70
     1
102
RTVSPropertyOp14
 70
     1
102
RTVSPropertyOp15
 70
     1
102
RTVSPropertyOp16
 70
     1
102
RTVSPropertyOp17
 70
     1
102
RTVSPropertyOp18
 70
     1
102
RTVSPropertyOp19
 70
     1
102
RTVSPropertyOp20
 70
     1
102
RTVSPropertyOp21
 70
     1
102
RTVSPropertyOp22
 70
     1
102
RTVSPropertyOp23
 70
     1
102
RTVSPropertyOp24
 70
     1
102
RTVSPropertyOp25
 70
     1
102
RTVSPropertyOp26
 70
     1
102
RTVSPropertyOp27
 70
     1
102
RTVSPropertyOp28
 70
     1
102
RTVSPropertyOp29
 70
     1
102
RTVSPropertyOp30
 70
     1
102
RTVSPropertyOp31
 70
     1
102
RTVSPropertyOp32
 70
     1
102
RTVSPropertyOp33
 70
     1
102
RTVSPropertyOp34
 70
     1
102
RTVSPropertyOp35
 70
     1
102
RTVSPropertyOp36
 70
     1
102
RTVSPropertyOp37
 70
     1
102
RTVSPropertyOp38
 70
     1
102
RTVSPropertyOp39
 70
     1
102
RTVSPropertyOp40
 70
     1
102
RTVSPropertyOp41
 70
     1
102
RTVSPropertyOp42
 70
     1
102
RTVSPropertyOp43
 70
     1
102
RTVSPropertyOp44
 70
     1
102
RTVSPropertyOp45
 70
     1
102
RTVSPropertyOp46
 70
     1
102
RTVSPropertyOp47
 70
     1
102
RTVSPropertyOp48
 70
     1
102
RTVSPropertyOp49
 70
     1
102
RTVSPropertyOp50
 70
     1
102
RTVSPropertyOp51
 70
     0
102
RTVSPropertyOp52
 70
     0
102
RTVSPropertyOp53
 70
     1
102
RTVSPropertyOp54
 70
     1
102
RTVSPropertyOp55
 70
     1
102
RTVSPropertyOp56
 70
     1
102
RTVSPropertyOp57
 70
     1
102
RTVSPropertyOp58
 70
     1
102
RTVSPropertyOp59
 70
     1
102
RTVSPropertyOp60
 70
     1
102
RTVSPropertyOp61
 70
     1
102
RTVSPropertyOp62
 70
     1
  0
XRECORD
  5
51C1
102
{ACAD_REACTORS
330
51C0
102
}
330
51C0
100
AcDbXrecord
280
     1
102
RTVSPost2010Prop28
280
     0
102
RTVSPost2010PropOp28
 70
     1
102
RTVSPost2010Prop29
280
     1
102
RTVSPost2010PropOp29
 70
     1
102
RTVSPost2010Prop30
280
     1
102
RTVSPost2010PropOp30
 70
     1
102
RTVSPost2010Prop31
280
     0
102
RTVSPost2010PropOp31
 70
     1
102
RTVSPost2010Prop32
280
     0
102
RTVSPost2010PropOp32
 70
     1
102
RTVSPost2010Prop33
280
     0
102
RTVSPost2010PropOp33
 70
     1
102
RTVSPost2010Prop34
280
     0
102
RTVSPost2010PropOp34
 70
     1
102
RTVSPost2010Prop35
280
     0
102
RTVSPost2010PropOp35
 70
     1
102
RTVSPost2010Prop36
280
     0
102
RTVSPost2010PropOp36
 70
     1
102
RTVSPost2010Prop37
 90
       50
102
RTVSPost2010PropOp37
 70
     1
102
RTVSPost2010Prop38
140
0.0
102
RTVSPost2010PropOp38
 70
     1
102
RTVSPost2010Prop39
140
1.0
102
RTVSPost2010PropOp39
 70
     1
102
RTVSPost2010Prop40
 90
        0
102
RTVSPost2010PropOp40
 70
     1
102
RTVSPost2010Prop41ColorIndex
 90
       18
102
RTVSPost2010Prop41ColorRGB
 90
        0
102
RTVSPost2010PropOp41
 70
     1
102
RTVSPost2010Prop42
 90
       50
102
RTVSPost2010PropOp42
 70
     1
102
RTVSPost2010Prop43
 90
        3
102
RTVSPost2010PropOp43
 70
     1
102
RTVSPost2010Prop44ColorIndex
 90
        5
102
RTVSPost2010Prop44ColorRGB
 90
      255
102
RTVSPost2010PropOp44
 70
     1
102
RTVSPost2010Prop45
280
     0
102
RTVSPost2010PropOp45
 70
     1
102
RTVSPost2010Prop46
 90
       50
102
RTVSPost2010PropOp46
 70
     1
102
RTVSPost2010Prop47
 90
       50
102
RTVSPost2010PropOp47
 70
     1
102
RTVSPost2010Prop48
 90
       50
102
RTVSPost2010PropOp48
 70
     1
102
RTVSPost2010Prop49
280
     0
102
RTVSPost2010PropOp49
 70
     1
102
RTVSPost2010Prop50
 90
       50
102
RTVSPost2010PropOp50
 70
     1
102
RTVSPost2010Prop51ColorIndex
 90
      256
102
RTVSPost2010Prop51ColorRGB
 90
-16777216
102
RTVSPost2010PropOp51
 70
     0
102
RTVSPost2010Prop52
140
1.0
102
RTVSPost2010PropOp52
 70
     0
102
RTVSPost2010Prop53
 90
        2
102
RTVSPost2010PropOp53
 70
     1
102
RTVSPost2010Prop54
  1
strokes_ogs.tif
102
RTVSPost2010PropOp54
 70
     1
102
RTVSPost2010Prop55
280
     0
102
RTVSPost2010PropOp55
 70
     1
102
RTVSPost2010Prop56
140
1.0
102
RTVSPost2010PropOp56
 70
     1
102
RTVSPost2010Prop57
140
1.0
102
RTVSPost2010PropOp57
 70
     1
102
RTVSPropertyOp0
 70
     1
102
RTVSPropertyOp1
 70
     1
102
RTVSPropertyOp2
 70
     1
102
RTVSPropertyOp3
 70
     1
102
RTVSPropertyOp4
 70
     1
102
RTVSPropertyOp5
 70
     1
102
RTVSPropertyOp6
 70
     1
102
RTVSPropertyOp7
 70
     1
102
RTVSPropertyOp8
 70
     1
102
RTVSPropertyOp9
 70
     1
102
RTVSPropertyOp10
 70
     1
102
RTVSPropertyOp11
 70
     1
102
RTVSPropertyOp12
 70
     1
102
RTVSPropertyOp13
 70
     1
102
RTVSPropertyOp14
 70
     1
102
RTVSPropertyOp15
 70
     1
102
RTVSPropertyOp16
 70
     1
102
RTVSPropertyOp17
 70
     1
102
RTVSPropertyOp18
 70
     1
102
RTVSPropertyOp19
 70
     1
102
RTVSPropertyOp20
 70
     1
102
RTVSPropertyOp21
 70
     1
102
RTVSPropertyOp22
 70
     1
102
RTVSPropertyOp23
 70
     1
102
RTVSPropertyOp24
 70
     1
102
RTVSPropertyOp25
 70
     1
102
RTVSPropertyOp26
 70
     1
102
RTVSPropertyOp27
 70
     1
102
RTVSPropertyOp28
 70
     1
102
RTVSPropertyOp29
 70
     1
102
RTVSPropertyOp30
 70
     1
102
RTVSPropertyOp31
 70
     1
102
RTVSPropertyOp32
 70
     1
102
RTVSPropertyOp33
 70
     1
102
RTVSPropertyOp34
 70
     1
102
RTVSPropertyOp35
 70
     1
102
RTVSPropertyOp36
 70
     1
102
RTVSPropertyOp37
 70
     1
102
RTVSPropertyOp38
 70
     1
102
RTVSPropertyOp39
 70
     1
102
RTVSPropertyOp40
 70
     1
102
RTVSPropertyOp41
 70
     1
102
RTVSPropertyOp42
 70
     1
102
RTVSPropertyOp43
 70
     1
102
RTVSPropertyOp44
 70
     1
102
RTVSPropertyOp45
 70
     1
102
RTVSPropertyOp46
 70
     1
102
RTVSPropertyOp47
 70
     1
102
RTVSPropertyOp48
 70
     1
102
RTVSPropertyOp49
 70
     1
102
RTVSPropertyOp50
 70
     1
102
RTVSPropertyOp51
 70
     0
102
RTVSPropertyOp52
 70
     0
102
RTVSPropertyOp53
 70
     1
102
RTVSPropertyOp54
 70
     1
102
RTVSPropertyOp55
 70
     1
102
RTVSPropertyOp56
 70
     1
102
RTVSPropertyOp57
 70
     1
102
RTVSPropertyOp58
 70
     1
102
RTVSPropertyOp59
 70
     1
102
RTVSPropertyOp60
 70
     1
102
RTVSPropertyOp61
 70
     1
102
RTVSPropertyOp62
 70
     1
  0
XRECORD
  5
51D1
102
{ACAD_REACTORS
330
51D0
102
}
330
51D0
100
AcDbXrecord
280
     1
102
RTVSPost2010Prop28
280
     0
102
RTVSPost2010PropOp28
 70
     1
102
RTVSPost2010Prop29
280
     1
102
RTVSPost2010PropOp29
 70
     1
102
RTVSPost2010Prop30
280
     1
102
RTVSPost2010PropOp30
 70
     1
102
RTVSPost2010Prop31
280
     0
102
RTVSPost2010PropOp31
 70
     1
102
RTVSPost2010Prop32
280
     0
102
RTVSPost2010PropOp32
 70
     1
102
RTVSPost2010Prop33
280
     0
102
RTVSPost2010PropOp33
 70
     1
102
RTVSPost2010Prop34
280
     0
102
RTVSPost2010PropOp34
 70
     1
102
RTVSPost2010Prop35
280
     0
102
RTVSPost2010PropOp35
 70
     1
102
RTVSPost2010Prop36
280
     0
102
RTVSPost2010PropOp36
 70
     1
102
RTVSPost2010Prop37
 90
       50
102
RTVSPost2010PropOp37
 70
     1
102
RTVSPost2010Prop38
140
0.0
102
RTVSPost2010PropOp38
 70
     1
102
RTVSPost2010Prop39
140
1.0
102
RTVSPost2010PropOp39
 70
     1
102
RTVSPost2010Prop40
 90
        0
102
RTVSPost2010PropOp40
 70
     1
102
RTVSPost2010Prop41ColorIndex
 90
       18
102
RTVSPost2010Prop41ColorRGB
 90
        0
102
RTVSPost2010PropOp41
 70
     1
102
RTVSPost2010Prop42
 90
       50
102
RTVSPost2010PropOp42
 70
     1
102
RTVSPost2010Prop43
 90
        3
102
RTVSPost2010PropOp43
 70
     1
102
RTVSPost2010Prop44ColorIndex
 90
        5
102
RTVSPost2010Prop44ColorRGB
 90
      255
102
RTVSPost2010PropOp44
 70
     1
102
RTVSPost2010Prop45
280
     0
102
RTVSPost2010PropOp45
 70
     1
102
RTVSPost2010Prop46
 90
       50
102
RTVSPost2010PropOp46
 70
     1
102
RTVSPost2010Prop47
 90
       50
102
RTVSPost2010PropOp47
 70
     1
102
RTVSPost2010Prop48
 90
       50
102
RTVSPost2010PropOp48
 70
     1
102
RTVSPost2010Prop49
280
     0
102
RTVSPost2010PropOp49
 70
     1
102
RTVSPost2010Prop50
 90
       50
102
RTVSPost2010PropOp50
 70
     1
102
RTVSPost2010Prop51ColorIndex
 90
      256
102
RTVSPost2010Prop51ColorRGB
 90
-16777216
102
RTVSPost2010PropOp51
 70
     0
102
RTVSPost2010Prop52
140
1.0
102
RTVSPost2010PropOp52
 70
     0
102
RTVSPost2010Prop53
 90
        2
102
RTVSPost2010PropOp53
 70
     1
102
RTVSPost2010Prop54
  1
strokes_ogs.tif
102
RTVSPost2010PropOp54
 70
     1
102
RTVSPost2010Prop55
280
     0
102
RTVSPost2010PropOp55
 70
     1
102
RTVSPost2010Prop56
140
1.0
102
RTVSPost2010PropOp56
 70
     1
102
RTVSPost2010Prop57
140
1.0
102
RTVSPost2010PropOp57
 70
     1
102
RTVSPropertyOp0
 70
     0
102
RTVSPropertyOp1
 70
     0
102
RTVSPropertyOp2
 70
     0
102
RTVSPropertyOp3
 70
     0
102
RTVSPropertyOp4
 70
     0
102
RTVSPropertyOp5
 70
     0
102
RTVSPropertyOp6
 70
     0
102
RTVSPropertyOp7
 70
     0
102
RTVSPropertyOp8
 70
     0
102
RTVSPropertyOp9
 70
     0
102
RTVSPropertyOp10
 70
     0
102
RTVSPropertyOp11
 70
     0
102
RTVSPropertyOp12
 70
     0
102
RTVSPropertyOp13
 70
     0
102
RTVSPropertyOp14
 70
     2
102
RTVSPropertyOp15
 70
     0
102
RTVSPropertyOp16
 70
     0
102
RTVSPropertyOp17
 70
     0
102
RTVSPropertyOp18
 70
     0
102
RTVSPropertyOp19
 70
     0
102
RTVSPropertyOp20
 70
     0
102
RTVSPropertyOp21
 70
     0
102
RTVSPropertyOp22
 70
     0
102
RTVSPropertyOp23
 70
     0
102
RTVSPropertyOp24
 70
     0
102
RTVSPropertyOp25
 70
     0
102
RTVSPropertyOp26
 70
     0
102
RTVSPropertyOp27
 70
     0
102
RTVSPropertyOp28
 70
     1
102
RTVSPropertyOp29
 70
     1
102
RTVSPropertyOp30
 70
     1
102
RTVSPropertyOp31
 70
     1
102
RTVSPropertyOp32
 70
     1
102
RTVSPropertyOp33
 70
     1
102
RTVSPropertyOp34
 70
     1
102
RTVSPropertyOp35
 70
     1
102
RTVSPropertyOp36
 70
     1
102
RTVSPropertyOp37
 70
     1
102
RTVSPropertyOp38
 70
     1
102
RTVSPropertyOp39
 70
     1
102
RTVSPropertyOp40
 70
     1
102
RTVSPropertyOp41
 70
     1
102
RTVSPropertyOp42
 70
     1
102
RTVSPropertyOp43
 70
     1
102
RTVSPropertyOp44
 70
     1
102
RTVSPropertyOp45
 70
     1
102
RTVSPropertyOp46
 70
     1
102
RTVSPropertyOp47
 70
     1
102
RTVSPropertyOp48
 70
     1
102
RTVSPropertyOp49
 70
     1
102
RTVSPropertyOp50
 70
     1
102
RTVSPropertyOp51
 70
     0
102
RTVSPropertyOp52
 70
     0
102
RTVSPropertyOp53
 70
     1
102
RTVSPropertyOp54
 70
     1
102
RTVSPropertyOp55
 70
     1
102
RTVSPropertyOp56
 70
     1
102
RTVSPropertyOp57
 70
     1
102
RTVSPropertyOp58
 70
     1
102
RTVSPropertyOp59
 70
     1
102
RTVSPropertyOp60
 70
     1
102
RTVSPropertyOp61
 70
     1
102
RTVSPropertyOp62
 70
     1
  0
XRECORD
  5
51C9
102
{ACAD_REACTORS
330
51C8
102
}
330
51C8
100
AcDbXrecord
280
     1
102
RTVSPost2010Prop28
280
     0
102
RTVSPost2010PropOp28
 70
     1
102
RTVSPost2010Prop29
280
     1
102
RTVSPost2010PropOp29
 70
     1
102
RTVSPost2010Prop30
280
     1
102
RTVSPost2010PropOp30
 70
     1
102
RTVSPost2010Prop31
280
     0
102
RTVSPost2010PropOp31
 70
     1
102
RTVSPost2010Prop32
280
     0
102
RTVSPost2010PropOp32
 70
     1
102
RTVSPost2010Prop33
280
     0
102
RTVSPost2010PropOp33
 70
     1
102
RTVSPost2010Prop34
280
     0
102
RTVSPost2010PropOp34
 70
     1
102
RTVSPost2010Prop35
280
     0
102
RTVSPost2010PropOp35
 70
     1
102
RTVSPost2010Prop36
280
     0
102
RTVSPost2010PropOp36
 70
     1
102
RTVSPost2010Prop37
 90
       50
102
RTVSPost2010PropOp37
 70
     1
102
RTVSPost2010Prop38
140
0.0
102
RTVSPost2010PropOp38
 70
     1
102
RTVSPost2010Prop39
140
1.0
102
RTVSPost2010PropOp39
 70
     1
102
RTVSPost2010Prop40
 90
        0
102
RTVSPost2010PropOp40
 70
     1
102
RTVSPost2010Prop41ColorIndex
 90
       18
102
RTVSPost2010Prop41ColorRGB
 90
        0
102
RTVSPost2010PropOp41
 70
     1
102
RTVSPost2010Prop42
 90
       50
102
RTVSPost2010PropOp42
 70
     1
102
RTVSPost2010Prop43
 90
        3
102
RTVSPost2010PropOp43
 70
     1
102
RTVSPost2010Prop44ColorIndex
 90
        5
102
RTVSPost2010Prop44ColorRGB
 90
      255
102
RTVSPost2010PropOp44
 70
     1
102
RTVSPost2010Prop45
280
     0
102
RTVSPost2010PropOp45
 70
     1
102
RTVSPost2010Prop46
 90
       50
102
RTVSPost2010PropOp46
 70
     1
102
RTVSPost2010Prop47
 90
       50
102
RTVSPost2010PropOp47
 70
     1
102
RTVSPost2010Prop48
 90
       50
102
RTVSPost2010PropOp48
 70
     1
102
RTVSPost2010Prop49
280
     0
102
RTVSPost2010PropOp49
 70
     1
102
RTVSPost2010Prop50
 90
       50
102
RTVSPost2010PropOp50
 70
     1
102
RTVSPost2010Prop51ColorIndex
 90
      256
102
RTVSPost2010Prop51ColorRGB
 90
-16777216
102
RTVSPost2010PropOp51
 70
     0
102
RTVSPost2010Prop52
140
1.0
102
RTVSPost2010PropOp52
 70
     0
102
RTVSPost2010Prop53
 90
        2
102
RTVSPost2010PropOp53
 70
     1
102
RTVSPost2010Prop54
  1
strokes_ogs.tif
102
RTVSPost2010PropOp54
 70
     1
102
RTVSPost2010Prop55
280
     0
102
RTVSPost2010PropOp55
 70
     1
102
RTVSPost2010Prop56
140
1.0
102
RTVSPost2010PropOp56
 70
     1
102
RTVSPost2010Prop57
140
1.0
102
RTVSPost2010PropOp57
 70
     1
102
RTVSPropertyOp0
 70
     1
102
RTVSPropertyOp1
 70
     1
102
RTVSPropertyOp2
 70
     1
102
RTVSPropertyOp3
 70
     1
102
RTVSPropertyOp4
 70
     1
102
RTVSPropertyOp5
 70
     1
102
RTVSPropertyOp6
 70
     1
102
RTVSPropertyOp7
 70
     1
102
RTVSPropertyOp8
 70
     1
102
RTVSPropertyOp9
 70
     1
102
RTVSPropertyOp10
 70
     1
102
RTVSPropertyOp11
 70
     1
102
RTVSPropertyOp12
 70
     1
102
RTVSPropertyOp13
 70
     1
102
RTVSPropertyOp14
 70
     1
102
RTVSPropertyOp15
 70
     1
102
RTVSPropertyOp16
 70
     1
102
RTVSPropertyOp17
 70
     1
102
RTVSPropertyOp18
 70
     1
102
RTVSPropertyOp19
 70
     1
102
RTVSPropertyOp20
 70
     1
102
RTVSPropertyOp21
 70
     1
102
RTVSPropertyOp22
 70
     1
102
RTVSPropertyOp23
 70
     1
102
RTVSPropertyOp24
 70
     1
102
RTVSPropertyOp25
 70
     1
102
RTVSPropertyOp26
 70
     1
102
RTVSPropertyOp27
 70
     1
102
RTVSPropertyOp28
 70
     1
102
RTVSPropertyOp29
 70
     1
102
RTVSPropertyOp30
 70
     1
102
RTVSPropertyOp31
 70
     1
102
RTVSPropertyOp32
 70
     1
102
RTVSPropertyOp33
 70
     1
102
RTVSPropertyOp34
 70
     1
102
RTVSPropertyOp35
 70
     1
102
RTVSPropertyOp36
 70
     1
102
RTVSPropertyOp37
 70
     1
102
RTVSPropertyOp38
 70
     1
102
RTVSPropertyOp39
 70
     1
102
RTVSPropertyOp40
 70
     1
102
RTVSPropertyOp41
 70
     1
102
RTVSPropertyOp42
 70
     1
102
RTVSPropertyOp43
 70
     1
102
RTVSPropertyOp44
 70
     1
102
RTVSPropertyOp45
 70
     1
102
RTVSPropertyOp46
 70
     1
102
RTVSPropertyOp47
 70
     1
102
RTVSPropertyOp48
 70
     1
102
RTVSPropertyOp49
 70
     1
102
RTVSPropertyOp50
 70
     1
102
RTVSPropertyOp51
 70
     0
102
RTVSPropertyOp52
 70
     0
102
RTVSPropertyOp53
 70
     1
102
RTVSPropertyOp54
 70
     1
102
RTVSPropertyOp55
 70
     1
102
RTVSPropertyOp56
 70
     1
102
RTVSPropertyOp57
 70
     1
102
RTVSPropertyOp58
 70
     1
102
RTVSPropertyOp59
 70
     1
102
RTVSPropertyOp60
 70
     1
102
RTVSPropertyOp61
 70
     1
102
RTVSPropertyOp62
 70
     1
  0
XRECORD
  5
51AD
102
{ACAD_REACTORS
330
51AC
102
}
330
51AC
100
AcDbXrecord
280
     1
102
RTVSPost2010Prop28
280
     0
102
RTVSPost2010PropOp28
 70
     1
102
RTVSPost2010Prop29
280
     1
102
RTVSPost2010PropOp29
 70
     1
102
RTVSPost2010Prop30
280
     1
102
RTVSPost2010PropOp30
 70
     1
102
RTVSPost2010Prop31
280
     0
102
RTVSPost2010PropOp31
 70
     1
102
RTVSPost2010Prop32
280
     0
102
RTVSPost2010PropOp32
 70
     1
102
RTVSPost2010Prop33
280
     0
102
RTVSPost2010PropOp33
 70
     1
102
RTVSPost2010Prop34
280
     0
102
RTVSPost2010PropOp34
 70
     1
102
RTVSPost2010Prop35
280
     0
102
RTVSPost2010PropOp35
 70
     1
102
RTVSPost2010Prop36
280
     0
102
RTVSPost2010PropOp36
 70
     1
102
RTVSPost2010Prop37
 90
       50
102
RTVSPost2010PropOp37
 70
     1
102
RTVSPost2010Prop38
140
0.0
102
RTVSPost2010PropOp38
 70
     1
102
RTVSPost2010Prop39
140
1.0
102
RTVSPost2010PropOp39
 70
     1
102
RTVSPost2010Prop40
 90
        0
102
RTVSPost2010PropOp40
 70
     1
102
RTVSPost2010Prop41ColorIndex
 90
       18
102
RTVSPost2010Prop41ColorRGB
 90
        0
102
RTVSPost2010PropOp41
 70
     1
102
RTVSPost2010Prop42
 90
       50
102
RTVSPost2010PropOp42
 70
     1
102
RTVSPost2010Prop43
 90
        3
102
RTVSPost2010PropOp43
 70
     1
102
RTVSPost2010Prop44ColorIndex
 90
        5
102
RTVSPost2010Prop44ColorRGB
 90
      255
102
RTVSPost2010PropOp44
 70
     1
102
RTVSPost2010Prop45
280
     0
102
RTVSPost2010PropOp45
 70
     1
102
RTVSPost2010Prop46
 90
       50
102
RTVSPost2010PropOp46
 70
     1
102
RTVSPost2010Prop47
 90
       50
102
RTVSPost2010PropOp47
 70
     1
102
RTVSPost2010Prop48
 90
       50
102
RTVSPost2010PropOp48
 70
     1
102
RTVSPost2010Prop49
280
     0
102
RTVSPost2010PropOp49
 70
     1
102
RTVSPost2010Prop50
 90
       50
102
RTVSPost2010PropOp50
 70
     1
102
RTVSPost2010Prop51ColorIndex
 90
      256
102
RTVSPost2010Prop51ColorRGB
 90
-16777216
102
RTVSPost2010PropOp51
 70
     0
102
RTVSPost2010Prop52
140
1.0
102
RTVSPost2010PropOp52
 70
     0
102
RTVSPost2010Prop53
 90
        2
102
RTVSPost2010PropOp53
 70
     1
102
RTVSPost2010Prop54
  1
strokes_ogs.tif
102
RTVSPost2010PropOp54
 70
     1
102
RTVSPost2010Prop55
280
     0
102
RTVSPost2010PropOp55
 70
     1
102
RTVSPost2010Prop56
140
1.0
102
RTVSPost2010PropOp56
 70
     1
102
RTVSPost2010Prop57
140
1.0
102
RTVSPost2010PropOp57
 70
     1
102
RTVSPropertyOp0
 70
     1
102
RTVSPropertyOp1
 70
     1
102
RTVSPropertyOp2
 70
     1
102
RTVSPropertyOp3
 70
     1
102
RTVSPropertyOp4
 70
     1
102
RTVSPropertyOp5
 70
     1
102
RTVSPropertyOp6
 70
     1
102
RTVSPropertyOp7
 70
     1
102
RTVSPropertyOp8
 70
     1
102
RTVSPropertyOp9
 70
     1
102
RTVSPropertyOp10
 70
     1
102
RTVSPropertyOp11
 70
     1
102
RTVSPropertyOp12
 70
     1
102
RTVSPropertyOp13
 70
     1
102
RTVSPropertyOp14
 70
     1
102
RTVSPropertyOp15
 70
     1
102
RTVSPropertyOp16
 70
     1
102
RTVSPropertyOp17
 70
     1
102
RTVSPropertyOp18
 70
     1
102
RTVSPropertyOp19
 70
     1
102
RTVSPropertyOp20
 70
     1
102
RTVSPropertyOp21
 70
     1
102
RTVSPropertyOp22
 70
     1
102
RTVSPropertyOp23
 70
     1
102
RTVSPropertyOp24
 70
     1
102
RTVSPropertyOp25
 70
     1
102
RTVSPropertyOp26
 70
     1
102
RTVSPropertyOp27
 70
     1
102
RTVSPropertyOp28
 70
     1
102
RTVSPropertyOp29
 70
     1
102
RTVSPropertyOp30
 70
     1
102
RTVSPropertyOp31
 70
     1
102
RTVSPropertyOp32
 70
     1
102
RTVSPropertyOp33
 70
     1
102
RTVSPropertyOp34
 70
     1
102
RTVSPropertyOp35
 70
     1
102
RTVSPropertyOp36
 70
     1
102
RTVSPropertyOp37
 70
     1
102
RTVSPropertyOp38
 70
     1
102
RTVSPropertyOp39
 70
     1
102
RTVSPropertyOp40
 70
     1
102
RTVSPropertyOp41
 70
     1
102
RTVSPropertyOp42
 70
     1
102
RTVSPropertyOp43
 70
     1
102
RTVSPropertyOp44
 70
     1
102
RTVSPropertyOp45
 70
     1
102
RTVSPropertyOp46
 70
     1
102
RTVSPropertyOp47
 70
     1
102
RTVSPropertyOp48
 70
     1
102
RTVSPropertyOp49
 70
     1
102
RTVSPropertyOp50
 70
     1
102
RTVSPropertyOp51
 70
     0
102
RTVSPropertyOp52
 70
     0
102
RTVSPropertyOp53
 70
     1
102
RTVSPropertyOp54
 70
     1
102
RTVSPropertyOp55
 70
     1
102
RTVSPropertyOp56
 70
     1
102
RTVSPropertyOp57
 70
     1
102
RTVSPropertyOp58
 70
     1
102
RTVSPropertyOp59
 70
     1
102
RTVSPropertyOp60
 70
     1
102
RTVSPropertyOp61
 70
     1
102
RTVSPropertyOp62
 70
     1
  0
XRECORD
  5
51AF
102
{ACAD_REACTORS
330
51AE
102
}
330
51AE
100
AcDbXrecord
280
     1
102
RTVSPost2010Prop28
280
     0
102
RTVSPost2010PropOp28
 70
     1
102
RTVSPost2010Prop29
280
     1
102
RTVSPost2010PropOp29
 70
     1
102
RTVSPost2010Prop30
280
     1
102
RTVSPost2010PropOp30
 70
     1
102
RTVSPost2010Prop31
280
     0
102
RTVSPost2010PropOp31
 70
     1
102
RTVSPost2010Prop32
280
     0
102
RTVSPost2010PropOp32
 70
     1
102
RTVSPost2010Prop33
280
     0
102
RTVSPost2010PropOp33
 70
     1
102
RTVSPost2010Prop34
280
     0
102
RTVSPost2010PropOp34
 70
     1
102
RTVSPost2010Prop35
280
     0
102
RTVSPost2010PropOp35
 70
     1
102
RTVSPost2010Prop36
280
     0
102
RTVSPost2010PropOp36
 70
     1
102
RTVSPost2010Prop37
 90
       50
102
RTVSPost2010PropOp37
 70
     1
102
RTVSPost2010Prop38
140
0.0
102
RTVSPost2010PropOp38
 70
     1
102
RTVSPost2010Prop39
140
1.0
102
RTVSPost2010PropOp39
 70
     1
102
RTVSPost2010Prop40
 90
        0
102
RTVSPost2010PropOp40
 70
     1
102
RTVSPost2010Prop41ColorIndex
 90
       18
102
RTVSPost2010Prop41ColorRGB
 90
        0
102
RTVSPost2010PropOp41
 70
     1
102
RTVSPost2010Prop42
 90
       50
102
RTVSPost2010PropOp42
 70
     1
102
RTVSPost2010Prop43
 90
        3
102
RTVSPost2010PropOp43
 70
     1
102
RTVSPost2010Prop44ColorIndex
 90
        5
102
RTVSPost2010Prop44ColorRGB
 90
      255
102
RTVSPost2010PropOp44
 70
     1
102
RTVSPost2010Prop45
280
     0
102
RTVSPost2010PropOp45
 70
     1
102
RTVSPost2010Prop46
 90
       50
102
RTVSPost2010PropOp46
 70
     1
102
RTVSPost2010Prop47
 90
       50
102
RTVSPost2010PropOp47
 70
     1
102
RTVSPost2010Prop48
 90
       50
102
RTVSPost2010PropOp48
 70
     1
102
RTVSPost2010Prop49
280
     0
102
RTVSPost2010PropOp49
 70
     1
102
RTVSPost2010Prop50
 90
       50
102
RTVSPost2010PropOp50
 70
     1
102
RTVSPost2010Prop51ColorIndex
 90
      256
102
RTVSPost2010Prop51ColorRGB
 90
-16777216
102
RTVSPost2010PropOp51
 70
     0
102
RTVSPost2010Prop52
140
1.0
102
RTVSPost2010PropOp52
 70
     0
102
RTVSPost2010Prop53
 90
        2
102
RTVSPost2010PropOp53
 70
     1
102
RTVSPost2010Prop54
  1
strokes_ogs.tif
102
RTVSPost2010PropOp54
 70
     1
102
RTVSPost2010Prop55
280
     0
102
RTVSPost2010PropOp55
 70
     1
102
RTVSPost2010Prop56
140
1.0
102
RTVSPost2010PropOp56
 70
     1
102
RTVSPost2010Prop57
140
1.0
102
RTVSPost2010PropOp57
 70
     1
102
RTVSPropertyOp0
 70
     1
102
RTVSPropertyOp1
 70
     1
102
RTVSPropertyOp2
 70
     1
102
RTVSPropertyOp3
 70
     1
102
RTVSPropertyOp4
 70
     1
102
RTVSPropertyOp5
 70
     1
102
RTVSPropertyOp6
 70
     1
102
RTVSPropertyOp7
 70
     1
102
RTVSPropertyOp8
 70
     1
102
RTVSPropertyOp9
 70
     1
102
RTVSPropertyOp10
 70
     1
102
RTVSPropertyOp11
 70
     1
102
RTVSPropertyOp12
 70
     1
102
RTVSPropertyOp13
 70
     1
102
RTVSPropertyOp14
 70
     1
102
RTVSPropertyOp15
 70
     1
102
RTVSPropertyOp16
 70
     1
102
RTVSPropertyOp17
 70
     1
102
RTVSPropertyOp18
 70
     1
102
RTVSPropertyOp19
 70
     1
102
RTVSPropertyOp20
 70
     1
102
RTVSPropertyOp21
 70
     1
102
RTVSPropertyOp22
 70
     1
102
RTVSPropertyOp23
 70
     1
102
RTVSPropertyOp24
 70
     1
102
RTVSPropertyOp25
 70
     1
102
RTVSPropertyOp26
 70
     1
102
RTVSPropertyOp27
 70
     1
102
RTVSPropertyOp28
 70
     1
102
RTVSPropertyOp29
 70
     1
102
RTVSPropertyOp30
 70
     1
102
RTVSPropertyOp31
 70
     1
102
RTVSPropertyOp32
 70
     1
102
RTVSPropertyOp33
 70
     1
102
RTVSPropertyOp34
 70
     1
102
RTVSPropertyOp35
 70
     1
102
RTVSPropertyOp36
 70
     1
102
RTVSPropertyOp37
 70
     1
102
RTVSPropertyOp38
 70
     1
102
RTVSPropertyOp39
 70
     1
102
RTVSPropertyOp40
 70
     1
102
RTVSPropertyOp41
 70
     1
102
RTVSPropertyOp42
 70
     1
102
RTVSPropertyOp43
 70
     1
102
RTVSPropertyOp44
 70
     1
102
RTVSPropertyOp45
 70
     1
102
RTVSPropertyOp46
 70
     1
102
RTVSPropertyOp47
 70
     1
102
RTVSPropertyOp48
 70
     1
102
RTVSPropertyOp49
 70
     1
102
RTVSPropertyOp50
 70
     1
102
RTVSPropertyOp51
 70
     0
102
RTVSPropertyOp52
 70
     0
102
RTVSPropertyOp53
 70
     1
102
RTVSPropertyOp54
 70
     1
102
RTVSPropertyOp55
 70
     1
102
RTVSPropertyOp56
 70
     1
102
RTVSPropertyOp57
 70
     1
102
RTVSPropertyOp58
 70
     1
102
RTVSPropertyOp59
 70
     1
102
RTVSPropertyOp60
 70
     1
102
RTVSPropertyOp61
 70
     1
102
RTVSPropertyOp62
 70
     1
  0
XRECORD
  5
51B1
102
{ACAD_REACTORS
330
51B0
102
}
330
51B0
100
AcDbXrecord
280
     1
102
RTVSPost2010Prop28
280
     0
102
RTVSPost2010PropOp28
 70
     1
102
RTVSPost2010Prop29
280
     1
102
RTVSPost2010PropOp29
 70
     1
102
RTVSPost2010Prop30
280
     1
102
RTVSPost2010PropOp30
 70
     1
102
RTVSPost2010Prop31
280
     0
102
RTVSPost2010PropOp31
 70
     1
102
RTVSPost2010Prop32
280
     0
102
RTVSPost2010PropOp32
 70
     1
102
RTVSPost2010Prop33
280
     0
102
RTVSPost2010PropOp33
 70
     1
102
RTVSPost2010Prop34
280
     0
102
RTVSPost2010PropOp34
 70
     1
102
RTVSPost2010Prop35
280
     0
102
RTVSPost2010PropOp35
 70
     1
102
RTVSPost2010Prop36
280
     0
102
RTVSPost2010PropOp36
 70
     1
102
RTVSPost2010Prop37
 90
       50
102
RTVSPost2010PropOp37
 70
     1
102
RTVSPost2010Prop38
140
0.0
102
RTVSPost2010PropOp38
 70
     1
102
RTVSPost2010Prop39
140
1.0
102
RTVSPost2010PropOp39
 70
     1
102
RTVSPost2010Prop40
 90
        0
102
RTVSPost2010PropOp40
 70
     1
102
RTVSPost2010Prop41ColorIndex
 90
       18
102
RTVSPost2010Prop41ColorRGB
 90
        0
102
RTVSPost2010PropOp41
 70
     1
102
RTVSPost2010Prop42
 90
       50
102
RTVSPost2010PropOp42
 70
     1
102
RTVSPost2010Prop43
 90
        3
102
RTVSPost2010PropOp43
 70
     1
102
RTVSPost2010Prop44ColorIndex
 90
        5
102
RTVSPost2010Prop44ColorRGB
 90
      255
102
RTVSPost2010PropOp44
 70
     1
102
RTVSPost2010Prop45
280
     0
102
RTVSPost2010PropOp45
 70
     1
102
RTVSPost2010Prop46
 90
       50
102
RTVSPost2010PropOp46
 70
     1
102
RTVSPost2010Prop47
 90
       50
102
RTVSPost2010PropOp47
 70
     1
102
RTVSPost2010Prop48
 90
       50
102
RTVSPost2010PropOp48
 70
     1
102
RTVSPost2010Prop49
280
     0
102
RTVSPost2010PropOp49
 70
     1
102
RTVSPost2010Prop50
 90
       50
102
RTVSPost2010PropOp50
 70
     1
102
RTVSPost2010Prop51ColorIndex
 90
      256
102
RTVSPost2010Prop51ColorRGB
 90
-16777216
102
RTVSPost2010PropOp51
 70
     0
102
RTVSPost2010Prop52
140
1.0
102
RTVSPost2010PropOp52
 70
     0
102
RTVSPost2010Prop53
 90
        2
102
RTVSPost2010PropOp53
 70
     1
102
RTVSPost2010Prop54
  1
strokes_ogs.tif
102
RTVSPost2010PropOp54
 70
     1
102
RTVSPost2010Prop55
280
     0
102
RTVSPost2010PropOp55
 70
     1
102
RTVSPost2010Prop56
140
1.0
102
RTVSPost2010PropOp56
 70
     1
102
RTVSPost2010Prop57
140
1.0
102
RTVSPost2010PropOp57
 70
     1
102
RTVSPropertyOp0
 70
     1
102
RTVSPropertyOp1
 70
     1
102
RTVSPropertyOp2
 70
     1
102
RTVSPropertyOp3
 70
     1
102
RTVSPropertyOp4
 70
     1
102
RTVSPropertyOp5
 70
     1
102
RTVSPropertyOp6
 70
     1
102
RTVSPropertyOp7
 70
     1
102
RTVSPropertyOp8
 70
     1
102
RTVSPropertyOp9
 70
     1
102
RTVSPropertyOp10
 70
     1
102
RTVSPropertyOp11
 70
     1
102
RTVSPropertyOp12
 70
     1
102
RTVSPropertyOp13
 70
     1
102
RTVSPropertyOp14
 70
     1
102
RTVSPropertyOp15
 70
     1
102
RTVSPropertyOp16
 70
     1
102
RTVSPropertyOp17
 70
     1
102
RTVSPropertyOp18
 70
     1
102
RTVSPropertyOp19
 70
     1
102
RTVSPropertyOp20
 70
     1
102
RTVSPropertyOp21
 70
     1
102
RTVSPropertyOp22
 70
     1
102
RTVSPropertyOp23
 70
     1
102
RTVSPropertyOp24
 70
     1
102
RTVSPropertyOp25
 70
     1
102
RTVSPropertyOp26
 70
     1
102
RTVSPropertyOp27
 70
     1
102
RTVSPropertyOp28
 70
     1
102
RTVSPropertyOp29
 70
     1
102
RTVSPropertyOp30
 70
     1
102
RTVSPropertyOp31
 70
     1
102
RTVSPropertyOp32
 70
     1
102
RTVSPropertyOp33
 70
     1
102
RTVSPropertyOp34
 70
     1
102
RTVSPropertyOp35
 70
     1
102
RTVSPropertyOp36
 70
     1
102
RTVSPropertyOp37
 70
     1
102
RTVSPropertyOp38
 70
     1
102
RTVSPropertyOp39
 70
     1
102
RTVSPropertyOp40
 70
     1
102
RTVSPropertyOp41
 70
     1
102
RTVSPropertyOp42
 70
     1
102
RTVSPropertyOp43
 70
     1
102
RTVSPropertyOp44
 70
     1
102
RTVSPropertyOp45
 70
     1
102
RTVSPropertyOp46
 70
     1
102
RTVSPropertyOp47
 70
     1
102
RTVSPropertyOp48
 70
     1
102
RTVSPropertyOp49
 70
     1
102
RTVSPropertyOp50
 70
     1
102
RTVSPropertyOp51
 70
     0
102
RTVSPropertyOp52
 70
     0
102
RTVSPropertyOp53
 70
     1
102
RTVSPropertyOp54
 70
     1
102
RTVSPropertyOp55
 70
     1
102
RTVSPropertyOp56
 70
     1
102
RTVSPropertyOp57
 70
     1
102
RTVSPropertyOp58
 70
     1
102
RTVSPropertyOp59
 70
     1
102
RTVSPropertyOp60
 70
     1
102
RTVSPropertyOp61
 70
     1
102
RTVSPropertyOp62
 70
     1
  0
XRECORD
  5
51B3
102
{ACAD_REACTORS
330
51B2
102
}
330
51B2
100
AcDbXrecord
280
     1
102
RTVSPost2010Prop28
280
     0
102
RTVSPost2010PropOp28
 70
     1
102
RTVSPost2010Prop29
280
     1
102
RTVSPost2010PropOp29
 70
     1
102
RTVSPost2010Prop30
280
     1
102
RTVSPost2010PropOp30
 70
     1
102
RTVSPost2010Prop31
280
     0
102
RTVSPost2010PropOp31
 70
     1
102
RTVSPost2010Prop32
280
     0
102
RTVSPost2010PropOp32
 70
     1
102
RTVSPost2010Prop33
280
     0
102
RTVSPost2010PropOp33
 70
     1
102
RTVSPost2010Prop34
280
     0
102
RTVSPost2010PropOp34
 70
     1
102
RTVSPost2010Prop35
280
     0
102
RTVSPost2010PropOp35
 70
     1
102
RTVSPost2010Prop36
280
     0
102
RTVSPost2010PropOp36
 70
     1
102
RTVSPost2010Prop37
 90
       50
102
RTVSPost2010PropOp37
 70
     1
102
RTVSPost2010Prop38
140
0.0
102
RTVSPost2010PropOp38
 70
     1
102
RTVSPost2010Prop39
140
1.0
102
RTVSPost2010PropOp39
 70
     1
102
RTVSPost2010Prop40
 90
        0
102
RTVSPost2010PropOp40
 70
     1
102
RTVSPost2010Prop41ColorIndex
 90
       18
102
RTVSPost2010Prop41ColorRGB
 90
        0
102
RTVSPost2010PropOp41
 70
     1
102
RTVSPost2010Prop42
 90
       50
102
RTVSPost2010PropOp42
 70
     1
102
RTVSPost2010Prop43
 90
        3
102
RTVSPost2010PropOp43
 70
     1
102
RTVSPost2010Prop44ColorIndex
 90
        5
102
RTVSPost2010Prop44ColorRGB
 90
      255
102
RTVSPost2010PropOp44
 70
     1
102
RTVSPost2010Prop45
280
     0
102
RTVSPost2010PropOp45
 70
     1
102
RTVSPost2010Prop46
 90
       50
102
RTVSPost2010PropOp46
 70
     1
102
RTVSPost2010Prop47
 90
       50
102
RTVSPost2010PropOp47
 70
     1
102
RTVSPost2010Prop48
 90
       50
102
RTVSPost2010PropOp48
 70
     1
102
RTVSPost2010Prop49
280
     0
102
RTVSPost2010PropOp49
 70
     1
102
RTVSPost2010Prop50
 90
       50
102
RTVSPost2010PropOp50
 70
     1
102
RTVSPost2010Prop51ColorIndex
 90
      256
102
RTVSPost2010Prop51ColorRGB
 90
-16777216
102
RTVSPost2010PropOp51
 70
     0
102
RTVSPost2010Prop52
140
1.0
102
RTVSPost2010PropOp52
 70
     0
102
RTVSPost2010Prop53
 90
        2
102
RTVSPost2010PropOp53
 70
     1
102
RTVSPost2010Prop54
  1
strokes_ogs.tif
102
RTVSPost2010PropOp54
 70
     1
102
RTVSPost2010Prop55
280
     0
102
RTVSPost2010PropOp55
 70
     1
102
RTVSPost2010Prop56
140
1.0
102
RTVSPost2010PropOp56
 70
     1
102
RTVSPost2010Prop57
140
1.0
102
RTVSPost2010PropOp57
 70
     1
102
RTVSPropertyOp0
 70
     1
102
RTVSPropertyOp1
 70
     1
102
RTVSPropertyOp2
 70
     1
102
RTVSPropertyOp3
 70
     1
102
RTVSPropertyOp4
 70
     1
102
RTVSPropertyOp5
 70
     1
102
RTVSPropertyOp6
 70
     1
102
RTVSPropertyOp7
 70
     1
102
RTVSPropertyOp8
 70
     1
102
RTVSPropertyOp9
 70
     1
102
RTVSPropertyOp10
 70
     1
102
RTVSPropertyOp11
 70
     1
102
RTVSPropertyOp12
 70
     1
102
RTVSPropertyOp13
 70
     1
102
RTVSPropertyOp14
 70
     1
102
RTVSPropertyOp15
 70
     1
102
RTVSPropertyOp16
 70
     1
102
RTVSPropertyOp17
 70
     1
102
RTVSPropertyOp18
 70
     1
102
RTVSPropertyOp19
 70
     1
102
RTVSPropertyOp20
 70
     1
102
RTVSPropertyOp21
 70
     1
102
RTVSPropertyOp22
 70
     1
102
RTVSPropertyOp23
 70
     1
102
RTVSPropertyOp24
 70
     1
102
RTVSPropertyOp25
 70
     1
102
RTVSPropertyOp26
 70
     1
102
RTVSPropertyOp27
 70
     1
102
RTVSPropertyOp28
 70
     1
102
RTVSPropertyOp29
 70
     1
102
RTVSPropertyOp30
 70
     1
102
RTVSPropertyOp31
 70
     1
102
RTVSPropertyOp32
 70
     1
102
RTVSPropertyOp33
 70
     1
102
RTVSPropertyOp34
 70
     1
102
RTVSPropertyOp35
 70
     1
102
RTVSPropertyOp36
 70
     1
102
RTVSPropertyOp37
 70
     1
102
RTVSPropertyOp38
 70
     1
102
RTVSPropertyOp39
 70
     1
102
RTVSPropertyOp40
 70
     1
102
RTVSPropertyOp41
 70
     1
102
RTVSPropertyOp42
 70
     1
102
RTVSPropertyOp43
 70
     1
102
RTVSPropertyOp44
 70
     1
102
RTVSPropertyOp45
 70
     1
102
RTVSPropertyOp46
 70
     1
102
RTVSPropertyOp47
 70
     1
102
RTVSPropertyOp48
 70
     1
102
RTVSPropertyOp49
 70
     1
102
RTVSPropertyOp50
 70
     1
102
RTVSPropertyOp51
 70
     0
102
RTVSPropertyOp52
 70
     0
102
RTVSPropertyOp53
 70
     1
102
RTVSPropertyOp54
 70
     1
102
RTVSPropertyOp55
 70
     1
102
RTVSPropertyOp56
 70
     1
102
RTVSPropertyOp57
 70
     1
102
RTVSPropertyOp58
 70
     1
102
RTVSPropertyOp59
 70
     1
102
RTVSPropertyOp60
 70
     1
102
RTVSPropertyOp61
 70
     1
102
RTVSPropertyOp62
 70
     1
  0
XRECORD
  5
51D5
102
{ACAD_REACTORS
330
51D4
102
}
330
51D4
100
AcDbXrecord
280
     1
102
RTVSPost2010Prop28
280
     0
102
RTVSPost2010PropOp28
 70
     1
102
RTVSPost2010Prop29
280
     1
102
RTVSPost2010PropOp29
 70
     1
102
RTVSPost2010Prop30
280
     1
102
RTVSPost2010PropOp30
 70
     1
102
RTVSPost2010Prop31
280
     0
102
RTVSPost2010PropOp31
 70
     1
102
RTVSPost2010Prop32
280
     0
102
RTVSPost2010PropOp32
 70
     1
102
RTVSPost2010Prop33
280
     0
102
RTVSPost2010PropOp33
 70
     1
102
RTVSPost2010Prop34
280
     0
102
RTVSPost2010PropOp34
 70
     1
102
RTVSPost2010Prop35
280
     0
102
RTVSPost2010PropOp35
 70
     1
102
RTVSPost2010Prop36
280
     0
102
RTVSPost2010PropOp36
 70
     1
102
RTVSPost2010Prop37
 90
       50
102
RTVSPost2010PropOp37
 70
     1
102
RTVSPost2010Prop38
140
0.0
102
RTVSPost2010PropOp38
 70
     1
102
RTVSPost2010Prop39
140
1.0
102
RTVSPost2010PropOp39
 70
     1
102
RTVSPost2010Prop40
 90
        0
102
RTVSPost2010PropOp40
 70
     1
102
RTVSPost2010Prop41ColorIndex
 90
       18
102
RTVSPost2010Prop41ColorRGB
 90
        0
102
RTVSPost2010PropOp41
 70
     1
102
RTVSPost2010Prop42
 90
       50
102
RTVSPost2010PropOp42
 70
     1
102
RTVSPost2010Prop43
 90
        3
102
RTVSPost2010PropOp43
 70
     1
102
RTVSPost2010Prop44ColorIndex
 90
        5
102
RTVSPost2010Prop44ColorRGB
 90
      255
102
RTVSPost2010PropOp44
 70
     1
102
RTVSPost2010Prop45
280
     0
102
RTVSPost2010PropOp45
 70
     1
102
RTVSPost2010Prop46
 90
       50
102
RTVSPost2010PropOp46
 70
     1
102
RTVSPost2010Prop47
 90
       50
102
RTVSPost2010PropOp47
 70
     1
102
RTVSPost2010Prop48
 90
       50
102
RTVSPost2010PropOp48
 70
     1
102
RTVSPost2010Prop49
280
     0
102
RTVSPost2010PropOp49
 70
     1
102
RTVSPost2010Prop50
 90
       50
102
RTVSPost2010PropOp50
 70
     1
102
RTVSPost2010Prop51ColorIndex
 90
      256
102
RTVSPost2010Prop51ColorRGB
 90
-16777216
102
RTVSPost2010PropOp51
 70
     0
102
RTVSPost2010Prop52
140
1.0
102
RTVSPost2010PropOp52
 70
     0
102
RTVSPost2010Prop53
 90
        2
102
RTVSPost2010PropOp53
 70
     1
102
RTVSPost2010Prop54
  1
strokes_ogs.tif
102
RTVSPost2010PropOp54
 70
     1
102
RTVSPost2010Prop55
280
     0
102
RTVSPost2010PropOp55
 70
     1
102
RTVSPost2010Prop56
140
1.0
102
RTVSPost2010PropOp56
 70
     1
102
RTVSPost2010Prop57
140
1.0
102
RTVSPost2010PropOp57
 70
     1
102
RTVSPropertyOp0
 70
     1
102
RTVSPropertyOp1
 70
     1
102
RTVSPropertyOp2
 70
     1
102
RTVSPropertyOp3
 70
     1
102
RTVSPropertyOp4
 70
     1
102
RTVSPropertyOp5
 70
     1
102
RTVSPropertyOp6
 70
     1
102
RTVSPropertyOp7
 70
     1
102
RTVSPropertyOp8
 70
     1
102
RTVSPropertyOp9
 70
     1
102
RTVSPropertyOp10
 70
     1
102
RTVSPropertyOp11
 70
     1
102
RTVSPropertyOp12
 70
     1
102
RTVSPropertyOp13
 70
     1
102
RTVSPropertyOp14
 70
     1
102
RTVSPropertyOp15
 70
     1
102
RTVSPropertyOp16
 70
     1
102
RTVSPropertyOp17
 70
     1
102
RTVSPropertyOp18
 70
     1
102
RTVSPropertyOp19
 70
     1
102
RTVSPropertyOp20
 70
     1
102
RTVSPropertyOp21
 70
     1
102
RTVSPropertyOp22
 70
     1
102
RTVSPropertyOp23
 70
     1
102
RTVSPropertyOp24
 70
     1
102
RTVSPropertyOp25
 70
     1
102
RTVSPropertyOp26
 70
     1
102
RTVSPropertyOp27
 70
     1
102
RTVSPropertyOp28
 70
     1
102
RTVSPropertyOp29
 70
     1
102
RTVSPropertyOp30
 70
     1
102
RTVSPropertyOp31
 70
     1
102
RTVSPropertyOp32
 70
     1
102
RTVSPropertyOp33
 70
     1
102
RTVSPropertyOp34
 70
     1
102
RTVSPropertyOp35
 70
     1
102
RTVSPropertyOp36
 70
     1
102
RTVSPropertyOp37
 70
     1
102
RTVSPropertyOp38
 70
     1
102
RTVSPropertyOp39
 70
     1
102
RTVSPropertyOp40
 70
     1
102
RTVSPropertyOp41
 70
     1
102
RTVSPropertyOp42
 70
     1
102
RTVSPropertyOp43
 70
     1
102
RTVSPropertyOp44
 70
     1
102
RTVSPropertyOp45
 70
     1
102
RTVSPropertyOp46
 70
     1
102
RTVSPropertyOp47
 70
     1
102
RTVSPropertyOp48
 70
     1
102
RTVSPropertyOp49
 70
     1
102
RTVSPropertyOp50
 70
     1
102
RTVSPropertyOp51
 70
     0
102
RTVSPropertyOp52
 70
     0
102
RTVSPropertyOp53
 70
     1
102
RTVSPropertyOp54
 70
     1
102
RTVSPropertyOp55
 70
     1
102
RTVSPropertyOp56
 70
     1
102
RTVSPropertyOp57
 70
     1
102
RTVSPropertyOp58
 70
     1
102
RTVSPropertyOp59
 70
     1
102
RTVSPropertyOp60
 70
     1
102
RTVSPropertyOp61
 70
     1
102
RTVSPropertyOp62
 70
     1
  0
XRECORD
  5
51CD
102
{ACAD_REACTORS
330
51CC
102
}
330
51CC
100
AcDbXrecord
280
     1
102
RTVSPost2010Prop28
280
     0
102
RTVSPost2010PropOp28
 70
     1
102
RTVSPost2010Prop29
280
     1
102
RTVSPost2010PropOp29
 70
     1
102
RTVSPost2010Prop30
280
     1
102
RTVSPost2010PropOp30
 70
     1
102
RTVSPost2010Prop31
280
     0
102
RTVSPost2010PropOp31
 70
     1
102
RTVSPost2010Prop32
280
     0
102
RTVSPost2010PropOp32
 70
     1
102
RTVSPost2010Prop33
280
     0
102
RTVSPost2010PropOp33
 70
     1
102
RTVSPost2010Prop34
280
     0
102
RTVSPost2010PropOp34
 70
     1
102
RTVSPost2010Prop35
280
     0
102
RTVSPost2010PropOp35
 70
     1
102
RTVSPost2010Prop36
280
     0
102
RTVSPost2010PropOp36
 70
     1
102
RTVSPost2010Prop37
 90
       50
102
RTVSPost2010PropOp37
 70
     1
102
RTVSPost2010Prop38
140
0.0
102
RTVSPost2010PropOp38
 70
     1
102
RTVSPost2010Prop39
140
1.0
102
RTVSPost2010PropOp39
 70
     1
102
RTVSPost2010Prop40
 90
        0
102
RTVSPost2010PropOp40
 70
     1
102
RTVSPost2010Prop41ColorIndex
 90
       18
102
RTVSPost2010Prop41ColorRGB
 90
        0
102
RTVSPost2010PropOp41
 70
     1
102
RTVSPost2010Prop42
 90
       50
102
RTVSPost2010PropOp42
 70
     1
102
RTVSPost2010Prop43
 90
        3
102
RTVSPost2010PropOp43
 70
     1
102
RTVSPost2010Prop44ColorIndex
 90
        5
102
RTVSPost2010Prop44ColorRGB
 90
      255
102
RTVSPost2010PropOp44
 70
     1
102
RTVSPost2010Prop45
280
     0
102
RTVSPost2010PropOp45
 70
     1
102
RTVSPost2010Prop46
 90
       50
102
RTVSPost2010PropOp46
 70
     1
102
RTVSPost2010Prop47
 90
       50
102
RTVSPost2010PropOp47
 70
     1
102
RTVSPost2010Prop48
 90
       50
102
RTVSPost2010PropOp48
 70
     1
102
RTVSPost2010Prop49
280
     0
102
RTVSPost2010PropOp49
 70
     1
102
RTVSPost2010Prop50
 90
       50
102
RTVSPost2010PropOp50
 70
     1
102
RTVSPost2010Prop51ColorIndex
 90
      256
102
RTVSPost2010Prop51ColorRGB
 90
-16777216
102
RTVSPost2010PropOp51
 70
     0
102
RTVSPost2010Prop52
140
1.0
102
RTVSPost2010PropOp52
 70
     0
102
RTVSPost2010Prop53
 90
        2
102
RTVSPost2010PropOp53
 70
     1
102
RTVSPost2010Prop54
  1
strokes_ogs.tif
102
RTVSPost2010PropOp54
 70
     1
102
RTVSPost2010Prop55
280
     0
102
RTVSPost2010PropOp55
 70
     1
102
RTVSPost2010Prop56
140
1.0
102
RTVSPost2010PropOp56
 70
     1
102
RTVSPost2010Prop57
140
1.0
102
RTVSPost2010PropOp57
 70
     1
102
RTVSPropertyOp0
 70
     0
102
RTVSPropertyOp1
 70
     0
102
RTVSPropertyOp2
 70
     0
102
RTVSPropertyOp3
 70
     0
102
RTVSPropertyOp4
 70
     0
102
RTVSPropertyOp5
 70
     0
102
RTVSPropertyOp6
 70
     0
102
RTVSPropertyOp7
 70
     0
102
RTVSPropertyOp8
 70
     0
102
RTVSPropertyOp9
 70
     0
102
RTVSPropertyOp10
 70
     0
102
RTVSPropertyOp11
 70
     0
102
RTVSPropertyOp12
 70
     0
102
RTVSPropertyOp13
 70
     0
102
RTVSPropertyOp14
 70
     2
102
RTVSPropertyOp15
 70
     0
102
RTVSPropertyOp16
 70
     0
102
RTVSPropertyOp17
 70
     0
102
RTVSPropertyOp18
 70
     0
102
RTVSPropertyOp19
 70
     0
102
RTVSPropertyOp20
 70
     0
102
RTVSPropertyOp21
 70
     0
102
RTVSPropertyOp22
 70
     0
102
RTVSPropertyOp23
 70
     0
102
RTVSPropertyOp24
 70
     0
102
RTVSPropertyOp25
 70
     0
102
RTVSPropertyOp26
 70
     0
102
RTVSPropertyOp27
 70
     0
102
RTVSPropertyOp28
 70
     1
102
RTVSPropertyOp29
 70
     1
102
RTVSPropertyOp30
 70
     1
102
RTVSPropertyOp31
 70
     1
102
RTVSPropertyOp32
 70
     1
102
RTVSPropertyOp33
 70
     1
102
RTVSPropertyOp34
 70
     1
102
RTVSPropertyOp35
 70
     1
102
RTVSPropertyOp36
 70
     1
102
RTVSPropertyOp37
 70
     1
102
RTVSPropertyOp38
 70
     1
102
RTVSPropertyOp39
 70
     1
102
RTVSPropertyOp40
 70
     1
102
RTVSPropertyOp41
 70
     1
102
RTVSPropertyOp42
 70
     1
102
RTVSPropertyOp43
 70
     1
102
RTVSPropertyOp44
 70
     1
102
RTVSPropertyOp45
 70
     1
102
RTVSPropertyOp46
 70
     1
102
RTVSPropertyOp47
 70
     1
102
RTVSPropertyOp48
 70
     1
102
RTVSPropertyOp49
 70
     1
102
RTVSPropertyOp50
 70
     1
102
RTVSPropertyOp51
 70
     0
102
RTVSPropertyOp52
 70
     0
102
RTVSPropertyOp53
 70
     1
102
RTVSPropertyOp54
 70
     1
102
RTVSPropertyOp55
 70
     1
102
RTVSPropertyOp56
 70
     1
102
RTVSPropertyOp57
 70
     1
102
RTVSPropertyOp58
 70
     1
102
RTVSPropertyOp59
 70
     1
102
RTVSPropertyOp60
 70
     1
102
RTVSPropertyOp61
 70
     1
102
RTVSPropertyOp62
 70
     1
  0
XRECORD
  5
51C7
102
{ACAD_REACTORS
330
51C6
102
}
330
51C6
100
AcDbXrecord
280
     1
102
RTVSPost2010Prop28
280
     0
102
RTVSPost2010PropOp28
 70
     1
102
RTVSPost2010Prop29
280
     1
102
RTVSPost2010PropOp29
 70
     1
102
RTVSPost2010Prop30
280
     1
102
RTVSPost2010PropOp30
 70
     1
102
RTVSPost2010Prop31
280
     0
102
RTVSPost2010PropOp31
 70
     1
102
RTVSPost2010Prop32
280
     0
102
RTVSPost2010PropOp32
 70
     1
102
RTVSPost2010Prop33
280
     0
102
RTVSPost2010PropOp33
 70
     1
102
RTVSPost2010Prop34
280
     0
102
RTVSPost2010PropOp34
 70
     1
102
RTVSPost2010Prop35
280
     0
102
RTVSPost2010PropOp35
 70
     1
102
RTVSPost2010Prop36
280
     0
102
RTVSPost2010PropOp36
 70
     1
102
RTVSPost2010Prop37
 90
       50
102
RTVSPost2010PropOp37
 70
     1
102
RTVSPost2010Prop38
140
0.0
102
RTVSPost2010PropOp38
 70
     1
102
RTVSPost2010Prop39
140
1.0
102
RTVSPost2010PropOp39
 70
     1
102
RTVSPost2010Prop40
 90
        0
102
RTVSPost2010PropOp40
 70
     1
102
RTVSPost2010Prop41ColorIndex
 90
       18
102
RTVSPost2010Prop41ColorRGB
 90
        0
102
RTVSPost2010PropOp41
 70
     1
102
RTVSPost2010Prop42
 90
       50
102
RTVSPost2010PropOp42
 70
     1
102
RTVSPost2010Prop43
 90
        3
102
RTVSPost2010PropOp43
 70
     1
102
RTVSPost2010Prop44ColorIndex
 90
        5
102
RTVSPost2010Prop44ColorRGB
 90
      255
102
RTVSPost2010PropOp44
 70
     1
102
RTVSPost2010Prop45
280
     0
102
RTVSPost2010PropOp45
 70
     1
102
RTVSPost2010Prop46
 90
       50
102
RTVSPost2010PropOp46
 70
     1
102
RTVSPost2010Prop47
 90
       50
102
RTVSPost2010PropOp47
 70
     1
102
RTVSPost2010Prop48
 90
       50
102
RTVSPost2010PropOp48
 70
     1
102
RTVSPost2010Prop49
280
     0
102
RTVSPost2010PropOp49
 70
     1
102
RTVSPost2010Prop50
 90
       50
102
RTVSPost2010PropOp50
 70
     1
102
RTVSPost2010Prop51ColorIndex
 90
      256
102
RTVSPost2010Prop51ColorRGB
 90
-16777216
102
RTVSPost2010PropOp51
 70
     0
102
RTVSPost2010Prop52
140
1.0
102
RTVSPost2010PropOp52
 70
     0
102
RTVSPost2010Prop53
 90
        2
102
RTVSPost2010PropOp53
 70
     1
102
RTVSPost2010Prop54
  1
strokes_ogs.tif
102
RTVSPost2010PropOp54
 70
     1
102
RTVSPost2010Prop55
280
     0
102
RTVSPost2010PropOp55
 70
     1
102
RTVSPost2010Prop56
140
1.0
102
RTVSPost2010PropOp56
 70
     1
102
RTVSPost2010Prop57
140
1.0
102
RTVSPost2010PropOp57
 70
     1
102
RTVSPropertyOp0
 70
     1
102
RTVSPropertyOp1
 70
     1
102
RTVSPropertyOp2
 70
     1
102
RTVSPropertyOp3
 70
     1
102
RTVSPropertyOp4
 70
     1
102
RTVSPropertyOp5
 70
     1
102
RTVSPropertyOp6
 70
     1
102
RTVSPropertyOp7
 70
     1
102
RTVSPropertyOp8
 70
     1
102
RTVSPropertyOp9
 70
     1
102
RTVSPropertyOp10
 70
     1
102
RTVSPropertyOp11
 70
     1
102
RTVSPropertyOp12
 70
     1
102
RTVSPropertyOp13
 70
     1
102
RTVSPropertyOp14
 70
     1
102
RTVSPropertyOp15
 70
     1
102
RTVSPropertyOp16
 70
     1
102
RTVSPropertyOp17
 70
     1
102
RTVSPropertyOp18
 70
     1
102
RTVSPropertyOp19
 70
     1
102
RTVSPropertyOp20
 70
     1
102
RTVSPropertyOp21
 70
     1
102
RTVSPropertyOp22
 70
     1
102
RTVSPropertyOp23
 70
     1
102
RTVSPropertyOp24
 70
     1
102
RTVSPropertyOp25
 70
     1
102
RTVSPropertyOp26
 70
     1
102
RTVSPropertyOp27
 70
     1
102
RTVSPropertyOp28
 70
     1
102
RTVSPropertyOp29
 70
     1
102
RTVSPropertyOp30
 70
     1
102
RTVSPropertyOp31
 70
     1
102
RTVSPropertyOp32
 70
     1
102
RTVSPropertyOp33
 70
     1
102
RTVSPropertyOp34
 70
     1
102
RTVSPropertyOp35
 70
     1
102
RTVSPropertyOp36
 70
     1
102
RTVSPropertyOp37
 70
     1
102
RTVSPropertyOp38
 70
     1
102
RTVSPropertyOp39
 70
     1
102
RTVSPropertyOp40
 70
     1
102
RTVSPropertyOp41
 70
     1
102
RTVSPropertyOp42
 70
     1
102
RTVSPropertyOp43
 70
     1
102
RTVSPropertyOp44
 70
     1
102
RTVSPropertyOp45
 70
     1
102
RTVSPropertyOp46
 70
     1
102
RTVSPropertyOp47
 70
     1
102
RTVSPropertyOp48
 70
     1
102
RTVSPropertyOp49
 70
     1
102
RTVSPropertyOp50
 70
     1
102
RTVSPropertyOp51
 70
     0
102
RTVSPropertyOp52
 70
     0
102
RTVSPropertyOp53
 70
     1
102
RTVSPropertyOp54
 70
     1
102
RTVSPropertyOp55
 70
     1
102
RTVSPropertyOp56
 70
     1
102
RTVSPropertyOp57
 70
     1
102
RTVSPropertyOp58
 70
     1
102
RTVSPropertyOp59
 70
     1
102
RTVSPropertyOp60
 70
     1
102
RTVSPropertyOp61
 70
     1
102
RTVSPropertyOp62
 70
     1
  0
XRECORD
  5
51CF
102
{ACAD_REACTORS
330
51CE
102
}
330
51CE
100
AcDbXrecord
280
     1
102
RTVSPost2010Prop28
280
     0
102
RTVSPost2010PropOp28
 70
     1
102
RTVSPost2010Prop29
280
     1
102
RTVSPost2010PropOp29
 70
     1
102
RTVSPost2010Prop30
280
     1
102
RTVSPost2010PropOp30
 70
     1
102
RTVSPost2010Prop31
280
     0
102
RTVSPost2010PropOp31
 70
     1
102
RTVSPost2010Prop32
280
     0
102
RTVSPost2010PropOp32
 70
     1
102
RTVSPost2010Prop33
280
     0
102
RTVSPost2010PropOp33
 70
     1
102
RTVSPost2010Prop34
280
     0
102
RTVSPost2010PropOp34
 70
     1
102
RTVSPost2010Prop35
280
     0
102
RTVSPost2010PropOp35
 70
     1
102
RTVSPost2010Prop36
280
     0
102
RTVSPost2010PropOp36
 70
     1
102
RTVSPost2010Prop37
 90
       50
102
RTVSPost2010PropOp37
 70
     1
102
RTVSPost2010Prop38
140
0.0
102
RTVSPost2010PropOp38
 70
     1
102
RTVSPost2010Prop39
140
1.0
102
RTVSPost2010PropOp39
 70
     1
102
RTVSPost2010Prop40
 90
        0
102
RTVSPost2010PropOp40
 70
     1
102
RTVSPost2010Prop41ColorIndex
 90
       18
102
RTVSPost2010Prop41ColorRGB
 90
        0
102
RTVSPost2010PropOp41
 70
     1
102
RTVSPost2010Prop42
 90
       50
102
RTVSPost2010PropOp42
 70
     1
102
RTVSPost2010Prop43
 90
        3
102
RTVSPost2010PropOp43
 70
     1
102
RTVSPost2010Prop44ColorIndex
 90
        5
102
RTVSPost2010Prop44ColorRGB
 90
      255
102
RTVSPost2010PropOp44
 70
     1
102
RTVSPost2010Prop45
280
     0
102
RTVSPost2010PropOp45
 70
     1
102
RTVSPost2010Prop46
 90
       50
102
RTVSPost2010PropOp46
 70
     1
102
RTVSPost2010Prop47
 90
       50
102
RTVSPost2010PropOp47
 70
     1
102
RTVSPost2010Prop48
 90
       50
102
RTVSPost2010PropOp48
 70
     1
102
RTVSPost2010Prop49
280
     0
102
RTVSPost2010PropOp49
 70
     1
102
RTVSPost2010Prop50
 90
       50
102
RTVSPost2010PropOp50
 70
     1
102
RTVSPost2010Prop51ColorIndex
 90
      256
102
RTVSPost2010Prop51ColorRGB
 90
-16777216
102
RTVSPost2010PropOp51
 70
     0
102
RTVSPost2010Prop52
140
1.0
102
RTVSPost2010PropOp52
 70
     0
102
RTVSPost2010Prop53
 90
        2
102
RTVSPost2010PropOp53
 70
     1
102
RTVSPost2010Prop54
  1
strokes_ogs.tif
102
RTVSPost2010PropOp54
 70
     1
102
RTVSPost2010Prop55
280
     0
102
RTVSPost2010PropOp55
 70
     1
102
RTVSPost2010Prop56
140
1.0
102
RTVSPost2010PropOp56
 70
     1
102
RTVSPost2010Prop57
140
1.0
102
RTVSPost2010PropOp57
 70
     1
102
RTVSPropertyOp0
 70
     0
102
RTVSPropertyOp1
 70
     0
102
RTVSPropertyOp2
 70
     0
102
RTVSPropertyOp3
 70
     0
102
RTVSPropertyOp4
 70
     0
102
RTVSPropertyOp5
 70
     0
102
RTVSPropertyOp6
 70
     0
102
RTVSPropertyOp7
 70
     0
102
RTVSPropertyOp8
 70
     0
102
RTVSPropertyOp9
 70
     0
102
RTVSPropertyOp10
 70
     0
102
RTVSPropertyOp11
 70
     0
102
RTVSPropertyOp12
 70
     0
102
RTVSPropertyOp13
 70
     0
102
RTVSPropertyOp14
 70
     2
102
RTVSPropertyOp15
 70
     0
102
RTVSPropertyOp16
 70
     0
102
RTVSPropertyOp17
 70
     0
102
RTVSPropertyOp18
 70
     0
102
RTVSPropertyOp19
 70
     0
102
RTVSPropertyOp20
 70
     0
102
RTVSPropertyOp21
 70
     0
102
RTVSPropertyOp22
 70
     0
102
RTVSPropertyOp23
 70
     0
102
RTVSPropertyOp24
 70
     0
102
RTVSPropertyOp25
 70
     0
102
RTVSPropertyOp26
 70
     0
102
RTVSPropertyOp27
 70
     0
102
RTVSPropertyOp28
 70
     1
102
RTVSPropertyOp29
 70
     1
102
RTVSPropertyOp30
 70
     1
102
RTVSPropertyOp31
 70
     1
102
RTVSPropertyOp32
 70
     1
102
RTVSPropertyOp33
 70
     1
102
RTVSPropertyOp34
 70
     1
102
RTVSPropertyOp35
 70
     1
102
RTVSPropertyOp36
 70
     1
102
RTVSPropertyOp37
 70
     1
102
RTVSPropertyOp38
 70
     1
102
RTVSPropertyOp39
 70
     1
102
RTVSPropertyOp40
 70
     1
102
RTVSPropertyOp41
 70
     1
102
RTVSPropertyOp42
 70
     1
102
RTVSPropertyOp43
 70
     1
102
RTVSPropertyOp44
 70
     1
102
RTVSPropertyOp45
 70
     1
102
RTVSPropertyOp46
 70
     1
102
RTVSPropertyOp47
 70
     1
102
RTVSPropertyOp48
 70
     1
102
RTVSPropertyOp49
 70
     1
102
RTVSPropertyOp50
 70
     1
102
RTVSPropertyOp51
 70
     0
102
RTVSPropertyOp52
 70
     0
102
RTVSPropertyOp53
 70
     1
102
RTVSPropertyOp54
 70
     1
102
RTVSPropertyOp55
 70
     1
102
RTVSPropertyOp56
 70
     1
102
RTVSPropertyOp57
 70
     1
102
RTVSPropertyOp58
 70
     1
102
RTVSPropertyOp59
 70
     1
102
RTVSPropertyOp60
 70
     1
102
RTVSPropertyOp61
 70
     1
102
RTVSPropertyOp62
 70
     1
  0
XRECORD
  5
51BF
102
{ACAD_REACTORS
330
51BE
102
}
330
51BE
100
AcDbXrecord
280
     1
102
RTVSPost2010Prop28
280
     0
102
RTVSPost2010PropOp28
 70
     1
102
RTVSPost2010Prop29
280
     1
102
RTVSPost2010PropOp29
 70
     1
102
RTVSPost2010Prop30
280
     1
102
RTVSPost2010PropOp30
 70
     1
102
RTVSPost2010Prop31
280
     0
102
RTVSPost2010PropOp31
 70
     1
102
RTVSPost2010Prop32
280
     0
102
RTVSPost2010PropOp32
 70
     1
102
RTVSPost2010Prop33
280
     0
102
RTVSPost2010PropOp33
 70
     1
102
RTVSPost2010Prop34
280
     0
102
RTVSPost2010PropOp34
 70
     1
102
RTVSPost2010Prop35
280
     0
102
RTVSPost2010PropOp35
 70
     1
102
RTVSPost2010Prop36
280
     0
102
RTVSPost2010PropOp36
 70
     1
102
RTVSPost2010Prop37
 90
       50
102
RTVSPost2010PropOp37
 70
     1
102
RTVSPost2010Prop38
140
0.0
102
RTVSPost2010PropOp38
 70
     1
102
RTVSPost2010Prop39
140
1.0
102
RTVSPost2010PropOp39
 70
     1
102
RTVSPost2010Prop40
 90
        0
102
RTVSPost2010PropOp40
 70
     1
102
RTVSPost2010Prop41ColorIndex
 90
       18
102
RTVSPost2010Prop41ColorRGB
 90
        0
102
RTVSPost2010PropOp41
 70
     1
102
RTVSPost2010Prop42
 90
       50
102
RTVSPost2010PropOp42
 70
     1
102
RTVSPost2010Prop43
 90
        3
102
RTVSPost2010PropOp43
 70
     1
102
RTVSPost2010Prop44ColorIndex
 90
        5
102
RTVSPost2010Prop44ColorRGB
 90
      255
102
RTVSPost2010PropOp44
 70
     1
102
RTVSPost2010Prop45
280
     0
102
RTVSPost2010PropOp45
 70
     1
102
RTVSPost2010Prop46
 90
       50
102
RTVSPost2010PropOp46
 70
     1
102
RTVSPost2010Prop47
 90
       50
102
RTVSPost2010PropOp47
 70
     1
102
RTVSPost2010Prop48
 90
       50
102
RTVSPost2010PropOp48
 70
     1
102
RTVSPost2010Prop49
280
     0
102
RTVSPost2010PropOp49
 70
     1
102
RTVSPost2010Prop50
 90
       50
102
RTVSPost2010PropOp50
 70
     1
102
RTVSPost2010Prop51ColorIndex
 90
      256
102
RTVSPost2010Prop51ColorRGB
 90
-16777216
102
RTVSPost2010PropOp51
 70
     0
102
RTVSPost2010Prop52
140
1.0
102
RTVSPost2010PropOp52
 70
     0
102
RTVSPost2010Prop53
 90
        2
102
RTVSPost2010PropOp53
 70
     1
102
RTVSPost2010Prop54
  1
strokes_ogs.tif
102
RTVSPost2010PropOp54
 70
     1
102
RTVSPost2010Prop55
280
     0
102
RTVSPost2010PropOp55
 70
     1
102
RTVSPost2010Prop56
140
1.0
102
RTVSPost2010PropOp56
 70
     1
102
RTVSPost2010Prop57
140
1.0
102
RTVSPost2010PropOp57
 70
     1
102
RTVSPropertyOp0
 70
     1
102
RTVSPropertyOp1
 70
     1
102
RTVSPropertyOp2
 70
     1
102
RTVSPropertyOp3
 70
     1
102
RTVSPropertyOp4
 70
     1
102
RTVSPropertyOp5
 70
     1
102
RTVSPropertyOp6
 70
     1
102
RTVSPropertyOp7
 70
     1
102
RTVSPropertyOp8
 70
     1
102
RTVSPropertyOp9
 70
     1
102
RTVSPropertyOp10
 70
     1
102
RTVSPropertyOp11
 70
     1
102
RTVSPropertyOp12
 70
     1
102
RTVSPropertyOp13
 70
     1
102
RTVSPropertyOp14
 70
     1
102
RTVSPropertyOp15
 70
     1
102
RTVSPropertyOp16
 70
     1
102
RTVSPropertyOp17
 70
     1
102
RTVSPropertyOp18
 70
     1
102
RTVSPropertyOp19
 70
     1
102
RTVSPropertyOp20
 70
     1
102
RTVSPropertyOp21
 70
     1
102
RTVSPropertyOp22
 70
     1
102
RTVSPropertyOp23
 70
     1
102
RTVSPropertyOp24
 70
     1
102
RTVSPropertyOp25
 70
     1
102
RTVSPropertyOp26
 70
     1
102
RTVSPropertyOp27
 70
     1
102
RTVSPropertyOp28
 70
     1
102
RTVSPropertyOp29
 70
     1
102
RTVSPropertyOp30
 70
     1
102
RTVSPropertyOp31
 70
     1
102
RTVSPropertyOp32
 70
     1
102
RTVSPropertyOp33
 70
     1
102
RTVSPropertyOp34
 70
     1
102
RTVSPropertyOp35
 70
     1
102
RTVSPropertyOp36
 70
     1
102
RTVSPropertyOp37
 70
     1
102
RTVSPropertyOp38
 70
     1
102
RTVSPropertyOp39
 70
     1
102
RTVSPropertyOp40
 70
     1
102
RTVSPropertyOp41
 70
     1
102
RTVSPropertyOp42
 70
     1
102
RTVSPropertyOp43
 70
     1
102
RTVSPropertyOp44
 70
     1
102
RTVSPropertyOp45
 70
     1
102
RTVSPropertyOp46
 70
     1
102
RTVSPropertyOp47
 70
     1
102
RTVSPropertyOp48
 70
     1
102
RTVSPropertyOp49
 70
     1
102
RTVSPropertyOp50
 70
     1
102
RTVSPropertyOp51
 70
     0
102
RTVSPropertyOp52
 70
     0
102
RTVSPropertyOp53
 70
     1
102
RTVSPropertyOp54
 70
     1
102
RTVSPropertyOp55
 70
     1
102
RTVSPropertyOp56
 70
     1
102
RTVSPropertyOp57
 70
     1
102
RTVSPropertyOp58
 70
     1
102
RTVSPropertyOp59
 70
     1
102
RTVSPropertyOp60
 70
     1
102
RTVSPropertyOp61
 70
     1
102
RTVSPropertyOp62
 70
     1
  0
XRECORD
  5
51DF
102
{ACAD_REACTORS
330
51DE
102
}
330
51DE
100
AcDbXrecord
280
     1
102
RTVSPost2010Prop28
280
     0
102
RTVSPost2010PropOp28
 70
     1
102
RTVSPost2010Prop29
280
     1
102
RTVSPost2010PropOp29
 70
     1
102
RTVSPost2010Prop30
280
     1
102
RTVSPost2010PropOp30
 70
     1
102
RTVSPost2010Prop31
280
     0
102
RTVSPost2010PropOp31
 70
     1
102
RTVSPost2010Prop32
280
     0
102
RTVSPost2010PropOp32
 70
     1
102
RTVSPost2010Prop33
280
     0
102
RTVSPost2010PropOp33
 70
     1
102
RTVSPost2010Prop34
280
     0
102
RTVSPost2010PropOp34
 70
     1
102
RTVSPost2010Prop35
280
     0
102
RTVSPost2010PropOp35
 70
     1
102
RTVSPost2010Prop36
280
     0
102
RTVSPost2010PropOp36
 70
     1
102
RTVSPost2010Prop37
 90
       50
102
RTVSPost2010PropOp37
 70
     1
102
RTVSPost2010Prop38
140
0.0
102
RTVSPost2010PropOp38
 70
     1
102
RTVSPost2010Prop39
140
1.0
102
RTVSPost2010PropOp39
 70
     1
102
RTVSPost2010Prop40
 90
        0
102
RTVSPost2010PropOp40
 70
     1
102
RTVSPost2010Prop41ColorIndex
 90
       18
102
RTVSPost2010Prop41ColorRGB
 90
        0
102
RTVSPost2010PropOp41
 70
     1
102
RTVSPost2010Prop42
 90
       50
102
RTVSPost2010PropOp42
 70
     1
102
RTVSPost2010Prop43
 90
        3
102
RTVSPost2010PropOp43
 70
     1
102
RTVSPost2010Prop44ColorIndex
 90
        5
102
RTVSPost2010Prop44ColorRGB
 90
      255
102
RTVSPost2010PropOp44
 70
     1
102
RTVSPost2010Prop45
280
     0
102
RTVSPost2010PropOp45
 70
     1
102
RTVSPost2010Prop46
 90
       50
102
RTVSPost2010PropOp46
 70
     1
102
RTVSPost2010Prop47
 90
       50
102
RTVSPost2010PropOp47
 70
     1
102
RTVSPost2010Prop48
 90
       50
102
RTVSPost2010PropOp48
 70
     1
102
RTVSPost2010Prop49
280
     0
102
RTVSPost2010PropOp49
 70
     1
102
RTVSPost2010Prop50
 90
       50
102
RTVSPost2010PropOp50
 70
     1
102
RTVSPost2010Prop51ColorIndex
 90
      256
102
RTVSPost2010Prop51ColorRGB
 90
-16777216
102
RTVSPost2010PropOp51
 70
     0
102
RTVSPost2010Prop52
140
1.0
102
RTVSPost2010PropOp52
 70
     0
102
RTVSPost2010Prop53
 90
        2
102
RTVSPost2010PropOp53
 70
     1
102
RTVSPost2010Prop54
  1
strokes_ogs.tif
102
RTVSPost2010PropOp54
 70
     1
102
RTVSPost2010Prop55
280
     0
102
RTVSPost2010PropOp55
 70
     1
102
RTVSPost2010Prop56
140
1.0
102
RTVSPost2010PropOp56
 70
     1
102
RTVSPost2010Prop57
140
1.0
102
RTVSPost2010PropOp57
 70
     1
102
RTVSPropertyOp0
 70
     1
102
RTVSPropertyOp1
 70
     1
102
RTVSPropertyOp2
 70
     1
102
RTVSPropertyOp3
 70
     1
102
RTVSPropertyOp4
 70
     1
102
RTVSPropertyOp5
 70
     1
102
RTVSPropertyOp6
 70
     1
102
RTVSPropertyOp7
 70
     1
102
RTVSPropertyOp8
 70
     1
102
RTVSPropertyOp9
 70
     1
102
RTVSPropertyOp10
 70
     1
102
RTVSPropertyOp11
 70
     1
102
RTVSPropertyOp12
 70
     1
102
RTVSPropertyOp13
 70
     1
102
RTVSPropertyOp14
 70
     1
102
RTVSPropertyOp15
 70
     1
102
RTVSPropertyOp16
 70
     1
102
RTVSPropertyOp17
 70
     1
102
RTVSPropertyOp18
 70
     1
102
RTVSPropertyOp19
 70
     1
102
RTVSPropertyOp20
 70
     1
102
RTVSPropertyOp21
 70
     1
102
RTVSPropertyOp22
 70
     1
102
RTVSPropertyOp23
 70
     1
102
RTVSPropertyOp24
 70
     1
102
RTVSPropertyOp25
 70
     1
102
RTVSPropertyOp26
 70
     1
102
RTVSPropertyOp27
 70
     1
102
RTVSPropertyOp28
 70
     1
102
RTVSPropertyOp29
 70
     1
102
RTVSPropertyOp30
 70
     1
102
RTVSPropertyOp31
 70
     1
102
RTVSPropertyOp32
 70
     1
102
RTVSPropertyOp33
 70
     1
102
RTVSPropertyOp34
 70
     1
102
RTVSPropertyOp35
 70
     1
102
RTVSPropertyOp36
 70
     1
102
RTVSPropertyOp37
 70
     1
102
RTVSPropertyOp38
 70
     1
102
RTVSPropertyOp39
 70
     1
102
RTVSPropertyOp40
 70
     1
102
RTVSPropertyOp41
 70
     1
102
RTVSPropertyOp42
 70
     1
102
RTVSPropertyOp43
 70
     1
102
RTVSPropertyOp44
 70
     1
102
RTVSPropertyOp45
 70
     1
102
RTVSPropertyOp46
 70
     1
102
RTVSPropertyOp47
 70
     1
102
RTVSPropertyOp48
 70
     1
102
RTVSPropertyOp49
 70
     1
102
RTVSPropertyOp50
 70
     1
102
RTVSPropertyOp51
 70
     0
102
RTVSPropertyOp52
 70
     0
102
RTVSPropertyOp53
 70
     1
102
RTVSPropertyOp54
 70
     1
102
RTVSPropertyOp55
 70
     1
102
RTVSPropertyOp56
 70
     1
102
RTVSPropertyOp57
 70
     1
102
RTVSPropertyOp58
 70
     1
102
RTVSPropertyOp59
 70
     1
102
RTVSPropertyOp60
 70
     1
102
RTVSPropertyOp61
 70
     1
102
RTVSPropertyOp62
 70
     1
  0
XRECORD
  5
51DD
102
{ACAD_REACTORS
330
51DC
102
}
330
51DC
100
AcDbXrecord
280
     1
102
RTVSPost2010Prop28
280
     0
102
RTVSPost2010PropOp28
 70
     1
102
RTVSPost2010Prop29
280
     1
102
RTVSPost2010PropOp29
 70
     1
102
RTVSPost2010Prop30
280
     1
102
RTVSPost2010PropOp30
 70
     1
102
RTVSPost2010Prop31
280
     0
102
RTVSPost2010PropOp31
 70
     1
102
RTVSPost2010Prop32
280
     0
102
RTVSPost2010PropOp32
 70
     1
102
RTVSPost2010Prop33
280
     0
102
RTVSPost2010PropOp33
 70
     1
102
RTVSPost2010Prop34
280
     0
102
RTVSPost2010PropOp34
 70
     1
102
RTVSPost2010Prop35
280
     0
102
RTVSPost2010PropOp35
 70
     1
102
RTVSPost2010Prop36
280
     0
102
RTVSPost2010PropOp36
 70
     1
102
RTVSPost2010Prop37
 90
       50
102
RTVSPost2010PropOp37
 70
     1
102
RTVSPost2010Prop38
140
0.0
102
RTVSPost2010PropOp38
 70
     1
102
RTVSPost2010Prop39
140
1.0
102
RTVSPost2010PropOp39
 70
     1
102
RTVSPost2010Prop40
 90
        0
102
RTVSPost2010PropOp40
 70
     1
102
RTVSPost2010Prop41ColorIndex
 90
       18
102
RTVSPost2010Prop41ColorRGB
 90
        0
102
RTVSPost2010PropOp41
 70
     1
102
RTVSPost2010Prop42
 90
       50
102
RTVSPost2010PropOp42
 70
     1
102
RTVSPost2010Prop43
 90
        3
102
RTVSPost2010PropOp43
 70
     1
102
RTVSPost2010Prop44ColorIndex
 90
        5
102
RTVSPost2010Prop44ColorRGB
 90
      255
102
RTVSPost2010PropOp44
 70
     1
102
RTVSPost2010Prop45
280
     0
102
RTVSPost2010PropOp45
 70
     1
102
RTVSPost2010Prop46
 90
       50
102
RTVSPost2010PropOp46
 70
     1
102
RTVSPost2010Prop47
 90
       50
102
RTVSPost2010PropOp47
 70
     1
102
RTVSPost2010Prop48
 90
       50
102
RTVSPost2010PropOp48
 70
     1
102
RTVSPost2010Prop49
280
     0
102
RTVSPost2010PropOp49
 70
     1
102
RTVSPost2010Prop50
 90
       50
102
RTVSPost2010PropOp50
 70
     1
102
RTVSPost2010Prop51ColorIndex
 90
      256
102
RTVSPost2010Prop51ColorRGB
 90
-16777216
102
RTVSPost2010PropOp51
 70
     0
102
RTVSPost2010Prop52
140
1.0
102
RTVSPost2010PropOp52
 70
     0
102
RTVSPost2010Prop53
 90
        2
102
RTVSPost2010PropOp53
 70
     1
102
RTVSPost2010Prop54
  1
strokes_ogs.tif
102
RTVSPost2010PropOp54
 70
     1
102
RTVSPost2010Prop55
280
     0
102
RTVSPost2010PropOp55
 70
     1
102
RTVSPost2010Prop56
140
1.0
102
RTVSPost2010PropOp56
 70
     1
102
RTVSPost2010Prop57
140
1.0
102
RTVSPost2010PropOp57
 70
     1
102
RTVSPropertyOp0
 70
     1
102
RTVSPropertyOp1
 70
     1
102
RTVSPropertyOp2
 70
     1
102
RTVSPropertyOp3
 70
     1
102
RTVSPropertyOp4
 70
     1
102
RTVSPropertyOp5
 70
     1
102
RTVSPropertyOp6
 70
     1
102
RTVSPropertyOp7
 70
     1
102
RTVSPropertyOp8
 70
     1
102
RTVSPropertyOp9
 70
     1
102
RTVSPropertyOp10
 70
     1
102
RTVSPropertyOp11
 70
     1
102
RTVSPropertyOp12
 70
     1
102
RTVSPropertyOp13
 70
     1
102
RTVSPropertyOp14
 70
     1
102
RTVSPropertyOp15
 70
     1
102
RTVSPropertyOp16
 70
     1
102
RTVSPropertyOp17
 70
     1
102
RTVSPropertyOp18
 70
     1
102
RTVSPropertyOp19
 70
     1
102
RTVSPropertyOp20
 70
     1
102
RTVSPropertyOp21
 70
     1
102
RTVSPropertyOp22
 70
     1
102
RTVSPropertyOp23
 70
     1
102
RTVSPropertyOp24
 70
     1
102
RTVSPropertyOp25
 70
     1
102
RTVSPropertyOp26
 70
     1
102
RTVSPropertyOp27
 70
     1
102
RTVSPropertyOp28
 70
     1
102
RTVSPropertyOp29
 70
     1
102
RTVSPropertyOp30
 70
     1
102
RTVSPropertyOp31
 70
     1
102
RTVSPropertyOp32
 70
     1
102
RTVSPropertyOp33
 70
     1
102
RTVSPropertyOp34
 70
     1
102
RTVSPropertyOp35
 70
     1
102
RTVSPropertyOp36
 70
     1
102
RTVSPropertyOp37
 70
     1
102
RTVSPropertyOp38
 70
     1
102
RTVSPropertyOp39
 70
     1
102
RTVSPropertyOp40
 70
     1
102
RTVSPropertyOp41
 70
     1
102
RTVSPropertyOp42
 70
     1
102
RTVSPropertyOp43
 70
     1
102
RTVSPropertyOp44
 70
     1
102
RTVSPropertyOp45
 70
     1
102
RTVSPropertyOp46
 70
     1
102
RTVSPropertyOp47
 70
     1
102
RTVSPropertyOp48
 70
     1
102
RTVSPropertyOp49
 70
     1
102
RTVSPropertyOp50
 70
     1
102
RTVSPropertyOp51
 70
     0
102
RTVSPropertyOp52
 70
     0
102
RTVSPropertyOp53
 70
     1
102
RTVSPropertyOp54
 70
     1
102
RTVSPropertyOp55
 70
     1
102
RTVSPropertyOp56
 70
     1
102
RTVSPropertyOp57
 70
     1
102
RTVSPropertyOp58
 70
     1
102
RTVSPropertyOp59
 70
     1
102
RTVSPropertyOp60
 70
     1
102
RTVSPropertyOp61
 70
     1
102
RTVSPropertyOp62
 70
     1
  0
XRECORD
  5
51D7
102
{ACAD_REACTORS
330
51D6
102
}
330
51D6
100
AcDbXrecord
280
     1
102
RTVSPost2010Prop28
280
     0
102
RTVSPost2010PropOp28
 70
     1
102
RTVSPost2010Prop29
280
     1
102
RTVSPost2010PropOp29
 70
     1
102
RTVSPost2010Prop30
280
     1
102
RTVSPost2010PropOp30
 70
     1
102
RTVSPost2010Prop31
280
     0
102
RTVSPost2010PropOp31
 70
     1
102
RTVSPost2010Prop32
280
     0
102
RTVSPost2010PropOp32
 70
     1
102
RTVSPost2010Prop33
280
     0
102
RTVSPost2010PropOp33
 70
     1
102
RTVSPost2010Prop34
280
     0
102
RTVSPost2010PropOp34
 70
     1
102
RTVSPost2010Prop35
280
     0
102
RTVSPost2010PropOp35
 70
     1
102
RTVSPost2010Prop36
280
     0
102
RTVSPost2010PropOp36
 70
     1
102
RTVSPost2010Prop37
 90
       50
102
RTVSPost2010PropOp37
 70
     1
102
RTVSPost2010Prop38
140
0.0
102
RTVSPost2010PropOp38
 70
     1
102
RTVSPost2010Prop39
140
1.0
102
RTVSPost2010PropOp39
 70
     1
102
RTVSPost2010Prop40
 90
        0
102
RTVSPost2010PropOp40
 70
     1
102
RTVSPost2010Prop41ColorIndex
 90
       18
102
RTVSPost2010Prop41ColorRGB
 90
        0
102
RTVSPost2010PropOp41
 70
     1
102
RTVSPost2010Prop42
 90
       50
102
RTVSPost2010PropOp42
 70
     1
102
RTVSPost2010Prop43
 90
        3
102
RTVSPost2010PropOp43
 70
     1
102
RTVSPost2010Prop44ColorIndex
 90
        5
102
RTVSPost2010Prop44ColorRGB
 90
      255
102
RTVSPost2010PropOp44
 70
     1
102
RTVSPost2010Prop45
280
     0
102
RTVSPost2010PropOp45
 70
     1
102
RTVSPost2010Prop46
 90
       50
102
RTVSPost2010PropOp46
 70
     1
102
RTVSPost2010Prop47
 90
       50
102
RTVSPost2010PropOp47
 70
     1
102
RTVSPost2010Prop48
 90
       50
102
RTVSPost2010PropOp48
 70
     1
102
RTVSPost2010Prop49
280
     0
102
RTVSPost2010PropOp49
 70
     1
102
RTVSPost2010Prop50
 90
       50
102
RTVSPost2010PropOp50
 70
     1
102
RTVSPost2010Prop51ColorIndex
 90
      256
102
RTVSPost2010Prop51ColorRGB
 90
-16777216
102
RTVSPost2010PropOp51
 70
     0
102
RTVSPost2010Prop52
140
1.0
102
RTVSPost2010PropOp52
 70
     0
102
RTVSPost2010Prop53
 90
        2
102
RTVSPost2010PropOp53
 70
     1
102
RTVSPost2010Prop54
  1
strokes_ogs.tif
102
RTVSPost2010PropOp54
 70
     1
102
RTVSPost2010Prop55
280
     0
102
RTVSPost2010PropOp55
 70
     1
102
RTVSPost2010Prop56
140
1.0
102
RTVSPost2010PropOp56
 70
     1
102
RTVSPost2010Prop57
140
1.0
102
RTVSPost2010PropOp57
 70
     1
102
RTVSPropertyOp0
 70
     1
102
RTVSPropertyOp1
 70
     1
102
RTVSPropertyOp2
 70
     1
102
RTVSPropertyOp3
 70
     1
102
RTVSPropertyOp4
 70
     1
102
RTVSPropertyOp5
 70
     1
102
RTVSPropertyOp6
 70
     1
102
RTVSPropertyOp7
 70
     1
102
RTVSPropertyOp8
 70
     1
102
RTVSPropertyOp9
 70
     1
102
RTVSPropertyOp10
 70
     1
102
RTVSPropertyOp11
 70
     1
102
RTVSPropertyOp12
 70
     1
102
RTVSPropertyOp13
 70
     1
102
RTVSPropertyOp14
 70
     1
102
RTVSPropertyOp15
 70
     1
102
RTVSPropertyOp16
 70
     1
102
RTVSPropertyOp17
 70
     1
102
RTVSPropertyOp18
 70
     1
102
RTVSPropertyOp19
 70
     1
102
RTVSPropertyOp20
 70
     1
102
RTVSPropertyOp21
 70
     1
102
RTVSPropertyOp22
 70
     1
102
RTVSPropertyOp23
 70
     1
102
RTVSPropertyOp24
 70
     1
102
RTVSPropertyOp25
 70
     1
102
RTVSPropertyOp26
 70
     1
102
RTVSPropertyOp27
 70
     1
102
RTVSPropertyOp28
 70
     1
102
RTVSPropertyOp29
 70
     1
102
RTVSPropertyOp30
 70
     1
102
RTVSPropertyOp31
 70
     1
102
RTVSPropertyOp32
 70
     1
102
RTVSPropertyOp33
 70
     1
102
RTVSPropertyOp34
 70
     1
102
RTVSPropertyOp35
 70
     1
102
RTVSPropertyOp36
 70
     1
102
RTVSPropertyOp37
 70
     1
102
RTVSPropertyOp38
 70
     1
102
RTVSPropertyOp39
 70
     1
102
RTVSPropertyOp40
 70
     1
102
RTVSPropertyOp41
 70
     1
102
RTVSPropertyOp42
 70
     1
102
RTVSPropertyOp43
 70
     1
102
RTVSPropertyOp44
 70
     1
102
RTVSPropertyOp45
 70
     1
102
RTVSPropertyOp46
 70
     1
102
RTVSPropertyOp47
 70
     1
102
RTVSPropertyOp48
 70
     1
102
RTVSPropertyOp49
 70
     1
102
RTVSPropertyOp50
 70
     1
102
RTVSPropertyOp51
 70
     0
102
RTVSPropertyOp52
 70
     0
102
RTVSPropertyOp53
 70
     1
102
RTVSPropertyOp54
 70
     1
102
RTVSPropertyOp55
 70
     1
102
RTVSPropertyOp56
 70
     1
102
RTVSPropertyOp57
 70
     1
102
RTVSPropertyOp58
 70
     1
102
RTVSPropertyOp59
 70
     1
102
RTVSPropertyOp60
 70
     1
102
RTVSPropertyOp61
 70
     1
102
RTVSPropertyOp62
 70
     1
  0
XRECORD
  5
51D9
102
{ACAD_REACTORS
330
51D8
102
}
330
51D8
100
AcDbXrecord
280
     1
102
RTVSPost2010Prop28
280
     0
102
RTVSPost2010PropOp28
 70
     1
102
RTVSPost2010Prop29
280
     1
102
RTVSPost2010PropOp29
 70
     1
102
RTVSPost2010Prop30
280
     1
102
RTVSPost2010PropOp30
 70
     1
102
RTVSPost2010Prop31
280
     0
102
RTVSPost2010PropOp31
 70
     1
102
RTVSPost2010Prop32
280
     0
102
RTVSPost2010PropOp32
 70
     1
102
RTVSPost2010Prop33
280
     0
102
RTVSPost2010PropOp33
 70
     1
102
RTVSPost2010Prop34
280
     0
102
RTVSPost2010PropOp34
 70
     1
102
RTVSPost2010Prop35
280
     0
102
RTVSPost2010PropOp35
 70
     1
102
RTVSPost2010Prop36
280
     0
102
RTVSPost2010PropOp36
 70
     1
102
RTVSPost2010Prop37
 90
       50
102
RTVSPost2010PropOp37
 70
     1
102
RTVSPost2010Prop38
140
0.0
102
RTVSPost2010PropOp38
 70
     1
102
RTVSPost2010Prop39
140
1.0
102
RTVSPost2010PropOp39
 70
     1
102
RTVSPost2010Prop40
 90
        0
102
RTVSPost2010PropOp40
 70
     1
102
RTVSPost2010Prop41ColorIndex
 90
       18
102
RTVSPost2010Prop41ColorRGB
 90
        0
102
RTVSPost2010PropOp41
 70
     1
102
RTVSPost2010Prop42
 90
       50
102
RTVSPost2010PropOp42
 70
     1
102
RTVSPost2010Prop43
 90
        3
102
RTVSPost2010PropOp43
 70
     1
102
RTVSPost2010Prop44ColorIndex
 90
        5
102
RTVSPost2010Prop44ColorRGB
 90
      255
102
RTVSPost2010PropOp44
 70
     1
102
RTVSPost2010Prop45
280
     0
102
RTVSPost2010PropOp45
 70
     1
102
RTVSPost2010Prop46
 90
       50
102
RTVSPost2010PropOp46
 70
     1
102
RTVSPost2010Prop47
 90
       50
102
RTVSPost2010PropOp47
 70
     1
102
RTVSPost2010Prop48
 90
       50
102
RTVSPost2010PropOp48
 70
     1
102
RTVSPost2010Prop49
280
     0
102
RTVSPost2010PropOp49
 70
     1
102
RTVSPost2010Prop50
 90
       50
102
RTVSPost2010PropOp50
 70
     1
102
RTVSPost2010Prop51ColorIndex
 90
      256
102
RTVSPost2010Prop51ColorRGB
 90
-16777216
102
RTVSPost2010PropOp51
 70
     0
102
RTVSPost2010Prop52
140
1.0
102
RTVSPost2010PropOp52
 70
     0
102
RTVSPost2010Prop53
 90
        2
102
RTVSPost2010PropOp53
 70
     1
102
RTVSPost2010Prop54
  1
strokes_ogs.tif
102
RTVSPost2010PropOp54
 70
     1
102
RTVSPost2010Prop55
280
     0
102
RTVSPost2010PropOp55
 70
     1
102
RTVSPost2010Prop56
140
1.0
102
RTVSPost2010PropOp56
 70
     1
102
RTVSPost2010Prop57
140
1.0
102
RTVSPost2010PropOp57
 70
     1
102
RTVSPropertyOp0
 70
     1
102
RTVSPropertyOp1
 70
     1
102
RTVSPropertyOp2
 70
     1
102
RTVSPropertyOp3
 70
     1
102
RTVSPropertyOp4
 70
     1
102
RTVSPropertyOp5
 70
     1
102
RTVSPropertyOp6
 70
     1
102
RTVSPropertyOp7
 70
     1
102
RTVSPropertyOp8
 70
     1
102
RTVSPropertyOp9
 70
     1
102
RTVSPropertyOp10
 70
     1
102
RTVSPropertyOp11
 70
     1
102
RTVSPropertyOp12
 70
     1
102
RTVSPropertyOp13
 70
     1
102
RTVSPropertyOp14
 70
     1
102
RTVSPropertyOp15
 70
     1
102
RTVSPropertyOp16
 70
     1
102
RTVSPropertyOp17
 70
     1
102
RTVSPropertyOp18
 70
     1
102
RTVSPropertyOp19
 70
     1
102
RTVSPropertyOp20
 70
     1
102
RTVSPropertyOp21
 70
     1
102
RTVSPropertyOp22
 70
     1
102
RTVSPropertyOp23
 70
     1
102
RTVSPropertyOp24
 70
     1
102
RTVSPropertyOp25
 70
     1
102
RTVSPropertyOp26
 70
     1
102
RTVSPropertyOp27
 70
     1
102
RTVSPropertyOp28
 70
     1
102
RTVSPropertyOp29
 70
     1
102
RTVSPropertyOp30
 70
     1
102
RTVSPropertyOp31
 70
     1
102
RTVSPropertyOp32
 70
     1
102
RTVSPropertyOp33
 70
     1
102
RTVSPropertyOp34
 70
     1
102
RTVSPropertyOp35
 70
     1
102
RTVSPropertyOp36
 70
     1
102
RTVSPropertyOp37
 70
     1
102
RTVSPropertyOp38
 70
     1
102
RTVSPropertyOp39
 70
     1
102
RTVSPropertyOp40
 70
     1
102
RTVSPropertyOp41
 70
     1
102
RTVSPropertyOp42
 70
     1
102
RTVSPropertyOp43
 70
     1
102
RTVSPropertyOp44
 70
     1
102
RTVSPropertyOp45
 70
     1
102
RTVSPropertyOp46
 70
     1
102
RTVSPropertyOp47
 70
     1
102
RTVSPropertyOp48
 70
     1
102
RTVSPropertyOp49
 70
     1
102
RTVSPropertyOp50
 70
     1
102
RTVSPropertyOp51
 70
     0
102
RTVSPropertyOp52
 70
     0
102
RTVSPropertyOp53
 70
     1
102
RTVSPropertyOp54
 70
     1
102
RTVSPropertyOp55
 70
     1
102
RTVSPropertyOp56
 70
     1
102
RTVSPropertyOp57
 70
     1
102
RTVSPropertyOp58
 70
     1
102
RTVSPropertyOp59
 70
     1
102
RTVSPropertyOp60
 70
     1
102
RTVSPropertyOp61
 70
     1
102
RTVSPropertyOp62
 70
     1
  0
XRECORD
  5
51C5
102
{ACAD_REACTORS
330
51C4
102
}
330
51C4
100
AcDbXrecord
280
     1
102
RTVSPost2010Prop28
280
     0
102
RTVSPost2010PropOp28
 70
     1
102
RTVSPost2010Prop29
280
     1
102
RTVSPost2010PropOp29
 70
     1
102
RTVSPost2010Prop30
280
     1
102
RTVSPost2010PropOp30
 70
     1
102
RTVSPost2010Prop31
280
     0
102
RTVSPost2010PropOp31
 70
     1
102
RTVSPost2010Prop32
280
     0
102
RTVSPost2010PropOp32
 70
     1
102
RTVSPost2010Prop33
280
     0
102
RTVSPost2010PropOp33
 70
     1
102
RTVSPost2010Prop34
280
     0
102
RTVSPost2010PropOp34
 70
     1
102
RTVSPost2010Prop35
280
     0
102
RTVSPost2010PropOp35
 70
     1
102
RTVSPost2010Prop36
280
     0
102
RTVSPost2010PropOp36
 70
     1
102
RTVSPost2010Prop37
 90
       50
102
RTVSPost2010PropOp37
 70
     1
102
RTVSPost2010Prop38
140
0.0
102
RTVSPost2010PropOp38
 70
     1
102
RTVSPost2010Prop39
140
1.0
102
RTVSPost2010PropOp39
 70
     1
102
RTVSPost2010Prop40
 90
        0
102
RTVSPost2010PropOp40
 70
     1
102
RTVSPost2010Prop41ColorIndex
 90
       18
102
RTVSPost2010Prop41ColorRGB
 90
        0
102
RTVSPost2010PropOp41
 70
     1
102
RTVSPost2010Prop42
 90
       50
102
RTVSPost2010PropOp42
 70
     1
102
RTVSPost2010Prop43
 90
        3
102
RTVSPost2010PropOp43
 70
     1
102
RTVSPost2010Prop44ColorIndex
 90
        5
102
RTVSPost2010Prop44ColorRGB
 90
      255
102
RTVSPost2010PropOp44
 70
     1
102
RTVSPost2010Prop45
280
     0
102
RTVSPost2010PropOp45
 70
     1
102
RTVSPost2010Prop46
 90
       50
102
RTVSPost2010PropOp46
 70
     1
102
RTVSPost2010Prop47
 90
       50
102
RTVSPost2010PropOp47
 70
     1
102
RTVSPost2010Prop48
 90
       50
102
RTVSPost2010PropOp48
 70
     1
102
RTVSPost2010Prop49
280
     0
102
RTVSPost2010PropOp49
 70
     1
102
RTVSPost2010Prop50
 90
       50
102
RTVSPost2010PropOp50
 70
     1
102
RTVSPost2010Prop51ColorIndex
 90
      256
102
RTVSPost2010Prop51ColorRGB
 90
-16777216
102
RTVSPost2010PropOp51
 70
     0
102
RTVSPost2010Prop52
140
1.0
102
RTVSPost2010PropOp52
 70
     0
102
RTVSPost2010Prop53
 90
        2
102
RTVSPost2010PropOp53
 70
     1
102
RTVSPost2010Prop54
  1
strokes_ogs.tif
102
RTVSPost2010PropOp54
 70
     1
102
RTVSPost2010Prop55
280
     0
102
RTVSPost2010PropOp55
 70
     1
102
RTVSPost2010Prop56
140
1.0
102
RTVSPost2010PropOp56
 70
     1
102
RTVSPost2010Prop57
140
1.0
102
RTVSPost2010PropOp57
 70
     1
102
RTVSPropertyOp0
 70
     1
102
RTVSPropertyOp1
 70
     1
102
RTVSPropertyOp2
 70
     1
102
RTVSPropertyOp3
 70
     1
102
RTVSPropertyOp4
 70
     1
102
RTVSPropertyOp5
 70
     1
102
RTVSPropertyOp6
 70
     1
102
RTVSPropertyOp7
 70
     1
102
RTVSPropertyOp8
 70
     1
102
RTVSPropertyOp9
 70
     1
102
RTVSPropertyOp10
 70
     1
102
RTVSPropertyOp11
 70
     1
102
RTVSPropertyOp12
 70
     1
102
RTVSPropertyOp13
 70
     1
102
RTVSPropertyOp14
 70
     1
102
RTVSPropertyOp15
 70
     1
102
RTVSPropertyOp16
 70
     1
102
RTVSPropertyOp17
 70
     1
102
RTVSPropertyOp18
 70
     1
102
RTVSPropertyOp19
 70
     1
102
RTVSPropertyOp20
 70
     1
102
RTVSPropertyOp21
 70
     1
102
RTVSPropertyOp22
 70
     1
102
RTVSPropertyOp23
 70
     1
102
RTVSPropertyOp24
 70
     1
102
RTVSPropertyOp25
 70
     1
102
RTVSPropertyOp26
 70
     1
102
RTVSPropertyOp27
 70
     1
102
RTVSPropertyOp28
 70
     1
102
RTVSPropertyOp29
 70
     1
102
RTVSPropertyOp30
 70
     1
102
RTVSPropertyOp31
 70
     1
102
RTVSPropertyOp32
 70
     1
102
RTVSPropertyOp33
 70
     1
102
RTVSPropertyOp34
 70
     1
102
RTVSPropertyOp35
 70
     1
102
RTVSPropertyOp36
 70
     1
102
RTVSPropertyOp37
 70
     1
102
RTVSPropertyOp38
 70
     1
102
RTVSPropertyOp39
 70
     1
102
RTVSPropertyOp40
 70
     1
102
RTVSPropertyOp41
 70
     1
102
RTVSPropertyOp42
 70
     1
102
RTVSPropertyOp43
 70
     1
102
RTVSPropertyOp44
 70
     1
102
RTVSPropertyOp45
 70
     1
102
RTVSPropertyOp46
 70
     1
102
RTVSPropertyOp47
 70
     1
102
RTVSPropertyOp48
 70
     1
102
RTVSPropertyOp49
 70
     1
102
RTVSPropertyOp50
 70
     1
102
RTVSPropertyOp51
 70
     0
102
RTVSPropertyOp52
 70
     0
102
RTVSPropertyOp53
 70
     1
102
RTVSPropertyOp54
 70
     1
102
RTVSPropertyOp55
 70
     1
102
RTVSPropertyOp56
 70
     1
102
RTVSPropertyOp57
 70
     1
102
RTVSPropertyOp58
 70
     1
102
RTVSPropertyOp59
 70
     1
102
RTVSPropertyOp60
 70
     1
102
RTVSPropertyOp61
 70
     1
102
RTVSPropertyOp62
 70
     1
  0
XRECORD
  5
51D3
102
{ACAD_REACTORS
330
51D2
102
}
330
51D2
100
AcDbXrecord
280
     1
102
RTVSPost2010Prop28
280
     0
102
RTVSPost2010PropOp28
 70
     1
102
RTVSPost2010Prop29
280
     1
102
RTVSPost2010PropOp29
 70
     1
102
RTVSPost2010Prop30
280
     1
102
RTVSPost2010PropOp30
 70
     1
102
RTVSPost2010Prop31
280
     0
102
RTVSPost2010PropOp31
 70
     1
102
RTVSPost2010Prop32
280
     0
102
RTVSPost2010PropOp32
 70
     1
102
RTVSPost2010Prop33
280
     0
102
RTVSPost2010PropOp33
 70
     1
102
RTVSPost2010Prop34
280
     0
102
RTVSPost2010PropOp34
 70
     1
102
RTVSPost2010Prop35
280
     0
102
RTVSPost2010PropOp35
 70
     1
102
RTVSPost2010Prop36
280
     0
102
RTVSPost2010PropOp36
 70
     1
102
RTVSPost2010Prop37
 90
       50
102
RTVSPost2010PropOp37
 70
     1
102
RTVSPost2010Prop38
140
0.0
102
RTVSPost2010PropOp38
 70
     1
102
RTVSPost2010Prop39
140
1.0
102
RTVSPost2010PropOp39
 70
     1
102
RTVSPost2010Prop40
 90
        0
102
RTVSPost2010PropOp40
 70
     1
102
RTVSPost2010Prop41ColorIndex
 90
       18
102
RTVSPost2010Prop41ColorRGB
 90
        0
102
RTVSPost2010PropOp41
 70
     1
102
RTVSPost2010Prop42
 90
       50
102
RTVSPost2010PropOp42
 70
     1
102
RTVSPost2010Prop43
 90
        3
102
RTVSPost2010PropOp43
 70
     1
102
RTVSPost2010Prop44ColorIndex
 90
        5
102
RTVSPost2010Prop44ColorRGB
 90
      255
102
RTVSPost2010PropOp44
 70
     1
102
RTVSPost2010Prop45
280
     0
102
RTVSPost2010PropOp45
 70
     1
102
RTVSPost2010Prop46
 90
       50
102
RTVSPost2010PropOp46
 70
     1
102
RTVSPost2010Prop47
 90
       50
102
RTVSPost2010PropOp47
 70
     1
102
RTVSPost2010Prop48
 90
       50
102
RTVSPost2010PropOp48
 70
     1
102
RTVSPost2010Prop49
280
     0
102
RTVSPost2010PropOp49
 70
     1
102
RTVSPost2010Prop50
 90
       50
102
RTVSPost2010PropOp50
 70
     1
102
RTVSPost2010Prop51ColorIndex
 90
      256
102
RTVSPost2010Prop51ColorRGB
 90
-16777216
102
RTVSPost2010PropOp51
 70
     0
102
RTVSPost2010Prop52
140
1.0
102
RTVSPost2010PropOp52
 70
     0
102
RTVSPost2010Prop53
 90
        2
102
RTVSPost2010PropOp53
 70
     1
102
RTVSPost2010Prop54
  1
strokes_ogs.tif
102
RTVSPost2010PropOp54
 70
     1
102
RTVSPost2010Prop55
280
     0
102
RTVSPost2010PropOp55
 70
     1
102
RTVSPost2010Prop56
140
1.0
102
RTVSPost2010PropOp56
 70
     1
102
RTVSPost2010Prop57
140
1.0
102
RTVSPost2010PropOp57
 70
     1
102
RTVSPropertyOp0
 70
     1
102
RTVSPropertyOp1
 70
     1
102
RTVSPropertyOp2
 70
     1
102
RTVSPropertyOp3
 70
     1
102
RTVSPropertyOp4
 70
     1
102
RTVSPropertyOp5
 70
     1
102
RTVSPropertyOp6
 70
     1
102
RTVSPropertyOp7
 70
     1
102
RTVSPropertyOp8
 70
     1
102
RTVSPropertyOp9
 70
     1
102
RTVSPropertyOp10
 70
     1
102
RTVSPropertyOp11
 70
     1
102
RTVSPropertyOp12
 70
     1
102
RTVSPropertyOp13
 70
     1
102
RTVSPropertyOp14
 70
     1
102
RTVSPropertyOp15
 70
     1
102
RTVSPropertyOp16
 70
     1
102
RTVSPropertyOp17
 70
     1
102
RTVSPropertyOp18
 70
     1
102
RTVSPropertyOp19
 70
     1
102
RTVSPropertyOp20
 70
     1
102
RTVSPropertyOp21
 70
     1
102
RTVSPropertyOp22
 70
     1
102
RTVSPropertyOp23
 70
     1
102
RTVSPropertyOp24
 70
     1
102
RTVSPropertyOp25
 70
     1
102
RTVSPropertyOp26
 70
     1
102
RTVSPropertyOp27
 70
     1
102
RTVSPropertyOp28
 70
     1
102
RTVSPropertyOp29
 70
     1
102
RTVSPropertyOp30
 70
     1
102
RTVSPropertyOp31
 70
     1
102
RTVSPropertyOp32
 70
     1
102
RTVSPropertyOp33
 70
     1
102
RTVSPropertyOp34
 70
     1
102
RTVSPropertyOp35
 70
     1
102
RTVSPropertyOp36
 70
     1
102
RTVSPropertyOp37
 70
     1
102
RTVSPropertyOp38
 70
     1
102
RTVSPropertyOp39
 70
     1
102
RTVSPropertyOp40
 70
     1
102
RTVSPropertyOp41
 70
     1
102
RTVSPropertyOp42
 70
     1
102
RTVSPropertyOp43
 70
     1
102
RTVSPropertyOp44
 70
     1
102
RTVSPropertyOp45
 70
     1
102
RTVSPropertyOp46
 70
     1
102
RTVSPropertyOp47
 70
     1
102
RTVSPropertyOp48
 70
     1
102
RTVSPropertyOp49
 70
     1
102
RTVSPropertyOp50
 70
     1
102
RTVSPropertyOp51
 70
     0
102
RTVSPropertyOp52
 70
     0
102
RTVSPropertyOp53
 70
     1
102
RTVSPropertyOp54
 70
     1
102
RTVSPropertyOp55
 70
     1
102
RTVSPropertyOp56
 70
     1
102
RTVSPropertyOp57
 70
     1
102
RTVSPropertyOp58
 70
     1
102
RTVSPropertyOp59
 70
     1
102
RTVSPropertyOp60
 70
     1
102
RTVSPropertyOp61
 70
     1
102
RTVSPropertyOp62
 70
     1
  0
XRECORD
  5
51DB
102
{ACAD_REACTORS
330
51DA
102
}
330
51DA
100
AcDbXrecord
280
     1
102
RTVSPost2010Prop28
280
     0
102
RTVSPost2010PropOp28
 70
     1
102
RTVSPost2010Prop29
280
     1
102
RTVSPost2010PropOp29
 70
     1
102
RTVSPost2010Prop30
280
     1
102
RTVSPost2010PropOp30
 70
     1
102
RTVSPost2010Prop31
280
     0
102
RTVSPost2010PropOp31
 70
     1
102
RTVSPost2010Prop32
280
     0
102
RTVSPost2010PropOp32
 70
     1
102
RTVSPost2010Prop33
280
     0
102
RTVSPost2010PropOp33
 70
     1
102
RTVSPost2010Prop34
280
     0
102
RTVSPost2010PropOp34
 70
     1
102
RTVSPost2010Prop35
280
     0
102
RTVSPost2010PropOp35
 70
     1
102
RTVSPost2010Prop36
280
     0
102
RTVSPost2010PropOp36
 70
     1
102
RTVSPost2010Prop37
 90
       50
102
RTVSPost2010PropOp37
 70
     1
102
RTVSPost2010Prop38
140
0.0
102
RTVSPost2010PropOp38
 70
     1
102
RTVSPost2010Prop39
140
1.0
102
RTVSPost2010PropOp39
 70
     1
102
RTVSPost2010Prop40
 90
        0
102
RTVSPost2010PropOp40
 70
     1
102
RTVSPost2010Prop41ColorIndex
 90
       18
102
RTVSPost2010Prop41ColorRGB
 90
        0
102
RTVSPost2010PropOp41
 70
     1
102
RTVSPost2010Prop42
 90
       50
102
RTVSPost2010PropOp42
 70
     1
102
RTVSPost2010Prop43
 90
        3
102
RTVSPost2010PropOp43
 70
     1
102
RTVSPost2010Prop44ColorIndex
 90
        5
102
RTVSPost2010Prop44ColorRGB
 90
      255
102
RTVSPost2010PropOp44
 70
     1
102
RTVSPost2010Prop45
280
     0
102
RTVSPost2010PropOp45
 70
     1
102
RTVSPost2010Prop46
 90
       50
102
RTVSPost2010PropOp46
 70
     1
102
RTVSPost2010Prop47
 90
       50
102
RTVSPost2010PropOp47
 70
     1
102
RTVSPost2010Prop48
 90
       50
102
RTVSPost2010PropOp48
 70
     1
102
RTVSPost2010Prop49
280
     0
102
RTVSPost2010PropOp49
 70
     1
102
RTVSPost2010Prop50
 90
       50
102
RTVSPost2010PropOp50
 70
     1
102
RTVSPost2010Prop51ColorIndex
 90
      256
102
RTVSPost2010Prop51ColorRGB
 90
-16777216
102
RTVSPost2010PropOp51
 70
     0
102
RTVSPost2010Prop52
140
1.0
102
RTVSPost2010PropOp52
 70
     0
102
RTVSPost2010Prop53
 90
        2
102
RTVSPost2010PropOp53
 70
     1
102
RTVSPost2010Prop54
  1
strokes_ogs.tif
102
RTVSPost2010PropOp54
 70
     1
102
RTVSPost2010Prop55
280
     0
102
RTVSPost2010PropOp55
 70
     1
102
RTVSPost2010Prop56
140
1.0
102
RTVSPost2010PropOp56
 70
     1
102
RTVSPost2010Prop57
140
1.0
102
RTVSPost2010PropOp57
 70
     1
102
RTVSPropertyOp0
 70
     1
102
RTVSPropertyOp1
 70
     1
102
RTVSPropertyOp2
 70
     1
102
RTVSPropertyOp3
 70
     1
102
RTVSPropertyOp4
 70
     1
102
RTVSPropertyOp5
 70
     1
102
RTVSPropertyOp6
 70
     1
102
RTVSPropertyOp7
 70
     1
102
RTVSPropertyOp8
 70
     1
102
RTVSPropertyOp9
 70
     1
102
RTVSPropertyOp10
 70
     1
102
RTVSPropertyOp11
 70
     1
102
RTVSPropertyOp12
 70
     1
102
RTVSPropertyOp13
 70
     1
102
RTVSPropertyOp14
 70
     1
102
RTVSPropertyOp15
 70
     1
102
RTVSPropertyOp16
 70
     1
102
RTVSPropertyOp17
 70
     1
102
RTVSPropertyOp18
 70
     1
102
RTVSPropertyOp19
 70
     1
102
RTVSPropertyOp20
 70
     1
102
RTVSPropertyOp21
 70
     1
102
RTVSPropertyOp22
 70
     1
102
RTVSPropertyOp23
 70
     1
102
RTVSPropertyOp24
 70
     1
102
RTVSPropertyOp25
 70
     1
102
RTVSPropertyOp26
 70
     1
102
RTVSPropertyOp27
 70
     1
102
RTVSPropertyOp28
 70
     1
102
RTVSPropertyOp29
 70
     1
102
RTVSPropertyOp30
 70
     1
102
RTVSPropertyOp31
 70
     1
102
RTVSPropertyOp32
 70
     1
102
RTVSPropertyOp33
 70
     1
102
RTVSPropertyOp34
 70
     1
102
RTVSPropertyOp35
 70
     1
102
RTVSPropertyOp36
 70
     1
102
RTVSPropertyOp37
 70
     1
102
RTVSPropertyOp38
 70
     1
102
RTVSPropertyOp39
 70
     1
102
RTVSPropertyOp40
 70
     1
102
RTVSPropertyOp41
 70
     1
102
RTVSPropertyOp42
 70
     1
102
RTVSPropertyOp43
 70
     1
102
RTVSPropertyOp44
 70
     1
102
RTVSPropertyOp45
 70
     1
102
RTVSPropertyOp46
 70
     1
102
RTVSPropertyOp47
 70
     1
102
RTVSPropertyOp48
 70
     1
102
RTVSPropertyOp49
 70
     1
102
RTVSPropertyOp50
 70
     1
102
RTVSPropertyOp51
 70
     0
102
RTVSPropertyOp52
 70
     0
102
RTVSPropertyOp53
 70
     1
102
RTVSPropertyOp54
 70
     1
102
RTVSPropertyOp55
 70
     1
102
RTVSPropertyOp56
 70
     1
102
RTVSPropertyOp57
 70
     1
102
RTVSPropertyOp58
 70
     1
102
RTVSPropertyOp59
 70
     1
102
RTVSPropertyOp60
 70
     1
102
RTVSPropertyOp61
 70
     1
102
RTVSPropertyOp62
 70
     1
  0
XRECORD
  5
4EBF
102
{ACAD_REACTORS
330
4EBE
102
}
330
4EBE
100
AcDbXrecord
280
     1
330
4DBF
  0
ENDSEC
  0
EOF
