  0
SECTION
  2
HEADER
  9
$ACADVER
  1
AC1015
  9
$ACADMAINTVER
 70
    20
  9
$DWGCODEPAGE
  3
ANSI_1252
  9
$INSBASE
 10
0.0
 20
0.0
 30
0.0
  9
$EXTMIN
 10
-102.0113107743678
 20
-30.35968899395641
 30
0.0
  9
$EXTMAX
 10
53.27433374596664
 20
45.54569787849902
 30
0.0
  9
$LIMMIN
 10
0.0
 20
0.0
  9
$LIMMAX
 10
420.0
 20
297.0
  9
$ORTHOMODE
 70
     0
  9
$REGENMODE
 70
     1
  9
$FILLMODE
 70
     1
  9
$QTEXTMODE
 70
     0
  9
$MIRRTEXT
 70
     1
  9
$LTSCALE
 40
1.0
  9
$ATTMODE
 70
     1
  9
$TEXTSIZE
 40
3.5
  9
$TRACEWID
 40
1.0
  9
$TEXTSTYLE
  7
STANDARD
  9
$CLAYER
  8
0
  9
$CELTYPE
  6
ByLayer
  9
$CECOLOR
 62
   256
  9
$CELTSCALE
 40
1.0
  9
$DISPSILH
 70
     0
  9
$DIMSCALE
 40
1.0
  9
$DIMASZ
 40
2.5
  9
$DIMEXO
 40
0.625
  9
$DIMDLI
 40
3.75
  9
$DIMRND
 40
0.0
  9
$DIMDLE
 40
0.0
  9
$DIMEXE
 40
1.25
  9
$DIMTP
 40
0.0
  9
$DIMTM
 40
0.0
  9
$DIMTXT
 40
3.5
  9
$DIMCEN
 40
0.0
  9
$DIMTSZ
 40
0.0
  9
$DIMTOL
 70
     0
  9
$DIMLIM
 70
     0
  9
$DIMTIH
 70
     0
  9
$DIMTOH
 70
     0
  9
$DIMSE1
 70
     0
  9
$DIMSE2
 70
     0
  9
$DIMTAD
 70
     1
  9
$DIMZIN
 70
     8
  9
$DIMBLK
  1

  9
$DIMASO
 70
     1
  9
$DIMSHO
 70
     1
  9
$DIMPOST
  1

  9
$DIMAPOST
  1

  9
$DIMALT
 70
     0
  9
$DIMALTD
 70
     3
  9
$DIMALTF
 40
0.03937
  9
$DIMLFAC
 40
1.0
  9
$DIMTOFL
 70
     0
  9
$DIMTVP
 40
0.0
  9
$DIMTIX
 70
     0
  9
$DIMSOXD
 70
     0
  9
$DIMSAH
 70
     0
  9
$DIMBLK1
  1

  9
$DIMBLK2
  1

  9
$DIMSTYLE
  2
STANDARD
  9
$DIMCLRD
 70
     0
  9
$DIMCLRE
 70
     0
  9
$DIMCLRT
 70
     0
  9
$DIMTFAC
 40
1.0
  9
$DIMGAP
 40
0.625
  9
$DIMJUST
 70
     0
  9
$DIMSD1
 70
     0
  9
$DIMSD2
 70
     0
  9
$DIMTOLJ
 70
     0
  9
$DIMTZIN
 70
     8
  9
$DIMALTZ
 70
     0
  9
$DIMALTTZ
 70
     0
  9
$DIMUPT
 70
     0
  9
$DIMDEC
 70
     1
  9
$DIMTDEC
 70
     1
  9
$DIMALTU
 70
     2
  9
$DIMALTTD
 70
     3
  9
$DIMTXSTY
  7
STANDARD
  9
$DIMAUNIT
 70
     0
  9
$DIMADEC
 70
     0
  9
$DIMALTRND
 40
0.0
  9
$DIMAZIN
 70
     0
  9
$DIMDSEP
 70
    46
  9
$DIMATFIT
 70
     3
  9
$DIMFRAC
 70
     0
  9
$DIMLDRBLK
  1

  9
$DIMLUNIT
 70
     2
  9
$DIMLWD
 70
    -2
  9
$DIMLWE
 70
    -2
  9
$DIMTMOVE
 70
     0
  9
$LUNITS
 70
     2
  9
$LUPREC
 70
     4
  9
$SKETCHINC
 40
1.0
  9
$FILLETRAD
 40
0.0
  9
$AUNITS
 70
     0
  9
$AUPREC
 70
     0
  9
$MENU
  1
.
  9
$ELEVATION
 40
0.0
  9
$PELEVATION
 40
0.0
  9
$THICKNESS
 40
0.0
  9
$LIMCHECK
 70
     0
  9
$CHAMFERA
 40
2.5
  9
$CHAMFERB
 40
2.5
  9
$CHAMFERC
 40
0.0
  9
$CHAMFERD
 40
0.0
  9
$SKPOLY
 70
     0
  9
$TDCREATE
 40
2455362.076310394
  9
$TDUCREATE
 40
2455362.034643727
  9
$TDUPDATE
 40
2457338.458324329
  9
$TDUUPDATE
 40
2457338.416657662
  9
$TDINDWG
 40
0.4272915509
  9
$TDUSRTIMER
 40
0.4272738079
  9
$USRTIMER
 70
     1
  9
$ANGBASE
 50
0.0
  9
$ANGDIR
 70
     0
  9
$PDMODE
 70
     3
  9
$PDSIZE
 40
0.0
  9
$PLINEWID
 40
0.0
  9
$SPLFRAME
 70
     0
  9
$SPLINETYPE
 70
     6
  9
$SPLINESEGS
 70
     8
  9
$HANDSEED
  5
57E0
  9
$SURFTAB1
 70
     6
  9
$SURFTAB2
 70
     6
  9
$SURFTYPE
 70
     6
  9
$SURFU
 70
     6
  9
$SURFV
 70
     6
  9
$UCSBASE
  2

  9
$UCSNAME
  2

  9
$UCSORG
 10
0.0
 20
0.0
 30
0.0
  9
$UCSXDIR
 10
1.0
 20
0.0
 30
0.0
  9
$UCSYDIR
 10
0.0
 20
1.0
 30
0.0
  9
$UCSORTHOREF
  2

  9
$UCSORTHOVIEW
 70
     0
  9
$UCSORGTOP
 10
492.5951552779118
 20
462.4450312956151
 30
0.0
  9
$UCSORGBOTTOM
 10
0.0
 20
0.0
 30
0.0
  9
$UCSORGLEFT
 10
0.0
 20
0.0
 30
0.0
  9
$UCSORGRIGHT
 10
0.0
 20
0.0
 30
0.0
  9
$UCSORGFRONT
 10
0.0
 20
0.0
 30
0.0
  9
$UCSORGBACK
 10
0.0
 20
0.0
 30
0.0
  9
$PUCSBASE
  2

  9
$PUCSNAME
  2

  9
$PUCSORG
 10
0.0
 20
0.0
 30
0.0
  9
$PUCSXDIR
 10
1.0
 20
0.0
 30
0.0
  9
$PUCSYDIR
 10
0.0
 20
1.0
 30
0.0
  9
$PUCSORTHOREF
  2

  9
$PUCSORTHOVIEW
 70
     0
  9
$PUCSORGTOP
 10
0.0
 20
0.0
 30
0.0
  9
$PUCSORGBOTTOM
 10
0.0
 20
0.0
 30
0.0
  9
$PUCSORGLEFT
 10
0.0
 20
0.0
 30
0.0
  9
$PUCSORGRIGHT
 10
0.0
 20
0.0
 30
0.0
  9
$PUCSORGFRONT
 10
0.0
 20
0.0
 30
0.0
  9
$PUCSORGBACK
 10
0.0
 20
0.0
 30
0.0
  9
$USERI1
 70
     0
  9
$USERI2
 70
     0
  9
$USERI3
 70
     0
  9
$USERI4
 70
     0
  9
$USERI5
 70
     0
  9
$USERR1
 40
0.0
  9
$USERR2
 40
0.0
  9
$USERR3
 40
0.0
  9
$USERR4
 40
0.0
  9
$USERR5
 40
0.0
  9
$WORLDVIEW
 70
     1
  9
$SHADEDGE
 70
     3
  9
$SHADEDIF
 70
    70
  9
$TILEMODE
 70
     1
  9
$MAXACTVP
 70
    48
  9
$PINSBASE
 10
0.0
 20
0.0
 30
0.0
  9
$PLIMCHECK
 70
     0
  9
$PEXTMIN
 10
0.0
 20
0.0
 30
0.0
  9
$PEXTMAX
 10
301.680481
 20
116.822281
 30
2.0
  9
$PLIMMIN
 10
0.0
 20
0.0
  9
$PLIMMAX
 10
420.0
 20
297.0
  9
$UNITMODE
 70
     0
  9
$VISRETAIN
 70
     0
  9
$PLINEGEN
 70
     0
  9
$PSLTSCALE
 70
     1
  9
$TREEDEPTH
 70
  3020
  9
$CMLSTYLE
  2
Standard
  9
$CMLJUST
 70
     0
  9
$CMLSCALE
 40
20.0
  9
$PROXYGRAPHICS
 70
     1
  9
$MEASUREMENT
 70
     1
  9
$CELWEIGHT
370
    -1
  9
$ENDCAPS
280
     0
  9
$JOINSTYLE
280
     0
  9
$LWDISPLAY
290
     0
  9
$INSUNITS
 70
     0
  9
$HYPERLINKBASE
  1

  9
$STYLESHEET
  1

  9
$XEDIT
290
     1
  9
$CEPSNTYPE
380
     0
  9
$PSTYLEMODE
290
     0
  9
$FINGERPRINTGUID
  2

  9
$VERSIONGUID
  2
{CE9C544B-7F39-41E6-A3ED-04F0C0504F13}
  9
$EXTNAMES
290
     0
  9
$PSVPSCALE
 40
0.0
  9
$OLESTARTUP
290
     0
  0
ENDSEC
  0
SECTION
  2
CLASSES
  0
CLASS
  1
IMAGE
  2
AcDbRasterImage
  3
ISM
 90
    34943
280
     0
281
     1
  0
CLASS
  1
DICTIONARYVAR
  2
AcDbDictionaryVar
  3
ObjectDBX Classes
 90
        0
280
     0
281
     0
  0
CLASS
  1
RASTERVARIABLES
  2
AcDbRasterVariables
  3
ISM
 90
    32768
280
     0
281
     0
  0
CLASS
  1
IMAGEDEF
  2
AcDbRasterImageDef
  3
ISM
 90
    32768
280
     0
281
     0
  0
CLASS
  1
IMAGEDEF_REACTOR
  2
AcDbRasterImageDefReactor
  3
ISM
 90
    32769
280
     0
281
     0
  0
CLASS
  1
IDBUFFER
  2
AcDbIdBuffer
  3
ObjectDBX Classes
 90
    32768
280
     0
281
     0
  0
CLASS
  1
SPATIAL_FILTER
  2
AcDbSpatialFilter
  3
ObjectDBX Classes
 90
    32768
280
     0
281
     0
  0
CLASS
  1
SORTENTSTABLE
  2
AcDbSortentsTable
  3
ObjectDBX Classes
 90
        0
280
     0
281
     0
  0
CLASS
  1
LAYER_INDEX
  2
AcDbLayerIndex
  3
ObjectDBX Classes
 90
    32768
280
     0
281
     0
  0
CLASS
  1
SPATIAL_INDEX
  2
AcDbSpatialIndex
  3
ObjectDBX Classes
 90
    32768
280
     0
281
     0
  0
CLASS
  1
OBJECT_PTR
  2
CAseDLPNTableRecord
  3
ASE-LPNTableRecord
 90
    32769
280
     0
281
     0
  0
CLASS
  1
PLOTSETTINGS
  2
AcDbPlotSettings
  3
ObjectDBX Classes
 90
    32768
280
     0
281
     0
  0
CLASS
  1
ACDBDICTIONARYWDFLT
  2
AcDbDictionaryWithDefault
  3
ObjectDBX Classes
 90
        0
280
     0
281
     0
  0
CLASS
  1
WIPEOUT
  2
AcDbWipeout
  3
WipeOut|Product Desc: Object Enabler for WipeOut entity | Company: Autodesk, Inc. | WEB Address: www.autodesk.com
 90
    34943
280
     0
281
     1
  0
CLASS
  1
WIPEOUTVARIABLES
  2
AcDbWipeoutVariables
  3
"WipeOut|Product Desc:     WipeOut Dbx Application|Company:          Autodesk, Inc.|WEB Address:      www.autodesk.com"
 90
        0
280
     0
281
     0
  0
CLASS
  1
RTEXT
  2
RText
  3
RText|AutoCAD Express Tool|expresstools@autodesk.com
 90
    32768
280
     0
281
     1
  0
CLASS
  1
ARCALIGNEDTEXT
  2
AcDbArcAlignedText
  3
ATEXT|AutoCAD Express Tool|expresstools@autodesk.com
 90
    32768
280
     0
281
     1
  0
CLASS
  1
TABLESTYLE
  2
AcDbTableStyle
  3
ObjectDBX Classes
 90
     4095
280
     0
281
     0
  0
CLASS
  1
MATERIAL
  2
AcDbMaterial
  3
ObjectDBX Classes
 90
     1153
280
     0
281
     0
  0
CLASS
  1
VISUALSTYLE
  2
AcDbVisualStyle
  3
ObjectDBX Classes
 90
     4095
280
     0
281
     0
  0
CLASS
  1
SCALE
  2
AcDbScale
  3
ObjectDBX Classes
 90
     1153
280
     0
281
     0
  0
CLASS
  1
MLEADERSTYLE
  2
AcDbMLeaderStyle
  3
ACDB_MLEADERSTYLE_CLASS
 90
     4095
280
     0
281
     0
  0
CLASS
  1
CELLSTYLEMAP
  2
AcDbCellStyleMap
  3
ObjectDBX Classes
 90
     1152
280
     0
281
     0
  0
CLASS
  1
ACDBSECTIONVIEWSTYLE
  2
AcDbSectionViewStyle
  3
ObjectDBX Classes
 90
     1025
280
     0
281
     0
  0
CLASS
  1
ACDBDETAILVIEWSTYLE
  2
AcDbDetailViewStyle
  3
ObjectDBX Classes
 90
     1025
280
     0
281
     0
  0
CLASS
  1
ACDBPLACEHOLDER
  2
AcDbPlaceHolder
  3
ObjectDBX Classes
 90
        0
280
     0
281
     0
  0
CLASS
  1
LAYOUT
  2
AcDbLayout
  3
ObjectDBX Classes
 90
        0
280
     0
281
     0
  0
ENDSEC
  0
SECTION
  2
TABLES
  0
TABLE
  2
VPORT
  5
7
330
0
100
AcDbSymbolTable
 70
     1
  0
VPORT
  5
5324
330
7
100
AcDbSymbolTableRecord
100
AcDbViewportTableRecord
  2
*Active
 70
     0
 10
0.0
 20
0.0
 11
1.0
 21
1.0
 12
-24.35324217647302
 22
7.600490129565685
 13
0.0
 23
0.0
 14
1.0
 24
1.0
 15
0.0
 25
0.0
 16
0.0
 26
0.0
 36
1.0
 17
0.0
 27
0.0
 37
0.0
 40
76.58117418787263
 41
2.336194563662374
 42
50.0
 43
0.0
 44
0.0
 50
0.0
 51
0.0
 71
     0
 72
   100
 73
     1
 74
     3
 75
     0
 76
     0
 77
     0
 78
     0
281
     0
 65
     0
110
0.0
120
0.0
130
0.0
111
1.0
121
0.0
131
0.0
112
0.0
122
1.0
132
0.0
 79
     0
146
0.0
1001
ACAD_NAV_VCDISPLAY
1070
     3
  0
ENDTAB
  0
TABLE
  2
LTYPE
  5
4
330
0
100
AcDbSymbolTable
 70
     2
  0
LTYPE
  5
11
330
4
100
AcDbSymbolTableRecord
100
AcDbLinetypeTableRecord
  2
ByBlock
 70
     0
  3

 72
    65
 73
     0
 40
0.0
  0
LTYPE
  5
12
330
4
100
AcDbSymbolTableRecord
100
AcDbLinetypeTableRecord
  2
ByLayer
 70
     0
  3

 72
    65
 73
     0
 40
0.0
  0
LTYPE
  5
13
330
4
100
AcDbSymbolTableRecord
100
AcDbLinetypeTableRecord
  2
Continuous
 70
     0
  3
Solid line
 72
    65
 73
     0
 40
0.0
  0
LTYPE
  5
45C
330
4
100
AcDbSymbolTableRecord
100
AcDbLinetypeTableRecord
  2
CENTER2
 70
     0
  3
Center (.5x) ___ _ ___ _ ___ _ ___ _ ___ _ ___
 72
    65
 73
     4
 40
28.575
 49
19.05
 74
     0
 49
-3.174999999999998
 74
     0
 49
3.174999999999998
 74
     0
 49
-3.174999999999998
 74
     0
  0
ENDTAB
  0
TABLE
  2
LAYER
  5
2
102
{ACAD_XDICTIONARY
360
468
102
}
330
0
100
AcDbSymbolTable
 70
    13
  0
LAYER
  5
14
102
{ACAD_XDICTIONARY
360
53A3
102
}
330
2
100
AcDbSymbolTableRecord
100
AcDbLayerTableRecord
  2
0
 70
     0
 62
     7
  6
Continuous
370
    -3
390
1D
  0
LAYER
  5
456
102
{ACAD_XDICTIONARY
360
53A5
102
}
330
2
100
AcDbSymbolTableRecord
100
AcDbLayerTableRecord
  2
1
 70
     0
 62
     4
  6
Continuous
370
    50
390
1D
1001
AcAecLayerStandard
1000

1000

  0
LAYER
  5
458
102
{ACAD_XDICTIONARY
360
53A7
102
}
330
2
100
AcDbSymbolTableRecord
100
AcDbLayerTableRecord
  2
2
 70
     0
 62
     7
  6
Continuous
370
    25
390
1D
1001
AcAecLayerStandard
1000

1000

  0
LAYER
  5
459
102
{ACAD_XDICTIONARY
360
53A9
102
}
330
2
100
AcDbSymbolTableRecord
100
AcDbLayerTableRecord
  2
4
 70
     0
 62
     2
  6
CENTER2
370
    25
390
1D
1001
AcAecLayerStandard
1000

1000

  0
LAYER
  5
45D
102
{ACAD_XDICTIONARY
360
53AB
102
}
330
2
100
AcDbSymbolTableRecord
100
AcDbLayerTableRecord
  2
CUT
 70
     0
 62
     1
  6
Continuous
370
    25
390
1D
1001
AcAecLayerStandard
1000

1000

  0
LAYER
  5
45E
330
2
100
AcDbSymbolTableRecord
100
AcDbLayerTableRecord
  2
DEFPOINTS
 70
     0
 62
     7
  6
Continuous
290
     0
370
    25
390
1D
1001
AcAecLayerStandard
1000

1000

  0
LAYER
  5
45F
102
{ACAD_XDICTIONARY
360
53AD
102
}
330
2
100
AcDbSymbolTableRecord
100
AcDbLayerTableRecord
  2
INFTOTAL
 70
     0
 62
     9
  6
Continuous
370
    18
390
1D
1001
AcAecLayerStandard
1000

1000

  0
LAYER
  5
460
102
{ACAD_XDICTIONARY
360
53AF
102
}
330
2
100
AcDbSymbolTableRecord
100
AcDbLayerTableRecord
  2
NOCUT
 70
     0
 62
     7
  6
Continuous
370
    -3
390
1D
1001
AcAecLayerStandard
1000

1000

  0
LAYER
  5
461
102
{ACAD_XDICTIONARY
360
53B1
102
}
330
2
100
AcDbSymbolTableRecord
100
AcDbLayerTableRecord
  2
SK1
 70
     0
 62
     4
  6
Continuous
370
    50
390
1D
1001
AcAecLayerStandard
1000

1000

  0
LAYER
  5
462
102
{ACAD_XDICTIONARY
360
53B3
102
}
330
2
100
AcDbSymbolTableRecord
100
AcDbLayerTableRecord
  2
SK2
 70
     0
 62
     7
  6
Continuous
370
    25
390
1D
1001
AcAecLayerStandard
1000

1000

  0
LAYER
  5
464
102
{ACAD_XDICTIONARY
360
53B5
102
}
330
2
100
AcDbSymbolTableRecord
100
AcDbLayerTableRecord
  2
SK4
 70
     0
 62
     2
  6
CENTER2
370
    25
390
1D
1001
AcAecLayerStandard
1000

1000

  0
LAYER
  5
466
102
{ACAD_XDICTIONARY
360
53B7
102
}
330
2
100
AcDbSymbolTableRecord
100
AcDbLayerTableRecord
  2
SK6
 70
     0
 62
     5
  6
Continuous
370
    -3
390
1D
1001
AcAecLayerStandard
1000

1000

  0
ENDTAB
  0
TABLE
  2
STYLE
  5
3
330
0
100
AcDbSymbolTable
 70
     1
  0
STYLE
  5
17
330
3
100
AcDbSymbolTableRecord
100
AcDbTextStyleTableRecord
  2
STANDARD
 70
     0
 40
0.0
 41
1.0
 50
0.0
 71
     0
 42
3.5
  3
monos.ttf
  4

1001
ACAD
1000
Monospac821 BT
1071
       49
  0
ENDTAB
  0
TABLE
  2
VIEW
  5
5
330
0
100
AcDbSymbolTable
 70
     0
  0
ENDTAB
  0
TABLE
  2
UCS
  5
6
330
0
100
AcDbSymbolTable
 70
     0
  0
ENDTAB
  0
TABLE
  2
APPID
  5
8
330
0
100
AcDbSymbolTable
 70
    21
  0
APPID
  5
16
330
8
100
AcDbSymbolTableRecord
100
AcDbRegAppTableRecord
  2
ACAD
 70
     0
  0
APPID
  5
457
330
8
100
AcDbSymbolTableRecord
100
AcDbRegAppTableRecord
  2
AcAecLayerStandard
 70
     0
  0
APPID
  5
475
330
8
100
AcDbSymbolTableRecord
100
AcDbRegAppTableRecord
  2
ACAD_DSTYLE_DIMTEXT_FILL
 70
     0
  0
APPID
  5
476
330
8
100
AcDbSymbolTableRecord
100
AcDbRegAppTableRecord
  2
ACAD_DSTYLE_DIMEXT_LENGTH
 70
     0
  0
APPID
  5
477
330
8
100
AcDbSymbolTableRecord
100
AcDbRegAppTableRecord
  2
ACAD_DSTYLE_DIMEXT_ENABLED
 70
     0
  0
APPID
  5
478
330
8
100
AcDbSymbolTableRecord
100
AcDbRegAppTableRecord
  2
ACAD_DSTYLE_DIM_LINETYPE
 70
     0
  0
APPID
  5
479
330
8
100
AcDbSymbolTableRecord
100
AcDbRegAppTableRecord
  2
ACAD_DSTYLE_DIM_EXT1_LINETYPE
 70
     0
  0
APPID
  5
47A
330
8
100
AcDbSymbolTableRecord
100
AcDbRegAppTableRecord
  2
ACAD_DSTYLE_DIM_EXT2_LINETYPE
 70
     0
  0
APPID
  5
536
330
8
100
AcDbSymbolTableRecord
100
AcDbRegAppTableRecord
  2
ACAD_DSTYLE_DIMJOGGED_JOGANGLE_SYMBOL
 70
     0
  0
APPID
  5
7AF
330
8
100
AcDbSymbolTableRecord
100
AcDbRegAppTableRecord
  2
ACAD_DSTYLE_DIMARC_LENGTH_SYMBOL
 70
     0
  0
APPID
  5
163B
330
8
100
AcDbSymbolTableRecord
100
AcDbRegAppTableRecord
  2
ACAD_EXEMPT_FROM_CAD_STANDARDS
 70
     0
  0
APPID
  5
466B
330
8
100
AcDbSymbolTableRecord
100
AcDbRegAppTableRecord
  2
ACAD_PSEXT
 70
     0
  0
APPID
  5
466C
330
8
100
AcDbSymbolTableRecord
100
AcDbRegAppTableRecord
  2
ACAD_MLEADERVER
 70
     0
  0
APPID
  5
466D
330
8
100
AcDbSymbolTableRecord
100
AcDbRegAppTableRecord
  2
ACAD_DSTYLE_DIMJAG
 70
     0
  0
APPID
  5
466E
330
8
100
AcDbSymbolTableRecord
100
AcDbRegAppTableRecord
  2
ACAD_DSTYLE_DIMBREAK
 70
     0
  0
APPID
  5
466F
330
8
100
AcDbSymbolTableRecord
100
AcDbRegAppTableRecord
  2
ACAD_DSTYLE_DIMTALN
 70
     0
  0
APPID
  5
4670
330
8
100
AcDbSymbolTableRecord
100
AcDbRegAppTableRecord
  2
DCO15
 70
     0
  0
APPID
  5
4671
330
8
100
AcDbSymbolTableRecord
100
AcDbRegAppTableRecord
  2
AcadAnnoPO
 70
     0
  0
APPID
  5
4672
330
8
100
AcDbSymbolTableRecord
100
AcDbRegAppTableRecord
  2
ACAD_DSTYLE_DIMRADIAL_EXTENSION
 70
     0
  0
APPID
  5
546A
330
8
100
AcDbSymbolTableRecord
100
AcDbRegAppTableRecord
  2
AcLayerTools
 70
     0
  0
APPID
  5
5703
330
8
100
AcDbSymbolTableRecord
100
AcDbRegAppTableRecord
  2
ACAD_NAV_VCDISPLAY
 70
     0
  0
ENDTAB
  0
TABLE
  2
DIMSTYLE
  5
9
330
0
100
AcDbSymbolTable
 70
     1
100
AcDbDimStyleTable
 71
     1
340
18
  0
DIMSTYLE
105
18
102
{ACAD_REACTORS
330
4146
330
4147
330
426C
330
426D
102
}
330
9
100
AcDbSymbolTableRecord
100
AcDbDimStyleTableRecord
  2
STANDARD
 70
     0
 41
2.5
 42
0.625
 43
3.75
 44
1.25
 73
     0
 74
     0
 77
     1
 78
     8
140
3.5
141
0.0
143
0.03937
147
0.625
171
     3
271
     1
272
     1
274
     3
283
     0
284
     8
340
17
1001
ACAD_DSTYLE_DIMEXT_LENGTH
1070
   378
1040
1.25
1001
ACAD_DSTYLE_DIMJOGGED_JOGANGLE_SYMBOL
1070
   384
1040
1.570796326794896
  0
ENDTAB
  0
TABLE
  2
BLOCK_RECORD
  5
1
330
0
100
AcDbSymbolTable
 70
     5
  0
BLOCK_RECORD
  5
A
102
{ACAD_XDICTIONARY
360
BCD
102
}
330
1
100
AcDbSymbolTableRecord
100
AcDbBlockTableRecord
  2
*MODEL_SPACE
340
20
  0
BLOCK_RECORD
  5
B
330
1
100
AcDbSymbolTableRecord
100
AcDbBlockTableRecord
  2
*PAPER_SPACE
340
21
  0
BLOCK_RECORD
  5
416B
330
1
100
AcDbSymbolTableRecord
100
AcDbBlockTableRecord
  2
*D0
340
0
  0
BLOCK_RECORD
  5
4177
330
1
100
AcDbSymbolTableRecord
100
AcDbBlockTableRecord
  2
*D1
340
0
  0
BLOCK_RECORD
  5
426E
330
1
100
AcDbSymbolTableRecord
100
AcDbBlockTableRecord
  2
*D2
340
0
  0
BLOCK_RECORD
  5
427A
330
1
100
AcDbSymbolTableRecord
100
AcDbBlockTableRecord
  2
*D3
340
0
  0
BLOCK_RECORD
  5
4335
330
1
100
AcDbSymbolTableRecord
100
AcDbBlockTableRecord
  2
CERO_POINT
340
0
310
2800000020000000200000000100080000000000000400000000000000000000000000000000000000000000000080000080000000808000800000008000800080800000C0C0C000C0DCC000F0CAA6000020400000206000002080000020A0000020C0000020E00000400000004020000040400000406000004080000040A0
310
000040C0000040E00000600000006020000060400000606000006080000060A0000060C0000060E00000800000008020000080400000806000008080000080A0000080C0000080E00000A0000000A0200000A0400000A0600000A0800000A0A00000A0C00000A0E00000C0000000C0200000C0400000C0600000C0800000C0
310
A00000C0C00000C0E00000E0000000E0200000E0400000E0600000E0800000E0A00000E0C00000E0E00040000000400020004000400040006000400080004000A0004000C0004000E00040200000402020004020400040206000402080004020A0004020C0004020E000404000004040200040404000404060004040800040
310
40A0004040C0004040E00040600000406020004060400040606000406080004060A0004060C0004060E00040800000408020004080400040806000408080004080A0004080C0004080E00040A0000040A0200040A0400040A0600040A0800040A0A00040A0C00040A0E00040C0000040C0200040C0400040C0600040C08000
310
40C0A00040C0C00040C0E00040E0000040E0200040E0400040E0600040E0800040E0A00040E0C00040E0E00080000000800020008000400080006000800080008000A0008000C0008000E00080200000802020008020400080206000802080008020A0008020C0008020E00080400000804020008040400080406000804080
310
008040A0008040C0008040E00080600000806020008060400080606000806080008060A0008060C0008060E00080800000808020008080400080806000808080008080A0008080C0008080E00080A0000080A0200080A0400080A0600080A0800080A0A00080A0C00080A0E00080C0000080C0200080C0400080C0600080C0
310
800080C0A00080C0C00080C0E00080E0000080E0200080E0400080E0600080E0800080E0A00080E0C00080E0E000C0000000C0002000C0004000C0006000C0008000C000A000C000C000C000E000C0200000C0202000C0204000C0206000C0208000C020A000C020C000C020E000C0400000C0402000C0404000C0406000C0
310
408000C040A000C040C000C040E000C0600000C0602000C0604000C0606000C0608000C060A000C060C000C060E000C0800000C0802000C0804000C0806000C0808000C080A000C080C000C080E000C0A00000C0A02000C0A04000C0A06000C0A08000C0A0A000C0A0C000C0A0E000C0C00000C0C02000C0C04000C0C06000
310
C0C08000C0C0A000F0FBFF00A4A0A000808080000000FF0000FF000000FFFF00FF000000FF00FF00FFFF0000FFFFFF00000000000000000000000000000000000000000000000000000000000000000000000000000000000000000000000000FF0000000000000000000000000000000000000000000000000000000000FF
310
FFFFFFFF000000000000000000000000000000000000000000FFFFFFFFFFFF0000FF0000FFFF00FF00000000000000000000000000000000FF00000000000000FFFFFF0000FFFFFFFF000000000000000000000000000000FF0000000000000000FF00FF0000FF00FFFF00000000000000000000000000FF00000000000000
310
0000FFFF00FF0000FF0000FFFF00000000000000000000FF000000000000000000FFFF00FF00FF0000FF0000FF000000000000000000FF0000000000000000000000FF0000FF00FF0000FF0000FF0000000000000000FF00000000000000000000FFFFFF0000FFFFFF0000FF00FFFF000000000000FF000000000000000000
310
000000FF00FF000000FFFF0000FF00FF0000000000FF00000000000000000000000000FFFF00FFFF0000FFFF0000FFFF0000000000FF000000000000000000000000FFFF00FF0000FF0000FFFF0000FF0000000000FF00000000000000000000000000FF0000FF0000FF0000FFFF0000FF00000000FF000000000000000000
310
000000FFFFFF0000FF0000FF0000FFFF00FF00000000FF00FF00000000FF0000FF00FF00FFFFFF0000FF0000FF0000FFFF00FF0000FFFFFFFFFFFFFFFFFFFFFFFFFFFFFFFFFFFFFFFFFFFFFFFFFFFFFFFFFFFF000000FF00FF00FF00FF0000FF0000FFFFFF00000000000000000000000000FF000000FF0000FF00FF00FF00
310
00FF0000FFFF000000000000000000000000FF00000000FFFF0000FF00FF00FF00FF000000FF000000000000000000000000FF00000000FF00FF0000FF00FF00FF00FF0000FF0000000000000000000000FF000000000000FF00FF0000FFFF0000FF00FF00FF0000000000000000000000FF000000000000FFFF00FF00FF00
310
FF0000FF00FFFF00000000000000000000FF0000000000000000FF0000FF00FF00FF0000FF00FF00000000000000000000FF000000000000000000FF0000FF00FF00FF0000FFFF000000000000000000FF0000000000000000000000FF0000FF00FF00FF0000FF000000000000000000FF000000000000000000000000FF00
310
00FF00FF00FF00FF00000000000000FFFF00000000000000000000000000FFFF0000FF00FF00FFFF0000000000FFFF00000000000000000000000000000000FFFFFFFFFF00FF00FF000000FFFF0000000000000000000000000000000000000000000000FFFFFFFFFFFFFF0000000000000000000000000000000000000000
310
0000000000000000FF0000000000000000000000000000000000000000000000000000000000000000000000000000000000000000000000
102
{BLKREFS
331
468B
102
}
1001
ACAD
1000
DesignCenter Data
1002
{
1070
     1
1070
     4
1002
}
  0
ENDTAB
  0
ENDSEC
  0
SECTION
  2
BLOCKS
  0
BLOCK
  5
D
330
A
100
AcDbEntity
  8
0
100
AcDbBlockBegin
  2
*MODEL_SPACE
 70
     0
 10
0.0
 20
0.0
 30
0.0
  3
*MODEL_SPACE
  1

  0
ENDBLK
  5
E
330
A
100
AcDbEntity
  8
0
100
AcDbBlockEnd
  0
BLOCK
  5
F
330
B
100
AcDbEntity
 67
     1
  8
0
100
AcDbBlockBegin
  2
*PAPER_SPACE
 70
     0
 10
0.0
 20
0.0
 30
0.0
  3
*PAPER_SPACE
  1

  0
ENDBLK
  5
10
330
B
100
AcDbEntity
 67
     1
  8
0
100
AcDbBlockEnd
  0
BLOCK
  5
4175
330
416B
100
AcDbEntity
  8
0
100
AcDbBlockBegin
  2
*D0
 70
     1
 10
0.0
 20
0.0
 30
0.0
  3
*D0
  1

  0
LINE
  5
576C
330
416B
100
AcDbEntity
  8
2
 62
     0
370
    -2
100
AcDbLine
 10
30.62499999999983
 20
-4.999999999999772
 30
0.0
 11
48.98307600000004
 21
-4.999999999999777
 31
0.0
  0
LINE
  5
576D
330
416B
100
AcDbEntity
  8
2
 62
     0
370
    -2
100
AcDbLine
 10
30.62499999999983
 20
4.999999999999999
 30
0.0
 11
48.98307600000004
 21
4.999999999999994
 31
0.0
  0
LINE
  5
576E
330
416B
100
AcDbEntity
  8
2
 62
     0
370
    -2
100
AcDbLine
 10
47.73307600000004
 20
-2.499999999999777
 30
0.0
 11
47.73307600000004
 21
2.499999999999994
 31
0.0
  0
SOLID
  5
576F
330
416B
100
AcDbEntity
  8
2
 62
     0
100
AcDbTrace
 10
47.31640933333337
 20
-2.499999999999777
 30
0.0
 11
48.1497426666667
 21
-2.499999999999777
 31
0.0
 12
47.73307600000004
 22
-4.999999999999777
 32
0.0
 13
47.73307600000004
 23
-4.999999999999777
 33
0.0
  0
SOLID
  5
5770
330
416B
100
AcDbEntity
  8
2
 62
     0
100
AcDbTrace
 10
47.31640933333337
 20
2.499999999999994
 30
0.0
 11
48.1497426666667
 21
2.499999999999994
 31
0.0
 12
47.73307600000004
 22
4.999999999999994
 32
0.0
 13
47.73307600000004
 23
4.999999999999994
 33
0.0
  0
MTEXT
  5
5771
330
416B
100
AcDbEntity
  8
2
 62
     0
100
AcDbMText
 10
45.24493474912161
 20
0.0000000000001168
 30
0.0
 40
3.5
 41
0.0
 71
     5
 72
     1
  1
%%C10
 11
0.0000000000000001
 21
1.0
 31
0.0
 73
     1
 44
1.0
1001
ACAD
1000
MTEXTBEGIN
1070
    73
1070
     1
1070
    44
1040
1.0
1070
    74
1070
     0
1000
MTEXTEND
  0
POINT
  5
5772
330
416B
100
AcDbEntity
  8
DEFPOINTS
 62
     0
100
AcDbPoint
 10
29.99999999999983
 20
-4.999999999999771
 30
0.0
  0
POINT
  5
5773
330
416B
100
AcDbEntity
  8
DEFPOINTS
 62
     0
100
AcDbPoint
 10
29.99999999999983
 20
5.0
 30
0.0
  0
POINT
  5
5774
330
416B
100
AcDbEntity
  8
DEFPOINTS
 62
     0
100
AcDbPoint
 10
47.73307600000004
 20
4.999999999999994
 30
0.0
  0
ENDBLK
  5
4176
330
416B
100
AcDbEntity
  8
0
100
AcDbBlockEnd
  0
BLOCK
  5
4181
330
4177
100
AcDbEntity
  8
0
100
AcDbBlockBegin
  2
*D1
 70
     1
 10
0.0
 20
0.0
 30
0.0
  3
*D1
  1

  0
LINE
  5
5775
330
4177
100
AcDbEntity
  8
SK2
 62
     0
370
    -2
100
AcDbLine
 10
-75.17500000000012
 20
6.000000000000341
 30
0.0
 11
-91.90747100000022
 21
6.000000000000345
 31
0.0
  0
LINE
  5
5776
330
4177
100
AcDbEntity
  8
SK2
 62
     0
370
    -2
100
AcDbLine
 10
-75.17500000000012
 20
-5.999999999999656
 30
0.0
 11
-91.90747100000022
 21
-5.999999999999651
 31
0.0
  0
LINE
  5
5777
330
4177
100
AcDbEntity
  8
SK2
 62
     0
370
    -2
100
AcDbLine
 10
-90.65747100000022
 20
3.500000000000345
 30
0.0
 11
-90.65747100000022
 21
-3.499999999999652
 31
0.0
  0
SOLID
  5
5778
330
4177
100
AcDbEntity
  8
SK2
 62
     0
100
AcDbTrace
 10
-91.07413766666688
 20
3.500000000000345
 30
0.0
 11
-90.24080433333354
 21
3.500000000000345
 31
0.0
 12
-90.65747100000022
 22
6.000000000000345
 32
0.0
 13
-90.65747100000022
 23
6.000000000000345
 33
0.0
  0
SOLID
  5
5779
330
4177
100
AcDbEntity
  8
SK2
 62
     0
100
AcDbTrace
 10
-91.07413766666688
 20
-3.499999999999651
 30
0.0
 11
-90.24080433333354
 21
-3.499999999999652
 31
0.0
 12
-90.65747100000022
 22
-5.999999999999651
 32
0.0
 13
-90.65747100000022
 23
-5.999999999999651
 33
0.0
  0
MTEXT
  5
577A
330
4177
100
AcDbEntity
  8
SK2
 62
     0
100
AcDbMText
 10
-93.14561225087864
 20
0.0000000000003323
 30
0.0
 40
3.5
 41
0.0
 71
     5
 72
     1
  1
%%C12
 11
0.0000000000000001
 21
1.0
 31
0.0
 73
     1
 44
1.0
1001
ACAD
1000
MTEXTBEGIN
1070
    73
1070
     1
1070
    44
1040
1.0
1070
    74
1070
     0
1000
MTEXTEND
  0
POINT
  5
577B
330
4177
100
AcDbEntity
  8
DEFPOINTS
 62
     0
100
AcDbPoint
 10
-74.55000000000012
 20
6.000000000000341
 30
0.0
  0
POINT
  5
577C
330
4177
100
AcDbEntity
  8
DEFPOINTS
 62
     0
100
AcDbPoint
 10
-74.55000000000012
 20
-5.999999999999656
 30
0.0
  0
POINT
  5
577D
330
4177
100
AcDbEntity
  8
DEFPOINTS
 62
     0
100
AcDbPoint
 10
-90.65747100000022
 20
-5.999999999999651
 30
0.0
  0
ENDBLK
  5
4182
330
4177
100
AcDbEntity
  8
0
100
AcDbBlockEnd
  0
BLOCK
  5
4278
330
426E
100
AcDbEntity
  8
0
100
AcDbBlockBegin
  2
*D2
 70
     1
 10
0.0
 20
0.0
 30
0.0
  3
*D2
  1

  0
LINE
  5
577E
330
426E
100
AcDbEntity
  8
2
 62
     0
370
    -2
100
AcDbLine
 10
19.99997918694872
 20
5.549976999653807
 30
0.0
 11
19.99941869097138
 21
22.3812421511519
 31
0.0
  0
LINE
  5
577F
330
426E
100
AcDbEntity
  8
2
 62
     0
370
    -2
100
AcDbLine
 10
34.9999791869485
 20
0.6249999996534536
 30
0.0
 11
34.99925466825842
 21
22.38174165892214
 31
0.0
  0
LINE
  5
5780
330
426E
100
AcDbEntity
  8
2
 62
     0
370
    -2
100
AcDbLine
 10
22.49946031568788
 20
21.13132540405034
 30
0.0
 11
32.49929629574727
 21
21.13165840740989
 31
0.0
  0
SOLID
  5
5781
330
426E
100
AcDbEntity
  8
2
 62
     0
100
AcDbTrace
 10
22.49944644032032
 20
21.54799207048597
 30
0.0
 11
22.49947419105543
 21
20.7146587376147
 31
0.0
 12
19.99946031707406
 22
21.13124215184499
 32
0.0
 13
19.99946031707406
 23
21.13124215184499
 33
0.0
  0
SOLID
  5
5782
330
426E
100
AcDbEntity
  8
2
 62
     0
100
AcDbTrace
 10
32.49928242037972
 20
21.54832507384552
 30
0.0
 11
32.49931017111483
 21
20.71499174097425
 31
0.0
 12
34.99929629436109
 22
21.13174165961523
 32
0.0
 13
34.99929629436109
 23
21.13174165961523
 33
0.0
  0
MTEXT
  5
5783
330
426E
100
AcDbEntity
  8
2
 62
     0
100
AcDbMText
 10
27.49929716845757
 20
23.56798171463916
 30
0.0
 40
3.5
 41
0.0
 71
     5
 72
     1
  1
15
 11
0.9999999994455256
 21
0.0000333008821372
 31
0.0
 73
     1
 44
1.0
1001
ACAD
1000
MTEXTBEGIN
1070
    73
1070
     1
1070
    44
1040
1.0
1070
    74
1070
     0
1000
MTEXTEND
  0
POINT
  5
5784
330
426E
100
AcDbEntity
  8
DEFPOINTS
 62
     0
100
AcDbPoint
 10
20.00000000000006
 20
4.924977000000353
 30
0.0
  0
POINT
  5
5785
330
426E
100
AcDbEntity
  8
DEFPOINTS
 62
     0
100
AcDbPoint
 10
34.99999999999984
 20
0.0
 30
0.0
  0
POINT
  5
5786
330
426E
100
AcDbEntity
  8
DEFPOINTS
 62
     0
100
AcDbPoint
 10
34.99929629436109
 20
21.13174165961523
 30
0.0
  0
ENDBLK
  5
4279
330
426E
100
AcDbEntity
  8
0
100
AcDbBlockEnd
  0
BLOCK
  5
4284
330
427A
100
AcDbEntity
  8
0
100
AcDbBlockBegin
  2
*D3
 70
     1
 10
0.0
 20
0.0
 30
0.0
  3
*D3
  1

  0
LINE
  5
5787
330
427A
100
AcDbEntity
  8
SK2
 62
     0
370
    -2
100
AcDbLine
 10
-75.00002081305132
 20
6.174999999653804
 30
0.0
 11
-75.0009742014127
 21
34.80452269265177
 31
0.0
  0
LINE
  5
5788
330
427A
100
AcDbEntity
  8
SK2
 62
     0
370
    -2
100
AcDbLine
 10
34.9999791869485
 20
0.6249999996534536
 30
0.0
 11
34.998840856707
 21
34.80818578353017
 31
0.0
  0
LINE
  5
5789
330
427A
100
AcDbEntity
  8
SK2
 62
     0
370
    -2
100
AcDbLine
 10
-72.50093257669623
 20
33.55460594555021
 30
0.0
 11
32.49888248419586
 21
33.55810253201792
 31
0.0
  0
SOLID
  5
578A
330
427A
100
AcDbEntity
  8
SK2
 62
     0
100
AcDbTrace
 10
-72.50094645206378
 20
33.97127261198584
 30
0.0
 11
-72.50091870132867
 21
33.13793927911458
 31
0.0
 12
-75.00093257531003
 22
33.55452269334487
 32
0.0
 13
-75.00093257531003
 23
33.55452269334487
 33
0.0
  0
SOLID
  5
578B
330
427A
100
AcDbEntity
  8
SK2
 62
     0
100
AcDbTrace
 10
32.4988686088283
 20
33.97476919845355
 30
0.0
 11
32.49889635956342
 21
33.14143586558229
 31
0.0
 12
34.99888248280968
 22
33.55818578422326
 32
0.0
 13
34.99888248280968
 23
33.55818578422326
 33
0.0
  0
MTEXT
  5
578C
330
427A
100
AcDbEntity
  8
SK2
 62
     0
100
AcDbMText
 10
-20.00110618351018
 20
35.99284404769311
 30
0.0
 40
3.5
 41
0.0
 71
     5
 72
     1
  1
110
 11
0.9999999994455256
 21
0.0000333008821372
 31
0.0
 73
     1
 44
1.0
1001
ACAD
1000
MTEXTBEGIN
1070
    73
1070
     1
1070
    44
1040
1.0
1070
    74
1070
     0
1000
MTEXTEND
  0
POINT
  5
578D
330
427A
100
AcDbEntity
  8
DEFPOINTS
 62
     0
100
AcDbPoint
 10
-74.99999999999999
 20
5.55000000000035
 30
0.0
  0
POINT
  5
578E
330
427A
100
AcDbEntity
  8
DEFPOINTS
 62
     0
100
AcDbPoint
 10
34.99999999999984
 20
0.0
 30
0.0
  0
POINT
  5
578F
330
427A
100
AcDbEntity
  8
DEFPOINTS
 62
     0
100
AcDbPoint
 10
34.99888248280968
 20
33.55818578422326
 30
0.0
  0
ENDBLK
  5
4285
330
427A
100
AcDbEntity
  8
0
100
AcDbBlockEnd
  0
BLOCK
  5
4336
330
4335
100
AcDbEntity
  8
0
100
AcDbBlockBegin
  2
CERO_POINT
 70
     0
 10
0.0
 20
0.0
 30
0.0
  3
CERO_POINT
  1

  0
CIRCLE
  5
4337
102
{ACAD_REACTORS
330
433C
102
}
330
4335
100
AcDbEntity
  8
SK2
100
AcDbCircle
 10
0.0
 20
0.0
 30
0.0
 40
2.5
  0
LINE
  5
4338
330
4335
100
AcDbEntity
  8
SK2
100
AcDbLine
 10
0.0900000000037835
 20
0.0
 30
0.0
 11
-0.0899999999965076
 21
0.0
 31
0.0
  0
LINE
  5
4339
330
4335
100
AcDbEntity
  8
SK2
100
AcDbLine
 10
0.0
 20
0.0899999999999182
 30
0.0
 11
0.0
 21
-0.0899999999999182
 31
0.0
  0
LINE
  5
433A
102
{ACAD_REACTORS
330
433C
102
}
330
4335
100
AcDbEntity
  8
SK2
100
AcDbLine
 10
0.0
 20
-2.5
 30
0.0
 11
0.0
 21
2.5
 31
0.0
  0
LINE
  5
433B
102
{ACAD_REACTORS
330
433C
102
}
330
4335
100
AcDbEntity
  8
SK2
100
AcDbLine
 10
2.5
 20
0.0
 30
0.0
 11
-2.5
 21
0.0
 31
0.0
  0
HATCH
  5
433C
330
4335
100
AcDbEntity
  8
SK2
100
AcDbHatch
 10
0.0
 20
0.0
 30
0.0
210
0.0
220
0.0
230
1.0
  2
ANSI31
 70
     0
 71
     1
 91
        2
 92
        7
 72
     1
 73
     1
 93
        3
 10
0.0
 20
-2.5
 42
0.4142135623730951
 10
2.5
 20
0.0
 42
0.0
 10
0.0
 20
0.0
 42
0.0
 97
        3
330
4337
330
433B
330
433A
 92
        7
 72
     1
 73
     1
 93
        3
 10
0.0
 20
0.0
 42
0.0
 10
0.0
 20
2.5
 42
0.4142135623730951
 10
-2.5
 20
0.0
 42
0.0
 97
        3
330
433B
330
433A
330
4337
 75
     0
 76
     1
 52
180.0
 41
0.1
 77
     0
 78
     1
 53
225.0
 43
5.170976743218488
 44
0.0
 45
0.2245064030267288
 46
-0.2245064030267289
 79
     0
 47
0.0243816376539857
 98
        2
 10
0.8789156907296272
 20
-1.044463114528752
 10
-0.8545028512526187
 20
0.7841600866017872
  0
ENDBLK
  5
433D
330
4335
100
AcDbEntity
  8
0
100
AcDbBlockEnd
  0
ENDSEC
  0
SECTION
  2
ENTITIES
  0
DIMENSION
  5
4146
102
{ACAD_REACTORS
330
42C0
102
}
330
A
100
AcDbEntity
  8
2
100
AcDbDimension
  2
*D0
 10
47.73307600000004
 20
4.999999999999994
 30
0.0
 11
45.24493474912161
 21
0.0000000000001168
 31
0.0
 70
    33
  1
%%C<>
 71
     5
 42
9.999999999999772
  3
STANDARD
100
AcDbAlignedDimension
 13
29.99999999999983
 23
-4.999999999999771
 33
0.0
 14
29.99999999999983
 24
5.0
 34
0.0
  0
DIMENSION
  5
4147
102
{ACAD_REACTORS
330
42D3
102
}
330
A
100
AcDbEntity
  8
SK2
100
AcDbDimension
  2
*D1
 10
-90.65747100000022
 20
-5.999999999999651
 30
0.0
 11
-93.14561225087864
 21
0.0000000000003323
 31
0.0
 70
    33
  1
%%C<>
 71
     5
 42
11.99999999999999
  3
STANDARD
100
AcDbAlignedDimension
 13
-74.55000000000012
 23
6.000000000000341
 33
0.0
 14
-74.55000000000012
 24
-5.999999999999656
 34
0.0
  0
LINE
  5
4149
102
{ACAD_REACTORS
330
42F1
102
}
330
A
100
AcDbEntity
  8
4
100
AcDbLine
 10
0.0
 20
0.0
 30
0.0
 11
36.63623200000001
 21
0.0
 31
0.0
  0
SPLINE
  5
41AF
102
{ACAD_REACTORS
330
50E6
102
}
330
A
100
AcDbEntity
  8
1
100
AcDbSpline
210
0.0
220
0.0
230
1.0
 70
     8
 71
     5
 72
    18
 73
    12
 74
     0
 42
0.000000001
 43
0.0000000001
 40
0.0
 40
0.0
 40
0.0
 40
0.0
 40
0.0
 40
0.0
 40
0.1853110478203294
 40
0.1853110478203294
 40
0.1853110478203294
 40
0.5446525179719652
 40
0.5446525179719652
 40
0.5446525179719652
 40
1.19148807909035
 40
1.19148807909035
 40
1.19148807909035
 40
1.19148807909035
 40
1.19148807909035
 40
1.19148807909035
 10
34.15025310234791
 20
-0.2418677326287479
 30
0.0
 10
34.1561096016904
 20
-0.2289520948972949
 30
0.0
 10
34.15960993893469
 20
-0.2139901935378248
 30
0.0
 10
34.16049259579831
 20
-0.1968717464021097
 30
0.0
 10
34.15601598386235
 20
-0.1450561505714063
 30
0.0
 10
34.13431935898581
 20
-0.0890696035013434
 30
0.0
 10
34.11469778103259
 20
-0.0523697986373009
 30
0.0
 10
34.0525028193619
 20
0.0435513596020201
 30
0.0
 10
33.9720058008225
 20
0.1259846397816773
 30
0.0
 10
33.91725945967535
 20
0.1721489200324981
 30
0.0
 10
33.85978761524081
 20
0.2116956952305031
 30
0.0
 10
33.80167496363352
 20
0.2418677324502028
 30
0.0
  0
LINE
  5
41B0
102
{ACAD_REACTORS
330
50E6
102
}
330
A
100
AcDbEntity
  8
1
100
AcDbLine
 10
33.637722
 20
0.2418680000001814
 30
0.0
 11
33.80167499999999
 21
0.2418680000001814
 31
0.0
  0
LINE
  5
41B1
102
{ACAD_REACTORS
330
50E6
102
}
330
A
100
AcDbEntity
  8
1
100
AcDbLine
 10
34.01565799999997
 20
-0.2418679999998403
 30
0.0
 11
34.15025299999974
 21
-0.2418679999998403
 31
0.0
  0
LINE
  5
41B2
102
{ACAD_REACTORS
330
50E6
102
}
330
A
100
AcDbEntity
  8
1
100
AcDbLine
 10
34.15025299999974
 20
-0.2418679999998403
 30
0.0
 11
34.42603599999979
 21
-0.638846000000001
 31
0.0
  0
LINE
  5
41B3
102
{ACAD_REACTORS
330
50E6
102
}
330
A
100
AcDbEntity
  8
1
100
AcDbLine
 10
26.47388799999982
 20
-4.101774999999803
 30
0.0
 11
26.48584899999987
 21
-4.169606999999754
 31
0.0
  0
ARC
  5
41B4
102
{ACAD_REACTORS
330
50E6
102
}
330
A
100
AcDbEntity
  8
1
100
AcDbCircle
 10
19.50642399999975
 20
-102.3736749999996
 30
0.0
 40
98.451988
100
AcDbArc
 50
84.10886400000256
 51
85.93478800000294
  0
ARC
  5
41B5
102
{ACAD_REACTORS
330
50E6
102
}
330
A
100
AcDbEntity
  8
1
100
AcDbCircle
 10
30.04199599999998
 20
0.0651080000000093
 30
0.0
 40
4.526953999999999
100
AcDbArc
 50
264.5423199999981
 51
288.3130210000018
  0
SPLINE
  5
41B6
102
{ACAD_REACTORS
330
50E6
102
}
330
A
100
AcDbEntity
  8
1
100
AcDbSpline
210
0.0
220
0.0
230
1.0
 70
     8
 71
     5
 72
    57
 73
    51
 74
     0
 42
0.000000001
 43
0.0000000001
 40
0.6234621968118571
 40
0.6234621968118571
 40
0.6234621968118571
 40
0.6234621968118571
 40
0.6234621968118571
 40
0.6234621968118571
 40
1.080141027583249
 40
1.080141027583249
 40
1.080141027583249
 40
1.44136046633486
 40
1.44136046633486
 40
1.44136046633486
 40
2.173565038672887
 40
2.173565038672887
 40
2.173565038672887
 40
2.546371505594528
 40
2.546371505594528
 40
2.546371505594528
 40
2.918732242637318
 40
2.918732242637318
 40
2.918732242637318
 40
3.306320360617576
 40
3.306320360617576
 40
3.306320360617576
 40
3.693889752497214
 40
3.693889752497214
 40
3.693889752497214
 40
4.305562199423595
 40
4.305562199423595
 40
4.305562199423595
 40
4.509492149905271
 40
4.509492149905271
 40
4.509492149905271
 40
4.956099304011183
 40
4.956099304011183
 40
4.956099304011183
 40
5.179432422485461
 40
5.179432422485461
 40
5.179432422485461
 40
5.402765540959749
 40
5.402765540959749
 40
5.402765540959749
 40
6.436184396599597
 40
6.436184396599597
 40
6.436184396599597
 40
6.717781749067309
 40
6.717781749067309
 40
6.717781749067309
 40
6.999379101535025
 40
6.999379101535025
 40
6.999379101535025
 40
7.877517861620606
 40
7.877517861620606
 40
7.877517861620606
 40
7.877517861620606
 40
7.877517861620606
 40
7.877517861620606
 10
34.42603621926259
 20
-0.6388458283584555
 30
0.0
 10
34.41522988405637
 20
-0.6970339992466279
 30
0.0
 10
34.40366579659002
 20
-0.7551571579591041
 30
0.0
 10
34.39136159847425
 20
-0.8131958633509839
 30
0.0
 10
34.36802818395956
 20
-0.9169503845574807
 30
0.0
 10
34.34238771783538
 20
-1.020297753130989
 30
0.0
 10
34.33062965527057
 20
-1.065897967901944
 30
0.0
 10
34.29350345100937
 20
-1.203501245821825
 30
0.0
 10
34.2513429811176
 20
-1.340296030494299
 30
0.0
 10
34.22055976433154
 20
-1.431626824381169
 30
0.0
 10
34.17072966233167
 20
-1.568736350346053
 30
0.0
 10
34.11597552581981
 20
-1.704691741796239
 30
0.0
 10
34.0969514875024
 20
-1.750423635747948
 30
0.0
 10
34.05785175475302
 20
-1.84146929245702
 30
0.0
 10
34.01649185878279
 20
-1.931684515793108
 30
0.0
 10
33.99511480565303
 20
-1.976817616162293
 30
0.0
 10
33.95038149155534
 20
-2.067648560572818
 30
0.0
 10
33.90271468303473
 20
-2.157229132828433
 30
0.0
 10
33.87761784575099
 20
-2.202635844851271
 30
0.0
 10
33.82611314770207
 20
-2.292913056170505
 30
0.0
 10
33.77223600574888
 20
-2.382215514850543
 30
0.0
 10
33.74476090505294
 20
-2.42666825676349
 30
0.0
 10
33.67271672304054
 20
-2.540436608397783
 30
0.0
 10
33.59642907173196
 20
-2.651717199443111
 30
0.0
 10
33.54754133494186
 20
-2.718846172100029
 30
0.0
 10
33.47964043328301
 20
-2.806376679298637
 30
0.0
 10
33.40890948279133
 20
-2.891790739506348
 30
0.0
 10
33.39105870560008
 20
-2.913021863694723
 30
0.0
 10
33.33374414294933
 20
-2.980421059339787
 30
0.0
 10
33.27519882887481
 20
-3.046897145494823
 30
0.0
 10
33.23440595144353
 20
-3.092206529565256
 30
0.0
 10
33.17203332628043
 20
-3.159239168984356
 30
0.0
 10
33.10755851314053
 20
-3.224402351225077
 30
0.0
 10
33.08581038318056
 20
-3.245893908783556
 30
0.0
 10
33.04180043233242
 20
-3.288343984084973
 30
0.0
 10
32.99675310448316
 20
-3.329702333068496
 30
0.0
 10
32.97396311478991
 20
-3.350091893624833
 30
0.0
 10
32.84448873278603
 20
-3.4634642887151
 30
0.0
 10
32.70845744002969
 20
-3.569816733684433
 30
0.0
 10
32.59380132703888
 20
-3.654893906110828
 30
0.0
 10
32.44486150461018
 20
-3.757617986189984
 30
0.0
 10
32.29082128898625
 20
-3.85206169188535
 30
0.0
 10
32.25758097416195
 20
-3.871899510751346
 30
0.0
 10
32.19059790722492
 20
-3.910645369182475
 30
0.0
 10
32.12261582789898
 20
-3.947547754142816
 30
0.0
 10
32.08837292056234
 20
-3.965533382046317
 30
0.0
 10
31.94646324358206
 20
-4.037707490730951
 30
0.0
 10
31.80110810412026
 20
-4.10256055910429
 30
0.0
 10
31.68955292161133
 20
-4.148263792184707
 30
0.0
 10
31.57757033675449
 20
-4.192100561103924
 30
0.0
 10
31.46412099699393
 20
-4.231724548796305
 30
0.0
  0
LINE
  5
41B7
102
{ACAD_REACTORS
330
50E6
102
}
330
A
100
AcDbEntity
  8
1
100
AcDbLine
 10
32.78751199999982
 20
1.330086000000221
 30
0.0
 11
32.90584599999983
 21
1.39840600000025
 31
0.0
  0
ARC
  5
41B8
102
{ACAD_REACTORS
330
50E6
102
}
330
A
100
AcDbEntity
  8
1
100
AcDbCircle
 10
10.42077299999971
 20
-16.94195899999965
 30
0.0
 40
29.016357
100
AcDbArc
 50
36.31407899999768
 51
39.20304100000168
  0
LINE
  5
41B9
102
{ACAD_REACTORS
330
50E6
102
}
330
A
100
AcDbEntity
  8
1
100
AcDbLine
 10
34.98602799999999
 20
-0.040143999999998
 30
0.0
 11
34.90559999999999
 21
-0.2810699999996586
 31
0.0
  0
ARC
  5
41BA
102
{ACAD_REACTORS
330
50E6
102
}
330
A
100
AcDbEntity
  8
1
100
AcDbCircle
 10
37.77487099999991
 20
-4.628458999999963
 30
0.0
 40
5.208848999999998
100
AcDbArc
 50
123.424757999997
 51
130.0097000000008
  0
SPLINE
  5
41BB
102
{ACAD_REACTORS
330
50E6
102
}
330
A
100
AcDbEntity
  8
1
100
AcDbSpline
210
0.0
220
0.0
230
1.0
 70
     8
 71
     5
 72
    18
 73
    12
 74
     0
 42
0.000000001
 43
0.0000000001
 40
0.0
 40
0.0
 40
0.0
 40
0.0
 40
0.0
 40
0.0
 40
0.4017870457878396
 40
0.4017870457878396
 40
0.4017870457878396
 40
0.7218290171831993
 40
0.7218290171831993
 40
0.7218290171831993
 40
1.029917493158154
 40
1.029917493158154
 40
1.029917493158154
 40
1.029917493158154
 40
1.029917493158154
 40
1.029917493158154
 10
32.90584557271183
 20
1.398405922752999
 30
0.0
 10
32.91150305139235
 20
1.431054889526706
 30
0.0
 10
32.90940668686864
 20
1.468252842928166
 30
0.0
 10
32.89891228190965
 20
1.508262738829898
 30
0.0
 10
32.86659850894154
 20
1.579836566760604
 30
0.0
 10
32.8157031127451
 20
1.644299695966537
 30
0.0
 10
32.79033955389973
 20
1.670542059409569
 30
0.0
 10
32.73648939841991
 20
1.71641624929623
 30
0.0
 10
32.67807604368312
 20
1.749294674376699
 30
0.0
 10
32.64863002024305
 20
1.762073871854965
 30
0.0
 10
32.61991272563984
 20
1.770913665010994
 30
0.0
 10
32.59215780369601
 20
1.775867806622613
 30
0.0
  0
ARC
  5
41BC
102
{ACAD_REACTORS
330
50E6
102
}
330
A
100
AcDbEntity
  8
1
100
AcDbCircle
 10
12.00087899999983
 20
-15.6432249999998
 30
0.0
 40
26.970821
100
AcDbArc
 50
40.22939000000174
 51
42.5588560000005
  0
SPLINE
  5
41BD
102
{ACAD_REACTORS
330
50E6
102
}
330
A
100
AcDbEntity
  8
1
100
AcDbSpline
210
0.0
220
0.0
230
1.0
 70
     8
 71
     5
 72
    18
 73
    12
 74
     0
 42
0.000000001
 43
0.0000000001
 40
0.0
 40
0.0
 40
0.0
 40
0.0
 40
0.0
 40
0.0
 40
0.6471293052469271
 40
0.6471293052469271
 40
0.6471293052469271
 40
0.9807253322570208
 40
0.9807253322570208
 40
0.9807253322570208
 40
1.082213529125108
 40
1.082213529125108
 40
1.082213529125108
 40
1.082213529125108
 40
1.082213529125108
 40
1.082213529125108
 10
31.86712148750456
 20
2.59840958503139
 30
0.0
 10
31.85801408825085
 20
2.657482930971184
 30
0.0
 10
31.83694410828986
 20
2.719803360464481
 30
0.0
 10
31.80499008872761
 20
2.783284270144008
 30
0.0
 10
31.73930146096967
 20
2.875640188949148
 30
0.0
 10
31.6512651778042
 20
2.943290951124192
 30
0.0
 10
31.61861963917302
 20
2.962373232404956
 30
0.0
 10
31.57605336616831
 20
2.978007546748072
 30
0.0
 10
31.53653299819592
 20
2.980941323808393
 30
0.0
 10
31.52752179454893
 20
2.980917483811879
 30
0.0
 10
31.51896233083034
 20
2.980198925092053
 30
0.0
 10
31.51076863516249
 20
2.978824061027694
 30
0.0
  0
ARC
  5
41BE
102
{ACAD_REACTORS
330
50E6
102
}
330
A
100
AcDbEntity
  8
1
100
AcDbCircle
 10
12.5787199999998
 20
-15.10900199999975
 30
0.0
 40
26.18381
100
AcDbArc
 50
43.69361999999824
 51
45.63943799999782
  0
LINE
  5
41BF
102
{ACAD_REACTORS
330
50E6
102
}
330
A
100
AcDbEntity
  8
1
100
AcDbLine
 10
30.8856889999999
 20
3.611219000000004
 30
0.0
 11
31.11185000000006
 21
3.656613000000276
 31
0.0
  0
ARC
  5
41C0
102
{ACAD_REACTORS
330
50E6
102
}
330
A
100
AcDbEntity
  8
1
100
AcDbCircle
 10
31.1093859999998
 20
3.680853000000182
 30
0.0
 40
0.024177
100
AcDbArc
 50
275.8054850000007
 51
358.3920059999987
  0
LINE
  5
41C1
102
{ACAD_REACTORS
330
50E6
102
}
330
A
100
AcDbEntity
  8
1
100
AcDbLine
 10
26.074277
 20
-4.138974999999674
 30
0.0
 11
26.09669799999989
 21
-4.266129999999748
 31
0.0
  0
ARC
  5
41C2
102
{ACAD_REACTORS
330
50E6
102
}
330
A
100
AcDbEntity
  8
1
100
AcDbCircle
 10
29.34531199999998
 20
-16.52987599999977
 30
0.0
 40
12.686719
100
AcDbArc
 50
103.0258290000003
 51
104.8366460000022
  0
LINE
  5
41C3
102
{ACAD_REACTORS
330
50E6
102
}
330
A
100
AcDbEntity
  8
1
100
AcDbLine
 10
26.09669799999989
 20
-4.266129999999748
 30
0.0
 11
26.15821
 21
-4.614979999999832
 31
0.0
  0
LINE
  5
41C4
102
{ACAD_REACTORS
330
50E6
102
}
330
A
100
AcDbEntity
  8
1
100
AcDbLine
 10
26.19979399999983
 20
-4.651819999999758
 30
0.0
 11
26.15821
 21
-4.614979999999832
 31
0.0
  0
LINE
  5
41C5
102
{ACAD_REACTORS
330
50E6
102
}
330
A
100
AcDbEntity
  8
1
100
AcDbLine
 10
26.19979399999983
 20
-4.651819999999758
 30
0.0
 11
29.5718339999998
 21
-4.893957999999827
 31
0.0
  0
ARC
  5
41C6
102
{ACAD_REACTORS
330
50E6
102
}
330
A
100
AcDbEntity
  8
1
100
AcDbCircle
 10
29.9230199999999
 20
-0.1417799999995282
 30
0.0
 40
4.765137999999998
100
AcDbArc
 50
265.7735249999988
 51
269.5141749999987
  0
ARC
  5
41C7
102
{ACAD_REACTORS
330
50E6
102
}
330
A
100
AcDbEntity
  8
1
100
AcDbCircle
 10
29.9219839999999
 20
0.0200280000004796
 30
0.0
 40
4.926991
100
AcDbArc
 50
269.5421800000004
 51
289.8661929999971
  0
SPLINE
  5
41C8
102
{ACAD_REACTORS
330
50E6
102
}
330
A
100
AcDbEntity
  8
1
100
AcDbSpline
210
0.0
220
0.0
230
1.0
 70
     8
 71
     5
 72
    21
 73
    15
 74
     0
 42
0.000000001
 43
0.0000000001
 40
0.0
 40
0.0
 40
0.0
 40
0.0
 40
0.0
 40
0.0
 40
1.030714113201548
 40
1.030714113201548
 40
1.030714113201548
 40
2.071658692978457
 40
2.071658692978457
 40
2.071658692978457
 40
3.119628486958225
 40
3.119628486958225
 40
3.119628486958225
 40
3.472958518507294
 40
3.472958518507294
 40
3.472958518507294
 40
3.472958518507294
 40
3.472958518507294
 40
3.472958518507294
 10
34.90559961508421
 20
-0.2810702470173396
 30
0.0
 10
34.90208683308293
 20
-0.4229653015574968
 30
0.0
 10
34.8923878008498
 20
-0.5650491666830249
 30
0.0
 10
34.87650604715572
 20
-0.7074424390643232
 30
0.0
 10
34.832579718143
 20
-0.9915658145135919
 30
0.0
 10
34.76511513485838
 20
-1.27142049642077
 30
0.0
 10
34.72611144201727
 20
-1.408305391582018
 30
0.0
 10
34.63435719237731
 20
-1.685561862527663
 30
0.0
 10
34.51974747357821
 20
-1.956371103289598
 30
0.0
 10
34.45663847678287
 20
-2.090666289963337
 30
0.0
 10
34.36557543232181
 20
-2.265562618763794
 30
0.0
 10
34.26500910782642
 20
-2.436002765270529
 30
0.0
 10
34.23904872929887
 20
-2.47871428147749
 30
0.0
 10
34.21252590214698
 20
-2.52112637285472
 30
0.0
 10
34.18545459922649
 20
-2.563231540434002
 30
0.0
  0
SPLINE
  5
41C9
102
{ACAD_REACTORS
330
50E6
102
}
330
A
100
AcDbEntity
  8
1
100
AcDbSpline
210
0.0
220
0.0
230
1.0
 70
     8
 71
     5
 72
    27
 73
    21
 74
     0
 42
0.000000001
 43
0.0000000001
 40
0.0
 40
0.0
 40
0.0
 40
0.0
 40
0.0
 40
0.0
 40
0.9356068708523761
 40
0.9356068708523761
 40
0.9356068708523761
 40
1.404943913783375
 40
1.404943913783375
 40
1.404943913783375
 40
1.874988526636719
 40
1.874988526636719
 40
1.874988526636719
 40
2.815627568584285
 40
2.815627568584285
 40
2.815627568584285
 40
3.759422656461231
 40
3.759422656461231
 40
3.759422656461231
 40
4.700706205411366
 40
4.700706205411366
 40
4.700706205411366
 40
4.700706205411366
 40
4.700706205411366
 40
4.700706205411366
 10
34.18545459922649
 20
-2.563231540434002
 30
0.0
 10
34.11377063592414
 20
-2.674724707072523
 30
0.0
 10
34.03824102810148
 20
-2.784065685770312
 30
0.0
 10
33.96035587501325
 20
-2.889441580211609
 30
0.0
 10
33.83560534997144
 20
-3.046031905442305
 30
0.0
 10
33.70302158785984
 20
-3.196312440572397
 30
0.0
 10
33.65794637291283
 20
-3.245782668778358
 30
0.0
 10
33.56622743852103
 20
-3.343479954617293
 30
0.0
 10
33.47129834021933
 20
-3.438433761459462
 30
0.0
 10
33.42295931252301
 20
-3.485245157378756
 30
0.0
 10
33.27551567324127
 20
-3.623169765734928
 30
0.0
 10
33.12100303893699
 20
-3.753250077018036
 30
0.0
 10
33.01343277621396
 20
-3.8378500139695
 30
0.0
 10
32.79574211042626
 20
-3.99886752576566
 30
0.0
 10
32.56864087410685
 20
-4.145959411100306
 30
0.0
 10
32.45197527951194
 20
-4.216352160789313
 30
0.0
 10
32.21576688190584
 20
-4.34795452966091
 30
0.0
 10
31.97167539164997
 20
-4.463589175183016
 30
0.0
 10
31.8478843320126
 20
-4.517494252726521
 30
0.0
 10
31.72286217509856
 20
-4.567692156386954
 30
0.0
 10
31.59628018762402
 20
-4.613705378445613
 30
0.0
  0
LINE
  5
41CA
102
{ACAD_REACTORS
330
50E6
102
}
330
A
100
AcDbEntity
  8
1
100
AcDbLine
 10
32.48676799999981
 20
1.715021000000263
 30
0.0
 11
32.59215799999998
 21
1.775868
 31
0.0
  0
ARC
  5
41CC
102
{ACAD_REACTORS
330
50E6
102
}
330
A
100
AcDbEntity
  8
1
100
AcDbCircle
 10
34.52919799999978
 20
0.0676530000003481
 30
0.0
 40
0.4699060000000002
100
AcDbArc
 50
346.7229169999986
 51
1.99983099999989
  0
SPLINE
  5
41CD
102
{ACAD_REACTORS
330
50E6
102
}
330
A
100
AcDbEntity
  8
1
100
AcDbSpline
210
0.0
220
0.0
230
1.0
 70
     8
 71
     5
 72
    18
 73
    12
 74
     0
 42
0.000000001
 43
0.0000000001
 40
0.0
 40
0.0
 40
0.0
 40
0.0
 40
0.0
 40
0.0
 40
0.0380001929224019
 40
0.0380001929224019
 40
0.0380001929224019
 40
0.1130649805160228
 40
0.1130649805160228
 40
0.1130649805160228
 40
0.1834329971661812
 40
0.1834329971661812
 40
0.1834329971661812
 40
0.1834329971661812
 40
0.1834329971661812
 40
0.1834329971661812
 10
31.10847598860886
 20
3.771304362598526
 30
0.0
 10
31.11153753971149
 20
3.768166013476957
 30
0.0
 10
31.11457868162785
 20
3.765007553893553
 30
0.0
 10
31.1172090302444
 20
3.761417668435058
 30
0.0
 10
31.12461715248532
 20
3.750709110875334
 30
0.0
 10
31.12981192947183
 20
3.738851508794254
 30
0.0
 10
31.13203919785604
 20
3.730275123027068
 30
0.0
 10
31.13443765573146
 20
3.714444967818393
 30
0.0
 10
31.13452829403497
 20
3.699421744266373
 30
0.0
 10
31.13426031002751
 20
3.692450082696153
 30
0.0
 10
31.13387645070697
 20
3.686013157913008
 30
0.0
 10
31.13352497584577
 20
3.680175276800696
 30
0.0
  0
LINE
  5
41CE
102
{ACAD_REACTORS
330
50E6
102
}
330
A
100
AcDbEntity
  8
1
100
AcDbLine
 10
30.95693599999999
 20
3.923664000000258
 30
0.0
 11
31.10847599999983
 21
3.77130400000027
 31
0.0
  0
LINE
  5
41D1
102
{ACAD_REACTORS
330
50E6
102
}
330
A
100
AcDbEntity
  8
1
100
AcDbLine
 10
34.99999999999983
 20
0.0
 30
0.0
 11
34.99995299999972
 21
-0.0199969999996483
 31
0.0
  0
SPLINE
  5
41D2
102
{ACAD_REACTORS
330
50E6
102
}
330
A
100
AcDbEntity
  8
1
100
AcDbSpline
210
0.0
220
0.0
230
1.0
 70
     8
 71
     5
 72
    18
 73
    12
 74
     0
 42
0.000000001
 43
0.0000000001
 40
0.0
 40
0.0
 40
0.0
 40
0.0
 40
0.0
 40
0.0
 40
1.420256382013231
 40
1.420256382013231
 40
1.420256382013231
 40
2.834627920932568
 40
2.834627920932568
 40
2.834627920932568
 40
4.704719487289315
 40
4.704719487289315
 40
4.704719487289315
 40
4.704719487289315
 40
4.704719487289315
 40
4.704719487289315
 10
34.18581096516238
 20
-2.562632963467306
 30
0.0
 10
34.27657172076222
 20
-2.428731968160318
 30
0.0
 10
34.36177321880956
 20
-2.291598885334849
 30
0.0
 10
34.44142155212586
 20
-2.151098559216733
 30
0.0
 10
34.58786940876365
 20
-1.865701004532803
 30
0.0
 10
34.70941896806249
 20
-1.570531176688461
 30
0.0
 10
34.76367625527752
 20
-1.421091190498998
 30
0.0
 10
34.87363610871336
 20
-1.071822962847704
 30
0.0
 10
34.94735036785534
 20
-0.7137103481912847
 30
0.0
 10
34.97705766809435
 20
-0.5077866121103513
 30
0.0
 10
34.99425704515199
 20
-0.3017295931290391
 30
0.0
 10
34.99891749937575
 20
-0.0957044240156506
 30
0.0
  0
LINE
  5
41D3
102
{ACAD_REACTORS
330
50E6
102
}
330
A
100
AcDbEntity
  8
1
100
AcDbLine
 10
31.84075899999999
 20
2.541875
 30
0.0
 11
31.86712199999983
 21
2.598410000000336
 31
0.0
  0
LINE
  5
41D4
102
{ACAD_REACTORS
330
50E6
102
}
330
A
100
AcDbEntity
  8
1
100
AcDbLine
 10
31.48316099999983
 20
2.91962000000035
 30
0.0
 11
31.51076899999981
 21
2.978824000000257
 31
0.0
  0
LINE
  5
41D5
102
{ACAD_REACTORS
330
50E6
102
}
330
A
100
AcDbEntity
  8
1
100
AcDbLine
 10
26.41692099999983
 20
3.611219000000004
 30
0.0
 11
26.38731299999989
 21
3.575934000000243
 31
0.0
  0
LINE
  5
41D6
102
{ACAD_REACTORS
330
50E6
102
}
330
A
100
AcDbEntity
  8
1
100
AcDbLine
 10
30.8856889999999
 20
3.611219000000004
 30
0.0
 11
26.41692099999983
 21
3.611219000000004
 31
0.0
  0
LINE
  5
41D7
102
{ACAD_REACTORS
330
50E6
102
}
330
A
100
AcDbEntity
  8
1
100
AcDbLine
 10
25.999304
 20
3.735811000000353
 30
0.0
 11
26.03832799999981
 21
3.7823190000002
 31
0.0
  0
LINE
  5
41D8
102
{ACAD_REACTORS
330
50E6
102
}
330
A
100
AcDbEntity
  8
1
100
AcDbLine
 10
26.41692099999983
 20
3.611219000000004
 30
0.0
 11
26.20957999999991
 21
3.630186000000036
 31
0.0
  0
LINE
  5
41D9
102
{ACAD_REACTORS
330
50E6
102
}
330
A
100
AcDbEntity
  8
1
100
AcDbLine
 10
26.03832799999981
 20
3.7823190000002
 30
0.0
 11
26.1325369999999
 21
3.894592000000271
 31
0.0
  0
ARC
  5
41DA
102
{ACAD_REACTORS
330
50E6
102
}
330
A
100
AcDbEntity
  8
1
100
AcDbCircle
 10
26.84186699999981
 20
-3.885176999999998
 30
0.0
 40
1.0
100
AcDbArc
 50
230.0534079999968
 51
236.7445410000009
  0
LINE
  5
41DB
102
{ACAD_REACTORS
330
50E6
102
}
330
A
100
AcDbEntity
  8
1
100
AcDbLine
 10
30.02008699999982
 20
4.903705000000002
 30
0.0
 11
29.96380099999982
 21
4.905388000000186
 31
0.0
  0
LINE
  5
41DC
102
{ACAD_REACTORS
330
50E6
102
}
330
A
100
AcDbEntity
  8
1
100
AcDbLine
 10
29.96380099999982
 20
4.905388000000186
 30
0.0
 11
30.95693599999999
 21
3.923664000000258
 31
0.0
  0
SPLINE
  5
41DD
102
{ACAD_REACTORS
330
50E6
102
}
330
A
100
AcDbEntity
  8
1
100
AcDbSpline
210
0.0
220
0.0
230
1.0
 70
     8
 71
     5
 72
    18
 73
    12
 74
     0
 42
0.000000001
 43
0.0000000001
 40
0.0
 40
0.0
 40
0.0
 40
0.0
 40
0.0
 40
0.0
 40
0.9496836273057947
 40
0.9496836273057947
 40
0.9496836273057947
 40
2.83656436056699
 40
2.83656436056699
 40
2.83656436056699
 40
4.705735614871887
 40
4.705735614871887
 40
4.705735614871887
 40
4.705735614871887
 40
4.705735614871887
 40
4.705735614871887
 10
34.18585223272413
 20
2.562571788367336
 30
0.0
 10
34.24654844912169
 20
2.47302416820537
 30
0.0
 10
34.30472509613782
 20
2.382076465820884
 30
0.0
 10
34.35991732761336
 20
2.290514353452009
 30
0.0
 10
34.51835456983412
 20
2.010783794968515
 30
0.0
 10
34.6527622549574
 20
1.719913727443554
 30
0.0
 10
34.73131203856616
 20
1.521360297587023
 30
0.0
 10
34.86303750752569
 20
1.123270564650511
 30
0.0
 10
34.94731222279523
 20
0.7139040213547787
 30
0.0
 10
34.9770745936957
 20
0.5075838011757128
 30
0.0
 10
34.99425933869537
 20
0.3016282037320366
 30
0.0
 10
34.99891749937984
 20
0.095704424008602
 30
0.0
  0
ARC
  5
41DE
102
{ACAD_REACTORS
330
50E6
102
}
330
A
100
AcDbEntity
  8
1
100
AcDbCircle
 10
29.68475699999982
 20
-0.5275369999996542
 30
0.0
 40
5.460626
100
AcDbArc
 50
34.47052699999896
 51
69.59900199999903
  0
ARC
  5
41DF
102
{ACAD_REACTORS
330
50E6
102
}
330
A
100
AcDbEntity
  8
1
100
AcDbCircle
 10
29.84082899999981
 20
-0.0276759999998149
 30
0.0
 40
4.934587
100
AcDbArc
 50
89.52066399999687
 51
93.13055200000064
  0
LINE
  5
41E0
102
{ACAD_REACTORS
330
50E6
102
}
330
A
100
AcDbEntity
  8
1
100
AcDbLine
 10
29.88211099999972
 20
4.906740000000238
 30
0.0
 11
29.9638079999998
 21
4.905388000000186
 31
0.0
  0
LINE
  5
41E1
102
{ACAD_REACTORS
330
50E6
102
}
330
A
100
AcDbEntity
  8
1
100
AcDbLine
 10
26.85325399999982
 20
4.753510000000176
 30
0.0
 11
29.5713449999999
 21
4.899547000000325
 31
0.0
  0
LINE
  5
41E2
102
{ACAD_REACTORS
330
50E6
102
}
330
A
100
AcDbEntity
  8
1
100
AcDbLine
 10
26.85325399999982
 20
4.753510000000176
 30
0.0
 11
26.1325369999999
 21
3.894592000000271
 31
0.0
  0
LINE
  5
41E3
102
{ACAD_REACTORS
330
50E6
102
}
330
A
100
AcDbEntity
  8
1
100
AcDbLine
 10
34.99995499999983
 20
-0.0199069999998187
 30
0.0
 11
34.99923400000006
 21
-0.0840529999997557
 31
0.0
  0
SPLINE
  5
41E4
102
{ACAD_REACTORS
330
50E6
102
}
330
A
100
AcDbEntity
  8
1
100
AcDbSpline
210
0.0
220
0.0
230
1.0
 70
     8
 71
     5
 72
    27
 73
    21
 74
     0
 42
0.000000001
 43
0.0000000001
 40
0.0
 40
0.0
 40
0.0
 40
0.0
 40
0.0
 40
0.0
 40
0.9356068735892948
 40
0.9356068735892948
 40
0.9356068735892948
 40
1.404943918094391
 40
1.404943918094391
 40
1.404943918094391
 40
1.874988532502193
 40
1.874988532502193
 40
1.874988532502193
 40
2.815627577398167
 40
2.815627577398167
 40
2.815627577398167
 40
3.759422668443324
 40
3.759422668443324
 40
3.759422668443324
 40
4.700706220642886
 40
4.700706220642886
 40
4.700706220642886
 40
4.700706220642886
 40
4.700706220642886
 40
4.700706220642886
 10
34.18545460529384
 20
2.563231530997994
 30
0.0
 10
34.11377064204174
 20
2.674724698108148
 30
0.0
 10
34.03824103422727
 20
2.784065677284047
 30
0.0
 10
33.96035588101284
 20
2.889441572367898
 30
0.0
 10
33.83560535592284
 20
3.046031898308568
 30
0.0
 10
33.70302159366355
 20
3.196312434128515
 30
0.0
 10
33.65794637863911
 20
3.245782662572592
 30
0.0
 10
33.56622744409885
 20
3.343479948867353
 30
0.0
 10
33.47129834563083
 20
3.438433756157678
 30
0.0
 10
33.42295931784673
 20
3.48524515230099
 30
0.0
 10
33.27551567830113
 20
3.623169761313647
 30
0.0
 10
33.12100304367215
 20
3.753250073224761
 30
0.0
 10
33.01343278058181
 20
3.837850010634156
 30
0.0
 10
32.79574211424125
 20
3.998867523154387
 30
0.0
 10
32.56864087728906
 20
4.145959409146144
 30
0.0
 10
32.4519752823208
 20
4.216352159170011
 30
0.0
 10
32.21576688398335
 20
4.347954528628179
 30
0.0
 10
31.97167539293224
 20
4.463589174625496
 30
0.0
 10
31.84788433287582
 20
4.517494252380457
 30
0.0
 10
31.72286217553557
 20
4.567692156228871
 30
0.0
 10
31.59628018762402
 20
4.613705378446353
 30
0.0
  0
LINE
  5
41E5
102
{ACAD_REACTORS
330
50E6
102
}
330
A
100
AcDbEntity
  8
1
100
AcDbLine
 10
34.99923400000006
 20
-0.0840529999997557
 30
0.0
 11
34.99891799999983
 21
-0.0957019999997329
 31
0.0
  0
LINE
  5
41E6
102
{ACAD_REACTORS
330
50E6
102
}
330
A
100
AcDbEntity
  8
1
100
AcDbLine
 10
26.29713299999997
 20
-4.723785999999956
 30
0.0
 11
29.5713449999999
 21
-4.899546999999754
 31
0.0
  0
ARC
  5
41E7
102
{ACAD_REACTORS
330
50E6
102
}
330
A
100
AcDbEntity
  8
1
100
AcDbCircle
 10
29.84082899999981
 20
0.0276840000001926
 30
0.0
 40
4.934594999999998
100
AcDbArc
 50
266.869449999997
 51
270.4805640000019
  0
ARC
  5
41E8
102
{ACAD_REACTORS
330
50E6
102
}
330
A
100
AcDbEntity
  8
1
100
AcDbCircle
 10
29.83591599999983
 20
-0.1064549999997553
 30
0.0
 40
5.013612
100
AcDbArc
 50
69.54064700000087
 51
87.89478500000322
  0
ARC
  5
41E9
102
{ACAD_REACTORS
330
50E6
102
}
330
A
100
AcDbEntity
  8
1
100
AcDbCircle
 10
29.9219839999999
 20
-0.0200279999997406
 30
0.0
 40
4.926991
100
AcDbArc
 50
70.13380700000289
 51
90.4578199999996
  0
ARC
  5
41EA
102
{ACAD_REACTORS
330
50E7
102
}
330
A
100
AcDbEntity
  8
1
100
AcDbCircle
 10
26.45852899999983
 20
-6.10171499999967
 30
0.0
 40
2.0
100
AcDbArc
 50
85.00000000000026
 51
137.479203999999
  0
ARC
  5
41EB
102
{ACAD_REACTORS
330
50E7
102
}
330
A
100
AcDbEntity
  8
1
100
AcDbCircle
 10
26.45852899999983
 20
6.101715000000182
 30
0.0
 40
2.0
100
AcDbArc
 50
222.5207960000008
 51
265.7673129999979
  0
ARC
  5
41EC
102
{ACAD_REACTORS
330
50E7
102
}
330
A
100
AcDbEntity
  8
1
100
AcDbCircle
 10
25.56252300000001
 20
4.472437000000011
 30
0.0
 40
0.26164
100
AcDbArc
 50
180.4553229999996
 51
218.7009329999995
  0
ARC
  5
41ED
102
{ACAD_REACTORS
330
50E7
102
}
330
A
100
AcDbEntity
  8
1
100
AcDbCircle
 10
26.99999999999983
 20
5.450000000000045
 30
0.0
 40
2.0
100
AcDbArc
 50
214.8052639999991
 51
270.0
  0
LINE
  5
41EE
102
{ACAD_REACTORS
330
50E7
102
}
330
A
100
AcDbEntity
  8
1
100
AcDbLine
 10
29.78060099999999
 20
3.450000000000328
 30
0.0
 11
26.99999999999983
 21
3.450000000000328
 31
0.0
  0
LINE
  5
41EF
102
{ACAD_REACTORS
330
50E7
102
}
330
A
100
AcDbEntity
  8
1
100
AcDbLine
 10
29.78060099999999
 20
3.450000000000328
 30
0.0
 11
29.7999999999999
 21
3.449925000000348
 31
0.0
  0
SPLINE
  5
41F0
102
{ACAD_REACTORS
330
50E6
102
}
330
A
100
AcDbEntity
  8
1
100
AcDbSpline
210
0.0
220
0.0
230
1.0
 70
     8
 71
     5
 72
    27
 73
    21
 74
     0
 42
0.000000001
 43
0.0000000001
 40
0.0
 40
0.0
 40
0.0
 40
0.0
 40
0.0
 40
0.0
 40
3.939931134041446
 40
3.939931134041446
 40
3.939931134041446
 40
6.869064688500784
 40
6.869064688500784
 40
6.869064688500784
 40
9.642769712026773
 40
9.642769712026773
 40
9.642769712026773
 40
12.45391453039545
 40
12.45391453039545
 40
12.45391453039545
 40
15.24426625983626
 40
15.24426625983626
 40
15.24426625983626
 40
18.09809655601096
 40
18.09809655601096
 40
18.09809655601096
 40
18.09809655601096
 40
18.09809655601096
 40
18.09809655601096
 10
29.7999999999999
 20
-2.636550149311798
 30
0.0
 10
29.35182111354374
 20
-2.705188506182308
 30
0.0
 10
28.8908860862054
 20
-2.708856891675623
 30
0.0
 10
28.42976191640179
 20
-2.652707819659609
 30
0.0
 10
27.66060382537893
 20
-2.437730951961099
 30
0.0
 10
27.01586632860295
 20
-1.999832766044278
 30
0.0
 10
26.77440639150137
 20
-1.771171473637649
 30
0.0
 10
26.38864109725915
 20
-1.247710706126895
 30
0.0
 10
26.18560101503948
 20
-0.6196902959804902
 30
0.0
 10
26.13330380534836
 20
-0.2983570712938217
 30
0.0
 10
26.1204803032295
 20
0.3545416577247238
 30
0.0
 10
26.29319390816937
 20
0.9792071654721894
 30
0.0
 10
26.42681635696437
 20
1.274967626558008
 30
0.0
 10
26.7831272635529
 20
1.804608204584155
 30
0.0
 10
27.28549118684629
 20
2.194142906172884
 30
0.0
 10
27.56439083945493
 20
2.34865447669199
 30
0.0
 10
28.16473195477528
 20
2.586986896795679
 30
0.0
 10
28.81177346918702
 20
2.685304165189844
 30
0.0
 10
29.14404398084952
 20
2.701897257179496
 30
0.0
 10
29.47536831463271
 20
2.686267318382761
 30
0.0
 10
29.7999999999999
 20
2.636550149312478
 30
0.0
  0
LINE
  5
41F1
102
{ACAD_REACTORS
330
50E7
102
}
330
A
100
AcDbEntity
  8
1
100
AcDbLine
 10
27.30940199999981
 20
-4.168516999999723
 30
0.0
 11
26.63284099999982
 21
-4.109325999999723
 31
0.0
  0
LINE
  5
41F2
102
{ACAD_REACTORS
330
50E7
102
}
330
A
100
AcDbEntity
  8
1
100
AcDbLine
 10
9.999999999999715
 20
-5.265494999999987
 30
0.0
 11
9.999999999999715
 21
-5.999999999999656
 31
0.0
  0
LINE
  5
41F3
102
{ACAD_REACTORS
330
50E7
102
}
330
A
100
AcDbEntity
  8
1
100
AcDbLine
 10
9.999999999999715
 20
6.000000000000341
 30
0.0
 11
9.999999999999715
 21
-5.265494999999987
 31
0.0
  0
LINE
  5
41F4
102
{ACAD_REACTORS
330
50E7
102
}
330
A
100
AcDbEntity
  8
1
100
AcDbLine
 10
29.42218599999973
 20
-4.353361999999776
 30
0.0
 11
27.30940199999981
 21
-4.168516999999723
 31
0.0
  0
ARC
  5
41F5
102
{ACAD_REACTORS
330
50E7
102
}
330
A
100
AcDbEntity
  8
1
100
AcDbCircle
 10
29.83181799999983
 20
0.3287530000003471
 30
0.0
 40
4.7
100
AcDbArc
 50
265.0000000000003
 51
269.612115999998
  0
SPLINE
  5
41F6
102
{ACAD_REACTORS
330
50E6
102
}
330
A
100
AcDbEntity
  8
1
100
AcDbSpline
210
0.0
220
0.0
230
1.0
 70
     8
 71
     5
 72
    27
 73
    21
 74
     0
 42
0.000000001
 43
0.0000000001
 40
0.0
 40
0.0
 40
0.0
 40
0.0
 40
0.0
 40
0.0
 40
1.08980630495751
 40
1.08980630495751
 40
1.08980630495751
 40
3.449440857184368
 40
3.449440857184368
 40
3.449440857184368
 40
5.893698299704673
 40
5.893698299704673
 40
5.893698299704673
 40
8.329252495634785
 40
8.329252495634785
 40
8.329252495634785
 40
10.77754114418796
 40
10.77754114418796
 40
10.77754114418796
 40
12.15510567924803
 40
12.15510567924803
 40
12.15510567924803
 40
12.15510567924803
 40
12.15510567924803
 40
12.15510567924803
 10
29.7999999999999
 20
2.636550149312478
 30
0.0
 10
29.92396870899273
 20
2.617564407802083
 30
0.0
 10
30.04587804070201
 20
2.586487585818983
 30
0.0
 10
30.16411824371352
 20
2.543806120835538
 30
0.0
 10
30.52289312020611
 20
2.37556711194469
 30
0.0
 10
30.82532048103786
 20
2.11475421318056
 30
0.0
 10
30.99949198174539
 20
1.90487564840572
 30
0.0
 10
31.2901594328211
 20
1.440743560219686
 30
0.0
 10
31.46236447822043
 20
0.923138432110818
 30
0.0
 10
31.52201575089458
 20
0.652493397133526
 30
0.0
 10
31.5890517044341
 20
0.1049641279356024
 30
0.0
 10
31.55317350053036
 20
-0.4451499076059804
 30
0.0
 10
31.50988644686828
 20
-0.7176365756706105
 30
0.0
 10
31.36912929361898
 20
-1.253555922968017
 30
0.0
 10
31.1107058126093
 20
-1.745282358013809
 30
0.0
 10
30.94866097570804
 20
-1.976174383194915
 30
0.0
 10
30.6403832166647
 20
-2.292787312356999
 30
0.0
 10
30.25690823503152
 20
-2.507614742939665
 30
0.0
 10
30.1101141731387
 20
-2.569233088850009
 30
0.0
 10
29.95670206365031
 20
-2.612551312034494
 30
0.0
 10
29.7999999999999
 20
-2.636550149311798
 30
0.0
  0
ARC
  5
41F7
102
{ACAD_REACTORS
330
50E7
102
}
330
A
100
AcDbEntity
  8
1
100
AcDbCircle
 10
29.78060099999999
 20
0.9500000000001591
 30
0.0
 40
2.5
100
AcDbArc
 50
38.00000000000082
 51
89.55539200000087
  0
LINE
  5
41F8
102
{ACAD_REACTORS
330
50E7
102
}
330
A
100
AcDbEntity
  8
1
100
AcDbLine
 10
31.75062699999984
 20
2.489154000000269
 30
0.0
 11
34.08017699999999
 21
-0.4925329999998099
 31
0.0
  0
SPLINE
  5
41F9
102
{ACAD_REACTORS
330
50E7
102
}
330
A
100
AcDbEntity
  8
1
100
AcDbSpline
210
0.0
220
0.0
230
1.0
 70
     8
 71
     5
 72
    12
 73
     6
 74
     0
 42
0.000000001
 43
0.0000000001
 40
0.0
 40
0.0
 40
0.0
 40
0.0
 40
0.0
 40
0.0
 40
1.300456966331926
 40
1.300456966331926
 40
1.300456966331926
 40
1.300456966331926
 40
1.300456966331926
 40
1.300456966331926
 10
34.30778235935071
 20
-0.6157704123549479
 30
0.0
 10
34.26054967275997
 20
-0.6353431549398465
 30
0.0
 10
34.21397617403562
 20
-0.6242385187914579
 30
0.0
 10
34.16900774618267
 20
-0.5942077812099456
 30
0.0
 10
34.12450150803005
 20
-0.5492666160780006
 30
0.0
 10
34.08017651860002
 20
-0.4925332167594548
 30
0.0
  0
ARC
  5
41FA
102
{ACAD_REACTORS
330
50E7
102
}
330
A
100
AcDbEntity
  8
1
100
AcDbCircle
 10
29.80011500000006
 20
-0.000040999999726
 30
0.0
 40
4.549525
100
AcDbArc
 50
329.2291240000003
 51
352.2217590000013
  0
ARC
  5
41FB
102
{ACAD_REACTORS
330
50E7
102
}
330
A
100
AcDbEntity
  8
1
100
AcDbCircle
 10
29.83181799999983
 20
0.3287530000003471
 30
0.0
 40
4.7
100
AcDbArc
 50
269.612115999998
 51
325.5854079999989
  0
ARC
  5
41FC
102
{ACAD_REACTORS
330
50E6
102
}
330
A
100
AcDbEntity
  8
1
100
AcDbCircle
 10
28.85767299999981
 20
-0.0924279999995292
 30
0.0
 40
2.619706
100
AcDbArc
 50
33.00000200000047
 51
122.9999979999989
  0
ARC
  5
41FD
102
{ACAD_REACTORS
330
50E6
102
}
330
A
100
AcDbEntity
  8
1
100
AcDbCircle
 10
29.00000000000006
 20
0.0
 30
0.0
 40
2.45
100
AcDbArc
 50
303.0000000000011
 51
33.00000000000108
  0
ARC
  5
41FE
102
{ACAD_REACTORS
330
50E6
102
}
330
A
100
AcDbEntity
  8
1
100
AcDbCircle
 10
28.9075719999999
 20
0.1423270000001935
 30
0.0
 40
2.619706
100
AcDbArc
 50
213.0000000000011
 51
303.0000000000011
  0
ARC
  5
41FF
102
{ACAD_REACTORS
330
50E6
102
}
330
A
100
AcDbEntity
  8
1
100
AcDbCircle
 10
28.765245
 20
0.0498990000002664
 30
0.0
 40
2.45
100
AcDbArc
 50
123.0000000000011
 51
213.0000000000011
  0
LINE
  5
4200
102
{ACAD_REACTORS
330
50E6
102
}
330
A
100
AcDbEntity
  8
1
100
AcDbLine
 10
26.31091099999998
 20
4.107169999999995
 30
0.0
 11
26.26369500000004
 21
4.050900000000183
 31
0.0
  0
SPLINE
  5
4201
102
{ACAD_REACTORS
330
50E7
102
}
330
A
100
AcDbEntity
  8
1
100
AcDbSpline
210
0.0
220
0.0
230
1.0
 70
     8
 71
     5
 72
    15
 73
     9
 74
     0
 42
0.000000001
 43
0.0000000001
 40
0.0
 40
0.0
 40
0.0
 40
0.0
 40
0.0
 40
0.0
 40
0.8888279360748811
 40
0.8888279360748811
 40
0.8888279360748811
 40
1.233946357379399
 40
1.233946357379399
 40
1.233946357379399
 40
1.233946357379399
 40
1.233946357379399
 40
1.233946357379399
 10
26.26369478508929
 20
4.050900415940191
 30
0.0
 10
26.17597130462417
 20
4.081538079394022
 30
0.0
 10
26.08674949545735
 20
4.104111767755965
 30
0.0
 10
25.99712038056424
 20
4.118781606123661
 30
0.0
 10
25.88315435020758
 20
4.123304693125986
 30
0.0
 10
25.8019949523702
 20
4.100661125229913
 30
0.0
 10
25.78224983745901
 20
4.091921517387334
 30
0.0
 10
25.76669562567889
 20
4.080889412940845
 30
0.0
 10
25.75553139455207
 20
4.067584400386748
 30
0.0
  0
SPLINE
  5
4202
102
{ACAD_REACTORS
330
50E7
102
}
330
A
100
AcDbEntity
  8
1
100
AcDbSpline
210
0.0
220
0.0
230
1.0
 70
     8
 71
     5
 72
    18
 73
    12
 74
     0
 42
0.000000001
 43
0.0000000001
 40
0.0
 40
0.0
 40
0.0
 40
0.0
 40
0.0
 40
0.0
 40
1.107741763927931
 40
1.107741763927931
 40
1.107741763927931
 40
1.770742562216323
 40
1.770742562216323
 40
1.770742562216323
 40
2.157342234967244
 40
2.157342234967244
 40
2.157342234967244
 40
2.157342234967244
 40
2.157342234967244
 40
2.157342234967244
 10
26.52925905346973
 20
3.561550144941576
 30
0.0
 10
26.43604140571921
 20
3.558890254813263
 30
0.0
 10
26.32255778450423
 20
3.580789983886973
 30
0.0
 10
26.20058285782642
 20
3.623967429961851
 30
0.0
 10
26.00972167294384
 20
3.717332106958508
 30
0.0
 10
25.85634222275854
 20
3.834867907321211
 30
0.0
 10
25.80651721428552
 20
3.881390279540879
 30
0.0
 10
25.74998780646303
 20
3.953224841827363
 30
0.0
 10
25.73521783586699
 20
4.014510082573734
 30
0.0
 10
25.73602853987842
 20
4.034924234508365
 30
0.0
 10
25.74302528698507
 20
4.05268020176453
 30
0.0
 10
25.75553139455207
 20
4.067584400386748
 30
0.0
  0
ARC
  5
4203
102
{ACAD_REACTORS
330
50E7
102
}
330
A
100
AcDbEntity
  8
1
100
AcDbCircle
 10
26.97424899999982
 20
4.767601000000011
 30
0.0
 40
1.286305
100
AcDbArc
 50
249.7477200000032
 51
271.1465129999967
  0
LINE
  5
4204
102
{ACAD_REACTORS
330
50E6
102
}
330
A
100
AcDbEntity
  8
1
100
AcDbLine
 10
25.999304
 20
3.735811000000353
 30
0.0
 11
26.26369500000004
 21
4.050900000000183
 31
0.0
  0
LINE
  5
4205
102
{ACAD_REACTORS
330
50E7
102
}
330
A
100
AcDbEntity
  8
1
100
AcDbLine
 10
34.30778199999981
 20
-0.6157699999999977
 30
0.0
 11
31.83217299999995
 21
2.552864000000166
 31
0.0
  0
ARC
  5
4206
102
{ACAD_REACTORS
330
50E7
102
}
330
A
100
AcDbEntity
  8
1
100
AcDbCircle
 10
29.78058999999991
 20
0.9499790000003256
 30
0.0
 40
2.603504999999999
100
AcDbArc
 50
38.00021899999919
 51
89.99976299999962
  0
LINE
  5
4207
102
{ACAD_REACTORS
330
50E7
102
}
330
A
100
AcDbEntity
  8
1
100
AcDbLine
 10
29.78060099999999
 20
3.553483000000482
 30
0.0
 11
27.80240199999997
 21
3.553483000000482
 31
0.0
  0
SPLINE
  5
4208
102
{ACAD_REACTORS
330
50E7
102
}
330
A
100
AcDbEntity
  8
1
100
AcDbSpline
210
0.0
220
0.0
230
1.0
 70
     8
 71
     5
 72
    12
 73
     6
 74
     0
 42
0.000000001
 43
0.0000000001
 40
0.0
 40
0.0
 40
0.0
 40
0.0
 40
0.0
 40
0.0
 40
1.468005521578839
 40
1.468005521578839
 40
1.468005521578839
 40
1.468005521578839
 40
1.468005521578839
 40
1.468005521578839
 10
27.80240168546055
 20
3.553483445111169
 30
0.0
 10
27.66173296415906
 20
3.517598128004465
 30
0.0
 10
27.5056894591151
 20
3.497606665728028
 30
0.0
 10
27.33856498760811
 20
3.487129729818491
 30
0.0
 10
27.169485067783
 20
3.481539803635598
 30
0.0
 10
26.99999999999426
 20
3.48091258996635
 30
0.0
  0
LINE
  5
420F
102
{ACAD_REACTORS
330
42AC
102
}
330
A
100
AcDbEntity
  8
SK1
100
AcDbLine
 10
-75.0
 20
-4.870582999999726
 30
0.0
 11
-75.0
 21
-5.549999999999727
 31
0.0
  0
LINE
  5
4210
102
{ACAD_REACTORS
330
42AC
102
}
330
A
100
AcDbEntity
  8
SK1
100
AcDbLine
 10
-75.0
 20
5.550000000000351
 30
0.0
 11
-75.0
 21
-4.870582999999726
 31
0.0
  0
LINE
  5
4211
102
{ACAD_REACTORS
330
42AC
102
}
330
A
100
AcDbEntity
  8
SK1
100
AcDbLine
 10
-74.55000000000012
 20
-5.265494999999987
 30
0.0
 11
-74.55000000000012
 21
6.000000000000341
 31
0.0
  0
LINE
  5
4212
102
{ACAD_REACTORS
330
42AC
102
}
330
A
100
AcDbEntity
  8
SK1
100
AcDbLine
 10
-74.55000000000012
 20
-5.999999999999656
 30
0.0
 11
-74.55000000000012
 21
-5.265494999999987
 31
0.0
  0
ARC
  5
4213
102
{ACAD_REACTORS
330
50E7
102
}
330
A
100
AcDbEntity
  8
1
100
AcDbCircle
 10
22.4366089999998
 20
-14.75
 30
0.0
 40
10.0
100
AcDbArc
 50
90.0
 51
94.99999999999976
  0
ARC
  5
4214
102
{ACAD_REACTORS
330
50E7
102
}
330
A
100
AcDbEntity
  8
1
100
AcDbCircle
 10
22.4366089999998
 20
14.75
 30
0.0
 40
10.0
100
AcDbArc
 50
265.0000000000003
 51
270.0
  0
LINE
  5
4215
102
{ACAD_REACTORS
330
50E7
102
}
330
A
100
AcDbEntity
  8
1
100
AcDbLine
 10
21.56505199999998
 20
-4.788052999999646
 30
0.0
 11
11.37515799999971
 21
-5.679552999999656
 31
0.0
  0
LINE
  5
4216
102
{ACAD_REACTORS
330
50E7
102
}
330
A
100
AcDbEntity
  8
1
100
AcDbLine
 10
24.98446699999983
 20
-4.749999999999658
 30
0.0
 11
22.4366089999998
 21
-4.749999999999658
 31
0.0
  0
LINE
  5
4217
102
{ACAD_REACTORS
330
50E7
102
}
330
A
100
AcDbEntity
  8
1
100
AcDbLine
 10
21.56505199999998
 20
4.78805300000033
 30
0.0
 11
11.37515799999971
 21
5.679553000000337
 31
0.0
  0
LINE
  5
4218
102
{ACAD_REACTORS
330
50E7
102
}
330
A
100
AcDbEntity
  8
1
100
AcDbLine
 10
24.98446699999983
 20
4.750000000000341
 30
0.0
 11
22.4366089999998
 21
4.750000000000341
 31
0.0
  0
ARC
  5
4219
102
{ACAD_REACTORS
330
50E7
102
}
330
A
100
AcDbEntity
  8
1
100
AcDbCircle
 10
11.81093599999985
 20
-10.660527
 30
0.0
 40
5.0
100
AcDbArc
 50
94.99999999999976
 51
111.2345840000005
  0
ARC
  5
421A
102
{ACAD_REACTORS
330
50E7
102
}
330
A
100
AcDbEntity
  8
1
100
AcDbCircle
 10
11.81093599999985
 20
10.66052700000023
 30
0.0
 40
5.0
100
AcDbArc
 50
248.7654159999995
 51
265.0000000000003
  0
LINE
  5
421B
102
{ACAD_REACTORS
330
42AC
102
}
330
A
100
AcDbEntity
  8
SK1
100
AcDbLine
 10
-75.0
 20
5.550000000000351
 30
0.0
 11
-74.55000000000012
 21
6.000000000000341
 31
0.0
  0
LINE
  5
421C
102
{ACAD_REACTORS
330
42AC
102
}
330
A
100
AcDbEntity
  8
SK1
100
AcDbLine
 10
-75.0
 20
-5.549999999999727
 30
0.0
 11
-74.55000000000012
 21
-5.999999999999656
 31
0.0
  0
LINE
  5
421D
102
{ACAD_REACTORS
330
50E7
102
}
330
A
100
AcDbEntity
  8
1
100
AcDbLine
 10
9.999999999999715
 20
6.000000000000341
 30
0.0
 11
0.0
 21
6.00000000000017
 31
0.0
  0
LINE
  5
421E
102
{ACAD_REACTORS
330
50E7
102
}
330
A
100
AcDbEntity
  8
1
100
AcDbLine
 10
9.999999999999715
 20
-5.999999999999656
 30
0.0
 11
0.0
 21
-5.999999999999656
 31
0.0
  0
ARC
  5
421F
102
{ACAD_REACTORS
330
50E6
102
}
330
A
100
AcDbEntity
  8
1
100
AcDbCircle
 10
29.5499999999999
 20
-1.122496999999724
 30
0.0
 40
0.15
100
AcDbArc
 50
116.1038810000021
 51
180.0
  0
CIRCLE
  5
4220
102
{ACAD_REACTORS
330
50E6
102
}
330
A
100
AcDbEntity
  8
1
100
AcDbCircle
 10
29.00000000000006
 20
0.0
 30
0.0
 40
1.030718
  0
LINE
  5
4221
102
{ACAD_REACTORS
330
50E6
102
}
330
A
100
AcDbEntity
  8
1
100
AcDbLine
 10
29.39999999999981
 20
-1.275185999999844
 30
0.0
 11
29.39999999999981
 21
-1.122496999999724
 31
0.0
  0
CIRCLE
  5
4222
102
{ACAD_REACTORS
330
50E6
102
}
330
A
100
AcDbEntity
  8
1
100
AcDbCircle
 10
29.00000000000006
 20
0.0
 30
0.0
 40
1.649999999999999
  0
LINE
  5
4223
102
{ACAD_REACTORS
330
50E6
102
}
330
A
100
AcDbEntity
  8
1
100
AcDbLine
 10
29.77211099999983
 20
-0.9076589999997397
 30
0.0
 11
29.90434399999998
 21
-0.9840029999995179
 31
0.0
  0
ARC
  5
4224
102
{ACAD_REACTORS
330
50E6
102
}
330
A
100
AcDbEntity
  8
1
100
AcDbCircle
 10
29.95434399999982
 20
-0.8974010000000021
 30
0.0
 40
0.1
100
AcDbArc
 50
239.9999999999995
 51
316.7613459999988
  0
ARC
  5
4225
102
{ACAD_REACTORS
330
50E6
102
}
330
A
100
AcDbEntity
  8
1
100
AcDbCircle
 10
29.00000000000006
 20
0.0
 30
0.0
 40
1.409999999999999
100
AcDbArc
 50
316.7613459999988
 51
343.2386539999986
  0
ARC
  5
4226
102
{ACAD_REACTORS
330
50E6
102
}
330
A
100
AcDbEntity
  8
1
100
AcDbCircle
 10
30.25434399999989
 20
-0.3777859999996735
 30
0.0
 40
0.1
100
AcDbArc
 50
343.2386539999986
 51
59.99999999999944
  0
LINE
  5
4227
102
{ACAD_REACTORS
330
50E6
102
}
330
A
100
AcDbEntity
  8
1
100
AcDbLine
 10
30.30434399999973
 20
-0.2911829999996485
 30
0.0
 11
30.1721109999998
 21
-0.2148379999997587
 31
0.0
  0
ARC
  5
4228
102
{ACAD_REACTORS
330
50E6
102
}
330
A
100
AcDbEntity
  8
1
100
AcDbCircle
 10
30.24711099999985
 20
-0.0849349999998026
 30
0.0
 40
0.15
100
AcDbArc
 50
176.1038810000008
 51
239.9999999999995
  0
ARC
  5
4229
102
{ACAD_REACTORS
330
50E6
102
}
330
A
100
AcDbEntity
  8
1
100
AcDbCircle
 10
29.00000000000006
 20
0.0
 30
0.0
 40
1.1
100
AcDbArc
 50
356.1038810000009
 51
3.896118999999164
  0
ARC
  5
422A
102
{ACAD_REACTORS
330
50E6
102
}
330
A
100
AcDbEntity
  8
1
100
AcDbCircle
 10
30.24711099999985
 20
0.0849350000002574
 30
0.0
 40
0.15
100
AcDbArc
 50
120.0000000000005
 51
183.8961189999992
  0
LINE
  5
422B
102
{ACAD_REACTORS
330
50E6
102
}
330
A
100
AcDbEntity
  8
1
100
AcDbLine
 10
30.1721109999998
 20
0.2148380000003272
 30
0.0
 11
30.30434399999973
 21
0.2911830000003306
 31
0.0
  0
ARC
  5
422C
102
{ACAD_REACTORS
330
50E6
102
}
330
A
100
AcDbEntity
  8
1
100
AcDbCircle
 10
30.25434399999989
 20
0.377786000000242
 30
0.0
 40
0.1
100
AcDbArc
 50
300.0000000000005
 51
16.76134599999824
  0
ARC
  5
422D
102
{ACAD_REACTORS
330
50E6
102
}
330
A
100
AcDbEntity
  8
1
100
AcDbCircle
 10
29.00000000000006
 20
0.0
 30
0.0
 40
1.409999999999999
100
AcDbArc
 50
16.76134599999824
 51
43.23865400000118
  0
ARC
  5
422E
102
{ACAD_REACTORS
330
50E6
102
}
330
A
100
AcDbEntity
  8
1
100
AcDbCircle
 10
29.95434399999982
 20
0.8974010000002293
 30
0.0
 40
0.1
100
AcDbArc
 50
43.23865400000118
 51
120.0000000000005
  0
LINE
  5
422F
102
{ACAD_REACTORS
330
50E6
102
}
330
A
100
AcDbEntity
  8
1
100
AcDbLine
 10
29.90434399999998
 20
0.9840030000003141
 30
0.0
 11
29.77211099999983
 21
0.9076590000002513
 31
0.0
  0
ARC
  5
4230
102
{ACAD_REACTORS
330
50E6
102
}
330
A
100
AcDbEntity
  8
1
100
AcDbCircle
 10
29.69711099999989
 20
1.03756300000026
 30
0.0
 40
0.15
100
AcDbArc
 50
236.1038810000004
 51
300.0000000000005
  0
ARC
  5
4231
102
{ACAD_REACTORS
330
50E6
102
}
330
A
100
AcDbEntity
  8
1
100
AcDbCircle
 10
29.00000000000006
 20
0.0
 30
0.0
 40
1.1
100
AcDbArc
 50
56.10388100000045
 51
63.89611899999783
  0
ARC
  5
4232
102
{ACAD_REACTORS
330
50E6
102
}
330
A
100
AcDbEntity
  8
1
100
AcDbCircle
 10
29.5499999999999
 20
1.12249700000035
 30
0.0
 40
0.15
100
AcDbArc
 50
180.0
 51
243.8961189999979
  0
LINE
  5
4233
102
{ACAD_REACTORS
330
50E6
102
}
330
A
100
AcDbEntity
  8
1
100
AcDbLine
 10
29.39999999999981
 20
1.12249700000035
 30
0.0
 11
29.39999999999981
 21
1.275186000000188
 31
0.0
  0
ARC
  5
4234
102
{ACAD_REACTORS
330
50E6
102
}
330
A
100
AcDbEntity
  8
1
100
AcDbCircle
 10
29.2999999999999
 20
1.275186000000188
 30
0.0
 40
0.1
100
AcDbArc
 50
0.0
 51
76.76134599999743
  0
ARC
  5
4235
102
{ACAD_REACTORS
330
50E6
102
}
330
A
100
AcDbEntity
  8
1
100
AcDbCircle
 10
29.00000000000006
 20
0.0
 30
0.0
 40
1.409999999999999
100
AcDbArc
 50
76.76134599999743
 51
103.2386540000025
  0
ARC
  5
4236
102
{ACAD_REACTORS
330
50E6
102
}
330
A
100
AcDbEntity
  8
1
100
AcDbCircle
 10
28.69999999999988
 20
1.275186000000188
 30
0.0
 40
0.1
100
AcDbArc
 50
103.2386540000025
 51
180.0
  0
LINE
  5
4237
102
{ACAD_REACTORS
330
50E6
102
}
330
A
100
AcDbEntity
  8
1
100
AcDbLine
 10
28.59999999999997
 20
1.275186000000188
 30
0.0
 11
28.59999999999997
 21
1.12249700000035
 31
0.0
  0
ARC
  5
4238
102
{ACAD_REACTORS
330
50E6
102
}
330
A
100
AcDbEntity
  8
1
100
AcDbCircle
 10
28.44999999999999
 20
1.12249700000035
 30
0.0
 40
0.15
100
AcDbArc
 50
296.1038810000022
 51
0.0
  0
ARC
  5
4239
102
{ACAD_REACTORS
330
50E6
102
}
330
A
100
AcDbEntity
  8
1
100
AcDbCircle
 10
29.00000000000006
 20
0.0
 30
0.0
 40
1.1
100
AcDbArc
 50
116.1038810000021
 51
123.8961189999995
  0
ARC
  5
423A
102
{ACAD_REACTORS
330
50E6
102
}
330
A
100
AcDbEntity
  8
1
100
AcDbCircle
 10
28.30288899999999
 20
1.03756300000026
 30
0.0
 40
0.15
100
AcDbArc
 50
239.9999999999995
 51
303.8961189999995
  0
LINE
  5
423B
102
{ACAD_REACTORS
330
50E6
102
}
330
A
100
AcDbEntity
  8
1
100
AcDbLine
 10
28.22788899999972
 20
0.9076590000002513
 30
0.0
 11
28.09565599999991
 21
0.9840030000003141
 31
0.0
  0
ARC
  5
423C
102
{ACAD_REACTORS
330
50E6
102
}
330
A
100
AcDbEntity
  8
1
100
AcDbCircle
 10
28.04565599999995
 20
0.8974010000002293
 30
0.0
 40
0.1
100
AcDbArc
 50
59.99999999999944
 51
136.7613459999988
  0
ARC
  5
423D
102
{ACAD_REACTORS
330
50E6
102
}
330
A
100
AcDbEntity
  8
1
100
AcDbCircle
 10
29.00000000000006
 20
0.0
 30
0.0
 40
1.409999999999999
100
AcDbArc
 50
136.7613459999988
 51
163.2386539999985
  0
ARC
  5
423E
102
{ACAD_REACTORS
330
50E6
102
}
330
A
100
AcDbEntity
  8
1
100
AcDbCircle
 10
27.745656
 20
0.377786000000242
 30
0.0
 40
0.1
100
AcDbArc
 50
163.2386539999985
 51
239.9999999999995
  0
LINE
  5
423F
102
{ACAD_REACTORS
330
50E6
102
}
330
A
100
AcDbEntity
  8
1
100
AcDbLine
 10
27.69565599999982
 20
0.2911830000003306
 30
0.0
 11
27.82788899999997
 21
0.2148380000003272
 31
0.0
  0
ARC
  5
4240
102
{ACAD_REACTORS
330
50E6
102
}
330
A
100
AcDbEntity
  8
1
100
AcDbCircle
 10
27.75288899999981
 20
0.0849350000002574
 30
0.0
 40
0.15
100
AcDbArc
 50
356.1038810000009
 51
59.99999999999944
  0
ARC
  5
4241
102
{ACAD_REACTORS
330
50E6
102
}
330
A
100
AcDbEntity
  8
1
100
AcDbCircle
 10
29.00000000000006
 20
0.0
 30
0.0
 40
1.1
100
AcDbArc
 50
176.1038810000008
 51
183.8961189999992
  0
ARC
  5
4242
102
{ACAD_REACTORS
330
50E6
102
}
330
A
100
AcDbEntity
  8
1
100
AcDbCircle
 10
27.75288899999981
 20
-0.0849349999998026
 30
0.0
 40
0.15
100
AcDbArc
 50
300.0000000000005
 51
3.896118999999164
  0
LINE
  5
4243
102
{ACAD_REACTORS
330
50E6
102
}
330
A
100
AcDbEntity
  8
1
100
AcDbLine
 10
27.82788899999997
 20
-0.2148379999997587
 30
0.0
 11
27.69565599999982
 21
-0.2911829999996485
 31
0.0
  0
ARC
  5
4244
102
{ACAD_REACTORS
330
50E6
102
}
330
A
100
AcDbEntity
  8
1
100
AcDbCircle
 10
27.745656
 20
-0.3777859999996735
 30
0.0
 40
0.1
100
AcDbArc
 50
120.0000000000005
 51
196.7613459999981
  0
ARC
  5
4245
102
{ACAD_REACTORS
330
50E6
102
}
330
A
100
AcDbEntity
  8
1
100
AcDbCircle
 10
29.00000000000006
 20
0.0
 30
0.0
 40
1.409999999999999
100
AcDbArc
 50
196.7613459999981
 51
223.2386540000012
  0
ARC
  5
4246
102
{ACAD_REACTORS
330
50E6
102
}
330
A
100
AcDbEntity
  8
1
100
AcDbCircle
 10
28.04565599999995
 20
-0.8974010000000021
 30
0.0
 40
0.1
100
AcDbArc
 50
223.2386540000012
 51
300.0000000000005
  0
LINE
  5
4247
102
{ACAD_REACTORS
330
50E6
102
}
330
A
100
AcDbEntity
  8
1
100
AcDbLine
 10
28.09565599999991
 20
-0.9840029999995179
 30
0.0
 11
28.22788899999972
 21
-0.9076589999997397
 31
0.0
  0
ARC
  5
4248
102
{ACAD_REACTORS
330
50E6
102
}
330
A
100
AcDbEntity
  8
1
100
AcDbCircle
 10
28.30288899999999
 20
-1.037562999999519
 30
0.0
 40
0.15
100
AcDbArc
 50
56.10388100000045
 51
120.0000000000005
  0
ARC
  5
4249
102
{ACAD_REACTORS
330
50E6
102
}
330
A
100
AcDbEntity
  8
1
100
AcDbCircle
 10
29.00000000000006
 20
0.0
 30
0.0
 40
1.1
100
AcDbArc
 50
236.1038810000004
 51
243.8961189999979
  0
ARC
  5
424A
102
{ACAD_REACTORS
330
50E6
102
}
330
A
100
AcDbEntity
  8
1
100
AcDbCircle
 10
28.44999999999999
 20
-1.122496999999724
 30
0.0
 40
0.15
100
AcDbArc
 50
0.0
 51
63.89611899999783
  0
LINE
  5
424B
102
{ACAD_REACTORS
330
50E6
102
}
330
A
100
AcDbEntity
  8
1
100
AcDbLine
 10
28.59999999999997
 20
-1.122496999999724
 30
0.0
 11
28.59999999999997
 21
-1.275185999999844
 31
0.0
  0
ARC
  5
424C
102
{ACAD_REACTORS
330
50E6
102
}
330
A
100
AcDbEntity
  8
1
100
AcDbCircle
 10
28.69999999999988
 20
-1.275185999999844
 30
0.0
 40
0.1
100
AcDbArc
 50
180.0
 51
256.7613459999975
  0
ARC
  5
424D
102
{ACAD_REACTORS
330
50E6
102
}
330
A
100
AcDbEntity
  8
1
100
AcDbCircle
 10
29.00000000000006
 20
0.0
 30
0.0
 40
1.409999999999999
100
AcDbArc
 50
256.7613459999975
 51
283.2386540000026
  0
ARC
  5
424E
102
{ACAD_REACTORS
330
50E6
102
}
330
A
100
AcDbEntity
  8
1
100
AcDbCircle
 10
29.2999999999999
 20
-1.275185999999844
 30
0.0
 40
0.1
100
AcDbArc
 50
283.2386540000026
 51
0.0
  0
ARC
  5
424F
102
{ACAD_REACTORS
330
50E6
102
}
330
A
100
AcDbEntity
  8
1
100
AcDbCircle
 10
29.00000000000006
 20
0.0
 30
0.0
 40
1.1
100
AcDbArc
 50
296.1038810000022
 51
303.8961189999995
  0
ARC
  5
4250
102
{ACAD_REACTORS
330
50E6
102
}
330
A
100
AcDbEntity
  8
1
100
AcDbCircle
 10
29.69711099999989
 20
-1.037562999999519
 30
0.0
 40
0.15
100
AcDbArc
 50
59.99999999999944
 51
123.8961189999995
  0
CIRCLE
  5
4251
102
{ACAD_REACTORS
330
50E6
102
}
330
A
100
AcDbEntity
  8
1
100
AcDbCircle
 10
29.00000000000006
 20
0.0
 30
0.0
 40
2.299999999999998
  0
DIMENSION
  5
426C
102
{ACAD_REACTORS
330
42C0
102
}
330
A
100
AcDbEntity
  8
2
100
AcDbDimension
  2
*D2
 10
34.99929629436109
 20
21.13174165961523
 30
0.0
 11
27.49929716845757
 21
23.56798171463916
 31
0.0
 70
    32
 71
     5
 42
14.99983598560405
  3
STANDARD
100
AcDbAlignedDimension
 13
20.00000000000006
 23
4.924977000000353
 33
0.0
 14
34.99999999999983
 24
0.0
 34
0.0
 50
0.0019080000008742
100
AcDbRotatedDimension
  0
DIMENSION
  5
426D
102
{ACAD_REACTORS
330
42D3
102
}
330
A
100
AcDbEntity
  8
SK2
100
AcDbDimension
  2
*D3
 10
34.99888248280968
 20
33.55818578422326
 30
0.0
 11
-20.00110618351018
 21
35.99284404769311
 31
0.0
 70
    32
 71
     5
 42
109.9998151191118
  3
STANDARD
100
AcDbAlignedDimension
 13
-75.0
 23
5.550000000000351
 33
0.0
 14
34.99999999999983
 24
0.0
 34
0.0
 50
0.0019080000008742
100
AcDbRotatedDimension
  0
LINE
  5
42AA
102
{ACAD_REACTORS
330
42AC
102
}
330
A
100
AcDbEntity
  8
SK1
100
AcDbLine
 10
-0.0000000000001705
 20
6.000000000000341
 30
0.0
 11
-74.55000000000012
 21
6.000000000000341
 31
0.0
  0
LINE
  5
42AB
102
{ACAD_REACTORS
330
42AC
102
}
330
A
100
AcDbEntity
  8
SK1
100
AcDbLine
 10
-0.0000000000001705
 20
-5.999999999999656
 30
0.0
 11
-74.55000000000012
 21
-5.999999999999656
 31
0.0
  0
LINE
  5
42AD
330
A
100
AcDbEntity
  8
SK4
100
AcDbLine
 10
-81.83623500000022
 20
0.0
 30
0.0
 11
0.0
 21
0.0
 31
0.0
  0
LINE
  5
42EE
102
{ACAD_REACTORS
330
42F1
102
}
330
A
100
AcDbEntity
  8
4
100
AcDbLine
 10
31.98999999999973
 20
0.0
 30
0.0
 11
26.00999999999982
 21
0.0
 31
0.0
  0
LINE
  5
42EF
102
{ACAD_REACTORS
330
42F1
102
}
330
A
100
AcDbEntity
  8
4
100
AcDbLine
 10
29.00000000000006
 20
2.990000000000348
 30
0.0
 11
29.00000000000006
 21
-2.989999999999668
 31
0.0
  0
INSERT
  5
468B
330
A
100
AcDbEntity
  8
SK2
100
AcDbBlockReference
  2
CERO_POINT
 10
0.0
 20
0.0
 30
0.0
  0
LINE
  5
468C
330
A
100
AcDbEntity
  8
INFTOTAL
100
AcDbLine
 10
-102.0113107743678
 20
45.54569787849902
 30
0.0
 11
-52.0113107743678
 21
45.54569787849902
 31
0.0
  0
LINE
  5
468D
330
A
100
AcDbEntity
  8
INFTOTAL
100
AcDbLine
 10
53.27433374596664
 20
19.64031100604359
 30
0.0
 11
53.27433374596664
 21
-30.35968899395641
 31
0.0
  0
LINE
  5
468E
330
A
100
AcDbEntity
  8
INFTOTAL
100
AcDbLine
 10
53.27433374596664
 20
-30.35968899395641
 30
0.0
 11
3.274333745966656
 21
-30.35968899395641
 31
0.0
  0
LINE
  5
468F
330
A
100
AcDbEntity
  8
INFTOTAL
100
AcDbLine
 10
-102.0113107743678
 20
-4.454302121500631
 30
0.0
 11
-102.0113107743678
 21
45.54569787849902
 31
0.0
  0
LINE
  5
5473
102
{ACAD_REACTORS
330
547E
102
}
330
A
100
AcDbEntity
  8
NOCUT
100
AcDbLine
 10
0.0
 20
6.000000000000341
 30
0.0
 11
0.0
 21
0.0
 31
0.0
  0
LINE
  5
5474
102
{ACAD_REACTORS
330
547E
102
}
330
A
100
AcDbEntity
  8
NOCUT
100
AcDbLine
 10
0.0
 20
0.0
 30
0.0
 11
34.49041599999981
 21
0.0
 31
0.0
  0
LINE
  5
5475
102
{ACAD_REACTORS
330
547E
102
}
330
A
100
AcDbEntity
  8
NOCUT
100
AcDbLine
 10
34.49041599999981
 20
0.0
 30
0.0
 11
34.49041600000004
 21
0.7499986704396273
 31
0.0
  0
ARC
  5
5476
102
{ACAD_REACTORS
330
547E
102
}
330
A
100
AcDbEntity
  8
NOCUT
100
AcDbCircle
 10
29.80000001596677
 20
-0.0000000136165927
 30
0.0
 40
4.750000013616934
100
AcDbArc
 50
9.084704186214773
 51
90.00000019259664
  0
LINE
  5
5477
102
{ACAD_REACTORS
330
547E
102
}
330
A
100
AcDbEntity
  8
NOCUT
100
AcDbLine
 10
29.7999999999999
 20
4.750000000000341
 30
0.0
 11
22.43660900000003
 21
4.750000000000341
 31
0.0
  0
ARC
  5
5478
102
{ACAD_REACTORS
330
547E
102
}
330
A
100
AcDbEntity
  8
NOCUT
100
AcDbCircle
 10
22.43660920896375
 20
14.74999999087647
 30
0.0
 40
9.999999990876137
100
AcDbArc
 50
264.9999999607667
 51
269.9999988027261
  0
LINE
  5
5479
102
{ACAD_REACTORS
330
547E
102
}
330
A
100
AcDbEntity
  8
NOCUT
100
AcDbLine
 10
21.56505177546092
 20
4.788053019644963
 30
0.0
 11
11.375158
 21
5.67955300000045
 31
0.0
  0
LINE
  5
547A
102
{ACAD_REACTORS
330
547E
102
}
330
A
100
AcDbEntity
  8
NOCUT
100
AcDbLine
 10
11.375158
 20
5.67955300000045
 30
0.0
 11
11.15974408904858
 21
5.703113451070564
 31
0.0
  0
ARC
  5
547B
102
{ACAD_REACTORS
330
547E
102
}
330
A
100
AcDbEntity
  8
NOCUT
100
AcDbCircle
 10
11.81093600000002
 20
10.66052700000023
 30
0.0
 40
5.000000000000006
100
AcDbArc
 50
248.7654234178236
 51
262.5166322765703
  0
LINE
  5
547C
102
{ACAD_REACTORS
330
547E
102
}
330
A
100
AcDbEntity
  8
NOCUT
100
AcDbLine
 10
10.00000030752719
 20
6.000000000000341
 30
0.0
 11
0.0
 21
6.000000000000341
 31
0.0
  0
LINE
  5
547F
102
{ACAD_REACTORS
330
5483
102
}
330
A
100
AcDbEntity
  8
CUT
100
AcDbLine
 10
26.99999999999983
 20
0.0
 30
0.0
 11
34.99999999999983
 21
0.0
 31
0.0
  0
ARC
  5
5480
102
{ACAD_REACTORS
330
5483
102
}
330
A
100
AcDbEntity
  8
CUT
100
AcDbCircle
 10
29.99999999999983
 20
-0.0000000000000004
 30
0.0
 40
5.0
100
AcDbArc
 50
0.0000000000000051
 51
94.97531977809092
  0
LINE
  5
5481
102
{ACAD_REACTORS
330
5483
102
}
330
A
100
AcDbEntity
  8
CUT
100
AcDbLine
 10
29.56636688659545
 20
4.98116074052617
 30
0.0
 11
26.99999999999983
 21
4.756633000000249
 31
0.0
  0
LINE
  5
5482
102
{ACAD_REACTORS
330
5483
102
}
330
A
100
AcDbEntity
  8
CUT
100
AcDbLine
 10
26.99999999999983
 20
4.756633000000249
 30
0.0
 11
26.99999999999983
 21
0.0
 31
0.0
  0
TEXT
  5
56FA
330
A
100
AcDbEntity
  8
SK6
100
AcDbText
 10
-47.78894987207772
 20
-25.19206300197114
 30
0.0
 40
3.5
  1
12A8S010025T2R00
100
AcDbText
1001
ACAD
1000
MTEXTBEGIN
1070
    73
1070
     1
1070
    44
1040
1.0
1070
    74
1070
     0
1000
MTEXTEND
  0
VIEWPORT
  5
32
102
{ACAD_XDICTIONARY
360
57A5
102
}
330
B
100
AcDbEntity
 67
     1
  8
0
 62
     0
370
     0
100
AcDbViewport
 10
0.0
 20
0.0
 30
0.0
 40
1000.0
 41
1000.0
 68
     1
 69
     1
 12
0.0
 22
0.0
 13
0.0
 23
0.0
 14
1.0
 24
1.0
 15
1.0
 25
1.0
 16
0.0
 26
0.0
 36
1.0
 17
0.0
 27
0.0
 37
0.0
 42
50.0
 43
0.0
 44
0.0
 45
1000.0
 50
0.0
 51
0.0
 72
   100
 90
        0
  1

281
     0
 71
     0
 74
     1
110
0.0
120
0.0
130
0.0
111
1.0
121
0.0
131
0.0
112
0.0
122
1.0
132
0.0
 79
     0
146
0.0
  0
ENDSEC
  0
SECTION
  2
OBJECTS
  0
DICTIONARY
  5
19
330
0
100
AcDbDictionary
281
     1
  3
ACAD_2007HEADERVARS_RT
350
579E
  3
ACAD_CIP_PREVIOUS_PRODUCT_INFO
350
56F8
  3
ACAD_COLOR
350
451
  3
ACAD_DETAILVIEWSTYLE
350
56AB
  3
ACAD_GROUP
350
1A
  3
ACAD_LAYOUT
350
1E
  3
ACAD_MATERIAL
350
450
  3
ACAD_MLEADERSTYLE
350
5356
  3
ACAD_MLINESTYLE
350
1B
  3
ACAD_PLOTSETTINGS
350
22
  3
ACAD_PLOTSTYLENAME
350
1F
  3
ACAD_SCALELIST
350
5344
  3
ACAD_SECTIONVIEWSTYLE
350
56A9
  3
ACAD_TABLESTYLE
350
452
  3
ACAD_VISUALSTYLE
350
5330
  3
ACAD_WIPEOUT_VARS
350
23
  3
ACDB_RECOMPOSE_DATA
350
579C
  3
AcDbVariableDictionary
350
5791
  3
ASE_INDEX_DICTIONARY
350
5508
  3
DWGPROPS
350
579D
  0
DICTIONARY
  5
468
330
2
100
AcDbDictionary
280
     1
281
     1
  3
ACAD_LAYERFILTERS
360
50F2
  3
ACAD_LAYERSTATES
360
467D
  3
ACLYDICTIONARY
360
50F1
  0
DICTIONARY
  5
53A3
330
14
100
AcDbDictionary
280
     1
281
     1
  3
ADSK_XREC_LAYER_RECONCILED
360
53A4
  0
DICTIONARY
  5
53A5
330
456
100
AcDbDictionary
280
     1
281
     1
  3
ADSK_XREC_LAYER_RECONCILED
360
53A6
  0
DICTIONARY
  5
53A7
330
458
100
AcDbDictionary
280
     1
281
     1
  3
ADSK_XREC_LAYER_RECONCILED
360
53A8
  0
DICTIONARY
  5
53A9
330
459
100
AcDbDictionary
280
     1
281
     1
  3
ADSK_XREC_LAYER_RECONCILED
360
53AA
  0
DICTIONARY
  5
53AB
330
45D
100
AcDbDictionary
280
     1
281
     1
  3
ADSK_XREC_LAYER_RECONCILED
360
53AC
  0
DICTIONARY
  5
53AD
330
45F
100
AcDbDictionary
280
     1
281
     1
  3
ADSK_XREC_LAYER_RECONCILED
360
53AE
  0
DICTIONARY
  5
53AF
330
460
100
AcDbDictionary
280
     1
281
     1
  3
ADSK_XREC_LAYER_RECONCILED
360
53B0
  0
DICTIONARY
  5
53B1
330
461
100
AcDbDictionary
280
     1
281
     1
  3
ADSK_XREC_LAYER_RECONCILED
360
53B2
  0
DICTIONARY
  5
53B3
330
462
100
AcDbDictionary
280
     1
281
     1
  3
ADSK_XREC_LAYER_RECONCILED
360
53B4
  0
DICTIONARY
  5
53B5
330
464
100
AcDbDictionary
280
     1
281
     1
  3
ADSK_XREC_LAYER_RECONCILED
360
53B6
  0
DICTIONARY
  5
53B7
330
466
100
AcDbDictionary
280
     1
281
     1
  3
ADSK_XREC_LAYER_RECONCILED
360
53B8
  0
DICTIONARY
  5
BCD
330
A
100
AcDbDictionary
280
     1
281
     1
  3
ACAD_SORTENTS
360
BCE
  0
DICTIONARY
  5
57A5
330
32
100
AcDbDictionary
280
     1
281
     1
  3
ACAD_XREC_ROUNDTRIP
360
57A6
  0
DICTIONARY
  5
579E
102
{ACAD_REACTORS
330
19
102
}
330
19
100
AcDbDictionary
281
     1
  3
DIMFXL
350
579F
  3
DIMJOGANG
350
57A0
  0
XRECORD
  5
56F8
102
{ACAD_REACTORS
330
19
102
}
330
19
100
AcDbXrecord
280
     1
300
ACDLT
300
2015
300
ACDLT_F_S
  0
DICTIONARY
  5
451
102
{ACAD_REACTORS
330
19
102
}
330
19
100
AcDbDictionary
281
     1
  0
DICTIONARY
  5
56AB
102
{ACAD_REACTORS
330
19
102
}
330
19
100
AcDbDictionary
281
     1
  3
METRIC50
350
56AC
  0
DICTIONARY
  5
1A
102
{ACAD_REACTORS
330
19
102
}
330
19
100
AcDbDictionary
281
     1
  3
*A1
350
547E
  3
*A2
350
5483
  3
*A3
350
42AC
  3
*A4
350
42C0
  3
*A5
350
50E6
  3
*A6
350
50E7
  3
*A7
350
42D3
  3
*A8
350
42F1
  0
DICTIONARY
  5
1E
102
{ACAD_REACTORS
330
19
102
}
330
19
100
AcDbDictionary
281
     1
  3
Layout1
350
21
  3
Model
350
20
  0
DICTIONARY
  5
450
102
{ACAD_REACTORS
330
19
102
}
330
19
100
AcDbDictionary
281
     1
  3
ByBlock
350
4674
  3
ByLayer
350
4677
  3
Global
350
467A
  0
DICTIONARY
  5
5356
102
{ACAD_REACTORS
330
19
102
}
330
19
100
AcDbDictionary
281
     1
  3
Standard
350
5357
  0
DICTIONARY
  5
1B
102
{ACAD_REACTORS
330
19
102
}
330
19
100
AcDbDictionary
281
     1
  3
Standard
350
1C
  0
DICTIONARY
  5
22
102
{ACAD_REACTORS
330
19
102
}
330
19
100
AcDbDictionary
281
     1
  0
ACDBDICTIONARYWDFLT
  5
1F
102
{ACAD_REACTORS
330
19
102
}
330
19
100
AcDbDictionary
281
     1
  3
Normal
350
1D
100
AcDbDictionaryWithDefault
340
1D
  0
DICTIONARY
  5
5344
102
{ACAD_REACTORS
330
19
102
}
330
19
100
AcDbDictionary
281
     1
  3
A0
350
5345
  3
A1
350
5346
  3
A2
350
5347
  3
A3
350
5348
  3
A4
350
5349
  3
A5
350
534A
  3
A6
350
534B
  3
A7
350
534C
  3
A8
350
534D
  3
A9
350
534E
  3
B0
350
534F
  3
B1
350
5350
  3
B2
350
5351
  3
B3
350
5352
  3
B4
350
5353
  3
B5
350
5354
  3
B6
350
5355
  0
DICTIONARY
  5
56A9
102
{ACAD_REACTORS
330
19
102
}
330
19
100
AcDbDictionary
281
     1
  3
METRIC50
350
56AA
  0
DICTIONARY
  5
452
102
{ACAD_REACTORS
330
19
102
}
330
19
100
AcDbDictionary
281
     1
  3
Standard
350
453
  0
DICTIONARY
  5
5330
102
{ACAD_REACTORS
330
19
102
}
330
19
100
AcDbDictionary
281
     1
  3
2dWireframe
350
5336
  3
3D Hidden
350
5338
  3
3dWireframe
350
5337
  3
Basic
350
5335
  3
Brighten
350
533C
  3
ColorChange
350
5340
  3
Conceptual
350
5339
  3
Dim
350
533B
  3
EdgeColorOff
350
5343
  3
Facepattern
350
533F
  3
Flat
350
5331
  3
FlatWithEdges
350
5332
  3
Gouraud
350
5333
  3
GouraudWithEdges
350
5334
  3
Hidden
350
56A3
  3
JitterOff
350
5341
  3
Linepattern
350
533E
  3
OverhangOff
350
5342
  3
Realistic
350
533A
  3
Shaded
350
56A8
  3
Shaded with edges
350
56A7
  3
Shades of Gray
350
56A4
  3
Sketchy
350
56A5
  3
Thicken
350
533D
  3
Wireframe
350
56A2
  3
X-Ray
350
56A6
  0
WIPEOUTVARIABLES
  5
23
330
19
100
AcDbWipeoutVariables
 70
     1
  0
XRECORD
  5
579C
102
{ACAD_REACTORS
330
19
102
}
330
19
100
AcDbXrecord
280
     1
 90
        1
330
453
  0
DICTIONARY
  5
5791
102
{ACAD_REACTORS
330
19
102
}
330
19
100
AcDbDictionary
281
     1
  3
CANNOSCALE
350
5796
  3
CMLEADERSTYLE
350
5793
  3
CTABLESTYLE
350
5792
  3
CVIEWDETAILSTYLE
350
5794
  3
CVIEWSECTIONSTYLE
350
5795
  3
DIMASSOC
350
579A
  3
INDEXCTL
350
5798
  3
SORTENTS
350
5797
  3
XCLIPFRAME
350
5799
  0
DICTIONARY
  5
5508
102
{ACAD_REACTORS
330
19
102
}
330
19
100
AcDbDictionary
281
     1
  3
ASEBlockHierarchyIndexRecord
350
5509
1001
DCO15
1040
1709452992.968
  0
XRECORD
  5
579D
102
{ACAD_REACTORS
330
19
102
}
330
19
100
AcDbXrecord
280
     1
  1
DWGPROPS COOKIE
  2

  3

  4

  6

  7

  8
kamerka
  9

300
=
301
=
302
=
303
=
304
=
305
=
306
=
307
=
308
=
309
=
 40
0.4272902083333334
 41
2455362.076310394
 42
2457338.458324329
  1

 90
        0
  0
DICTIONARY
  5
50F2
102
{ACAD_REACTORS
330
468
102
}
330
468
100
AcDbDictionary
281
     1
  0
DICTIONARY
  5
467D
102
{ACAD_REACTORS
330
468
102
}
330
468
100
AcDbDictionary
281
     1
  3
_LAYISO_STATE
350
5467
1001
AcLayerTools
1000
20
1000
0
  0
DICTIONARY
  5
50F1
102
{ACAD_REACTORS
330
468
102
}
330
468
100
AcDbDictionary
281
     1
1001
ACAD
1000
<All
  0
XRECORD
  5
53A4
102
{ACAD_REACTORS
330
53A3
102
}
330
53A3
100
AcDbXrecord
280
     1
290
     1
  0
XRECORD
  5
53A6
102
{ACAD_REACTORS
330
53A5
102
}
330
53A5
100
AcDbXrecord
280
     1
290
     1
  0
XRECORD
  5
53A8
102
{ACAD_REACTORS
330
53A7
102
}
330
53A7
100
AcDbXrecord
280
     1
290
     1
  0
XRECORD
  5
53AA
102
{ACAD_REACTORS
330
53A9
102
}
330
53A9
100
AcDbXrecord
280
     1
290
     1
  0
XRECORD
  5
53AC
102
{ACAD_REACTORS
330
53AB
102
}
330
53AB
100
AcDbXrecord
280
     1
290
     1
  0
XRECORD
  5
53AE
102
{ACAD_REACTORS
330
53AD
102
}
330
53AD
100
AcDbXrecord
280
     1
290
     1
  0
XRECORD
  5
53B0
102
{ACAD_REACTORS
330
53AF
102
}
330
53AF
100
AcDbXrecord
280
     1
290
     1
  0
XRECORD
  5
53B2
102
{ACAD_REACTORS
330
53B1
102
}
330
53B1
100
AcDbXrecord
280
     1
290
     1
  0
XRECORD
  5
53B4
102
{ACAD_REACTORS
330
53B3
102
}
330
53B3
100
AcDbXrecord
280
     1
290
     1
  0
XRECORD
  5
53B6
102
{ACAD_REACTORS
330
53B5
102
}
330
53B5
100
AcDbXrecord
280
     1
290
     1
  0
XRECORD
  5
53B8
102
{ACAD_REACTORS
330
53B7
102
}
330
53B7
100
AcDbXrecord
280
     1
290
     1
  0
SORTENTSTABLE
  5
BCE
102
{ACAD_REACTORS
330
BCD
102
}
330
BCD
100
AcDbSortentsTable
330
A
331
41CC
  5
41CD
331
4205
  5
4207
331
423C
  5
4240
331
41C8
  5
41C9
331
4201
  5
4203
331
4238
  5
423C
331
41C4
  5
41C5
331
4234
  5
4238
331
41C0
  5
41C1
331
5477
  5
5478
331
41FD
  5
41FF
331
426D
  5
42D4
331
41BC
  5
41BD
331
41F9
  5
41FB
331
4230
  5
4234
331
5473
  5
5474
331
468F
  5
5473
331
41B8
  5
41B9
331
41F5
  5
41F7
331
422C
  5
4230
331
547F
  5
5481
331
468B
  5
468D
331
41F1
  5
41F2
331
4228
  5
422C
331
547B
  5
547F
331
41B4
  5
41B5
331
4224
  5
4228
331
41B0
  5
41B1
331
42EF
  5
41AF
331
41ED
  5
41EE
331
4220
  5
4224
331
41E9
  5
41EA
331
41E5
  5
41E6
331
421C
  5
421E
331
41E1
  5
41E2
331
4218
  5
421A
331
424F
  5
4255
331
41DD
  5
41DE
331
4214
  5
4216
331
4210
  5
4212
331
424B
  5
424F
331
41D9
  5
41DA
331
41D5
  5
41D6
331
4247
  5
424B
331
41D1
  5
41D2
331
4243
  5
4247
331
4208
  5
420A
331
423F
  5
4243
331
56FA
  5
468C
331
4204
  5
4206
331
423B
  5
423F
331
5482
  5
56FA
331
4200
  5
4202
331
41C7
  5
41C8
331
41C3
  5
41C4
331
4237
  5
423B
331
4233
  5
4237
331
41BF
  5
41C0
331
5476
  5
5477
331
41FC
  5
41FE
331
426C
  5
42AD
331
41BB
  5
41BC
331
41F8
  5
41FA
331
422F
  5
4233
331
468E
  5
5472
331
41F4
  5
41F6
331
422B
  5
422F
331
41F0
  5
41F1
331
547A
  5
547B
331
41B7
  5
41B8
331
41B3
  5
41B4
331
4227
  5
422B
331
4223
  5
4227
331
41AF
  5
41B0
331
42EE
  5
41A8
331
41EC
  5
41ED
331
41E8
  5
41E9
331
421F
  5
4223
331
41E4
  5
41E5
331
421B
  5
421D
331
41E0
  5
41E1
331
4217
  5
4219
331
4213
  5
4215
331
424E
  5
4253
331
41DC
  5
41DD
331
424A
  5
424E
331
41D8
  5
41D9
331
41D4
  5
41D5
331
42AB
  5
4222
331
4246
  5
424A
331
4242
  5
4246
331
420F
  5
4211
331
41CE
  5
41D1
331
4207
  5
4209
331
423E
  5
4242
331
41CA
  5
41CC
331
4203
  5
4205
331
423A
  5
423E
331
5481
  5
56F9
331
41C6
  5
41C7
331
41C2
  5
41C3
331
41FF
  5
4201
331
4236
  5
423A
331
4232
  5
4236
331
41BE
  5
41BF
331
5475
  5
5476
331
41FB
  5
41FD
331
41BA
  5
41BB
331
41F7
  5
41F9
331
422E
  5
4232
331
468D
  5
468F
331
41F3
  5
41F5
331
422A
  5
422E
331
5479
  5
547A
331
4147
  5
4147
331
41B6
  5
41B7
331
41B2
  5
41B3
331
41EF
  5
41F0
331
4226
  5
422A
331
4222
  5
4226
331
41EB
  5
41EC
331
41E7
  5
41E8
331
421E
  5
4221
331
41E3
  5
41E4
331
421A
  5
421C
331
4251
  5
4260
331
41DF
  5
41E0
331
4216
  5
4218
331
4212
  5
4214
331
424D
  5
4251
331
41DB
  5
41DC
331
41D7
  5
41D8
331
4249
  5
424D
331
41D3
  5
41D4
331
42AA
  5
4220
331
4245
  5
4249
331
4241
  5
4245
331
41CD
  5
41D0
331
4206
  5
4208
331
423D
  5
4241
331
41C9
  5
41CB
331
4202
  5
4204
331
4239
  5
423D
331
5480
  5
5482
331
41C5
  5
41C6
331
4235
  5
4239
331
41C1
  5
41C2
331
41FE
  5
4200
331
4231
  5
4235
331
41BD
  5
41BE
331
5474
  5
5475
331
41FA
  5
41FC
331
41B9
  5
41BA
331
41F6
  5
41F8
331
422D
  5
4231
331
468C
  5
468E
331
41F2
  5
41F4
331
4229
  5
422D
331
547C
  5
5480
331
5478
  5
5479
331
4146
  5
4146
331
41B5
  5
41B6
331
41B1
  5
41B2
331
41EE
  5
41EF
331
4225
  5
4229
331
4221
  5
4225
331
41EA
  5
41EB
331
41E6
  5
41E7
331
421D
  5
421F
331
41E2
  5
41E3
331
4219
  5
421B
331
4250
  5
425E
331
41DE
  5
41DF
331
4215
  5
4217
331
4211
  5
4213
331
424C
  5
4250
331
41DA
  5
41DB
331
41D6
  5
41D7
331
42AD
  5
42D5
331
4248
  5
424C
331
4149
  5
4149
331
41D2
  5
41D3
331
4244
  5
4248
331
4240
  5
4244
  0
XRECORD
  5
57A6
102
{ACAD_REACTORS
330
57A5
102
}
330
57A5
100
AcDbXrecord
280
     1
102
SHADEPLOT
 70
     0
  0
XRECORD
  5
579F
102
{ACAD_REACTORS
330
579E
102
}
330
579E
100
AcDbXrecord
280
     1
 40
1.25
  0
XRECORD
  5
57A0
102
{ACAD_REACTORS
330
579E
102
}
330
579E
100
AcDbXrecord
280
     1
 40
1.570796326794896
  0
ACDBDETAILVIEWSTYLE
  5
56AC
102
{ACAD_XDICTIONARY
360
57DE
102
}
102
{ACAD_REACTORS
330
56AB
102
}
330
56AB
100
AcDbModelDocViewStyle
 70
     0
  3
Metric50
290
     0
100
AcDbDetailViewStyle
 70
     0
 71
     0
 90
        3
 71
     1
340
17
 40
5.0
340
0
 40
5.0
300

 40
0.0
280
     1
 71
     2
340
13
 90
       25
 71
     3
340
17
 40
5.0
 90
        0
 40
15.0
 90
        1
300
%<\AcVar ViewDetailId>% (%<\AcVar ViewScale \f "%sn">%)
 71
     4
340
13
 90
       25
340
13
 90
       25
280
     0
  0
GROUP
  5
547E
102
{ACAD_REACTORS
330
1A
102
}
330
1A
100
AcDbGroup
300

 70
     1
 71
     1
340
547C
340
547B
340
547A
340
5479
340
5478
340
5477
340
5476
340
5475
340
5474
340
5473
  0
GROUP
  5
5483
102
{ACAD_REACTORS
330
1A
102
}
330
1A
100
AcDbGroup
300

 70
     0
 71
     1
340
5482
340
5481
340
5480
340
547F
  0
GROUP
  5
42AC
102
{ACAD_REACTORS
330
1A
102
}
330
1A
100
AcDbGroup
300

 70
     1
 71
     1
340
42AB
340
4211
340
4210
340
421C
340
421B
340
4212
340
420F
340
42AA
  0
GROUP
  5
42C0
102
{ACAD_REACTORS
330
1A
102
}
330
1A
100
AcDbGroup
300

 70
     1
 71
     1
340
4146
340
426C
  0
GROUP
  5
50E6
102
{ACAD_REACTORS
330
1A
102
}
330
1A
100
AcDbGroup
300

 70
     1
 71
     1
340
4251
340
4250
340
424F
340
424E
340
424D
340
424C
340
424B
340
424A
340
4249
340
4248
340
4247
340
4246
340
4245
340
4244
340
4243
340
4242
340
4241
340
4240
340
423F
340
423E
340
423D
340
423C
340
423B
340
423A
340
4239
340
4238
340
4237
340
4236
340
4235
340
4234
340
4233
340
4232
340
4231
340
4230
340
422F
340
422E
340
422D
340
422C
340
422B
340
422A
340
4229
340
4228
340
4227
340
4226
340
4225
340
4224
340
4223
340
4222
340
4221
340
4220
340
421F
340
4204
340
4200
340
41FF
340
41FE
340
41FD
340
41FC
340
41E9
340
41E8
340
41E7
340
41E6
340
41E5
340
41E4
340
41E3
340
41E2
340
41E1
340
41E0
340
41DF
340
41DE
340
41DD
340
41DC
340
41DB
340
41DA
340
41D9
340
41D8
340
41D7
340
41D6
340
41D5
340
41D4
340
41D3
340
41D2
340
41D1
340
41CE
340
41CD
340
41CC
340
41CA
340
41C9
340
41C8
340
41C7
340
41C6
340
41C5
340
41C4
340
41C3
340
41C2
340
41C1
340
41C0
340
41BF
340
41BE
340
41BD
340
41BC
340
41BB
340
41BA
340
41B9
340
41B8
340
41B7
340
41B6
340
41B5
340
41B4
340
41B3
340
41B2
340
41B1
340
41B0
340
41AF
340
41F0
340
41F6
  0
GROUP
  5
50E7
102
{ACAD_REACTORS
330
1A
102
}
330
1A
100
AcDbGroup
300

 70
     1
 71
     1
340
421E
340
421D
340
421A
340
4219
340
4218
340
4217
340
4216
340
4215
340
4214
340
4213
340
4208
340
4207
340
4206
340
4205
340
4203
340
4202
340
4201
340
41FB
340
41FA
340
41F9
340
41F8
340
41F7
340
41F5
340
41F4
340
41F3
340
41F2
340
41F1
340
41EF
340
41EE
340
41ED
340
41EC
340
41EB
340
41EA
  0
GROUP
  5
42D3
102
{ACAD_REACTORS
330
1A
102
}
330
1A
100
AcDbGroup
300

 70
     1
 71
     1
340
426D
340
4147
  0
GROUP
  5
42F1
102
{ACAD_REACTORS
330
1A
102
}
330
1A
100
AcDbGroup
300

 70
     1
 71
     1
340
42EF
340
42EE
340
4149
  0
LAYOUT
  5
21
102
{ACAD_XDICTIONARY
360
57A3
102
}
102
{ACAD_REACTORS
330
1E
102
}
330
1E
100
AcDbPlotSettings
  1

  2

  4

  6

 40
0.0
 41
0.0
 42
0.0
 43
0.0
 44
0.0
 45
0.0
 46
0.0
 47
0.0
 48
0.0
 49
0.0
140
0.0
141
0.0
142
1.0
143
1.0
 70
     0
 72
     0
 73
     0
 74
     0
  7

 75
     0
147
1.0
148
0.0
149
0.0
100
AcDbLayout
  1
Layout1
 70
     1
 71
     1
 10
0.0
 20
0.0
 11
420.0
 21
297.0
 12
0.0
 22
0.0
 32
0.0
 14
0.0
 24
0.0
 34
0.0
 15
301.680481
 25
116.822281
 35
2.0
146
0.0
 13
0.0
 23
0.0
 33
0.0
 16
1.0
 26
0.0
 36
0.0
 17
0.0
 27
1.0
 37
0.0
 76
     0
330
B
331
32
  0
LAYOUT
  5
20
102
{ACAD_XDICTIONARY
360
57A1
102
}
102
{ACAD_REACTORS
330
1E
102
}
330
1E
100
AcDbPlotSettings
  1

  2

  4

  6

 40
0.0
 41
0.0
 42
0.0
 43
0.0
 44
0.0
 45
0.0
 46
0.0
 47
0.0
 48
0.0
 49
0.0
140
0.0
141
0.0
142
1.0
143
1.0
 70
  1024
 72
     0
 73
     0
 74
     0
  7

 75
     0
147
1.0
148
0.0
149
0.0
100
AcDbLayout
  1
Model
 70
     0
 71
     0
 10
0.0
 20
0.0
 11
0.0
 21
0.0
 12
0.0
 22
0.0
 32
0.0
 14
0.0
 24
0.0
 34
0.0
 15
0.0
 25
0.0
 35
0.0
146
0.0
 13
0.0
 23
0.0
 33
0.0
 16
0.0
 26
0.0
 36
0.0
 17
0.0
 27
0.0
 37
0.0
 76
     0
330
A
331
5324
  0
MATERIAL
  5
4674
102
{ACAD_XDICTIONARY
360
4675
102
}
102
{ACAD_REACTORS
330
450
102
}
330
450
100
AcDbMaterial
  1
ByBlock
  0
MATERIAL
  5
4677
102
{ACAD_XDICTIONARY
360
4678
102
}
102
{ACAD_REACTORS
330
450
102
}
330
450
100
AcDbMaterial
  1
ByLayer
  0
MATERIAL
  5
467A
102
{ACAD_XDICTIONARY
360
467B
102
}
102
{ACAD_REACTORS
330
450
102
}
330
450
100
AcDbMaterial
  1
Global
  0
MLEADERSTYLE
  5
5357
102
{ACAD_REACTORS
330
5356
102
}
330
5356
100
AcDbMLeaderStyle
170
     2
171
     1
172
     0
 90
        2
 40
0.0
 41
0.0
173
     1
 91
-1056964608
340
11
 92
       -2
290
     1
 42
2.0
291
     1
 43
0.36
  3
Standard
 44
4.0
300

342
17
174
     1
178
     6
175
     1
176
     0
 93
-1056964608
 45
4.0
292
     0
297
     0
 46
4.0
 94
-1056964608
 47
1.0
 49
1.0
140
1.0
293
     1
141
0.0
294
     1
177
     0
142
1.0
295
     0
296
     0
143
0.125
1001
ACAD_MLEADERVER
1070
     2
  0
MLINESTYLE
  5
1C
102
{ACAD_REACTORS
330
1B
102
}
330
1B
100
AcDbMlineStyle
  2
STANDARD
 70
     0
  3

 62
     0
 51
90.0
 52
90.0
 71
     2
 49
0.5
 62
   256
  6
BYLAYER
 49
-0.5
 62
   256
  6
BYLAYER
  0
ACDBPLACEHOLDER
  5
1D
102
{ACAD_REACTORS
330
1F
102
}
330
1F
  0
SCALE
  5
5345
102
{ACAD_REACTORS
330
5344
102
}
330
5344
100
AcDbScale
 70
     0
300
1:1
140
1.0
141
1.0
290
     1
  0
SCALE
  5
5346
102
{ACAD_REACTORS
330
5344
102
}
330
5344
100
AcDbScale
 70
     0
300
1:2
140
1.0
141
2.0
290
     0
  0
SCALE
  5
5347
102
{ACAD_REACTORS
330
5344
102
}
330
5344
100
AcDbScale
 70
     0
300
1:4
140
1.0
141
4.0
290
     0
  0
SCALE
  5
5348
102
{ACAD_REACTORS
330
5344
102
}
330
5344
100
AcDbScale
 70
     0
300
1:5
140
1.0
141
5.0
290
     0
  0
SCALE
  5
5349
102
{ACAD_REACTORS
330
5344
102
}
330
5344
100
AcDbScale
 70
     0
300
1:8
140
1.0
141
8.0
290
     0
  0
SCALE
  5
534A
102
{ACAD_REACTORS
330
5344
102
}
330
5344
100
AcDbScale
 70
     0
300
1:10
140
1.0
141
10.0
290
     0
  0
SCALE
  5
534B
102
{ACAD_REACTORS
330
5344
102
}
330
5344
100
AcDbScale
 70
     0
300
1:16
140
1.0
141
16.0
290
     0
  0
SCALE
  5
534C
102
{ACAD_REACTORS
330
5344
102
}
330
5344
100
AcDbScale
 70
     0
300
1:20
140
1.0
141
20.0
290
     0
  0
SCALE
  5
534D
102
{ACAD_REACTORS
330
5344
102
}
330
5344
100
AcDbScale
 70
     0
300
1:30
140
1.0
141
30.0
290
     0
  0
SCALE
  5
534E
102
{ACAD_REACTORS
330
5344
102
}
330
5344
100
AcDbScale
 70
     0
300
1:40
140
1.0
141
40.0
290
     0
  0
SCALE
  5
534F
102
{ACAD_REACTORS
330
5344
102
}
330
5344
100
AcDbScale
 70
     0
300
1:50
140
1.0
141
50.0
290
     0
  0
SCALE
  5
5350
102
{ACAD_REACTORS
330
5344
102
}
330
5344
100
AcDbScale
 70
     0
300
1:100
140
1.0
141
100.0
290
     0
  0
SCALE
  5
5351
102
{ACAD_REACTORS
330
5344
102
}
330
5344
100
AcDbScale
 70
     0
300
2:1
140
2.0
141
1.0
290
     0
  0
SCALE
  5
5352
102
{ACAD_REACTORS
330
5344
102
}
330
5344
100
AcDbScale
 70
     0
300
4:1
140
4.0
141
1.0
290
     0
  0
SCALE
  5
5353
102
{ACAD_REACTORS
330
5344
102
}
330
5344
100
AcDbScale
 70
     0
300
8:1
140
8.0
141
1.0
290
     0
  0
SCALE
  5
5354
102
{ACAD_REACTORS
330
5344
102
}
330
5344
100
AcDbScale
 70
     0
300
10:1
140
10.0
141
1.0
290
     0
  0
SCALE
  5
5355
102
{ACAD_REACTORS
330
5344
102
}
330
5344
100
AcDbScale
 70
     0
300
100:1
140
100.0
141
1.0
290
     0
  0
ACDBSECTIONVIEWSTYLE
  5
56AA
102
{ACAD_XDICTIONARY
360
57DC
102
}
102
{ACAD_REACTORS
330
56A9
102
}
330
56A9
100
AcDbModelDocViewStyle
 70
     0
  3
Metric50
290
     0
100
AcDbSectionViewStyle
 70
     0
 71
     0
 90
      102
 71
     1
340
17
 40
5.0
340
0
340
0
 40
5.0
300
I, O, Q, S, X, Z
 40
10.0
 90
        0
 40
2.5
 90
        0
 71
     2
340
13
 90
       25
340
13
 90
       50
 40
5.0
 40
2.5
 40
5.0
 71
     3
340
17
 40
5.0
 90
        0
 40
15.0
 90
        1
300
%<\AcVar ViewSectionStartId>%-%<\AcVar ViewSectionEndId>% (%<\AcVar ViewScale \f "%sn">%)
 71
     4
300
ANSI31
 40
1.0
 90
        0
290
     0
290
     0
 90
        6
 40
0.0
 40
1.570796326794896
 40
0.2617993877991494
 40
1.308996938995747
 40
-0.2617993877991494
 40
1.832595714594045
  0
TABLESTYLE
  5
453
102
{ACAD_XDICTIONARY
360
53C0
102
}
102
{ACAD_REACTORS
330
452
102
}
330
452
100
AcDbTableStyle
  3
Standard
 70
     0
 71
     0
 40
1.5
 41
1.5
280
     0
281
     0
  7
STANDARD
140
4.5
170
     2
 62
     0
 63
     7
283
     0
274
    -2
284
     1
 64
     0
275
    -2
285
     1
 65
     0
276
    -2
286
     1
 66
     0
277
    -2
287
     1
 67
     0
278
    -2
288
     1
 68
     0
279
    -2
289
     1
 69
     0
  7
STANDARD
140
6.0
170
     5
 62
     0
 63
     7
283
     0
274
    -2
284
     1
 64
     0
275
    -2
285
     1
 65
     0
276
    -2
286
     1
 66
     0
277
    -2
287
     1
 67
     0
278
    -2
288
     1
 68
     0
279
    -2
289
     1
 69
     0
  7
STANDARD
140
4.5
170
     5
 62
     0
 63
     7
283
     0
274
    -2
284
     1
 64
     0
275
    -2
285
     1
 65
     0
276
    -2
286
     1
 66
     0
277
    -2
287
     1
 67
     0
278
    -2
288
     1
 68
     0
279
    -2
289
     1
 69
     0
  0
VISUALSTYLE
  5
5336
102
{ACAD_XDICTIONARY
360
57B2
102
}
102
{ACAD_REACTORS
330
5330
102
}
330
5330
100
AcDbVisualStyle
  2

 70
     4
 71
     0
 72
     2
 73
     0
 90
        0
 40
-0.6
 41
-30.0
 62
     5
 63
     7
 74
     1
 91
        4
 64
     7
 65
   257
 75
     1
175
     1
 42
1.0
 92
        0
 66
   257
 43
1.0
 76
     1
 77
     6
 78
     2
 67
     7
 79
     5
170
     0
171
     0
290
     0
174
     0
 93
        1
 44
0.0
173
     0
291
     0
 45
0.0
1001
ACAD
1000
AcDbSavedByObjectVersion
1070
     0
  0
VISUALSTYLE
  5
5338
102
{ACAD_XDICTIONARY
360
57B6
102
}
102
{ACAD_REACTORS
330
5330
102
}
330
5330
100
AcDbVisualStyle
  2

 70
     6
 71
     1
 72
     2
 73
     2
 90
        0
 40
-0.6
 41
-30.0
 62
     5
 63
     7
 74
     2
 91
        2
 64
     7
 65
   257
 75
     2
175
     1
 42
179.0
 92
        0
 66
   257
 43
1.0
 76
     1
 77
     6
 78
     2
 67
     7
 79
     3
170
     0
171
     0
290
     0
174
     0
 93
        1
 44
0.0
173
     0
291
     0
 45
0.0
1001
ACAD
1000
AcDbSavedByObjectVersion
1070
     0
  0
VISUALSTYLE
  5
5337
102
{ACAD_XDICTIONARY
360
57B4
102
}
102
{ACAD_REACTORS
330
5330
102
}
330
5330
100
AcDbVisualStyle
  2

 70
     5
 71
     0
 72
     2
 73
     0
 90
        0
 40
-0.6
 41
-30.0
 62
     5
 63
     7
 74
     1
 91
        4
 64
     7
 65
   257
 75
     1
175
     1
 42
1.0
 92
        0
 66
   257
 43
1.0
 76
     1
 77
     6
 78
     2
 67
     7
 79
     5
170
     0
171
     0
290
     0
174
     0
 93
        1
 44
0.0
173
     0
291
     0
 45
0.0
1001
ACAD
1000
AcDbSavedByObjectVersion
1070
     0
  0
VISUALSTYLE
  5
5335
102
{ACAD_XDICTIONARY
360
57B0
102
}
102
{ACAD_REACTORS
330
5330
102
}
330
5330
100
AcDbVisualStyle
  2

 70
     7
 71
     1
 72
     0
 73
     1
 90
        0
 40
-0.6
 41
-30.0
 62
     5
 63
     7
 74
     0
 91
        4
 64
     7
 65
   257
 75
     1
175
     1
 42
1.0
 92
        8
 66
     7
 43
1.0
 76
     1
 77
     6
 78
     2
 67
     7
 79
     5
170
     0
171
     0
290
     0
174
     0
 93
        1
 44
0.0
173
     0
291
     1
 45
0.0
1001
ACAD
1000
AcDbSavedByObjectVersion
1070
     0
  0
VISUALSTYLE
  5
533C
102
{ACAD_XDICTIONARY
360
57BE
102
}
102
{ACAD_REACTORS
330
5330
102
}
330
5330
100
AcDbVisualStyle
  2

 70
    12
 71
     2
 72
     2
 73
     0
 90
        0
 40
-0.6
 41
-30.0
 62
     5
 63
     7
 74
     1
 91
        4
 64
     7
 65
   257
 75
     1
175
     1
 42
1.0
 92
        8
 66
     7
 43
1.0
 76
     1
 77
     6
 78
     2
 67
     7
 79
     5
170
     0
171
     0
290
     0
174
     0
 93
        1
 44
50.0
173
     0
291
     1
 45
0.0
1001
ACAD
1000
AcDbSavedByObjectVersion
1070
     0
  0
VISUALSTYLE
  5
5340
102
{ACAD_XDICTIONARY
360
57C6
102
}
102
{ACAD_REACTORS
330
5330
102
}
330
5330
100
AcDbVisualStyle
  2

 70
    16
 71
     2
 72
     2
 73
     3
 90
        0
 40
-0.6
 41
-30.0
 62
     5
 63
     8
 74
     1
 91
        4
 64
     7
 65
   257
 75
     1
175
     1
 42
1.0
 92
        8
 66
     8
 43
1.0
 76
     1
 77
     6
 78
     2
 67
     7
 79
     5
170
     0
171
     0
290
     0
174
     0
 93
        1
 44
0.0
173
     0
291
     1
 45
0.0
1001
ACAD
1000
AcDbSavedByObjectVersion
1070
     0
  0
VISUALSTYLE
  5
5339
102
{ACAD_XDICTIONARY
360
57B8
102
}
102
{ACAD_REACTORS
330
5330
102
}
330
5330
100
AcDbVisualStyle
  2

 70
     9
 71
     3
 72
     2
 73
     0
 90
        0
 40
-0.6
 41
-30.0
 62
     5
 63
     7
 74
     2
 91
        2
 64
     7
 65
   257
 75
     1
175
     1
 42
179.0
 92
        8
 66
     7
 43
1.0
 76
     1
 77
     6
 78
     2
 67
     7
 79
     3
170
     0
171
     0
290
     0
174
     0
 93
        1
 44
0.0
173
     0
291
     0
 45
0.0
1001
ACAD
1000
AcDbSavedByObjectVersion
1070
     0
  0
VISUALSTYLE
  5
533B
102
{ACAD_XDICTIONARY
360
57BC
102
}
102
{ACAD_REACTORS
330
5330
102
}
330
5330
100
AcDbVisualStyle
  2

 70
    11
 71
     2
 72
     2
 73
     0
 90
        0
 40
-0.6
 41
-30.0
 62
     5
 63
     7
 74
     1
 91
        4
 64
     7
 65
   257
 75
     1
175
     1
 42
1.0
 92
        8
 66
     7
 43
1.0
 76
     1
 77
     6
 78
     2
 67
     7
 79
     5
170
     0
171
     0
290
     0
174
     0
 93
        1
 44
-50.0
173
     0
291
     1
 45
0.0
1001
ACAD
1000
AcDbSavedByObjectVersion
1070
     0
  0
VISUALSTYLE
  5
5343
102
{ACAD_XDICTIONARY
360
57CC
102
}
102
{ACAD_REACTORS
330
5330
102
}
330
5330
100
AcDbVisualStyle
  2

 70
    22
 71
     2
 72
     2
 73
     0
 90
        0
 40
-0.6
 41
-30.0
 62
     5
 63
     7
 74
     1
 91
        4
 64
     7
 65
   257
 75
     1
175
     1
 42
1.0
 92
        8
 66
     7
 43
1.0
 76
     1
 77
     6
 78
     2
 67
     7
 79
     5
170
     0
171
     0
290
     0
174
     0
 93
        1
 44
0.0
173
     0
291
     1
 45
0.0
1001
ACAD
1000
AcDbSavedByObjectVersion
1070
     0
  0
VISUALSTYLE
  5
533F
102
{ACAD_XDICTIONARY
360
57C4
102
}
102
{ACAD_REACTORS
330
5330
102
}
330
5330
100
AcDbVisualStyle
  2

 70
    15
 71
     2
 72
     2
 73
     0
 90
        0
 40
-0.6
 41
-30.0
 62
     5
 63
     7
 74
     1
 91
        4
 64
     7
 65
   257
 75
     1
175
     1
 42
1.0
 92
        8
 66
     7
 43
1.0
 76
     1
 77
     6
 78
     2
 67
     7
 79
     5
170
     0
171
     0
290
     0
174
     0
 93
        1
 44
0.0
173
     0
291
     1
 45
0.0
1001
ACAD
1000
AcDbSavedByObjectVersion
1070
     0
  0
VISUALSTYLE
  5
5331
102
{ACAD_XDICTIONARY
360
57A8
102
}
102
{ACAD_REACTORS
330
5330
102
}
330
5330
100
AcDbVisualStyle
  2

 70
     0
 71
     2
 72
     1
 73
     1
 90
        2
 40
-0.6
 41
30.0
 62
     5
 63
     7
 74
     0
 91
        4
 64
     7
 65
   257
 75
     1
175
     1
 42
1.0
 92
        8
 66
     7
 43
1.0
 76
     1
 77
     6
 78
     2
 67
     7
 79
     5
170
     0
171
     0
290
     0
174
     0
 93
       13
 44
0.0
173
     0
291
     1
 45
0.0
1001
ACAD
1000
AcDbSavedByObjectVersion
1070
     0
  0
VISUALSTYLE
  5
5332
102
{ACAD_XDICTIONARY
360
57AA
102
}
102
{ACAD_REACTORS
330
5330
102
}
330
5330
100
AcDbVisualStyle
  2

 70
     1
 71
     2
 72
     1
 73
     1
 90
        2
 40
-0.6
 41
30.0
 62
     5
 63
     7
 74
     1
 91
        4
 64
     7
 65
   257
 75
     1
175
     1
 42
1.0
 92
        0
 66
   257
 43
1.0
 76
     1
 77
     6
 78
     2
 67
     7
 79
     5
170
     0
171
     0
290
     0
174
     0
 93
       13
 44
0.0
173
     0
291
     1
 45
0.0
1001
ACAD
1000
AcDbSavedByObjectVersion
1070
     0
  0
VISUALSTYLE
  5
5333
102
{ACAD_XDICTIONARY
360
57AC
102
}
102
{ACAD_REACTORS
330
5330
102
}
330
5330
100
AcDbVisualStyle
  2

 70
     2
 71
     2
 72
     2
 73
     1
 90
        2
 40
-0.6
 41
30.0
 62
     5
 63
     7
 74
     0
 91
        4
 64
     7
 65
   257
 75
     1
175
     1
 42
1.0
 92
        0
 66
     7
 43
1.0
 76
     1
 77
     6
 78
     2
 67
     7
 79
     5
170
     0
171
     0
290
     0
174
     0
 93
       13
 44
0.0
173
     0
291
     1
 45
0.0
1001
ACAD
1000
AcDbSavedByObjectVersion
1070
     0
  0
VISUALSTYLE
  5
5334
102
{ACAD_XDICTIONARY
360
57AE
102
}
102
{ACAD_REACTORS
330
5330
102
}
330
5330
100
AcDbVisualStyle
  2

 70
     3
 71
     2
 72
     2
 73
     1
 90
        2
 40
-0.6
 41
30.0
 62
     5
 63
     7
 74
     1
 91
        4
 64
     7
 65
   257
 75
     1
175
     1
 42
1.0
 92
        0
 66
   257
 43
1.0
 76
     1
 77
     6
 78
     2
 67
     7
 79
     5
170
     0
171
     0
290
     0
174
     0
 93
       13
 44
0.0
173
     0
291
     1
 45
0.0
1001
ACAD
1000
AcDbSavedByObjectVersion
1070
     0
  0
VISUALSTYLE
  5
56A3
102
{ACAD_XDICTIONARY
360
57D0
102
}
102
{ACAD_REACTORS
330
5330
102
}
330
5330
100
AcDbVisualStyle
  2

 70
     6
 71
     1
 72
     2
 73
     2
 90
        0
 40
-0.6
 41
-30.0
 62
     5
 63
     7
 74
     2
 91
        2
 64
     7
 65
   257
 75
     2
175
     1
 42
40.0
 92
        0
 66
   257
 43
1.0
 76
     1
 77
     6
 78
     2
 67
     7
 79
     3
170
     0
171
     0
290
     0
174
     0
 93
        1
 44
0.0
173
     0
291
     0
 45
0.0
1001
ACAD
1000
AcDbSavedByObjectVersion
1070
     0
  0
VISUALSTYLE
  5
5341
102
{ACAD_XDICTIONARY
360
57C8
102
}
102
{ACAD_REACTORS
330
5330
102
}
330
5330
100
AcDbVisualStyle
  2

 70
    20
 71
     2
 72
     2
 73
     0
 90
        0
 40
-0.6
 41
-30.0
 62
     5
 63
     7
 74
     1
 91
        4
 64
     7
 65
   257
 75
     1
175
     1
 42
1.0
 92
       10
 66
     7
 43
1.0
 76
     1
 77
     6
 78
     2
 67
     7
 79
     5
170
     0
171
     0
290
     0
174
     0
 93
        1
 44
0.0
173
     0
291
     1
 45
0.0
1001
ACAD
1000
AcDbSavedByObjectVersion
1070
     0
  0
VISUALSTYLE
  5
533E
102
{ACAD_XDICTIONARY
360
57C2
102
}
102
{ACAD_REACTORS
330
5330
102
}
330
5330
100
AcDbVisualStyle
  2

 70
    14
 71
     2
 72
     2
 73
     0
 90
        0
 40
-0.6
 41
-30.0
 62
     5
 63
     7
 74
     1
 91
        4
 64
     7
 65
   257
 75
     7
175
     7
 42
1.0
 92
        8
 66
     7
 43
1.0
 76
     1
 77
     6
 78
     2
 67
     7
 79
     5
170
     0
171
     0
290
     0
174
     0
 93
        1
 44
0.0
173
     0
291
     1
 45
0.0
1001
ACAD
1000
AcDbSavedByObjectVersion
1070
     0
  0
VISUALSTYLE
  5
5342
102
{ACAD_XDICTIONARY
360
57CA
102
}
102
{ACAD_REACTORS
330
5330
102
}
330
5330
100
AcDbVisualStyle
  2

 70
    21
 71
     2
 72
     2
 73
     0
 90
        0
 40
-0.6
 41
-30.0
 62
     5
 63
     7
 74
     1
 91
        4
 64
     7
 65
   257
 75
     1
175
     1
 42
1.0
 92
        9
 66
     7
 43
1.0
 76
     1
 77
     6
 78
     2
 67
     7
 79
     5
170
     0
171
     0
290
     0
174
     0
 93
        1
 44
0.0
173
     0
291
     1
 45
0.0
1001
ACAD
1000
AcDbSavedByObjectVersion
1070
     0
  0
VISUALSTYLE
  5
533A
102
{ACAD_XDICTIONARY
360
57BA
102
}
102
{ACAD_REACTORS
330
5330
102
}
330
5330
100
AcDbVisualStyle
  2

 70
     8
 71
     2
 72
     2
 73
     0
 90
        0
 40
-0.6
 41
-30.0
 62
     5
 63
     7
 74
     1
 91
        0
 64
     7
 65
   257
 75
     1
175
     1
 42
1.0
 92
        8
 66
     8
 43
1.0
 76
     1
 77
     6
 78
     2
 67
     7
 79
     5
170
     0
171
     0
290
     0
174
     0
 93
       13
 44
0.0
173
     0
291
     0
 45
0.0
1001
ACAD
1000
AcDbSavedByObjectVersion
1070
     0
  0
VISUALSTYLE
  5
56A8
102
{ACAD_XDICTIONARY
360
57DA
102
}
102
{ACAD_REACTORS
330
5330
102
}
330
5330
100
AcDbVisualStyle
  2

 70
    27
 71
     2
 72
     2
 73
     1
 90
        2
 40
-0.6
 41
30.0
 62
     5
 63
     7
 74
     0
 91
        4
 64
     7
 65
   257
 75
     1
175
     1
 42
1.0
 92
        8
 66
   257
 43
1.0
 76
     1
 77
     6
 78
     2
 67
     8
 79
     3
170
     0
171
     0
290
     0
174
     0
 93
        5
 44
0.0
173
     0
291
     0
 45
0.0
1001
ACAD
1000
AcDbSavedByObjectVersion
1070
     0
  0
VISUALSTYLE
  5
56A7
102
{ACAD_XDICTIONARY
360
57D8
102
}
102
{ACAD_REACTORS
330
5330
102
}
330
5330
100
AcDbVisualStyle
  2

 70
    26
 71
     2
 72
     2
 73
     1
 90
        2
 40
-0.6
 41
30.0
 62
     5
 63
     7
 74
     1
 91
       10
 64
     7
 65
   257
 75
     2
175
     1
 42
1.0
 92
        8
 66
   257
 43
1.0
 76
     1
 77
     6
 78
     2
 67
     7
 79
     3
170
     0
171
     0
290
     0
174
     0
 93
        5
 44
0.0
173
     0
291
     0
 45
0.0
1001
ACAD
1000
AcDbSavedByObjectVersion
1070
     0
  0
VISUALSTYLE
  5
56A4
102
{ACAD_XDICTIONARY
360
57D2
102
}
102
{ACAD_REACTORS
330
5330
102
}
330
5330
100
AcDbVisualStyle
  2

 70
    23
 71
     2
 72
     2
 73
     3
 90
        0
 40
-0.6
 41
-30.0
 62
     5
 63
     7
 74
     2
 91
        2
 64
     7
 65
     7
 75
     1
175
     1
 42
40.0
 92
        8
 66
     7
 43
1.0
 76
     1
 77
     6
 78
     2
 67
     7
 79
     3
170
     0
171
     0
290
     0
174
     0
 93
        1
 44
0.0
173
     0
291
     0
 45
0.0
1001
ACAD
1000
AcDbSavedByObjectVersion
1070
     0
  0
VISUALSTYLE
  5
56A5
102
{ACAD_XDICTIONARY
360
57D4
102
}
102
{ACAD_REACTORS
330
5330
102
}
330
5330
100
AcDbVisualStyle
  2

 70
    24
 71
     1
 72
     2
 73
     2
 90
        0
 40
-0.6
 41
-30.0
 62
     5
 63
     7
 74
     2
 91
        2
 64
     7
 65
     7
 75
     1
175
     1
 42
40.0
 92
       11
 66
     7
 43
1.0
 76
     1
 77
     6
 78
     2
 67
     7
 79
     6
170
     0
171
     0
290
     0
174
     0
 93
        1
 44
0.0
173
     0
291
     0
 45
0.0
1001
ACAD
1000
AcDbSavedByObjectVersion
1070
     0
  0
VISUALSTYLE
  5
533D
102
{ACAD_XDICTIONARY
360
57C0
102
}
102
{ACAD_REACTORS
330
5330
102
}
330
5330
100
AcDbVisualStyle
  2

 70
    13
 71
     2
 72
     2
 73
     0
 90
        0
 40
-0.6
 41
-30.0
 62
     5
 63
     7
 74
     1
 91
        4
 64
     7
 65
   257
 75
     1
175
     1
 42
1.0
 92
       12
 66
     7
 43
1.0
 76
     1
 77
     6
 78
     2
 67
     7
 79
     5
170
     0
171
     0
290
     0
174
     0
 93
        1
 44
0.0
173
     0
291
     1
 45
0.0
1001
ACAD
1000
AcDbSavedByObjectVersion
1070
     0
  0
VISUALSTYLE
  5
56A2
102
{ACAD_XDICTIONARY
360
57CE
102
}
102
{ACAD_REACTORS
330
5330
102
}
330
5330
100
AcDbVisualStyle
  2

 70
     5
 71
     0
 72
     2
 73
     0
 90
        0
 40
-0.6
 41
-30.0
 62
     5
 63
     7
 74
     1
 91
        4
 64
     7
 65
   257
 75
     1
175
     1
 42
1.0
 92
        0
 66
   257
 43
1.0
 76
     1
 77
     6
 78
     2
 67
     7
 79
     3
170
     0
171
     0
290
     0
174
     0
 93
        1
 44
0.0
173
     0
291
     0
 45
0.0
1001
ACAD
1000
AcDbSavedByObjectVersion
1070
     0
  0
VISUALSTYLE
  5
56A6
102
{ACAD_XDICTIONARY
360
57D6
102
}
102
{ACAD_REACTORS
330
5330
102
}
330
5330
100
AcDbVisualStyle
  2

 70
    25
 71
     2
 72
     2
 73
     1
 90
        1
 40
0.5
 41
-30.0
 62
     5
 63
     7
 74
     1
 91
        0
 64
     7
 65
   257
 75
     1
175
     1
 42
1.0
 92
        8
 66
     7
 43
1.0
 76
     1
 77
     6
 78
     2
 67
     7
 79
     3
170
     0
171
     0
290
     0
174
     0
 93
       13
 44
0.0
173
     0
291
     0
 45
0.0
1001
ACAD
1000
AcDbSavedByObjectVersion
1070
     0
  0
DICTIONARYVAR
  5
5796
102
{ACAD_REACTORS
330
5791
102
}
330
5791
100
DictionaryVariables
280
     0
  1
1:1
  0
DICTIONARYVAR
  5
5793
102
{ACAD_REACTORS
330
5791
102
}
330
5791
100
DictionaryVariables
280
     0
  1
STANDARD
  0
DICTIONARYVAR
  5
5792
102
{ACAD_REACTORS
330
5791
102
}
330
5791
100
DictionaryVariables
280
     0
  1
STANDARD
  0
DICTIONARYVAR
  5
5794
102
{ACAD_REACTORS
330
5791
102
}
330
5791
100
DictionaryVariables
280
     0
  1
METRIC50
  0
DICTIONARYVAR
  5
5795
102
{ACAD_REACTORS
330
5791
102
}
330
5791
100
DictionaryVariables
280
     0
  1
METRIC50
  0
DICTIONARYVAR
  5
579A
102
{ACAD_REACTORS
330
5791
102
}
330
5791
100
DictionaryVariables
280
     0
  1
1
  0
DICTIONARYVAR
  5
5798
102
{ACAD_REACTORS
330
5791
102
}
330
5791
100
DictionaryVariables
280
     0
  1
0
  0
DICTIONARYVAR
  5
5797
102
{ACAD_REACTORS
330
5791
102
}
330
5791
100
DictionaryVariables
280
     0
  1
127
  0
DICTIONARYVAR
  5
5799
102
{ACAD_REACTORS
330
5791
102
}
330
5791
100
DictionaryVariables
280
     0
  1
0
  0
XRECORD
  5
5509
102
{ACAD_REACTORS
330
5508
102
}
330
5508
100
AcDbXrecord
280
     1
330
468B
  0
XRECORD
  5
5467
102
{ACAD_XDICTIONARY
360
5468
102
}
102
{ACAD_REACTORS
330
467D
102
}
330
467D
100
AcDbXrecord
280
     1
 91
      535
301

290
     0
302
0
330
3D4E
 90
        8
 62
     4
370
    50
331
13
390
1D
330
466
 90
        8
 62
     5
370
    -3
331
13
390
1D
330
464
 90
        8
 62
     2
370
    25
331
45C
390
1D
330
462
 90
        8
 62
     7
370
    25
331
13
390
1D
330
461
 90
        8
 62
     4
370
    50
331
13
390
1D
330
460
 90
        8
 62
     7
370
    -3
331
13
390
1D
330
45F
 90
        8
 62
     9
370
    18
331
13
390
1D
330
45E
 90
        0
 62
     7
370
    25
331
13
390
1D
330
45D
 90
        8
 62
     1
370
    25
331
13
390
1D
330
459
 90
        8
 62
     2
370
    25
331
45C
390
1D
330
458
 90
        8
 62
     7
370
    25
331
13
390
1D
330
456
 90
        8
 62
     4
370
    50
331
13
390
1D
330
14
 90
        8
 62
     7
370
    -3
331
13
390
1D
  0
DICTIONARY
  5
57DE
330
56AC
100
AcDbDictionary
280
     1
281
     1
  3
ACAD_XREC_ROUNDTRIP
360
57DF
  0
DICTIONARY
  5
57A3
330
21
100
AcDbDictionary
280
     1
281
     1
  3
ACAD_XREC_ROUNDTRIP
360
57A4
  0
DICTIONARY
  5
57A1
330
20
100
AcDbDictionary
280
     1
281
     1
  3
ACAD_XREC_ROUNDTRIP
360
57A2
  0
DICTIONARY
  5
4675
330
4674
100
AcDbDictionary
280
     1
281
     1
  3
ACAD_XREC_ROUNDTRIP
360
4676
  0
DICTIONARY
  5
4678
330
4677
100
AcDbDictionary
280
     1
281
     1
  3
ACAD_XREC_ROUNDTRIP
360
4679
  0
DICTIONARY
  5
467B
330
467A
100
AcDbDictionary
280
     1
281
     1
  3
ACAD_XREC_ROUNDTRIP
360
467C
  0
DICTIONARY
  5
57DC
330
56AA
100
AcDbDictionary
280
     1
281
     1
  3
ACAD_XREC_ROUNDTRIP
360
57DD
  0
DICTIONARY
  5
53C0
330
453
100
AcDbDictionary
280
     1
281
     1
  3
ACAD_ROUNDTRIP_2008_TABLESTYLE_CELLSTYLEMAP
360
579B
  3
ACAD_XREC_ROUNDTRIP
360
57A7
  0
DICTIONARY
  5
57B2
330
5336
100
AcDbDictionary
280
     1
281
     1
  3
ACAD_XREC_ROUNDTRIP
360
57B3
  0
DICTIONARY
  5
57B6
330
5338
100
AcDbDictionary
280
     1
281
     1
  3
ACAD_XREC_ROUNDTRIP
360
57B7
  0
DICTIONARY
  5
57B4
330
5337
100
AcDbDictionary
280
     1
281
     1
  3
ACAD_XREC_ROUNDTRIP
360
57B5
  0
DICTIONARY
  5
57B0
330
5335
100
AcDbDictionary
280
     1
281
     1
  3
ACAD_XREC_ROUNDTRIP
360
57B1
  0
DICTIONARY
  5
57BE
330
533C
100
AcDbDictionary
280
     1
281
     1
  3
ACAD_XREC_ROUNDTRIP
360
57BF
  0
DICTIONARY
  5
57C6
330
5340
100
AcDbDictionary
280
     1
281
     1
  3
ACAD_XREC_ROUNDTRIP
360
57C7
  0
DICTIONARY
  5
57B8
330
5339
100
AcDbDictionary
280
     1
281
     1
  3
ACAD_XREC_ROUNDTRIP
360
57B9
  0
DICTIONARY
  5
57BC
330
533B
100
AcDbDictionary
280
     1
281
     1
  3
ACAD_XREC_ROUNDTRIP
360
57BD
  0
DICTIONARY
  5
57CC
330
5343
100
AcDbDictionary
280
     1
281
     1
  3
ACAD_XREC_ROUNDTRIP
360
57CD
  0
DICTIONARY
  5
57C4
330
533F
100
AcDbDictionary
280
     1
281
     1
  3
ACAD_XREC_ROUNDTRIP
360
57C5
  0
DICTIONARY
  5
57A8
330
5331
100
AcDbDictionary
280
     1
281
     1
  3
ACAD_XREC_ROUNDTRIP
360
57A9
  0
DICTIONARY
  5
57AA
330
5332
100
AcDbDictionary
280
     1
281
     1
  3
ACAD_XREC_ROUNDTRIP
360
57AB
  0
DICTIONARY
  5
57AC
330
5333
100
AcDbDictionary
280
     1
281
     1
  3
ACAD_XREC_ROUNDTRIP
360
57AD
  0
DICTIONARY
  5
57AE
330
5334
100
AcDbDictionary
280
     1
281
     1
  3
ACAD_XREC_ROUNDTRIP
360
57AF
  0
DICTIONARY
  5
57D0
330
56A3
100
AcDbDictionary
280
     1
281
     1
  3
ACAD_XREC_ROUNDTRIP
360
57D1
  0
DICTIONARY
  5
57C8
330
5341
100
AcDbDictionary
280
     1
281
     1
  3
ACAD_XREC_ROUNDTRIP
360
57C9
  0
DICTIONARY
  5
57C2
330
533E
100
AcDbDictionary
280
     1
281
     1
  3
ACAD_XREC_ROUNDTRIP
360
57C3
  0
DICTIONARY
  5
57CA
330
5342
100
AcDbDictionary
280
     1
281
     1
  3
ACAD_XREC_ROUNDTRIP
360
57CB
  0
DICTIONARY
  5
57BA
330
533A
100
AcDbDictionary
280
     1
281
     1
  3
ACAD_XREC_ROUNDTRIP
360
57BB
  0
DICTIONARY
  5
57DA
330
56A8
100
AcDbDictionary
280
     1
281
     1
  3
ACAD_XREC_ROUNDTRIP
360
57DB
  0
DICTIONARY
  5
57D8
330
56A7
100
AcDbDictionary
280
     1
281
     1
  3
ACAD_XREC_ROUNDTRIP
360
57D9
  0
DICTIONARY
  5
57D2
330
56A4
100
AcDbDictionary
280
     1
281
     1
  3
ACAD_XREC_ROUNDTRIP
360
57D3
  0
DICTIONARY
  5
57D4
330
56A5
100
AcDbDictionary
280
     1
281
     1
  3
ACAD_XREC_ROUNDTRIP
360
57D5
  0
DICTIONARY
  5
57C0
330
533D
100
AcDbDictionary
280
     1
281
     1
  3
ACAD_XREC_ROUNDTRIP
360
57C1
  0
DICTIONARY
  5
57CE
330
56A2
100
AcDbDictionary
280
     1
281
     1
  3
ACAD_XREC_ROUNDTRIP
360
57CF
  0
DICTIONARY
  5
57D6
330
56A6
100
AcDbDictionary
280
     1
281
     1
  3
ACAD_XREC_ROUNDTRIP
360
57D7
  0
DICTIONARY
  5
5468
330
5467
100
AcDbDictionary
280
     1
281
     1
  3
AcadLayerStateAnnoScale
360
5469
  0
XRECORD
  5
57DF
102
{ACAD_REACTORS
330
57DE
102
}
330
57DE
100
AcDbXrecord
280
     1
102
DISPLAYNAME
  1
METRIC50
102
FLAGS
 90
        0
  0
XRECORD
  5
57A4
102
{ACAD_REACTORS
330
57A3
102
}
330
57A3
100
AcDbXrecord
280
     1
102
SHADEPLOT
 70
     0
102
SHADEPLOTRESLEVEL
 70
     2
102
SHADEPLOTCUSTOMDPI
 70
   300
  0
XRECORD
  5
57A2
102
{ACAD_REACTORS
330
57A1
102
}
330
57A1
100
AcDbXrecord
280
     1
102
SHADEPLOT
 70
     0
102
SHADEPLOTRESLEVEL
 70
     2
102
SHADEPLOTCUSTOMDPI
 70
   300
  0
XRECORD
  5
4676
102
{ACAD_REACTORS
330
4675
102
}
330
4675
100
AcDbXrecord
280
     1
102
MATERIAL
148
0.0
149
0.0
149
0.0
 93
        0
 94
      127
282
     0
 72
     1
 77
     1
171
     1
175
     1
179
     1
273
     0
  0
XRECORD
  5
4679
102
{ACAD_REACTORS
330
4678
102
}
330
4678
100
AcDbXrecord
280
     1
102
MATERIAL
148
0.0
149
0.0
149
0.0
 93
        0
 94
      127
282
     0
 72
     1
 77
     1
171
     1
175
     1
179
     1
273
     0
  0
XRECORD
  5
467C
102
{ACAD_REACTORS
330
467B
102
}
330
467B
100
AcDbXrecord
280
     1
102
MATERIAL
148
0.0
149
0.0
149
0.0
 93
        0
 94
      127
282
     0
 72
     1
 77
     1
171
     1
175
     1
179
     1
273
     0
  0
XRECORD
  5
57DD
102
{ACAD_REACTORS
330
57DC
102
}
330
57DC
100
AcDbXrecord
280
     1
102
DISPLAYNAME
  1
METRIC50
102
FLAGS
 90
        0
  0
CELLSTYLEMAP
  5
579B
102
{ACAD_REACTORS
330
53C0
102
}
330
53C0
100
AcDbCellStyleMap
 90
        3
300
CELLSTYLE
  1
TABLEFORMAT_BEGIN
 90
        5
170
     1
 91
        0
 92
    32768
 62
   257
 93
        1
300
CONTENTFORMAT
  1
CONTENTFORMAT_BEGIN
 90
        0
 91
        0
 92
        4
 93
        0
300

 40
0.0
140
1.0
 94
        5
 62
     0
340
17
144
6.0
309
CONTENTFORMAT_END
171
     1
301
MARGIN
  1
CELLMARGIN_BEGIN
 40
1.5
 40
1.5
 40
1.5
 40
1.5
 40
0.18
 40
0.18
309
CELLMARGIN_END
 94
        6
 95
        1
302
GRIDFORMAT
  1
GRIDFORMAT_BEGIN
 90
        0
 91
        1
 62
     0
 92
       -2
340
0
 93
        0
 40
0.045
309
GRIDFORMAT_END
 95
        2
302
GRIDFORMAT
  1
GRIDFORMAT_BEGIN
 90
        0
 91
        1
 62
     0
 92
       -2
340
0
 93
        0
 40
0.045
309
GRIDFORMAT_END
 95
        4
302
GRIDFORMAT
  1
GRIDFORMAT_BEGIN
 90
        0
 91
        1
 62
     0
 92
       -2
340
0
 93
        0
 40
0.045
309
GRIDFORMAT_END
 95
        8
302
GRIDFORMAT
  1
GRIDFORMAT_BEGIN
 90
        0
 91
        1
 62
     0
 92
       -2
340
0
 93
        0
 40
0.045
309
GRIDFORMAT_END
 95
       16
302
GRIDFORMAT
  1
GRIDFORMAT_BEGIN
 90
        0
 91
        1
 62
     0
 92
       -2
340
0
 93
        0
 40
0.045
309
GRIDFORMAT_END
 95
       32
302
GRIDFORMAT
  1
GRIDFORMAT_BEGIN
 90
        0
 91
        1
 62
     0
 92
       -2
340
0
 93
        0
 40
0.045
309
GRIDFORMAT_END
309
TABLEFORMAT_END
  1
CELLSTYLE_BEGIN
 90
        1
 91
        1
300
_TITLE
309
CELLSTYLE_END
300
CELLSTYLE
  1
TABLEFORMAT_BEGIN
 90
        5
170
     1
 91
        0
 92
        0
 62
   257
 93
        1
300
CONTENTFORMAT
  1
CONTENTFORMAT_BEGIN
 90
        0
 91
        0
 92
        4
 93
        0
300

 40
0.0
140
1.0
 94
        5
 62
     0
340
17
144
4.5
309
CONTENTFORMAT_END
171
     1
301
MARGIN
  1
CELLMARGIN_BEGIN
 40
1.5
 40
1.5
 40
1.5
 40
1.5
 40
0.18
 40
0.18
309
CELLMARGIN_END
 94
        6
 95
        1
302
GRIDFORMAT
  1
GRIDFORMAT_BEGIN
 90
        0
 91
        1
 62
     0
 92
       -2
340
0
 93
        0
 40
0.045
309
GRIDFORMAT_END
 95
        2
302
GRIDFORMAT
  1
GRIDFORMAT_BEGIN
 90
        0
 91
        1
 62
     0
 92
       -2
340
0
 93
        0
 40
0.045
309
GRIDFORMAT_END
 95
        4
302
GRIDFORMAT
  1
GRIDFORMAT_BEGIN
 90
        0
 91
        1
 62
     0
 92
       -2
340
0
 93
        0
 40
0.045
309
GRIDFORMAT_END
 95
        8
302
GRIDFORMAT
  1
GRIDFORMAT_BEGIN
 90
        0
 91
        1
 62
     0
 92
       -2
340
0
 93
        0
 40
0.045
309
GRIDFORMAT_END
 95
       16
302
GRIDFORMAT
  1
GRIDFORMAT_BEGIN
 90
        0
 91
        1
 62
     0
 92
       -2
340
0
 93
        0
 40
0.045
309
GRIDFORMAT_END
 95
       32
302
GRIDFORMAT
  1
GRIDFORMAT_BEGIN
 90
        0
 91
        1
 62
     0
 92
       -2
340
0
 93
        0
 40
0.045
309
GRIDFORMAT_END
309
TABLEFORMAT_END
  1
CELLSTYLE_BEGIN
 90
        2
 91
        1
300
_HEADER
309
CELLSTYLE_END
300
CELLSTYLE
  1
TABLEFORMAT_BEGIN
 90
        5
170
     1
 91
        0
 92
        0
 62
   257
 93
        1
300
CONTENTFORMAT
  1
CONTENTFORMAT_BEGIN
 90
        0
 91
        0
 92
        4
 93
        0
300

 40
0.0
140
1.0
 94
        2
 62
     0
340
17
144
4.5
309
CONTENTFORMAT_END
171
     1
301
MARGIN
  1
CELLMARGIN_BEGIN
 40
1.5
 40
1.5
 40
1.5
 40
1.5
 40
0.18
 40
0.18
309
CELLMARGIN_END
 94
        6
 95
        1
302
GRIDFORMAT
  1
GRIDFORMAT_BEGIN
 90
        0
 91
        1
 62
     0
 92
       -2
340
0
 93
        0
 40
0.045
309
GRIDFORMAT_END
 95
        2
302
GRIDFORMAT
  1
GRIDFORMAT_BEGIN
 90
        0
 91
        1
 62
     0
 92
       -2
340
0
 93
        0
 40
0.045
309
GRIDFORMAT_END
 95
        4
302
GRIDFORMAT
  1
GRIDFORMAT_BEGIN
 90
        0
 91
        1
 62
     0
 92
       -2
340
0
 93
        0
 40
0.045
309
GRIDFORMAT_END
 95
        8
302
GRIDFORMAT
  1
GRIDFORMAT_BEGIN
 90
        0
 91
        1
 62
     0
 92
       -2
340
0
 93
        0
 40
0.045
309
GRIDFORMAT_END
 95
       16
302
GRIDFORMAT
  1
GRIDFORMAT_BEGIN
 90
        0
 91
        1
 62
     0
 92
       -2
340
0
 93
        0
 40
0.045
309
GRIDFORMAT_END
 95
       32
302
GRIDFORMAT
  1
GRIDFORMAT_BEGIN
 90
        0
 91
        1
 62
     0
 92
       -2
340
0
 93
        0
 40
0.045
309
GRIDFORMAT_END
309
TABLEFORMAT_END
  1
CELLSTYLE_BEGIN
 90
        3
 91
        2
300
_DATA
309
CELLSTYLE_END
  0
XRECORD
  5
57A7
102
{ACAD_REACTORS
330
53C0
102
}
330
53C0
100
AcDbXrecord
280
     1
102
ACAD_ROUNDTRIP_PRE2007_TABLESTYLE
 90
        4
 91
        0
  1

 92
        4
 93
        0
  2

 94
        4
 95
        0
  3

  0
XRECORD
  5
57B3
102
{ACAD_REACTORS
330
57B2
102
}
330
57B2
100
AcDbXrecord
280
     1
102
RTVSPost2010Prop28
280
     1
102
RTVSPost2010PropOp28
 70
     1
102
RTVSPost2010Prop29
280
     1
102
RTVSPost2010PropOp29
 70
     1
102
RTVSPost2010Prop30
280
     0
102
RTVSPost2010PropOp30
 70
     1
102
RTVSPost2010Prop31
280
     0
102
RTVSPost2010PropOp31
 70
     1
102
RTVSPost2010Prop32
280
     0
102
RTVSPost2010PropOp32
 70
     1
102
RTVSPost2010Prop33
280
     0
102
RTVSPost2010PropOp33
 70
     1
102
RTVSPost2010Prop34
280
     0
102
RTVSPost2010PropOp34
 70
     1
102
RTVSPost2010Prop35
280
     0
102
RTVSPost2010PropOp35
 70
     1
102
RTVSPost2010Prop36
280
     0
102
RTVSPost2010PropOp36
 70
     1
102
RTVSPost2010Prop37
 90
       50
102
RTVSPost2010PropOp37
 70
     1
102
RTVSPost2010Prop38
140
0.0
102
RTVSPost2010PropOp38
 70
     1
102
RTVSPost2010Prop39
140
1.0
102
RTVSPost2010PropOp39
 70
     1
102
RTVSPost2010Prop40
 90
        0
102
RTVSPost2010PropOp40
 70
     1
102
RTVSPost2010Prop41ColorIndex
 90
       18
102
RTVSPost2010Prop41ColorRGB
 90
        0
102
RTVSPost2010PropOp41
 70
     1
102
RTVSPost2010Prop42
 90
       50
102
RTVSPost2010PropOp42
 70
     1
102
RTVSPost2010Prop43
 90
        3
102
RTVSPost2010PropOp43
 70
     1
102
RTVSPost2010Prop44ColorIndex
 90
        5
102
RTVSPost2010Prop44ColorRGB
 90
      255
102
RTVSPost2010PropOp44
 70
     1
102
RTVSPost2010Prop45
280
     0
102
RTVSPost2010PropOp45
 70
     1
102
RTVSPost2010Prop46
 90
       50
102
RTVSPost2010PropOp46
 70
     1
102
RTVSPost2010Prop47
 90
       50
102
RTVSPost2010PropOp47
 70
     1
102
RTVSPost2010Prop48
 90
       50
102
RTVSPost2010PropOp48
 70
     1
102
RTVSPost2010Prop49
280
     0
102
RTVSPost2010PropOp49
 70
     1
102
RTVSPost2010Prop50
 90
       50
102
RTVSPost2010PropOp50
 70
     1
102
RTVSPost2010Prop51ColorIndex
 90
      256
102
RTVSPost2010Prop51ColorRGB
 90
-16777216
102
RTVSPost2010PropOp51
 70
     0
102
RTVSPost2010Prop52
140
1.0
102
RTVSPost2010PropOp52
 70
     0
102
RTVSPost2010Prop53
 90
        2
102
RTVSPost2010PropOp53
 70
     1
102
RTVSPost2010Prop54
  1
strokes_ogs.tif
102
RTVSPost2010PropOp54
 70
     1
102
RTVSPost2010Prop55
280
     0
102
RTVSPost2010PropOp55
 70
     1
102
RTVSPost2010Prop56
140
1.0
102
RTVSPost2010PropOp56
 70
     1
102
RTVSPost2010Prop57
140
1.0
102
RTVSPost2010PropOp57
 70
     1
102
RTVSPropertyOp0
 70
     1
102
RTVSPropertyOp1
 70
     1
102
RTVSPropertyOp2
 70
     1
102
RTVSPropertyOp3
 70
     1
102
RTVSPropertyOp4
 70
     1
102
RTVSPropertyOp5
 70
     1
102
RTVSPropertyOp6
 70
     1
102
RTVSPropertyOp7
 70
     1
102
RTVSPropertyOp8
 70
     1
102
RTVSPropertyOp9
 70
     1
102
RTVSPropertyOp10
 70
     1
102
RTVSPropertyOp11
 70
     1
102
RTVSPropertyOp12
 70
     1
102
RTVSPropertyOp13
 70
     1
102
RTVSPropertyOp14
 70
     1
102
RTVSPropertyOp15
 70
     1
102
RTVSPropertyOp16
 70
     1
102
RTVSPropertyOp17
 70
     1
102
RTVSPropertyOp18
 70
     1
102
RTVSPropertyOp19
 70
     1
102
RTVSPropertyOp20
 70
     1
102
RTVSPropertyOp21
 70
     1
102
RTVSPropertyOp22
 70
     1
102
RTVSPropertyOp23
 70
     1
102
RTVSPropertyOp24
 70
     1
102
RTVSPropertyOp25
 70
     1
102
RTVSPropertyOp26
 70
     1
102
RTVSPropertyOp27
 70
     1
102
RTVSPropertyOp28
 70
     1
102
RTVSPropertyOp29
 70
     1
102
RTVSPropertyOp30
 70
     1
102
RTVSPropertyOp31
 70
     1
102
RTVSPropertyOp32
 70
     1
102
RTVSPropertyOp33
 70
     1
102
RTVSPropertyOp34
 70
     1
102
RTVSPropertyOp35
 70
     1
102
RTVSPropertyOp36
 70
     1
102
RTVSPropertyOp37
 70
     1
102
RTVSPropertyOp38
 70
     1
102
RTVSPropertyOp39
 70
     1
102
RTVSPropertyOp40
 70
     1
102
RTVSPropertyOp41
 70
     1
102
RTVSPropertyOp42
 70
     1
102
RTVSPropertyOp43
 70
     1
102
RTVSPropertyOp44
 70
     1
102
RTVSPropertyOp45
 70
     1
102
RTVSPropertyOp46
 70
     1
102
RTVSPropertyOp47
 70
     1
102
RTVSPropertyOp48
 70
     1
102
RTVSPropertyOp49
 70
     1
102
RTVSPropertyOp50
 70
     1
102
RTVSPropertyOp51
 70
     0
102
RTVSPropertyOp52
 70
     0
102
RTVSPropertyOp53
 70
     1
102
RTVSPropertyOp54
 70
     1
102
RTVSPropertyOp55
 70
     1
102
RTVSPropertyOp56
 70
     1
102
RTVSPropertyOp57
 70
     1
102
RTVSPropertyOp58
 70
     1
102
RTVSPropertyOp59
 70
     1
102
RTVSPropertyOp60
 70
     1
102
RTVSPropertyOp61
 70
     1
102
RTVSPropertyOp62
 70
     1
  0
XRECORD
  5
57B7
102
{ACAD_REACTORS
330
57B6
102
}
330
57B6
100
AcDbXrecord
280
     1
102
RTVSPost2010Prop28
280
     0
102
RTVSPost2010PropOp28
 70
     1
102
RTVSPost2010Prop29
280
     1
102
RTVSPost2010PropOp29
 70
     1
102
RTVSPost2010Prop30
280
     1
102
RTVSPost2010PropOp30
 70
     1
102
RTVSPost2010Prop31
280
     0
102
RTVSPost2010PropOp31
 70
     1
102
RTVSPost2010Prop32
280
     0
102
RTVSPost2010PropOp32
 70
     1
102
RTVSPost2010Prop33
280
     0
102
RTVSPost2010PropOp33
 70
     1
102
RTVSPost2010Prop34
280
     0
102
RTVSPost2010PropOp34
 70
     1
102
RTVSPost2010Prop35
280
     0
102
RTVSPost2010PropOp35
 70
     1
102
RTVSPost2010Prop36
280
     0
102
RTVSPost2010PropOp36
 70
     1
102
RTVSPost2010Prop37
 90
       50
102
RTVSPost2010PropOp37
 70
     1
102
RTVSPost2010Prop38
140
0.0
102
RTVSPost2010PropOp38
 70
     1
102
RTVSPost2010Prop39
140
1.0
102
RTVSPost2010PropOp39
 70
     1
102
RTVSPost2010Prop40
 90
        0
102
RTVSPost2010PropOp40
 70
     1
102
RTVSPost2010Prop41ColorIndex
 90
       18
102
RTVSPost2010Prop41ColorRGB
 90
        0
102
RTVSPost2010PropOp41
 70
     1
102
RTVSPost2010Prop42
 90
       50
102
RTVSPost2010PropOp42
 70
     1
102
RTVSPost2010Prop43
 90
        3
102
RTVSPost2010PropOp43
 70
     1
102
RTVSPost2010Prop44ColorIndex
 90
        5
102
RTVSPost2010Prop44ColorRGB
 90
      255
102
RTVSPost2010PropOp44
 70
     1
102
RTVSPost2010Prop45
280
     0
102
RTVSPost2010PropOp45
 70
     1
102
RTVSPost2010Prop46
 90
       50
102
RTVSPost2010PropOp46
 70
     1
102
RTVSPost2010Prop47
 90
       50
102
RTVSPost2010PropOp47
 70
     1
102
RTVSPost2010Prop48
 90
       50
102
RTVSPost2010PropOp48
 70
     1
102
RTVSPost2010Prop49
280
     0
102
RTVSPost2010PropOp49
 70
     1
102
RTVSPost2010Prop50
 90
       50
102
RTVSPost2010PropOp50
 70
     1
102
RTVSPost2010Prop51ColorIndex
 90
      256
102
RTVSPost2010Prop51ColorRGB
 90
-16777216
102
RTVSPost2010PropOp51
 70
     0
102
RTVSPost2010Prop52
140
1.0
102
RTVSPost2010PropOp52
 70
     0
102
RTVSPost2010Prop53
 90
        2
102
RTVSPost2010PropOp53
 70
     1
102
RTVSPost2010Prop54
  1
strokes_ogs.tif
102
RTVSPost2010PropOp54
 70
     1
102
RTVSPost2010Prop55
280
     0
102
RTVSPost2010PropOp55
 70
     1
102
RTVSPost2010Prop56
140
1.0
102
RTVSPost2010PropOp56
 70
     1
102
RTVSPost2010Prop57
140
1.0
102
RTVSPost2010PropOp57
 70
     1
102
RTVSPropertyOp0
 70
     1
102
RTVSPropertyOp1
 70
     1
102
RTVSPropertyOp2
 70
     1
102
RTVSPropertyOp3
 70
     1
102
RTVSPropertyOp4
 70
     1
102
RTVSPropertyOp5
 70
     1
102
RTVSPropertyOp6
 70
     1
102
RTVSPropertyOp7
 70
     1
102
RTVSPropertyOp8
 70
     1
102
RTVSPropertyOp9
 70
     1
102
RTVSPropertyOp10
 70
     1
102
RTVSPropertyOp11
 70
     1
102
RTVSPropertyOp12
 70
     1
102
RTVSPropertyOp13
 70
     1
102
RTVSPropertyOp14
 70
     1
102
RTVSPropertyOp15
 70
     1
102
RTVSPropertyOp16
 70
     1
102
RTVSPropertyOp17
 70
     1
102
RTVSPropertyOp18
 70
     1
102
RTVSPropertyOp19
 70
     1
102
RTVSPropertyOp20
 70
     1
102
RTVSPropertyOp21
 70
     1
102
RTVSPropertyOp22
 70
     1
102
RTVSPropertyOp23
 70
     1
102
RTVSPropertyOp24
 70
     1
102
RTVSPropertyOp25
 70
     1
102
RTVSPropertyOp26
 70
     1
102
RTVSPropertyOp27
 70
     1
102
RTVSPropertyOp28
 70
     1
102
RTVSPropertyOp29
 70
     1
102
RTVSPropertyOp30
 70
     1
102
RTVSPropertyOp31
 70
     1
102
RTVSPropertyOp32
 70
     1
102
RTVSPropertyOp33
 70
     1
102
RTVSPropertyOp34
 70
     1
102
RTVSPropertyOp35
 70
     1
102
RTVSPropertyOp36
 70
     1
102
RTVSPropertyOp37
 70
     1
102
RTVSPropertyOp38
 70
     1
102
RTVSPropertyOp39
 70
     1
102
RTVSPropertyOp40
 70
     1
102
RTVSPropertyOp41
 70
     1
102
RTVSPropertyOp42
 70
     1
102
RTVSPropertyOp43
 70
     1
102
RTVSPropertyOp44
 70
     1
102
RTVSPropertyOp45
 70
     1
102
RTVSPropertyOp46
 70
     1
102
RTVSPropertyOp47
 70
     1
102
RTVSPropertyOp48
 70
     1
102
RTVSPropertyOp49
 70
     1
102
RTVSPropertyOp50
 70
     1
102
RTVSPropertyOp51
 70
     0
102
RTVSPropertyOp52
 70
     0
102
RTVSPropertyOp53
 70
     1
102
RTVSPropertyOp54
 70
     1
102
RTVSPropertyOp55
 70
     1
102
RTVSPropertyOp56
 70
     1
102
RTVSPropertyOp57
 70
     1
102
RTVSPropertyOp58
 70
     1
102
RTVSPropertyOp59
 70
     1
102
RTVSPropertyOp60
 70
     1
102
RTVSPropertyOp61
 70
     1
102
RTVSPropertyOp62
 70
     1
  0
XRECORD
  5
57B5
102
{ACAD_REACTORS
330
57B4
102
}
330
57B4
100
AcDbXrecord
280
     1
102
RTVSPost2010Prop28
280
     0
102
RTVSPost2010PropOp28
 70
     1
102
RTVSPost2010Prop29
280
     1
102
RTVSPost2010PropOp29
 70
     1
102
RTVSPost2010Prop30
280
     1
102
RTVSPost2010PropOp30
 70
     1
102
RTVSPost2010Prop31
280
     0
102
RTVSPost2010PropOp31
 70
     1
102
RTVSPost2010Prop32
280
     0
102
RTVSPost2010PropOp32
 70
     1
102
RTVSPost2010Prop33
280
     0
102
RTVSPost2010PropOp33
 70
     1
102
RTVSPost2010Prop34
280
     0
102
RTVSPost2010PropOp34
 70
     1
102
RTVSPost2010Prop35
280
     0
102
RTVSPost2010PropOp35
 70
     1
102
RTVSPost2010Prop36
280
     0
102
RTVSPost2010PropOp36
 70
     1
102
RTVSPost2010Prop37
 90
       50
102
RTVSPost2010PropOp37
 70
     1
102
RTVSPost2010Prop38
140
0.0
102
RTVSPost2010PropOp38
 70
     1
102
RTVSPost2010Prop39
140
1.0
102
RTVSPost2010PropOp39
 70
     1
102
RTVSPost2010Prop40
 90
        0
102
RTVSPost2010PropOp40
 70
     1
102
RTVSPost2010Prop41ColorIndex
 90
       18
102
RTVSPost2010Prop41ColorRGB
 90
        0
102
RTVSPost2010PropOp41
 70
     1
102
RTVSPost2010Prop42
 90
       50
102
RTVSPost2010PropOp42
 70
     1
102
RTVSPost2010Prop43
 90
        3
102
RTVSPost2010PropOp43
 70
     1
102
RTVSPost2010Prop44ColorIndex
 90
        5
102
RTVSPost2010Prop44ColorRGB
 90
      255
102
RTVSPost2010PropOp44
 70
     1
102
RTVSPost2010Prop45
280
     0
102
RTVSPost2010PropOp45
 70
     1
102
RTVSPost2010Prop46
 90
       50
102
RTVSPost2010PropOp46
 70
     1
102
RTVSPost2010Prop47
 90
       50
102
RTVSPost2010PropOp47
 70
     1
102
RTVSPost2010Prop48
 90
       50
102
RTVSPost2010PropOp48
 70
     1
102
RTVSPost2010Prop49
280
     0
102
RTVSPost2010PropOp49
 70
     1
102
RTVSPost2010Prop50
 90
       50
102
RTVSPost2010PropOp50
 70
     1
102
RTVSPost2010Prop51ColorIndex
 90
      256
102
RTVSPost2010Prop51ColorRGB
 90
-16777216
102
RTVSPost2010PropOp51
 70
     0
102
RTVSPost2010Prop52
140
1.0
102
RTVSPost2010PropOp52
 70
     0
102
RTVSPost2010Prop53
 90
        2
102
RTVSPost2010PropOp53
 70
     1
102
RTVSPost2010Prop54
  1
strokes_ogs.tif
102
RTVSPost2010PropOp54
 70
     1
102
RTVSPost2010Prop55
280
     0
102
RTVSPost2010PropOp55
 70
     1
102
RTVSPost2010Prop56
140
1.0
102
RTVSPost2010PropOp56
 70
     1
102
RTVSPost2010Prop57
140
1.0
102
RTVSPost2010PropOp57
 70
     1
102
RTVSPropertyOp0
 70
     1
102
RTVSPropertyOp1
 70
     1
102
RTVSPropertyOp2
 70
     1
102
RTVSPropertyOp3
 70
     1
102
RTVSPropertyOp4
 70
     1
102
RTVSPropertyOp5
 70
     1
102
RTVSPropertyOp6
 70
     1
102
RTVSPropertyOp7
 70
     1
102
RTVSPropertyOp8
 70
     1
102
RTVSPropertyOp9
 70
     1
102
RTVSPropertyOp10
 70
     1
102
RTVSPropertyOp11
 70
     1
102
RTVSPropertyOp12
 70
     1
102
RTVSPropertyOp13
 70
     1
102
RTVSPropertyOp14
 70
     1
102
RTVSPropertyOp15
 70
     1
102
RTVSPropertyOp16
 70
     1
102
RTVSPropertyOp17
 70
     1
102
RTVSPropertyOp18
 70
     1
102
RTVSPropertyOp19
 70
     1
102
RTVSPropertyOp20
 70
     1
102
RTVSPropertyOp21
 70
     1
102
RTVSPropertyOp22
 70
     1
102
RTVSPropertyOp23
 70
     1
102
RTVSPropertyOp24
 70
     1
102
RTVSPropertyOp25
 70
     1
102
RTVSPropertyOp26
 70
     1
102
RTVSPropertyOp27
 70
     1
102
RTVSPropertyOp28
 70
     1
102
RTVSPropertyOp29
 70
     1
102
RTVSPropertyOp30
 70
     1
102
RTVSPropertyOp31
 70
     1
102
RTVSPropertyOp32
 70
     1
102
RTVSPropertyOp33
 70
     1
102
RTVSPropertyOp34
 70
     1
102
RTVSPropertyOp35
 70
     1
102
RTVSPropertyOp36
 70
     1
102
RTVSPropertyOp37
 70
     1
102
RTVSPropertyOp38
 70
     1
102
RTVSPropertyOp39
 70
     1
102
RTVSPropertyOp40
 70
     1
102
RTVSPropertyOp41
 70
     1
102
RTVSPropertyOp42
 70
     1
102
RTVSPropertyOp43
 70
     1
102
RTVSPropertyOp44
 70
     1
102
RTVSPropertyOp45
 70
     1
102
RTVSPropertyOp46
 70
     1
102
RTVSPropertyOp47
 70
     1
102
RTVSPropertyOp48
 70
     1
102
RTVSPropertyOp49
 70
     1
102
RTVSPropertyOp50
 70
     1
102
RTVSPropertyOp51
 70
     0
102
RTVSPropertyOp52
 70
     0
102
RTVSPropertyOp53
 70
     1
102
RTVSPropertyOp54
 70
     1
102
RTVSPropertyOp55
 70
     1
102
RTVSPropertyOp56
 70
     1
102
RTVSPropertyOp57
 70
     1
102
RTVSPropertyOp58
 70
     1
102
RTVSPropertyOp59
 70
     1
102
RTVSPropertyOp60
 70
     1
102
RTVSPropertyOp61
 70
     1
102
RTVSPropertyOp62
 70
     1
  0
XRECORD
  5
57B1
102
{ACAD_REACTORS
330
57B0
102
}
330
57B0
100
AcDbXrecord
280
     1
102
RTVSPost2010Prop28
280
     0
102
RTVSPost2010PropOp28
 70
     1
102
RTVSPost2010Prop29
280
     1
102
RTVSPost2010PropOp29
 70
     1
102
RTVSPost2010Prop30
280
     1
102
RTVSPost2010PropOp30
 70
     1
102
RTVSPost2010Prop31
280
     0
102
RTVSPost2010PropOp31
 70
     1
102
RTVSPost2010Prop32
280
     0
102
RTVSPost2010PropOp32
 70
     1
102
RTVSPost2010Prop33
280
     0
102
RTVSPost2010PropOp33
 70
     1
102
RTVSPost2010Prop34
280
     0
102
RTVSPost2010PropOp34
 70
     1
102
RTVSPost2010Prop35
280
     0
102
RTVSPost2010PropOp35
 70
     1
102
RTVSPost2010Prop36
280
     0
102
RTVSPost2010PropOp36
 70
     1
102
RTVSPost2010Prop37
 90
       50
102
RTVSPost2010PropOp37
 70
     1
102
RTVSPost2010Prop38
140
0.0
102
RTVSPost2010PropOp38
 70
     1
102
RTVSPost2010Prop39
140
1.0
102
RTVSPost2010PropOp39
 70
     1
102
RTVSPost2010Prop40
 90
        0
102
RTVSPost2010PropOp40
 70
     1
102
RTVSPost2010Prop41ColorIndex
 90
       18
102
RTVSPost2010Prop41ColorRGB
 90
        0
102
RTVSPost2010PropOp41
 70
     1
102
RTVSPost2010Prop42
 90
       50
102
RTVSPost2010PropOp42
 70
     1
102
RTVSPost2010Prop43
 90
        3
102
RTVSPost2010PropOp43
 70
     1
102
RTVSPost2010Prop44ColorIndex
 90
        5
102
RTVSPost2010Prop44ColorRGB
 90
      255
102
RTVSPost2010PropOp44
 70
     1
102
RTVSPost2010Prop45
280
     0
102
RTVSPost2010PropOp45
 70
     1
102
RTVSPost2010Prop46
 90
       50
102
RTVSPost2010PropOp46
 70
     1
102
RTVSPost2010Prop47
 90
       50
102
RTVSPost2010PropOp47
 70
     1
102
RTVSPost2010Prop48
 90
       50
102
RTVSPost2010PropOp48
 70
     1
102
RTVSPost2010Prop49
280
     0
102
RTVSPost2010PropOp49
 70
     1
102
RTVSPost2010Prop50
 90
       50
102
RTVSPost2010PropOp50
 70
     1
102
RTVSPost2010Prop51ColorIndex
 90
      256
102
RTVSPost2010Prop51ColorRGB
 90
-16777216
102
RTVSPost2010PropOp51
 70
     0
102
RTVSPost2010Prop52
140
1.0
102
RTVSPost2010PropOp52
 70
     0
102
RTVSPost2010Prop53
 90
        2
102
RTVSPost2010PropOp53
 70
     1
102
RTVSPost2010Prop54
  1
strokes_ogs.tif
102
RTVSPost2010PropOp54
 70
     1
102
RTVSPost2010Prop55
280
     0
102
RTVSPost2010PropOp55
 70
     1
102
RTVSPost2010Prop56
140
1.0
102
RTVSPost2010PropOp56
 70
     1
102
RTVSPost2010Prop57
140
1.0
102
RTVSPost2010PropOp57
 70
     1
102
RTVSPropertyOp0
 70
     1
102
RTVSPropertyOp1
 70
     1
102
RTVSPropertyOp2
 70
     1
102
RTVSPropertyOp3
 70
     1
102
RTVSPropertyOp4
 70
     1
102
RTVSPropertyOp5
 70
     1
102
RTVSPropertyOp6
 70
     1
102
RTVSPropertyOp7
 70
     1
102
RTVSPropertyOp8
 70
     1
102
RTVSPropertyOp9
 70
     1
102
RTVSPropertyOp10
 70
     1
102
RTVSPropertyOp11
 70
     1
102
RTVSPropertyOp12
 70
     1
102
RTVSPropertyOp13
 70
     1
102
RTVSPropertyOp14
 70
     1
102
RTVSPropertyOp15
 70
     1
102
RTVSPropertyOp16
 70
     1
102
RTVSPropertyOp17
 70
     1
102
RTVSPropertyOp18
 70
     1
102
RTVSPropertyOp19
 70
     1
102
RTVSPropertyOp20
 70
     1
102
RTVSPropertyOp21
 70
     1
102
RTVSPropertyOp22
 70
     1
102
RTVSPropertyOp23
 70
     1
102
RTVSPropertyOp24
 70
     1
102
RTVSPropertyOp25
 70
     1
102
RTVSPropertyOp26
 70
     1
102
RTVSPropertyOp27
 70
     1
102
RTVSPropertyOp28
 70
     1
102
RTVSPropertyOp29
 70
     1
102
RTVSPropertyOp30
 70
     1
102
RTVSPropertyOp31
 70
     1
102
RTVSPropertyOp32
 70
     1
102
RTVSPropertyOp33
 70
     1
102
RTVSPropertyOp34
 70
     1
102
RTVSPropertyOp35
 70
     1
102
RTVSPropertyOp36
 70
     1
102
RTVSPropertyOp37
 70
     1
102
RTVSPropertyOp38
 70
     1
102
RTVSPropertyOp39
 70
     1
102
RTVSPropertyOp40
 70
     1
102
RTVSPropertyOp41
 70
     1
102
RTVSPropertyOp42
 70
     1
102
RTVSPropertyOp43
 70
     1
102
RTVSPropertyOp44
 70
     1
102
RTVSPropertyOp45
 70
     1
102
RTVSPropertyOp46
 70
     1
102
RTVSPropertyOp47
 70
     1
102
RTVSPropertyOp48
 70
     1
102
RTVSPropertyOp49
 70
     1
102
RTVSPropertyOp50
 70
     1
102
RTVSPropertyOp51
 70
     0
102
RTVSPropertyOp52
 70
     0
102
RTVSPropertyOp53
 70
     1
102
RTVSPropertyOp54
 70
     1
102
RTVSPropertyOp55
 70
     1
102
RTVSPropertyOp56
 70
     1
102
RTVSPropertyOp57
 70
     1
102
RTVSPropertyOp58
 70
     1
102
RTVSPropertyOp59
 70
     1
102
RTVSPropertyOp60
 70
     1
102
RTVSPropertyOp61
 70
     1
102
RTVSPropertyOp62
 70
     1
  0
XRECORD
  5
57BF
102
{ACAD_REACTORS
330
57BE
102
}
330
57BE
100
AcDbXrecord
280
     1
102
RTVSPost2010Prop28
280
     0
102
RTVSPost2010PropOp28
 70
     1
102
RTVSPost2010Prop29
280
     1
102
RTVSPost2010PropOp29
 70
     1
102
RTVSPost2010Prop30
280
     1
102
RTVSPost2010PropOp30
 70
     1
102
RTVSPost2010Prop31
280
     0
102
RTVSPost2010PropOp31
 70
     1
102
RTVSPost2010Prop32
280
     0
102
RTVSPost2010PropOp32
 70
     1
102
RTVSPost2010Prop33
280
     0
102
RTVSPost2010PropOp33
 70
     1
102
RTVSPost2010Prop34
280
     0
102
RTVSPost2010PropOp34
 70
     1
102
RTVSPost2010Prop35
280
     0
102
RTVSPost2010PropOp35
 70
     1
102
RTVSPost2010Prop36
280
     0
102
RTVSPost2010PropOp36
 70
     1
102
RTVSPost2010Prop37
 90
       50
102
RTVSPost2010PropOp37
 70
     1
102
RTVSPost2010Prop38
140
0.0
102
RTVSPost2010PropOp38
 70
     1
102
RTVSPost2010Prop39
140
1.0
102
RTVSPost2010PropOp39
 70
     1
102
RTVSPost2010Prop40
 90
        0
102
RTVSPost2010PropOp40
 70
     1
102
RTVSPost2010Prop41ColorIndex
 90
       18
102
RTVSPost2010Prop41ColorRGB
 90
        0
102
RTVSPost2010PropOp41
 70
     1
102
RTVSPost2010Prop42
 90
       50
102
RTVSPost2010PropOp42
 70
     1
102
RTVSPost2010Prop43
 90
        3
102
RTVSPost2010PropOp43
 70
     1
102
RTVSPost2010Prop44ColorIndex
 90
        5
102
RTVSPost2010Prop44ColorRGB
 90
      255
102
RTVSPost2010PropOp44
 70
     1
102
RTVSPost2010Prop45
280
     0
102
RTVSPost2010PropOp45
 70
     1
102
RTVSPost2010Prop46
 90
       50
102
RTVSPost2010PropOp46
 70
     1
102
RTVSPost2010Prop47
 90
       50
102
RTVSPost2010PropOp47
 70
     1
102
RTVSPost2010Prop48
 90
       50
102
RTVSPost2010PropOp48
 70
     1
102
RTVSPost2010Prop49
280
     0
102
RTVSPost2010PropOp49
 70
     1
102
RTVSPost2010Prop50
 90
       50
102
RTVSPost2010PropOp50
 70
     1
102
RTVSPost2010Prop51ColorIndex
 90
      256
102
RTVSPost2010Prop51ColorRGB
 90
-16777216
102
RTVSPost2010PropOp51
 70
     0
102
RTVSPost2010Prop52
140
1.0
102
RTVSPost2010PropOp52
 70
     0
102
RTVSPost2010Prop53
 90
        2
102
RTVSPost2010PropOp53
 70
     1
102
RTVSPost2010Prop54
  1
strokes_ogs.tif
102
RTVSPost2010PropOp54
 70
     1
102
RTVSPost2010Prop55
280
     0
102
RTVSPost2010PropOp55
 70
     1
102
RTVSPost2010Prop56
140
1.0
102
RTVSPost2010PropOp56
 70
     1
102
RTVSPost2010Prop57
140
1.0
102
RTVSPost2010PropOp57
 70
     1
102
RTVSPropertyOp0
 70
     1
102
RTVSPropertyOp1
 70
     1
102
RTVSPropertyOp2
 70
     1
102
RTVSPropertyOp3
 70
     1
102
RTVSPropertyOp4
 70
     1
102
RTVSPropertyOp5
 70
     1
102
RTVSPropertyOp6
 70
     1
102
RTVSPropertyOp7
 70
     1
102
RTVSPropertyOp8
 70
     1
102
RTVSPropertyOp9
 70
     1
102
RTVSPropertyOp10
 70
     1
102
RTVSPropertyOp11
 70
     1
102
RTVSPropertyOp12
 70
     1
102
RTVSPropertyOp13
 70
     1
102
RTVSPropertyOp14
 70
     1
102
RTVSPropertyOp15
 70
     1
102
RTVSPropertyOp16
 70
     1
102
RTVSPropertyOp17
 70
     1
102
RTVSPropertyOp18
 70
     1
102
RTVSPropertyOp19
 70
     1
102
RTVSPropertyOp20
 70
     1
102
RTVSPropertyOp21
 70
     1
102
RTVSPropertyOp22
 70
     1
102
RTVSPropertyOp23
 70
     1
102
RTVSPropertyOp24
 70
     1
102
RTVSPropertyOp25
 70
     1
102
RTVSPropertyOp26
 70
     1
102
RTVSPropertyOp27
 70
     1
102
RTVSPropertyOp28
 70
     1
102
RTVSPropertyOp29
 70
     1
102
RTVSPropertyOp30
 70
     1
102
RTVSPropertyOp31
 70
     1
102
RTVSPropertyOp32
 70
     1
102
RTVSPropertyOp33
 70
     1
102
RTVSPropertyOp34
 70
     1
102
RTVSPropertyOp35
 70
     1
102
RTVSPropertyOp36
 70
     1
102
RTVSPropertyOp37
 70
     1
102
RTVSPropertyOp38
 70
     1
102
RTVSPropertyOp39
 70
     1
102
RTVSPropertyOp40
 70
     1
102
RTVSPropertyOp41
 70
     1
102
RTVSPropertyOp42
 70
     1
102
RTVSPropertyOp43
 70
     1
102
RTVSPropertyOp44
 70
     1
102
RTVSPropertyOp45
 70
     1
102
RTVSPropertyOp46
 70
     1
102
RTVSPropertyOp47
 70
     1
102
RTVSPropertyOp48
 70
     1
102
RTVSPropertyOp49
 70
     1
102
RTVSPropertyOp50
 70
     1
102
RTVSPropertyOp51
 70
     0
102
RTVSPropertyOp52
 70
     0
102
RTVSPropertyOp53
 70
     1
102
RTVSPropertyOp54
 70
     1
102
RTVSPropertyOp55
 70
     1
102
RTVSPropertyOp56
 70
     1
102
RTVSPropertyOp57
 70
     1
102
RTVSPropertyOp58
 70
     1
102
RTVSPropertyOp59
 70
     1
102
RTVSPropertyOp60
 70
     1
102
RTVSPropertyOp61
 70
     1
102
RTVSPropertyOp62
 70
     1
  0
XRECORD
  5
57C7
102
{ACAD_REACTORS
330
57C6
102
}
330
57C6
100
AcDbXrecord
280
     1
102
RTVSPost2010Prop28
280
     0
102
RTVSPost2010PropOp28
 70
     1
102
RTVSPost2010Prop29
280
     1
102
RTVSPost2010PropOp29
 70
     1
102
RTVSPost2010Prop30
280
     1
102
RTVSPost2010PropOp30
 70
     1
102
RTVSPost2010Prop31
280
     0
102
RTVSPost2010PropOp31
 70
     1
102
RTVSPost2010Prop32
280
     0
102
RTVSPost2010PropOp32
 70
     1
102
RTVSPost2010Prop33
280
     0
102
RTVSPost2010PropOp33
 70
     1
102
RTVSPost2010Prop34
280
     0
102
RTVSPost2010PropOp34
 70
     1
102
RTVSPost2010Prop35
280
     0
102
RTVSPost2010PropOp35
 70
     1
102
RTVSPost2010Prop36
280
     0
102
RTVSPost2010PropOp36
 70
     1
102
RTVSPost2010Prop37
 90
       50
102
RTVSPost2010PropOp37
 70
     1
102
RTVSPost2010Prop38
140
0.0
102
RTVSPost2010PropOp38
 70
     1
102
RTVSPost2010Prop39
140
1.0
102
RTVSPost2010PropOp39
 70
     1
102
RTVSPost2010Prop40
 90
        0
102
RTVSPost2010PropOp40
 70
     1
102
RTVSPost2010Prop41ColorIndex
 90
       18
102
RTVSPost2010Prop41ColorRGB
 90
        0
102
RTVSPost2010PropOp41
 70
     1
102
RTVSPost2010Prop42
 90
       50
102
RTVSPost2010PropOp42
 70
     1
102
RTVSPost2010Prop43
 90
        3
102
RTVSPost2010PropOp43
 70
     1
102
RTVSPost2010Prop44ColorIndex
 90
        5
102
RTVSPost2010Prop44ColorRGB
 90
      255
102
RTVSPost2010PropOp44
 70
     1
102
RTVSPost2010Prop45
280
     0
102
RTVSPost2010PropOp45
 70
     1
102
RTVSPost2010Prop46
 90
       50
102
RTVSPost2010PropOp46
 70
     1
102
RTVSPost2010Prop47
 90
       50
102
RTVSPost2010PropOp47
 70
     1
102
RTVSPost2010Prop48
 90
       50
102
RTVSPost2010PropOp48
 70
     1
102
RTVSPost2010Prop49
280
     0
102
RTVSPost2010PropOp49
 70
     1
102
RTVSPost2010Prop50
 90
       50
102
RTVSPost2010PropOp50
 70
     1
102
RTVSPost2010Prop51ColorIndex
 90
      256
102
RTVSPost2010Prop51ColorRGB
 90
-16777216
102
RTVSPost2010PropOp51
 70
     0
102
RTVSPost2010Prop52
140
1.0
102
RTVSPost2010PropOp52
 70
     0
102
RTVSPost2010Prop53
 90
        2
102
RTVSPost2010PropOp53
 70
     1
102
RTVSPost2010Prop54
  1
strokes_ogs.tif
102
RTVSPost2010PropOp54
 70
     1
102
RTVSPost2010Prop55
280
     0
102
RTVSPost2010PropOp55
 70
     1
102
RTVSPost2010Prop56
140
1.0
102
RTVSPost2010PropOp56
 70
     1
102
RTVSPost2010Prop57
140
1.0
102
RTVSPost2010PropOp57
 70
     1
102
RTVSPropertyOp0
 70
     1
102
RTVSPropertyOp1
 70
     1
102
RTVSPropertyOp2
 70
     1
102
RTVSPropertyOp3
 70
     1
102
RTVSPropertyOp4
 70
     1
102
RTVSPropertyOp5
 70
     1
102
RTVSPropertyOp6
 70
     1
102
RTVSPropertyOp7
 70
     1
102
RTVSPropertyOp8
 70
     1
102
RTVSPropertyOp9
 70
     1
102
RTVSPropertyOp10
 70
     1
102
RTVSPropertyOp11
 70
     1
102
RTVSPropertyOp12
 70
     1
102
RTVSPropertyOp13
 70
     1
102
RTVSPropertyOp14
 70
     1
102
RTVSPropertyOp15
 70
     1
102
RTVSPropertyOp16
 70
     1
102
RTVSPropertyOp17
 70
     1
102
RTVSPropertyOp18
 70
     1
102
RTVSPropertyOp19
 70
     1
102
RTVSPropertyOp20
 70
     1
102
RTVSPropertyOp21
 70
     1
102
RTVSPropertyOp22
 70
     1
102
RTVSPropertyOp23
 70
     1
102
RTVSPropertyOp24
 70
     1
102
RTVSPropertyOp25
 70
     1
102
RTVSPropertyOp26
 70
     1
102
RTVSPropertyOp27
 70
     1
102
RTVSPropertyOp28
 70
     1
102
RTVSPropertyOp29
 70
     1
102
RTVSPropertyOp30
 70
     1
102
RTVSPropertyOp31
 70
     1
102
RTVSPropertyOp32
 70
     1
102
RTVSPropertyOp33
 70
     1
102
RTVSPropertyOp34
 70
     1
102
RTVSPropertyOp35
 70
     1
102
RTVSPropertyOp36
 70
     1
102
RTVSPropertyOp37
 70
     1
102
RTVSPropertyOp38
 70
     1
102
RTVSPropertyOp39
 70
     1
102
RTVSPropertyOp40
 70
     1
102
RTVSPropertyOp41
 70
     1
102
RTVSPropertyOp42
 70
     1
102
RTVSPropertyOp43
 70
     1
102
RTVSPropertyOp44
 70
     1
102
RTVSPropertyOp45
 70
     1
102
RTVSPropertyOp46
 70
     1
102
RTVSPropertyOp47
 70
     1
102
RTVSPropertyOp48
 70
     1
102
RTVSPropertyOp49
 70
     1
102
RTVSPropertyOp50
 70
     1
102
RTVSPropertyOp51
 70
     0
102
RTVSPropertyOp52
 70
     0
102
RTVSPropertyOp53
 70
     1
102
RTVSPropertyOp54
 70
     1
102
RTVSPropertyOp55
 70
     1
102
RTVSPropertyOp56
 70
     1
102
RTVSPropertyOp57
 70
     1
102
RTVSPropertyOp58
 70
     1
102
RTVSPropertyOp59
 70
     1
102
RTVSPropertyOp60
 70
     1
102
RTVSPropertyOp61
 70
     1
102
RTVSPropertyOp62
 70
     1
  0
XRECORD
  5
57B9
102
{ACAD_REACTORS
330
57B8
102
}
330
57B8
100
AcDbXrecord
280
     1
102
RTVSPost2010Prop28
280
     0
102
RTVSPost2010PropOp28
 70
     1
102
RTVSPost2010Prop29
280
     1
102
RTVSPost2010PropOp29
 70
     1
102
RTVSPost2010Prop30
280
     1
102
RTVSPost2010PropOp30
 70
     1
102
RTVSPost2010Prop31
280
     0
102
RTVSPost2010PropOp31
 70
     1
102
RTVSPost2010Prop32
280
     0
102
RTVSPost2010PropOp32
 70
     1
102
RTVSPost2010Prop33
280
     0
102
RTVSPost2010PropOp33
 70
     1
102
RTVSPost2010Prop34
280
     0
102
RTVSPost2010PropOp34
 70
     1
102
RTVSPost2010Prop35
280
     0
102
RTVSPost2010PropOp35
 70
     1
102
RTVSPost2010Prop36
280
     0
102
RTVSPost2010PropOp36
 70
     1
102
RTVSPost2010Prop37
 90
       50
102
RTVSPost2010PropOp37
 70
     1
102
RTVSPost2010Prop38
140
0.0
102
RTVSPost2010PropOp38
 70
     1
102
RTVSPost2010Prop39
140
1.0
102
RTVSPost2010PropOp39
 70
     1
102
RTVSPost2010Prop40
 90
        0
102
RTVSPost2010PropOp40
 70
     1
102
RTVSPost2010Prop41ColorIndex
 90
       18
102
RTVSPost2010Prop41ColorRGB
 90
        0
102
RTVSPost2010PropOp41
 70
     1
102
RTVSPost2010Prop42
 90
       50
102
RTVSPost2010PropOp42
 70
     1
102
RTVSPost2010Prop43
 90
        3
102
RTVSPost2010PropOp43
 70
     1
102
RTVSPost2010Prop44ColorIndex
 90
        5
102
RTVSPost2010Prop44ColorRGB
 90
      255
102
RTVSPost2010PropOp44
 70
     1
102
RTVSPost2010Prop45
280
     0
102
RTVSPost2010PropOp45
 70
     1
102
RTVSPost2010Prop46
 90
       50
102
RTVSPost2010PropOp46
 70
     1
102
RTVSPost2010Prop47
 90
       50
102
RTVSPost2010PropOp47
 70
     1
102
RTVSPost2010Prop48
 90
       50
102
RTVSPost2010PropOp48
 70
     1
102
RTVSPost2010Prop49
280
     0
102
RTVSPost2010PropOp49
 70
     1
102
RTVSPost2010Prop50
 90
       50
102
RTVSPost2010PropOp50
 70
     1
102
RTVSPost2010Prop51ColorIndex
 90
      256
102
RTVSPost2010Prop51ColorRGB
 90
-16777216
102
RTVSPost2010PropOp51
 70
     0
102
RTVSPost2010Prop52
140
1.0
102
RTVSPost2010PropOp52
 70
     0
102
RTVSPost2010Prop53
 90
        2
102
RTVSPost2010PropOp53
 70
     1
102
RTVSPost2010Prop54
  1
strokes_ogs.tif
102
RTVSPost2010PropOp54
 70
     1
102
RTVSPost2010Prop55
280
     0
102
RTVSPost2010PropOp55
 70
     1
102
RTVSPost2010Prop56
140
1.0
102
RTVSPost2010PropOp56
 70
     1
102
RTVSPost2010Prop57
140
1.0
102
RTVSPost2010PropOp57
 70
     1
102
RTVSPropertyOp0
 70
     1
102
RTVSPropertyOp1
 70
     1
102
RTVSPropertyOp2
 70
     1
102
RTVSPropertyOp3
 70
     1
102
RTVSPropertyOp4
 70
     1
102
RTVSPropertyOp5
 70
     1
102
RTVSPropertyOp6
 70
     1
102
RTVSPropertyOp7
 70
     1
102
RTVSPropertyOp8
 70
     1
102
RTVSPropertyOp9
 70
     1
102
RTVSPropertyOp10
 70
     1
102
RTVSPropertyOp11
 70
     1
102
RTVSPropertyOp12
 70
     1
102
RTVSPropertyOp13
 70
     1
102
RTVSPropertyOp14
 70
     1
102
RTVSPropertyOp15
 70
     1
102
RTVSPropertyOp16
 70
     1
102
RTVSPropertyOp17
 70
     1
102
RTVSPropertyOp18
 70
     1
102
RTVSPropertyOp19
 70
     1
102
RTVSPropertyOp20
 70
     1
102
RTVSPropertyOp21
 70
     1
102
RTVSPropertyOp22
 70
     1
102
RTVSPropertyOp23
 70
     1
102
RTVSPropertyOp24
 70
     1
102
RTVSPropertyOp25
 70
     1
102
RTVSPropertyOp26
 70
     1
102
RTVSPropertyOp27
 70
     1
102
RTVSPropertyOp28
 70
     1
102
RTVSPropertyOp29
 70
     1
102
RTVSPropertyOp30
 70
     1
102
RTVSPropertyOp31
 70
     1
102
RTVSPropertyOp32
 70
     1
102
RTVSPropertyOp33
 70
     1
102
RTVSPropertyOp34
 70
     1
102
RTVSPropertyOp35
 70
     1
102
RTVSPropertyOp36
 70
     1
102
RTVSPropertyOp37
 70
     1
102
RTVSPropertyOp38
 70
     1
102
RTVSPropertyOp39
 70
     1
102
RTVSPropertyOp40
 70
     1
102
RTVSPropertyOp41
 70
     1
102
RTVSPropertyOp42
 70
     1
102
RTVSPropertyOp43
 70
     1
102
RTVSPropertyOp44
 70
     1
102
RTVSPropertyOp45
 70
     1
102
RTVSPropertyOp46
 70
     1
102
RTVSPropertyOp47
 70
     1
102
RTVSPropertyOp48
 70
     1
102
RTVSPropertyOp49
 70
     1
102
RTVSPropertyOp50
 70
     1
102
RTVSPropertyOp51
 70
     0
102
RTVSPropertyOp52
 70
     0
102
RTVSPropertyOp53
 70
     1
102
RTVSPropertyOp54
 70
     1
102
RTVSPropertyOp55
 70
     1
102
RTVSPropertyOp56
 70
     1
102
RTVSPropertyOp57
 70
     1
102
RTVSPropertyOp58
 70
     1
102
RTVSPropertyOp59
 70
     1
102
RTVSPropertyOp60
 70
     1
102
RTVSPropertyOp61
 70
     1
102
RTVSPropertyOp62
 70
     1
  0
XRECORD
  5
57BD
102
{ACAD_REACTORS
330
57BC
102
}
330
57BC
100
AcDbXrecord
280
     1
102
RTVSPost2010Prop28
280
     0
102
RTVSPost2010PropOp28
 70
     1
102
RTVSPost2010Prop29
280
     1
102
RTVSPost2010PropOp29
 70
     1
102
RTVSPost2010Prop30
280
     1
102
RTVSPost2010PropOp30
 70
     1
102
RTVSPost2010Prop31
280
     0
102
RTVSPost2010PropOp31
 70
     1
102
RTVSPost2010Prop32
280
     0
102
RTVSPost2010PropOp32
 70
     1
102
RTVSPost2010Prop33
280
     0
102
RTVSPost2010PropOp33
 70
     1
102
RTVSPost2010Prop34
280
     0
102
RTVSPost2010PropOp34
 70
     1
102
RTVSPost2010Prop35
280
     0
102
RTVSPost2010PropOp35
 70
     1
102
RTVSPost2010Prop36
280
     0
102
RTVSPost2010PropOp36
 70
     1
102
RTVSPost2010Prop37
 90
       50
102
RTVSPost2010PropOp37
 70
     1
102
RTVSPost2010Prop38
140
0.0
102
RTVSPost2010PropOp38
 70
     1
102
RTVSPost2010Prop39
140
1.0
102
RTVSPost2010PropOp39
 70
     1
102
RTVSPost2010Prop40
 90
        0
102
RTVSPost2010PropOp40
 70
     1
102
RTVSPost2010Prop41ColorIndex
 90
       18
102
RTVSPost2010Prop41ColorRGB
 90
        0
102
RTVSPost2010PropOp41
 70
     1
102
RTVSPost2010Prop42
 90
       50
102
RTVSPost2010PropOp42
 70
     1
102
RTVSPost2010Prop43
 90
        3
102
RTVSPost2010PropOp43
 70
     1
102
RTVSPost2010Prop44ColorIndex
 90
        5
102
RTVSPost2010Prop44ColorRGB
 90
      255
102
RTVSPost2010PropOp44
 70
     1
102
RTVSPost2010Prop45
280
     0
102
RTVSPost2010PropOp45
 70
     1
102
RTVSPost2010Prop46
 90
       50
102
RTVSPost2010PropOp46
 70
     1
102
RTVSPost2010Prop47
 90
       50
102
RTVSPost2010PropOp47
 70
     1
102
RTVSPost2010Prop48
 90
       50
102
RTVSPost2010PropOp48
 70
     1
102
RTVSPost2010Prop49
280
     0
102
RTVSPost2010PropOp49
 70
     1
102
RTVSPost2010Prop50
 90
       50
102
RTVSPost2010PropOp50
 70
     1
102
RTVSPost2010Prop51ColorIndex
 90
      256
102
RTVSPost2010Prop51ColorRGB
 90
-16777216
102
RTVSPost2010PropOp51
 70
     0
102
RTVSPost2010Prop52
140
1.0
102
RTVSPost2010PropOp52
 70
     0
102
RTVSPost2010Prop53
 90
        2
102
RTVSPost2010PropOp53
 70
     1
102
RTVSPost2010Prop54
  1
strokes_ogs.tif
102
RTVSPost2010PropOp54
 70
     1
102
RTVSPost2010Prop55
280
     0
102
RTVSPost2010PropOp55
 70
     1
102
RTVSPost2010Prop56
140
1.0
102
RTVSPost2010PropOp56
 70
     1
102
RTVSPost2010Prop57
140
1.0
102
RTVSPost2010PropOp57
 70
     1
102
RTVSPropertyOp0
 70
     1
102
RTVSPropertyOp1
 70
     1
102
RTVSPropertyOp2
 70
     1
102
RTVSPropertyOp3
 70
     1
102
RTVSPropertyOp4
 70
     1
102
RTVSPropertyOp5
 70
     1
102
RTVSPropertyOp6
 70
     1
102
RTVSPropertyOp7
 70
     1
102
RTVSPropertyOp8
 70
     1
102
RTVSPropertyOp9
 70
     1
102
RTVSPropertyOp10
 70
     1
102
RTVSPropertyOp11
 70
     1
102
RTVSPropertyOp12
 70
     1
102
RTVSPropertyOp13
 70
     1
102
RTVSPropertyOp14
 70
     1
102
RTVSPropertyOp15
 70
     1
102
RTVSPropertyOp16
 70
     1
102
RTVSPropertyOp17
 70
     1
102
RTVSPropertyOp18
 70
     1
102
RTVSPropertyOp19
 70
     1
102
RTVSPropertyOp20
 70
     1
102
RTVSPropertyOp21
 70
     1
102
RTVSPropertyOp22
 70
     1
102
RTVSPropertyOp23
 70
     1
102
RTVSPropertyOp24
 70
     1
102
RTVSPropertyOp25
 70
     1
102
RTVSPropertyOp26
 70
     1
102
RTVSPropertyOp27
 70
     1
102
RTVSPropertyOp28
 70
     1
102
RTVSPropertyOp29
 70
     1
102
RTVSPropertyOp30
 70
     1
102
RTVSPropertyOp31
 70
     1
102
RTVSPropertyOp32
 70
     1
102
RTVSPropertyOp33
 70
     1
102
RTVSPropertyOp34
 70
     1
102
RTVSPropertyOp35
 70
     1
102
RTVSPropertyOp36
 70
     1
102
RTVSPropertyOp37
 70
     1
102
RTVSPropertyOp38
 70
     1
102
RTVSPropertyOp39
 70
     1
102
RTVSPropertyOp40
 70
     1
102
RTVSPropertyOp41
 70
     1
102
RTVSPropertyOp42
 70
     1
102
RTVSPropertyOp43
 70
     1
102
RTVSPropertyOp44
 70
     1
102
RTVSPropertyOp45
 70
     1
102
RTVSPropertyOp46
 70
     1
102
RTVSPropertyOp47
 70
     1
102
RTVSPropertyOp48
 70
     1
102
RTVSPropertyOp49
 70
     1
102
RTVSPropertyOp50
 70
     1
102
RTVSPropertyOp51
 70
     0
102
RTVSPropertyOp52
 70
     0
102
RTVSPropertyOp53
 70
     1
102
RTVSPropertyOp54
 70
     1
102
RTVSPropertyOp55
 70
     1
102
RTVSPropertyOp56
 70
     1
102
RTVSPropertyOp57
 70
     1
102
RTVSPropertyOp58
 70
     1
102
RTVSPropertyOp59
 70
     1
102
RTVSPropertyOp60
 70
     1
102
RTVSPropertyOp61
 70
     1
102
RTVSPropertyOp62
 70
     1
  0
XRECORD
  5
57CD
102
{ACAD_REACTORS
330
57CC
102
}
330
57CC
100
AcDbXrecord
280
     1
102
RTVSPost2010Prop28
280
     0
102
RTVSPost2010PropOp28
 70
     1
102
RTVSPost2010Prop29
280
     1
102
RTVSPost2010PropOp29
 70
     1
102
RTVSPost2010Prop30
280
     1
102
RTVSPost2010PropOp30
 70
     1
102
RTVSPost2010Prop31
280
     0
102
RTVSPost2010PropOp31
 70
     1
102
RTVSPost2010Prop32
280
     0
102
RTVSPost2010PropOp32
 70
     1
102
RTVSPost2010Prop33
280
     0
102
RTVSPost2010PropOp33
 70
     1
102
RTVSPost2010Prop34
280
     0
102
RTVSPost2010PropOp34
 70
     1
102
RTVSPost2010Prop35
280
     0
102
RTVSPost2010PropOp35
 70
     1
102
RTVSPost2010Prop36
280
     0
102
RTVSPost2010PropOp36
 70
     1
102
RTVSPost2010Prop37
 90
       50
102
RTVSPost2010PropOp37
 70
     1
102
RTVSPost2010Prop38
140
0.0
102
RTVSPost2010PropOp38
 70
     1
102
RTVSPost2010Prop39
140
1.0
102
RTVSPost2010PropOp39
 70
     1
102
RTVSPost2010Prop40
 90
        0
102
RTVSPost2010PropOp40
 70
     1
102
RTVSPost2010Prop41ColorIndex
 90
       18
102
RTVSPost2010Prop41ColorRGB
 90
        0
102
RTVSPost2010PropOp41
 70
     1
102
RTVSPost2010Prop42
 90
       50
102
RTVSPost2010PropOp42
 70
     1
102
RTVSPost2010Prop43
 90
        3
102
RTVSPost2010PropOp43
 70
     1
102
RTVSPost2010Prop44ColorIndex
 90
        5
102
RTVSPost2010Prop44ColorRGB
 90
      255
102
RTVSPost2010PropOp44
 70
     1
102
RTVSPost2010Prop45
280
     0
102
RTVSPost2010PropOp45
 70
     1
102
RTVSPost2010Prop46
 90
       50
102
RTVSPost2010PropOp46
 70
     1
102
RTVSPost2010Prop47
 90
       50
102
RTVSPost2010PropOp47
 70
     1
102
RTVSPost2010Prop48
 90
       50
102
RTVSPost2010PropOp48
 70
     1
102
RTVSPost2010Prop49
280
     0
102
RTVSPost2010PropOp49
 70
     1
102
RTVSPost2010Prop50
 90
       50
102
RTVSPost2010PropOp50
 70
     1
102
RTVSPost2010Prop51ColorIndex
 90
      256
102
RTVSPost2010Prop51ColorRGB
 90
-16777216
102
RTVSPost2010PropOp51
 70
     0
102
RTVSPost2010Prop52
140
1.0
102
RTVSPost2010PropOp52
 70
     0
102
RTVSPost2010Prop53
 90
        2
102
RTVSPost2010PropOp53
 70
     1
102
RTVSPost2010Prop54
  1
strokes_ogs.tif
102
RTVSPost2010PropOp54
 70
     1
102
RTVSPost2010Prop55
280
     0
102
RTVSPost2010PropOp55
 70
     1
102
RTVSPost2010Prop56
140
1.0
102
RTVSPost2010PropOp56
 70
     1
102
RTVSPost2010Prop57
140
1.0
102
RTVSPost2010PropOp57
 70
     1
102
RTVSPropertyOp0
 70
     0
102
RTVSPropertyOp1
 70
     0
102
RTVSPropertyOp2
 70
     0
102
RTVSPropertyOp3
 70
     0
102
RTVSPropertyOp4
 70
     0
102
RTVSPropertyOp5
 70
     0
102
RTVSPropertyOp6
 70
     0
102
RTVSPropertyOp7
 70
     0
102
RTVSPropertyOp8
 70
     0
102
RTVSPropertyOp9
 70
     0
102
RTVSPropertyOp10
 70
     0
102
RTVSPropertyOp11
 70
     0
102
RTVSPropertyOp12
 70
     0
102
RTVSPropertyOp13
 70
     0
102
RTVSPropertyOp14
 70
     2
102
RTVSPropertyOp15
 70
     0
102
RTVSPropertyOp16
 70
     0
102
RTVSPropertyOp17
 70
     0
102
RTVSPropertyOp18
 70
     0
102
RTVSPropertyOp19
 70
     0
102
RTVSPropertyOp20
 70
     0
102
RTVSPropertyOp21
 70
     0
102
RTVSPropertyOp22
 70
     0
102
RTVSPropertyOp23
 70
     0
102
RTVSPropertyOp24
 70
     0
102
RTVSPropertyOp25
 70
     0
102
RTVSPropertyOp26
 70
     0
102
RTVSPropertyOp27
 70
     0
102
RTVSPropertyOp28
 70
     1
102
RTVSPropertyOp29
 70
     1
102
RTVSPropertyOp30
 70
     1
102
RTVSPropertyOp31
 70
     1
102
RTVSPropertyOp32
 70
     1
102
RTVSPropertyOp33
 70
     1
102
RTVSPropertyOp34
 70
     1
102
RTVSPropertyOp35
 70
     1
102
RTVSPropertyOp36
 70
     1
102
RTVSPropertyOp37
 70
     1
102
RTVSPropertyOp38
 70
     1
102
RTVSPropertyOp39
 70
     1
102
RTVSPropertyOp40
 70
     1
102
RTVSPropertyOp41
 70
     1
102
RTVSPropertyOp42
 70
     1
102
RTVSPropertyOp43
 70
     1
102
RTVSPropertyOp44
 70
     1
102
RTVSPropertyOp45
 70
     1
102
RTVSPropertyOp46
 70
     1
102
RTVSPropertyOp47
 70
     1
102
RTVSPropertyOp48
 70
     1
102
RTVSPropertyOp49
 70
     1
102
RTVSPropertyOp50
 70
     1
102
RTVSPropertyOp51
 70
     0
102
RTVSPropertyOp52
 70
     0
102
RTVSPropertyOp53
 70
     1
102
RTVSPropertyOp54
 70
     1
102
RTVSPropertyOp55
 70
     1
102
RTVSPropertyOp56
 70
     1
102
RTVSPropertyOp57
 70
     1
102
RTVSPropertyOp58
 70
     1
102
RTVSPropertyOp59
 70
     1
102
RTVSPropertyOp60
 70
     1
102
RTVSPropertyOp61
 70
     1
102
RTVSPropertyOp62
 70
     1
  0
XRECORD
  5
57C5
102
{ACAD_REACTORS
330
57C4
102
}
330
57C4
100
AcDbXrecord
280
     1
102
RTVSPost2010Prop28
280
     0
102
RTVSPost2010PropOp28
 70
     1
102
RTVSPost2010Prop29
280
     1
102
RTVSPost2010PropOp29
 70
     1
102
RTVSPost2010Prop30
280
     1
102
RTVSPost2010PropOp30
 70
     1
102
RTVSPost2010Prop31
280
     0
102
RTVSPost2010PropOp31
 70
     1
102
RTVSPost2010Prop32
280
     0
102
RTVSPost2010PropOp32
 70
     1
102
RTVSPost2010Prop33
280
     0
102
RTVSPost2010PropOp33
 70
     1
102
RTVSPost2010Prop34
280
     0
102
RTVSPost2010PropOp34
 70
     1
102
RTVSPost2010Prop35
280
     0
102
RTVSPost2010PropOp35
 70
     1
102
RTVSPost2010Prop36
280
     0
102
RTVSPost2010PropOp36
 70
     1
102
RTVSPost2010Prop37
 90
       50
102
RTVSPost2010PropOp37
 70
     1
102
RTVSPost2010Prop38
140
0.0
102
RTVSPost2010PropOp38
 70
     1
102
RTVSPost2010Prop39
140
1.0
102
RTVSPost2010PropOp39
 70
     1
102
RTVSPost2010Prop40
 90
        0
102
RTVSPost2010PropOp40
 70
     1
102
RTVSPost2010Prop41ColorIndex
 90
       18
102
RTVSPost2010Prop41ColorRGB
 90
        0
102
RTVSPost2010PropOp41
 70
     1
102
RTVSPost2010Prop42
 90
       50
102
RTVSPost2010PropOp42
 70
     1
102
RTVSPost2010Prop43
 90
        3
102
RTVSPost2010PropOp43
 70
     1
102
RTVSPost2010Prop44ColorIndex
 90
        5
102
RTVSPost2010Prop44ColorRGB
 90
      255
102
RTVSPost2010PropOp44
 70
     1
102
RTVSPost2010Prop45
280
     0
102
RTVSPost2010PropOp45
 70
     1
102
RTVSPost2010Prop46
 90
       50
102
RTVSPost2010PropOp46
 70
     1
102
RTVSPost2010Prop47
 90
       50
102
RTVSPost2010PropOp47
 70
     1
102
RTVSPost2010Prop48
 90
       50
102
RTVSPost2010PropOp48
 70
     1
102
RTVSPost2010Prop49
280
     0
102
RTVSPost2010PropOp49
 70
     1
102
RTVSPost2010Prop50
 90
       50
102
RTVSPost2010PropOp50
 70
     1
102
RTVSPost2010Prop51ColorIndex
 90
      256
102
RTVSPost2010Prop51ColorRGB
 90
-16777216
102
RTVSPost2010PropOp51
 70
     0
102
RTVSPost2010Prop52
140
1.0
102
RTVSPost2010PropOp52
 70
     0
102
RTVSPost2010Prop53
 90
        2
102
RTVSPost2010PropOp53
 70
     1
102
RTVSPost2010Prop54
  1
strokes_ogs.tif
102
RTVSPost2010PropOp54
 70
     1
102
RTVSPost2010Prop55
280
     0
102
RTVSPost2010PropOp55
 70
     1
102
RTVSPost2010Prop56
140
1.0
102
RTVSPost2010PropOp56
 70
     1
102
RTVSPost2010Prop57
140
1.0
102
RTVSPost2010PropOp57
 70
     1
102
RTVSPropertyOp0
 70
     1
102
RTVSPropertyOp1
 70
     1
102
RTVSPropertyOp2
 70
     1
102
RTVSPropertyOp3
 70
     1
102
RTVSPropertyOp4
 70
     1
102
RTVSPropertyOp5
 70
     1
102
RTVSPropertyOp6
 70
     1
102
RTVSPropertyOp7
 70
     1
102
RTVSPropertyOp8
 70
     1
102
RTVSPropertyOp9
 70
     1
102
RTVSPropertyOp10
 70
     1
102
RTVSPropertyOp11
 70
     1
102
RTVSPropertyOp12
 70
     1
102
RTVSPropertyOp13
 70
     1
102
RTVSPropertyOp14
 70
     1
102
RTVSPropertyOp15
 70
     1
102
RTVSPropertyOp16
 70
     1
102
RTVSPropertyOp17
 70
     1
102
RTVSPropertyOp18
 70
     1
102
RTVSPropertyOp19
 70
     1
102
RTVSPropertyOp20
 70
     1
102
RTVSPropertyOp21
 70
     1
102
RTVSPropertyOp22
 70
     1
102
RTVSPropertyOp23
 70
     1
102
RTVSPropertyOp24
 70
     1
102
RTVSPropertyOp25
 70
     1
102
RTVSPropertyOp26
 70
     1
102
RTVSPropertyOp27
 70
     1
102
RTVSPropertyOp28
 70
     1
102
RTVSPropertyOp29
 70
     1
102
RTVSPropertyOp30
 70
     1
102
RTVSPropertyOp31
 70
     1
102
RTVSPropertyOp32
 70
     1
102
RTVSPropertyOp33
 70
     1
102
RTVSPropertyOp34
 70
     1
102
RTVSPropertyOp35
 70
     1
102
RTVSPropertyOp36
 70
     1
102
RTVSPropertyOp37
 70
     1
102
RTVSPropertyOp38
 70
     1
102
RTVSPropertyOp39
 70
     1
102
RTVSPropertyOp40
 70
     1
102
RTVSPropertyOp41
 70
     1
102
RTVSPropertyOp42
 70
     1
102
RTVSPropertyOp43
 70
     1
102
RTVSPropertyOp44
 70
     1
102
RTVSPropertyOp45
 70
     1
102
RTVSPropertyOp46
 70
     1
102
RTVSPropertyOp47
 70
     1
102
RTVSPropertyOp48
 70
     1
102
RTVSPropertyOp49
 70
     1
102
RTVSPropertyOp50
 70
     1
102
RTVSPropertyOp51
 70
     0
102
RTVSPropertyOp52
 70
     0
102
RTVSPropertyOp53
 70
     1
102
RTVSPropertyOp54
 70
     1
102
RTVSPropertyOp55
 70
     1
102
RTVSPropertyOp56
 70
     1
102
RTVSPropertyOp57
 70
     1
102
RTVSPropertyOp58
 70
     1
102
RTVSPropertyOp59
 70
     1
102
RTVSPropertyOp60
 70
     1
102
RTVSPropertyOp61
 70
     1
102
RTVSPropertyOp62
 70
     1
  0
XRECORD
  5
57A9
102
{ACAD_REACTORS
330
57A8
102
}
330
57A8
100
AcDbXrecord
280
     1
102
RTVSPost2010Prop28
280
     0
102
RTVSPost2010PropOp28
 70
     1
102
RTVSPost2010Prop29
280
     1
102
RTVSPost2010PropOp29
 70
     1
102
RTVSPost2010Prop30
280
     1
102
RTVSPost2010PropOp30
 70
     1
102
RTVSPost2010Prop31
280
     0
102
RTVSPost2010PropOp31
 70
     1
102
RTVSPost2010Prop32
280
     0
102
RTVSPost2010PropOp32
 70
     1
102
RTVSPost2010Prop33
280
     0
102
RTVSPost2010PropOp33
 70
     1
102
RTVSPost2010Prop34
280
     0
102
RTVSPost2010PropOp34
 70
     1
102
RTVSPost2010Prop35
280
     0
102
RTVSPost2010PropOp35
 70
     1
102
RTVSPost2010Prop36
280
     0
102
RTVSPost2010PropOp36
 70
     1
102
RTVSPost2010Prop37
 90
       50
102
RTVSPost2010PropOp37
 70
     1
102
RTVSPost2010Prop38
140
0.0
102
RTVSPost2010PropOp38
 70
     1
102
RTVSPost2010Prop39
140
1.0
102
RTVSPost2010PropOp39
 70
     1
102
RTVSPost2010Prop40
 90
        0
102
RTVSPost2010PropOp40
 70
     1
102
RTVSPost2010Prop41ColorIndex
 90
       18
102
RTVSPost2010Prop41ColorRGB
 90
        0
102
RTVSPost2010PropOp41
 70
     1
102
RTVSPost2010Prop42
 90
       50
102
RTVSPost2010PropOp42
 70
     1
102
RTVSPost2010Prop43
 90
        3
102
RTVSPost2010PropOp43
 70
     1
102
RTVSPost2010Prop44ColorIndex
 90
        5
102
RTVSPost2010Prop44ColorRGB
 90
      255
102
RTVSPost2010PropOp44
 70
     1
102
RTVSPost2010Prop45
280
     0
102
RTVSPost2010PropOp45
 70
     1
102
RTVSPost2010Prop46
 90
       50
102
RTVSPost2010PropOp46
 70
     1
102
RTVSPost2010Prop47
 90
       50
102
RTVSPost2010PropOp47
 70
     1
102
RTVSPost2010Prop48
 90
       50
102
RTVSPost2010PropOp48
 70
     1
102
RTVSPost2010Prop49
280
     0
102
RTVSPost2010PropOp49
 70
     1
102
RTVSPost2010Prop50
 90
       50
102
RTVSPost2010PropOp50
 70
     1
102
RTVSPost2010Prop51ColorIndex
 90
      256
102
RTVSPost2010Prop51ColorRGB
 90
-16777216
102
RTVSPost2010PropOp51
 70
     0
102
RTVSPost2010Prop52
140
1.0
102
RTVSPost2010PropOp52
 70
     0
102
RTVSPost2010Prop53
 90
        2
102
RTVSPost2010PropOp53
 70
     1
102
RTVSPost2010Prop54
  1
strokes_ogs.tif
102
RTVSPost2010PropOp54
 70
     1
102
RTVSPost2010Prop55
280
     0
102
RTVSPost2010PropOp55
 70
     1
102
RTVSPost2010Prop56
140
1.0
102
RTVSPost2010PropOp56
 70
     1
102
RTVSPost2010Prop57
140
1.0
102
RTVSPost2010PropOp57
 70
     1
102
RTVSPropertyOp0
 70
     1
102
RTVSPropertyOp1
 70
     1
102
RTVSPropertyOp2
 70
     1
102
RTVSPropertyOp3
 70
     1
102
RTVSPropertyOp4
 70
     1
102
RTVSPropertyOp5
 70
     1
102
RTVSPropertyOp6
 70
     1
102
RTVSPropertyOp7
 70
     1
102
RTVSPropertyOp8
 70
     1
102
RTVSPropertyOp9
 70
     1
102
RTVSPropertyOp10
 70
     1
102
RTVSPropertyOp11
 70
     1
102
RTVSPropertyOp12
 70
     1
102
RTVSPropertyOp13
 70
     1
102
RTVSPropertyOp14
 70
     1
102
RTVSPropertyOp15
 70
     1
102
RTVSPropertyOp16
 70
     1
102
RTVSPropertyOp17
 70
     1
102
RTVSPropertyOp18
 70
     1
102
RTVSPropertyOp19
 70
     1
102
RTVSPropertyOp20
 70
     1
102
RTVSPropertyOp21
 70
     1
102
RTVSPropertyOp22
 70
     1
102
RTVSPropertyOp23
 70
     1
102
RTVSPropertyOp24
 70
     1
102
RTVSPropertyOp25
 70
     1
102
RTVSPropertyOp26
 70
     1
102
RTVSPropertyOp27
 70
     1
102
RTVSPropertyOp28
 70
     1
102
RTVSPropertyOp29
 70
     1
102
RTVSPropertyOp30
 70
     1
102
RTVSPropertyOp31
 70
     1
102
RTVSPropertyOp32
 70
     1
102
RTVSPropertyOp33
 70
     1
102
RTVSPropertyOp34
 70
     1
102
RTVSPropertyOp35
 70
     1
102
RTVSPropertyOp36
 70
     1
102
RTVSPropertyOp37
 70
     1
102
RTVSPropertyOp38
 70
     1
102
RTVSPropertyOp39
 70
     1
102
RTVSPropertyOp40
 70
     1
102
RTVSPropertyOp41
 70
     1
102
RTVSPropertyOp42
 70
     1
102
RTVSPropertyOp43
 70
     1
102
RTVSPropertyOp44
 70
     1
102
RTVSPropertyOp45
 70
     1
102
RTVSPropertyOp46
 70
     1
102
RTVSPropertyOp47
 70
     1
102
RTVSPropertyOp48
 70
     1
102
RTVSPropertyOp49
 70
     1
102
RTVSPropertyOp50
 70
     1
102
RTVSPropertyOp51
 70
     0
102
RTVSPropertyOp52
 70
     0
102
RTVSPropertyOp53
 70
     1
102
RTVSPropertyOp54
 70
     1
102
RTVSPropertyOp55
 70
     1
102
RTVSPropertyOp56
 70
     1
102
RTVSPropertyOp57
 70
     1
102
RTVSPropertyOp58
 70
     1
102
RTVSPropertyOp59
 70
     1
102
RTVSPropertyOp60
 70
     1
102
RTVSPropertyOp61
 70
     1
102
RTVSPropertyOp62
 70
     1
  0
XRECORD
  5
57AB
102
{ACAD_REACTORS
330
57AA
102
}
330
57AA
100
AcDbXrecord
280
     1
102
RTVSPost2010Prop28
280
     0
102
RTVSPost2010PropOp28
 70
     1
102
RTVSPost2010Prop29
280
     1
102
RTVSPost2010PropOp29
 70
     1
102
RTVSPost2010Prop30
280
     1
102
RTVSPost2010PropOp30
 70
     1
102
RTVSPost2010Prop31
280
     0
102
RTVSPost2010PropOp31
 70
     1
102
RTVSPost2010Prop32
280
     0
102
RTVSPost2010PropOp32
 70
     1
102
RTVSPost2010Prop33
280
     0
102
RTVSPost2010PropOp33
 70
     1
102
RTVSPost2010Prop34
280
     0
102
RTVSPost2010PropOp34
 70
     1
102
RTVSPost2010Prop35
280
     0
102
RTVSPost2010PropOp35
 70
     1
102
RTVSPost2010Prop36
280
     0
102
RTVSPost2010PropOp36
 70
     1
102
RTVSPost2010Prop37
 90
       50
102
RTVSPost2010PropOp37
 70
     1
102
RTVSPost2010Prop38
140
0.0
102
RTVSPost2010PropOp38
 70
     1
102
RTVSPost2010Prop39
140
1.0
102
RTVSPost2010PropOp39
 70
     1
102
RTVSPost2010Prop40
 90
        0
102
RTVSPost2010PropOp40
 70
     1
102
RTVSPost2010Prop41ColorIndex
 90
       18
102
RTVSPost2010Prop41ColorRGB
 90
        0
102
RTVSPost2010PropOp41
 70
     1
102
RTVSPost2010Prop42
 90
       50
102
RTVSPost2010PropOp42
 70
     1
102
RTVSPost2010Prop43
 90
        3
102
RTVSPost2010PropOp43
 70
     1
102
RTVSPost2010Prop44ColorIndex
 90
        5
102
RTVSPost2010Prop44ColorRGB
 90
      255
102
RTVSPost2010PropOp44
 70
     1
102
RTVSPost2010Prop45
280
     0
102
RTVSPost2010PropOp45
 70
     1
102
RTVSPost2010Prop46
 90
       50
102
RTVSPost2010PropOp46
 70
     1
102
RTVSPost2010Prop47
 90
       50
102
RTVSPost2010PropOp47
 70
     1
102
RTVSPost2010Prop48
 90
       50
102
RTVSPost2010PropOp48
 70
     1
102
RTVSPost2010Prop49
280
     0
102
RTVSPost2010PropOp49
 70
     1
102
RTVSPost2010Prop50
 90
       50
102
RTVSPost2010PropOp50
 70
     1
102
RTVSPost2010Prop51ColorIndex
 90
      256
102
RTVSPost2010Prop51ColorRGB
 90
-16777216
102
RTVSPost2010PropOp51
 70
     0
102
RTVSPost2010Prop52
140
1.0
102
RTVSPost2010PropOp52
 70
     0
102
RTVSPost2010Prop53
 90
        2
102
RTVSPost2010PropOp53
 70
     1
102
RTVSPost2010Prop54
  1
strokes_ogs.tif
102
RTVSPost2010PropOp54
 70
     1
102
RTVSPost2010Prop55
280
     0
102
RTVSPost2010PropOp55
 70
     1
102
RTVSPost2010Prop56
140
1.0
102
RTVSPost2010PropOp56
 70
     1
102
RTVSPost2010Prop57
140
1.0
102
RTVSPost2010PropOp57
 70
     1
102
RTVSPropertyOp0
 70
     1
102
RTVSPropertyOp1
 70
     1
102
RTVSPropertyOp2
 70
     1
102
RTVSPropertyOp3
 70
     1
102
RTVSPropertyOp4
 70
     1
102
RTVSPropertyOp5
 70
     1
102
RTVSPropertyOp6
 70
     1
102
RTVSPropertyOp7
 70
     1
102
RTVSPropertyOp8
 70
     1
102
RTVSPropertyOp9
 70
     1
102
RTVSPropertyOp10
 70
     1
102
RTVSPropertyOp11
 70
     1
102
RTVSPropertyOp12
 70
     1
102
RTVSPropertyOp13
 70
     1
102
RTVSPropertyOp14
 70
     1
102
RTVSPropertyOp15
 70
     1
102
RTVSPropertyOp16
 70
     1
102
RTVSPropertyOp17
 70
     1
102
RTVSPropertyOp18
 70
     1
102
RTVSPropertyOp19
 70
     1
102
RTVSPropertyOp20
 70
     1
102
RTVSPropertyOp21
 70
     1
102
RTVSPropertyOp22
 70
     1
102
RTVSPropertyOp23
 70
     1
102
RTVSPropertyOp24
 70
     1
102
RTVSPropertyOp25
 70
     1
102
RTVSPropertyOp26
 70
     1
102
RTVSPropertyOp27
 70
     1
102
RTVSPropertyOp28
 70
     1
102
RTVSPropertyOp29
 70
     1
102
RTVSPropertyOp30
 70
     1
102
RTVSPropertyOp31
 70
     1
102
RTVSPropertyOp32
 70
     1
102
RTVSPropertyOp33
 70
     1
102
RTVSPropertyOp34
 70
     1
102
RTVSPropertyOp35
 70
     1
102
RTVSPropertyOp36
 70
     1
102
RTVSPropertyOp37
 70
     1
102
RTVSPropertyOp38
 70
     1
102
RTVSPropertyOp39
 70
     1
102
RTVSPropertyOp40
 70
     1
102
RTVSPropertyOp41
 70
     1
102
RTVSPropertyOp42
 70
     1
102
RTVSPropertyOp43
 70
     1
102
RTVSPropertyOp44
 70
     1
102
RTVSPropertyOp45
 70
     1
102
RTVSPropertyOp46
 70
     1
102
RTVSPropertyOp47
 70
     1
102
RTVSPropertyOp48
 70
     1
102
RTVSPropertyOp49
 70
     1
102
RTVSPropertyOp50
 70
     1
102
RTVSPropertyOp51
 70
     0
102
RTVSPropertyOp52
 70
     0
102
RTVSPropertyOp53
 70
     1
102
RTVSPropertyOp54
 70
     1
102
RTVSPropertyOp55
 70
     1
102
RTVSPropertyOp56
 70
     1
102
RTVSPropertyOp57
 70
     1
102
RTVSPropertyOp58
 70
     1
102
RTVSPropertyOp59
 70
     1
102
RTVSPropertyOp60
 70
     1
102
RTVSPropertyOp61
 70
     1
102
RTVSPropertyOp62
 70
     1
  0
XRECORD
  5
57AD
102
{ACAD_REACTORS
330
57AC
102
}
330
57AC
100
AcDbXrecord
280
     1
102
RTVSPost2010Prop28
280
     0
102
RTVSPost2010PropOp28
 70
     1
102
RTVSPost2010Prop29
280
     1
102
RTVSPost2010PropOp29
 70
     1
102
RTVSPost2010Prop30
280
     1
102
RTVSPost2010PropOp30
 70
     1
102
RTVSPost2010Prop31
280
     0
102
RTVSPost2010PropOp31
 70
     1
102
RTVSPost2010Prop32
280
     0
102
RTVSPost2010PropOp32
 70
     1
102
RTVSPost2010Prop33
280
     0
102
RTVSPost2010PropOp33
 70
     1
102
RTVSPost2010Prop34
280
     0
102
RTVSPost2010PropOp34
 70
     1
102
RTVSPost2010Prop35
280
     0
102
RTVSPost2010PropOp35
 70
     1
102
RTVSPost2010Prop36
280
     0
102
RTVSPost2010PropOp36
 70
     1
102
RTVSPost2010Prop37
 90
       50
102
RTVSPost2010PropOp37
 70
     1
102
RTVSPost2010Prop38
140
0.0
102
RTVSPost2010PropOp38
 70
     1
102
RTVSPost2010Prop39
140
1.0
102
RTVSPost2010PropOp39
 70
     1
102
RTVSPost2010Prop40
 90
        0
102
RTVSPost2010PropOp40
 70
     1
102
RTVSPost2010Prop41ColorIndex
 90
       18
102
RTVSPost2010Prop41ColorRGB
 90
        0
102
RTVSPost2010PropOp41
 70
     1
102
RTVSPost2010Prop42
 90
       50
102
RTVSPost2010PropOp42
 70
     1
102
RTVSPost2010Prop43
 90
        3
102
RTVSPost2010PropOp43
 70
     1
102
RTVSPost2010Prop44ColorIndex
 90
        5
102
RTVSPost2010Prop44ColorRGB
 90
      255
102
RTVSPost2010PropOp44
 70
     1
102
RTVSPost2010Prop45
280
     0
102
RTVSPost2010PropOp45
 70
     1
102
RTVSPost2010Prop46
 90
       50
102
RTVSPost2010PropOp46
 70
     1
102
RTVSPost2010Prop47
 90
       50
102
RTVSPost2010PropOp47
 70
     1
102
RTVSPost2010Prop48
 90
       50
102
RTVSPost2010PropOp48
 70
     1
102
RTVSPost2010Prop49
280
     0
102
RTVSPost2010PropOp49
 70
     1
102
RTVSPost2010Prop50
 90
       50
102
RTVSPost2010PropOp50
 70
     1
102
RTVSPost2010Prop51ColorIndex
 90
      256
102
RTVSPost2010Prop51ColorRGB
 90
-16777216
102
RTVSPost2010PropOp51
 70
     0
102
RTVSPost2010Prop52
140
1.0
102
RTVSPost2010PropOp52
 70
     0
102
RTVSPost2010Prop53
 90
        2
102
RTVSPost2010PropOp53
 70
     1
102
RTVSPost2010Prop54
  1
strokes_ogs.tif
102
RTVSPost2010PropOp54
 70
     1
102
RTVSPost2010Prop55
280
     0
102
RTVSPost2010PropOp55
 70
     1
102
RTVSPost2010Prop56
140
1.0
102
RTVSPost2010PropOp56
 70
     1
102
RTVSPost2010Prop57
140
1.0
102
RTVSPost2010PropOp57
 70
     1
102
RTVSPropertyOp0
 70
     1
102
RTVSPropertyOp1
 70
     1
102
RTVSPropertyOp2
 70
     1
102
RTVSPropertyOp3
 70
     1
102
RTVSPropertyOp4
 70
     1
102
RTVSPropertyOp5
 70
     1
102
RTVSPropertyOp6
 70
     1
102
RTVSPropertyOp7
 70
     1
102
RTVSPropertyOp8
 70
     1
102
RTVSPropertyOp9
 70
     1
102
RTVSPropertyOp10
 70
     1
102
RTVSPropertyOp11
 70
     1
102
RTVSPropertyOp12
 70
     1
102
RTVSPropertyOp13
 70
     1
102
RTVSPropertyOp14
 70
     1
102
RTVSPropertyOp15
 70
     1
102
RTVSPropertyOp16
 70
     1
102
RTVSPropertyOp17
 70
     1
102
RTVSPropertyOp18
 70
     1
102
RTVSPropertyOp19
 70
     1
102
RTVSPropertyOp20
 70
     1
102
RTVSPropertyOp21
 70
     1
102
RTVSPropertyOp22
 70
     1
102
RTVSPropertyOp23
 70
     1
102
RTVSPropertyOp24
 70
     1
102
RTVSPropertyOp25
 70
     1
102
RTVSPropertyOp26
 70
     1
102
RTVSPropertyOp27
 70
     1
102
RTVSPropertyOp28
 70
     1
102
RTVSPropertyOp29
 70
     1
102
RTVSPropertyOp30
 70
     1
102
RTVSPropertyOp31
 70
     1
102
RTVSPropertyOp32
 70
     1
102
RTVSPropertyOp33
 70
     1
102
RTVSPropertyOp34
 70
     1
102
RTVSPropertyOp35
 70
     1
102
RTVSPropertyOp36
 70
     1
102
RTVSPropertyOp37
 70
     1
102
RTVSPropertyOp38
 70
     1
102
RTVSPropertyOp39
 70
     1
102
RTVSPropertyOp40
 70
     1
102
RTVSPropertyOp41
 70
     1
102
RTVSPropertyOp42
 70
     1
102
RTVSPropertyOp43
 70
     1
102
RTVSPropertyOp44
 70
     1
102
RTVSPropertyOp45
 70
     1
102
RTVSPropertyOp46
 70
     1
102
RTVSPropertyOp47
 70
     1
102
RTVSPropertyOp48
 70
     1
102
RTVSPropertyOp49
 70
     1
102
RTVSPropertyOp50
 70
     1
102
RTVSPropertyOp51
 70
     0
102
RTVSPropertyOp52
 70
     0
102
RTVSPropertyOp53
 70
     1
102
RTVSPropertyOp54
 70
     1
102
RTVSPropertyOp55
 70
     1
102
RTVSPropertyOp56
 70
     1
102
RTVSPropertyOp57
 70
     1
102
RTVSPropertyOp58
 70
     1
102
RTVSPropertyOp59
 70
     1
102
RTVSPropertyOp60
 70
     1
102
RTVSPropertyOp61
 70
     1
102
RTVSPropertyOp62
 70
     1
  0
XRECORD
  5
57AF
102
{ACAD_REACTORS
330
57AE
102
}
330
57AE
100
AcDbXrecord
280
     1
102
RTVSPost2010Prop28
280
     0
102
RTVSPost2010PropOp28
 70
     1
102
RTVSPost2010Prop29
280
     1
102
RTVSPost2010PropOp29
 70
     1
102
RTVSPost2010Prop30
280
     1
102
RTVSPost2010PropOp30
 70
     1
102
RTVSPost2010Prop31
280
     0
102
RTVSPost2010PropOp31
 70
     1
102
RTVSPost2010Prop32
280
     0
102
RTVSPost2010PropOp32
 70
     1
102
RTVSPost2010Prop33
280
     0
102
RTVSPost2010PropOp33
 70
     1
102
RTVSPost2010Prop34
280
     0
102
RTVSPost2010PropOp34
 70
     1
102
RTVSPost2010Prop35
280
     0
102
RTVSPost2010PropOp35
 70
     1
102
RTVSPost2010Prop36
280
     0
102
RTVSPost2010PropOp36
 70
     1
102
RTVSPost2010Prop37
 90
       50
102
RTVSPost2010PropOp37
 70
     1
102
RTVSPost2010Prop38
140
0.0
102
RTVSPost2010PropOp38
 70
     1
102
RTVSPost2010Prop39
140
1.0
102
RTVSPost2010PropOp39
 70
     1
102
RTVSPost2010Prop40
 90
        0
102
RTVSPost2010PropOp40
 70
     1
102
RTVSPost2010Prop41ColorIndex
 90
       18
102
RTVSPost2010Prop41ColorRGB
 90
        0
102
RTVSPost2010PropOp41
 70
     1
102
RTVSPost2010Prop42
 90
       50
102
RTVSPost2010PropOp42
 70
     1
102
RTVSPost2010Prop43
 90
        3
102
RTVSPost2010PropOp43
 70
     1
102
RTVSPost2010Prop44ColorIndex
 90
        5
102
RTVSPost2010Prop44ColorRGB
 90
      255
102
RTVSPost2010PropOp44
 70
     1
102
RTVSPost2010Prop45
280
     0
102
RTVSPost2010PropOp45
 70
     1
102
RTVSPost2010Prop46
 90
       50
102
RTVSPost2010PropOp46
 70
     1
102
RTVSPost2010Prop47
 90
       50
102
RTVSPost2010PropOp47
 70
     1
102
RTVSPost2010Prop48
 90
       50
102
RTVSPost2010PropOp48
 70
     1
102
RTVSPost2010Prop49
280
     0
102
RTVSPost2010PropOp49
 70
     1
102
RTVSPost2010Prop50
 90
       50
102
RTVSPost2010PropOp50
 70
     1
102
RTVSPost2010Prop51ColorIndex
 90
      256
102
RTVSPost2010Prop51ColorRGB
 90
-16777216
102
RTVSPost2010PropOp51
 70
     0
102
RTVSPost2010Prop52
140
1.0
102
RTVSPost2010PropOp52
 70
     0
102
RTVSPost2010Prop53
 90
        2
102
RTVSPost2010PropOp53
 70
     1
102
RTVSPost2010Prop54
  1
strokes_ogs.tif
102
RTVSPost2010PropOp54
 70
     1
102
RTVSPost2010Prop55
280
     0
102
RTVSPost2010PropOp55
 70
     1
102
RTVSPost2010Prop56
140
1.0
102
RTVSPost2010PropOp56
 70
     1
102
RTVSPost2010Prop57
140
1.0
102
RTVSPost2010PropOp57
 70
     1
102
RTVSPropertyOp0
 70
     1
102
RTVSPropertyOp1
 70
     1
102
RTVSPropertyOp2
 70
     1
102
RTVSPropertyOp3
 70
     1
102
RTVSPropertyOp4
 70
     1
102
RTVSPropertyOp5
 70
     1
102
RTVSPropertyOp6
 70
     1
102
RTVSPropertyOp7
 70
     1
102
RTVSPropertyOp8
 70
     1
102
RTVSPropertyOp9
 70
     1
102
RTVSPropertyOp10
 70
     1
102
RTVSPropertyOp11
 70
     1
102
RTVSPropertyOp12
 70
     1
102
RTVSPropertyOp13
 70
     1
102
RTVSPropertyOp14
 70
     1
102
RTVSPropertyOp15
 70
     1
102
RTVSPropertyOp16
 70
     1
102
RTVSPropertyOp17
 70
     1
102
RTVSPropertyOp18
 70
     1
102
RTVSPropertyOp19
 70
     1
102
RTVSPropertyOp20
 70
     1
102
RTVSPropertyOp21
 70
     1
102
RTVSPropertyOp22
 70
     1
102
RTVSPropertyOp23
 70
     1
102
RTVSPropertyOp24
 70
     1
102
RTVSPropertyOp25
 70
     1
102
RTVSPropertyOp26
 70
     1
102
RTVSPropertyOp27
 70
     1
102
RTVSPropertyOp28
 70
     1
102
RTVSPropertyOp29
 70
     1
102
RTVSPropertyOp30
 70
     1
102
RTVSPropertyOp31
 70
     1
102
RTVSPropertyOp32
 70
     1
102
RTVSPropertyOp33
 70
     1
102
RTVSPropertyOp34
 70
     1
102
RTVSPropertyOp35
 70
     1
102
RTVSPropertyOp36
 70
     1
102
RTVSPropertyOp37
 70
     1
102
RTVSPropertyOp38
 70
     1
102
RTVSPropertyOp39
 70
     1
102
RTVSPropertyOp40
 70
     1
102
RTVSPropertyOp41
 70
     1
102
RTVSPropertyOp42
 70
     1
102
RTVSPropertyOp43
 70
     1
102
RTVSPropertyOp44
 70
     1
102
RTVSPropertyOp45
 70
     1
102
RTVSPropertyOp46
 70
     1
102
RTVSPropertyOp47
 70
     1
102
RTVSPropertyOp48
 70
     1
102
RTVSPropertyOp49
 70
     1
102
RTVSPropertyOp50
 70
     1
102
RTVSPropertyOp51
 70
     0
102
RTVSPropertyOp52
 70
     0
102
RTVSPropertyOp53
 70
     1
102
RTVSPropertyOp54
 70
     1
102
RTVSPropertyOp55
 70
     1
102
RTVSPropertyOp56
 70
     1
102
RTVSPropertyOp57
 70
     1
102
RTVSPropertyOp58
 70
     1
102
RTVSPropertyOp59
 70
     1
102
RTVSPropertyOp60
 70
     1
102
RTVSPropertyOp61
 70
     1
102
RTVSPropertyOp62
 70
     1
  0
XRECORD
  5
57D1
102
{ACAD_REACTORS
330
57D0
102
}
330
57D0
100
AcDbXrecord
280
     1
102
RTVSPost2010Prop28
280
     0
102
RTVSPost2010PropOp28
 70
     1
102
RTVSPost2010Prop29
280
     1
102
RTVSPost2010PropOp29
 70
     1
102
RTVSPost2010Prop30
280
     1
102
RTVSPost2010PropOp30
 70
     1
102
RTVSPost2010Prop31
280
     0
102
RTVSPost2010PropOp31
 70
     1
102
RTVSPost2010Prop32
280
     0
102
RTVSPost2010PropOp32
 70
     1
102
RTVSPost2010Prop33
280
     0
102
RTVSPost2010PropOp33
 70
     1
102
RTVSPost2010Prop34
280
     0
102
RTVSPost2010PropOp34
 70
     1
102
RTVSPost2010Prop35
280
     0
102
RTVSPost2010PropOp35
 70
     1
102
RTVSPost2010Prop36
280
     0
102
RTVSPost2010PropOp36
 70
     1
102
RTVSPost2010Prop37
 90
       50
102
RTVSPost2010PropOp37
 70
     1
102
RTVSPost2010Prop38
140
0.0
102
RTVSPost2010PropOp38
 70
     1
102
RTVSPost2010Prop39
140
1.0
102
RTVSPost2010PropOp39
 70
     1
102
RTVSPost2010Prop40
 90
        0
102
RTVSPost2010PropOp40
 70
     1
102
RTVSPost2010Prop41ColorIndex
 90
       18
102
RTVSPost2010Prop41ColorRGB
 90
        0
102
RTVSPost2010PropOp41
 70
     1
102
RTVSPost2010Prop42
 90
       50
102
RTVSPost2010PropOp42
 70
     1
102
RTVSPost2010Prop43
 90
        3
102
RTVSPost2010PropOp43
 70
     1
102
RTVSPost2010Prop44ColorIndex
 90
        5
102
RTVSPost2010Prop44ColorRGB
 90
      255
102
RTVSPost2010PropOp44
 70
     1
102
RTVSPost2010Prop45
280
     0
102
RTVSPost2010PropOp45
 70
     1
102
RTVSPost2010Prop46
 90
       50
102
RTVSPost2010PropOp46
 70
     1
102
RTVSPost2010Prop47
 90
       50
102
RTVSPost2010PropOp47
 70
     1
102
RTVSPost2010Prop48
 90
       50
102
RTVSPost2010PropOp48
 70
     1
102
RTVSPost2010Prop49
280
     0
102
RTVSPost2010PropOp49
 70
     1
102
RTVSPost2010Prop50
 90
       50
102
RTVSPost2010PropOp50
 70
     1
102
RTVSPost2010Prop51ColorIndex
 90
      256
102
RTVSPost2010Prop51ColorRGB
 90
-16777216
102
RTVSPost2010PropOp51
 70
     0
102
RTVSPost2010Prop52
140
1.0
102
RTVSPost2010PropOp52
 70
     0
102
RTVSPost2010Prop53
 90
        2
102
RTVSPost2010PropOp53
 70
     1
102
RTVSPost2010Prop54
  1
strokes_ogs.tif
102
RTVSPost2010PropOp54
 70
     1
102
RTVSPost2010Prop55
280
     0
102
RTVSPost2010PropOp55
 70
     1
102
RTVSPost2010Prop56
140
1.0
102
RTVSPost2010PropOp56
 70
     1
102
RTVSPost2010Prop57
140
1.0
102
RTVSPost2010PropOp57
 70
     1
102
RTVSPropertyOp0
 70
     1
102
RTVSPropertyOp1
 70
     1
102
RTVSPropertyOp2
 70
     1
102
RTVSPropertyOp3
 70
     1
102
RTVSPropertyOp4
 70
     1
102
RTVSPropertyOp5
 70
     1
102
RTVSPropertyOp6
 70
     1
102
RTVSPropertyOp7
 70
     1
102
RTVSPropertyOp8
 70
     1
102
RTVSPropertyOp9
 70
     1
102
RTVSPropertyOp10
 70
     1
102
RTVSPropertyOp11
 70
     1
102
RTVSPropertyOp12
 70
     1
102
RTVSPropertyOp13
 70
     1
102
RTVSPropertyOp14
 70
     1
102
RTVSPropertyOp15
 70
     1
102
RTVSPropertyOp16
 70
     1
102
RTVSPropertyOp17
 70
     1
102
RTVSPropertyOp18
 70
     1
102
RTVSPropertyOp19
 70
     1
102
RTVSPropertyOp20
 70
     1
102
RTVSPropertyOp21
 70
     1
102
RTVSPropertyOp22
 70
     1
102
RTVSPropertyOp23
 70
     1
102
RTVSPropertyOp24
 70
     1
102
RTVSPropertyOp25
 70
     1
102
RTVSPropertyOp26
 70
     1
102
RTVSPropertyOp27
 70
     1
102
RTVSPropertyOp28
 70
     1
102
RTVSPropertyOp29
 70
     1
102
RTVSPropertyOp30
 70
     1
102
RTVSPropertyOp31
 70
     1
102
RTVSPropertyOp32
 70
     1
102
RTVSPropertyOp33
 70
     1
102
RTVSPropertyOp34
 70
     1
102
RTVSPropertyOp35
 70
     1
102
RTVSPropertyOp36
 70
     1
102
RTVSPropertyOp37
 70
     1
102
RTVSPropertyOp38
 70
     1
102
RTVSPropertyOp39
 70
     1
102
RTVSPropertyOp40
 70
     1
102
RTVSPropertyOp41
 70
     1
102
RTVSPropertyOp42
 70
     1
102
RTVSPropertyOp43
 70
     1
102
RTVSPropertyOp44
 70
     1
102
RTVSPropertyOp45
 70
     1
102
RTVSPropertyOp46
 70
     1
102
RTVSPropertyOp47
 70
     1
102
RTVSPropertyOp48
 70
     1
102
RTVSPropertyOp49
 70
     1
102
RTVSPropertyOp50
 70
     1
102
RTVSPropertyOp51
 70
     0
102
RTVSPropertyOp52
 70
     0
102
RTVSPropertyOp53
 70
     1
102
RTVSPropertyOp54
 70
     1
102
RTVSPropertyOp55
 70
     1
102
RTVSPropertyOp56
 70
     1
102
RTVSPropertyOp57
 70
     1
102
RTVSPropertyOp58
 70
     1
102
RTVSPropertyOp59
 70
     1
102
RTVSPropertyOp60
 70
     1
102
RTVSPropertyOp61
 70
     1
102
RTVSPropertyOp62
 70
     1
  0
XRECORD
  5
57C9
102
{ACAD_REACTORS
330
57C8
102
}
330
57C8
100
AcDbXrecord
280
     1
102
RTVSPost2010Prop28
280
     0
102
RTVSPost2010PropOp28
 70
     1
102
RTVSPost2010Prop29
280
     1
102
RTVSPost2010PropOp29
 70
     1
102
RTVSPost2010Prop30
280
     1
102
RTVSPost2010PropOp30
 70
     1
102
RTVSPost2010Prop31
280
     0
102
RTVSPost2010PropOp31
 70
     1
102
RTVSPost2010Prop32
280
     0
102
RTVSPost2010PropOp32
 70
     1
102
RTVSPost2010Prop33
280
     0
102
RTVSPost2010PropOp33
 70
     1
102
RTVSPost2010Prop34
280
     0
102
RTVSPost2010PropOp34
 70
     1
102
RTVSPost2010Prop35
280
     0
102
RTVSPost2010PropOp35
 70
     1
102
RTVSPost2010Prop36
280
     0
102
RTVSPost2010PropOp36
 70
     1
102
RTVSPost2010Prop37
 90
       50
102
RTVSPost2010PropOp37
 70
     1
102
RTVSPost2010Prop38
140
0.0
102
RTVSPost2010PropOp38
 70
     1
102
RTVSPost2010Prop39
140
1.0
102
RTVSPost2010PropOp39
 70
     1
102
RTVSPost2010Prop40
 90
        0
102
RTVSPost2010PropOp40
 70
     1
102
RTVSPost2010Prop41ColorIndex
 90
       18
102
RTVSPost2010Prop41ColorRGB
 90
        0
102
RTVSPost2010PropOp41
 70
     1
102
RTVSPost2010Prop42
 90
       50
102
RTVSPost2010PropOp42
 70
     1
102
RTVSPost2010Prop43
 90
        3
102
RTVSPost2010PropOp43
 70
     1
102
RTVSPost2010Prop44ColorIndex
 90
        5
102
RTVSPost2010Prop44ColorRGB
 90
      255
102
RTVSPost2010PropOp44
 70
     1
102
RTVSPost2010Prop45
280
     0
102
RTVSPost2010PropOp45
 70
     1
102
RTVSPost2010Prop46
 90
       50
102
RTVSPost2010PropOp46
 70
     1
102
RTVSPost2010Prop47
 90
       50
102
RTVSPost2010PropOp47
 70
     1
102
RTVSPost2010Prop48
 90
       50
102
RTVSPost2010PropOp48
 70
     1
102
RTVSPost2010Prop49
280
     0
102
RTVSPost2010PropOp49
 70
     1
102
RTVSPost2010Prop50
 90
       50
102
RTVSPost2010PropOp50
 70
     1
102
RTVSPost2010Prop51ColorIndex
 90
      256
102
RTVSPost2010Prop51ColorRGB
 90
-16777216
102
RTVSPost2010PropOp51
 70
     0
102
RTVSPost2010Prop52
140
1.0
102
RTVSPost2010PropOp52
 70
     0
102
RTVSPost2010Prop53
 90
        2
102
RTVSPost2010PropOp53
 70
     1
102
RTVSPost2010Prop54
  1
strokes_ogs.tif
102
RTVSPost2010PropOp54
 70
     1
102
RTVSPost2010Prop55
280
     0
102
RTVSPost2010PropOp55
 70
     1
102
RTVSPost2010Prop56
140
1.0
102
RTVSPost2010PropOp56
 70
     1
102
RTVSPost2010Prop57
140
1.0
102
RTVSPost2010PropOp57
 70
     1
102
RTVSPropertyOp0
 70
     0
102
RTVSPropertyOp1
 70
     0
102
RTVSPropertyOp2
 70
     0
102
RTVSPropertyOp3
 70
     0
102
RTVSPropertyOp4
 70
     0
102
RTVSPropertyOp5
 70
     0
102
RTVSPropertyOp6
 70
     0
102
RTVSPropertyOp7
 70
     0
102
RTVSPropertyOp8
 70
     0
102
RTVSPropertyOp9
 70
     0
102
RTVSPropertyOp10
 70
     0
102
RTVSPropertyOp11
 70
     0
102
RTVSPropertyOp12
 70
     0
102
RTVSPropertyOp13
 70
     0
102
RTVSPropertyOp14
 70
     2
102
RTVSPropertyOp15
 70
     0
102
RTVSPropertyOp16
 70
     0
102
RTVSPropertyOp17
 70
     0
102
RTVSPropertyOp18
 70
     0
102
RTVSPropertyOp19
 70
     0
102
RTVSPropertyOp20
 70
     0
102
RTVSPropertyOp21
 70
     0
102
RTVSPropertyOp22
 70
     0
102
RTVSPropertyOp23
 70
     0
102
RTVSPropertyOp24
 70
     0
102
RTVSPropertyOp25
 70
     0
102
RTVSPropertyOp26
 70
     0
102
RTVSPropertyOp27
 70
     0
102
RTVSPropertyOp28
 70
     1
102
RTVSPropertyOp29
 70
     1
102
RTVSPropertyOp30
 70
     1
102
RTVSPropertyOp31
 70
     1
102
RTVSPropertyOp32
 70
     1
102
RTVSPropertyOp33
 70
     1
102
RTVSPropertyOp34
 70
     1
102
RTVSPropertyOp35
 70
     1
102
RTVSPropertyOp36
 70
     1
102
RTVSPropertyOp37
 70
     1
102
RTVSPropertyOp38
 70
     1
102
RTVSPropertyOp39
 70
     1
102
RTVSPropertyOp40
 70
     1
102
RTVSPropertyOp41
 70
     1
102
RTVSPropertyOp42
 70
     1
102
RTVSPropertyOp43
 70
     1
102
RTVSPropertyOp44
 70
     1
102
RTVSPropertyOp45
 70
     1
102
RTVSPropertyOp46
 70
     1
102
RTVSPropertyOp47
 70
     1
102
RTVSPropertyOp48
 70
     1
102
RTVSPropertyOp49
 70
     1
102
RTVSPropertyOp50
 70
     1
102
RTVSPropertyOp51
 70
     0
102
RTVSPropertyOp52
 70
     0
102
RTVSPropertyOp53
 70
     1
102
RTVSPropertyOp54
 70
     1
102
RTVSPropertyOp55
 70
     1
102
RTVSPropertyOp56
 70
     1
102
RTVSPropertyOp57
 70
     1
102
RTVSPropertyOp58
 70
     1
102
RTVSPropertyOp59
 70
     1
102
RTVSPropertyOp60
 70
     1
102
RTVSPropertyOp61
 70
     1
102
RTVSPropertyOp62
 70
     1
  0
XRECORD
  5
57C3
102
{ACAD_REACTORS
330
57C2
102
}
330
57C2
100
AcDbXrecord
280
     1
102
RTVSPost2010Prop28
280
     0
102
RTVSPost2010PropOp28
 70
     1
102
RTVSPost2010Prop29
280
     1
102
RTVSPost2010PropOp29
 70
     1
102
RTVSPost2010Prop30
280
     1
102
RTVSPost2010PropOp30
 70
     1
102
RTVSPost2010Prop31
280
     0
102
RTVSPost2010PropOp31
 70
     1
102
RTVSPost2010Prop32
280
     0
102
RTVSPost2010PropOp32
 70
     1
102
RTVSPost2010Prop33
280
     0
102
RTVSPost2010PropOp33
 70
     1
102
RTVSPost2010Prop34
280
     0
102
RTVSPost2010PropOp34
 70
     1
102
RTVSPost2010Prop35
280
     0
102
RTVSPost2010PropOp35
 70
     1
102
RTVSPost2010Prop36
280
     0
102
RTVSPost2010PropOp36
 70
     1
102
RTVSPost2010Prop37
 90
       50
102
RTVSPost2010PropOp37
 70
     1
102
RTVSPost2010Prop38
140
0.0
102
RTVSPost2010PropOp38
 70
     1
102
RTVSPost2010Prop39
140
1.0
102
RTVSPost2010PropOp39
 70
     1
102
RTVSPost2010Prop40
 90
        0
102
RTVSPost2010PropOp40
 70
     1
102
RTVSPost2010Prop41ColorIndex
 90
       18
102
RTVSPost2010Prop41ColorRGB
 90
        0
102
RTVSPost2010PropOp41
 70
     1
102
RTVSPost2010Prop42
 90
       50
102
RTVSPost2010PropOp42
 70
     1
102
RTVSPost2010Prop43
 90
        3
102
RTVSPost2010PropOp43
 70
     1
102
RTVSPost2010Prop44ColorIndex
 90
        5
102
RTVSPost2010Prop44ColorRGB
 90
      255
102
RTVSPost2010PropOp44
 70
     1
102
RTVSPost2010Prop45
280
     0
102
RTVSPost2010PropOp45
 70
     1
102
RTVSPost2010Prop46
 90
       50
102
RTVSPost2010PropOp46
 70
     1
102
RTVSPost2010Prop47
 90
       50
102
RTVSPost2010PropOp47
 70
     1
102
RTVSPost2010Prop48
 90
       50
102
RTVSPost2010PropOp48
 70
     1
102
RTVSPost2010Prop49
280
     0
102
RTVSPost2010PropOp49
 70
     1
102
RTVSPost2010Prop50
 90
       50
102
RTVSPost2010PropOp50
 70
     1
102
RTVSPost2010Prop51ColorIndex
 90
      256
102
RTVSPost2010Prop51ColorRGB
 90
-16777216
102
RTVSPost2010PropOp51
 70
     0
102
RTVSPost2010Prop52
140
1.0
102
RTVSPost2010PropOp52
 70
     0
102
RTVSPost2010Prop53
 90
        2
102
RTVSPost2010PropOp53
 70
     1
102
RTVSPost2010Prop54
  1
strokes_ogs.tif
102
RTVSPost2010PropOp54
 70
     1
102
RTVSPost2010Prop55
280
     0
102
RTVSPost2010PropOp55
 70
     1
102
RTVSPost2010Prop56
140
1.0
102
RTVSPost2010PropOp56
 70
     1
102
RTVSPost2010Prop57
140
1.0
102
RTVSPost2010PropOp57
 70
     1
102
RTVSPropertyOp0
 70
     1
102
RTVSPropertyOp1
 70
     1
102
RTVSPropertyOp2
 70
     1
102
RTVSPropertyOp3
 70
     1
102
RTVSPropertyOp4
 70
     1
102
RTVSPropertyOp5
 70
     1
102
RTVSPropertyOp6
 70
     1
102
RTVSPropertyOp7
 70
     1
102
RTVSPropertyOp8
 70
     1
102
RTVSPropertyOp9
 70
     1
102
RTVSPropertyOp10
 70
     1
102
RTVSPropertyOp11
 70
     1
102
RTVSPropertyOp12
 70
     1
102
RTVSPropertyOp13
 70
     1
102
RTVSPropertyOp14
 70
     1
102
RTVSPropertyOp15
 70
     1
102
RTVSPropertyOp16
 70
     1
102
RTVSPropertyOp17
 70
     1
102
RTVSPropertyOp18
 70
     1
102
RTVSPropertyOp19
 70
     1
102
RTVSPropertyOp20
 70
     1
102
RTVSPropertyOp21
 70
     1
102
RTVSPropertyOp22
 70
     1
102
RTVSPropertyOp23
 70
     1
102
RTVSPropertyOp24
 70
     1
102
RTVSPropertyOp25
 70
     1
102
RTVSPropertyOp26
 70
     1
102
RTVSPropertyOp27
 70
     1
102
RTVSPropertyOp28
 70
     1
102
RTVSPropertyOp29
 70
     1
102
RTVSPropertyOp30
 70
     1
102
RTVSPropertyOp31
 70
     1
102
RTVSPropertyOp32
 70
     1
102
RTVSPropertyOp33
 70
     1
102
RTVSPropertyOp34
 70
     1
102
RTVSPropertyOp35
 70
     1
102
RTVSPropertyOp36
 70
     1
102
RTVSPropertyOp37
 70
     1
102
RTVSPropertyOp38
 70
     1
102
RTVSPropertyOp39
 70
     1
102
RTVSPropertyOp40
 70
     1
102
RTVSPropertyOp41
 70
     1
102
RTVSPropertyOp42
 70
     1
102
RTVSPropertyOp43
 70
     1
102
RTVSPropertyOp44
 70
     1
102
RTVSPropertyOp45
 70
     1
102
RTVSPropertyOp46
 70
     1
102
RTVSPropertyOp47
 70
     1
102
RTVSPropertyOp48
 70
     1
102
RTVSPropertyOp49
 70
     1
102
RTVSPropertyOp50
 70
     1
102
RTVSPropertyOp51
 70
     0
102
RTVSPropertyOp52
 70
     0
102
RTVSPropertyOp53
 70
     1
102
RTVSPropertyOp54
 70
     1
102
RTVSPropertyOp55
 70
     1
102
RTVSPropertyOp56
 70
     1
102
RTVSPropertyOp57
 70
     1
102
RTVSPropertyOp58
 70
     1
102
RTVSPropertyOp59
 70
     1
102
RTVSPropertyOp60
 70
     1
102
RTVSPropertyOp61
 70
     1
102
RTVSPropertyOp62
 70
     1
  0
XRECORD
  5
57CB
102
{ACAD_REACTORS
330
57CA
102
}
330
57CA
100
AcDbXrecord
280
     1
102
RTVSPost2010Prop28
280
     0
102
RTVSPost2010PropOp28
 70
     1
102
RTVSPost2010Prop29
280
     1
102
RTVSPost2010PropOp29
 70
     1
102
RTVSPost2010Prop30
280
     1
102
RTVSPost2010PropOp30
 70
     1
102
RTVSPost2010Prop31
280
     0
102
RTVSPost2010PropOp31
 70
     1
102
RTVSPost2010Prop32
280
     0
102
RTVSPost2010PropOp32
 70
     1
102
RTVSPost2010Prop33
280
     0
102
RTVSPost2010PropOp33
 70
     1
102
RTVSPost2010Prop34
280
     0
102
RTVSPost2010PropOp34
 70
     1
102
RTVSPost2010Prop35
280
     0
102
RTVSPost2010PropOp35
 70
     1
102
RTVSPost2010Prop36
280
     0
102
RTVSPost2010PropOp36
 70
     1
102
RTVSPost2010Prop37
 90
       50
102
RTVSPost2010PropOp37
 70
     1
102
RTVSPost2010Prop38
140
0.0
102
RTVSPost2010PropOp38
 70
     1
102
RTVSPost2010Prop39
140
1.0
102
RTVSPost2010PropOp39
 70
     1
102
RTVSPost2010Prop40
 90
        0
102
RTVSPost2010PropOp40
 70
     1
102
RTVSPost2010Prop41ColorIndex
 90
       18
102
RTVSPost2010Prop41ColorRGB
 90
        0
102
RTVSPost2010PropOp41
 70
     1
102
RTVSPost2010Prop42
 90
       50
102
RTVSPost2010PropOp42
 70
     1
102
RTVSPost2010Prop43
 90
        3
102
RTVSPost2010PropOp43
 70
     1
102
RTVSPost2010Prop44ColorIndex
 90
        5
102
RTVSPost2010Prop44ColorRGB
 90
      255
102
RTVSPost2010PropOp44
 70
     1
102
RTVSPost2010Prop45
280
     0
102
RTVSPost2010PropOp45
 70
     1
102
RTVSPost2010Prop46
 90
       50
102
RTVSPost2010PropOp46
 70
     1
102
RTVSPost2010Prop47
 90
       50
102
RTVSPost2010PropOp47
 70
     1
102
RTVSPost2010Prop48
 90
       50
102
RTVSPost2010PropOp48
 70
     1
102
RTVSPost2010Prop49
280
     0
102
RTVSPost2010PropOp49
 70
     1
102
RTVSPost2010Prop50
 90
       50
102
RTVSPost2010PropOp50
 70
     1
102
RTVSPost2010Prop51ColorIndex
 90
      256
102
RTVSPost2010Prop51ColorRGB
 90
-16777216
102
RTVSPost2010PropOp51
 70
     0
102
RTVSPost2010Prop52
140
1.0
102
RTVSPost2010PropOp52
 70
     0
102
RTVSPost2010Prop53
 90
        2
102
RTVSPost2010PropOp53
 70
     1
102
RTVSPost2010Prop54
  1
strokes_ogs.tif
102
RTVSPost2010PropOp54
 70
     1
102
RTVSPost2010Prop55
280
     0
102
RTVSPost2010PropOp55
 70
     1
102
RTVSPost2010Prop56
140
1.0
102
RTVSPost2010PropOp56
 70
     1
102
RTVSPost2010Prop57
140
1.0
102
RTVSPost2010PropOp57
 70
     1
102
RTVSPropertyOp0
 70
     0
102
RTVSPropertyOp1
 70
     0
102
RTVSPropertyOp2
 70
     0
102
RTVSPropertyOp3
 70
     0
102
RTVSPropertyOp4
 70
     0
102
RTVSPropertyOp5
 70
     0
102
RTVSPropertyOp6
 70
     0
102
RTVSPropertyOp7
 70
     0
102
RTVSPropertyOp8
 70
     0
102
RTVSPropertyOp9
 70
     0
102
RTVSPropertyOp10
 70
     0
102
RTVSPropertyOp11
 70
     0
102
RTVSPropertyOp12
 70
     0
102
RTVSPropertyOp13
 70
     0
102
RTVSPropertyOp14
 70
     2
102
RTVSPropertyOp15
 70
     0
102
RTVSPropertyOp16
 70
     0
102
RTVSPropertyOp17
 70
     0
102
RTVSPropertyOp18
 70
     0
102
RTVSPropertyOp19
 70
     0
102
RTVSPropertyOp20
 70
     0
102
RTVSPropertyOp21
 70
     0
102
RTVSPropertyOp22
 70
     0
102
RTVSPropertyOp23
 70
     0
102
RTVSPropertyOp24
 70
     0
102
RTVSPropertyOp25
 70
     0
102
RTVSPropertyOp26
 70
     0
102
RTVSPropertyOp27
 70
     0
102
RTVSPropertyOp28
 70
     1
102
RTVSPropertyOp29
 70
     1
102
RTVSPropertyOp30
 70
     1
102
RTVSPropertyOp31
 70
     1
102
RTVSPropertyOp32
 70
     1
102
RTVSPropertyOp33
 70
     1
102
RTVSPropertyOp34
 70
     1
102
RTVSPropertyOp35
 70
     1
102
RTVSPropertyOp36
 70
     1
102
RTVSPropertyOp37
 70
     1
102
RTVSPropertyOp38
 70
     1
102
RTVSPropertyOp39
 70
     1
102
RTVSPropertyOp40
 70
     1
102
RTVSPropertyOp41
 70
     1
102
RTVSPropertyOp42
 70
     1
102
RTVSPropertyOp43
 70
     1
102
RTVSPropertyOp44
 70
     1
102
RTVSPropertyOp45
 70
     1
102
RTVSPropertyOp46
 70
     1
102
RTVSPropertyOp47
 70
     1
102
RTVSPropertyOp48
 70
     1
102
RTVSPropertyOp49
 70
     1
102
RTVSPropertyOp50
 70
     1
102
RTVSPropertyOp51
 70
     0
102
RTVSPropertyOp52
 70
     0
102
RTVSPropertyOp53
 70
     1
102
RTVSPropertyOp54
 70
     1
102
RTVSPropertyOp55
 70
     1
102
RTVSPropertyOp56
 70
     1
102
RTVSPropertyOp57
 70
     1
102
RTVSPropertyOp58
 70
     1
102
RTVSPropertyOp59
 70
     1
102
RTVSPropertyOp60
 70
     1
102
RTVSPropertyOp61
 70
     1
102
RTVSPropertyOp62
 70
     1
  0
XRECORD
  5
57BB
102
{ACAD_REACTORS
330
57BA
102
}
330
57BA
100
AcDbXrecord
280
     1
102
RTVSPost2010Prop28
280
     0
102
RTVSPost2010PropOp28
 70
     1
102
RTVSPost2010Prop29
280
     1
102
RTVSPost2010PropOp29
 70
     1
102
RTVSPost2010Prop30
280
     1
102
RTVSPost2010PropOp30
 70
     1
102
RTVSPost2010Prop31
280
     0
102
RTVSPost2010PropOp31
 70
     1
102
RTVSPost2010Prop32
280
     0
102
RTVSPost2010PropOp32
 70
     1
102
RTVSPost2010Prop33
280
     0
102
RTVSPost2010PropOp33
 70
     1
102
RTVSPost2010Prop34
280
     0
102
RTVSPost2010PropOp34
 70
     1
102
RTVSPost2010Prop35
280
     0
102
RTVSPost2010PropOp35
 70
     1
102
RTVSPost2010Prop36
280
     0
102
RTVSPost2010PropOp36
 70
     1
102
RTVSPost2010Prop37
 90
       50
102
RTVSPost2010PropOp37
 70
     1
102
RTVSPost2010Prop38
140
0.0
102
RTVSPost2010PropOp38
 70
     1
102
RTVSPost2010Prop39
140
1.0
102
RTVSPost2010PropOp39
 70
     1
102
RTVSPost2010Prop40
 90
        0
102
RTVSPost2010PropOp40
 70
     1
102
RTVSPost2010Prop41ColorIndex
 90
       18
102
RTVSPost2010Prop41ColorRGB
 90
        0
102
RTVSPost2010PropOp41
 70
     1
102
RTVSPost2010Prop42
 90
       50
102
RTVSPost2010PropOp42
 70
     1
102
RTVSPost2010Prop43
 90
        3
102
RTVSPost2010PropOp43
 70
     1
102
RTVSPost2010Prop44ColorIndex
 90
        5
102
RTVSPost2010Prop44ColorRGB
 90
      255
102
RTVSPost2010PropOp44
 70
     1
102
RTVSPost2010Prop45
280
     0
102
RTVSPost2010PropOp45
 70
     1
102
RTVSPost2010Prop46
 90
       50
102
RTVSPost2010PropOp46
 70
     1
102
RTVSPost2010Prop47
 90
       50
102
RTVSPost2010PropOp47
 70
     1
102
RTVSPost2010Prop48
 90
       50
102
RTVSPost2010PropOp48
 70
     1
102
RTVSPost2010Prop49
280
     0
102
RTVSPost2010PropOp49
 70
     1
102
RTVSPost2010Prop50
 90
       50
102
RTVSPost2010PropOp50
 70
     1
102
RTVSPost2010Prop51ColorIndex
 90
      256
102
RTVSPost2010Prop51ColorRGB
 90
-16777216
102
RTVSPost2010PropOp51
 70
     0
102
RTVSPost2010Prop52
140
1.0
102
RTVSPost2010PropOp52
 70
     0
102
RTVSPost2010Prop53
 90
        2
102
RTVSPost2010PropOp53
 70
     1
102
RTVSPost2010Prop54
  1
strokes_ogs.tif
102
RTVSPost2010PropOp54
 70
     1
102
RTVSPost2010Prop55
280
     0
102
RTVSPost2010PropOp55
 70
     1
102
RTVSPost2010Prop56
140
1.0
102
RTVSPost2010PropOp56
 70
     1
102
RTVSPost2010Prop57
140
1.0
102
RTVSPost2010PropOp57
 70
     1
102
RTVSPropertyOp0
 70
     1
102
RTVSPropertyOp1
 70
     1
102
RTVSPropertyOp2
 70
     1
102
RTVSPropertyOp3
 70
     1
102
RTVSPropertyOp4
 70
     1
102
RTVSPropertyOp5
 70
     1
102
RTVSPropertyOp6
 70
     1
102
RTVSPropertyOp7
 70
     1
102
RTVSPropertyOp8
 70
     1
102
RTVSPropertyOp9
 70
     1
102
RTVSPropertyOp10
 70
     1
102
RTVSPropertyOp11
 70
     1
102
RTVSPropertyOp12
 70
     1
102
RTVSPropertyOp13
 70
     1
102
RTVSPropertyOp14
 70
     1
102
RTVSPropertyOp15
 70
     1
102
RTVSPropertyOp16
 70
     1
102
RTVSPropertyOp17
 70
     1
102
RTVSPropertyOp18
 70
     1
102
RTVSPropertyOp19
 70
     1
102
RTVSPropertyOp20
 70
     1
102
RTVSPropertyOp21
 70
     1
102
RTVSPropertyOp22
 70
     1
102
RTVSPropertyOp23
 70
     1
102
RTVSPropertyOp24
 70
     1
102
RTVSPropertyOp25
 70
     1
102
RTVSPropertyOp26
 70
     1
102
RTVSPropertyOp27
 70
     1
102
RTVSPropertyOp28
 70
     1
102
RTVSPropertyOp29
 70
     1
102
RTVSPropertyOp30
 70
     1
102
RTVSPropertyOp31
 70
     1
102
RTVSPropertyOp32
 70
     1
102
RTVSPropertyOp33
 70
     1
102
RTVSPropertyOp34
 70
     1
102
RTVSPropertyOp35
 70
     1
102
RTVSPropertyOp36
 70
     1
102
RTVSPropertyOp37
 70
     1
102
RTVSPropertyOp38
 70
     1
102
RTVSPropertyOp39
 70
     1
102
RTVSPropertyOp40
 70
     1
102
RTVSPropertyOp41
 70
     1
102
RTVSPropertyOp42
 70
     1
102
RTVSPropertyOp43
 70
     1
102
RTVSPropertyOp44
 70
     1
102
RTVSPropertyOp45
 70
     1
102
RTVSPropertyOp46
 70
     1
102
RTVSPropertyOp47
 70
     1
102
RTVSPropertyOp48
 70
     1
102
RTVSPropertyOp49
 70
     1
102
RTVSPropertyOp50
 70
     1
102
RTVSPropertyOp51
 70
     0
102
RTVSPropertyOp52
 70
     0
102
RTVSPropertyOp53
 70
     1
102
RTVSPropertyOp54
 70
     1
102
RTVSPropertyOp55
 70
     1
102
RTVSPropertyOp56
 70
     1
102
RTVSPropertyOp57
 70
     1
102
RTVSPropertyOp58
 70
     1
102
RTVSPropertyOp59
 70
     1
102
RTVSPropertyOp60
 70
     1
102
RTVSPropertyOp61
 70
     1
102
RTVSPropertyOp62
 70
     1
  0
XRECORD
  5
57DB
102
{ACAD_REACTORS
330
57DA
102
}
330
57DA
100
AcDbXrecord
280
     1
102
RTVSPost2010Prop28
280
     0
102
RTVSPost2010PropOp28
 70
     1
102
RTVSPost2010Prop29
280
     1
102
RTVSPost2010PropOp29
 70
     1
102
RTVSPost2010Prop30
280
     1
102
RTVSPost2010PropOp30
 70
     1
102
RTVSPost2010Prop31
280
     0
102
RTVSPost2010PropOp31
 70
     1
102
RTVSPost2010Prop32
280
     0
102
RTVSPost2010PropOp32
 70
     1
102
RTVSPost2010Prop33
280
     0
102
RTVSPost2010PropOp33
 70
     1
102
RTVSPost2010Prop34
280
     0
102
RTVSPost2010PropOp34
 70
     1
102
RTVSPost2010Prop35
280
     0
102
RTVSPost2010PropOp35
 70
     1
102
RTVSPost2010Prop36
280
     0
102
RTVSPost2010PropOp36
 70
     1
102
RTVSPost2010Prop37
 90
       50
102
RTVSPost2010PropOp37
 70
     1
102
RTVSPost2010Prop38
140
0.0
102
RTVSPost2010PropOp38
 70
     1
102
RTVSPost2010Prop39
140
1.0
102
RTVSPost2010PropOp39
 70
     1
102
RTVSPost2010Prop40
 90
        0
102
RTVSPost2010PropOp40
 70
     1
102
RTVSPost2010Prop41ColorIndex
 90
       18
102
RTVSPost2010Prop41ColorRGB
 90
        0
102
RTVSPost2010PropOp41
 70
     1
102
RTVSPost2010Prop42
 90
       50
102
RTVSPost2010PropOp42
 70
     1
102
RTVSPost2010Prop43
 90
        3
102
RTVSPost2010PropOp43
 70
     1
102
RTVSPost2010Prop44ColorIndex
 90
        5
102
RTVSPost2010Prop44ColorRGB
 90
      255
102
RTVSPost2010PropOp44
 70
     1
102
RTVSPost2010Prop45
280
     0
102
RTVSPost2010PropOp45
 70
     1
102
RTVSPost2010Prop46
 90
       50
102
RTVSPost2010PropOp46
 70
     1
102
RTVSPost2010Prop47
 90
       50
102
RTVSPost2010PropOp47
 70
     1
102
RTVSPost2010Prop48
 90
       50
102
RTVSPost2010PropOp48
 70
     1
102
RTVSPost2010Prop49
280
     0
102
RTVSPost2010PropOp49
 70
     1
102
RTVSPost2010Prop50
 90
       50
102
RTVSPost2010PropOp50
 70
     1
102
RTVSPost2010Prop51ColorIndex
 90
      256
102
RTVSPost2010Prop51ColorRGB
 90
-16777216
102
RTVSPost2010PropOp51
 70
     0
102
RTVSPost2010Prop52
140
1.0
102
RTVSPost2010PropOp52
 70
     0
102
RTVSPost2010Prop53
 90
        2
102
RTVSPost2010PropOp53
 70
     1
102
RTVSPost2010Prop54
  1
strokes_ogs.tif
102
RTVSPost2010PropOp54
 70
     1
102
RTVSPost2010Prop55
280
     0
102
RTVSPost2010PropOp55
 70
     1
102
RTVSPost2010Prop56
140
1.0
102
RTVSPost2010PropOp56
 70
     1
102
RTVSPost2010Prop57
140
1.0
102
RTVSPost2010PropOp57
 70
     1
102
RTVSPropertyOp0
 70
     1
102
RTVSPropertyOp1
 70
     1
102
RTVSPropertyOp2
 70
     1
102
RTVSPropertyOp3
 70
     1
102
RTVSPropertyOp4
 70
     1
102
RTVSPropertyOp5
 70
     1
102
RTVSPropertyOp6
 70
     1
102
RTVSPropertyOp7
 70
     1
102
RTVSPropertyOp8
 70
     1
102
RTVSPropertyOp9
 70
     1
102
RTVSPropertyOp10
 70
     1
102
RTVSPropertyOp11
 70
     1
102
RTVSPropertyOp12
 70
     1
102
RTVSPropertyOp13
 70
     1
102
RTVSPropertyOp14
 70
     1
102
RTVSPropertyOp15
 70
     1
102
RTVSPropertyOp16
 70
     1
102
RTVSPropertyOp17
 70
     1
102
RTVSPropertyOp18
 70
     1
102
RTVSPropertyOp19
 70
     1
102
RTVSPropertyOp20
 70
     1
102
RTVSPropertyOp21
 70
     1
102
RTVSPropertyOp22
 70
     1
102
RTVSPropertyOp23
 70
     1
102
RTVSPropertyOp24
 70
     1
102
RTVSPropertyOp25
 70
     1
102
RTVSPropertyOp26
 70
     1
102
RTVSPropertyOp27
 70
     1
102
RTVSPropertyOp28
 70
     1
102
RTVSPropertyOp29
 70
     1
102
RTVSPropertyOp30
 70
     1
102
RTVSPropertyOp31
 70
     1
102
RTVSPropertyOp32
 70
     1
102
RTVSPropertyOp33
 70
     1
102
RTVSPropertyOp34
 70
     1
102
RTVSPropertyOp35
 70
     1
102
RTVSPropertyOp36
 70
     1
102
RTVSPropertyOp37
 70
     1
102
RTVSPropertyOp38
 70
     1
102
RTVSPropertyOp39
 70
     1
102
RTVSPropertyOp40
 70
     1
102
RTVSPropertyOp41
 70
     1
102
RTVSPropertyOp42
 70
     1
102
RTVSPropertyOp43
 70
     1
102
RTVSPropertyOp44
 70
     1
102
RTVSPropertyOp45
 70
     1
102
RTVSPropertyOp46
 70
     1
102
RTVSPropertyOp47
 70
     1
102
RTVSPropertyOp48
 70
     1
102
RTVSPropertyOp49
 70
     1
102
RTVSPropertyOp50
 70
     1
102
RTVSPropertyOp51
 70
     0
102
RTVSPropertyOp52
 70
     0
102
RTVSPropertyOp53
 70
     1
102
RTVSPropertyOp54
 70
     1
102
RTVSPropertyOp55
 70
     1
102
RTVSPropertyOp56
 70
     1
102
RTVSPropertyOp57
 70
     1
102
RTVSPropertyOp58
 70
     1
102
RTVSPropertyOp59
 70
     1
102
RTVSPropertyOp60
 70
     1
102
RTVSPropertyOp61
 70
     1
102
RTVSPropertyOp62
 70
     1
  0
XRECORD
  5
57D9
102
{ACAD_REACTORS
330
57D8
102
}
330
57D8
100
AcDbXrecord
280
     1
102
RTVSPost2010Prop28
280
     0
102
RTVSPost2010PropOp28
 70
     1
102
RTVSPost2010Prop29
280
     1
102
RTVSPost2010PropOp29
 70
     1
102
RTVSPost2010Prop30
280
     1
102
RTVSPost2010PropOp30
 70
     1
102
RTVSPost2010Prop31
280
     0
102
RTVSPost2010PropOp31
 70
     1
102
RTVSPost2010Prop32
280
     0
102
RTVSPost2010PropOp32
 70
     1
102
RTVSPost2010Prop33
280
     0
102
RTVSPost2010PropOp33
 70
     1
102
RTVSPost2010Prop34
280
     0
102
RTVSPost2010PropOp34
 70
     1
102
RTVSPost2010Prop35
280
     0
102
RTVSPost2010PropOp35
 70
     1
102
RTVSPost2010Prop36
280
     0
102
RTVSPost2010PropOp36
 70
     1
102
RTVSPost2010Prop37
 90
       50
102
RTVSPost2010PropOp37
 70
     1
102
RTVSPost2010Prop38
140
0.0
102
RTVSPost2010PropOp38
 70
     1
102
RTVSPost2010Prop39
140
1.0
102
RTVSPost2010PropOp39
 70
     1
102
RTVSPost2010Prop40
 90
        0
102
RTVSPost2010PropOp40
 70
     1
102
RTVSPost2010Prop41ColorIndex
 90
       18
102
RTVSPost2010Prop41ColorRGB
 90
        0
102
RTVSPost2010PropOp41
 70
     1
102
RTVSPost2010Prop42
 90
       50
102
RTVSPost2010PropOp42
 70
     1
102
RTVSPost2010Prop43
 90
        3
102
RTVSPost2010PropOp43
 70
     1
102
RTVSPost2010Prop44ColorIndex
 90
        5
102
RTVSPost2010Prop44ColorRGB
 90
      255
102
RTVSPost2010PropOp44
 70
     1
102
RTVSPost2010Prop45
280
     0
102
RTVSPost2010PropOp45
 70
     1
102
RTVSPost2010Prop46
 90
       50
102
RTVSPost2010PropOp46
 70
     1
102
RTVSPost2010Prop47
 90
       50
102
RTVSPost2010PropOp47
 70
     1
102
RTVSPost2010Prop48
 90
       50
102
RTVSPost2010PropOp48
 70
     1
102
RTVSPost2010Prop49
280
     0
102
RTVSPost2010PropOp49
 70
     1
102
RTVSPost2010Prop50
 90
       50
102
RTVSPost2010PropOp50
 70
     1
102
RTVSPost2010Prop51ColorIndex
 90
      256
102
RTVSPost2010Prop51ColorRGB
 90
-16777216
102
RTVSPost2010PropOp51
 70
     0
102
RTVSPost2010Prop52
140
1.0
102
RTVSPost2010PropOp52
 70
     0
102
RTVSPost2010Prop53
 90
        2
102
RTVSPost2010PropOp53
 70
     1
102
RTVSPost2010Prop54
  1
strokes_ogs.tif
102
RTVSPost2010PropOp54
 70
     1
102
RTVSPost2010Prop55
280
     0
102
RTVSPost2010PropOp55
 70
     1
102
RTVSPost2010Prop56
140
1.0
102
RTVSPost2010PropOp56
 70
     1
102
RTVSPost2010Prop57
140
1.0
102
RTVSPost2010PropOp57
 70
     1
102
RTVSPropertyOp0
 70
     1
102
RTVSPropertyOp1
 70
     1
102
RTVSPropertyOp2
 70
     1
102
RTVSPropertyOp3
 70
     1
102
RTVSPropertyOp4
 70
     1
102
RTVSPropertyOp5
 70
     1
102
RTVSPropertyOp6
 70
     1
102
RTVSPropertyOp7
 70
     1
102
RTVSPropertyOp8
 70
     1
102
RTVSPropertyOp9
 70
     1
102
RTVSPropertyOp10
 70
     1
102
RTVSPropertyOp11
 70
     1
102
RTVSPropertyOp12
 70
     1
102
RTVSPropertyOp13
 70
     1
102
RTVSPropertyOp14
 70
     1
102
RTVSPropertyOp15
 70
     1
102
RTVSPropertyOp16
 70
     1
102
RTVSPropertyOp17
 70
     1
102
RTVSPropertyOp18
 70
     1
102
RTVSPropertyOp19
 70
     1
102
RTVSPropertyOp20
 70
     1
102
RTVSPropertyOp21
 70
     1
102
RTVSPropertyOp22
 70
     1
102
RTVSPropertyOp23
 70
     1
102
RTVSPropertyOp24
 70
     1
102
RTVSPropertyOp25
 70
     1
102
RTVSPropertyOp26
 70
     1
102
RTVSPropertyOp27
 70
     1
102
RTVSPropertyOp28
 70
     1
102
RTVSPropertyOp29
 70
     1
102
RTVSPropertyOp30
 70
     1
102
RTVSPropertyOp31
 70
     1
102
RTVSPropertyOp32
 70
     1
102
RTVSPropertyOp33
 70
     1
102
RTVSPropertyOp34
 70
     1
102
RTVSPropertyOp35
 70
     1
102
RTVSPropertyOp36
 70
     1
102
RTVSPropertyOp37
 70
     1
102
RTVSPropertyOp38
 70
     1
102
RTVSPropertyOp39
 70
     1
102
RTVSPropertyOp40
 70
     1
102
RTVSPropertyOp41
 70
     1
102
RTVSPropertyOp42
 70
     1
102
RTVSPropertyOp43
 70
     1
102
RTVSPropertyOp44
 70
     1
102
RTVSPropertyOp45
 70
     1
102
RTVSPropertyOp46
 70
     1
102
RTVSPropertyOp47
 70
     1
102
RTVSPropertyOp48
 70
     1
102
RTVSPropertyOp49
 70
     1
102
RTVSPropertyOp50
 70
     1
102
RTVSPropertyOp51
 70
     0
102
RTVSPropertyOp52
 70
     0
102
RTVSPropertyOp53
 70
     1
102
RTVSPropertyOp54
 70
     1
102
RTVSPropertyOp55
 70
     1
102
RTVSPropertyOp56
 70
     1
102
RTVSPropertyOp57
 70
     1
102
RTVSPropertyOp58
 70
     1
102
RTVSPropertyOp59
 70
     1
102
RTVSPropertyOp60
 70
     1
102
RTVSPropertyOp61
 70
     1
102
RTVSPropertyOp62
 70
     1
  0
XRECORD
  5
57D3
102
{ACAD_REACTORS
330
57D2
102
}
330
57D2
100
AcDbXrecord
280
     1
102
RTVSPost2010Prop28
280
     0
102
RTVSPost2010PropOp28
 70
     1
102
RTVSPost2010Prop29
280
     1
102
RTVSPost2010PropOp29
 70
     1
102
RTVSPost2010Prop30
280
     1
102
RTVSPost2010PropOp30
 70
     1
102
RTVSPost2010Prop31
280
     0
102
RTVSPost2010PropOp31
 70
     1
102
RTVSPost2010Prop32
280
     0
102
RTVSPost2010PropOp32
 70
     1
102
RTVSPost2010Prop33
280
     0
102
RTVSPost2010PropOp33
 70
     1
102
RTVSPost2010Prop34
280
     0
102
RTVSPost2010PropOp34
 70
     1
102
RTVSPost2010Prop35
280
     0
102
RTVSPost2010PropOp35
 70
     1
102
RTVSPost2010Prop36
280
     0
102
RTVSPost2010PropOp36
 70
     1
102
RTVSPost2010Prop37
 90
       50
102
RTVSPost2010PropOp37
 70
     1
102
RTVSPost2010Prop38
140
0.0
102
RTVSPost2010PropOp38
 70
     1
102
RTVSPost2010Prop39
140
1.0
102
RTVSPost2010PropOp39
 70
     1
102
RTVSPost2010Prop40
 90
        0
102
RTVSPost2010PropOp40
 70
     1
102
RTVSPost2010Prop41ColorIndex
 90
       18
102
RTVSPost2010Prop41ColorRGB
 90
        0
102
RTVSPost2010PropOp41
 70
     1
102
RTVSPost2010Prop42
 90
       50
102
RTVSPost2010PropOp42
 70
     1
102
RTVSPost2010Prop43
 90
        3
102
RTVSPost2010PropOp43
 70
     1
102
RTVSPost2010Prop44ColorIndex
 90
        5
102
RTVSPost2010Prop44ColorRGB
 90
      255
102
RTVSPost2010PropOp44
 70
     1
102
RTVSPost2010Prop45
280
     0
102
RTVSPost2010PropOp45
 70
     1
102
RTVSPost2010Prop46
 90
       50
102
RTVSPost2010PropOp46
 70
     1
102
RTVSPost2010Prop47
 90
       50
102
RTVSPost2010PropOp47
 70
     1
102
RTVSPost2010Prop48
 90
       50
102
RTVSPost2010PropOp48
 70
     1
102
RTVSPost2010Prop49
280
     0
102
RTVSPost2010PropOp49
 70
     1
102
RTVSPost2010Prop50
 90
       50
102
RTVSPost2010PropOp50
 70
     1
102
RTVSPost2010Prop51ColorIndex
 90
      256
102
RTVSPost2010Prop51ColorRGB
 90
-16777216
102
RTVSPost2010PropOp51
 70
     0
102
RTVSPost2010Prop52
140
1.0
102
RTVSPost2010PropOp52
 70
     0
102
RTVSPost2010Prop53
 90
        2
102
RTVSPost2010PropOp53
 70
     1
102
RTVSPost2010Prop54
  1
strokes_ogs.tif
102
RTVSPost2010PropOp54
 70
     1
102
RTVSPost2010Prop55
280
     0
102
RTVSPost2010PropOp55
 70
     1
102
RTVSPost2010Prop56
140
1.0
102
RTVSPost2010PropOp56
 70
     1
102
RTVSPost2010Prop57
140
1.0
102
RTVSPost2010PropOp57
 70
     1
102
RTVSPropertyOp0
 70
     1
102
RTVSPropertyOp1
 70
     1
102
RTVSPropertyOp2
 70
     1
102
RTVSPropertyOp3
 70
     1
102
RTVSPropertyOp4
 70
     1
102
RTVSPropertyOp5
 70
     1
102
RTVSPropertyOp6
 70
     1
102
RTVSPropertyOp7
 70
     1
102
RTVSPropertyOp8
 70
     1
102
RTVSPropertyOp9
 70
     1
102
RTVSPropertyOp10
 70
     1
102
RTVSPropertyOp11
 70
     1
102
RTVSPropertyOp12
 70
     1
102
RTVSPropertyOp13
 70
     1
102
RTVSPropertyOp14
 70
     1
102
RTVSPropertyOp15
 70
     1
102
RTVSPropertyOp16
 70
     1
102
RTVSPropertyOp17
 70
     1
102
RTVSPropertyOp18
 70
     1
102
RTVSPropertyOp19
 70
     1
102
RTVSPropertyOp20
 70
     1
102
RTVSPropertyOp21
 70
     1
102
RTVSPropertyOp22
 70
     1
102
RTVSPropertyOp23
 70
     1
102
RTVSPropertyOp24
 70
     1
102
RTVSPropertyOp25
 70
     1
102
RTVSPropertyOp26
 70
     1
102
RTVSPropertyOp27
 70
     1
102
RTVSPropertyOp28
 70
     1
102
RTVSPropertyOp29
 70
     1
102
RTVSPropertyOp30
 70
     1
102
RTVSPropertyOp31
 70
     1
102
RTVSPropertyOp32
 70
     1
102
RTVSPropertyOp33
 70
     1
102
RTVSPropertyOp34
 70
     1
102
RTVSPropertyOp35
 70
     1
102
RTVSPropertyOp36
 70
     1
102
RTVSPropertyOp37
 70
     1
102
RTVSPropertyOp38
 70
     1
102
RTVSPropertyOp39
 70
     1
102
RTVSPropertyOp40
 70
     1
102
RTVSPropertyOp41
 70
     1
102
RTVSPropertyOp42
 70
     1
102
RTVSPropertyOp43
 70
     1
102
RTVSPropertyOp44
 70
     1
102
RTVSPropertyOp45
 70
     1
102
RTVSPropertyOp46
 70
     1
102
RTVSPropertyOp47
 70
     1
102
RTVSPropertyOp48
 70
     1
102
RTVSPropertyOp49
 70
     1
102
RTVSPropertyOp50
 70
     1
102
RTVSPropertyOp51
 70
     0
102
RTVSPropertyOp52
 70
     0
102
RTVSPropertyOp53
 70
     1
102
RTVSPropertyOp54
 70
     1
102
RTVSPropertyOp55
 70
     1
102
RTVSPropertyOp56
 70
     1
102
RTVSPropertyOp57
 70
     1
102
RTVSPropertyOp58
 70
     1
102
RTVSPropertyOp59
 70
     1
102
RTVSPropertyOp60
 70
     1
102
RTVSPropertyOp61
 70
     1
102
RTVSPropertyOp62
 70
     1
  0
XRECORD
  5
57D5
102
{ACAD_REACTORS
330
57D4
102
}
330
57D4
100
AcDbXrecord
280
     1
102
RTVSPost2010Prop28
280
     0
102
RTVSPost2010PropOp28
 70
     1
102
RTVSPost2010Prop29
280
     1
102
RTVSPost2010PropOp29
 70
     1
102
RTVSPost2010Prop30
280
     1
102
RTVSPost2010PropOp30
 70
     1
102
RTVSPost2010Prop31
280
     0
102
RTVSPost2010PropOp31
 70
     1
102
RTVSPost2010Prop32
280
     0
102
RTVSPost2010PropOp32
 70
     1
102
RTVSPost2010Prop33
280
     0
102
RTVSPost2010PropOp33
 70
     1
102
RTVSPost2010Prop34
280
     0
102
RTVSPost2010PropOp34
 70
     1
102
RTVSPost2010Prop35
280
     0
102
RTVSPost2010PropOp35
 70
     1
102
RTVSPost2010Prop36
280
     0
102
RTVSPost2010PropOp36
 70
     1
102
RTVSPost2010Prop37
 90
       50
102
RTVSPost2010PropOp37
 70
     1
102
RTVSPost2010Prop38
140
0.0
102
RTVSPost2010PropOp38
 70
     1
102
RTVSPost2010Prop39
140
1.0
102
RTVSPost2010PropOp39
 70
     1
102
RTVSPost2010Prop40
 90
        0
102
RTVSPost2010PropOp40
 70
     1
102
RTVSPost2010Prop41ColorIndex
 90
       18
102
RTVSPost2010Prop41ColorRGB
 90
        0
102
RTVSPost2010PropOp41
 70
     1
102
RTVSPost2010Prop42
 90
       50
102
RTVSPost2010PropOp42
 70
     1
102
RTVSPost2010Prop43
 90
        3
102
RTVSPost2010PropOp43
 70
     1
102
RTVSPost2010Prop44ColorIndex
 90
        5
102
RTVSPost2010Prop44ColorRGB
 90
      255
102
RTVSPost2010PropOp44
 70
     1
102
RTVSPost2010Prop45
280
     0
102
RTVSPost2010PropOp45
 70
     1
102
RTVSPost2010Prop46
 90
       50
102
RTVSPost2010PropOp46
 70
     1
102
RTVSPost2010Prop47
 90
       50
102
RTVSPost2010PropOp47
 70
     1
102
RTVSPost2010Prop48
 90
       50
102
RTVSPost2010PropOp48
 70
     1
102
RTVSPost2010Prop49
280
     0
102
RTVSPost2010PropOp49
 70
     1
102
RTVSPost2010Prop50
 90
       50
102
RTVSPost2010PropOp50
 70
     1
102
RTVSPost2010Prop51ColorIndex
 90
      256
102
RTVSPost2010Prop51ColorRGB
 90
-16777216
102
RTVSPost2010PropOp51
 70
     0
102
RTVSPost2010Prop52
140
1.0
102
RTVSPost2010PropOp52
 70
     0
102
RTVSPost2010Prop53
 90
        2
102
RTVSPost2010PropOp53
 70
     1
102
RTVSPost2010Prop54
  1
strokes_ogs.tif
102
RTVSPost2010PropOp54
 70
     1
102
RTVSPost2010Prop55
280
     0
102
RTVSPost2010PropOp55
 70
     1
102
RTVSPost2010Prop56
140
1.0
102
RTVSPost2010PropOp56
 70
     1
102
RTVSPost2010Prop57
140
1.0
102
RTVSPost2010PropOp57
 70
     1
102
RTVSPropertyOp0
 70
     1
102
RTVSPropertyOp1
 70
     1
102
RTVSPropertyOp2
 70
     1
102
RTVSPropertyOp3
 70
     1
102
RTVSPropertyOp4
 70
     1
102
RTVSPropertyOp5
 70
     1
102
RTVSPropertyOp6
 70
     1
102
RTVSPropertyOp7
 70
     1
102
RTVSPropertyOp8
 70
     1
102
RTVSPropertyOp9
 70
     1
102
RTVSPropertyOp10
 70
     1
102
RTVSPropertyOp11
 70
     1
102
RTVSPropertyOp12
 70
     1
102
RTVSPropertyOp13
 70
     1
102
RTVSPropertyOp14
 70
     1
102
RTVSPropertyOp15
 70
     1
102
RTVSPropertyOp16
 70
     1
102
RTVSPropertyOp17
 70
     1
102
RTVSPropertyOp18
 70
     1
102
RTVSPropertyOp19
 70
     1
102
RTVSPropertyOp20
 70
     1
102
RTVSPropertyOp21
 70
     1
102
RTVSPropertyOp22
 70
     1
102
RTVSPropertyOp23
 70
     1
102
RTVSPropertyOp24
 70
     1
102
RTVSPropertyOp25
 70
     1
102
RTVSPropertyOp26
 70
     1
102
RTVSPropertyOp27
 70
     1
102
RTVSPropertyOp28
 70
     1
102
RTVSPropertyOp29
 70
     1
102
RTVSPropertyOp30
 70
     1
102
RTVSPropertyOp31
 70
     1
102
RTVSPropertyOp32
 70
     1
102
RTVSPropertyOp33
 70
     1
102
RTVSPropertyOp34
 70
     1
102
RTVSPropertyOp35
 70
     1
102
RTVSPropertyOp36
 70
     1
102
RTVSPropertyOp37
 70
     1
102
RTVSPropertyOp38
 70
     1
102
RTVSPropertyOp39
 70
     1
102
RTVSPropertyOp40
 70
     1
102
RTVSPropertyOp41
 70
     1
102
RTVSPropertyOp42
 70
     1
102
RTVSPropertyOp43
 70
     1
102
RTVSPropertyOp44
 70
     1
102
RTVSPropertyOp45
 70
     1
102
RTVSPropertyOp46
 70
     1
102
RTVSPropertyOp47
 70
     1
102
RTVSPropertyOp48
 70
     1
102
RTVSPropertyOp49
 70
     1
102
RTVSPropertyOp50
 70
     1
102
RTVSPropertyOp51
 70
     0
102
RTVSPropertyOp52
 70
     0
102
RTVSPropertyOp53
 70
     1
102
RTVSPropertyOp54
 70
     1
102
RTVSPropertyOp55
 70
     1
102
RTVSPropertyOp56
 70
     1
102
RTVSPropertyOp57
 70
     1
102
RTVSPropertyOp58
 70
     1
102
RTVSPropertyOp59
 70
     1
102
RTVSPropertyOp60
 70
     1
102
RTVSPropertyOp61
 70
     1
102
RTVSPropertyOp62
 70
     1
  0
XRECORD
  5
57C1
102
{ACAD_REACTORS
330
57C0
102
}
330
57C0
100
AcDbXrecord
280
     1
102
RTVSPost2010Prop28
280
     0
102
RTVSPost2010PropOp28
 70
     1
102
RTVSPost2010Prop29
280
     1
102
RTVSPost2010PropOp29
 70
     1
102
RTVSPost2010Prop30
280
     1
102
RTVSPost2010PropOp30
 70
     1
102
RTVSPost2010Prop31
280
     0
102
RTVSPost2010PropOp31
 70
     1
102
RTVSPost2010Prop32
280
     0
102
RTVSPost2010PropOp32
 70
     1
102
RTVSPost2010Prop33
280
     0
102
RTVSPost2010PropOp33
 70
     1
102
RTVSPost2010Prop34
280
     0
102
RTVSPost2010PropOp34
 70
     1
102
RTVSPost2010Prop35
280
     0
102
RTVSPost2010PropOp35
 70
     1
102
RTVSPost2010Prop36
280
     0
102
RTVSPost2010PropOp36
 70
     1
102
RTVSPost2010Prop37
 90
       50
102
RTVSPost2010PropOp37
 70
     1
102
RTVSPost2010Prop38
140
0.0
102
RTVSPost2010PropOp38
 70
     1
102
RTVSPost2010Prop39
140
1.0
102
RTVSPost2010PropOp39
 70
     1
102
RTVSPost2010Prop40
 90
        0
102
RTVSPost2010PropOp40
 70
     1
102
RTVSPost2010Prop41ColorIndex
 90
       18
102
RTVSPost2010Prop41ColorRGB
 90
        0
102
RTVSPost2010PropOp41
 70
     1
102
RTVSPost2010Prop42
 90
       50
102
RTVSPost2010PropOp42
 70
     1
102
RTVSPost2010Prop43
 90
        3
102
RTVSPost2010PropOp43
 70
     1
102
RTVSPost2010Prop44ColorIndex
 90
        5
102
RTVSPost2010Prop44ColorRGB
 90
      255
102
RTVSPost2010PropOp44
 70
     1
102
RTVSPost2010Prop45
280
     0
102
RTVSPost2010PropOp45
 70
     1
102
RTVSPost2010Prop46
 90
       50
102
RTVSPost2010PropOp46
 70
     1
102
RTVSPost2010Prop47
 90
       50
102
RTVSPost2010PropOp47
 70
     1
102
RTVSPost2010Prop48
 90
       50
102
RTVSPost2010PropOp48
 70
     1
102
RTVSPost2010Prop49
280
     0
102
RTVSPost2010PropOp49
 70
     1
102
RTVSPost2010Prop50
 90
       50
102
RTVSPost2010PropOp50
 70
     1
102
RTVSPost2010Prop51ColorIndex
 90
      256
102
RTVSPost2010Prop51ColorRGB
 90
-16777216
102
RTVSPost2010PropOp51
 70
     0
102
RTVSPost2010Prop52
140
1.0
102
RTVSPost2010PropOp52
 70
     0
102
RTVSPost2010Prop53
 90
        2
102
RTVSPost2010PropOp53
 70
     1
102
RTVSPost2010Prop54
  1
strokes_ogs.tif
102
RTVSPost2010PropOp54
 70
     1
102
RTVSPost2010Prop55
280
     0
102
RTVSPost2010PropOp55
 70
     1
102
RTVSPost2010Prop56
140
1.0
102
RTVSPost2010PropOp56
 70
     1
102
RTVSPost2010Prop57
140
1.0
102
RTVSPost2010PropOp57
 70
     1
102
RTVSPropertyOp0
 70
     1
102
RTVSPropertyOp1
 70
     1
102
RTVSPropertyOp2
 70
     1
102
RTVSPropertyOp3
 70
     1
102
RTVSPropertyOp4
 70
     1
102
RTVSPropertyOp5
 70
     1
102
RTVSPropertyOp6
 70
     1
102
RTVSPropertyOp7
 70
     1
102
RTVSPropertyOp8
 70
     1
102
RTVSPropertyOp9
 70
     1
102
RTVSPropertyOp10
 70
     1
102
RTVSPropertyOp11
 70
     1
102
RTVSPropertyOp12
 70
     1
102
RTVSPropertyOp13
 70
     1
102
RTVSPropertyOp14
 70
     1
102
RTVSPropertyOp15
 70
     1
102
RTVSPropertyOp16
 70
     1
102
RTVSPropertyOp17
 70
     1
102
RTVSPropertyOp18
 70
     1
102
RTVSPropertyOp19
 70
     1
102
RTVSPropertyOp20
 70
     1
102
RTVSPropertyOp21
 70
     1
102
RTVSPropertyOp22
 70
     1
102
RTVSPropertyOp23
 70
     1
102
RTVSPropertyOp24
 70
     1
102
RTVSPropertyOp25
 70
     1
102
RTVSPropertyOp26
 70
     1
102
RTVSPropertyOp27
 70
     1
102
RTVSPropertyOp28
 70
     1
102
RTVSPropertyOp29
 70
     1
102
RTVSPropertyOp30
 70
     1
102
RTVSPropertyOp31
 70
     1
102
RTVSPropertyOp32
 70
     1
102
RTVSPropertyOp33
 70
     1
102
RTVSPropertyOp34
 70
     1
102
RTVSPropertyOp35
 70
     1
102
RTVSPropertyOp36
 70
     1
102
RTVSPropertyOp37
 70
     1
102
RTVSPropertyOp38
 70
     1
102
RTVSPropertyOp39
 70
     1
102
RTVSPropertyOp40
 70
     1
102
RTVSPropertyOp41
 70
     1
102
RTVSPropertyOp42
 70
     1
102
RTVSPropertyOp43
 70
     1
102
RTVSPropertyOp44
 70
     1
102
RTVSPropertyOp45
 70
     1
102
RTVSPropertyOp46
 70
     1
102
RTVSPropertyOp47
 70
     1
102
RTVSPropertyOp48
 70
     1
102
RTVSPropertyOp49
 70
     1
102
RTVSPropertyOp50
 70
     1
102
RTVSPropertyOp51
 70
     0
102
RTVSPropertyOp52
 70
     0
102
RTVSPropertyOp53
 70
     1
102
RTVSPropertyOp54
 70
     1
102
RTVSPropertyOp55
 70
     1
102
RTVSPropertyOp56
 70
     1
102
RTVSPropertyOp57
 70
     1
102
RTVSPropertyOp58
 70
     1
102
RTVSPropertyOp59
 70
     1
102
RTVSPropertyOp60
 70
     1
102
RTVSPropertyOp61
 70
     1
102
RTVSPropertyOp62
 70
     1
  0
XRECORD
  5
57CF
102
{ACAD_REACTORS
330
57CE
102
}
330
57CE
100
AcDbXrecord
280
     1
102
RTVSPost2010Prop28
280
     0
102
RTVSPost2010PropOp28
 70
     1
102
RTVSPost2010Prop29
280
     1
102
RTVSPost2010PropOp29
 70
     1
102
RTVSPost2010Prop30
280
     1
102
RTVSPost2010PropOp30
 70
     1
102
RTVSPost2010Prop31
280
     0
102
RTVSPost2010PropOp31
 70
     1
102
RTVSPost2010Prop32
280
     0
102
RTVSPost2010PropOp32
 70
     1
102
RTVSPost2010Prop33
280
     0
102
RTVSPost2010PropOp33
 70
     1
102
RTVSPost2010Prop34
280
     0
102
RTVSPost2010PropOp34
 70
     1
102
RTVSPost2010Prop35
280
     0
102
RTVSPost2010PropOp35
 70
     1
102
RTVSPost2010Prop36
280
     0
102
RTVSPost2010PropOp36
 70
     1
102
RTVSPost2010Prop37
 90
       50
102
RTVSPost2010PropOp37
 70
     1
102
RTVSPost2010Prop38
140
0.0
102
RTVSPost2010PropOp38
 70
     1
102
RTVSPost2010Prop39
140
1.0
102
RTVSPost2010PropOp39
 70
     1
102
RTVSPost2010Prop40
 90
        0
102
RTVSPost2010PropOp40
 70
     1
102
RTVSPost2010Prop41ColorIndex
 90
       18
102
RTVSPost2010Prop41ColorRGB
 90
        0
102
RTVSPost2010PropOp41
 70
     1
102
RTVSPost2010Prop42
 90
       50
102
RTVSPost2010PropOp42
 70
     1
102
RTVSPost2010Prop43
 90
        3
102
RTVSPost2010PropOp43
 70
     1
102
RTVSPost2010Prop44ColorIndex
 90
        5
102
RTVSPost2010Prop44ColorRGB
 90
      255
102
RTVSPost2010PropOp44
 70
     1
102
RTVSPost2010Prop45
280
     0
102
RTVSPost2010PropOp45
 70
     1
102
RTVSPost2010Prop46
 90
       50
102
RTVSPost2010PropOp46
 70
     1
102
RTVSPost2010Prop47
 90
       50
102
RTVSPost2010PropOp47
 70
     1
102
RTVSPost2010Prop48
 90
       50
102
RTVSPost2010PropOp48
 70
     1
102
RTVSPost2010Prop49
280
     0
102
RTVSPost2010PropOp49
 70
     1
102
RTVSPost2010Prop50
 90
       50
102
RTVSPost2010PropOp50
 70
     1
102
RTVSPost2010Prop51ColorIndex
 90
      256
102
RTVSPost2010Prop51ColorRGB
 90
-16777216
102
RTVSPost2010PropOp51
 70
     0
102
RTVSPost2010Prop52
140
1.0
102
RTVSPost2010PropOp52
 70
     0
102
RTVSPost2010Prop53
 90
        2
102
RTVSPost2010PropOp53
 70
     1
102
RTVSPost2010Prop54
  1
strokes_ogs.tif
102
RTVSPost2010PropOp54
 70
     1
102
RTVSPost2010Prop55
280
     0
102
RTVSPost2010PropOp55
 70
     1
102
RTVSPost2010Prop56
140
1.0
102
RTVSPost2010PropOp56
 70
     1
102
RTVSPost2010Prop57
140
1.0
102
RTVSPost2010PropOp57
 70
     1
102
RTVSPropertyOp0
 70
     1
102
RTVSPropertyOp1
 70
     1
102
RTVSPropertyOp2
 70
     1
102
RTVSPropertyOp3
 70
     1
102
RTVSPropertyOp4
 70
     1
102
RTVSPropertyOp5
 70
     1
102
RTVSPropertyOp6
 70
     1
102
RTVSPropertyOp7
 70
     1
102
RTVSPropertyOp8
 70
     1
102
RTVSPropertyOp9
 70
     1
102
RTVSPropertyOp10
 70
     1
102
RTVSPropertyOp11
 70
     1
102
RTVSPropertyOp12
 70
     1
102
RTVSPropertyOp13
 70
     1
102
RTVSPropertyOp14
 70
     1
102
RTVSPropertyOp15
 70
     1
102
RTVSPropertyOp16
 70
     1
102
RTVSPropertyOp17
 70
     1
102
RTVSPropertyOp18
 70
     1
102
RTVSPropertyOp19
 70
     1
102
RTVSPropertyOp20
 70
     1
102
RTVSPropertyOp21
 70
     1
102
RTVSPropertyOp22
 70
     1
102
RTVSPropertyOp23
 70
     1
102
RTVSPropertyOp24
 70
     1
102
RTVSPropertyOp25
 70
     1
102
RTVSPropertyOp26
 70
     1
102
RTVSPropertyOp27
 70
     1
102
RTVSPropertyOp28
 70
     1
102
RTVSPropertyOp29
 70
     1
102
RTVSPropertyOp30
 70
     1
102
RTVSPropertyOp31
 70
     1
102
RTVSPropertyOp32
 70
     1
102
RTVSPropertyOp33
 70
     1
102
RTVSPropertyOp34
 70
     1
102
RTVSPropertyOp35
 70
     1
102
RTVSPropertyOp36
 70
     1
102
RTVSPropertyOp37
 70
     1
102
RTVSPropertyOp38
 70
     1
102
RTVSPropertyOp39
 70
     1
102
RTVSPropertyOp40
 70
     1
102
RTVSPropertyOp41
 70
     1
102
RTVSPropertyOp42
 70
     1
102
RTVSPropertyOp43
 70
     1
102
RTVSPropertyOp44
 70
     1
102
RTVSPropertyOp45
 70
     1
102
RTVSPropertyOp46
 70
     1
102
RTVSPropertyOp47
 70
     1
102
RTVSPropertyOp48
 70
     1
102
RTVSPropertyOp49
 70
     1
102
RTVSPropertyOp50
 70
     1
102
RTVSPropertyOp51
 70
     0
102
RTVSPropertyOp52
 70
     0
102
RTVSPropertyOp53
 70
     1
102
RTVSPropertyOp54
 70
     1
102
RTVSPropertyOp55
 70
     1
102
RTVSPropertyOp56
 70
     1
102
RTVSPropertyOp57
 70
     1
102
RTVSPropertyOp58
 70
     1
102
RTVSPropertyOp59
 70
     1
102
RTVSPropertyOp60
 70
     1
102
RTVSPropertyOp61
 70
     1
102
RTVSPropertyOp62
 70
     1
  0
XRECORD
  5
57D7
102
{ACAD_REACTORS
330
57D6
102
}
330
57D6
100
AcDbXrecord
280
     1
102
RTVSPost2010Prop28
280
     0
102
RTVSPost2010PropOp28
 70
     1
102
RTVSPost2010Prop29
280
     1
102
RTVSPost2010PropOp29
 70
     1
102
RTVSPost2010Prop30
280
     1
102
RTVSPost2010PropOp30
 70
     1
102
RTVSPost2010Prop31
280
     0
102
RTVSPost2010PropOp31
 70
     1
102
RTVSPost2010Prop32
280
     0
102
RTVSPost2010PropOp32
 70
     1
102
RTVSPost2010Prop33
280
     0
102
RTVSPost2010PropOp33
 70
     1
102
RTVSPost2010Prop34
280
     0
102
RTVSPost2010PropOp34
 70
     1
102
RTVSPost2010Prop35
280
     0
102
RTVSPost2010PropOp35
 70
     1
102
RTVSPost2010Prop36
280
     0
102
RTVSPost2010PropOp36
 70
     1
102
RTVSPost2010Prop37
 90
       50
102
RTVSPost2010PropOp37
 70
     1
102
RTVSPost2010Prop38
140
0.0
102
RTVSPost2010PropOp38
 70
     1
102
RTVSPost2010Prop39
140
1.0
102
RTVSPost2010PropOp39
 70
     1
102
RTVSPost2010Prop40
 90
        0
102
RTVSPost2010PropOp40
 70
     1
102
RTVSPost2010Prop41ColorIndex
 90
       18
102
RTVSPost2010Prop41ColorRGB
 90
        0
102
RTVSPost2010PropOp41
 70
     1
102
RTVSPost2010Prop42
 90
       50
102
RTVSPost2010PropOp42
 70
     1
102
RTVSPost2010Prop43
 90
        3
102
RTVSPost2010PropOp43
 70
     1
102
RTVSPost2010Prop44ColorIndex
 90
        5
102
RTVSPost2010Prop44ColorRGB
 90
      255
102
RTVSPost2010PropOp44
 70
     1
102
RTVSPost2010Prop45
280
     0
102
RTVSPost2010PropOp45
 70
     1
102
RTVSPost2010Prop46
 90
       50
102
RTVSPost2010PropOp46
 70
     1
102
RTVSPost2010Prop47
 90
       50
102
RTVSPost2010PropOp47
 70
     1
102
RTVSPost2010Prop48
 90
       50
102
RTVSPost2010PropOp48
 70
     1
102
RTVSPost2010Prop49
280
     0
102
RTVSPost2010PropOp49
 70
     1
102
RTVSPost2010Prop50
 90
       50
102
RTVSPost2010PropOp50
 70
     1
102
RTVSPost2010Prop51ColorIndex
 90
      256
102
RTVSPost2010Prop51ColorRGB
 90
-16777216
102
RTVSPost2010PropOp51
 70
     0
102
RTVSPost2010Prop52
140
1.0
102
RTVSPost2010PropOp52
 70
     0
102
RTVSPost2010Prop53
 90
        2
102
RTVSPost2010PropOp53
 70
     1
102
RTVSPost2010Prop54
  1
strokes_ogs.tif
102
RTVSPost2010PropOp54
 70
     1
102
RTVSPost2010Prop55
280
     0
102
RTVSPost2010PropOp55
 70
     1
102
RTVSPost2010Prop56
140
1.0
102
RTVSPost2010PropOp56
 70
     1
102
RTVSPost2010Prop57
140
1.0
102
RTVSPost2010PropOp57
 70
     1
102
RTVSPropertyOp0
 70
     1
102
RTVSPropertyOp1
 70
     1
102
RTVSPropertyOp2
 70
     1
102
RTVSPropertyOp3
 70
     1
102
RTVSPropertyOp4
 70
     1
102
RTVSPropertyOp5
 70
     1
102
RTVSPropertyOp6
 70
     1
102
RTVSPropertyOp7
 70
     1
102
RTVSPropertyOp8
 70
     1
102
RTVSPropertyOp9
 70
     1
102
RTVSPropertyOp10
 70
     1
102
RTVSPropertyOp11
 70
     1
102
RTVSPropertyOp12
 70
     1
102
RTVSPropertyOp13
 70
     1
102
RTVSPropertyOp14
 70
     1
102
RTVSPropertyOp15
 70
     1
102
RTVSPropertyOp16
 70
     1
102
RTVSPropertyOp17
 70
     1
102
RTVSPropertyOp18
 70
     1
102
RTVSPropertyOp19
 70
     1
102
RTVSPropertyOp20
 70
     1
102
RTVSPropertyOp21
 70
     1
102
RTVSPropertyOp22
 70
     1
102
RTVSPropertyOp23
 70
     1
102
RTVSPropertyOp24
 70
     1
102
RTVSPropertyOp25
 70
     1
102
RTVSPropertyOp26
 70
     1
102
RTVSPropertyOp27
 70
     1
102
RTVSPropertyOp28
 70
     1
102
RTVSPropertyOp29
 70
     1
102
RTVSPropertyOp30
 70
     1
102
RTVSPropertyOp31
 70
     1
102
RTVSPropertyOp32
 70
     1
102
RTVSPropertyOp33
 70
     1
102
RTVSPropertyOp34
 70
     1
102
RTVSPropertyOp35
 70
     1
102
RTVSPropertyOp36
 70
     1
102
RTVSPropertyOp37
 70
     1
102
RTVSPropertyOp38
 70
     1
102
RTVSPropertyOp39
 70
     1
102
RTVSPropertyOp40
 70
     1
102
RTVSPropertyOp41
 70
     1
102
RTVSPropertyOp42
 70
     1
102
RTVSPropertyOp43
 70
     1
102
RTVSPropertyOp44
 70
     1
102
RTVSPropertyOp45
 70
     1
102
RTVSPropertyOp46
 70
     1
102
RTVSPropertyOp47
 70
     1
102
RTVSPropertyOp48
 70
     1
102
RTVSPropertyOp49
 70
     1
102
RTVSPropertyOp50
 70
     1
102
RTVSPropertyOp51
 70
     0
102
RTVSPropertyOp52
 70
     0
102
RTVSPropertyOp53
 70
     1
102
RTVSPropertyOp54
 70
     1
102
RTVSPropertyOp55
 70
     1
102
RTVSPropertyOp56
 70
     1
102
RTVSPropertyOp57
 70
     1
102
RTVSPropertyOp58
 70
     1
102
RTVSPropertyOp59
 70
     1
102
RTVSPropertyOp60
 70
     1
102
RTVSPropertyOp61
 70
     1
102
RTVSPropertyOp62
 70
     1
  0
XRECORD
  5
5469
102
{ACAD_REACTORS
330
5468
102
}
330
5468
100
AcDbXrecord
280
     1
330
5345
  0
ENDSEC
  0
EOF
