  0
SECTION
  2
HEADER
  9
$ACADVER
  1
AC1018
  9
$ACADMAINTVER
 70
   104
  9
$DWGCODEPAGE
  3
ANSI_1252
  9
$LASTSAVEDBY
  1
kamerka
  9
$INSBASE
 10
0.0
 20
0.0
 30
0.0
  9
$EXTMIN
 10
-84.82698660969026
 20
-16.50617442028294
 30
-0.0015258207003583
  9
$EXTMAX
 10
164.8593408802689
 20
46.52734967547781
 30
0.0000000349246037
  9
$LIMMIN
 10
0.0
 20
0.0
  9
$LIMMAX
 10
420.0
 20
297.0
  9
$ORTHOMODE
 70
     0
  9
$REGENMODE
 70
     1
  9
$FILLMODE
 70
     1
  9
$QTEXTMODE
 70
     0
  9
$MIRRTEXT
 70
     1
  9
$LTSCALE
 40
0.7
  9
$ATTMODE
 70
     1
  9
$TEXTSIZE
 40
0.0
  9
$TRACEWID
 40
1.0
  9
$TEXTSTYLE
  7
STANDARD
  9
$CLAYER
  8
0
  9
$CELTYPE
  6
ByLayer
  9
$CECOLOR
 62
   256
  9
$CELTSCALE
 40
1.0
  9
$DISPSILH
 70
     0
  9
$DIMSCALE
 40
1.0
  9
$DIMASZ
 40
2.5
  9
$DIMEXO
 40
0.625
  9
$DIMDLI
 40
3.75
  9
$DIMRND
 40
0.0
  9
$DIMDLE
 40
0.0
  9
$DIMEXE
 40
1.25
  9
$DIMTP
 40
0.0
  9
$DIMTM
 40
0.0
  9
$DIMTXT
 40
3.5
  9
$DIMCEN
 40
2.5
  9
$DIMTSZ
 40
0.0
  9
$DIMTOL
 70
     0
  9
$DIMLIM
 70
     0
  9
$DIMTIH
 70
     0
  9
$DIMTOH
 70
     0
  9
$DIMSE1
 70
     0
  9
$DIMSE2
 70
     0
  9
$DIMTAD
 70
     1
  9
$DIMZIN
 70
     8
  9
$DIMBLK
  1

  9
$DIMASO
 70
     1
  9
$DIMSHO
 70
     1
  9
$DIMPOST
  1

  9
$DIMAPOST
  1

  9
$DIMALT
 70
     0
  9
$DIMALTD
 70
     3
  9
$DIMALTF
 40
0.03937
  9
$DIMLFAC
 40
1.0
  9
$DIMTOFL
 70
     1
  9
$DIMTVP
 40
0.0
  9
$DIMTIX
 70
     0
  9
$DIMSOXD
 70
     0
  9
$DIMSAH
 70
     0
  9
$DIMBLK1
  1

  9
$DIMBLK2
  1

  9
$DIMSTYLE
  2
STANDARD
  9
$DIMCLRD
 70
     0
  9
$DIMCLRE
 70
     0
  9
$DIMCLRT
 70
     0
  9
$DIMTFAC
 40
1.0
  9
$DIMGAP
 40
0.625
  9
$DIMJUST
 70
     0
  9
$DIMSD1
 70
     0
  9
$DIMSD2
 70
     0
  9
$DIMTOLJ
 70
     0
  9
$DIMTZIN
 70
     8
  9
$DIMALTZ
 70
     0
  9
$DIMALTTZ
 70
     0
  9
$DIMUPT
 70
     0
  9
$DIMDEC
 70
     1
  9
$DIMTDEC
 70
     1
  9
$DIMALTU
 70
     2
  9
$DIMALTTD
 70
     3
  9
$DIMTXSTY
  7
STANDARD
  9
$DIMAUNIT
 70
     0
  9
$DIMADEC
 70
     0
  9
$DIMALTRND
 40
0.0
  9
$DIMAZIN
 70
     0
  9
$DIMDSEP
 70
    46
  9
$DIMATFIT
 70
     0
  9
$DIMFRAC
 70
     0
  9
$DIMLDRBLK
  1

  9
$DIMLUNIT
 70
     2
  9
$DIMLWD
 70
    -2
  9
$DIMLWE
 70
    -2
  9
$DIMTMOVE
 70
     0
  9
$LUNITS
 70
     2
  9
$LUPREC
 70
     4
  9
$SKETCHINC
 40
1.0
  9
$FILLETRAD
 40
0.0
  9
$AUNITS
 70
     0
  9
$AUPREC
 70
     0
  9
$MENU
  1
.
  9
$ELEVATION
 40
0.0
  9
$PELEVATION
 40
0.0
  9
$THICKNESS
 40
0.0
  9
$LIMCHECK
 70
     0
  9
$CHAMFERA
 40
2.5
  9
$CHAMFERB
 40
2.5
  9
$CHAMFERC
 40
0.0
  9
$CHAMFERD
 40
0.0
  9
$SKPOLY
 70
     0
  9
$TDCREATE
 40
2455371.218342917
  9
$TDUCREATE
 40
2455371.176676250
  9
$TDUPDATE
 40
2456643.540878889
  9
$TDUUPDATE
 40
2456643.499212222
  9
$TDINDWG
 40
0.0545236921
  9
$TDUSRTIMER
 40
0.0545227894
  9
$USRTIMER
 70
     1
  9
$ANGBASE
 50
0.0
  9
$ANGDIR
 70
     0
  9
$PDMODE
 70
     3
  9
$PDSIZE
 40
0.0
  9
$PLINEWID
 40
0.0
  9
$SPLFRAME
 70
     0
  9
$SPLINETYPE
 70
     6
  9
$SPLINESEGS
 70
     8
  9
$HANDSEED
  5
13A1
  9
$SURFTAB1
 70
     6
  9
$SURFTAB2
 70
     6
  9
$SURFTYPE
 70
     6
  9
$SURFU
 70
     6
  9
$SURFV
 70
     6
  9
$UCSBASE
  2

  9
$UCSNAME
  2

  9
$UCSORG
 10
0.0
 20
0.0
 30
0.0
  9
$UCSXDIR
 10
1.0
 20
0.0
 30
0.0
  9
$UCSYDIR
 10
0.0
 20
1.0
 30
0.0
  9
$UCSORTHOREF
  2

  9
$UCSORTHOVIEW
 70
     0
  9
$UCSORGTOP
 10
186.9170544364426
 20
-59.65494681493987
 30
0.0
  9
$UCSORGBOTTOM
 10
0.0
 20
0.0
 30
0.0
  9
$UCSORGLEFT
 10
0.0
 20
0.0
 30
0.0
  9
$UCSORGRIGHT
 10
0.0
 20
0.0
 30
0.0
  9
$UCSORGFRONT
 10
0.0
 20
0.0
 30
0.0
  9
$UCSORGBACK
 10
0.0
 20
0.0
 30
0.0
  9
$PUCSBASE
  2

  9
$PUCSNAME
  2

  9
$PUCSORG
 10
0.0
 20
0.0
 30
0.0
  9
$PUCSXDIR
 10
1.0
 20
0.0
 30
0.0
  9
$PUCSYDIR
 10
0.0
 20
1.0
 30
0.0
  9
$PUCSORTHOREF
  2

  9
$PUCSORTHOVIEW
 70
     0
  9
$PUCSORGTOP
 10
0.0
 20
0.0
 30
0.0
  9
$PUCSORGBOTTOM
 10
0.0
 20
0.0
 30
0.0
  9
$PUCSORGLEFT
 10
0.0
 20
0.0
 30
0.0
  9
$PUCSORGRIGHT
 10
0.0
 20
0.0
 30
0.0
  9
$PUCSORGFRONT
 10
0.0
 20
0.0
 30
0.0
  9
$PUCSORGBACK
 10
0.0
 20
0.0
 30
0.0
  9
$USERI1
 70
     0
  9
$USERI2
 70
     0
  9
$USERI3
 70
     0
  9
$USERI4
 70
     0
  9
$USERI5
 70
     0
  9
$USERR1
 40
0.0
  9
$USERR2
 40
0.0
  9
$USERR3
 40
0.0
  9
$USERR4
 40
0.0
  9
$USERR5
 40
0.0
  9
$WORLDVIEW
 70
     1
  9
$SHADEDGE
 70
     3
  9
$SHADEDIF
 70
    70
  9
$TILEMODE
 70
     1
  9
$MAXACTVP
 70
    48
  9
$PINSBASE
 10
0.0
 20
0.0
 30
0.0
  9
$PLIMCHECK
 70
     0
  9
$PEXTMIN
 10
0.0
 20
0.0
 30
0.0
  9
$PEXTMAX
 10
21.720013
 20
10.0
 30
2.0
  9
$PLIMMIN
 10
0.0
 20
0.0
  9
$PLIMMAX
 10
420.0
 20
297.0
  9
$UNITMODE
 70
     0
  9
$VISRETAIN
 70
     0
  9
$PLINEGEN
 70
     0
  9
$PSLTSCALE
 70
     1
  9
$TREEDEPTH
 70
  3020
  9
$CMLSTYLE
  2
Standard
  9
$CMLJUST
 70
     0
  9
$CMLSCALE
 40
20.0
  9
$PROXYGRAPHICS
 70
     1
  9
$MEASUREMENT
 70
     1
  9
$CELWEIGHT
370
    -1
  9
$ENDCAPS
280
     0
  9
$JOINSTYLE
280
     0
  9
$LWDISPLAY
290
     0
  9
$INSUNITS
 70
     0
  9
$HYPERLINKBASE
  1

  9
$STYLESHEET
  1

  9
$XEDIT
290
     1
  9
$CEPSNTYPE
380
     0
  9
$PSTYLEMODE
290
     0
  9
$FINGERPRINTGUID
  2

  9
$VERSIONGUID
  2
{952EFA98-B09B-45CB-8A03-7905E0A8FF41}
  9
$EXTNAMES
290
     0
  9
$PSVPSCALE
 40
0.0
  9
$OLESTARTUP
290
     0
  9
$SORTENTS
280
   127
  9
$INDEXCTL
280
     0
  9
$HIDETEXT
280
     0
  9
$XCLIPFRAME
290
     0
  9
$HALOGAP
280
     0
  9
$OBSCOLOR
 70
   257
  9
$OBSLTYPE
280
     0
  9
$INTERSECTIONDISPLAY
280
     0
  9
$INTERSECTIONCOLOR
 70
   257
  9
$DIMASSOC
280
     1
  9
$PROJECTNAME
  1

  0
ENDSEC
  0
SECTION
  2
CLASSES
  0
CLASS
  1
IMAGE
  2
AcDbRasterImage
  3
ISM
 90
     2175
 91
        0
280
     0
281
     1
  0
CLASS
  1
DICTIONARYVAR
  2
AcDbDictionaryVar
  3
ObjectDBX Classes
 90
        0
 91
        9
280
     0
281
     0
  0
CLASS
  1
RASTERVARIABLES
  2
AcDbRasterVariables
  3
ISM
 90
        0
 91
        0
280
     0
281
     0
  0
CLASS
  1
IMAGEDEF
  2
AcDbRasterImageDef
  3
ISM
 90
        0
 91
        0
280
     0
281
     0
  0
CLASS
  1
IMAGEDEF_REACTOR
  2
AcDbRasterImageDefReactor
  3
ISM
 90
        1
 91
        0
280
     0
281
     0
  0
CLASS
  1
IDBUFFER
  2
AcDbIdBuffer
  3
ObjectDBX Classes
 90
        0
 91
        0
280
     0
281
     0
  0
CLASS
  1
SPATIAL_FILTER
  2
AcDbSpatialFilter
  3
ObjectDBX Classes
 90
        0
 91
        0
280
     0
281
     0
  0
CLASS
  1
SORTENTSTABLE
  2
AcDbSortentsTable
  3
ObjectDBX Classes
 90
        0
 91
        2
280
     0
281
     0
  0
CLASS
  1
LAYER_INDEX
  2
AcDbLayerIndex
  3
ObjectDBX Classes
 90
        0
 91
        0
280
     0
281
     0
  0
CLASS
  1
SPATIAL_INDEX
  2
AcDbSpatialIndex
  3
ObjectDBX Classes
 90
        0
 91
        0
280
     0
281
     0
  0
CLASS
  1
OBJECT_PTR
  2
CAseDLPNTableRecord
  3
ASE-LPNTableRecord
 90
        1
 91
        0
280
     0
281
     0
  0
CLASS
  1
PLOTSETTINGS
  2
AcDbPlotSettings
  3
ObjectDBX Classes
 90
        0
 91
        0
280
     0
281
     0
  0
CLASS
  1
ACDBDICTIONARYWDFLT
  2
AcDbDictionaryWithDefault
  3
ObjectDBX Classes
 90
        0
 91
        1
280
     0
281
     0
  0
CLASS
  1
WIPEOUT
  2
AcDbWipeout
  3
WipeOut|Product Desc: Object Enabler for WipeOut entity | Company: Autodesk, Inc. | WEB Address: www.autodesk.com
 90
     2175
 91
        0
280
     0
281
     1
  0
CLASS
  1
WIPEOUTVARIABLES
  2
AcDbWipeoutVariables
  3
"WipeOut|Product Desc:     WipeOut Dbx Application|Company:          Autodesk, Inc.|WEB Address:      www.autodesk.com"
 90
        0
 91
        1
280
     0
281
     0
  0
CLASS
  1
RTEXT
  2
RText
  3
RText|AutoCAD Express Tool|expresstools@autodesk.com
 90
        0
 91
        0
280
     0
281
     1
  0
CLASS
  1
ARCALIGNEDTEXT
  2
AcDbArcAlignedText
  3
ATEXT|AutoCAD Express Tool|expresstools@autodesk.com
 90
        0
 91
        0
280
     0
281
     1
  0
CLASS
  1
TABLESTYLE
  2
AcDbTableStyle
  3
ObjectDBX Classes
 90
     4095
 91
        1
280
     0
281
     0
  0
CLASS
  1
MATERIAL
  2
AcDbMaterial
  3
ObjectDBX Classes
 90
     1153
 91
        3
280
     0
281
     0
  0
CLASS
  1
VISUALSTYLE
  2
AcDbVisualStyle
  3
ObjectDBX Classes
 90
     4095
 91
       26
280
     0
281
     0
  0
CLASS
  1
SCALE
  2
AcDbScale
  3
ObjectDBX Classes
 90
     1153
 91
       17
280
     0
281
     0
  0
CLASS
  1
MLEADERSTYLE
  2
AcDbMLeaderStyle
  3
ACDB_MLEADERSTYLE_CLASS
 90
     4095
 91
        1
280
     0
281
     0
  0
CLASS
  1
CELLSTYLEMAP
  2
AcDbCellStyleMap
  3
ObjectDBX Classes
 90
     1152
 91
        2
280
     0
281
     0
  0
CLASS
  1
DIMASSOC
  2
AcDbDimAssoc
  3
"AcDbDimAssoc|Product Desc:     AcDim ARX App For Dimension|Company:          Autodesk, Inc.|WEB Address:      www.autodesk.com"
 90
        0
 91
        4
280
     0
281
     0
  0
ENDSEC
  0
SECTION
  2
TABLES
  0
TABLE
  2
VPORT
  5
7
330
0
100
AcDbSymbolTable
 70
     1
  0
VPORT
  5
D20
330
7
100
AcDbSymbolTableRecord
100
AcDbViewportTableRecord
  2
*Active
 70
     0
 10
0.0
 20
0.0
 11
1.0
 21
1.0
 12
40.01617713528938
 22
15.01058762759743
 13
0.0
 23
0.0
 14
1.0
 24
1.0
 15
0.0
 25
0.0
 16
0.0
 26
0.0
 36
1.0
 17
0.0
 27
0.0
 37
0.0
 40
130.532268991309
 41
1.922118380062305
 42
50.0
 43
0.0
 44
0.0
 50
0.0
 51
0.0
 71
     0
 72
   100
 73
     1
 74
     3
 75
     0
 76
     0
 77
     0
 78
     0
281
     0
 65
     0
110
0.0
120
0.0
130
0.0
111
1.0
121
0.0
131
0.0
112
0.0
122
1.0
132
0.0
 79
     0
146
0.0
1001
ACAD_NAV_VCDISPLAY
1070
     3
  0
ENDTAB
  0
TABLE
  2
LTYPE
  5
4
330
0
100
AcDbSymbolTable
 70
    23
  0
LTYPE
  5
11
330
4
100
AcDbSymbolTableRecord
100
AcDbLinetypeTableRecord
  2
ByBlock
 70
     0
  3

 72
    65
 73
     0
 40
0.0
  0
LTYPE
  5
12
330
4
100
AcDbSymbolTableRecord
100
AcDbLinetypeTableRecord
  2
ByLayer
 70
     0
  3

 72
    65
 73
     0
 40
0.0
  0
LTYPE
  5
13
330
4
100
AcDbSymbolTableRecord
100
AcDbLinetypeTableRecord
  2
Continuous
 70
     0
  3
Solid line
 72
    65
 73
     0
 40
0.0
  0
LTYPE
  5
4EC
330
4
100
AcDbSymbolTableRecord
100
AcDbLinetypeTableRecord
  2
CENTER2
 70
     0
  3
Center (.5x) ___ _ ___ _ ___ _ ___ _ ___ _ ___
 72
    65
 73
     4
 40
28.575
 49
19.05
 74
     0
 49
-3.174999999999998
 74
     0
 49
3.174999999999998
 74
     0
 49
-3.174999999999998
 74
     0
  0
ENDTAB
  0
TABLE
  2
LAYER
  5
2
102
{ACAD_XDICTIONARY
360
52C
102
}
330
0
100
AcDbSymbolTable
 70
    17
  0
LAYER
  5
14
102
{ACAD_XDICTIONARY
360
D9F
102
}
330
2
100
AcDbSymbolTableRecord
100
AcDbLayerTableRecord
  2
0
 70
     0
 62
     7
  6
Continuous
370
    -3
390
1D
  0
LAYER
  5
170
330
2
100
AcDbSymbolTableRecord
100
AcDbLayerTableRecord
  2
Defpoints
 70
     0
 62
     7
  6
Continuous
290
     0
370
    -3
390
1D
  0
LAYER
  5
4EE
102
{ACAD_XDICTIONARY
360
4EF
102
}
330
2
100
AcDbSymbolTableRecord
100
AcDbLayerTableRecord
  2
1
 70
     0
 62
     4
  6
Continuous
370
    50
390
1D
  0
LAYER
  5
4F1
102
{ACAD_XDICTIONARY
360
4F2
102
}
330
2
100
AcDbSymbolTableRecord
100
AcDbLayerTableRecord
  2
2
 70
     0
 62
     7
  6
Continuous
370
    25
390
1D
  0
LAYER
  5
4F4
102
{ACAD_XDICTIONARY
360
4F5
102
}
330
2
100
AcDbSymbolTableRecord
100
AcDbLayerTableRecord
  2
SK2
 70
     0
 62
     7
  6
Continuous
370
    25
390
1D
  0
LAYER
  5
4FA
102
{ACAD_XDICTIONARY
360
4FB
102
}
330
2
100
AcDbSymbolTableRecord
100
AcDbLayerTableRecord
  2
4
 70
     0
 62
     2
  6
CENTER2
370
    25
390
1D
  0
LAYER
  5
4FD
102
{ACAD_XDICTIONARY
360
4FE
102
}
330
2
100
AcDbSymbolTableRecord
100
AcDbLayerTableRecord
  2
SK4
 70
     0
 62
     2
  6
CENTER2
370
    25
390
1D
  0
LAYER
  5
500
102
{ACAD_XDICTIONARY
360
501
102
}
330
2
100
AcDbSymbolTableRecord
100
AcDbLayerTableRecord
  2
SK6
 70
     0
 62
     5
  6
Continuous
370
    -3
390
1D
  0
LAYER
  5
503
102
{ACAD_XDICTIONARY
360
504
102
}
330
2
100
AcDbSymbolTableRecord
100
AcDbLayerTableRecord
  2
CUT
 70
     0
 62
     1
  6
Continuous
370
    25
390
1D
  0
LAYER
  5
506
102
{ACAD_XDICTIONARY
360
507
102
}
330
2
100
AcDbSymbolTableRecord
100
AcDbLayerTableRecord
  2
NOCUT
 70
     0
 62
     7
  6
Continuous
370
    -3
390
1D
  0
LAYER
  5
50D
102
{ACAD_XDICTIONARY
360
DA1
102
}
330
2
100
AcDbSymbolTableRecord
100
AcDbLayerTableRecord
  2
SK1
 70
     0
 62
     4
  6
Continuous
370
    50
390
1D
1001
AcAecLayerStandard
1000

1000

  0
LAYER
  5
50E
102
{ACAD_XDICTIONARY
360
DA3
102
}
330
2
100
AcDbSymbolTableRecord
100
AcDbLayerTableRecord
  2
INSERT
 70
     0
 62
     4
  6
Continuous
370
    50
390
1D
1001
AcAecLayerStandard
1000

1000

  0
ENDTAB
  0
TABLE
  2
STYLE
  5
3
330
0
100
AcDbSymbolTable
 70
     5
  0
STYLE
  5
17
330
3
100
AcDbSymbolTableRecord
100
AcDbTextStyleTableRecord
  2
STANDARD
 70
     0
 40
0.0
 41
1.0
 50
0.0
 71
     0
 42
0.0
  3
isocp.shx
  4

  0
ENDTAB
  0
TABLE
  2
VIEW
  5
5
330
0
100
AcDbSymbolTable
 70
     0
  0
ENDTAB
  0
TABLE
  2
UCS
  5
6
330
0
100
AcDbSymbolTable
 70
     0
  0
ENDTAB
  0
TABLE
  2
APPID
  5
8
330
0
100
AcDbSymbolTable
 70
    39
  0
APPID
  5
16
330
8
100
AcDbSymbolTableRecord
100
AcDbRegAppTableRecord
  2
ACAD
 70
     0
  0
APPID
  5
510
330
8
100
AcDbSymbolTableRecord
100
AcDbRegAppTableRecord
  2
ACAD_PSEXT
 70
     0
  0
APPID
  5
511
330
8
100
AcDbSymbolTableRecord
100
AcDbRegAppTableRecord
  2
ACAD_EXEMPT_FROM_CAD_STANDARDS
 70
     0
  0
APPID
  5
512
330
8
100
AcDbSymbolTableRecord
100
AcDbRegAppTableRecord
  2
ACAD_MLEADERVER
 70
     0
  0
APPID
  5
513
330
8
100
AcDbSymbolTableRecord
100
AcDbRegAppTableRecord
  2
ACAD_DSTYLE_DIMJAG
 70
     0
  0
APPID
  5
514
330
8
100
AcDbSymbolTableRecord
100
AcDbRegAppTableRecord
  2
ACAD_DSTYLE_DIMBREAK
 70
     0
  0
APPID
  5
515
330
8
100
AcDbSymbolTableRecord
100
AcDbRegAppTableRecord
  2
ACAD_DSTYLE_DIMTALN
 70
     0
  0
APPID
  5
516
330
8
100
AcDbSymbolTableRecord
100
AcDbRegAppTableRecord
  2
AcAecLayerStandard
 70
     0
  0
APPID
  5
517
330
8
100
AcDbSymbolTableRecord
100
AcDbRegAppTableRecord
  2
DCO15
 70
     0
  0
APPID
  5
518
330
8
100
AcDbSymbolTableRecord
100
AcDbRegAppTableRecord
  2
AcadAnnoPO
 70
     0
  0
APPID
  5
519
330
8
100
AcDbSymbolTableRecord
100
AcDbRegAppTableRecord
  2
ACAD_DSTYLE_DIMRADIAL_EXTENSION
 70
     0
  0
APPID
  5
51A
330
8
100
AcDbSymbolTableRecord
100
AcDbRegAppTableRecord
  2
ACAD_DSTYLE_DIMTEXT_FILL
 70
     0
  0
APPID
  5
51B
330
8
100
AcDbSymbolTableRecord
100
AcDbRegAppTableRecord
  2
ACAD_DSTYLE_DIMEXT_LENGTH
 70
     0
  0
APPID
  5
51C
330
8
100
AcDbSymbolTableRecord
100
AcDbRegAppTableRecord
  2
ACAD_DSTYLE_DIMEXT_ENABLED
 70
     0
  0
APPID
  5
51D
330
8
100
AcDbSymbolTableRecord
100
AcDbRegAppTableRecord
  2
ACAD_DSTYLE_DIM_LINETYPE
 70
     0
  0
APPID
  5
51E
330
8
100
AcDbSymbolTableRecord
100
AcDbRegAppTableRecord
  2
ACAD_DSTYLE_DIM_EXT1_LINETYPE
 70
     0
  0
APPID
  5
51F
330
8
100
AcDbSymbolTableRecord
100
AcDbRegAppTableRecord
  2
ACAD_DSTYLE_DIM_EXT2_LINETYPE
 70
     0
  0
APPID
  5
520
330
8
100
AcDbSymbolTableRecord
100
AcDbRegAppTableRecord
  2
ACAD_DSTYLE_DIMJOGGED_JOGANGLE_SYMBOL
 70
     0
  0
APPID
  5
521
330
8
100
AcDbSymbolTableRecord
100
AcDbRegAppTableRecord
  2
ACAD_DSTYLE_DIMARC_LENGTH_SYMBOL
 70
     0
  0
APPID
  5
E54
330
8
100
AcDbSymbolTableRecord
100
AcDbRegAppTableRecord
  2
AcLayerTools
 70
     0
  0
APPID
  5
122E
330
8
100
AcDbSymbolTableRecord
100
AcDbRegAppTableRecord
  2
MCAD_NO_VIS
 70
     0
  0
APPID
  5
122F
330
8
100
AcDbSymbolTableRecord
100
AcDbRegAppTableRecord
  2
ACAD_TEMP_GRAPHIC
 70
     0
  0
APPID
  5
1230
330
8
100
AcDbSymbolTableRecord
100
AcDbRegAppTableRecord
  2
AD_DRAW
 70
     0
  0
APPID
  5
1231
330
8
100
AcDbSymbolTableRecord
100
AcDbRegAppTableRecord
  2
ACATTRIBSERVICES
 70
     0
  0
APPID
  5
1232
330
8
100
AcDbSymbolTableRecord
100
AcDbRegAppTableRecord
  2
DESIGNERASSEMBLIES
 70
     0
  0
APPID
  5
1233
330
8
100
AcDbSymbolTableRecord
100
AcDbRegAppTableRecord
  2
ACADM_DIM_EDIT
 70
     0
  0
APPID
  5
1234
330
8
100
AcDbSymbolTableRecord
100
AcDbRegAppTableRecord
  2
AMDT_DM_ADJ
 70
     0
  0
APPID
  5
1235
330
8
100
AcDbSymbolTableRecord
100
AcDbRegAppTableRecord
  2
GENIUS_GENSCREG_15
 70
     0
  0
APPID
  5
1236
330
8
100
AcDbSymbolTableRecord
100
AcDbRegAppTableRecord
  2
GENIUS_GENOBJ-N-SDF_13
 70
     0
  0
APPID
  5
1237
330
8
100
AcDbSymbolTableRecord
100
AcDbRegAppTableRecord
  2
GENIUS_GENODEF_13
 70
     0
  0
APPID
  5
1238
330
8
100
AcDbSymbolTableRecord
100
AcDbRegAppTableRecord
  2
ADCADD_ZZ
 70
     0
  0
APPID
  5
1239
330
8
100
AcDbSymbolTableRecord
100
AcDbRegAppTableRecord
  2
SDSK_PMN
 70
     0
  0
APPID
  5
123A
330
8
100
AcDbSymbolTableRecord
100
AcDbRegAppTableRecord
  2
AEC_DWGVARSSETUP_DATA
 70
     0
  0
APPID
  5
123B
330
8
100
AcDbSymbolTableRecord
100
AcDbRegAppTableRecord
  2
AECBASE
 70
     0
  0
APPID
  5
123C
330
8
100
AcDbSymbolTableRecord
100
AcDbRegAppTableRecord
  2
AEC_DISPREPCONFIG_DATA
 70
     0
  0
APPID
  5
123D
330
8
100
AcDbSymbolTableRecord
100
AcDbRegAppTableRecord
  2
AEC_DISPREPSET_DATA
 70
     0
  0
APPID
  5
123E
330
8
100
AcDbSymbolTableRecord
100
AcDbRegAppTableRecord
  2
GENIUS_GENREC_14
 70
     0
  0
APPID
  5
123F
330
8
100
AcDbSymbolTableRecord
100
AcDbRegAppTableRecord
  2
GENIUS_GENOBJ-N-REC_13
 70
     0
  0
APPID
  5
1240
330
8
100
AcDbSymbolTableRecord
100
AcDbRegAppTableRecord
  2
ACAD_NAV_VCDISPLAY
 70
     0
  0
ENDTAB
  0
TABLE
  2
DIMSTYLE
  5
9
330
0
100
AcDbSymbolTable
 70
     9
100
AcDbDimStyleTable
 71
     2
340
122D
340
18
  0
DIMSTYLE
105
18
330
9
100
AcDbSymbolTableRecord
100
AcDbDimStyleTableRecord
  2
STANDARD
 70
     0
 41
2.5
 42
0.625
 43
3.75
 44
1.25
 73
     0
 74
     0
 77
     1
 78
     8
140
3.5
141
2.5
143
0.03937
147
0.625
171
     3
172
     1
271
     1
272
     1
274
     3
283
     0
284
     8
289
     0
340
17
1001
ACAD_DSTYLE_DIMEXT_LENGTH
1070
   378
1040
1.25
1001
ACAD_DSTYLE_DIMJOGGED_JOGANGLE_SYMBOL
1070
   384
1040
1.570796326794896
  0
DIMSTYLE
105
122D
102
{ACAD_REACTORS
330
15F
330
160
330
15E
330
15D
102
}
330
9
100
AcDbSymbolTableRecord
100
AcDbDimStyleTableRecord
  2
ISO-25
 70
     0
 41
2.5
 42
0.625
 43
3.75
 44
1.25
 73
     0
 74
     0
 77
     1
 78
     8
140
2.5
141
2.5
143
0.03937007874016
147
0.625
171
     3
172
     1
271
     2
272
     2
274
     3
283
     0
284
     8
340
17
1001
ACAD_DSTYLE_DIMEXT_LENGTH
1070
   378
1040
1.25
1001
ACAD_DSTYLE_DIMJOGGED_JOGANGLE_SYMBOL
1070
   384
1040
1.570796326794896
  0
ENDTAB
  0
TABLE
  2
BLOCK_RECORD
  5
1
330
0
100
AcDbSymbolTable
 70
    22
  0
BLOCK_RECORD
  5
A
102
{ACAD_XDICTIONARY
360
5EA
102
}
330
1
100
AcDbSymbolTableRecord
100
AcDbBlockTableRecord
  2
*MODEL_SPACE
340
20
  0
BLOCK_RECORD
  5
B
330
1
100
AcDbSymbolTableRecord
100
AcDbBlockTableRecord
  2
*PAPER_SPACE
340
21
  0
BLOCK_RECORD
  5
171
330
1
100
AcDbSymbolTableRecord
100
AcDbBlockTableRecord
  2
*D0
340
0
  0
BLOCK_RECORD
  5
17D
330
1
100
AcDbSymbolTableRecord
100
AcDbBlockTableRecord
  2
*D1
340
0
  0
BLOCK_RECORD
  5
189
330
1
100
AcDbSymbolTableRecord
100
AcDbBlockTableRecord
  2
*D2
340
0
  0
BLOCK_RECORD
  5
195
330
1
100
AcDbSymbolTableRecord
100
AcDbBlockTableRecord
  2
*D3
340
0
  0
BLOCK_RECORD
  5
1C8
330
1
100
AcDbSymbolTableRecord
100
AcDbBlockTableRecord
  2
CERO_POINT
340
0
310
2800000020000000200000000100080000000000000400000000000000000000000000000000000000000000000080000080000000808000800000008000800080800000C0C0C000C0DCC000F0CAA6000020400000206000002080000020A0000020C0000020E00000400000004020000040400000406000004080000040A0
310
000040C0000040E00000600000006020000060400000606000006080000060A0000060C0000060E00000800000008020000080400000806000008080000080A0000080C0000080E00000A0000000A0200000A0400000A0600000A0800000A0A00000A0C00000A0E00000C0000000C0200000C0400000C0600000C0800000C0
310
A00000C0C00000C0E00000E0000000E0200000E0400000E0600000E0800000E0A00000E0C00000E0E00040000000400020004000400040006000400080004000A0004000C0004000E00040200000402020004020400040206000402080004020A0004020C0004020E000404000004040200040404000404060004040800040
310
40A0004040C0004040E00040600000406020004060400040606000406080004060A0004060C0004060E00040800000408020004080400040806000408080004080A0004080C0004080E00040A0000040A0200040A0400040A0600040A0800040A0A00040A0C00040A0E00040C0000040C0200040C0400040C0600040C08000
310
40C0A00040C0C00040C0E00040E0000040E0200040E0400040E0600040E0800040E0A00040E0C00040E0E00080000000800020008000400080006000800080008000A0008000C0008000E00080200000802020008020400080206000802080008020A0008020C0008020E00080400000804020008040400080406000804080
310
008040A0008040C0008040E00080600000806020008060400080606000806080008060A0008060C0008060E00080800000808020008080400080806000808080008080A0008080C0008080E00080A0000080A0200080A0400080A0600080A0800080A0A00080A0C00080A0E00080C0000080C0200080C0400080C0600080C0
310
800080C0A00080C0C00080C0E00080E0000080E0200080E0400080E0600080E0800080E0A00080E0C00080E0E000C0000000C0002000C0004000C0006000C0008000C000A000C000C000C000E000C0200000C0202000C0204000C0206000C0208000C020A000C020C000C020E000C0400000C0402000C0404000C0406000C0
310
408000C040A000C040C000C040E000C0600000C0602000C0604000C0606000C0608000C060A000C060C000C060E000C0800000C0802000C0804000C0806000C0808000C080A000C080C000C080E000C0A00000C0A02000C0A04000C0A06000C0A08000C0A0A000C0A0C000C0A0E000C0C00000C0C02000C0C04000C0C06000
310
C0C08000C0C0A000F0FBFF00A4A0A000808080000000FF0000FF000000FFFF00FF000000FF00FF00FFFF0000FFFFFF00000000000000000000000000000000000000000000000000000000000000000000000000000000000000000000000000FF0000000000000000000000000000000000000000000000000000000000FF
310
FFFFFFFF000000000000000000000000000000000000000000FFFFFFFFFFFF0000FF0000FFFF00FF00000000000000000000000000000000FF00000000000000FFFFFF0000FFFFFFFF000000000000000000000000000000FF0000000000000000FF00FF0000FF00FFFF00000000000000000000000000FF00000000000000
310
0000FFFF00FF0000FF0000FFFF00000000000000000000FF000000000000000000FFFF00FF00FF0000FF0000FF000000000000000000FF0000000000000000000000FF0000FF00FF0000FF0000FF0000000000000000FF00000000000000000000FFFFFF0000FFFFFF0000FF00FFFF000000000000FF000000000000000000
310
000000FF00FF000000FFFF0000FF00FF0000000000FF00000000000000000000000000FFFF00FFFF0000FFFF0000FFFF0000000000FF000000000000000000000000FFFF00FF0000FF0000FFFF0000FF0000000000FF00000000000000000000000000FF0000FF0000FF0000FFFF0000FF00000000FF000000000000000000
310
000000FFFFFF0000FF0000FF0000FFFF00FF00000000FF00FF00000000FF0000FF00FF00FFFFFF0000FF0000FF0000FFFF00FF0000FFFFFFFFFFFFFFFFFFFFFFFFFFFFFFFFFFFFFFFFFFFFFFFFFFFFFFFFFFFF000000FF00FF00FF00FF0000FF0000FFFFFF00000000000000000000000000FF000000FF0000FF00FF00FF00
310
00FF0000FFFF000000000000000000000000FF00000000FFFF0000FF00FF00FF00FF000000FF000000000000000000000000FF00000000FF00FF0000FF00FF00FF00FF0000FF0000000000000000000000FF000000000000FF00FF0000FFFF0000FF00FF00FF0000000000000000000000FF000000000000FFFF00FF00FF00
310
FF0000FF00FFFF00000000000000000000FF0000000000000000FF0000FF00FF00FF0000FF00FF00000000000000000000FF000000000000000000FF0000FF00FF00FF0000FFFF000000000000000000FF0000000000000000000000FF0000FF00FF00FF0000FF000000000000000000FF000000000000000000000000FF00
310
00FF00FF00FF00FF00000000000000FFFF00000000000000000000000000FFFF0000FF00FF00FFFF0000000000FFFF00000000000000000000000000000000FFFFFFFFFF00FF00FF000000FFFF0000000000000000000000000000000000000000000000FFFFFFFFFFFFFF0000000000000000000000000000000000000000
310
0000000000000000FF0000000000000000000000000000000000000000000000000000000000000000000000000000000000000000000000
102
{BLKREFS
331
53D
102
}
1001
ACAD
1000
DesignCenter Data
1002
{
1070
     1
1070
     4
1002
}
  0
ENDTAB
  0
ENDSEC
  0
SECTION
  2
BLOCKS
  0
BLOCK
  5
D
330
A
100
AcDbEntity
  8
0
100
AcDbBlockBegin
  2
*MODEL_SPACE
 70
     0
 10
0.0
 20
0.0
 30
0.0
  3
*MODEL_SPACE
  1

  0
ENDBLK
  5
E
330
A
100
AcDbEntity
  8
0
100
AcDbBlockEnd
  0
BLOCK
  5
F
330
B
100
AcDbEntity
 67
     1
  8
0
100
AcDbBlockBegin
  2
*PAPER_SPACE
 70
     0
 10
0.0
 20
0.0
 30
0.0
  3
*PAPER_SPACE
  1

  0
ENDBLK
  5
10
330
B
100
AcDbEntity
 67
     1
  8
0
100
AcDbBlockEnd
  0
BLOCK
  5
17B
330
171
100
AcDbEntity
  8
0
100
AcDbBlockBegin
  2
*D0
 70
     1
 10
0.0
 20
0.0
 30
0.0
  3
*D0
  1

  0
LINE
  5
135C
330
171
100
AcDbEntity
  8
SK2
 62
     0
440
 16777216
370
    -2
100
AcDbLine
 10
-70.1500208130477
 20
4.62499999965346
 30
0.0
 11
-70.15135539372202
 21
44.70143608979188
 31
0.0
  0
LINE
  5
135D
330
171
100
AcDbEntity
  8
SK2
 62
     0
440
 16777216
370
    -2
100
AcDbLine
 10
149.8499791869524
 20
0.6249999996534607
 30
0.0
 11
149.848511158781
 21
44.70876227941596
 31
0.0
  0
LINE
  5
135E
330
171
100
AcDbEntity
  8
SK2
 62
     0
440
 16777216
370
    -2
100
AcDbLine
 10
-67.65131376900557
 20
43.45151934269025
 30
0.0
 11
147.3485527862698
 21
43.45867902790379
 31
0.0
  0
SOLID
  5
135F
330
171
100
AcDbEntity
  8
SK2
 62
     0
440
 16777216
100
AcDbTrace
 10
-67.65132764437311
 20
43.86818600912588
 30
0.0
 11
-67.65129989363803
 21
43.03485267625461
 31
0.0
 12
-70.15131376761939
 22
43.45143609048498
 32
0.0
 13
-70.15131376761939
 23
43.45143609048498
 33
0.0
  0
SOLID
  5
1360
330
171
100
AcDbEntity
  8
SK2
 62
     0
440
 16777216
100
AcDbTrace
 10
147.3485389109022
 20
43.87534569433942
 30
0.0
 11
147.3485666616373
 21
43.04201236146815
 31
0.0
 12
149.8485527848836
 22
43.45876228010906
 32
0.0
 13
149.8485527848836
 23
43.45876228010906
 33
0.0
  0
MTEXT
  5
1361
330
171
100
AcDbEntity
  8
SK2
 62
     0
440
 16777216
100
AcDbMText
 10
39.84855560686036
 20
45.37402047727589
 30
0.0
 40
2.5
 41
0.0
 71
     5
 72
     1
  1
220
 11
0.9999999994455256
 21
0.0000333008821088
 31
0.0
 73
     1
 44
1.0
  0
POINT
  5
1362
330
171
100
AcDbEntity
  8
Defpoints
 62
     0
440
 16777216
100
AcDbPoint
 10
-70.14999999999638
 20
4.000000000000006
 30
0.0
  0
POINT
  5
1363
330
171
100
AcDbEntity
  8
Defpoints
 62
     0
440
 16777216
100
AcDbPoint
 10
149.8500000000037
 20
0.0000000000000071
 30
0.0
  0
POINT
  5
1364
330
171
100
AcDbEntity
  8
Defpoints
 62
     0
440
 16777216
100
AcDbPoint
 10
149.8485527848836
 20
43.45876228010906
 30
0.0
  0
ENDBLK
  5
17C
330
171
100
AcDbEntity
  8
0
100
AcDbBlockEnd
  0
BLOCK
  5
187
330
17D
100
AcDbEntity
  8
0
100
AcDbBlockBegin
  2
*D1
 70
     1
 10
0.0
 20
0.0
 30
0.0
  3
*D1
  1

  0
LINE
  5
1353
330
17D
100
AcDbEntity
  8
SK2
 62
     0
440
 16777216
370
    -2
100
AcDbLine
 10
-69.77499999999638
 20
-5.000000000000006
 30
0.0
 11
-82.9844569999963
 21
-5.000000000000001
 31
0.0
  0
LINE
  5
1354
330
17D
100
AcDbEntity
  8
SK2
 62
     0
440
 16777216
370
    -2
100
AcDbLine
 10
-69.77499999999638
 20
5.0
 30
0.0
 11
-82.9844569999963
 21
5.000000000000004
 31
0.0
  0
LINE
  5
1355
330
17D
100
AcDbEntity
  8
SK2
 62
     0
440
 16777216
370
    -2
100
AcDbLine
 10
-81.7344569999963
 20
-2.500000000000002
 30
0.0
 11
-81.7344569999963
 21
2.500000000000003
 31
0.0
  0
SOLID
  5
1356
330
17D
100
AcDbEntity
  8
SK2
 62
     0
440
 16777216
100
AcDbTrace
 10
-82.15112366666296
 20
-2.500000000000002
 30
0.0
 11
-81.31779033332962
 21
-2.500000000000002
 31
0.0
 12
-81.7344569999963
 22
-5.000000000000002
 32
0.0
 13
-81.7344569999963
 23
-5.000000000000002
 33
0.0
  0
SOLID
  5
1357
330
17D
100
AcDbEntity
  8
SK2
 62
     0
440
 16777216
100
AcDbTrace
 10
-82.15112366666296
 20
2.500000000000003
 30
0.0
 11
-81.31779033332962
 21
2.500000000000003
 31
0.0
 12
-81.7344569999963
 22
5.000000000000003
 32
0.0
 13
-81.7344569999963
 23
5.000000000000003
 33
0.0
  0
MTEXT
  5
1358
330
17D
100
AcDbEntity
  8
SK2
 62
     0
440
 16777216
100
AcDbMText
 10
-83.69027217919517
 20
-0.0000000000000121
 30
0.0
 40
2.5
 41
0.0
 71
     5
 72
     1
  1
%%C10
 11
0.0000000000000001
 21
1.0
 31
0.0
 73
     1
 44
1.0
  0
POINT
  5
1359
330
17D
100
AcDbEntity
  8
Defpoints
 62
     0
440
 16777216
100
AcDbPoint
 10
-69.14999999999638
 20
-5.000000000000006
 30
0.0
  0
POINT
  5
135A
330
17D
100
AcDbEntity
  8
Defpoints
 62
     0
440
 16777216
100
AcDbPoint
 10
-69.14999999999638
 20
5.0
 30
0.0
  0
POINT
  5
135B
330
17D
100
AcDbEntity
  8
Defpoints
 62
     0
440
 16777216
100
AcDbPoint
 10
-81.7344569999963
 20
5.000000000000003
 30
0.0
  0
ENDBLK
  5
188
330
17D
100
AcDbEntity
  8
0
100
AcDbBlockEnd
  0
BLOCK
  5
193
330
189
100
AcDbEntity
  8
0
100
AcDbBlockBegin
  2
*D2
 70
     1
 10
0.0
 20
0.0
 30
0.0
  3
*D2
  1

  0
LINE
  5
1341
330
189
100
AcDbEntity
  8
2
 62
     0
440
 16777216
370
    -2
100
AcDbLine
 10
9.999979186952259
 20
5.474999999653458
 30
0.0
 11
9.999334685210733
 21
24.82889396155436
 31
0.0
  0
LINE
  5
1342
330
189
100
AcDbEntity
  8
2
 62
     0
440
 16777216
370
    -2
100
AcDbLine
 10
149.8499791869524
 20
0.6249999996534607
 30
0.0
 11
149.8491730208462
 21
24.83355108453629
 31
0.0
  0
LINE
  5
1343
330
189
100
AcDbEntity
  8
2
 62
     0
440
 16777216
370
    -2
100
AcDbLine
 10
12.49937630992718
 20
23.57897721445273
 30
0.0
 11
147.3492146483351
 21
23.58346783302411
 31
0.0
  0
SOLID
  5
1344
330
189
100
AcDbEntity
  8
2
 62
     0
440
 16777216
100
AcDbTrace
 10
12.49936243455964
 20
23.99564388088836
 30
0.0
 11
12.49939018529473
 21
23.16231054801709
 31
0.0
 12
9.999376311313369
 22
23.57889396224746
 32
0.0
 13
9.999376311313369
 23
23.57889396224746
 33
0.0
  0
SOLID
  5
1345
330
189
100
AcDbEntity
  8
2
 62
     0
440
 16777216
100
AcDbTrace
 10
147.3492007729675
 20
24.00013449945975
 30
0.0
 11
147.3492285237026
 21
23.16680116658847
 31
0.0
 12
149.8492146469489
 22
23.58355108522939
 32
0.0
 13
149.8492146469489
 23
23.58355108522939
 33
0.0
  0
MTEXT
  5
1346
330
189
100
AcDbEntity
  8
2
 62
     0
440
 16777216
100
AcDbMText
 10
79.92423157735938
 20
25.5001438157173
 30
0.0
 40
2.5
 41
0.0
 71
     5
 72
     1
  1
139.85
 11
0.9999999994455256
 21
0.0000333008821088
 31
0.0
 73
     1
 44
1.0
  0
POINT
  5
1347
330
189
100
AcDbEntity
  8
Defpoints
 62
     0
440
 16777216
100
AcDbPoint
 10
10.00000000000358
 20
4.850000000000004
 30
0.0
  0
POINT
  5
1348
330
189
100
AcDbEntity
  8
Defpoints
 62
     0
440
 16777216
100
AcDbPoint
 10
149.8500000000037
 20
0.0000000000000071
 30
0.0
  0
POINT
  5
1349
330
189
100
AcDbEntity
  8
Defpoints
 62
     0
440
 16777216
100
AcDbPoint
 10
149.8492146469489
 20
23.58355108522939
 30
0.0
  0
ENDBLK
  5
194
330
189
100
AcDbEntity
  8
0
100
AcDbBlockEnd
  0
BLOCK
  5
19F
330
195
100
AcDbEntity
  8
0
100
AcDbBlockBegin
  2
*D3
 70
     1
 10
0.0
 20
0.0
 30
0.0
  3
*D3
  1

  0
LINE
  5
134A
330
195
100
AcDbEntity
  8
2
 62
     0
440
 16777216
370
    -2
100
AcDbLine
 10
145.4750000000037
 20
-5.000000000000006
 30
0.0
 11
164.8200120000037
 21
-5.000000000000011
 31
0.0
  0
LINE
  5
134B
330
195
100
AcDbEntity
  8
2
 62
     0
440
 16777216
370
    -2
100
AcDbLine
 10
145.4750000000037
 20
5.0
 30
0.0
 11
164.8200120000037
 21
4.999999999999994
 31
0.0
  0
LINE
  5
134C
330
195
100
AcDbEntity
  8
2
 62
     0
440
 16777216
370
    -2
100
AcDbLine
 10
163.5700120000037
 20
-2.500000000000011
 30
0.0
 11
163.5700120000037
 21
2.499999999999994
 31
0.0
  0
SOLID
  5
134D
330
195
100
AcDbEntity
  8
2
 62
     0
440
 16777216
100
AcDbTrace
 10
163.153345333337
 20
-2.500000000000011
 30
0.0
 11
163.9866786666703
 21
-2.500000000000011
 31
0.0
 12
163.5700120000037
 22
-5.000000000000011
 32
0.0
 13
163.5700120000037
 23
-5.000000000000011
 33
0.0
  0
SOLID
  5
134E
330
195
100
AcDbEntity
  8
2
 62
     0
440
 16777216
100
AcDbTrace
 10
163.153345333337
 20
2.499999999999994
 30
0.0
 11
163.9866786666703
 21
2.499999999999994
 31
0.0
 12
163.5700120000037
 22
4.999999999999994
 32
0.0
 13
163.5700120000037
 23
4.999999999999994
 33
0.0
  0
MTEXT
  5
134F
330
195
100
AcDbEntity
  8
2
 62
     0
440
 16777216
100
AcDbMText
 10
161.6141968208048
 20
0.0000000000000182
 30
0.0
 40
2.5
 41
0.0
 71
     5
 72
     1
  1
%%C10
 11
0.0000000000000001
 21
1.0
 31
0.0
 73
     1
 44
1.0
  0
POINT
  5
1350
330
195
100
AcDbEntity
  8
Defpoints
 62
     0
440
 16777216
100
AcDbPoint
 10
144.8500000000037
 20
-5.000000000000006
 30
0.0
  0
POINT
  5
1351
330
195
100
AcDbEntity
  8
Defpoints
 62
     0
440
 16777216
100
AcDbPoint
 10
144.8500000000037
 20
5.0
 30
0.0
  0
POINT
  5
1352
330
195
100
AcDbEntity
  8
Defpoints
 62
     0
440
 16777216
100
AcDbPoint
 10
163.5700120000037
 20
4.999999999999994
 30
0.0
  0
ENDBLK
  5
1A0
330
195
100
AcDbEntity
  8
0
100
AcDbBlockEnd
  0
BLOCK
  5
1C9
330
1C8
100
AcDbEntity
  8
0
100
AcDbBlockBegin
  2
CERO_POINT
 70
     0
 10
0.0
 20
0.0
 30
0.0
  3
CERO_POINT
  1

  0
CIRCLE
  5
1CA
102
{ACAD_REACTORS
330
1CF
102
}
330
1C8
100
AcDbEntity
  8
SK2
100
AcDbCircle
 10
0.0
 20
0.0
 30
0.0
 40
2.5
  0
LINE
  5
1CB
330
1C8
100
AcDbEntity
  8
SK2
100
AcDbLine
 10
0.0900000000037835
 20
0.0
 30
0.0
 11
-0.0899999999965076
 21
0.0
 31
0.0
  0
LINE
  5
1CC
330
1C8
100
AcDbEntity
  8
SK2
100
AcDbLine
 10
0.0
 20
0.0899999999999182
 30
0.0
 11
0.0
 21
-0.0899999999999182
 31
0.0
  0
LINE
  5
1CD
102
{ACAD_REACTORS
330
1CF
102
}
330
1C8
100
AcDbEntity
  8
SK2
100
AcDbLine
 10
0.0
 20
-2.5
 30
0.0
 11
0.0
 21
2.5
 31
0.0
  0
LINE
  5
1CE
102
{ACAD_REACTORS
330
1CF
102
}
330
1C8
100
AcDbEntity
  8
SK2
100
AcDbLine
 10
2.5
 20
0.0
 30
0.0
 11
-2.5
 21
0.0
 31
0.0
  0
HATCH
  5
1CF
330
1C8
100
AcDbEntity
  8
SK2
100
AcDbHatch
 10
0.0
 20
0.0
 30
0.0
210
0.0
220
0.0
230
1.0
  2
ANSI31
 70
     0
 71
     1
 91
        2
 92
        7
 72
     1
 73
     1
 93
        3
 10
0.0
 20
-2.5
 42
0.4142135623730951
 10
2.5
 20
0.0
 42
0.0
 10
0.0
 20
0.0
 42
0.0
 97
        3
330
1CA
330
1CE
330
1CD
 92
        7
 72
     1
 73
     1
 93
        3
 10
0.0
 20
0.0
 42
0.0
 10
0.0
 20
2.5
 42
0.4142135623730951
 10
-2.5
 20
0.0
 42
0.0
 97
        3
330
1CE
330
1CD
330
1CA
 75
     0
 76
     1
 52
180.0
 41
0.1
 77
     0
 78
     1
 53
225.0
 43
5.170976743218488
 44
0.0
 45
0.2245064030267288
 46
-0.2245064030267289
 79
     0
 47
0.0243816376539857
 98
        2
 10
0.8789156907296272
 20
-1.044463114528752
 10
-0.8545028512526187
 20
0.7841600866017872
  0
ENDBLK
  5
1D0
330
1C8
100
AcDbEntity
  8
0
100
AcDbBlockEnd
  0
ENDSEC
  0
SECTION
  2
ENTITIES
  0
DIMENSION
  5
15D
102
{ACAD_REACTORS
330
C31
102
}
330
A
100
AcDbEntity
  8
SK2
100
AcDbDimension
  2
*D0
 10
149.8485527848836
 20
43.45876228010906
 30
0.0
 11
39.84855560686036
 21
45.37402047727589
 31
0.0
 70
    32
 71
     5
 42
219.9998666744873
  3
ISO-25
100
AcDbAlignedDimension
 13
-70.14999999999638
 23
4.000000000000006
 33
0.0
 14
149.8500000000037
 24
0.0000000000000071
 34
0.0
 50
0.0019079999992458
100
AcDbRotatedDimension
  0
DIMENSION
  5
15E
102
{ACAD_REACTORS
330
C31
102
}
330
A
100
AcDbEntity
  8
SK2
100
AcDbDimension
  2
*D1
 10
-81.7344569999963
 20
5.000000000000003
 30
0.0
 11
-83.69027217919517
 21
-0.0000000000000121
 31
0.0
 70
    33
  1
%%C<>
 71
     5
 42
10.0
  3
ISO-25
100
AcDbAlignedDimension
 13
-69.14999999999638
 23
-5.000000000000006
 33
0.0
 14
-69.14999999999638
 24
5.0
 34
0.0
  0
DIMENSION
  5
15F
102
{ACAD_REACTORS
330
C44
102
}
330
A
100
AcDbEntity
  8
2
100
AcDbDimension
  2
*D2
 10
149.8492146469489
 20
23.58355108522939
 30
0.0
 11
79.92423157735938
 21
25.5001438157173
 31
0.0
 70
    32
 71
     5
 42
139.8498384131786
  3
ISO-25
100
AcDbAlignedDimension
 13
10.00000000000358
 23
4.850000000000004
 33
0.0
 14
149.8500000000037
 24
0.0000000000000071
 34
0.0
 50
0.0019079999992458
100
AcDbRotatedDimension
  0
DIMENSION
  5
160
102
{ACAD_REACTORS
330
C44
102
}
330
A
100
AcDbEntity
  8
2
100
AcDbDimension
  2
*D3
 10
163.5700120000037
 20
4.999999999999994
 30
0.0
 11
161.6141968208048
 21
0.0000000000000182
 31
0.0
 70
    33
  1
%%C<>
 71
     5
 42
10.0
  3
ISO-25
100
AcDbAlignedDimension
 13
144.8500000000037
 23
-5.000000000000006
 33
0.0
 14
144.8500000000037
 24
5.0
 34
0.0
  0
LINE
  5
165
330
A
100
AcDbEntity
  8
SK4
100
AcDbLine
 10
-74.1707209999963
 20
0.0
 30
0.0
 11
0.0
 21
0.0
 31
0.0
  0
LINE
  5
166
102
{ACAD_REACTORS
330
CF0
102
}
330
A
100
AcDbEntity
  8
1
 48
0.363517
100
AcDbLine
 10
139.8344670000037
 20
-4.750000000000006
 30
0.0
 11
125.2938040000037
 21
-4.750000000000006
 31
0.0
  0
LINE
  5
167
102
{ACAD_REACTORS
330
CF0
102
}
330
A
100
AcDbEntity
  8
1
 48
0.363517
100
AcDbLine
 10
139.8344670000037
 20
4.749999999999983
 30
0.0
 11
125.2938040000037
 21
4.749999999999983
 31
0.0
  0
INSERT
  5
53D
330
A
100
AcDbEntity
  8
SK2
100
AcDbBlockReference
  2
CERO_POINT
 10
0.0
 20
0.0
 30
0.0
  0
SPLINE
  5
542
102
{ACAD_REACTORS
330
CEF
102
}
330
A
100
AcDbEntity
  8
INSERT
100
AcDbSpline
210
0.0
220
0.0
230
1.0
 70
     8
 71
     5
 72
    18
 73
    12
 74
     0
 42
0.0000000001
 43
0.0000000001
 40
0.0
 40
0.0
 40
0.0
 40
0.0
 40
0.0
 40
0.0
 40
0.1853110478203294
 40
0.1853110478203294
 40
0.1853110478203294
 40
0.5446525179719652
 40
0.5446525179719652
 40
0.5446525179719652
 40
1.19148807909035
 40
1.19148807909035
 40
1.19148807909035
 40
1.19148807909035
 40
1.19148807909035
 40
1.19148807909035
 10
149.0002531023519
 20
-0.2418677326289469
 30
0.0
 10
149.0061096016943
 20
-0.2289520948976929
 30
0.0
 10
149.0096099389384
 20
-0.2139901935381445
 30
0.0
 10
149.010492595802
 20
-0.1968717464025218
 30
0.0
 10
149.006015983866
 20
-0.145056150571726
 30
0.0
 10
148.9843193589896
 20
-0.0890696035016276
 30
0.0
 10
148.9646977810362
 20
-0.0523697986375709
 30
0.0
 10
148.9025028193657
 20
0.043551359601608
 30
0.0
 10
148.8220058008262
 20
0.1259846397814002
 30
0.0
 10
148.7672594596792
 20
0.172148920032221
 30
0.0
 10
148.7097876152445
 20
0.2116956952301194
 30
0.0
 10
148.6516749636372
 20
0.2418677324498617
 30
0.0
  0
LINE
  5
543
102
{ACAD_REACTORS
330
CEF
102
}
330
A
100
AcDbEntity
  8
INSERT
100
AcDbLine
 10
148.4877220000037
 20
0.2418679999999895
 30
0.0
 11
148.6516750000037
 21
0.2418679999999895
 31
0.0
  0
LINE
  5
544
102
{ACAD_REACTORS
330
CEF
102
}
330
A
100
AcDbEntity
  8
INSERT
100
AcDbLine
 10
148.8656580000036
 20
-0.2418680000000037
 30
0.0
 11
149.0002530000037
 21
-0.2418680000000037
 31
0.0
  0
LINE
  5
545
102
{ACAD_REACTORS
330
CEF
102
}
330
A
100
AcDbEntity
  8
INSERT
100
AcDbLine
 10
149.0002530000037
 20
-0.2418680000000037
 30
0.0
 11
149.2760360000036
 21
-0.638846000000001
 31
0.0
  0
LINE
  5
546
102
{ACAD_REACTORS
330
CEF
102
}
330
A
100
AcDbEntity
  8
INSERT
100
AcDbLine
 10
141.3238880000036
 20
-4.101775000000006
 30
0.0
 11
141.3358490000037
 21
-4.169606999999992
 31
0.0
  0
ARC
  5
547
102
{ACAD_REACTORS
330
CEF
102
}
330
A
100
AcDbEntity
  8
INSERT
100
AcDbCircle
 10
134.3564240000037
 20
-102.3736749999999
 30
0.0
 40
98.451988
100
AcDbArc
 50
84.10886399999931
 51
85.93478799999973
  0
ARC
  5
548
102
{ACAD_REACTORS
330
CEF
102
}
330
A
100
AcDbEntity
  8
INSERT
100
AcDbCircle
 10
144.8919960000036
 20
0.0651079999999951
 30
0.0
 40
4.526953999999999
100
AcDbArc
 50
264.5423200000014
 51
288.3130209999988
  0
SPLINE
  5
549
102
{ACAD_REACTORS
330
CEF
102
}
330
A
100
AcDbEntity
  8
INSERT
100
AcDbSpline
210
0.0
220
0.0
230
1.0
 70
     8
 71
     5
 72
    57
 73
    51
 74
     0
 42
0.0000000001
 43
0.0000000001
 40
0.6234621968118571
 40
0.6234621968118571
 40
0.6234621968118571
 40
0.6234621968118571
 40
0.6234621968118571
 40
0.6234621968118571
 40
1.080141027583249
 40
1.080141027583249
 40
1.080141027583249
 40
1.44136046633486
 40
1.44136046633486
 40
1.44136046633486
 40
2.173565038672887
 40
2.173565038672887
 40
2.173565038672887
 40
2.546371505594528
 40
2.546371505594528
 40
2.546371505594528
 40
2.918732242637318
 40
2.918732242637318
 40
2.918732242637318
 40
3.306320360617576
 40
3.306320360617576
 40
3.306320360617576
 40
3.693889752497214
 40
3.693889752497214
 40
3.693889752497214
 40
4.305562199423595
 40
4.305562199423595
 40
4.305562199423595
 40
4.509492149905271
 40
4.509492149905271
 40
4.509492149905271
 40
4.956099304011183
 40
4.956099304011183
 40
4.956099304011183
 40
5.179432422485461
 40
5.179432422485461
 40
5.179432422485461
 40
5.402765540959749
 40
5.402765540959749
 40
5.402765540959749
 40
6.436184396599597
 40
6.436184396599597
 40
6.436184396599597
 40
6.717781749067309
 40
6.717781749067309
 40
6.717781749067309
 40
6.999379101535025
 40
6.999379101535025
 40
6.999379101535025
 40
7.877517861620606
 40
7.877517861620606
 40
7.877517861620606
 40
7.877517861620606
 40
7.877517861620606
 40
7.877517861620606
 10
149.2760362192664
 20
-0.6388458283588748
 30
0.0
 10
149.2652298840602
 20
-0.6970339992469903
 30
0.0
 10
149.2536657965937
 20
-0.7551571579595589
 30
0.0
 10
149.241361598478
 20
-0.8131958633513105
 30
0.0
 10
149.2180281839632
 20
-0.9169503845577722
 30
0.0
 10
149.192387717839
 20
-1.020297753131437
 30
0.0
 10
149.1806296552741
 20
-1.06589796790228
 30
0.0
 10
149.143503451013
 20
-1.20350124582225
 30
0.0
 10
149.1013429811213
 20
-1.34029603049457
 30
0.0
 10
149.0705597643354
 20
-1.43162682438146
 30
0.0
 10
149.0207296623354
 20
-1.568736350346334
 30
0.0
 10
148.9659755258237
 20
-1.704691741796558
 30
0.0
 10
148.9469514875064
 20
-1.750423635747948
 30
0.0
 10
148.9078517547566
 20
-1.841469292457524
 30
0.0
 10
148.8664918587866
 20
-1.931684515793449
 30
0.0
 10
148.8451148056568
 20
-1.976817616162442
 30
0.0
 10
148.800381491559
 20
-2.067648560573243
 30
0.0
 10
148.7527146830384
 20
-2.157229132828533
 30
0.0
 10
148.7276178457548
 20
-2.202635844851521
 30
0.0
 10
148.6761131477057
 20
-2.292913056170768
 30
0.0
 10
148.6222360057527
 20
-2.382215514850884
 30
0.0
 10
148.5947609050567
 20
-2.426668256763675
 30
0.0
 10
148.5227167230443
 20
-2.540436608398088
 30
0.0
 10
148.4464290717357
 20
-2.651717199443416
 30
0.0
 10
148.3975413349456
 20
-2.718846172100418
 30
0.0
 10
148.329640433287
 20
-2.80637667929902
 30
0.0
 10
148.2589094827954
 20
-2.891790739506496
 30
0.0
 10
148.2410587056039
 20
-2.913021863695163
 30
0.0
 10
148.1837441429531
 20
-2.980421059340087
 30
0.0
 10
148.1251988288786
 20
-3.046897145495101
 30
0.0
 10
148.0844059514474
 20
-3.092206529565671
 30
0.0
 10
148.0220333262842
 20
-3.159239168984292
 30
0.0
 10
147.9575585131442
 20
-3.224402351225413
 30
0.0
 10
147.9358103831843
 20
-3.245893908783791
 30
0.0
 10
147.8918004323364
 20
-3.28834398408513
 30
0.0
 10
147.8467531044869
 20
-3.329702333068801
 30
0.0
 10
147.8239631147936
 20
-3.350091893625062
 30
0.0
 10
147.6944887327898
 20
-3.463464288715336
 30
0.0
 10
147.5584574400334
 20
-3.569816733684836
 30
0.0
 10
147.4438013270428
 20
-3.654893906111126
 30
0.0
 10
147.2948615046139
 20
-3.757617986189984
 30
0.0
 10
147.1408212889899
 20
-3.852061691885417
 30
0.0
 10
147.1075809741659
 20
-3.871899510751696
 30
0.0
 10
147.0405979072287
 20
-3.910645369182901
 30
0.0
 10
146.9726158279029
 20
-3.947547754143306
 30
0.0
 10
146.9383729205661
 20
-3.965533382046736
 30
0.0
 10
146.7964632435858
 20
-4.037707490731271
 30
0.0
 10
146.651108104124
 20
-4.102560559104587
 30
0.0
 10
146.5395529216151
 20
-4.148263792184991
 30
0.0
 10
146.4275703367581
 20
-4.192100561104011
 30
0.0
 10
146.3141209969978
 20
-4.23172454879679
 30
0.0
  0
LINE
  5
54A
102
{ACAD_REACTORS
330
CEF
102
}
330
A
100
AcDbEntity
  8
INSERT
100
AcDbLine
 10
147.6375120000037
 20
1.330086000000008
 30
0.0
 11
147.7558460000037
 21
1.398406000000008
 31
0.0
  0
ARC
  5
54B
102
{ACAD_REACTORS
330
CEF
102
}
330
A
100
AcDbEntity
  8
INSERT
100
AcDbCircle
 10
125.2707730000037
 20
-16.941959
 30
0.0
 40
29.016357
100
AcDbArc
 50
36.31407900000158
 51
39.20304099999937
  0
LINE
  5
54C
102
{ACAD_REACTORS
330
CEF
102
}
330
A
100
AcDbEntity
  8
INSERT
100
AcDbLine
 10
149.8360280000037
 20
-0.0401440000000051
 30
0.0
 11
149.7556000000036
 21
-0.2810700000000139
 31
0.0
  0
ARC
  5
54D
102
{ACAD_REACTORS
330
CEF
102
}
330
A
100
AcDbEntity
  8
INSERT
100
AcDbCircle
 10
152.6248710000037
 20
-4.628458999999998
 30
0.0
 40
5.208848999999998
100
AcDbArc
 50
123.4247580000011
 51
130.0097000000001
  0
SPLINE
  5
54E
102
{ACAD_REACTORS
330
CEF
102
}
330
A
100
AcDbEntity
  8
INSERT
100
AcDbSpline
210
0.0
220
0.0
230
1.0
 70
     8
 71
     5
 72
    18
 73
    12
 74
     0
 42
0.0000000001
 43
0.0000000001
 40
0.0
 40
0.0
 40
0.0
 40
0.0
 40
0.0
 40
0.0
 40
0.4017870457878396
 40
0.4017870457878396
 40
0.4017870457878396
 40
0.7218290171831993
 40
0.7218290171831993
 40
0.7218290171831993
 40
1.029917493158154
 40
1.029917493158154
 40
1.029917493158154
 40
1.029917493158154
 40
1.029917493158154
 40
1.029917493158154
 10
147.7558455727155
 20
1.398405922752586
 30
0.0
 10
147.7615030513961
 20
1.431054889526284
 30
0.0
 10
147.7594066868724
 20
1.468252842927774
 30
0.0
 10
147.7489122819135
 20
1.508262738829428
 30
0.0
 10
147.7165985089451
 20
1.579836566760319
 30
0.0
 10
147.6657031127488
 20
1.644299695966267
 30
0.0
 10
147.6403395539036
 20
1.670542059409157
 30
0.0
 10
147.5864893984237
 20
1.716416249295803
 30
0.0
 10
147.5280760436868
 20
1.749294674376294
 30
0.0
 10
147.4986300202468
 20
1.76207387185456
 30
0.0
 10
147.4699127256437
 20
1.770913665010581
 30
0.0
 10
147.4421578036999
 20
1.775867806622428
 30
0.0
  0
ARC
  5
54F
102
{ACAD_REACTORS
330
CEF
102
}
330
A
100
AcDbEntity
  8
INSERT
100
AcDbCircle
 10
126.8508790000037
 20
-15.64322500000001
 30
0.0
 40
26.970821
100
AcDbArc
 50
40.22939000000174
 51
42.55885599999992
  0
SPLINE
  5
550
102
{ACAD_REACTORS
330
CEF
102
}
330
A
100
AcDbEntity
  8
INSERT
100
AcDbSpline
210
0.0
220
0.0
230
1.0
 70
     8
 71
     5
 72
    18
 73
    12
 74
     0
 42
0.0000000001
 43
0.0000000001
 40
0.0
 40
0.0
 40
0.0
 40
0.0
 40
0.0
 40
0.0
 40
0.6471293052469271
 40
0.6471293052469271
 40
0.6471293052469271
 40
0.9807253322570208
 40
0.9807253322570208
 40
0.9807253322570208
 40
1.082213529125108
 40
1.082213529125108
 40
1.082213529125108
 40
1.082213529125108
 40
1.082213529125108
 40
1.082213529125108
 10
146.7171214875083
 20
2.598409585031076
 30
0.0
 10
146.7080140882549
 20
2.657482930970864
 30
0.0
 10
146.6869441082936
 20
2.719803360464119
 30
0.0
 10
146.6549900887315
 20
2.783284270143631
 30
0.0
 10
146.5893014609734
 20
2.875640188948721
 30
0.0
 10
146.5012651778079
 20
2.943290951123826
 30
0.0
 10
146.4686196391768
 20
2.962373232404551
 30
0.0
 10
146.426053366172
 20
2.978007546747946
 30
0.0
 10
146.3865329981998
 20
2.98094132380794
 30
0.0
 10
146.3775217945527
 20
2.980917483811481
 30
0.0
 10
146.3689623308343
 20
2.98019892509172
 30
0.0
 10
146.3607686351662
 20
2.978824061027268
 30
0.0
  0
ARC
  5
551
102
{ACAD_REACTORS
330
CEF
102
}
330
A
100
AcDbEntity
  8
INSERT
100
AcDbCircle
 10
127.4287200000037
 20
-15.109002
 30
0.0
 40
26.18381
100
AcDbArc
 50
43.69362000000003
 51
45.63943800000013
  0
LINE
  5
552
102
{ACAD_REACTORS
330
CEF
102
}
330
A
100
AcDbEntity
  8
INSERT
100
AcDbLine
 10
145.7356890000037
 20
3.61121899999999
 30
0.0
 11
145.9618500000037
 21
3.656613000000006
 31
0.0
  0
ARC
  5
553
102
{ACAD_REACTORS
330
CEF
102
}
330
A
100
AcDbEntity
  8
INSERT
100
AcDbCircle
 10
145.9593860000037
 20
3.680852999999991
 30
0.0
 40
0.024177
100
AcDbArc
 50
275.8054850000007
 51
358.3920059999995
  0
LINE
  5
554
102
{ACAD_REACTORS
330
CEF
102
}
330
A
100
AcDbEntity
  8
INSERT
100
AcDbLine
 10
140.9242770000037
 20
-4.138975000000009
 30
0.0
 11
140.9466980000037
 21
-4.266130000000011
 31
0.0
  0
ARC
  5
555
102
{ACAD_REACTORS
330
CEF
102
}
330
A
100
AcDbEntity
  8
INSERT
100
AcDbCircle
 10
144.1953120000036
 20
-16.52987600000001
 30
0.0
 40
12.686719
100
AcDbArc
 50
103.0258290000003
 51
104.8366459999991
  0
LINE
  5
556
102
{ACAD_REACTORS
330
CEF
102
}
330
A
100
AcDbEntity
  8
INSERT
100
AcDbLine
 10
140.9466980000037
 20
-4.266130000000011
 30
0.0
 11
141.0082100000037
 21
-4.614980000000008
 31
0.0
  0
LINE
  5
557
102
{ACAD_REACTORS
330
CEF
102
}
330
A
100
AcDbEntity
  8
INSERT
100
AcDbLine
 10
141.0497940000037
 20
-4.651820000000006
 30
0.0
 11
141.0082100000037
 21
-4.614980000000008
 31
0.0
  0
LINE
  5
558
102
{ACAD_REACTORS
330
CEF
102
}
330
A
100
AcDbEntity
  8
INSERT
100
AcDbLine
 10
141.0497940000037
 20
-4.651820000000006
 30
0.0
 11
144.4218340000037
 21
-4.893958000000004
 31
0.0
  0
ARC
  5
559
102
{ACAD_REACTORS
330
CEF
102
}
330
A
100
AcDbEntity
  8
INSERT
100
AcDbCircle
 10
144.7730200000036
 20
-0.1417800000000042
 30
0.0
 40
4.765137999999998
100
AcDbArc
 50
265.7735249999989
 51
269.5141749999987
  0
ARC
  5
55A
102
{ACAD_REACTORS
330
CEF
102
}
330
A
100
AcDbEntity
  8
INSERT
100
AcDbCircle
 10
144.7719840000036
 20
0.0200279999999964
 30
0.0
 40
4.926991
100
AcDbArc
 50
269.5421800000004
 51
289.8661930000009
  0
SPLINE
  5
55B
102
{ACAD_REACTORS
330
CEF
102
}
330
A
100
AcDbEntity
  8
INSERT
100
AcDbSpline
210
0.0
220
0.0
230
1.0
 70
     8
 71
     5
 72
    21
 73
    15
 74
     0
 42
0.0000000001
 43
0.0000000001
 40
0.0
 40
0.0
 40
0.0
 40
0.0
 40
0.0
 40
0.0
 40
1.030714113201548
 40
1.030714113201548
 40
1.030714113201548
 40
2.071658692978457
 40
2.071658692978457
 40
2.071658692978457
 40
3.119628486958225
 40
3.119628486958225
 40
3.119628486958225
 40
3.472958518507294
 40
3.472958518507294
 40
3.472958518507294
 40
3.472958518507294
 40
3.472958518507294
 40
3.472958518507294
 10
149.7555996150881
 20
-0.2810702470177304
 30
0.0
 10
149.7520868330869
 20
-0.4229653015578876
 30
0.0
 10
149.7423878008535
 20
-0.5650491666835224
 30
0.0
 10
149.7265060471595
 20
-0.7074424390647494
 30
0.0
 10
149.6825797181469
 20
-0.991565814514054
 30
0.0
 10
149.615115134862
 20
-1.271420496421238
 30
0.0
 10
149.576111442021
 20
-1.408305391582415
 30
0.0
 10
149.484357192381
 20
-1.685561862528061
 30
0.0
 10
149.3697474735819
 20
-1.956371103289879
 30
0.0
 10
149.3066384767865
 20
-2.090666289963664
 30
0.0
 10
149.2155754323255
 20
-2.265562618764136
 30
0.0
 10
149.1150091078302
 20
-2.436002765270956
 30
0.0
 10
149.0890487293028
 20
-2.478714281477981
 30
0.0
 10
149.0625259021507
 20
-2.521126372854999
 30
0.0
 10
149.0354545992303
 20
-2.563231540434486
 30
0.0
  0
SPLINE
  5
55C
102
{ACAD_REACTORS
330
CEF
102
}
330
A
100
AcDbEntity
  8
INSERT
100
AcDbSpline
210
0.0
220
0.0
230
1.0
 70
     8
 71
     5
 72
    27
 73
    21
 74
     0
 42
0.0000000001
 43
0.0000000001
 40
0.0
 40
0.0
 40
0.0
 40
0.0
 40
0.0
 40
0.0
 40
0.9356068708523761
 40
0.9356068708523761
 40
0.9356068708523761
 40
1.404943913783375
 40
1.404943913783375
 40
1.404943913783375
 40
1.874988526636719
 40
1.874988526636719
 40
1.874988526636719
 40
2.815627568584285
 40
2.815627568584285
 40
2.815627568584285
 40
3.759422656461231
 40
3.759422656461231
 40
3.759422656461231
 40
4.700706205411366
 40
4.700706205411366
 40
4.700706205411366
 40
4.700706205411366
 40
4.700706205411366
 40
4.700706205411366
 10
149.0354545992303
 20
-2.563231540434486
 30
0.0
 10
148.963770635928
 20
-2.674724707072563
 30
0.0
 10
148.8882410281052
 20
-2.784065685770732
 30
0.0
 10
148.8103558750171
 20
-2.889441580211908
 30
0.0
 10
148.6856053499752
 20
-3.04603190544266
 30
0.0
 10
148.5530215878635
 20
-3.196312440572801
 30
0.0
 10
148.5079463729166
 20
-3.245782668778481
 30
0.0
 10
148.4162274385248
 20
-3.343479954617583
 30
0.0
 10
148.3212983402231
 20
-3.438433761459876
 30
0.0
 10
148.2729593125269
 20
-3.485245157378912
 30
0.0
 10
148.1255156732451
 20
-3.623169765735261
 30
0.0
 10
147.9710030389407
 20
-3.753250077018241
 30
0.0
 10
147.8634327762176
 20
-3.837850013969911
 30
0.0
 10
147.6457421104302
 20
-3.998867525766051
 30
0.0
 10
147.4186408741107
 20
-4.145959411100662
 30
0.0
 10
147.3019752795157
 20
-4.216352160789596
 30
0.0
 10
147.0657668819097
 20
-4.347954529661301
 30
0.0
 10
146.8216753916537
 20
-4.463589175183422
 30
0.0
 10
146.6978843320164
 20
-4.517494252726923
 30
0.0
 10
146.5728621751023
 20
-4.567692156387316
 30
0.0
 10
146.446280187628
 20
-4.613705378446018
 30
0.0
  0
LINE
  5
55D
102
{ACAD_REACTORS
330
CEF
102
}
330
A
100
AcDbEntity
  8
INSERT
100
AcDbLine
 10
147.3367680000037
 20
1.715020999999985
 30
0.0
 11
147.4421580000036
 21
1.775867999999995
 31
0.0
  0
LINE
  5
55E
102
{ACAD_REACTORS
330
CEF
102
}
330
A
100
AcDbEntity
  8
INSERT
100
AcDbLine
 10
149.8492340000037
 20
0.0840659999999787
 30
0.0
 11
149.8491290000036
 21
0.0954959999999901
 31
0.0
  0
ARC
  5
55F
102
{ACAD_REACTORS
330
CEF
102
}
330
A
100
AcDbEntity
  8
INSERT
100
AcDbCircle
 10
149.3791980000036
 20
0.0676529999999858
 30
0.0
 40
0.4699060000000002
100
AcDbArc
 50
346.7229169999994
 51
1.99983099999989
  0
SPLINE
  5
560
102
{ACAD_REACTORS
330
CEF
102
}
330
A
100
AcDbEntity
  8
INSERT
100
AcDbSpline
210
0.0
220
0.0
230
1.0
 70
     8
 71
     5
 72
    18
 73
    12
 74
     0
 42
0.0000000001
 43
0.0000000001
 40
0.0
 40
0.0
 40
0.0
 40
0.0
 40
0.0
 40
0.0
 40
0.0380001929224019
 40
0.0380001929224019
 40
0.0380001929224019
 40
0.1130649805160228
 40
0.1130649805160228
 40
0.1130649805160228
 40
0.1834329971661812
 40
0.1834329971661812
 40
0.1834329971661812
 40
0.1834329971661812
 40
0.1834329971661812
 40
0.1834329971661812
 10
145.9584759886126
 20
3.7713043625983
 30
0.0
 10
145.9615375397153
 20
3.768166013476658
 30
0.0
 10
145.9645786816316
 20
3.765007553893191
 30
0.0
 10
145.9672090302481
 20
3.761417668434665
 30
0.0
 10
145.9746171524891
 20
3.750709110874971
 30
0.0
 10
145.9798119294756
 20
3.73885150879385
 30
0.0
 10
145.9820391978598
 20
3.730275123026641
 30
0.0
 10
145.9844376557352
 20
3.714444967817918
 30
0.0
 10
145.9845282940387
 20
3.699421744266096
 30
0.0
 10
145.9842603100311
 20
3.692450082695798
 30
0.0
 10
145.9838764507106
 20
3.686013157912653
 30
0.0
 10
145.9835249758496
 20
3.680175276800325
 30
0.0
  0
LINE
  5
561
102
{ACAD_REACTORS
330
CEF
102
}
330
A
100
AcDbEntity
  8
INSERT
100
AcDbLine
 10
145.8069360000036
 20
3.923663999999995
 30
0.0
 11
145.9584760000037
 21
3.771304
 31
0.0
  0
LINE
  5
562
102
{ACAD_REACTORS
330
CEF
102
}
330
A
100
AcDbEntity
  8
INSERT
100
AcDbLine
 10
149.8492340000037
 20
0.0840649999999954
 30
0.0
 11
149.8499510000035
 21
0.0207679999999897
 31
0.0
  0
LINE
  5
563
102
{ACAD_REACTORS
330
CEF
102
}
330
A
100
AcDbEntity
  8
INSERT
100
AcDbLine
 10
149.8499540000037
 20
0.0199939999999899
 30
0.0
 11
149.8500000000037
 21
0.0
 31
0.0
  0
LINE
  5
564
102
{ACAD_REACTORS
330
CEF
102
}
330
A
100
AcDbEntity
  8
INSERT
100
AcDbLine
 10
149.8500000000037
 20
0.0
 30
0.0
 11
149.8499530000037
 21
-0.0199970000000036
 31
0.0
  0
SPLINE
  5
565
102
{ACAD_REACTORS
330
CEF
102
}
330
A
100
AcDbEntity
  8
INSERT
100
AcDbSpline
210
0.0
220
0.0
230
1.0
 70
     8
 71
     5
 72
    18
 73
    12
 74
     0
 42
0.0000000001
 43
0.0000000001
 40
0.0
 40
0.0
 40
0.0
 40
0.0
 40
0.0
 40
0.0
 40
1.420256382013231
 40
1.420256382013231
 40
1.420256382013231
 40
2.834627920932568
 40
2.834627920932568
 40
2.834627920932568
 40
4.704719487289315
 40
4.704719487289315
 40
4.704719487289315
 40
4.704719487289315
 40
4.704719487289315
 40
4.704719487289315
 10
149.0358109651662
 20
-2.562632963467688
 30
0.0
 10
149.1265717207663
 20
-2.428731968160803
 30
0.0
 10
149.2117732188132
 20
-2.29159888533521
 30
0.0
 10
149.2914215521295
 20
-2.151098559217023
 30
0.0
 10
149.4378694087674
 20
-1.865701004533121
 30
0.0
 10
149.5594189680664
 20
-1.57053117668885
 30
0.0
 10
149.6136762552815
 20
-1.42109119049946
 30
0.0
 10
149.7236361087172
 20
-1.071822962848165
 30
0.0
 10
149.797350367859
 20
-0.7137103481913769
 30
0.0
 10
149.8270576680981
 20
-0.5077866121106354
 30
0.0
 10
149.8442570451557
 20
-0.3017295931294299
 30
0.0
 10
149.8489174993795
 20
-0.095704424016013
 30
0.0
  0
LINE
  5
566
102
{ACAD_REACTORS
330
CEF
102
}
330
A
100
AcDbEntity
  8
INSERT
100
AcDbLine
 10
146.6907590000037
 20
2.54187499999999
 30
0.0
 11
146.7171220000037
 21
2.598409999999987
 31
0.0
  0
LINE
  5
567
102
{ACAD_REACTORS
330
CEF
102
}
330
A
100
AcDbEntity
  8
INSERT
100
AcDbLine
 10
146.3331610000037
 20
2.919619999999986
 30
0.0
 11
146.3607690000037
 21
2.978823999999995
 31
0.0
  0
LINE
  5
568
102
{ACAD_REACTORS
330
CEF
102
}
330
A
100
AcDbEntity
  8
INSERT
100
AcDbLine
 10
141.2669210000037
 20
3.61121899999999
 30
0.0
 11
141.2373130000037
 21
3.575933999999988
 31
0.0
  0
LINE
  5
569
102
{ACAD_REACTORS
330
CEF
102
}
330
A
100
AcDbEntity
  8
INSERT
100
AcDbLine
 10
145.7356890000037
 20
3.61121899999999
 30
0.0
 11
141.2669210000037
 21
3.61121899999999
 31
0.0
  0
LINE
  5
56A
102
{ACAD_REACTORS
330
CF0
102
}
330
A
100
AcDbEntity
  8
1
 48
0.001518
100
AcDbLine
 10
140.8493040000037
 20
3.735810999999998
 30
0.0
 11
140.8883280000036
 21
3.782319000000008
 31
0.0
  0
LINE
  5
56B
102
{ACAD_REACTORS
330
CEF
102
}
330
A
100
AcDbEntity
  8
INSERT
100
AcDbLine
 10
141.2669210000037
 20
3.61121899999999
 30
0.0
 11
141.0595800000036
 21
3.630185999999993
 31
0.0
  0
LINE
  5
56C
102
{ACAD_REACTORS
330
CEF
102
}
330
A
100
AcDbEntity
  8
INSERT
100
AcDbLine
 10
140.8883280000036
 20
3.782319000000008
 30
0.0
 11
140.9825370000036
 21
3.894591999999995
 31
0.0
  0
ARC
  5
56D
102
{ACAD_REACTORS
330
CEF
102
}
330
A
100
AcDbEntity
  8
INSERT
100
AcDbCircle
 10
141.6918670000035
 20
-3.885176999999998
 30
0.0
 40
1.0
100
AcDbArc
 50
230.0534080000008
 51
236.7445410000009
  0
LINE
  5
56E
102
{ACAD_REACTORS
330
CEF
102
}
330
A
100
AcDbEntity
  8
INSERT
100
AcDbLine
 10
144.8700870000036
 20
4.903704999999995
 30
0.0
 11
144.8138010000036
 21
4.905387999999994
 31
0.0
  0
LINE
  5
56F
102
{ACAD_REACTORS
330
CEF
102
}
330
A
100
AcDbEntity
  8
INSERT
100
AcDbLine
 10
144.8138010000036
 20
4.905387999999994
 30
0.0
 11
145.8069360000036
 21
3.923663999999995
 31
0.0
  0
SPLINE
  5
570
102
{ACAD_REACTORS
330
CEF
102
}
330
A
100
AcDbEntity
  8
INSERT
100
AcDbSpline
210
0.0
220
0.0
230
1.0
 70
     8
 71
     5
 72
    18
 73
    12
 74
     0
 42
0.0000000001
 43
0.0000000001
 40
0.0
 40
0.0
 40
0.0
 40
0.0
 40
0.0
 40
0.0
 40
0.9496836273057947
 40
0.9496836273057947
 40
0.9496836273057947
 40
2.83656436056699
 40
2.83656436056699
 40
2.83656436056699
 40
4.705735614871887
 40
4.705735614871887
 40
4.705735614871887
 40
4.705735614871887
 40
4.705735614871887
 40
4.705735614871887
 10
149.0358522327279
 20
2.562571788366973
 30
0.0
 10
149.0965484491254
 20
2.473024168205154
 30
0.0
 10
149.1547250961416
 20
2.382076465820516
 30
0.0
 10
149.2099173276171
 20
2.290514353451774
 30
0.0
 10
149.3683545698379
 20
2.010783794968077
 30
0.0
 10
149.5027622549611
 20
1.719913727443348
 30
0.0
 10
149.58131203857
 20
1.521360297586618
 30
0.0
 10
149.7130375075294
 20
1.123270564650225
 30
0.0
 10
149.797312222799
 20
0.7139040213543666
 30
0.0
 10
149.8270745936996
 20
0.5075838011754499
 30
0.0
 10
149.844259338699
 20
0.3016282037315889
 30
0.0
 10
149.8489174993835
 20
0.0957044240084457
 30
0.0
  0
ARC
  5
571
102
{ACAD_REACTORS
330
CEF
102
}
330
A
100
AcDbEntity
  8
INSERT
100
AcDbCircle
 10
144.5347570000037
 20
-0.5275370000000095
 30
0.0
 40
5.460626
100
AcDbArc
 50
34.47052699999896
 51
69.59900199999916
  0
ARC
  5
572
102
{ACAD_REACTORS
330
CEF
102
}
330
A
100
AcDbEntity
  8
INSERT
100
AcDbCircle
 10
144.6908290000036
 20
-0.0276760000000138
 30
0.0
 40
4.934587
100
AcDbArc
 50
89.52066400000013
 51
93.13055200000055
  0
LINE
  5
573
102
{ACAD_REACTORS
330
CEF
102
}
330
A
100
AcDbEntity
  8
INSERT
100
AcDbLine
 10
144.7321110000036
 20
4.906739999999999
 30
0.0
 11
144.8138080000036
 21
4.905387999999994
 31
0.0
  0
LINE
  5
574
102
{ACAD_REACTORS
330
CEF
102
}
330
A
100
AcDbEntity
  8
INSERT
100
AcDbLine
 10
141.7032540000036
 20
4.753509999999991
 30
0.0
 11
144.4213450000036
 21
4.899546999999998
 31
0.0
  0
LINE
  5
575
102
{ACAD_REACTORS
330
CEF
102
}
330
A
100
AcDbEntity
  8
INSERT
100
AcDbLine
 10
141.7032540000036
 20
4.753509999999991
 30
0.0
 11
140.9825370000036
 21
3.894591999999995
 31
0.0
  0
LINE
  5
576
102
{ACAD_REACTORS
330
CEF
102
}
330
A
100
AcDbEntity
  8
INSERT
100
AcDbLine
 10
149.8499550000037
 20
-0.0199070000000106
 30
0.0
 11
149.8492340000037
 21
-0.0840530000000044
 31
0.0
  0
SPLINE
  5
577
102
{ACAD_REACTORS
330
CEF
102
}
330
A
100
AcDbEntity
  8
INSERT
100
AcDbSpline
210
0.0
220
0.0
230
1.0
 70
     8
 71
     5
 72
    27
 73
    21
 74
     0
 42
0.0000000001
 43
0.0000000001
 40
0.0
 40
0.0
 40
0.0
 40
0.0
 40
0.0
 40
0.0
 40
0.9356068735892948
 40
0.9356068735892948
 40
0.9356068735892948
 40
1.404943918094391
 40
1.404943918094391
 40
1.404943918094391
 40
1.874988532502193
 40
1.874988532502193
 40
1.874988532502193
 40
2.815627577398167
 40
2.815627577398167
 40
2.815627577398167
 40
3.759422668443324
 40
3.759422668443324
 40
3.759422668443324
 40
4.700706220642886
 40
4.700706220642886
 40
4.700706220642886
 40
4.700706220642886
 40
4.700706220642886
 40
4.700706220642886
 10
149.0354546052975
 20
2.563231530997903
 30
0.0
 10
148.9637706420459
 20
2.674724698107884
 30
0.0
 10
148.8882410342312
 20
2.784065677283798
 30
0.0
 10
148.8103558810165
 20
2.889441572367502
 30
0.0
 10
148.6856053559266
 20
3.046031898308044
 30
0.0
 10
148.5530215936674
 20
3.196312434128437
 30
0.0
 10
148.507946378643
 20
3.24578266257216
 30
0.0
 10
148.4162274441026
 20
3.343479948866962
 30
0.0
 10
148.3212983456347
 20
3.438433756157308
 30
0.0
 10
148.2729593178506
 20
3.485245152300548
 30
0.0
 10
148.1255156783046
 20
3.623169761313647
 30
0.0
 10
147.9710030436759
 20
3.753250073224393
 30
0.0
 10
147.8634327805859
 20
3.837850010633891
 30
0.0
 10
147.6457421142452
 20
3.998867523154018
 30
0.0
 10
147.4186408772928
 20
4.145959409145937
 30
0.0
 10
147.3019752823245
 20
4.216352159169793
 30
0.0
 10
147.0657668839872
 20
4.347954528627766
 30
0.0
 10
146.8216753929361
 20
4.463589174625091
 30
0.0
 10
146.6978843328796
 20
4.517494252380338
 30
0.0
 10
146.5728621755393
 20
4.567692156228471
 30
0.0
 10
146.446280187628
 20
4.613705378446002
 30
0.0
  0
LINE
  5
578
102
{ACAD_REACTORS
330
CEF
102
}
330
A
100
AcDbEntity
  8
INSERT
100
AcDbLine
 10
149.8492340000037
 20
-0.0840530000000044
 30
0.0
 11
149.8489180000037
 21
-0.09570200000001
 31
0.0
  0
LINE
  5
579
102
{ACAD_REACTORS
330
CEF
102
}
330
A
100
AcDbEntity
  8
INSERT
100
AcDbLine
 10
141.1471330000037
 20
-4.723786000000012
 30
0.0
 11
144.4213450000036
 21
-4.899547000000004
 31
0.0
  0
ARC
  5
57A
102
{ACAD_REACTORS
330
CEF
102
}
330
A
100
AcDbEntity
  8
INSERT
100
AcDbCircle
 10
144.6908290000036
 20
0.0276839999999865
 30
0.0
 40
4.934594999999998
100
AcDbArc
 50
266.8694500000003
 51
270.4805639999987
  0
ARC
  5
57B
102
{ACAD_REACTORS
330
CEF
102
}
330
A
100
AcDbEntity
  8
INSERT
100
AcDbCircle
 10
144.6859160000037
 20
-0.106455000000004
 30
0.0
 40
5.013612
100
AcDbArc
 50
69.54064700000117
 51
87.89478499999999
  0
ARC
  5
57C
102
{ACAD_REACTORS
330
CEF
102
}
330
A
100
AcDbEntity
  8
INSERT
100
AcDbCircle
 10
144.7719840000036
 20
-0.0200280000000106
 30
0.0
 40
4.926991
100
AcDbArc
 50
70.13380699999913
 51
90.45781999999965
  0
LINE
  5
57D
102
{ACAD_REACTORS
330
CF0
102
}
330
A
100
AcDbEntity
  8
1
 48
0.016979
100
AcDbLine
 10
142.1594020000036
 20
-4.168517000000008
 30
0.0
 11
141.4828410000037
 21
-4.109326000000009
 31
0.0
  0
ARC
  5
57E
102
{ACAD_REACTORS
330
CF0
102
}
330
A
100
AcDbEntity
  8
1
100
AcDbCircle
 10
141.3085290000037
 20
-6.101715000000002
 30
0.0
 40
2.0
100
AcDbArc
 50
85.00000000000024
 51
137.4792039999986
  0
ARC
  5
57F
102
{ACAD_REACTORS
330
CF0
102
}
330
A
100
AcDbEntity
  8
1
100
AcDbCircle
 10
141.3085290000037
 20
6.101714999999991
 30
0.0
 40
2.0
100
AcDbArc
 50
222.5207960000014
 51
265.7673130000012
  0
ARC
  5
580
102
{ACAD_REACTORS
330
CF0
102
}
330
A
100
AcDbEntity
  8
1
100
AcDbCircle
 10
140.4125230000037
 20
4.472436999999992
 30
0.0
 40
0.26164
100
AcDbArc
 50
180.4553229999996
 51
218.7009330000007
  0
ARC
  5
581
102
{ACAD_REACTORS
330
CF0
102
}
330
A
100
AcDbEntity
  8
1
100
AcDbCircle
 10
141.8500000000037
 20
5.449999999999986
 30
0.0
 40
2.0
100
AcDbArc
 50
214.8052639999997
 51
270.0
  0
LINE
  5
582
102
{ACAD_REACTORS
330
CF0
102
}
330
A
100
AcDbEntity
  8
1
 48
0.069515
100
AcDbLine
 10
144.6306010000037
 20
3.449999999999995
 30
0.0
 11
141.8500000000037
 21
3.449999999999995
 31
0.0
  0
LINE
  5
583
102
{ACAD_REACTORS
330
CF0
102
}
330
A
100
AcDbEntity
  8
1
 48
0.000485
100
AcDbLine
 10
144.6306010000037
 20
3.449999999999995
 30
0.0
 11
144.6500000000036
 21
3.449924999999999
 31
0.0
  0
SPLINE
  5
584
102
{ACAD_REACTORS
330
CEF
102
}
330
A
100
AcDbEntity
  8
INSERT
100
AcDbSpline
210
0.0
220
0.0
230
1.0
 70
     8
 71
     5
 72
    27
 73
    21
 74
     0
 42
0.0000000001
 43
0.0000000001
 40
0.0
 40
0.0
 40
0.0
 40
0.0
 40
0.0
 40
0.0
 40
3.939931133922728
 40
3.939931133922728
 40
3.939931133922728
 40
6.869064688299372
 40
6.869064688299372
 40
6.869064688299372
 40
9.642769711854224
 40
9.642769711854224
 40
9.642769711854224
 40
12.45391453022941
 40
12.45391453022941
 40
12.45391453022941
 40
15.24426625959961
 40
15.24426625959961
 40
15.24426625959961
 40
18.09809655562068
 40
18.09809655562068
 40
18.09809655562068
 40
18.09809655562068
 40
18.09809655562068
 40
18.09809655562068
 10
144.6500000000036
 20
-2.636550149312125
 30
0.0
 10
144.201821113561
 20
-2.705188506180411
 30
0.0
 10
143.7408860862371
 20
-2.708856891675451
 30
0.0
 10
143.2797619164213
 20
-2.652707819668835
 30
0.0
 10
142.5106038253455
 20
-2.43773095194256
 30
0.0
 10
141.8658663285802
 20
-1.99983276602598
 30
0.0
 10
141.6244063915029
 20
-1.771171473638176
 30
0.0
 10
141.2386410972621
 20
-1.247710706118553
 30
0.0
 10
141.0356010150452
 20
-0.6196902959937704
 30
0.0
 10
140.9833038053519
 20
-0.298357071309475
 30
0.0
 10
140.9704803032331
 20
0.3545416577429279
 30
0.0
 10
141.1431939081771
 20
0.9792071654752874
 30
0.0
 10
141.2768163569583
 20
1.274967626550989
 30
0.0
 10
141.6331272635573
 20
1.804608204579485
 30
0.0
 10
142.1354911868656
 20
2.194142906183984
 30
0.0
 10
142.4143908394611
 20
2.348654476693254
 30
0.0
 10
143.0147319548048
 20
2.586986896796666
 30
0.0
 10
143.6617734692133
 20
2.685304165193777
 30
0.0
 10
143.994043980889
 20
2.701897257177654
 30
0.0
 10
144.3253683146541
 20
2.686267318379845
 30
0.0
 10
144.6500000000036
 20
2.636550149312276
 30
0.0
  0
ARC
  5
585
102
{ACAD_REACTORS
330
CF0
102
}
330
A
100
AcDbEntity
  8
1
100
AcDbCircle
 10
144.6818180000037
 20
0.3287529999999919
 30
0.0
 40
4.7
100
AcDbArc
 50
265.0000000000002
 51
269.6121160000012
  0
LINE
  5
586
102
{ACAD_REACTORS
330
CF0
102
}
330
A
100
AcDbEntity
  8
1
 48
0.053021
100
AcDbLine
 10
144.2721860000036
 20
-4.353362000000011
 30
0.0
 11
142.1594020000036
 21
-4.168517000000008
 31
0.0
  0
SPLINE
  5
587
102
{ACAD_REACTORS
330
CEF
102
}
330
A
100
AcDbEntity
  8
INSERT
100
AcDbSpline
210
0.0
220
0.0
230
1.0
 70
     8
 71
     5
 72
    27
 73
    21
 74
     0
 42
0.0000000001
 43
0.0000000001
 40
0.0
 40
0.0
 40
0.0
 40
0.0
 40
0.0
 40
0.0
 40
1.089806304940104
 40
1.089806304940104
 40
1.089806304940104
 40
3.4494408569327
 40
3.4494408569327
 40
3.4494408569327
 40
5.893698299442241
 40
5.893698299442241
 40
5.893698299442241
 40
8.329252495342867
 40
8.329252495342867
 40
8.329252495342867
 40
10.77754114375618
 40
10.77754114375618
 40
10.77754114375618
 40
12.15510567901727
 40
12.15510567901727
 40
12.15510567901727
 40
12.15510567901727
 40
12.15510567901727
 40
12.15510567901727
 10
144.6500000000036
 20
2.636550149312113
 30
0.0
 10
144.7739687089947
 20
2.617564407802149
 30
0.0
 10
144.8958780407019
 20
2.586487585819547
 30
0.0
 10
145.014118243741
 20
2.543806120819962
 30
0.0
 10
145.3728931202693
 20
2.375567111905013
 30
0.0
 10
145.6753204810586
 20
2.114754213160608
 30
0.0
 10
145.8494919817847
 20
1.904875648343221
 30
0.0
 10
146.1401594328721
 20
1.440743560127629
 30
0.0
 10
146.3123644782262
 20
0.9231384320728396
 30
0.0
 10
146.3720157508939
 20
0.652493397161166
 30
0.0
 10
146.4390517044351
 20
0.1049641279822708
 30
0.0
 10
146.4031735005399
 20
-0.4451499075629286
 30
0.0
 10
146.3598864468724
 20
-0.7176365756378475
 30
0.0
 10
146.2191292936186
 20
-1.253555922982904
 30
0.0
 10
145.9607058126228
 20
-1.745282357994731
 30
0.0
 10
145.7986609757696
 20
-1.976174383100135
 30
0.0
 10
145.4903832168016
 20
-2.292787312262852
 30
0.0
 10
145.1069082350989
 20
-2.50761474290941
 30
0.0
 10
144.9601141731873
 20
-2.569233088837769
 30
0.0
 10
144.8067020636769
 20
-2.612551312031384
 30
0.0
 10
144.6500000000036
 20
-2.636550149312125
 30
0.0
  0
ARC
  5
588
102
{ACAD_REACTORS
330
CF0
102
}
330
A
100
AcDbEntity
  8
1
100
AcDbCircle
 10
144.6306010000037
 20
0.9499999999999955
 30
0.0
 40
2.5
100
AcDbArc
 50
37.99999999999954
 51
89.55539200000089
  0
LINE
  5
589
102
{ACAD_REACTORS
330
CF0
102
}
330
A
100
AcDbEntity
  8
1
 48
0.094595
100
AcDbLine
 10
146.6006270000035
 20
2.48915399999999
 30
0.0
 11
148.9301770000037
 21
-0.4925330000000089
 31
0.0
  0
SPLINE
  5
58A
102
{ACAD_REACTORS
330
CF0
102
}
330
A
100
AcDbEntity
  8
1
100
AcDbSpline
210
0.0
220
0.0
230
1.0
 70
     8
 71
     5
 72
    12
 73
     6
 74
     0
 42
0.0000000001
 43
0.0000000001
 40
0.0
 40
0.0
 40
0.0
 40
0.0
 40
0.0
 40
0.0
 40
1.300456966340094
 40
1.300456966340094
 40
1.300456966340094
 40
1.300456966340094
 40
1.300456966340094
 40
1.300456966340094
 10
149.1577823593545
 20
-0.615770412355289
 30
0.0
 10
149.1105496727635
 20
-0.6353431549403368
 30
0.0
 10
149.0639761740387
 20
-0.6242385187919126
 30
0.0
 10
149.0190077461872
 20
-0.5942077812108339
 30
0.0
 10
148.974501508034
 20
-0.5492666160783699
 30
0.0
 10
148.9301765186038
 20
-0.4925332167598171
 30
0.0
  0
ARC
  5
58B
102
{ACAD_REACTORS
330
CF0
102
}
330
A
100
AcDbEntity
  8
1
100
AcDbCircle
 10
144.6501150000037
 20
-0.0000410000000031
 30
0.0
 40
4.549525
100
AcDbArc
 50
329.2291240000003
 51
352.2217589999999
  0
ARC
  5
58C
102
{ACAD_REACTORS
330
CF0
102
}
330
A
100
AcDbEntity
  8
1
100
AcDbCircle
 10
144.6818180000037
 20
0.3287529999999919
 30
0.0
 40
4.7
100
AcDbArc
 50
269.6121160000012
 51
325.5854079999989
  0
LINE
  5
58D
102
{ACAD_REACTORS
330
CEF
102
}
330
A
100
AcDbEntity
  8
INSERT
100
AcDbLine
 10
141.1609110000036
 20
4.107169999999995
 30
0.0
 11
141.1136950000036
 21
4.05089999999999
 31
0.0
  0
LINE
  5
58E
102
{ACAD_REACTORS
330
CEF
102
}
330
A
100
AcDbEntity
  8
INSERT
100
AcDbLine
 10
140.8493040000037
 20
3.735810999999998
 30
0.0
 11
141.1136950000036
 21
4.05089999999999
 31
0.0
  0
SPLINE
  5
58F
102
{ACAD_REACTORS
330
CF0
102
}
330
A
100
AcDbEntity
  8
1
100
AcDbSpline
210
0.0
220
0.0
230
1.0
 70
     8
 71
     5
 72
    12
 73
     6
 74
     0
 42
0.0000000001
 43
0.0000000001
 40
0.0
 40
0.0
 40
0.0
 40
0.0
 40
0.0
 40
0.0
 40
1.468005521578839
 40
1.468005521578839
 40
1.468005521578839
 40
1.468005521578839
 40
1.468005521578839
 40
1.468005521578839
 10
142.6524016854643
 20
3.553483445110778
 30
0.0
 10
142.5117329641627
 20
3.517598128004087
 30
0.0
 10
142.3556894591189
 20
3.497606665727793
 30
0.0
 10
142.1885649876118
 20
3.487129729818292
 30
0.0
 10
142.0194850677868
 20
3.481539803635406
 30
0.0
 10
141.8499999999979
 20
3.480912589965981
 30
0.0
  0
ARC
  5
590
102
{ACAD_REACTORS
330
CF0
102
}
330
A
100
AcDbEntity
  8
1
100
AcDbCircle
 10
141.8242490000037
 20
4.767600999999991
 30
0.0
 40
1.286305
100
AcDbArc
 50
249.7477199999993
 51
271.146513
  0
LINE
  5
591
102
{ACAD_REACTORS
330
CF0
102
}
330
A
100
AcDbEntity
  8
1
 48
0.100526
100
AcDbLine
 10
149.1577820000037
 20
-0.6157700000000049
 30
0.0
 11
146.6821730000036
 21
2.552864000000004
 31
0.0
  0
ARC
  5
592
102
{ACAD_REACTORS
330
CF0
102
}
330
A
100
AcDbEntity
  8
1
100
AcDbCircle
 10
144.6305900000037
 20
0.9499789999999988
 30
0.0
 40
2.603504999999999
100
AcDbArc
 50
38.00021899999983
 51
89.99976299999962
  0
LINE
  5
593
102
{ACAD_REACTORS
330
CF0
102
}
330
A
100
AcDbEntity
  8
1
 48
0.049455
100
AcDbLine
 10
144.6306010000037
 20
3.553483000000006
 30
0.0
 11
142.6524020000037
 21
3.553483000000006
 31
0.0
  0
SPLINE
  5
594
102
{ACAD_REACTORS
330
CF0
102
}
330
A
100
AcDbEntity
  8
1
100
AcDbSpline
210
0.0
220
0.0
230
1.0
 70
     8
 71
     5
 72
    15
 73
     9
 74
     0
 42
0.0000000001
 43
0.0000000001
 40
0.0
 40
0.0
 40
0.0
 40
0.0
 40
0.0
 40
0.0
 40
0.8888279360748811
 40
0.8888279360748811
 40
0.8888279360748811
 40
1.233946357379399
 40
1.233946357379399
 40
1.233946357379399
 40
1.233946357379399
 40
1.233946357379399
 40
1.233946357379399
 10
141.113694785093
 20
4.050900415939898
 30
0.0
 10
141.0259713046279
 20
4.081538079393657
 30
0.0
 10
140.9367494954611
 20
4.104111767755546
 30
0.0
 10
140.8471203805681
 20
4.118781606123261
 30
0.0
 10
140.7331543502113
 20
4.123304693125795
 30
0.0
 10
140.6519949523739
 20
4.100661125229756
 30
0.0
 10
140.6322498374627
 20
4.091921517387
 30
0.0
 10
140.6166956256828
 20
4.080889412940575
 30
0.0
 10
140.6055313945559
 20
4.067584400386515
 30
0.0
  0
SPLINE
  5
595
102
{ACAD_REACTORS
330
CF0
102
}
330
A
100
AcDbEntity
  8
1
100
AcDbSpline
210
0.0
220
0.0
230
1.0
 70
     8
 71
     5
 72
    18
 73
    12
 74
     0
 42
0.0000000001
 43
0.0000000001
 40
0.0
 40
0.0
 40
0.0
 40
0.0
 40
0.0
 40
0.0
 40
1.107741763927931
 40
1.107741763927931
 40
1.107741763927931
 40
1.770742562216323
 40
1.770742562216323
 40
1.770742562216323
 40
2.157342234967244
 40
2.157342234967244
 40
2.157342234967244
 40
2.157342234967244
 40
2.157342234967244
 40
2.157342234967244
 10
141.3792590534735
 20
3.561550144941186
 30
0.0
 10
141.2860414057229
 20
3.558890254812935
 30
0.0
 10
141.172557784508
 20
3.580789983886716
 30
0.0
 10
141.0505828578305
 20
3.623967429961759
 30
0.0
 10
140.8597216729477
 20
3.717332106958052
 30
0.0
 10
140.7063422227624
 20
3.834867907320735
 30
0.0
 10
140.6565172142895
 20
3.881390279540596
 30
0.0
 10
140.5999878064667
 20
3.953224841827029
 30
0.0
 10
140.5852178358708
 20
4.01451008257348
 30
0.0
 10
140.5860285398821
 20
4.03492423450799
 30
0.0
 10
140.5930252869889
 20
4.052680201764196
 30
0.0
 10
140.6055313945559
 20
4.067584400386515
 30
0.0
  0
ARC
  5
59C
102
{ACAD_REACTORS
330
CEF
102
}
330
A
100
AcDbEntity
  8
INSERT
100
AcDbCircle
 10
143.6152450000037
 20
0.0498989999999964
 30
0.0
 40
2.45
100
AcDbArc
 50
123.0000000000015
 51
212.9999999999997
  0
ARC
  5
59D
102
{ACAD_REACTORS
330
CEF
102
}
330
A
100
AcDbEntity
  8
INSERT
100
AcDbCircle
 10
143.8500000000037
 20
0.0
 30
0.0
 40
2.45
100
AcDbArc
 50
303.0000000000015
 51
32.99999999999972
  0
ARC
  5
59E
102
{ACAD_REACTORS
330
CEF
102
}
330
A
100
AcDbEntity
  8
INSERT
100
AcDbCircle
 10
143.7575720000037
 20
0.1423270000000016
 30
0.0
 40
2.619706
100
AcDbArc
 50
212.9999999999997
 51
303.0000000000015
  0
ARC
  5
59F
102
{ACAD_REACTORS
330
CEF
102
}
330
A
100
AcDbEntity
  8
INSERT
100
AcDbCircle
 10
143.7076730000037
 20
-0.0924279999999982
 30
0.0
 40
2.619706
100
AcDbArc
 50
33.00000199999959
 51
122.9999979999994
  0
LINE
  5
5A0
102
{ACAD_REACTORS
330
CF0
102
}
330
A
100
AcDbEntity
  8
1
 48
0.35763
100
AcDbLine
 10
139.8344670000037
 20
4.749999999999983
 30
0.0
 11
125.5292750000037
 21
4.749999999999983
 31
0.0
  0
LINE
  5
5A1
102
{ACAD_REACTORS
330
CF0
102
}
330
A
100
AcDbEntity
  8
1
 48
0.35763
100
AcDbLine
 10
139.8344670000037
 20
-4.750000000000006
 30
0.0
 11
125.5292750000037
 21
-4.750000000000006
 31
0.0
  0
LINE
  5
5A2
102
{ACAD_REACTORS
330
CB3
102
}
330
A
100
AcDbEntity
  8
SK1
 48
0.012242
100
AcDbLine
 10
-70.14999999999638
 20
-3.510330000000009
 30
0.0
 11
-70.14999999999638
 21
-4.000000000000013
 31
0.0
  0
LINE
  5
5A3
102
{ACAD_REACTORS
330
CB3
102
}
330
A
100
AcDbEntity
  8
SK1
 48
0.187758
100
AcDbLine
 10
-70.14999999999638
 20
4.0
 30
0.0
 11
-70.14999999999638
 21
-3.510330000000009
 31
0.0
  0
LINE
  5
5A4
102
{ACAD_REACTORS
330
CF0
102
}
330
A
100
AcDbEntity
  8
1
 48
0.015302
100
AcDbLine
 10
9.850000000003717
 20
-4.387913000000004
 30
0.0
 11
9.850000000003717
 21
-5.000000000000006
 31
0.0
  0
LINE
  5
5A5
102
{ACAD_REACTORS
330
CF0
102
}
330
A
100
AcDbEntity
  8
1
 48
0.234698
100
AcDbLine
 10
9.850000000003717
 20
5.0
 30
0.0
 11
9.850000000003717
 21
-4.387913000000004
 31
0.0
  0
LINE
  5
5A6
102
{ACAD_REACTORS
330
CF0
102
}
330
A
100
AcDbEntity
  8
1
 48
0.092557
100
AcDbLine
 10
125.5788560000037
 20
-4.256275000000009
 30
0.0
 11
127.4300000000036
 21
-1.050000000000004
 31
0.0
  0
LINE
  5
5A7
102
{ACAD_REACTORS
330
CF0
102
}
330
A
100
AcDbEntity
  8
1
 48
0.017139
100
AcDbLine
 10
125.5788560000037
 20
-4.256275000000009
 30
0.0
 11
125.2360690000037
 21
-4.850000000000001
 31
0.0
  0
LINE
  5
5A8
102
{ACAD_REACTORS
330
CF0
102
}
330
A
100
AcDbEntity
  8
1
 48
0.0355
100
AcDbLine
 10
127.4300000000036
 20
-1.050000000000004
 30
0.0
 11
128.8500000000037
 21
-1.050000000000004
 31
0.0
  0
LINE
  5
5A9
102
{ACAD_REACTORS
330
CF0
102
}
330
A
100
AcDbEntity
  8
1
 48
0.0525
100
AcDbLine
 10
128.8500000000037
 20
-1.050000000000004
 30
0.0
 11
128.8500000000037
 21
1.04999999999999
 31
0.0
  0
LINE
  5
5AA
102
{ACAD_REACTORS
330
CF0
102
}
330
A
100
AcDbEntity
  8
1
 48
0.0355
100
AcDbLine
 10
128.8500000000037
 20
1.04999999999999
 30
0.0
 11
127.4300000000036
 21
1.04999999999999
 31
0.0
  0
LINE
  5
5AB
102
{ACAD_REACTORS
330
CF0
102
}
330
A
100
AcDbEntity
  8
1
 48
0.109697
100
AcDbLine
 10
125.2360690000037
 20
4.850000000000004
 30
0.0
 11
127.4300000000036
 21
1.04999999999999
 31
0.0
  0
LINE
  5
5AC
102
{ACAD_REACTORS
330
CF0
102
}
330
A
100
AcDbEntity
  8
1
 48
0.014843
100
AcDbLine
 10
10.00000000000369
 20
-4.256275000000009
 30
0.0
 11
10.00000000000369
 21
-4.850000000000001
 31
0.0
  0
LINE
  5
5AD
102
{ACAD_REACTORS
330
CF0
102
}
330
A
100
AcDbEntity
  8
1
 48
0.227657
100
AcDbLine
 10
10.00000000000369
 20
4.850000000000004
 30
0.0
 11
10.00000000000369
 21
-4.256275000000009
 31
0.0
  0
ARC
  5
5AE
102
{ACAD_REACTORS
330
CB3
102
}
330
A
100
AcDbEntity
  8
SK1
100
AcDbCircle
 10
-69.14999999999638
 20
-4.000000000000013
 30
0.0
 40
1.0
100
AcDbArc
 50
180.0
 51
270.0
  0
ARC
  5
5AF
102
{ACAD_REACTORS
330
CB3
102
}
330
A
100
AcDbEntity
  8
SK1
100
AcDbCircle
 10
-69.14999999999638
 20
4.0
 30
0.0
 40
1.0
100
AcDbArc
 50
90.0
 51
180.0
  0
LINE
  5
5B0
102
{ACAD_REACTORS
330
CF0
102
}
330
A
100
AcDbEntity
  8
1
100
AcDbLine
 10
9.850000000003717
 20
-5.000000000000006
 30
0.0
 11
0.0000000000035243
 21
-5.000000000000006
 31
0.0
  0
LINE
  5
5B1
102
{ACAD_REACTORS
330
CF0
102
}
330
A
100
AcDbEntity
  8
1
100
AcDbLine
 10
9.850000000003717
 20
5.0
 30
0.0
 11
0.0000000000035243
 21
5.0
 31
0.0
  0
LINE
  5
5B2
102
{ACAD_REACTORS
330
CF0
102
}
330
A
100
AcDbEntity
  8
1
 48
0.005303
100
AcDbLine
 10
10.00000000000369
 20
-4.850000000000001
 30
0.0
 11
9.850000000003717
 21
-5.000000000000006
 31
0.0
  0
LINE
  5
5B3
102
{ACAD_REACTORS
330
CF0
102
}
330
A
100
AcDbEntity
  8
1
 48
0.005303
100
AcDbLine
 10
10.00000000000369
 20
4.850000000000004
 30
0.0
 11
9.850000000003717
 21
5.0
 31
0.0
  0
LINE
  5
5B4
102
{ACAD_REACTORS
330
CF0
102
}
330
A
100
AcDbEntity
  8
1
100
AcDbLine
 10
125.2360690000037
 20
-4.850000000000001
 30
0.0
 11
10.00000000000369
 21
-4.850000000000001
 31
0.0
  0
LINE
  5
5B5
102
{ACAD_REACTORS
330
CF0
102
}
330
A
100
AcDbEntity
  8
1
100
AcDbLine
 10
125.2360690000037
 20
4.850000000000004
 30
0.0
 11
10.00000000000369
 21
4.850000000000004
 31
0.0
  0
ARC
  5
5B6
102
{ACAD_REACTORS
330
CEF
102
}
330
A
100
AcDbEntity
  8
INSERT
100
AcDbCircle
 10
144.4000000000037
 20
-1.122497000000009
 30
0.0
 40
0.15
100
AcDbArc
 50
116.1038809999989
 51
180.0
  0
CIRCLE
  5
5B7
102
{ACAD_REACTORS
330
CEF
102
}
330
A
100
AcDbEntity
  8
INSERT
100
AcDbCircle
 10
143.8500000000037
 20
0.0
 30
0.0
 40
1.030718
  0
LINE
  5
5B8
102
{ACAD_REACTORS
330
CEF
102
}
330
A
100
AcDbEntity
  8
INSERT
100
AcDbLine
 10
144.2500000000037
 20
-1.275186000000011
 30
0.0
 11
144.2500000000037
 21
-1.122497000000009
 31
0.0
  0
CIRCLE
  5
5B9
102
{ACAD_REACTORS
330
CEF
102
}
330
A
100
AcDbEntity
  8
INSERT
100
AcDbCircle
 10
143.8500000000037
 20
0.0
 30
0.0
 40
1.649999999999999
  0
LINE
  5
5BA
102
{ACAD_REACTORS
330
CEF
102
}
330
A
100
AcDbEntity
  8
INSERT
100
AcDbLine
 10
144.6221110000037
 20
-0.9076590000000097
 30
0.0
 11
144.7543440000035
 21
-0.9840030000000011
 31
0.0
  0
ARC
  5
5BB
102
{ACAD_REACTORS
330
CEF
102
}
330
A
100
AcDbEntity
  8
INSERT
100
AcDbCircle
 10
144.8043440000037
 20
-0.8974010000000092
 30
0.0
 40
0.1
100
AcDbArc
 50
239.9999999999998
 51
316.7613459999982
  0
ARC
  5
5BC
102
{ACAD_REACTORS
330
CEF
102
}
330
A
100
AcDbEntity
  8
INSERT
100
AcDbCircle
 10
143.8500000000037
 20
0.0
 30
0.0
 40
1.409999999999999
100
AcDbArc
 50
316.7613459999982
 51
343.2386540000002
  0
ARC
  5
5BD
102
{ACAD_REACTORS
330
CEF
102
}
330
A
100
AcDbEntity
  8
INSERT
100
AcDbCircle
 10
145.1043440000037
 20
-0.3777860000000217
 30
0.0
 40
0.1
100
AcDbArc
 50
343.2386540000002
 51
59.99999999999985
  0
LINE
  5
5BE
102
{ACAD_REACTORS
330
CEF
102
}
330
A
100
AcDbEntity
  8
INSERT
100
AcDbLine
 10
145.1543440000037
 20
-0.2911830000000037
 30
0.0
 11
145.0221110000035
 21
-0.2148380000000145
 31
0.0
  0
ARC
  5
5BF
102
{ACAD_REACTORS
330
CEF
102
}
330
A
100
AcDbEntity
  8
INSERT
100
AcDbCircle
 10
145.0971110000037
 20
-0.0849350000000087
 30
0.0
 40
0.15
100
AcDbArc
 50
176.1038810000001
 51
239.9999999999998
  0
ARC
  5
5C0
102
{ACAD_REACTORS
330
CEF
102
}
330
A
100
AcDbEntity
  8
INSERT
100
AcDbCircle
 10
143.8500000000037
 20
0.0
 30
0.0
 40
1.1
100
AcDbArc
 50
356.1038810000002
 51
3.896118999999866
  0
ARC
  5
5C1
102
{ACAD_REACTORS
330
CEF
102
}
330
A
100
AcDbEntity
  8
INSERT
100
AcDbCircle
 10
145.0971110000037
 20
0.0849350000000087
 30
0.0
 40
0.15
100
AcDbArc
 50
120.0000000000001
 51
183.8961189999998
  0
LINE
  5
5C2
102
{ACAD_REACTORS
330
CEF
102
}
330
A
100
AcDbEntity
  8
INSERT
100
AcDbLine
 10
145.0221110000035
 20
0.2148380000000003
 30
0.0
 11
145.1543440000037
 21
0.2911829999999895
 31
0.0
  0
ARC
  5
5C3
102
{ACAD_REACTORS
330
CEF
102
}
330
A
100
AcDbEntity
  8
INSERT
100
AcDbCircle
 10
145.1043440000037
 20
0.3777860000000075
 30
0.0
 40
0.1
100
AcDbArc
 50
300.0000000000001
 51
16.7613459999998
  0
ARC
  5
5C4
102
{ACAD_REACTORS
330
CEF
102
}
330
A
100
AcDbEntity
  8
INSERT
100
AcDbCircle
 10
143.8500000000037
 20
0.0
 30
0.0
 40
1.409999999999999
100
AcDbArc
 50
16.7613459999998
 51
43.23865400000179
  0
ARC
  5
5C5
102
{ACAD_REACTORS
330
CEF
102
}
330
A
100
AcDbEntity
  8
INSERT
100
AcDbCircle
 10
144.8043440000037
 20
0.8974009999999948
 30
0.0
 40
0.1
100
AcDbArc
 50
43.23865400000179
 51
120.0000000000001
  0
LINE
  5
5C6
102
{ACAD_REACTORS
330
CEF
102
}
330
A
100
AcDbEntity
  8
INSERT
100
AcDbLine
 10
144.7543440000035
 20
0.984002999999987
 30
0.0
 11
144.6221110000037
 21
0.9076589999999951
 31
0.0
  0
ARC
  5
5C7
102
{ACAD_REACTORS
330
CEF
102
}
330
A
100
AcDbEntity
  8
INSERT
100
AcDbCircle
 10
144.5471110000037
 20
1.03756299999999
 30
0.0
 40
0.15
100
AcDbArc
 50
236.1038810000002
 51
300.0000000000001
  0
ARC
  5
5C8
102
{ACAD_REACTORS
330
CEF
102
}
330
A
100
AcDbEntity
  8
INSERT
100
AcDbCircle
 10
143.8500000000037
 20
0.0
 30
0.0
 40
1.1
100
AcDbArc
 50
56.10388100000045
 51
63.89611900000112
  0
ARC
  5
5C9
102
{ACAD_REACTORS
330
CEF
102
}
330
A
100
AcDbEntity
  8
INSERT
100
AcDbCircle
 10
144.4000000000037
 20
1.122496999999995
 30
0.0
 40
0.15
100
AcDbArc
 50
180.0
 51
243.8961190000011
  0
LINE
  5
5CA
102
{ACAD_REACTORS
330
CEF
102
}
330
A
100
AcDbEntity
  8
INSERT
100
AcDbLine
 10
144.2500000000037
 20
1.122496999999995
 30
0.0
 11
144.2500000000037
 21
1.275185999999997
 31
0.0
  0
ARC
  5
5CB
102
{ACAD_REACTORS
330
CEF
102
}
330
A
100
AcDbEntity
  8
INSERT
100
AcDbCircle
 10
144.1500000000036
 20
1.275185999999997
 30
0.0
 40
0.1
100
AcDbArc
 50
0.0
 51
76.76134600000096
  0
ARC
  5
5CC
102
{ACAD_REACTORS
330
CEF
102
}
330
A
100
AcDbEntity
  8
INSERT
100
AcDbCircle
 10
143.8500000000037
 20
0.0
 30
0.0
 40
1.409999999999999
100
AcDbArc
 50
76.76134600000096
 51
103.238653999999
  0
ARC
  5
5CD
102
{ACAD_REACTORS
330
CEF
102
}
330
A
100
AcDbEntity
  8
INSERT
100
AcDbCircle
 10
143.5500000000036
 20
1.275185999999997
 30
0.0
 40
0.1
100
AcDbArc
 50
103.238653999999
 51
180.0
  0
LINE
  5
5CE
102
{ACAD_REACTORS
330
CEF
102
}
330
A
100
AcDbEntity
  8
INSERT
100
AcDbLine
 10
143.4500000000037
 20
1.275185999999997
 30
0.0
 11
143.4500000000037
 21
1.122496999999995
 31
0.0
  0
ARC
  5
5CF
102
{ACAD_REACTORS
330
CEF
102
}
330
A
100
AcDbEntity
  8
INSERT
100
AcDbCircle
 10
143.3000000000037
 20
1.122496999999995
 30
0.0
 40
0.15
100
AcDbArc
 50
296.1038809999989
 51
0.0
  0
ARC
  5
5D0
102
{ACAD_REACTORS
330
CEF
102
}
330
A
100
AcDbEntity
  8
INSERT
100
AcDbCircle
 10
143.8500000000037
 20
0.0
 30
0.0
 40
1.1
100
AcDbArc
 50
116.1038809999989
 51
123.8961189999995
  0
ARC
  5
5D1
102
{ACAD_REACTORS
330
CEF
102
}
330
A
100
AcDbEntity
  8
INSERT
100
AcDbCircle
 10
143.1528890000037
 20
1.03756299999999
 30
0.0
 40
0.15
100
AcDbArc
 50
239.9999999999998
 51
303.896119
  0
LINE
  5
5D2
102
{ACAD_REACTORS
330
CEF
102
}
330
A
100
AcDbEntity
  8
INSERT
100
AcDbLine
 10
143.0778890000037
 20
0.9076589999999951
 30
0.0
 11
142.9456560000037
 21
0.984002999999987
 31
0.0
  0
ARC
  5
5D3
102
{ACAD_REACTORS
330
CEF
102
}
330
A
100
AcDbEntity
  8
INSERT
100
AcDbCircle
 10
142.8956560000036
 20
0.8974009999999948
 30
0.0
 40
0.1
100
AcDbArc
 50
59.99999999999985
 51
136.7613459999982
  0
ARC
  5
5D4
102
{ACAD_REACTORS
330
CEF
102
}
330
A
100
AcDbEntity
  8
INSERT
100
AcDbCircle
 10
143.8500000000037
 20
0.0
 30
0.0
 40
1.409999999999999
100
AcDbArc
 50
136.7613459999982
 51
163.2386540000002
  0
ARC
  5
5D5
102
{ACAD_REACTORS
330
CEF
102
}
330
A
100
AcDbEntity
  8
INSERT
100
AcDbCircle
 10
142.5956560000035
 20
0.3777860000000075
 30
0.0
 40
0.1
100
AcDbArc
 50
163.2386540000002
 51
239.9999999999998
  0
LINE
  5
5D6
102
{ACAD_REACTORS
330
CEF
102
}
330
A
100
AcDbEntity
  8
INSERT
100
AcDbLine
 10
142.5456560000036
 20
0.2911829999999895
 30
0.0
 11
142.6778890000037
 21
0.2148380000000003
 31
0.0
  0
ARC
  5
5D7
102
{ACAD_REACTORS
330
CEF
102
}
330
A
100
AcDbEntity
  8
INSERT
100
AcDbCircle
 10
142.6028890000036
 20
0.0849350000000087
 30
0.0
 40
0.15
100
AcDbArc
 50
356.1038810000002
 51
59.99999999999985
  0
ARC
  5
5D8
102
{ACAD_REACTORS
330
CEF
102
}
330
A
100
AcDbEntity
  8
INSERT
100
AcDbCircle
 10
143.8500000000037
 20
0.0
 30
0.0
 40
1.1
100
AcDbArc
 50
176.1038810000001
 51
183.8961189999998
  0
ARC
  5
5D9
102
{ACAD_REACTORS
330
CEF
102
}
330
A
100
AcDbEntity
  8
INSERT
100
AcDbCircle
 10
142.6028890000036
 20
-0.0849350000000087
 30
0.0
 40
0.15
100
AcDbArc
 50
300.0000000000001
 51
3.896118999999866
  0
LINE
  5
5DA
102
{ACAD_REACTORS
330
CEF
102
}
330
A
100
AcDbEntity
  8
INSERT
100
AcDbLine
 10
142.6778890000037
 20
-0.2148380000000145
 30
0.0
 11
142.5456560000036
 21
-0.2911830000000037
 31
0.0
  0
ARC
  5
5DB
102
{ACAD_REACTORS
330
CEF
102
}
330
A
100
AcDbEntity
  8
INSERT
100
AcDbCircle
 10
142.5956560000035
 20
-0.3777860000000217
 30
0.0
 40
0.1
100
AcDbArc
 50
120.0000000000001
 51
196.7613459999998
  0
ARC
  5
5DC
102
{ACAD_REACTORS
330
CEF
102
}
330
A
100
AcDbEntity
  8
INSERT
100
AcDbCircle
 10
143.8500000000037
 20
0.0
 30
0.0
 40
1.409999999999999
100
AcDbArc
 50
196.7613459999998
 51
223.2386540000018
  0
ARC
  5
5DD
102
{ACAD_REACTORS
330
CEF
102
}
330
A
100
AcDbEntity
  8
INSERT
100
AcDbCircle
 10
142.8956560000036
 20
-0.8974010000000092
 30
0.0
 40
0.1
100
AcDbArc
 50
223.2386540000018
 51
300.0000000000001
  0
LINE
  5
5DE
102
{ACAD_REACTORS
330
CEF
102
}
330
A
100
AcDbEntity
  8
INSERT
100
AcDbLine
 10
142.9456560000037
 20
-0.9840030000000011
 30
0.0
 11
143.0778890000037
 21
-0.9076590000000097
 31
0.0
  0
ARC
  5
5DF
102
{ACAD_REACTORS
330
CEF
102
}
330
A
100
AcDbEntity
  8
INSERT
100
AcDbCircle
 10
143.1528890000037
 20
-1.03756299999999
 30
0.0
 40
0.15
100
AcDbArc
 50
56.10388100000045
 51
120.0000000000001
  0
ARC
  5
5E0
102
{ACAD_REACTORS
330
CEF
102
}
330
A
100
AcDbEntity
  8
INSERT
100
AcDbCircle
 10
143.8500000000037
 20
0.0
 30
0.0
 40
1.1
100
AcDbArc
 50
236.1038810000002
 51
243.8961190000011
  0
ARC
  5
5E1
102
{ACAD_REACTORS
330
CEF
102
}
330
A
100
AcDbEntity
  8
INSERT
100
AcDbCircle
 10
143.3000000000037
 20
-1.122497000000009
 30
0.0
 40
0.15
100
AcDbArc
 50
0.0
 51
63.89611900000112
  0
LINE
  5
5E2
102
{ACAD_REACTORS
330
CEF
102
}
330
A
100
AcDbEntity
  8
INSERT
100
AcDbLine
 10
143.4500000000037
 20
-1.122497000000009
 30
0.0
 11
143.4500000000037
 21
-1.275186000000011
 31
0.0
  0
ARC
  5
5E3
102
{ACAD_REACTORS
330
CEF
102
}
330
A
100
AcDbEntity
  8
INSERT
100
AcDbCircle
 10
143.5500000000036
 20
-1.275186000000011
 30
0.0
 40
0.1
100
AcDbArc
 50
180.0
 51
256.761346000001
  0
ARC
  5
5E4
102
{ACAD_REACTORS
330
CEF
102
}
330
A
100
AcDbEntity
  8
INSERT
100
AcDbCircle
 10
143.8500000000037
 20
0.0
 30
0.0
 40
1.409999999999999
100
AcDbArc
 50
256.761346000001
 51
283.2386539999991
  0
ARC
  5
5E5
102
{ACAD_REACTORS
330
CEF
102
}
330
A
100
AcDbEntity
  8
INSERT
100
AcDbCircle
 10
144.1500000000036
 20
-1.275186000000011
 30
0.0
 40
0.1
100
AcDbArc
 50
283.2386539999991
 51
0.0
  0
ARC
  5
5E6
102
{ACAD_REACTORS
330
CEF
102
}
330
A
100
AcDbEntity
  8
INSERT
100
AcDbCircle
 10
143.8500000000037
 20
0.0
 30
0.0
 40
1.1
100
AcDbArc
 50
296.1038809999989
 51
303.896119
  0
ARC
  5
5E7
102
{ACAD_REACTORS
330
CEF
102
}
330
A
100
AcDbEntity
  8
INSERT
100
AcDbCircle
 10
144.5471110000037
 20
-1.03756299999999
 30
0.0
 40
0.15
100
AcDbArc
 50
59.99999999999985
 51
123.8961189999995
  0
CIRCLE
  5
5E8
102
{ACAD_REACTORS
330
CEF
102
}
330
A
100
AcDbEntity
  8
INSERT
100
AcDbCircle
 10
143.8500000000037
 20
0.0
 30
0.0
 40
2.299999999999998
  0
LINE
  5
CB1
102
{ACAD_REACTORS
330
CB3
102
}
330
A
100
AcDbEntity
  8
SK1
100
AcDbLine
 10
0.0000000000035243
 20
5.0
 30
0.0
 11
-69.14999999999638
 21
5.0
 31
0.0
  0
LINE
  5
CB2
102
{ACAD_REACTORS
330
CB3
102
}
330
A
100
AcDbEntity
  8
SK1
100
AcDbLine
 10
0.0000000000035243
 20
-5.000000000000006
 30
0.0
 11
-69.14999999999638
 21
-5.000000000000006
 31
0.0
  0
LINE
  5
CB5
102
{ACAD_REACTORS
330
CBA
102
}
330
A
100
AcDbEntity
  8
4
100
AcDbLine
 10
0.0000000000035243
 20
0.0
 30
0.0
 11
151.0844770000037
 21
0.0
 31
0.0
  0
LINE
  5
CB6
102
{ACAD_REACTORS
330
CBA
102
}
330
A
100
AcDbEntity
  8
4
100
AcDbLine
 10
146.8400000000037
 20
0.0
 30
0.0
 11
140.8600000000037
 21
0.0
 31
0.0
  0
LINE
  5
CB7
102
{ACAD_REACTORS
330
CBA
102
}
330
A
100
AcDbEntity
  8
4
100
AcDbLine
 10
143.8500000000037
 20
2.989999999999993
 30
0.0
 11
143.8500000000037
 21
-2.990000000000009
 31
0.0
  0
LINE
  5
E5D
102
{ACAD_REACTORS
330
E6B
102
}
330
A
100
AcDbEntity
  8
CUT
100
AcDbLine
 10
141.8500000000037
 20
0.0
 30
0.0
 11
149.8500000000037
 21
0.0
 31
0.0
  0
ARC
  5
E5E
102
{ACAD_REACTORS
330
E6B
102
}
330
A
100
AcDbEntity
  8
CUT
100
AcDbCircle
 10
144.8500000000036
 20
-0.0000000000000004
 30
0.0
 40
5.000000000000028
100
AcDbArc
 50
0.0000000000000051
 51
94.97531976872981
  0
LINE
  5
E5F
102
{ACAD_REACTORS
330
E6B
102
}
330
A
100
AcDbEntity
  8
CUT
100
AcDbLine
 10
144.4163668874131
 20
4.981160740597013
 30
0.0
 11
141.8500000000037
 21
4.756632999999986
 31
0.0
  0
LINE
  5
E60
102
{ACAD_REACTORS
330
E6B
102
}
330
A
100
AcDbEntity
  8
CUT
100
AcDbLine
 10
141.8500000000037
 20
4.756632999999986
 30
0.0
 11
141.8500000000037
 21
0.0
 31
0.0
  0
LINE
  5
E6C
102
{ACAD_REACTORS
330
E76
102
}
330
A
100
AcDbEntity
  8
NOCUT
100
AcDbLine
 10
0.0000000000035243
 20
5.0
 30
0.0
 11
0.0000000000035243
 21
0.0
 31
0.0
  0
LINE
  5
E6D
102
{ACAD_REACTORS
330
E76
102
}
330
A
100
AcDbEntity
  8
NOCUT
100
AcDbLine
 10
0.0000000000035243
 20
0.0
 30
0.0
 11
149.3404160000036
 21
0.0
 31
0.0
  0
LINE
  5
E6E
102
{ACAD_REACTORS
330
E76
102
}
330
A
100
AcDbEntity
  8
NOCUT
100
AcDbLine
 10
149.3404160000036
 20
0.0
 30
0.0
 11
149.3404160000036
 21
0.7499986704402452
 31
0.0
  0
ARC
  5
E6F
102
{ACAD_REACTORS
330
E76
102
}
330
A
100
AcDbEntity
  8
NOCUT
100
AcDbCircle
 10
144.6500000159706
 20
-0.0000000136167517
 30
0.0
 40
4.750000013616753
100
AcDbArc
 50
9.084704186224607
 51
90.00000019259863
  0
LINE
  5
E70
102
{ACAD_REACTORS
330
E76
102
}
330
A
100
AcDbEntity
  8
NOCUT
100
AcDbLine
 10
144.6500000000036
 20
4.749999999999983
 30
0.0
 11
125.5292750000037
 21
4.749999999999983
 31
0.0
  0
LINE
  5
E71
102
{ACAD_REACTORS
330
E76
102
}
330
A
100
AcDbEntity
  8
NOCUT
100
AcDbLine
 10
125.5292750000037
 20
4.749999999999983
 30
0.0
 11
125.2938040263195
 21
4.749999999999983
 31
0.0
  0
LINE
  5
E72
102
{ACAD_REACTORS
330
E76
102
}
330
A
100
AcDbEntity
  8
NOCUT
100
AcDbLine
 10
125.2938040263195
 20
4.749999999999983
 30
0.0
 11
125.2360690000037
 21
4.850000000000004
 31
0.0
  0
LINE
  5
E73
102
{ACAD_REACTORS
330
E76
102
}
330
A
100
AcDbEntity
  8
NOCUT
100
AcDbLine
 10
125.2360690000037
 20
4.850000000000004
 30
0.0
 11
10.00000000000369
 21
4.850000000000004
 31
0.0
  0
LINE
  5
E74
102
{ACAD_REACTORS
330
E76
102
}
330
A
100
AcDbEntity
  8
NOCUT
100
AcDbLine
 10
10.00000000000369
 20
4.850000000000004
 30
0.0
 11
9.850000000003717
 21
5.0
 31
0.0
  0
LINE
  5
E75
102
{ACAD_REACTORS
330
E76
102
}
330
A
100
AcDbEntity
  8
NOCUT
100
AcDbLine
 10
9.850000000003717
 20
5.0
 30
0.0
 11
0.0000000000035243
 21
5.0
 31
0.0
  0
TEXT
  5
109F
330
A
100
AcDbEntity
  8
SK6
100
AcDbText
 10
84.07190355370742
 20
-16.67433814718668
 30
0.0
 40
3.5
  1
12A5S010140T1R00
100
AcDbText
1001
ACAD
1000
MTEXTBEGIN
1070
    73
1070
     1
1070
    44
1040
1.0
1070
    74
1070
     0
1000
MTEXTEND
  0
VIEWPORT
  5
39
330
B
100
AcDbEntity
 67
     1
  8
0
 62
     0
370
     0
100
AcDbViewport
 10
0.0
 20
0.0
 30
0.0
 40
1000.0
 41
1000.0
 68
     1
 69
     1
 12
0.0
 22
0.0
 13
0.0
 23
0.0
 14
1.0
 24
1.0
 15
1.0
 25
1.0
 16
0.0
 26
0.0
 36
1.0
 17
0.0
 27
0.0
 37
0.0
 42
50.0
 43
0.0
 44
0.0
 45
1000.0
 50
0.0
 51
0.0
 72
   100
 90
        0
  1

281
     0
 71
     0
 74
     1
110
0.0
120
0.0
130
0.0
111
1.0
121
0.0
131
0.0
112
0.0
122
1.0
132
0.0
 79
     0
146
0.0
170
     0
  0
ENDSEC
  0
SECTION
  2
OBJECTS
  0
DICTIONARY
  5
19
330
0
100
AcDbDictionary
281
     1
  3
ACAD_2007HEADERVARS_RT
350
1369
  3
ACAD_CIP_PREVIOUS_PRODUCT_INFO
350
109D
  3
ACAD_COLOR
350
158
  3
ACAD_GROUP
350
1A
  3
ACAD_LAYOUT
350
1E
  3
ACAD_MATERIAL
350
157
  3
ACAD_MLEADERSTYLE
350
D52
  3
ACAD_MLINESTYLE
350
1B
  3
ACAD_PLOTSETTINGS
350
22
  3
ACAD_PLOTSTYLENAME
350
1F
  3
ACAD_SCALELIST
350
D40
  3
ACAD_TABLESTYLE
350
159
  3
ACAD_VISUALSTYLE
350
D2C
  3
ACAD_WIPEOUT_VARS
350
23
  3
ACDB_RECOMPOSE_DATA
350
1368
  3
AcDbVariableDictionary
350
CBC
  3
ASE_INDEX_DICTIONARY
350
FAB
  0
DICTIONARY
  5
52C
330
2
100
AcDbDictionary
280
     1
281
     1
  3
ACAD_LAYERFILTERS
360
D18
  3
ACAD_LAYERSTATES
360
52D
  3
ACLYDICTIONARY
360
D17
  0
DICTIONARY
  5
D9F
330
14
100
AcDbDictionary
280
     1
281
     1
  3
ADSK_XREC_LAYER_RECONCILED
360
DA0
  0
DICTIONARY
  5
4EF
330
4EE
100
AcDbDictionary
280
     1
281
     1
  3
ADSK_XREC_LAYER_RECONCILED
360
4F0
  0
DICTIONARY
  5
4F2
330
4F1
100
AcDbDictionary
280
     1
281
     1
  3
ADSK_XREC_LAYER_RECONCILED
360
4F3
  0
DICTIONARY
  5
4F5
330
4F4
100
AcDbDictionary
280
     1
281
     1
  3
ADSK_XREC_LAYER_RECONCILED
360
4F6
  0
DICTIONARY
  5
4FB
330
4FA
100
AcDbDictionary
280
     1
281
     1
  3
ADSK_XREC_LAYER_RECONCILED
360
4FC
  0
DICTIONARY
  5
4FE
330
4FD
100
AcDbDictionary
280
     1
281
     1
  3
ADSK_XREC_LAYER_RECONCILED
360
4FF
  0
DICTIONARY
  5
501
330
500
100
AcDbDictionary
280
     1
281
     1
  3
ADSK_XREC_LAYER_RECONCILED
360
502
  0
DICTIONARY
  5
504
330
503
100
AcDbDictionary
280
     1
281
     1
  3
ADSK_XREC_LAYER_RECONCILED
360
505
  0
DICTIONARY
  5
507
330
506
100
AcDbDictionary
280
     1
281
     1
  3
ADSK_XREC_LAYER_RECONCILED
360
508
  0
DICTIONARY
  5
DA1
330
50D
100
AcDbDictionary
280
     1
281
     1
  3
ADSK_XREC_LAYER_RECONCILED
360
DA2
  0
DICTIONARY
  5
DA3
330
50E
100
AcDbDictionary
280
     1
281
     1
  3
ADSK_XREC_LAYER_RECONCILED
360
DA4
  0
DICTIONARY
  5
5EA
330
A
100
AcDbDictionary
280
     1
281
     1
  3
ACAD_SORTENTS
360
5EB
  0
DICTIONARY
  5
1369
102
{ACAD_REACTORS
330
19
102
}
330
19
100
AcDbDictionary
281
     1
  3
DIMFXL
350
136A
  3
DIMJOGANG
350
136B
  0
XRECORD
  5
109D
102
{ACAD_REACTORS
330
19
102
}
330
19
100
AcDbXrecord
280
     1
300
ACDLT
300
2012
300
ACDLT_F_S
  0
DICTIONARY
  5
158
102
{ACAD_REACTORS
330
19
102
}
330
19
100
AcDbDictionary
281
     1
  0
DICTIONARY
  5
1A
102
{ACAD_REACTORS
330
19
102
}
330
19
100
AcDbDictionary
281
     1
  3
*A1
350
E6B
  3
*A2
350
E76
  3
*A3
350
CEF
  3
*A4
350
CF0
  3
*A5
350
C31
  3
*A6
350
C44
  3
*A7
350
CB3
  3
*A8
350
CBA
  0
DICTIONARY
  5
1E
102
{ACAD_REACTORS
330
19
102
}
330
19
100
AcDbDictionary
281
     1
  3
Layout1
350
21
  3
Model
350
20
  0
DICTIONARY
  5
157
102
{ACAD_REACTORS
330
19
102
}
330
19
100
AcDbDictionary
281
     1
  3
ByBlock
350
523
  3
ByLayer
350
526
  3
Global
350
529
  0
DICTIONARY
  5
D52
102
{ACAD_REACTORS
330
19
102
}
330
19
100
AcDbDictionary
281
     1
  3
Standard
350
D53
  0
DICTIONARY
  5
1B
102
{ACAD_REACTORS
330
19
102
}
330
19
100
AcDbDictionary
281
     1
  3
Standard
350
1C
  0
DICTIONARY
  5
22
102
{ACAD_REACTORS
330
19
102
}
330
19
100
AcDbDictionary
281
     1
  0
ACDBDICTIONARYWDFLT
  5
1F
102
{ACAD_REACTORS
330
19
102
}
330
19
100
AcDbDictionary
281
     1
  3
Normal
350
1D
100
AcDbDictionaryWithDefault
340
1D
  0
DICTIONARY
  5
D40
102
{ACAD_REACTORS
330
19
102
}
330
19
100
AcDbDictionary
281
     1
  3
A0
350
D41
  3
A1
350
D42
  3
A2
350
D43
  3
A3
350
D44
  3
A4
350
D45
  3
A5
350
D46
  3
A6
350
D47
  3
A7
350
D48
  3
A8
350
D49
  3
A9
350
D4A
  3
B0
350
D4B
  3
B1
350
D4C
  3
B2
350
D4D
  3
B3
350
D4E
  3
B4
350
D4F
  3
B5
350
D50
  3
B6
350
D51
  0
DICTIONARY
  5
159
102
{ACAD_REACTORS
330
19
102
}
330
19
100
AcDbDictionary
281
     1
  3
Standard
350
15A
  0
DICTIONARY
  5
D2C
102
{ACAD_REACTORS
330
19
102
}
330
19
100
AcDbDictionary
281
     1
  3
2dWireframe
350
D32
  3
3D Hidden
350
D34
  3
3dWireframe
350
D33
  3
Basic
350
D31
  3
Brighten
350
D38
  3
ColorChange
350
D3C
  3
Conceptual
350
D35
  3
Dim
350
D37
  3
EdgeColorOff
350
D3F
  3
Facepattern
350
D3B
  3
Flat
350
D2D
  3
FlatWithEdges
350
D2E
  3
Gouraud
350
D2F
  3
GouraudWithEdges
350
D30
  3
Hidden
350
104C
  3
JitterOff
350
D3D
  3
Linepattern
350
D3A
  3
OverhangOff
350
D3E
  3
Realistic
350
D36
  3
Shaded
350
1051
  3
Shaded with edges
350
1050
  3
Shades of Gray
350
104D
  3
Sketchy
350
104E
  3
Thicken
350
D39
  3
Wireframe
350
104B
  3
X-Ray
350
104F
  0
WIPEOUTVARIABLES
  5
23
330
19
100
AcDbWipeoutVariables
 70
     1
  0
XRECORD
  5
1368
102
{ACAD_REACTORS
330
19
102
}
330
19
100
AcDbXrecord
280
     1
 90
        1
330
15A
  0
DICTIONARY
  5
CBC
102
{ACAD_REACTORS
330
19
102
}
330
19
100
AcDbDictionary
281
     1
  3
CANNOSCALE
350
DA6
  3
CMLEADERSTYLE
350
DA5
  3
CTABLESTYLE
350
CBD
  3
DIMASSOC
350
CCB
  3
INDEXCTL
350
DA8
  3
PROJECTNAME
350
CCC
  3
SORTENTS
350
DA7
  3
XCLIPFRAME
350
1366
  0
DICTIONARY
  5
FAB
102
{ACAD_REACTORS
330
19
102
}
330
19
100
AcDbDictionary
281
     1
  3
ASEBlockHierarchyIndexRecord
350
FAC
1001
DCO15
1040
1720180212.25
  0
DICTIONARY
  5
D18
102
{ACAD_REACTORS
330
52C
102
}
330
52C
100
AcDbDictionary
281
     1
  0
DICTIONARY
  5
52D
102
{ACAD_REACTORS
330
52C
102
}
330
52C
100
AcDbDictionary
281
     1
  3
_LAYISO_STATE
350
E51
1001
AcLayerTools
1000
20
1000
0
  0
DICTIONARY
  5
D17
102
{ACAD_REACTORS
330
52C
102
}
330
52C
100
AcDbDictionary
281
     1
1001
ACAD
1000
<All
  0
XRECORD
  5
DA0
102
{ACAD_REACTORS
330
D9F
102
}
330
D9F
100
AcDbXrecord
280
     1
290
     1
  0
XRECORD
  5
4F0
102
{ACAD_REACTORS
330
4EF
102
}
330
4EF
100
AcDbXrecord
280
     1
290
     1
  0
XRECORD
  5
4F3
102
{ACAD_REACTORS
330
4F2
102
}
330
4F2
100
AcDbXrecord
280
     1
290
     1
  0
XRECORD
  5
4F6
102
{ACAD_REACTORS
330
4F5
102
}
330
4F5
100
AcDbXrecord
280
     1
290
     1
  0
XRECORD
  5
4FC
102
{ACAD_REACTORS
330
4FB
102
}
330
4FB
100
AcDbXrecord
280
     1
290
     1
  0
XRECORD
  5
4FF
102
{ACAD_REACTORS
330
4FE
102
}
330
4FE
100
AcDbXrecord
280
     1
290
     1
  0
XRECORD
  5
502
102
{ACAD_REACTORS
330
501
102
}
330
501
100
AcDbXrecord
280
     1
290
     1
  0
XRECORD
  5
505
102
{ACAD_REACTORS
330
504
102
}
330
504
100
AcDbXrecord
280
     1
290
     1
  0
XRECORD
  5
508
102
{ACAD_REACTORS
330
507
102
}
330
507
100
AcDbXrecord
280
     1
290
     1
  0
XRECORD
  5
DA2
102
{ACAD_REACTORS
330
DA1
102
}
330
DA1
100
AcDbXrecord
280
     1
290
     1
  0
XRECORD
  5
DA4
102
{ACAD_REACTORS
330
DA3
102
}
330
DA3
100
AcDbXrecord
280
     1
290
     1
  0
SORTENTSTABLE
  5
5EB
102
{ACAD_REACTORS
330
5EA
102
}
330
5EA
100
AcDbSortentsTable
330
A
331
5CF
  5
5CE
331
542
  5
53E
331
5D7
  5
5D6
331
5DF
  5
5DE
331
5E7
  5
5F6
331
59E
  5
59A
331
5A6
  5
5A2
331
567
  5
563
331
CB6
  5
53C
331
56F
  5
56B
331
577
  5
573
331
5AE
  5
5AB
331
54A
  5
546
331
552
  5
54E
331
E6F
  5
E66
331
55A
  5
556
331
E5F
  5
E61
331
57F
  5
57B
331
5B6
  5
5B5
331
5BE
  5
5BD
331
587
  5
583
331
5C6
  5
5C5
331
58F
  5
58B
331
5C8
  5
5C7
331
5D0
  5
5CF
331
543
  5
53F
331
5D8
  5
5D7
331
5E0
  5
5DF
331
560
  5
55C
331
59F
  5
59B
331
568
  5
564
331
5A7
  5
5A3
331
570
  5
56C
331
CB7
  5
53D
331
5AF
  5
5AC
331
54B
  5
547
331
553
  5
54F
331
55B
  5
557
331
E60
  5
E62
331
578
  5
574
331
5B7
  5
5B6
331
580
  5
57C
331
588
  5
584
331
5BF
  5
5BE
331
590
  5
58C
331
5C7
  5
5C6
331
E70
  5
E67
331
15D
  5
15D
331
5C9
  5
5C8
331
165
  5
165
331
5D1
  5
5D0
331
544
  5
540
331
5D9
  5
5D8
331
5E1
  5
5E0
331
561
  5
55D
331
5A0
  5
59C
331
569
  5
565
331
571
  5
56D
331
5A8
  5
5A4
331
54C
  5
548
331
554
  5
550
331
55C
  5
558
331
579
  5
575
331
5B0
  5
5AD
331
581
  5
57D
331
5B8
  5
5B7
331
5C0
  5
5BF
331
589
  5
585
331
591
  5
58D
331
E71
  5
E68
331
5CA
  5
5C9
331
15E
  5
15E
331
166
  5
166
331
5D2
  5
5D1
331
545
  5
541
331
5DA
  5
5D9
331
5E2
  5
5E1
331
562
  5
55E
331
5A1
  5
59D
331
56A
  5
566
331
CB1
  5
5B0
331
572
  5
56E
331
5A9
  5
5A5
331
54D
  5
549
331
555
  5
551
331
55D
  5
559
331
5B1
  5
5AF
331
57A
  5
576
331
582
  5
57E
331
5B9
  5
5B8
331
58A
  5
586
331
5C1
  5
5C0
331
592
  5
58E
331
E72
  5
E69
331
15F
  5
15F
331
5CB
  5
5CA
331
5D3
  5
5D2
331
167
  5
167
331
546
  5
542
331
5DB
  5
5DA
331
5E3
  5
5E3
331
563
  5
55F
331
5A2
  5
59E
331
CB2
  5
5AE
331
56B
  5
567
331
573
  5
56F
331
5AA
  5
5A6
331
53D
  5
E5C
331
54E
  5
54A
331
556
  5
552
331
55E
  5
55A
331
57B
  5
577
331
5B2
  5
5B1
331
583
  5
57F
331
5BA
  5
5B9
331
5C2
  5
5C1
331
58B
  5
587
331
593
  5
58F
331
E73
  5
E6A
331
5CC
  5
5CB
331
160
  5
160
331
5E8
  5
5F8
331
5D4
  5
5D3
331
547
  5
543
331
5DC
  5
5DB
331
5E4
  5
5E5
331
564
  5
560
331
5A3
  5
59F
331
56C
  5
568
331
574
  5
570
331
5AB
  5
5A7
331
54F
  5
54B
331
E6C
  5
E63
331
557
  5
553
331
55F
  5
55B
331
5B3
  5
5B2
331
57C
  5
578
331
584
  5
580
331
5BB
  5
5BA
331
58C
  5
588
331
5C3
  5
5C2
331
594
  5
590
331
E74
  5
109E
331
5CD
  5
5CC
331
5D5
  5
5D4
331
5DD
  5
5DC
331
5E5
  5
5F1
331
59C
  5
598
331
5A4
  5
5A0
331
565
  5
561
331
56D
  5
569
331
575
  5
571
331
5AC
  5
5A9
331
548
  5
544
331
550
  5
54C
331
E6D
  5
E64
331
558
  5
554
331
E5D
  5
E5E
331
57D
  5
579
331
5B4
  5
5B3
331
585
  5
581
331
5BC
  5
5BB
331
5C4
  5
5C3
331
58D
  5
589
331
109F
  5
CB7
331
595
  5
591
331
E75
  5
109F
331
5CE
  5
5CD
331
5D6
  5
5D5
331
5DE
  5
5DD
331
5E6
  5
5F4
331
59D
  5
599
331
566
  5
562
331
5A5
  5
5A1
331
CB5
  5
E5D
331
56E
  5
56A
331
5AD
  5
5AA
331
576
  5
572
331
549
  5
545
331
551
  5
54D
331
E6E
  5
E65
331
559
  5
555
331
E5E
  5
E5F
331
5B5
  5
5B4
331
57E
  5
57A
331
586
  5
582
331
5BD
  5
5BC
331
58E
  5
58A
331
5C5
  5
5C4
  0
XRECORD
  5
136A
102
{ACAD_REACTORS
330
1369
102
}
330
1369
100
AcDbXrecord
280
     1
 40
1.25
  0
XRECORD
  5
136B
102
{ACAD_REACTORS
330
1369
102
}
330
1369
100
AcDbXrecord
280
     1
 40
1.570796326794896
  0
GROUP
  5
E6B
102
{ACAD_REACTORS
330
1A
102
}
330
1A
100
AcDbGroup
300

 70
     0
 71
     1
340
E60
340
E5F
340
E5E
340
E5D
  0
GROUP
  5
E76
102
{ACAD_REACTORS
330
1A
102
}
330
1A
100
AcDbGroup
300

 70
     0
 71
     1
340
E75
340
E74
340
E73
340
E72
340
E71
340
E70
340
E6F
340
E6E
340
E6D
340
E6C
  0
GROUP
  5
CEF
102
{ACAD_REACTORS
330
1A
102
}
330
1A
100
AcDbGroup
300

 70
     1
 71
     1
340
5E8
340
5E7
340
5E6
340
5E5
340
5E4
340
5E3
340
5E2
340
5E1
340
5E0
340
5DF
340
5DE
340
5DD
340
5DC
340
5DB
340
5DA
340
5D9
340
5D8
340
5D7
340
5D6
340
5D5
340
5D4
340
5D3
340
5D2
340
5D1
340
5D0
340
5CF
340
5CE
340
5CD
340
5CC
340
5CB
340
5CA
340
5C9
340
5C8
340
5C7
340
5C6
340
5C5
340
5C4
340
5C3
340
5C2
340
5C1
340
5C0
340
5BF
340
5BE
340
5BD
340
5BC
340
5BB
340
5BA
340
5B9
340
5B8
340
5B7
340
5B6
340
59F
340
59E
340
59D
340
59C
340
58E
340
58D
340
57C
340
57B
340
57A
340
579
340
578
340
577
340
576
340
575
340
574
340
573
340
572
340
571
340
570
340
56F
340
56E
340
56D
340
56C
340
56B
340
569
340
568
340
567
340
566
340
565
340
564
340
563
340
562
340
561
340
560
340
55F
340
55E
340
55D
340
55C
340
55B
340
55A
340
559
340
558
340
557
340
556
340
555
340
554
340
553
340
552
340
551
340
550
340
54F
340
54E
340
54D
340
54C
340
54B
340
54A
340
549
340
548
340
547
340
546
340
545
340
544
340
543
340
542
340
584
340
587
  0
GROUP
  5
CF0
102
{ACAD_REACTORS
330
1A
102
}
330
1A
100
AcDbGroup
300

 70
     1
 71
     1
340
5B5
340
5B4
340
5B3
340
5B2
340
5B1
340
5B0
340
5AD
340
5AC
340
5AB
340
5AA
340
5A9
340
5A8
340
5A7
340
5A6
340
5A5
340
5A4
340
5A1
340
5A0
340
595
340
594
340
593
340
592
340
591
340
590
340
58F
340
58C
340
58B
340
58A
340
589
340
588
340
586
340
585
340
583
340
582
340
581
340
580
340
57F
340
57E
340
57D
340
56A
340
167
340
166
  0
GROUP
  5
C31
102
{ACAD_REACTORS
330
1A
102
}
330
1A
100
AcDbGroup
300

 70
     1
 71
     1
340
15E
340
15D
  0
GROUP
  5
C44
102
{ACAD_REACTORS
330
1A
102
}
330
1A
100
AcDbGroup
300

 70
     1
 71
     1
340
15F
340
160
  0
GROUP
  5
CB3
102
{ACAD_REACTORS
330
1A
102
}
330
1A
100
AcDbGroup
300

 70
     1
 71
     1
340
CB2
340
CB1
340
5AF
340
5AE
340
5A3
340
5A2
  0
GROUP
  5
CBA
102
{ACAD_REACTORS
330
1A
102
}
330
1A
100
AcDbGroup
300

 70
     1
 71
     1
340
CB5
340
CB7
340
CB6
  0
LAYOUT
  5
21
102
{ACAD_REACTORS
330
1E
102
}
330
1E
100
AcDbPlotSettings
  1

  2

  4

  6

 40
0.0
 41
0.0
 42
0.0
 43
0.0
 44
0.0
 45
0.0
 46
0.0
 47
0.0
 48
0.0
 49
0.0
140
0.0
141
0.0
142
1.0
143
1.0
 70
     0
 72
     0
 73
     0
 74
     0
  7

 75
     0
147
1.0
 76
     0
 77
     2
 78
   300
148
0.0
149
0.0
100
AcDbLayout
  1
Layout1
 70
     1
 71
     1
 10
0.0
 20
0.0
 11
420.0
 21
297.0
 12
0.0
 22
0.0
 32
0.0
 14
0.0
 24
0.0
 34
0.0
 15
21.720013
 25
10.0
 35
2.0
146
0.0
 13
0.0
 23
0.0
 33
0.0
 16
1.0
 26
0.0
 36
0.0
 17
0.0
 27
1.0
 37
0.0
 76
     0
330
B
331
39
  0
LAYOUT
  5
20
102
{ACAD_REACTORS
330
1E
102
}
330
1E
100
AcDbPlotSettings
  1

  2

  4

  6

 40
0.0
 41
0.0
 42
0.0
 43
0.0
 44
0.0
 45
0.0
 46
0.0
 47
0.0
 48
0.0
 49
0.0
140
0.0
141
0.0
142
1.0
143
1.0
 70
  1024
 72
     0
 73
     0
 74
     0
  7

 75
     0
147
1.0
 76
     0
 77
     2
 78
   300
148
0.0
149
0.0
100
AcDbLayout
  1
Model
 70
     0
 71
     0
 10
0.0
 20
0.0
 11
0.0
 21
0.0
 12
0.0
 22
0.0
 32
0.0
 14
0.0
 24
0.0
 34
0.0
 15
0.0
 25
0.0
 35
0.0
146
0.0
 13
0.0
 23
0.0
 33
0.0
 16
0.0
 26
0.0
 36
0.0
 17
0.0
 27
0.0
 37
0.0
 76
     0
330
A
331
D20
  0
MATERIAL
  5
523
102
{ACAD_XDICTIONARY
360
524
102
}
102
{ACAD_REACTORS
330
157
102
}
330
157
100
AcDbMaterial
  1
ByBlock
  0
MATERIAL
  5
526
102
{ACAD_XDICTIONARY
360
527
102
}
102
{ACAD_REACTORS
330
157
102
}
330
157
100
AcDbMaterial
  1
ByLayer
  0
MATERIAL
  5
529
102
{ACAD_XDICTIONARY
360
52A
102
}
102
{ACAD_REACTORS
330
157
102
}
330
157
100
AcDbMaterial
  1
Global
  0
MLEADERSTYLE
  5
D53
102
{ACAD_REACTORS
330
D52
102
}
330
D52
100
AcDbMLeaderStyle
170
     2
171
     1
172
     0
 90
        2
 40
0.0
 41
0.0
173
     1
 91
-1056964608
340
11
 92
       -2
290
     1
 42
2.0
291
     1
 43
0.36
  3
Standard
 44
4.0
300

342
17
174
     1
178
     6
175
     1
176
     0
 93
-1056964608
 45
4.0
292
     0
297
     0
 46
4.0
 94
-1056964608
 47
1.0
 49
1.0
140
1.0
293
     1
141
0.0
294
     1
177
     0
142
1.0
295
     0
296
     0
143
0.125
1001
ACAD_MLEADERVER
1070
     2
  0
MLINESTYLE
  5
1C
102
{ACAD_REACTORS
330
1B
102
}
330
1B
100
AcDbMlineStyle
  2
STANDARD
 70
     0
  3

 62
     0
 51
90.0
 52
90.0
 71
     2
 49
0.5
 62
   256
  6
BYLAYER
 49
-0.5
 62
   256
  6
BYLAYER
  0
ACDBPLACEHOLDER
  5
1D
102
{ACAD_REACTORS
330
1F
102
}
330
1F
  0
SCALE
  5
D41
102
{ACAD_REACTORS
330
D40
102
}
330
D40
100
AcDbScale
 70
     0
300
1:1
140
1.0
141
1.0
290
     1
  0
SCALE
  5
D42
102
{ACAD_REACTORS
330
D40
102
}
330
D40
100
AcDbScale
 70
     0
300
1:2
140
1.0
141
2.0
290
     0
  0
SCALE
  5
D43
102
{ACAD_REACTORS
330
D40
102
}
330
D40
100
AcDbScale
 70
     0
300
1:4
140
1.0
141
4.0
290
     0
  0
SCALE
  5
D44
102
{ACAD_REACTORS
330
D40
102
}
330
D40
100
AcDbScale
 70
     0
300
1:5
140
1.0
141
5.0
290
     0
  0
SCALE
  5
D45
102
{ACAD_REACTORS
330
D40
102
}
330
D40
100
AcDbScale
 70
     0
300
1:8
140
1.0
141
8.0
290
     0
  0
SCALE
  5
D46
102
{ACAD_REACTORS
330
D40
102
}
330
D40
100
AcDbScale
 70
     0
300
1:10
140
1.0
141
10.0
290
     0
  0
SCALE
  5
D47
102
{ACAD_REACTORS
330
D40
102
}
330
D40
100
AcDbScale
 70
     0
300
1:16
140
1.0
141
16.0
290
     0
  0
SCALE
  5
D48
102
{ACAD_REACTORS
330
D40
102
}
330
D40
100
AcDbScale
 70
     0
300
1:20
140
1.0
141
20.0
290
     0
  0
SCALE
  5
D49
102
{ACAD_REACTORS
330
D40
102
}
330
D40
100
AcDbScale
 70
     0
300
1:30
140
1.0
141
30.0
290
     0
  0
SCALE
  5
D4A
102
{ACAD_REACTORS
330
D40
102
}
330
D40
100
AcDbScale
 70
     0
300
1:40
140
1.0
141
40.0
290
     0
  0
SCALE
  5
D4B
102
{ACAD_REACTORS
330
D40
102
}
330
D40
100
AcDbScale
 70
     0
300
1:50
140
1.0
141
50.0
290
     0
  0
SCALE
  5
D4C
102
{ACAD_REACTORS
330
D40
102
}
330
D40
100
AcDbScale
 70
     0
300
1:100
140
1.0
141
100.0
290
     0
  0
SCALE
  5
D4D
102
{ACAD_REACTORS
330
D40
102
}
330
D40
100
AcDbScale
 70
     0
300
2:1
140
2.0
141
1.0
290
     0
  0
SCALE
  5
D4E
102
{ACAD_REACTORS
330
D40
102
}
330
D40
100
AcDbScale
 70
     0
300
4:1
140
4.0
141
1.0
290
     0
  0
SCALE
  5
D4F
102
{ACAD_REACTORS
330
D40
102
}
330
D40
100
AcDbScale
 70
     0
300
8:1
140
8.0
141
1.0
290
     0
  0
SCALE
  5
D50
102
{ACAD_REACTORS
330
D40
102
}
330
D40
100
AcDbScale
 70
     0
300
10:1
140
10.0
141
1.0
290
     0
  0
SCALE
  5
D51
102
{ACAD_REACTORS
330
D40
102
}
330
D40
100
AcDbScale
 70
     0
300
100:1
140
100.0
141
1.0
290
     0
  0
TABLESTYLE
  5
15A
102
{ACAD_XDICTIONARY
360
DAA
102
}
102
{ACAD_REACTORS
330
159
102
}
330
159
100
AcDbTableStyle
  3
Standard
 70
     0
 71
     0
 40
1.5
 41
1.5
280
     0
281
     0
  7
STANDARD
140
4.5
170
     2
 62
     0
 63
     7
283
     0
274
    -2
284
     1
 64
     0
275
    -2
285
     1
 65
     0
276
    -2
286
     1
 66
     0
277
    -2
287
     1
 67
     0
278
    -2
288
     1
 68
     0
279
    -2
289
     1
 69
     0
  7
STANDARD
140
6.0
170
     5
 62
     0
 63
     7
283
     0
274
    -2
284
     1
 64
     0
275
    -2
285
     1
 65
     0
276
    -2
286
     1
 66
     0
277
    -2
287
     1
 67
     0
278
    -2
288
     1
 68
     0
279
    -2
289
     1
 69
     0
  7
STANDARD
140
4.5
170
     5
 62
     0
 63
     7
283
     0
274
    -2
284
     1
 64
     0
275
    -2
285
     1
 65
     0
276
    -2
286
     1
 66
     0
277
    -2
287
     1
 67
     0
278
    -2
288
     1
 68
     0
279
    -2
289
     1
 69
     0
  0
VISUALSTYLE
  5
D32
102
{ACAD_XDICTIONARY
360
1377
102
}
102
{ACAD_REACTORS
330
D2C
102
}
330
D2C
100
AcDbVisualStyle
  2

 70
     4
 71
     0
 72
     2
 73
     0
 90
        0
 40
-0.6
 41
-30.0
 62
     5
 63
     7
 74
     1
 91
        4
 64
     7
 65
   257
 75
     1
175
     1
 42
1.0
 92
        0
 66
   257
 43
1.0
 76
     1
 77
     6
 78
     2
 67
     7
 79
     5
170
     0
171
     0
290
     0
174
     0
 93
        1
 44
0.0
173
     0
291
     0
 45
0.0
1001
ACAD
1000
AcDbSavedByObjectVersion
1070
     0
  0
VISUALSTYLE
  5
D34
102
{ACAD_XDICTIONARY
360
137B
102
}
102
{ACAD_REACTORS
330
D2C
102
}
330
D2C
100
AcDbVisualStyle
  2

 70
     6
 71
     1
 72
     2
 73
     2
 90
        0
 40
-0.6
 41
-30.0
 62
     5
 63
     7
 74
     2
 91
        2
 64
     7
 65
   257
 75
     2
175
     1
 42
179.0
 92
        0
 66
   257
 43
1.0
 76
     1
 77
     6
 78
     2
 67
     7
 79
     3
170
     0
171
     0
290
     0
174
     0
 93
        1
 44
0.0
173
     0
291
     0
 45
0.0
1001
ACAD
1000
AcDbSavedByObjectVersion
1070
     0
  0
VISUALSTYLE
  5
D33
102
{ACAD_XDICTIONARY
360
1379
102
}
102
{ACAD_REACTORS
330
D2C
102
}
330
D2C
100
AcDbVisualStyle
  2

 70
     5
 71
     0
 72
     2
 73
     0
 90
        0
 40
-0.6
 41
-30.0
 62
     5
 63
     7
 74
     1
 91
        4
 64
     7
 65
   257
 75
     1
175
     1
 42
1.0
 92
        0
 66
   257
 43
1.0
 76
     1
 77
     6
 78
     2
 67
     7
 79
     5
170
     0
171
     0
290
     0
174
     0
 93
        1
 44
0.0
173
     0
291
     0
 45
0.0
1001
ACAD
1000
AcDbSavedByObjectVersion
1070
     0
  0
VISUALSTYLE
  5
D31
102
{ACAD_XDICTIONARY
360
1375
102
}
102
{ACAD_REACTORS
330
D2C
102
}
330
D2C
100
AcDbVisualStyle
  2

 70
     7
 71
     1
 72
     0
 73
     1
 90
        0
 40
-0.6
 41
-30.0
 62
     5
 63
     7
 74
     0
 91
        4
 64
     7
 65
   257
 75
     1
175
     1
 42
1.0
 92
        8
 66
     7
 43
1.0
 76
     1
 77
     6
 78
     2
 67
     7
 79
     5
170
     0
171
     0
290
     0
174
     0
 93
        1
 44
0.0
173
     0
291
     1
 45
0.0
1001
ACAD
1000
AcDbSavedByObjectVersion
1070
     0
  0
VISUALSTYLE
  5
D38
102
{ACAD_XDICTIONARY
360
1383
102
}
102
{ACAD_REACTORS
330
D2C
102
}
330
D2C
100
AcDbVisualStyle
  2

 70
    12
 71
     2
 72
     2
 73
     0
 90
        0
 40
-0.6
 41
-30.0
 62
     5
 63
     7
 74
     1
 91
        4
 64
     7
 65
   257
 75
     1
175
     1
 42
1.0
 92
        8
 66
     7
 43
1.0
 76
     1
 77
     6
 78
     2
 67
     7
 79
     5
170
     0
171
     0
290
     0
174
     0
 93
        1
 44
50.0
173
     0
291
     1
 45
0.0
1001
ACAD
1000
AcDbSavedByObjectVersion
1070
     0
  0
VISUALSTYLE
  5
D3C
102
{ACAD_XDICTIONARY
360
138B
102
}
102
{ACAD_REACTORS
330
D2C
102
}
330
D2C
100
AcDbVisualStyle
  2

 70
    16
 71
     2
 72
     2
 73
     3
 90
        0
 40
-0.6
 41
-30.0
 62
     5
 63
     8
 74
     1
 91
        4
 64
     7
 65
   257
 75
     1
175
     1
 42
1.0
 92
        8
 66
     8
 43
1.0
 76
     1
 77
     6
 78
     2
 67
     7
 79
     5
170
     0
171
     0
290
     0
174
     0
 93
        1
 44
0.0
173
     0
291
     1
 45
0.0
1001
ACAD
1000
AcDbSavedByObjectVersion
1070
     0
  0
VISUALSTYLE
  5
D35
102
{ACAD_XDICTIONARY
360
137D
102
}
102
{ACAD_REACTORS
330
D2C
102
}
330
D2C
100
AcDbVisualStyle
  2

 70
     9
 71
     3
 72
     2
 73
     0
 90
        0
 40
-0.6
 41
-30.0
 62
     5
 63
     7
 74
     2
 91
        2
 64
     7
 65
   257
 75
     1
175
     1
 42
179.0
 92
        8
 66
     7
 43
1.0
 76
     1
 77
     6
 78
     2
 67
     7
 79
     3
170
     0
171
     0
290
     0
174
     0
 93
        1
 44
0.0
173
     0
291
     0
 45
0.0
1001
ACAD
1000
AcDbSavedByObjectVersion
1070
     0
  0
VISUALSTYLE
  5
D37
102
{ACAD_XDICTIONARY
360
1381
102
}
102
{ACAD_REACTORS
330
D2C
102
}
330
D2C
100
AcDbVisualStyle
  2

 70
    11
 71
     2
 72
     2
 73
     0
 90
        0
 40
-0.6
 41
-30.0
 62
     5
 63
     7
 74
     1
 91
        4
 64
     7
 65
   257
 75
     1
175
     1
 42
1.0
 92
        8
 66
     7
 43
1.0
 76
     1
 77
     6
 78
     2
 67
     7
 79
     5
170
     0
171
     0
290
     0
174
     0
 93
        1
 44
-50.0
173
     0
291
     1
 45
0.0
1001
ACAD
1000
AcDbSavedByObjectVersion
1070
     0
  0
VISUALSTYLE
  5
D3F
102
{ACAD_XDICTIONARY
360
1391
102
}
102
{ACAD_REACTORS
330
D2C
102
}
330
D2C
100
AcDbVisualStyle
  2

 70
    22
 71
     2
 72
     2
 73
     0
 90
        0
 40
-0.6
 41
-30.0
 62
     5
 63
     7
 74
     1
 91
        4
 64
     7
 65
   257
 75
     1
175
     1
 42
1.0
 92
        8
 66
     7
 43
1.0
 76
     1
 77
     6
 78
     2
 67
     7
 79
     5
170
     0
171
     0
290
     0
174
     0
 93
        1
 44
0.0
173
     0
291
     1
 45
0.0
1001
ACAD
1000
AcDbSavedByObjectVersion
1070
     0
  0
VISUALSTYLE
  5
D3B
102
{ACAD_XDICTIONARY
360
1389
102
}
102
{ACAD_REACTORS
330
D2C
102
}
330
D2C
100
AcDbVisualStyle
  2

 70
    15
 71
     2
 72
     2
 73
     0
 90
        0
 40
-0.6
 41
-30.0
 62
     5
 63
     7
 74
     1
 91
        4
 64
     7
 65
   257
 75
     1
175
     1
 42
1.0
 92
        8
 66
     7
 43
1.0
 76
     1
 77
     6
 78
     2
 67
     7
 79
     5
170
     0
171
     0
290
     0
174
     0
 93
        1
 44
0.0
173
     0
291
     1
 45
0.0
1001
ACAD
1000
AcDbSavedByObjectVersion
1070
     0
  0
VISUALSTYLE
  5
D2D
102
{ACAD_XDICTIONARY
360
136D
102
}
102
{ACAD_REACTORS
330
D2C
102
}
330
D2C
100
AcDbVisualStyle
  2

 70
     0
 71
     2
 72
     1
 73
     1
 90
        2
 40
-0.6
 41
30.0
 62
     5
 63
     7
 74
     0
 91
        4
 64
     7
 65
   257
 75
     1
175
     1
 42
1.0
 92
        8
 66
     7
 43
1.0
 76
     1
 77
     6
 78
     2
 67
     7
 79
     5
170
     0
171
     0
290
     0
174
     0
 93
       13
 44
0.0
173
     0
291
     1
 45
0.0
1001
ACAD
1000
AcDbSavedByObjectVersion
1070
     0
  0
VISUALSTYLE
  5
D2E
102
{ACAD_XDICTIONARY
360
136F
102
}
102
{ACAD_REACTORS
330
D2C
102
}
330
D2C
100
AcDbVisualStyle
  2

 70
     1
 71
     2
 72
     1
 73
     1
 90
        2
 40
-0.6
 41
30.0
 62
     5
 63
     7
 74
     1
 91
        4
 64
     7
 65
   257
 75
     1
175
     1
 42
1.0
 92
        0
 66
   257
 43
1.0
 76
     1
 77
     6
 78
     2
 67
     7
 79
     5
170
     0
171
     0
290
     0
174
     0
 93
       13
 44
0.0
173
     0
291
     1
 45
0.0
1001
ACAD
1000
AcDbSavedByObjectVersion
1070
     0
  0
VISUALSTYLE
  5
D2F
102
{ACAD_XDICTIONARY
360
1371
102
}
102
{ACAD_REACTORS
330
D2C
102
}
330
D2C
100
AcDbVisualStyle
  2

 70
     2
 71
     2
 72
     2
 73
     1
 90
        2
 40
-0.6
 41
30.0
 62
     5
 63
     7
 74
     0
 91
        4
 64
     7
 65
   257
 75
     1
175
     1
 42
1.0
 92
        0
 66
     7
 43
1.0
 76
     1
 77
     6
 78
     2
 67
     7
 79
     5
170
     0
171
     0
290
     0
174
     0
 93
       13
 44
0.0
173
     0
291
     1
 45
0.0
1001
ACAD
1000
AcDbSavedByObjectVersion
1070
     0
  0
VISUALSTYLE
  5
D30
102
{ACAD_XDICTIONARY
360
1373
102
}
102
{ACAD_REACTORS
330
D2C
102
}
330
D2C
100
AcDbVisualStyle
  2

 70
     3
 71
     2
 72
     2
 73
     1
 90
        2
 40
-0.6
 41
30.0
 62
     5
 63
     7
 74
     1
 91
        4
 64
     7
 65
   257
 75
     1
175
     1
 42
1.0
 92
        0
 66
   257
 43
1.0
 76
     1
 77
     6
 78
     2
 67
     7
 79
     5
170
     0
171
     0
290
     0
174
     0
 93
       13
 44
0.0
173
     0
291
     1
 45
0.0
1001
ACAD
1000
AcDbSavedByObjectVersion
1070
     0
  0
VISUALSTYLE
  5
104C
102
{ACAD_XDICTIONARY
360
1395
102
}
102
{ACAD_REACTORS
330
D2C
102
}
330
D2C
100
AcDbVisualStyle
  2
Hidden
 70
     6
 71
     1
 72
     2
 73
     2
 90
        0
 40
-0.6
 41
-30.0
 62
     5
 63
     7
421
 16777215
 74
     2
 91
        2
 64
     7
 65
   257
 75
     2
175
     1
 42
40.0
 92
        0
 66
   257
 43
1.0
 76
     1
 77
     6
 78
     2
 67
     7
 79
     3
170
     0
171
     0
290
     0
174
     0
 93
        1
 44
0.0
173
     0
291
     0
 45
0.0
1001
ACAD
1000
AcDbSavedByObjectVersion
1070
     0
  0
VISUALSTYLE
  5
D3D
102
{ACAD_XDICTIONARY
360
138D
102
}
102
{ACAD_REACTORS
330
D2C
102
}
330
D2C
100
AcDbVisualStyle
  2

 70
    20
 71
     2
 72
     2
 73
     0
 90
        0
 40
-0.6
 41
-30.0
 62
     5
 63
     7
 74
     1
 91
        4
 64
     7
 65
   257
 75
     1
175
     1
 42
1.0
 92
       10
 66
     7
 43
1.0
 76
     1
 77
     6
 78
     2
 67
     7
 79
     5
170
     0
171
     0
290
     0
174
     0
 93
        1
 44
0.0
173
     0
291
     1
 45
0.0
1001
ACAD
1000
AcDbSavedByObjectVersion
1070
     0
  0
VISUALSTYLE
  5
D3A
102
{ACAD_XDICTIONARY
360
1387
102
}
102
{ACAD_REACTORS
330
D2C
102
}
330
D2C
100
AcDbVisualStyle
  2

 70
    14
 71
     2
 72
     2
 73
     0
 90
        0
 40
-0.6
 41
-30.0
 62
     5
 63
     7
 74
     1
 91
        4
 64
     7
 65
   257
 75
     7
175
     7
 42
1.0
 92
        8
 66
     7
 43
1.0
 76
     1
 77
     6
 78
     2
 67
     7
 79
     5
170
     0
171
     0
290
     0
174
     0
 93
        1
 44
0.0
173
     0
291
     1
 45
0.0
1001
ACAD
1000
AcDbSavedByObjectVersion
1070
     0
  0
VISUALSTYLE
  5
D3E
102
{ACAD_XDICTIONARY
360
138F
102
}
102
{ACAD_REACTORS
330
D2C
102
}
330
D2C
100
AcDbVisualStyle
  2

 70
    21
 71
     2
 72
     2
 73
     0
 90
        0
 40
-0.6
 41
-30.0
 62
     5
 63
     7
 74
     1
 91
        4
 64
     7
 65
   257
 75
     1
175
     1
 42
1.0
 92
        9
 66
     7
 43
1.0
 76
     1
 77
     6
 78
     2
 67
     7
 79
     5
170
     0
171
     0
290
     0
174
     0
 93
        1
 44
0.0
173
     0
291
     1
 45
0.0
1001
ACAD
1000
AcDbSavedByObjectVersion
1070
     0
  0
VISUALSTYLE
  5
D36
102
{ACAD_XDICTIONARY
360
137F
102
}
102
{ACAD_REACTORS
330
D2C
102
}
330
D2C
100
AcDbVisualStyle
  2

 70
     8
 71
     2
 72
     2
 73
     0
 90
        0
 40
-0.6
 41
-30.0
 62
     5
 63
     7
 74
     1
 91
        0
 64
     7
 65
   257
 75
     1
175
     1
 42
1.0
 92
        8
 66
     8
 43
1.0
 76
     1
 77
     6
 78
     2
 67
     7
 79
     5
170
     0
171
     0
290
     0
174
     0
 93
       13
 44
0.0
173
     0
291
     0
 45
0.0
1001
ACAD
1000
AcDbSavedByObjectVersion
1070
     0
  0
VISUALSTYLE
  5
1051
102
{ACAD_XDICTIONARY
360
139F
102
}
102
{ACAD_REACTORS
330
D2C
102
}
330
D2C
100
AcDbVisualStyle
  2
Shaded
 70
    27
 71
     2
 72
     2
 73
     1
 90
        2
 40
-0.6
 41
30.0
 62
     5
 63
     7
421
 16777215
 74
     0
 91
        4
 64
     7
 65
   257
 75
     1
175
     1
 42
1.0
 92
        8
 66
   257
 43
1.0
 76
     1
 77
     6
 78
     2
 67
     8
425
  7895160
 79
     3
170
     0
171
     0
290
     0
174
     0
 93
        5
 44
0.0
173
     0
291
     0
 45
0.0
1001
ACAD
1000
AcDbSavedByObjectVersion
1070
     0
  0
VISUALSTYLE
  5
1050
102
{ACAD_XDICTIONARY
360
139D
102
}
102
{ACAD_REACTORS
330
D2C
102
}
330
D2C
100
AcDbVisualStyle
  2
Shaded with edges
 70
    26
 71
     2
 72
     2
 73
     1
 90
        2
 40
-0.6
 41
30.0
 62
     5
 63
     7
421
 16777215
 74
     1
 91
       10
 64
     7
 65
   257
 75
     2
175
     1
 42
1.0
 92
        8
 66
   257
 43
1.0
 76
     1
 77
     6
 78
     2
 67
     7
 79
     3
170
     0
171
     0
290
     0
174
     0
 93
        5
 44
0.0
173
     0
291
     0
 45
0.0
1001
ACAD
1000
AcDbSavedByObjectVersion
1070
     0
  0
VISUALSTYLE
  5
104D
102
{ACAD_XDICTIONARY
360
1397
102
}
102
{ACAD_REACTORS
330
D2C
102
}
330
D2C
100
AcDbVisualStyle
  2
Shades of Gray
 70
    23
 71
     2
 72
     2
 73
     3
 90
        0
 40
-0.6
 41
-30.0
 62
     5
 63
     7
421
 16777215
 74
     2
 91
        2
 64
     7
 65
     7
 75
     1
175
     1
 42
40.0
 92
        8
 66
     7
 43
1.0
 76
     1
 77
     6
 78
     2
 67
     7
 79
     3
170
     0
171
     0
290
     0
174
     0
 93
        1
 44
0.0
173
     0
291
     0
 45
0.0
1001
ACAD
1000
AcDbSavedByObjectVersion
1070
     0
  0
VISUALSTYLE
  5
104E
102
{ACAD_XDICTIONARY
360
1399
102
}
102
{ACAD_REACTORS
330
D2C
102
}
330
D2C
100
AcDbVisualStyle
  2
Sketchy
 70
    24
 71
     1
 72
     2
 73
     2
 90
        0
 40
-0.6
 41
-30.0
 62
     5
 63
     7
421
 16777215
 74
     2
 91
        2
 64
     7
 65
     7
 75
     1
175
     1
 42
40.0
 92
       11
 66
     7
 43
1.0
 76
     1
 77
     6
 78
     2
 67
     7
 79
     6
170
     0
171
     0
290
     0
174
     0
 93
        1
 44
0.0
173
     0
291
     0
 45
0.0
1001
ACAD
1000
AcDbSavedByObjectVersion
1070
     0
  0
VISUALSTYLE
  5
D39
102
{ACAD_XDICTIONARY
360
1385
102
}
102
{ACAD_REACTORS
330
D2C
102
}
330
D2C
100
AcDbVisualStyle
  2

 70
    13
 71
     2
 72
     2
 73
     0
 90
        0
 40
-0.6
 41
-30.0
 62
     5
 63
     7
 74
     1
 91
        4
 64
     7
 65
   257
 75
     1
175
     1
 42
1.0
 92
       12
 66
     7
 43
1.0
 76
     1
 77
     6
 78
     2
 67
     7
 79
     5
170
     0
171
     0
290
     0
174
     0
 93
        1
 44
0.0
173
     0
291
     1
 45
0.0
1001
ACAD
1000
AcDbSavedByObjectVersion
1070
     0
  0
VISUALSTYLE
  5
104B
102
{ACAD_XDICTIONARY
360
1393
102
}
102
{ACAD_REACTORS
330
D2C
102
}
330
D2C
100
AcDbVisualStyle
  2
Wireframe
 70
     5
 71
     0
 72
     2
 73
     0
 90
        0
 40
-0.6
 41
-30.0
 62
     5
 63
     7
421
 16777215
 74
     1
 91
        4
 64
     7
 65
   257
 75
     1
175
     1
 42
1.0
 92
        0
 66
   257
 43
1.0
 76
     1
 77
     6
 78
     2
 67
     7
 79
     3
170
     0
171
     0
290
     0
174
     0
 93
        1
 44
0.0
173
     0
291
     0
 45
0.0
1001
ACAD
1000
AcDbSavedByObjectVersion
1070
     0
  0
VISUALSTYLE
  5
104F
102
{ACAD_XDICTIONARY
360
139B
102
}
102
{ACAD_REACTORS
330
D2C
102
}
330
D2C
100
AcDbVisualStyle
  2
X-Ray
 70
    25
 71
     2
 72
     2
 73
     1
 90
        1
 40
0.5
 41
-30.0
 62
     5
 63
     7
421
 16777215
 74
     1
 91
        0
 64
     7
 65
   257
 75
     1
175
     1
 42
1.0
 92
        8
 66
     7
 43
1.0
 76
     1
 77
     6
 78
     2
 67
     7
 79
     3
170
     0
171
     0
290
     0
174
     0
 93
       13
 44
0.0
173
     0
291
     0
 45
0.0
1001
ACAD
1000
AcDbSavedByObjectVersion
1070
     0
  0
DICTIONARYVAR
  5
DA6
102
{ACAD_REACTORS
330
CBC
102
}
330
CBC
100
DictionaryVariables
280
     0
  1
1:1
  0
DICTIONARYVAR
  5
DA5
102
{ACAD_REACTORS
330
CBC
102
}
330
CBC
100
DictionaryVariables
280
     0
  1
STANDARD
  0
DICTIONARYVAR
  5
CBD
102
{ACAD_REACTORS
330
CBC
102
}
330
CBC
100
DictionaryVariables
280
     0
  1
STANDARD
  0
DICTIONARYVAR
  5
CCB
102
{ACAD_REACTORS
330
CBC
102
}
330
CBC
100
DictionaryVariables
280
     0
  1
1
  0
DICTIONARYVAR
  5
DA8
102
{ACAD_REACTORS
330
CBC
102
}
330
CBC
100
DictionaryVariables
280
     0
  1
0
  0
DICTIONARYVAR
  5
CCC
102
{ACAD_REACTORS
330
CBC
102
}
330
CBC
100
DictionaryVariables
280
     0
  1

  0
DICTIONARYVAR
  5
DA7
102
{ACAD_REACTORS
330
CBC
102
}
330
CBC
100
DictionaryVariables
280
     0
  1
127
  0
DICTIONARYVAR
  5
1366
102
{ACAD_REACTORS
330
CBC
102
}
330
CBC
100
DictionaryVariables
280
     0
  1
2
  0
XRECORD
  5
FAC
102
{ACAD_REACTORS
330
FAB
102
}
330
FAB
100
AcDbXrecord
280
     1
330
53D
  0
XRECORD
  5
E51
102
{ACAD_XDICTIONARY
360
E52
102
}
102
{ACAD_REACTORS
330
52D
102
}
330
52D
100
AcDbXrecord
280
     1
 91
      535
301

290
     0
302
0
330
50E
 90
        8
 62
     4
370
    50
331
13
390
1D
330
50D
 90
        8
 62
     4
370
    50
331
13
390
1D
330
509
 90
        8
 62
     9
370
    18
331
13
390
1D
330
506
 90
        8
 62
     7
370
    -3
331
13
390
1D
330
503
 90
        8
 62
     1
370
    25
331
13
390
1D
330
500
 90
        8
 62
     5
370
    -3
331
13
390
1D
330
4FD
 90
        8
 62
     2
370
    25
331
4EC
390
1D
330
4FA
 90
        8
 62
     2
370
    25
331
4EC
390
1D
330
4F4
 90
        8
 62
     7
370
    25
331
13
390
1D
330
4F1
 90
        8
 62
     7
370
    25
331
13
390
1D
330
4EE
 90
        8
 62
     4
370
    50
331
13
390
1D
330
170
 90
        0
 62
     7
370
    -3
331
13
390
1D
330
14
 90
        8
 62
     7
370
    -3
331
13
390
1D
  0
DICTIONARY
  5
524
330
523
100
AcDbDictionary
280
     1
281
     1
  3
ACAD_XREC_ROUNDTRIP
360
525
  0
DICTIONARY
  5
527
330
526
100
AcDbDictionary
280
     1
281
     1
  3
ACAD_XREC_ROUNDTRIP
360
528
  0
DICTIONARY
  5
52A
330
529
100
AcDbDictionary
280
     1
281
     1
  3
ACAD_XREC_ROUNDTRIP
360
52B
  0
DICTIONARY
  5
DAA
330
15A
100
AcDbDictionary
280
     1
281
     1
  3
ACAD_ROUNDTRIP_2008_TABLESTYLE_CELLSTYLEMAP
360
1367
  3
ACAD_XREC_ROUNDTRIP
360
136C
  0
DICTIONARY
  5
1377
330
D32
100
AcDbDictionary
280
     1
281
     1
  3
ACAD_XREC_ROUNDTRIP
360
1378
  0
DICTIONARY
  5
137B
330
D34
100
AcDbDictionary
280
     1
281
     1
  3
ACAD_XREC_ROUNDTRIP
360
137C
  0
DICTIONARY
  5
1379
330
D33
100
AcDbDictionary
280
     1
281
     1
  3
ACAD_XREC_ROUNDTRIP
360
137A
  0
DICTIONARY
  5
1375
330
D31
100
AcDbDictionary
280
     1
281
     1
  3
ACAD_XREC_ROUNDTRIP
360
1376
  0
DICTIONARY
  5
1383
330
D38
100
AcDbDictionary
280
     1
281
     1
  3
ACAD_XREC_ROUNDTRIP
360
1384
  0
DICTIONARY
  5
138B
330
D3C
100
AcDbDictionary
280
     1
281
     1
  3
ACAD_XREC_ROUNDTRIP
360
138C
  0
DICTIONARY
  5
137D
330
D35
100
AcDbDictionary
280
     1
281
     1
  3
ACAD_XREC_ROUNDTRIP
360
137E
  0
DICTIONARY
  5
1381
330
D37
100
AcDbDictionary
280
     1
281
     1
  3
ACAD_XREC_ROUNDTRIP
360
1382
  0
DICTIONARY
  5
1391
330
D3F
100
AcDbDictionary
280
     1
281
     1
  3
ACAD_XREC_ROUNDTRIP
360
1392
  0
DICTIONARY
  5
1389
330
D3B
100
AcDbDictionary
280
     1
281
     1
  3
ACAD_XREC_ROUNDTRIP
360
138A
  0
DICTIONARY
  5
136D
330
D2D
100
AcDbDictionary
280
     1
281
     1
  3
ACAD_XREC_ROUNDTRIP
360
136E
  0
DICTIONARY
  5
136F
330
D2E
100
AcDbDictionary
280
     1
281
     1
  3
ACAD_XREC_ROUNDTRIP
360
1370
  0
DICTIONARY
  5
1371
330
D2F
100
AcDbDictionary
280
     1
281
     1
  3
ACAD_XREC_ROUNDTRIP
360
1372
  0
DICTIONARY
  5
1373
330
D30
100
AcDbDictionary
280
     1
281
     1
  3
ACAD_XREC_ROUNDTRIP
360
1374
  0
DICTIONARY
  5
1395
330
104C
100
AcDbDictionary
280
     1
281
     1
  3
ACAD_XREC_ROUNDTRIP
360
1396
  0
DICTIONARY
  5
138D
330
D3D
100
AcDbDictionary
280
     1
281
     1
  3
ACAD_XREC_ROUNDTRIP
360
138E
  0
DICTIONARY
  5
1387
330
D3A
100
AcDbDictionary
280
     1
281
     1
  3
ACAD_XREC_ROUNDTRIP
360
1388
  0
DICTIONARY
  5
138F
330
D3E
100
AcDbDictionary
280
     1
281
     1
  3
ACAD_XREC_ROUNDTRIP
360
1390
  0
DICTIONARY
  5
137F
330
D36
100
AcDbDictionary
280
     1
281
     1
  3
ACAD_XREC_ROUNDTRIP
360
1380
  0
DICTIONARY
  5
139F
330
1051
100
AcDbDictionary
280
     1
281
     1
  3
ACAD_XREC_ROUNDTRIP
360
13A0
  0
DICTIONARY
  5
139D
330
1050
100
AcDbDictionary
280
     1
281
     1
  3
ACAD_XREC_ROUNDTRIP
360
139E
  0
DICTIONARY
  5
1397
330
104D
100
AcDbDictionary
280
     1
281
     1
  3
ACAD_XREC_ROUNDTRIP
360
1398
  0
DICTIONARY
  5
1399
330
104E
100
AcDbDictionary
280
     1
281
     1
  3
ACAD_XREC_ROUNDTRIP
360
139A
  0
DICTIONARY
  5
1385
330
D39
100
AcDbDictionary
280
     1
281
     1
  3
ACAD_XREC_ROUNDTRIP
360
1386
  0
DICTIONARY
  5
1393
330
104B
100
AcDbDictionary
280
     1
281
     1
  3
ACAD_XREC_ROUNDTRIP
360
1394
  0
DICTIONARY
  5
139B
330
104F
100
AcDbDictionary
280
     1
281
     1
  3
ACAD_XREC_ROUNDTRIP
360
139C
  0
DICTIONARY
  5
E52
330
E51
100
AcDbDictionary
280
     1
281
     1
  3
AcadLayerStateAnnoScale
360
E53
  0
XRECORD
  5
525
102
{ACAD_REACTORS
330
524
102
}
330
524
100
AcDbXrecord
280
     1
102
MATERIAL
148
0.0
149
0.0
149
0.0
 93
        0
 94
      127
282
     0
 72
     1
 77
     1
171
     1
175
     1
179
     1
273
     0
  0
XRECORD
  5
528
102
{ACAD_REACTORS
330
527
102
}
330
527
100
AcDbXrecord
280
     1
102
MATERIAL
148
0.0
149
0.0
149
0.0
 93
        0
 94
      127
282
     0
 72
     1
 77
     1
171
     1
175
     1
179
     1
273
     0
  0
XRECORD
  5
52B
102
{ACAD_REACTORS
330
52A
102
}
330
52A
100
AcDbXrecord
280
     1
102
MATERIAL
148
0.0
149
0.0
149
0.0
 93
        0
 94
      127
282
     0
 72
     1
 77
     1
171
     1
175
     1
179
     1
273
     0
  0
CELLSTYLEMAP
  5
1367
102
{ACAD_REACTORS
330
DAA
102
}
330
DAA
100
AcDbCellStyleMap
 90
        3
300
CELLSTYLE
  1
TABLEFORMAT_BEGIN
 90
        5
170
     1
 91
        0
 92
    32768
 62
   257
 93
        1
300
CONTENTFORMAT
  1
CONTENTFORMAT_BEGIN
 90
        0
 91
        0
 92
        4
 93
        0
300

 40
0.0
140
1.0
 94
        5
 62
     0
340
17
144
6.0
309
CONTENTFORMAT_END
171
     1
301
MARGIN
  1
CELLMARGIN_BEGIN
 40
1.5
 40
1.5
 40
1.5
 40
1.5
 40
0.18
 40
0.18
309
CELLMARGIN_END
 94
        6
 95
        1
302
GRIDFORMAT
  1
GRIDFORMAT_BEGIN
 90
        0
 91
        1
 62
     0
 92
       -2
340
0
 93
        0
 40
0.045
309
GRIDFORMAT_END
 95
        2
302
GRIDFORMAT
  1
GRIDFORMAT_BEGIN
 90
        0
 91
        1
 62
     0
 92
       -2
340
0
 93
        0
 40
0.045
309
GRIDFORMAT_END
 95
        4
302
GRIDFORMAT
  1
GRIDFORMAT_BEGIN
 90
        0
 91
        1
 62
     0
 92
       -2
340
0
 93
        0
 40
0.045
309
GRIDFORMAT_END
 95
        8
302
GRIDFORMAT
  1
GRIDFORMAT_BEGIN
 90
        0
 91
        1
 62
     0
 92
       -2
340
0
 93
        0
 40
0.045
309
GRIDFORMAT_END
 95
       16
302
GRIDFORMAT
  1
GRIDFORMAT_BEGIN
 90
        0
 91
        1
 62
     0
 92
       -2
340
0
 93
        0
 40
0.045
309
GRIDFORMAT_END
 95
       32
302
GRIDFORMAT
  1
GRIDFORMAT_BEGIN
 90
        0
 91
        1
 62
     0
 92
       -2
340
0
 93
        0
 40
0.045
309
GRIDFORMAT_END
309
TABLEFORMAT_END
  1
CELLSTYLE_BEGIN
 90
        1
 91
        1
300
_TITLE
309
CELLSTYLE_END
300
CELLSTYLE
  1
TABLEFORMAT_BEGIN
 90
        5
170
     1
 91
        0
 92
        0
 62
   257
 93
        1
300
CONTENTFORMAT
  1
CONTENTFORMAT_BEGIN
 90
        0
 91
        0
 92
        4
 93
        0
300

 40
0.0
140
1.0
 94
        5
 62
     0
340
17
144
4.5
309
CONTENTFORMAT_END
171
     1
301
MARGIN
  1
CELLMARGIN_BEGIN
 40
1.5
 40
1.5
 40
1.5
 40
1.5
 40
0.18
 40
0.18
309
CELLMARGIN_END
 94
        6
 95
        1
302
GRIDFORMAT
  1
GRIDFORMAT_BEGIN
 90
        0
 91
        1
 62
     0
 92
       -2
340
0
 93
        0
 40
0.045
309
GRIDFORMAT_END
 95
        2
302
GRIDFORMAT
  1
GRIDFORMAT_BEGIN
 90
        0
 91
        1
 62
     0
 92
       -2
340
0
 93
        0
 40
0.045
309
GRIDFORMAT_END
 95
        4
302
GRIDFORMAT
  1
GRIDFORMAT_BEGIN
 90
        0
 91
        1
 62
     0
 92
       -2
340
0
 93
        0
 40
0.045
309
GRIDFORMAT_END
 95
        8
302
GRIDFORMAT
  1
GRIDFORMAT_BEGIN
 90
        0
 91
        1
 62
     0
 92
       -2
340
0
 93
        0
 40
0.045
309
GRIDFORMAT_END
 95
       16
302
GRIDFORMAT
  1
GRIDFORMAT_BEGIN
 90
        0
 91
        1
 62
     0
 92
       -2
340
0
 93
        0
 40
0.045
309
GRIDFORMAT_END
 95
       32
302
GRIDFORMAT
  1
GRIDFORMAT_BEGIN
 90
        0
 91
        1
 62
     0
 92
       -2
340
0
 93
        0
 40
0.045
309
GRIDFORMAT_END
309
TABLEFORMAT_END
  1
CELLSTYLE_BEGIN
 90
        2
 91
        1
300
_HEADER
309
CELLSTYLE_END
300
CELLSTYLE
  1
TABLEFORMAT_BEGIN
 90
        5
170
     1
 91
        0
 92
        0
 62
   257
 93
        1
300
CONTENTFORMAT
  1
CONTENTFORMAT_BEGIN
 90
        0
 91
        0
 92
        4
 93
        0
300

 40
0.0
140
1.0
 94
        2
 62
     0
340
17
144
4.5
309
CONTENTFORMAT_END
171
     1
301
MARGIN
  1
CELLMARGIN_BEGIN
 40
1.5
 40
1.5
 40
1.5
 40
1.5
 40
0.18
 40
0.18
309
CELLMARGIN_END
 94
        6
 95
        1
302
GRIDFORMAT
  1
GRIDFORMAT_BEGIN
 90
        0
 91
        1
 62
     0
 92
       -2
340
0
 93
        0
 40
0.045
309
GRIDFORMAT_END
 95
        2
302
GRIDFORMAT
  1
GRIDFORMAT_BEGIN
 90
        0
 91
        1
 62
     0
 92
       -2
340
0
 93
        0
 40
0.045
309
GRIDFORMAT_END
 95
        4
302
GRIDFORMAT
  1
GRIDFORMAT_BEGIN
 90
        0
 91
        1
 62
     0
 92
       -2
340
0
 93
        0
 40
0.045
309
GRIDFORMAT_END
 95
        8
302
GRIDFORMAT
  1
GRIDFORMAT_BEGIN
 90
        0
 91
        1
 62
     0
 92
       -2
340
0
 93
        0
 40
0.045
309
GRIDFORMAT_END
 95
       16
302
GRIDFORMAT
  1
GRIDFORMAT_BEGIN
 90
        0
 91
        1
 62
     0
 92
       -2
340
0
 93
        0
 40
0.045
309
GRIDFORMAT_END
 95
       32
302
GRIDFORMAT
  1
GRIDFORMAT_BEGIN
 90
        0
 91
        1
 62
     0
 92
       -2
340
0
 93
        0
 40
0.045
309
GRIDFORMAT_END
309
TABLEFORMAT_END
  1
CELLSTYLE_BEGIN
 90
        3
 91
        2
300
_DATA
309
CELLSTYLE_END
  0
XRECORD
  5
136C
102
{ACAD_REACTORS
330
DAA
102
}
330
DAA
100
AcDbXrecord
280
     1
102
ACAD_ROUNDTRIP_PRE2007_TABLESTYLE
 90
        4
 91
        0
  1

 92
        4
 93
        0
  2

 94
        4
 95
        0
  3

  0
XRECORD
  5
1378
102
{ACAD_REACTORS
330
1377
102
}
330
1377
100
AcDbXrecord
280
     1
102
RTVSPropertyOp0
 70
     1
102
RTVSPropertyOp1
 70
     1
102
RTVSPropertyOp2
 70
     1
102
RTVSPropertyOp3
 70
     1
102
RTVSPropertyOp4
 70
     1
102
RTVSPropertyOp5
 70
     1
102
RTVSPropertyOp6
 70
     1
102
RTVSPropertyOp7
 70
     1
102
RTVSPropertyOp8
 70
     1
102
RTVSPropertyOp9
 70
     1
102
RTVSPropertyOp10
 70
     1
102
RTVSPropertyOp11
 70
     1
102
RTVSPropertyOp12
 70
     1
102
RTVSPropertyOp13
 70
     1
102
RTVSPropertyOp14
 70
     1
102
RTVSPropertyOp15
 70
     1
102
RTVSPropertyOp16
 70
     1
102
RTVSPropertyOp17
 70
     1
102
RTVSPropertyOp18
 70
     1
102
RTVSPropertyOp19
 70
     1
102
RTVSPropertyOp20
 70
     1
102
RTVSPropertyOp21
 70
     1
102
RTVSPropertyOp22
 70
     1
102
RTVSPropertyOp23
 70
     1
102
RTVSPropertyOp24
 70
     1
102
RTVSPropertyOp25
 70
     1
102
RTVSPropertyOp26
 70
     1
102
RTVSPropertyOp27
 70
     1
102
RTVSPropertyOp28
 70
     1
102
RTVSPropertyOp29
 70
     1
102
RTVSPropertyOp30
 70
     1
102
RTVSPropertyOp31
 70
     1
102
RTVSPropertyOp32
 70
     1
  0
XRECORD
  5
137C
102
{ACAD_REACTORS
330
137B
102
}
330
137B
100
AcDbXrecord
280
     1
102
RTVSPropertyOp0
 70
     1
102
RTVSPropertyOp1
 70
     1
102
RTVSPropertyOp2
 70
     1
102
RTVSPropertyOp3
 70
     1
102
RTVSPropertyOp4
 70
     1
102
RTVSPropertyOp5
 70
     1
102
RTVSPropertyOp6
 70
     1
102
RTVSPropertyOp7
 70
     1
102
RTVSPropertyOp8
 70
     1
102
RTVSPropertyOp9
 70
     1
102
RTVSPropertyOp10
 70
     1
102
RTVSPropertyOp11
 70
     1
102
RTVSPropertyOp12
 70
     1
102
RTVSPropertyOp13
 70
     1
102
RTVSPropertyOp14
 70
     1
102
RTVSPropertyOp15
 70
     1
102
RTVSPropertyOp16
 70
     1
102
RTVSPropertyOp17
 70
     1
102
RTVSPropertyOp18
 70
     1
102
RTVSPropertyOp19
 70
     1
102
RTVSPropertyOp20
 70
     1
102
RTVSPropertyOp21
 70
     1
102
RTVSPropertyOp22
 70
     1
102
RTVSPropertyOp23
 70
     1
102
RTVSPropertyOp24
 70
     1
102
RTVSPropertyOp25
 70
     1
102
RTVSPropertyOp26
 70
     1
102
RTVSPropertyOp27
 70
     1
102
RTVSPropertyOp28
 70
     1
102
RTVSPropertyOp29
 70
     1
102
RTVSPropertyOp30
 70
     1
102
RTVSPropertyOp31
 70
     1
102
RTVSPropertyOp32
 70
     1
  0
XRECORD
  5
137A
102
{ACAD_REACTORS
330
1379
102
}
330
1379
100
AcDbXrecord
280
     1
102
RTVSPropertyOp0
 70
     1
102
RTVSPropertyOp1
 70
     1
102
RTVSPropertyOp2
 70
     1
102
RTVSPropertyOp3
 70
     1
102
RTVSPropertyOp4
 70
     1
102
RTVSPropertyOp5
 70
     1
102
RTVSPropertyOp6
 70
     1
102
RTVSPropertyOp7
 70
     1
102
RTVSPropertyOp8
 70
     1
102
RTVSPropertyOp9
 70
     1
102
RTVSPropertyOp10
 70
     1
102
RTVSPropertyOp11
 70
     1
102
RTVSPropertyOp12
 70
     1
102
RTVSPropertyOp13
 70
     1
102
RTVSPropertyOp14
 70
     1
102
RTVSPropertyOp15
 70
     1
102
RTVSPropertyOp16
 70
     1
102
RTVSPropertyOp17
 70
     1
102
RTVSPropertyOp18
 70
     1
102
RTVSPropertyOp19
 70
     1
102
RTVSPropertyOp20
 70
     1
102
RTVSPropertyOp21
 70
     1
102
RTVSPropertyOp22
 70
     1
102
RTVSPropertyOp23
 70
     1
102
RTVSPropertyOp24
 70
     1
102
RTVSPropertyOp25
 70
     1
102
RTVSPropertyOp26
 70
     1
102
RTVSPropertyOp27
 70
     1
102
RTVSPropertyOp28
 70
     1
102
RTVSPropertyOp29
 70
     1
102
RTVSPropertyOp30
 70
     1
102
RTVSPropertyOp31
 70
     1
102
RTVSPropertyOp32
 70
     1
  0
XRECORD
  5
1376
102
{ACAD_REACTORS
330
1375
102
}
330
1375
100
AcDbXrecord
280
     1
102
RTVSPropertyOp0
 70
     1
102
RTVSPropertyOp1
 70
     1
102
RTVSPropertyOp2
 70
     1
102
RTVSPropertyOp3
 70
     1
102
RTVSPropertyOp4
 70
     1
102
RTVSPropertyOp5
 70
     1
102
RTVSPropertyOp6
 70
     1
102
RTVSPropertyOp7
 70
     1
102
RTVSPropertyOp8
 70
     1
102
RTVSPropertyOp9
 70
     1
102
RTVSPropertyOp10
 70
     1
102
RTVSPropertyOp11
 70
     1
102
RTVSPropertyOp12
 70
     1
102
RTVSPropertyOp13
 70
     1
102
RTVSPropertyOp14
 70
     1
102
RTVSPropertyOp15
 70
     1
102
RTVSPropertyOp16
 70
     1
102
RTVSPropertyOp17
 70
     1
102
RTVSPropertyOp18
 70
     1
102
RTVSPropertyOp19
 70
     1
102
RTVSPropertyOp20
 70
     1
102
RTVSPropertyOp21
 70
     1
102
RTVSPropertyOp22
 70
     1
102
RTVSPropertyOp23
 70
     1
102
RTVSPropertyOp24
 70
     1
102
RTVSPropertyOp25
 70
     1
102
RTVSPropertyOp26
 70
     1
102
RTVSPropertyOp27
 70
     1
102
RTVSPropertyOp28
 70
     1
102
RTVSPropertyOp29
 70
     1
102
RTVSPropertyOp30
 70
     1
102
RTVSPropertyOp31
 70
     1
102
RTVSPropertyOp32
 70
     1
  0
XRECORD
  5
1384
102
{ACAD_REACTORS
330
1383
102
}
330
1383
100
AcDbXrecord
280
     1
102
RTVSPropertyOp0
 70
     1
102
RTVSPropertyOp1
 70
     1
102
RTVSPropertyOp2
 70
     1
102
RTVSPropertyOp3
 70
     1
102
RTVSPropertyOp4
 70
     1
102
RTVSPropertyOp5
 70
     1
102
RTVSPropertyOp6
 70
     1
102
RTVSPropertyOp7
 70
     1
102
RTVSPropertyOp8
 70
     1
102
RTVSPropertyOp9
 70
     1
102
RTVSPropertyOp10
 70
     1
102
RTVSPropertyOp11
 70
     1
102
RTVSPropertyOp12
 70
     1
102
RTVSPropertyOp13
 70
     1
102
RTVSPropertyOp14
 70
     1
102
RTVSPropertyOp15
 70
     1
102
RTVSPropertyOp16
 70
     1
102
RTVSPropertyOp17
 70
     1
102
RTVSPropertyOp18
 70
     1
102
RTVSPropertyOp19
 70
     1
102
RTVSPropertyOp20
 70
     1
102
RTVSPropertyOp21
 70
     1
102
RTVSPropertyOp22
 70
     1
102
RTVSPropertyOp23
 70
     1
102
RTVSPropertyOp24
 70
     1
102
RTVSPropertyOp25
 70
     1
102
RTVSPropertyOp26
 70
     1
102
RTVSPropertyOp27
 70
     1
102
RTVSPropertyOp28
 70
     1
102
RTVSPropertyOp29
 70
     1
102
RTVSPropertyOp30
 70
     1
102
RTVSPropertyOp31
 70
     1
102
RTVSPropertyOp32
 70
     1
  0
XRECORD
  5
138C
102
{ACAD_REACTORS
330
138B
102
}
330
138B
100
AcDbXrecord
280
     1
102
RTVSPropertyOp0
 70
     1
102
RTVSPropertyOp1
 70
     1
102
RTVSPropertyOp2
 70
     1
102
RTVSPropertyOp3
 70
     1
102
RTVSPropertyOp4
 70
     1
102
RTVSPropertyOp5
 70
     1
102
RTVSPropertyOp6
 70
     1
102
RTVSPropertyOp7
 70
     1
102
RTVSPropertyOp8
 70
     1
102
RTVSPropertyOp9
 70
     1
102
RTVSPropertyOp10
 70
     1
102
RTVSPropertyOp11
 70
     1
102
RTVSPropertyOp12
 70
     1
102
RTVSPropertyOp13
 70
     1
102
RTVSPropertyOp14
 70
     1
102
RTVSPropertyOp15
 70
     1
102
RTVSPropertyOp16
 70
     1
102
RTVSPropertyOp17
 70
     1
102
RTVSPropertyOp18
 70
     1
102
RTVSPropertyOp19
 70
     1
102
RTVSPropertyOp20
 70
     1
102
RTVSPropertyOp21
 70
     1
102
RTVSPropertyOp22
 70
     1
102
RTVSPropertyOp23
 70
     1
102
RTVSPropertyOp24
 70
     1
102
RTVSPropertyOp25
 70
     1
102
RTVSPropertyOp26
 70
     1
102
RTVSPropertyOp27
 70
     1
102
RTVSPropertyOp28
 70
     1
102
RTVSPropertyOp29
 70
     1
102
RTVSPropertyOp30
 70
     1
102
RTVSPropertyOp31
 70
     1
102
RTVSPropertyOp32
 70
     1
  0
XRECORD
  5
137E
102
{ACAD_REACTORS
330
137D
102
}
330
137D
100
AcDbXrecord
280
     1
102
RTVSPropertyOp0
 70
     1
102
RTVSPropertyOp1
 70
     1
102
RTVSPropertyOp2
 70
     1
102
RTVSPropertyOp3
 70
     1
102
RTVSPropertyOp4
 70
     1
102
RTVSPropertyOp5
 70
     1
102
RTVSPropertyOp6
 70
     1
102
RTVSPropertyOp7
 70
     1
102
RTVSPropertyOp8
 70
     1
102
RTVSPropertyOp9
 70
     1
102
RTVSPropertyOp10
 70
     1
102
RTVSPropertyOp11
 70
     1
102
RTVSPropertyOp12
 70
     1
102
RTVSPropertyOp13
 70
     1
102
RTVSPropertyOp14
 70
     1
102
RTVSPropertyOp15
 70
     1
102
RTVSPropertyOp16
 70
     1
102
RTVSPropertyOp17
 70
     1
102
RTVSPropertyOp18
 70
     1
102
RTVSPropertyOp19
 70
     1
102
RTVSPropertyOp20
 70
     1
102
RTVSPropertyOp21
 70
     1
102
RTVSPropertyOp22
 70
     1
102
RTVSPropertyOp23
 70
     1
102
RTVSPropertyOp24
 70
     1
102
RTVSPropertyOp25
 70
     1
102
RTVSPropertyOp26
 70
     1
102
RTVSPropertyOp27
 70
     1
102
RTVSPropertyOp28
 70
     1
102
RTVSPropertyOp29
 70
     1
102
RTVSPropertyOp30
 70
     1
102
RTVSPropertyOp31
 70
     1
102
RTVSPropertyOp32
 70
     1
  0
XRECORD
  5
1382
102
{ACAD_REACTORS
330
1381
102
}
330
1381
100
AcDbXrecord
280
     1
102
RTVSPropertyOp0
 70
     1
102
RTVSPropertyOp1
 70
     1
102
RTVSPropertyOp2
 70
     1
102
RTVSPropertyOp3
 70
     1
102
RTVSPropertyOp4
 70
     1
102
RTVSPropertyOp5
 70
     1
102
RTVSPropertyOp6
 70
     1
102
RTVSPropertyOp7
 70
     1
102
RTVSPropertyOp8
 70
     1
102
RTVSPropertyOp9
 70
     1
102
RTVSPropertyOp10
 70
     1
102
RTVSPropertyOp11
 70
     1
102
RTVSPropertyOp12
 70
     1
102
RTVSPropertyOp13
 70
     1
102
RTVSPropertyOp14
 70
     1
102
RTVSPropertyOp15
 70
     1
102
RTVSPropertyOp16
 70
     1
102
RTVSPropertyOp17
 70
     1
102
RTVSPropertyOp18
 70
     1
102
RTVSPropertyOp19
 70
     1
102
RTVSPropertyOp20
 70
     1
102
RTVSPropertyOp21
 70
     1
102
RTVSPropertyOp22
 70
     1
102
RTVSPropertyOp23
 70
     1
102
RTVSPropertyOp24
 70
     1
102
RTVSPropertyOp25
 70
     1
102
RTVSPropertyOp26
 70
     1
102
RTVSPropertyOp27
 70
     1
102
RTVSPropertyOp28
 70
     1
102
RTVSPropertyOp29
 70
     1
102
RTVSPropertyOp30
 70
     1
102
RTVSPropertyOp31
 70
     1
102
RTVSPropertyOp32
 70
     1
  0
XRECORD
  5
1392
102
{ACAD_REACTORS
330
1391
102
}
330
1391
100
AcDbXrecord
280
     1
102
RTVSPropertyOp0
 70
     0
102
RTVSPropertyOp1
 70
     0
102
RTVSPropertyOp2
 70
     0
102
RTVSPropertyOp3
 70
     0
102
RTVSPropertyOp4
 70
     0
102
RTVSPropertyOp5
 70
     0
102
RTVSPropertyOp6
 70
     0
102
RTVSPropertyOp7
 70
     0
102
RTVSPropertyOp8
 70
     0
102
RTVSPropertyOp9
 70
     0
102
RTVSPropertyOp10
 70
     0
102
RTVSPropertyOp11
 70
     0
102
RTVSPropertyOp12
 70
     0
102
RTVSPropertyOp13
 70
     0
102
RTVSPropertyOp14
 70
     2
102
RTVSPropertyOp15
 70
     0
102
RTVSPropertyOp16
 70
     0
102
RTVSPropertyOp17
 70
     0
102
RTVSPropertyOp18
 70
     0
102
RTVSPropertyOp19
 70
     0
102
RTVSPropertyOp20
 70
     0
102
RTVSPropertyOp21
 70
     0
102
RTVSPropertyOp22
 70
     0
102
RTVSPropertyOp23
 70
     0
102
RTVSPropertyOp24
 70
     0
102
RTVSPropertyOp25
 70
     0
102
RTVSPropertyOp26
 70
     0
102
RTVSPropertyOp27
 70
     0
102
RTVSPropertyOp28
 70
     1
102
RTVSPropertyOp29
 70
     1
102
RTVSPropertyOp30
 70
     1
102
RTVSPropertyOp31
 70
     1
102
RTVSPropertyOp32
 70
     1
  0
XRECORD
  5
138A
102
{ACAD_REACTORS
330
1389
102
}
330
1389
100
AcDbXrecord
280
     1
102
RTVSPropertyOp0
 70
     1
102
RTVSPropertyOp1
 70
     1
102
RTVSPropertyOp2
 70
     1
102
RTVSPropertyOp3
 70
     1
102
RTVSPropertyOp4
 70
     1
102
RTVSPropertyOp5
 70
     1
102
RTVSPropertyOp6
 70
     1
102
RTVSPropertyOp7
 70
     1
102
RTVSPropertyOp8
 70
     1
102
RTVSPropertyOp9
 70
     1
102
RTVSPropertyOp10
 70
     1
102
RTVSPropertyOp11
 70
     1
102
RTVSPropertyOp12
 70
     1
102
RTVSPropertyOp13
 70
     1
102
RTVSPropertyOp14
 70
     1
102
RTVSPropertyOp15
 70
     1
102
RTVSPropertyOp16
 70
     1
102
RTVSPropertyOp17
 70
     1
102
RTVSPropertyOp18
 70
     1
102
RTVSPropertyOp19
 70
     1
102
RTVSPropertyOp20
 70
     1
102
RTVSPropertyOp21
 70
     1
102
RTVSPropertyOp22
 70
     1
102
RTVSPropertyOp23
 70
     1
102
RTVSPropertyOp24
 70
     1
102
RTVSPropertyOp25
 70
     1
102
RTVSPropertyOp26
 70
     1
102
RTVSPropertyOp27
 70
     1
102
RTVSPropertyOp28
 70
     1
102
RTVSPropertyOp29
 70
     1
102
RTVSPropertyOp30
 70
     1
102
RTVSPropertyOp31
 70
     1
102
RTVSPropertyOp32
 70
     1
  0
XRECORD
  5
136E
102
{ACAD_REACTORS
330
136D
102
}
330
136D
100
AcDbXrecord
280
     1
102
RTVSPropertyOp0
 70
     1
102
RTVSPropertyOp1
 70
     1
102
RTVSPropertyOp2
 70
     1
102
RTVSPropertyOp3
 70
     1
102
RTVSPropertyOp4
 70
     1
102
RTVSPropertyOp5
 70
     1
102
RTVSPropertyOp6
 70
     1
102
RTVSPropertyOp7
 70
     1
102
RTVSPropertyOp8
 70
     1
102
RTVSPropertyOp9
 70
     1
102
RTVSPropertyOp10
 70
     1
102
RTVSPropertyOp11
 70
     1
102
RTVSPropertyOp12
 70
     1
102
RTVSPropertyOp13
 70
     1
102
RTVSPropertyOp14
 70
     1
102
RTVSPropertyOp15
 70
     1
102
RTVSPropertyOp16
 70
     1
102
RTVSPropertyOp17
 70
     1
102
RTVSPropertyOp18
 70
     1
102
RTVSPropertyOp19
 70
     1
102
RTVSPropertyOp20
 70
     1
102
RTVSPropertyOp21
 70
     1
102
RTVSPropertyOp22
 70
     1
102
RTVSPropertyOp23
 70
     1
102
RTVSPropertyOp24
 70
     1
102
RTVSPropertyOp25
 70
     1
102
RTVSPropertyOp26
 70
     1
102
RTVSPropertyOp27
 70
     1
102
RTVSPropertyOp28
 70
     1
102
RTVSPropertyOp29
 70
     1
102
RTVSPropertyOp30
 70
     1
102
RTVSPropertyOp31
 70
     1
102
RTVSPropertyOp32
 70
     1
  0
XRECORD
  5
1370
102
{ACAD_REACTORS
330
136F
102
}
330
136F
100
AcDbXrecord
280
     1
102
RTVSPropertyOp0
 70
     1
102
RTVSPropertyOp1
 70
     1
102
RTVSPropertyOp2
 70
     1
102
RTVSPropertyOp3
 70
     1
102
RTVSPropertyOp4
 70
     1
102
RTVSPropertyOp5
 70
     1
102
RTVSPropertyOp6
 70
     1
102
RTVSPropertyOp7
 70
     1
102
RTVSPropertyOp8
 70
     1
102
RTVSPropertyOp9
 70
     1
102
RTVSPropertyOp10
 70
     1
102
RTVSPropertyOp11
 70
     1
102
RTVSPropertyOp12
 70
     1
102
RTVSPropertyOp13
 70
     1
102
RTVSPropertyOp14
 70
     1
102
RTVSPropertyOp15
 70
     1
102
RTVSPropertyOp16
 70
     1
102
RTVSPropertyOp17
 70
     1
102
RTVSPropertyOp18
 70
     1
102
RTVSPropertyOp19
 70
     1
102
RTVSPropertyOp20
 70
     1
102
RTVSPropertyOp21
 70
     1
102
RTVSPropertyOp22
 70
     1
102
RTVSPropertyOp23
 70
     1
102
RTVSPropertyOp24
 70
     1
102
RTVSPropertyOp25
 70
     1
102
RTVSPropertyOp26
 70
     1
102
RTVSPropertyOp27
 70
     1
102
RTVSPropertyOp28
 70
     1
102
RTVSPropertyOp29
 70
     1
102
RTVSPropertyOp30
 70
     1
102
RTVSPropertyOp31
 70
     1
102
RTVSPropertyOp32
 70
     1
  0
XRECORD
  5
1372
102
{ACAD_REACTORS
330
1371
102
}
330
1371
100
AcDbXrecord
280
     1
102
RTVSPropertyOp0
 70
     1
102
RTVSPropertyOp1
 70
     1
102
RTVSPropertyOp2
 70
     1
102
RTVSPropertyOp3
 70
     1
102
RTVSPropertyOp4
 70
     1
102
RTVSPropertyOp5
 70
     1
102
RTVSPropertyOp6
 70
     1
102
RTVSPropertyOp7
 70
     1
102
RTVSPropertyOp8
 70
     1
102
RTVSPropertyOp9
 70
     1
102
RTVSPropertyOp10
 70
     1
102
RTVSPropertyOp11
 70
     1
102
RTVSPropertyOp12
 70
     1
102
RTVSPropertyOp13
 70
     1
102
RTVSPropertyOp14
 70
     1
102
RTVSPropertyOp15
 70
     1
102
RTVSPropertyOp16
 70
     1
102
RTVSPropertyOp17
 70
     1
102
RTVSPropertyOp18
 70
     1
102
RTVSPropertyOp19
 70
     1
102
RTVSPropertyOp20
 70
     1
102
RTVSPropertyOp21
 70
     1
102
RTVSPropertyOp22
 70
     1
102
RTVSPropertyOp23
 70
     1
102
RTVSPropertyOp24
 70
     1
102
RTVSPropertyOp25
 70
     1
102
RTVSPropertyOp26
 70
     1
102
RTVSPropertyOp27
 70
     1
102
RTVSPropertyOp28
 70
     1
102
RTVSPropertyOp29
 70
     1
102
RTVSPropertyOp30
 70
     1
102
RTVSPropertyOp31
 70
     1
102
RTVSPropertyOp32
 70
     1
  0
XRECORD
  5
1374
102
{ACAD_REACTORS
330
1373
102
}
330
1373
100
AcDbXrecord
280
     1
102
RTVSPropertyOp0
 70
     1
102
RTVSPropertyOp1
 70
     1
102
RTVSPropertyOp2
 70
     1
102
RTVSPropertyOp3
 70
     1
102
RTVSPropertyOp4
 70
     1
102
RTVSPropertyOp5
 70
     1
102
RTVSPropertyOp6
 70
     1
102
RTVSPropertyOp7
 70
     1
102
RTVSPropertyOp8
 70
     1
102
RTVSPropertyOp9
 70
     1
102
RTVSPropertyOp10
 70
     1
102
RTVSPropertyOp11
 70
     1
102
RTVSPropertyOp12
 70
     1
102
RTVSPropertyOp13
 70
     1
102
RTVSPropertyOp14
 70
     1
102
RTVSPropertyOp15
 70
     1
102
RTVSPropertyOp16
 70
     1
102
RTVSPropertyOp17
 70
     1
102
RTVSPropertyOp18
 70
     1
102
RTVSPropertyOp19
 70
     1
102
RTVSPropertyOp20
 70
     1
102
RTVSPropertyOp21
 70
     1
102
RTVSPropertyOp22
 70
     1
102
RTVSPropertyOp23
 70
     1
102
RTVSPropertyOp24
 70
     1
102
RTVSPropertyOp25
 70
     1
102
RTVSPropertyOp26
 70
     1
102
RTVSPropertyOp27
 70
     1
102
RTVSPropertyOp28
 70
     1
102
RTVSPropertyOp29
 70
     1
102
RTVSPropertyOp30
 70
     1
102
RTVSPropertyOp31
 70
     1
102
RTVSPropertyOp32
 70
     1
  0
XRECORD
  5
1396
102
{ACAD_REACTORS
330
1395
102
}
330
1395
100
AcDbXrecord
280
     1
102
RTVSPropertyOp0
 70
     1
102
RTVSPropertyOp1
 70
     1
102
RTVSPropertyOp2
 70
     1
102
RTVSPropertyOp3
 70
     1
102
RTVSPropertyOp4
 70
     1
102
RTVSPropertyOp5
 70
     1
102
RTVSPropertyOp6
 70
     1
102
RTVSPropertyOp7
 70
     1
102
RTVSPropertyOp8
 70
     1
102
RTVSPropertyOp9
 70
     1
102
RTVSPropertyOp10
 70
     1
102
RTVSPropertyOp11
 70
     1
102
RTVSPropertyOp12
 70
     1
102
RTVSPropertyOp13
 70
     1
102
RTVSPropertyOp14
 70
     1
102
RTVSPropertyOp15
 70
     1
102
RTVSPropertyOp16
 70
     1
102
RTVSPropertyOp17
 70
     1
102
RTVSPropertyOp18
 70
     1
102
RTVSPropertyOp19
 70
     1
102
RTVSPropertyOp20
 70
     1
102
RTVSPropertyOp21
 70
     1
102
RTVSPropertyOp22
 70
     1
102
RTVSPropertyOp23
 70
     1
102
RTVSPropertyOp24
 70
     1
102
RTVSPropertyOp25
 70
     1
102
RTVSPropertyOp26
 70
     1
102
RTVSPropertyOp27
 70
     1
102
RTVSPropertyOp28
 70
     1
102
RTVSPropertyOp29
 70
     1
102
RTVSPropertyOp30
 70
     1
102
RTVSPropertyOp31
 70
     1
102
RTVSPropertyOp32
 70
     1
  0
XRECORD
  5
138E
102
{ACAD_REACTORS
330
138D
102
}
330
138D
100
AcDbXrecord
280
     1
102
RTVSPropertyOp0
 70
     0
102
RTVSPropertyOp1
 70
     0
102
RTVSPropertyOp2
 70
     0
102
RTVSPropertyOp3
 70
     0
102
RTVSPropertyOp4
 70
     0
102
RTVSPropertyOp5
 70
     0
102
RTVSPropertyOp6
 70
     0
102
RTVSPropertyOp7
 70
     0
102
RTVSPropertyOp8
 70
     0
102
RTVSPropertyOp9
 70
     0
102
RTVSPropertyOp10
 70
     0
102
RTVSPropertyOp11
 70
     0
102
RTVSPropertyOp12
 70
     0
102
RTVSPropertyOp13
 70
     0
102
RTVSPropertyOp14
 70
     2
102
RTVSPropertyOp15
 70
     0
102
RTVSPropertyOp16
 70
     0
102
RTVSPropertyOp17
 70
     0
102
RTVSPropertyOp18
 70
     0
102
RTVSPropertyOp19
 70
     0
102
RTVSPropertyOp20
 70
     0
102
RTVSPropertyOp21
 70
     0
102
RTVSPropertyOp22
 70
     0
102
RTVSPropertyOp23
 70
     0
102
RTVSPropertyOp24
 70
     0
102
RTVSPropertyOp25
 70
     0
102
RTVSPropertyOp26
 70
     0
102
RTVSPropertyOp27
 70
     0
102
RTVSPropertyOp28
 70
     1
102
RTVSPropertyOp29
 70
     1
102
RTVSPropertyOp30
 70
     1
102
RTVSPropertyOp31
 70
     1
102
RTVSPropertyOp32
 70
     1
  0
XRECORD
  5
1388
102
{ACAD_REACTORS
330
1387
102
}
330
1387
100
AcDbXrecord
280
     1
102
RTVSPropertyOp0
 70
     1
102
RTVSPropertyOp1
 70
     1
102
RTVSPropertyOp2
 70
     1
102
RTVSPropertyOp3
 70
     1
102
RTVSPropertyOp4
 70
     1
102
RTVSPropertyOp5
 70
     1
102
RTVSPropertyOp6
 70
     1
102
RTVSPropertyOp7
 70
     1
102
RTVSPropertyOp8
 70
     1
102
RTVSPropertyOp9
 70
     1
102
RTVSPropertyOp10
 70
     1
102
RTVSPropertyOp11
 70
     1
102
RTVSPropertyOp12
 70
     1
102
RTVSPropertyOp13
 70
     1
102
RTVSPropertyOp14
 70
     1
102
RTVSPropertyOp15
 70
     1
102
RTVSPropertyOp16
 70
     1
102
RTVSPropertyOp17
 70
     1
102
RTVSPropertyOp18
 70
     1
102
RTVSPropertyOp19
 70
     1
102
RTVSPropertyOp20
 70
     1
102
RTVSPropertyOp21
 70
     1
102
RTVSPropertyOp22
 70
     1
102
RTVSPropertyOp23
 70
     1
102
RTVSPropertyOp24
 70
     1
102
RTVSPropertyOp25
 70
     1
102
RTVSPropertyOp26
 70
     1
102
RTVSPropertyOp27
 70
     1
102
RTVSPropertyOp28
 70
     1
102
RTVSPropertyOp29
 70
     1
102
RTVSPropertyOp30
 70
     1
102
RTVSPropertyOp31
 70
     1
102
RTVSPropertyOp32
 70
     1
  0
XRECORD
  5
1390
102
{ACAD_REACTORS
330
138F
102
}
330
138F
100
AcDbXrecord
280
     1
102
RTVSPropertyOp0
 70
     0
102
RTVSPropertyOp1
 70
     0
102
RTVSPropertyOp2
 70
     0
102
RTVSPropertyOp3
 70
     0
102
RTVSPropertyOp4
 70
     0
102
RTVSPropertyOp5
 70
     0
102
RTVSPropertyOp6
 70
     0
102
RTVSPropertyOp7
 70
     0
102
RTVSPropertyOp8
 70
     0
102
RTVSPropertyOp9
 70
     0
102
RTVSPropertyOp10
 70
     0
102
RTVSPropertyOp11
 70
     0
102
RTVSPropertyOp12
 70
     0
102
RTVSPropertyOp13
 70
     0
102
RTVSPropertyOp14
 70
     2
102
RTVSPropertyOp15
 70
     0
102
RTVSPropertyOp16
 70
     0
102
RTVSPropertyOp17
 70
     0
102
RTVSPropertyOp18
 70
     0
102
RTVSPropertyOp19
 70
     0
102
RTVSPropertyOp20
 70
     0
102
RTVSPropertyOp21
 70
     0
102
RTVSPropertyOp22
 70
     0
102
RTVSPropertyOp23
 70
     0
102
RTVSPropertyOp24
 70
     0
102
RTVSPropertyOp25
 70
     0
102
RTVSPropertyOp26
 70
     0
102
RTVSPropertyOp27
 70
     0
102
RTVSPropertyOp28
 70
     1
102
RTVSPropertyOp29
 70
     1
102
RTVSPropertyOp30
 70
     1
102
RTVSPropertyOp31
 70
     1
102
RTVSPropertyOp32
 70
     1
  0
XRECORD
  5
1380
102
{ACAD_REACTORS
330
137F
102
}
330
137F
100
AcDbXrecord
280
     1
102
RTVSPropertyOp0
 70
     1
102
RTVSPropertyOp1
 70
     1
102
RTVSPropertyOp2
 70
     1
102
RTVSPropertyOp3
 70
     1
102
RTVSPropertyOp4
 70
     1
102
RTVSPropertyOp5
 70
     1
102
RTVSPropertyOp6
 70
     1
102
RTVSPropertyOp7
 70
     1
102
RTVSPropertyOp8
 70
     1
102
RTVSPropertyOp9
 70
     1
102
RTVSPropertyOp10
 70
     1
102
RTVSPropertyOp11
 70
     1
102
RTVSPropertyOp12
 70
     1
102
RTVSPropertyOp13
 70
     1
102
RTVSPropertyOp14
 70
     1
102
RTVSPropertyOp15
 70
     1
102
RTVSPropertyOp16
 70
     1
102
RTVSPropertyOp17
 70
     1
102
RTVSPropertyOp18
 70
     1
102
RTVSPropertyOp19
 70
     1
102
RTVSPropertyOp20
 70
     1
102
RTVSPropertyOp21
 70
     1
102
RTVSPropertyOp22
 70
     1
102
RTVSPropertyOp23
 70
     1
102
RTVSPropertyOp24
 70
     1
102
RTVSPropertyOp25
 70
     1
102
RTVSPropertyOp26
 70
     1
102
RTVSPropertyOp27
 70
     1
102
RTVSPropertyOp28
 70
     1
102
RTVSPropertyOp29
 70
     1
102
RTVSPropertyOp30
 70
     1
102
RTVSPropertyOp31
 70
     1
102
RTVSPropertyOp32
 70
     1
  0
XRECORD
  5
13A0
102
{ACAD_REACTORS
330
139F
102
}
330
139F
100
AcDbXrecord
280
     1
102
RTVSPropertyOp0
 70
     1
102
RTVSPropertyOp1
 70
     1
102
RTVSPropertyOp2
 70
     1
102
RTVSPropertyOp3
 70
     1
102
RTVSPropertyOp4
 70
     1
102
RTVSPropertyOp5
 70
     1
102
RTVSPropertyOp6
 70
     1
102
RTVSPropertyOp7
 70
     1
102
RTVSPropertyOp8
 70
     1
102
RTVSPropertyOp9
 70
     1
102
RTVSPropertyOp10
 70
     1
102
RTVSPropertyOp11
 70
     1
102
RTVSPropertyOp12
 70
     1
102
RTVSPropertyOp13
 70
     1
102
RTVSPropertyOp14
 70
     1
102
RTVSPropertyOp15
 70
     1
102
RTVSPropertyOp16
 70
     1
102
RTVSPropertyOp17
 70
     1
102
RTVSPropertyOp18
 70
     1
102
RTVSPropertyOp19
 70
     1
102
RTVSPropertyOp20
 70
     1
102
RTVSPropertyOp21
 70
     1
102
RTVSPropertyOp22
 70
     1
102
RTVSPropertyOp23
 70
     1
102
RTVSPropertyOp24
 70
     1
102
RTVSPropertyOp25
 70
     1
102
RTVSPropertyOp26
 70
     1
102
RTVSPropertyOp27
 70
     1
102
RTVSPropertyOp28
 70
     1
102
RTVSPropertyOp29
 70
     1
102
RTVSPropertyOp30
 70
     1
102
RTVSPropertyOp31
 70
     1
102
RTVSPropertyOp32
 70
     1
  0
XRECORD
  5
139E
102
{ACAD_REACTORS
330
139D
102
}
330
139D
100
AcDbXrecord
280
     1
102
RTVSPropertyOp0
 70
     1
102
RTVSPropertyOp1
 70
     1
102
RTVSPropertyOp2
 70
     1
102
RTVSPropertyOp3
 70
     1
102
RTVSPropertyOp4
 70
     1
102
RTVSPropertyOp5
 70
     1
102
RTVSPropertyOp6
 70
     1
102
RTVSPropertyOp7
 70
     1
102
RTVSPropertyOp8
 70
     1
102
RTVSPropertyOp9
 70
     1
102
RTVSPropertyOp10
 70
     1
102
RTVSPropertyOp11
 70
     1
102
RTVSPropertyOp12
 70
     1
102
RTVSPropertyOp13
 70
     1
102
RTVSPropertyOp14
 70
     1
102
RTVSPropertyOp15
 70
     1
102
RTVSPropertyOp16
 70
     1
102
RTVSPropertyOp17
 70
     1
102
RTVSPropertyOp18
 70
     1
102
RTVSPropertyOp19
 70
     1
102
RTVSPropertyOp20
 70
     1
102
RTVSPropertyOp21
 70
     1
102
RTVSPropertyOp22
 70
     1
102
RTVSPropertyOp23
 70
     1
102
RTVSPropertyOp24
 70
     1
102
RTVSPropertyOp25
 70
     1
102
RTVSPropertyOp26
 70
     1
102
RTVSPropertyOp27
 70
     1
102
RTVSPropertyOp28
 70
     1
102
RTVSPropertyOp29
 70
     1
102
RTVSPropertyOp30
 70
     1
102
RTVSPropertyOp31
 70
     1
102
RTVSPropertyOp32
 70
     1
  0
XRECORD
  5
1398
102
{ACAD_REACTORS
330
1397
102
}
330
1397
100
AcDbXrecord
280
     1
102
RTVSPropertyOp0
 70
     1
102
RTVSPropertyOp1
 70
     1
102
RTVSPropertyOp2
 70
     1
102
RTVSPropertyOp3
 70
     1
102
RTVSPropertyOp4
 70
     1
102
RTVSPropertyOp5
 70
     1
102
RTVSPropertyOp6
 70
     1
102
RTVSPropertyOp7
 70
     1
102
RTVSPropertyOp8
 70
     1
102
RTVSPropertyOp9
 70
     1
102
RTVSPropertyOp10
 70
     1
102
RTVSPropertyOp11
 70
     1
102
RTVSPropertyOp12
 70
     1
102
RTVSPropertyOp13
 70
     1
102
RTVSPropertyOp14
 70
     1
102
RTVSPropertyOp15
 70
     1
102
RTVSPropertyOp16
 70
     1
102
RTVSPropertyOp17
 70
     1
102
RTVSPropertyOp18
 70
     1
102
RTVSPropertyOp19
 70
     1
102
RTVSPropertyOp20
 70
     1
102
RTVSPropertyOp21
 70
     1
102
RTVSPropertyOp22
 70
     1
102
RTVSPropertyOp23
 70
     1
102
RTVSPropertyOp24
 70
     1
102
RTVSPropertyOp25
 70
     1
102
RTVSPropertyOp26
 70
     1
102
RTVSPropertyOp27
 70
     1
102
RTVSPropertyOp28
 70
     1
102
RTVSPropertyOp29
 70
     1
102
RTVSPropertyOp30
 70
     1
102
RTVSPropertyOp31
 70
     1
102
RTVSPropertyOp32
 70
     1
  0
XRECORD
  5
139A
102
{ACAD_REACTORS
330
1399
102
}
330
1399
100
AcDbXrecord
280
     1
102
RTVSPropertyOp0
 70
     1
102
RTVSPropertyOp1
 70
     1
102
RTVSPropertyOp2
 70
     1
102
RTVSPropertyOp3
 70
     1
102
RTVSPropertyOp4
 70
     1
102
RTVSPropertyOp5
 70
     1
102
RTVSPropertyOp6
 70
     1
102
RTVSPropertyOp7
 70
     1
102
RTVSPropertyOp8
 70
     1
102
RTVSPropertyOp9
 70
     1
102
RTVSPropertyOp10
 70
     1
102
RTVSPropertyOp11
 70
     1
102
RTVSPropertyOp12
 70
     1
102
RTVSPropertyOp13
 70
     1
102
RTVSPropertyOp14
 70
     1
102
RTVSPropertyOp15
 70
     1
102
RTVSPropertyOp16
 70
     1
102
RTVSPropertyOp17
 70
     1
102
RTVSPropertyOp18
 70
     1
102
RTVSPropertyOp19
 70
     1
102
RTVSPropertyOp20
 70
     1
102
RTVSPropertyOp21
 70
     1
102
RTVSPropertyOp22
 70
     1
102
RTVSPropertyOp23
 70
     1
102
RTVSPropertyOp24
 70
     1
102
RTVSPropertyOp25
 70
     1
102
RTVSPropertyOp26
 70
     1
102
RTVSPropertyOp27
 70
     1
102
RTVSPropertyOp28
 70
     1
102
RTVSPropertyOp29
 70
     1
102
RTVSPropertyOp30
 70
     1
102
RTVSPropertyOp31
 70
     1
102
RTVSPropertyOp32
 70
     1
  0
XRECORD
  5
1386
102
{ACAD_REACTORS
330
1385
102
}
330
1385
100
AcDbXrecord
280
     1
102
RTVSPropertyOp0
 70
     1
102
RTVSPropertyOp1
 70
     1
102
RTVSPropertyOp2
 70
     1
102
RTVSPropertyOp3
 70
     1
102
RTVSPropertyOp4
 70
     1
102
RTVSPropertyOp5
 70
     1
102
RTVSPropertyOp6
 70
     1
102
RTVSPropertyOp7
 70
     1
102
RTVSPropertyOp8
 70
     1
102
RTVSPropertyOp9
 70
     1
102
RTVSPropertyOp10
 70
     1
102
RTVSPropertyOp11
 70
     1
102
RTVSPropertyOp12
 70
     1
102
RTVSPropertyOp13
 70
     1
102
RTVSPropertyOp14
 70
     1
102
RTVSPropertyOp15
 70
     1
102
RTVSPropertyOp16
 70
     1
102
RTVSPropertyOp17
 70
     1
102
RTVSPropertyOp18
 70
     1
102
RTVSPropertyOp19
 70
     1
102
RTVSPropertyOp20
 70
     1
102
RTVSPropertyOp21
 70
     1
102
RTVSPropertyOp22
 70
     1
102
RTVSPropertyOp23
 70
     1
102
RTVSPropertyOp24
 70
     1
102
RTVSPropertyOp25
 70
     1
102
RTVSPropertyOp26
 70
     1
102
RTVSPropertyOp27
 70
     1
102
RTVSPropertyOp28
 70
     1
102
RTVSPropertyOp29
 70
     1
102
RTVSPropertyOp30
 70
     1
102
RTVSPropertyOp31
 70
     1
102
RTVSPropertyOp32
 70
     1
  0
XRECORD
  5
1394
102
{ACAD_REACTORS
330
1393
102
}
330
1393
100
AcDbXrecord
280
     1
102
RTVSPropertyOp0
 70
     1
102
RTVSPropertyOp1
 70
     1
102
RTVSPropertyOp2
 70
     1
102
RTVSPropertyOp3
 70
     1
102
RTVSPropertyOp4
 70
     1
102
RTVSPropertyOp5
 70
     1
102
RTVSPropertyOp6
 70
     1
102
RTVSPropertyOp7
 70
     1
102
RTVSPropertyOp8
 70
     1
102
RTVSPropertyOp9
 70
     1
102
RTVSPropertyOp10
 70
     1
102
RTVSPropertyOp11
 70
     1
102
RTVSPropertyOp12
 70
     1
102
RTVSPropertyOp13
 70
     1
102
RTVSPropertyOp14
 70
     1
102
RTVSPropertyOp15
 70
     1
102
RTVSPropertyOp16
 70
     1
102
RTVSPropertyOp17
 70
     1
102
RTVSPropertyOp18
 70
     1
102
RTVSPropertyOp19
 70
     1
102
RTVSPropertyOp20
 70
     1
102
RTVSPropertyOp21
 70
     1
102
RTVSPropertyOp22
 70
     1
102
RTVSPropertyOp23
 70
     1
102
RTVSPropertyOp24
 70
     1
102
RTVSPropertyOp25
 70
     1
102
RTVSPropertyOp26
 70
     1
102
RTVSPropertyOp27
 70
     1
102
RTVSPropertyOp28
 70
     1
102
RTVSPropertyOp29
 70
     1
102
RTVSPropertyOp30
 70
     1
102
RTVSPropertyOp31
 70
     1
102
RTVSPropertyOp32
 70
     1
  0
XRECORD
  5
139C
102
{ACAD_REACTORS
330
139B
102
}
330
139B
100
AcDbXrecord
280
     1
102
RTVSPropertyOp0
 70
     1
102
RTVSPropertyOp1
 70
     1
102
RTVSPropertyOp2
 70
     1
102
RTVSPropertyOp3
 70
     1
102
RTVSPropertyOp4
 70
     1
102
RTVSPropertyOp5
 70
     1
102
RTVSPropertyOp6
 70
     1
102
RTVSPropertyOp7
 70
     1
102
RTVSPropertyOp8
 70
     1
102
RTVSPropertyOp9
 70
     1
102
RTVSPropertyOp10
 70
     1
102
RTVSPropertyOp11
 70
     1
102
RTVSPropertyOp12
 70
     1
102
RTVSPropertyOp13
 70
     1
102
RTVSPropertyOp14
 70
     1
102
RTVSPropertyOp15
 70
     1
102
RTVSPropertyOp16
 70
     1
102
RTVSPropertyOp17
 70
     1
102
RTVSPropertyOp18
 70
     1
102
RTVSPropertyOp19
 70
     1
102
RTVSPropertyOp20
 70
     1
102
RTVSPropertyOp21
 70
     1
102
RTVSPropertyOp22
 70
     1
102
RTVSPropertyOp23
 70
     1
102
RTVSPropertyOp24
 70
     1
102
RTVSPropertyOp25
 70
     1
102
RTVSPropertyOp26
 70
     1
102
RTVSPropertyOp27
 70
     1
102
RTVSPropertyOp28
 70
     1
102
RTVSPropertyOp29
 70
     1
102
RTVSPropertyOp30
 70
     1
102
RTVSPropertyOp31
 70
     1
102
RTVSPropertyOp32
 70
     1
  0
XRECORD
  5
E53
102
{ACAD_REACTORS
330
E52
102
}
330
E52
100
AcDbXrecord
280
     1
330
D41
  0
ENDSEC
  0
EOF
