  0
SECTION
  2
HEADER
  9
$ACADVER
  1
AC1015
  9
$ACADMAINTVER
 70
    20
  9
$DWGCODEPAGE
  3
ANSI_1252
  9
$INSBASE
 10
0.0
 20
0.0
 30
0.0
  9
$EXTMIN
 10
-80.23555745481326
 20
-31.55445487817643
 30
0.0
  9
$EXTMAX
 10
99.93690267605645
 20
47.42757632096266
 30
0.0
  9
$LIMMIN
 10
0.0
 20
0.0
  9
$LIMMAX
 10
420.0
 20
297.0
  9
$ORTHOMODE
 70
     1
  9
$REGENMODE
 70
     1
  9
$FILLMODE
 70
     1
  9
$QTEXTMODE
 70
     0
  9
$MIRRTEXT
 70
     1
  9
$LTSCALE
 40
1.0
  9
$ATTMODE
 70
     1
  9
$TEXTSIZE
 40
0.0
  9
$TRACEWID
 40
1.0
  9
$TEXTSTYLE
  7
STANDARD
  9
$CLAYER
  8
0
  9
$CELTYPE
  6
ByLayer
  9
$CECOLOR
 62
   256
  9
$CELTSCALE
 40
1.0
  9
$DISPSILH
 70
     0
  9
$DIMSCALE
 40
1.0
  9
$DIMASZ
 40
2.5
  9
$DIMEXO
 40
0.625
  9
$DIMDLI
 40
3.75
  9
$DIMRND
 40
0.0
  9
$DIMDLE
 40
0.0
  9
$DIMEXE
 40
1.25
  9
$DIMTP
 40
0.0
  9
$DIMTM
 40
0.0
  9
$DIMTXT
 40
3.5
  9
$DIMCEN
 40
0.0
  9
$DIMTSZ
 40
0.0
  9
$DIMTOL
 70
     0
  9
$DIMLIM
 70
     0
  9
$DIMTIH
 70
     0
  9
$DIMTOH
 70
     0
  9
$DIMSE1
 70
     0
  9
$DIMSE2
 70
     0
  9
$DIMTAD
 70
     1
  9
$DIMZIN
 70
     8
  9
$DIMBLK
  1

  9
$DIMASO
 70
     1
  9
$DIMSHO
 70
     1
  9
$DIMPOST
  1

  9
$DIMAPOST
  1

  9
$DIMALT
 70
     0
  9
$DIMALTD
 70
     3
  9
$DIMALTF
 40
0.03937
  9
$DIMLFAC
 40
1.0
  9
$DIMTOFL
 70
     0
  9
$DIMTVP
 40
0.0
  9
$DIMTIX
 70
     0
  9
$DIMSOXD
 70
     0
  9
$DIMSAH
 70
     0
  9
$DIMBLK1
  1

  9
$DIMBLK2
  1

  9
$DIMSTYLE
  2
STANDARD
  9
$DIMCLRD
 70
     0
  9
$DIMCLRE
 70
     0
  9
$DIMCLRT
 70
     0
  9
$DIMTFAC
 40
1.0
  9
$DIMGAP
 40
0.625
  9
$DIMJUST
 70
     0
  9
$DIMSD1
 70
     0
  9
$DIMSD2
 70
     0
  9
$DIMTOLJ
 70
     0
  9
$DIMTZIN
 70
     8
  9
$DIMALTZ
 70
     0
  9
$DIMALTTZ
 70
     0
  9
$DIMUPT
 70
     0
  9
$DIMDEC
 70
     1
  9
$DIMTDEC
 70
     1
  9
$DIMALTU
 70
     2
  9
$DIMALTTD
 70
     3
  9
$DIMTXSTY
  7
STANDARD
  9
$DIMAUNIT
 70
     0
  9
$DIMADEC
 70
     0
  9
$DIMALTRND
 40
0.0
  9
$DIMAZIN
 70
     0
  9
$DIMDSEP
 70
    46
  9
$DIMATFIT
 70
     3
  9
$DIMFRAC
 70
     0
  9
$DIMLDRBLK
  1

  9
$DIMLUNIT
 70
     2
  9
$DIMLWD
 70
    -2
  9
$DIMLWE
 70
    -2
  9
$DIMTMOVE
 70
     0
  9
$LUNITS
 70
     2
  9
$LUPREC
 70
     4
  9
$SKETCHINC
 40
1.0
  9
$FILLETRAD
 40
0.0
  9
$AUNITS
 70
     0
  9
$AUPREC
 70
     0
  9
$MENU
  1
.
  9
$ELEVATION
 40
0.0
  9
$PELEVATION
 40
0.0
  9
$THICKNESS
 40
0.0
  9
$LIMCHECK
 70
     0
  9
$CHAMFERA
 40
2.5
  9
$CHAMFERB
 40
2.5
  9
$CHAMFERC
 40
0.0
  9
$CHAMFERD
 40
0.0
  9
$SKPOLY
 70
     0
  9
$TDCREATE
 40
2455371.277295093
  9
$TDUCREATE
 40
2455371.235628426
  9
$TDUPDATE
 40
2457338.453569387
  9
$TDUUPDATE
 40
2457338.411902720
  9
$TDINDWG
 40
0.0327547454
  9
$TDUSRTIMER
 40
0.0327538194
  9
$USRTIMER
 70
     1
  9
$ANGBASE
 50
0.0
  9
$ANGDIR
 70
     0
  9
$PDMODE
 70
     3
  9
$PDSIZE
 40
0.0
  9
$PLINEWID
 40
0.0
  9
$SPLFRAME
 70
     0
  9
$SPLINETYPE
 70
     6
  9
$SPLINESEGS
 70
     8
  9
$HANDSEED
  5
1345
  9
$SURFTAB1
 70
     6
  9
$SURFTAB2
 70
     6
  9
$SURFTYPE
 70
     6
  9
$SURFU
 70
     6
  9
$SURFV
 70
     6
  9
$UCSBASE
  2

  9
$UCSNAME
  2

  9
$UCSORG
 10
0.0
 20
0.0
 30
0.0
  9
$UCSXDIR
 10
1.0
 20
0.0
 30
0.0
  9
$UCSYDIR
 10
0.0
 20
1.0
 30
0.0
  9
$UCSORTHOREF
  2

  9
$UCSORTHOVIEW
 70
     0
  9
$UCSORGTOP
 10
-10.54638970969554
 20
167.4686556405062
 30
0.0
  9
$UCSORGBOTTOM
 10
0.0
 20
0.0
 30
0.0
  9
$UCSORGLEFT
 10
0.0
 20
0.0
 30
0.0
  9
$UCSORGRIGHT
 10
0.0
 20
0.0
 30
0.0
  9
$UCSORGFRONT
 10
0.0
 20
0.0
 30
0.0
  9
$UCSORGBACK
 10
0.0
 20
0.0
 30
0.0
  9
$PUCSBASE
  2

  9
$PUCSNAME
  2

  9
$PUCSORG
 10
0.0
 20
0.0
 30
0.0
  9
$PUCSXDIR
 10
1.0
 20
0.0
 30
0.0
  9
$PUCSYDIR
 10
0.0
 20
1.0
 30
0.0
  9
$PUCSORTHOREF
  2

  9
$PUCSORTHOVIEW
 70
     0
  9
$PUCSORGTOP
 10
0.0
 20
0.0
 30
0.0
  9
$PUCSORGBOTTOM
 10
0.0
 20
0.0
 30
0.0
  9
$PUCSORGLEFT
 10
0.0
 20
0.0
 30
0.0
  9
$PUCSORGRIGHT
 10
0.0
 20
0.0
 30
0.0
  9
$PUCSORGFRONT
 10
0.0
 20
0.0
 30
0.0
  9
$PUCSORGBACK
 10
0.0
 20
0.0
 30
0.0
  9
$USERI1
 70
     0
  9
$USERI2
 70
     0
  9
$USERI3
 70
     0
  9
$USERI4
 70
     0
  9
$USERI5
 70
     0
  9
$USERR1
 40
0.0
  9
$USERR2
 40
0.0
  9
$USERR3
 40
0.0
  9
$USERR4
 40
0.0
  9
$USERR5
 40
0.0
  9
$WORLDVIEW
 70
     1
  9
$SHADEDGE
 70
     3
  9
$SHADEDIF
 70
    70
  9
$TILEMODE
 70
     1
  9
$MAXACTVP
 70
    48
  9
$PINSBASE
 10
0.0
 20
0.0
 30
0.0
  9
$PLIMCHECK
 70
     0
  9
$PEXTMIN
 10
0.0
 20
0.0
 30
0.0
  9
$PEXTMAX
 10
50.009048
 20
10.0
 30
2.0
  9
$PLIMMIN
 10
0.0
 20
0.0
  9
$PLIMMAX
 10
420.0
 20
297.0
  9
$UNITMODE
 70
     0
  9
$VISRETAIN
 70
     0
  9
$PLINEGEN
 70
     0
  9
$PSLTSCALE
 70
     1
  9
$TREEDEPTH
 70
  3020
  9
$CMLSTYLE
  2
Standard
  9
$CMLJUST
 70
     0
  9
$CMLSCALE
 40
20.0
  9
$PROXYGRAPHICS
 70
     1
  9
$MEASUREMENT
 70
     1
  9
$CELWEIGHT
370
    -1
  9
$ENDCAPS
280
     0
  9
$JOINSTYLE
280
     0
  9
$LWDISPLAY
290
     0
  9
$INSUNITS
 70
     0
  9
$HYPERLINKBASE
  1

  9
$STYLESHEET
  1

  9
$XEDIT
290
     1
  9
$CEPSNTYPE
380
     0
  9
$PSTYLEMODE
290
     0
  9
$FINGERPRINTGUID
  2

  9
$VERSIONGUID
  2
{A18C87E2-A16B-401C-AA14-3A147DA35F0E}
  9
$EXTNAMES
290
     0
  9
$PSVPSCALE
 40
0.0
  9
$OLESTARTUP
290
     0
  0
ENDSEC
  0
SECTION
  2
CLASSES
  0
CLASS
  1
IMAGE
  2
AcDbRasterImage
  3
ISM
 90
    34943
280
     0
281
     1
  0
CLASS
  1
DICTIONARYVAR
  2
AcDbDictionaryVar
  3
ObjectDBX Classes
 90
        0
280
     0
281
     0
  0
CLASS
  1
RASTERVARIABLES
  2
AcDbRasterVariables
  3
ISM
 90
    32768
280
     0
281
     0
  0
CLASS
  1
IMAGEDEF
  2
AcDbRasterImageDef
  3
ISM
 90
    32768
280
     0
281
     0
  0
CLASS
  1
IMAGEDEF_REACTOR
  2
AcDbRasterImageDefReactor
  3
ISM
 90
    32769
280
     0
281
     0
  0
CLASS
  1
IDBUFFER
  2
AcDbIdBuffer
  3
ObjectDBX Classes
 90
    32768
280
     0
281
     0
  0
CLASS
  1
SPATIAL_FILTER
  2
AcDbSpatialFilter
  3
ObjectDBX Classes
 90
    32768
280
     0
281
     0
  0
CLASS
  1
SORTENTSTABLE
  2
AcDbSortentsTable
  3
ObjectDBX Classes
 90
        0
280
     0
281
     0
  0
CLASS
  1
LAYER_INDEX
  2
AcDbLayerIndex
  3
ObjectDBX Classes
 90
    32768
280
     0
281
     0
  0
CLASS
  1
SPATIAL_INDEX
  2
AcDbSpatialIndex
  3
ObjectDBX Classes
 90
    32768
280
     0
281
     0
  0
CLASS
  1
OBJECT_PTR
  2
CAseDLPNTableRecord
  3
ASE-LPNTableRecord
 90
    32769
280
     0
281
     0
  0
CLASS
  1
PLOTSETTINGS
  2
AcDbPlotSettings
  3
ObjectDBX Classes
 90
    32768
280
     0
281
     0
  0
CLASS
  1
ACDBDICTIONARYWDFLT
  2
AcDbDictionaryWithDefault
  3
ObjectDBX Classes
 90
        0
280
     0
281
     0
  0
CLASS
  1
WIPEOUT
  2
AcDbWipeout
  3
WipeOut|Product Desc: Object Enabler for WipeOut entity | Company: Autodesk, Inc. | WEB Address: www.autodesk.com
 90
    34943
280
     0
281
     1
  0
CLASS
  1
WIPEOUTVARIABLES
  2
AcDbWipeoutVariables
  3
"WipeOut|Product Desc:     WipeOut Dbx Application|Company:          Autodesk, Inc.|WEB Address:      www.autodesk.com"
 90
        0
280
     0
281
     0
  0
CLASS
  1
RTEXT
  2
RText
  3
RText|AutoCAD Express Tool|expresstools@autodesk.com
 90
    32768
280
     0
281
     1
  0
CLASS
  1
ARCALIGNEDTEXT
  2
AcDbArcAlignedText
  3
ATEXT|AutoCAD Express Tool|expresstools@autodesk.com
 90
    32768
280
     0
281
     1
  0
CLASS
  1
TABLESTYLE
  2
AcDbTableStyle
  3
ObjectDBX Classes
 90
     4095
280
     0
281
     0
  0
CLASS
  1
MATERIAL
  2
AcDbMaterial
  3
ObjectDBX Classes
 90
     1153
280
     0
281
     0
  0
CLASS
  1
VISUALSTYLE
  2
AcDbVisualStyle
  3
ObjectDBX Classes
 90
     4095
280
     0
281
     0
  0
CLASS
  1
SCALE
  2
AcDbScale
  3
ObjectDBX Classes
 90
     1153
280
     0
281
     0
  0
CLASS
  1
MLEADERSTYLE
  2
AcDbMLeaderStyle
  3
ACDB_MLEADERSTYLE_CLASS
 90
     4095
280
     0
281
     0
  0
CLASS
  1
CELLSTYLEMAP
  2
AcDbCellStyleMap
  3
ObjectDBX Classes
 90
     1152
280
     0
281
     0
  0
CLASS
  1
ACDBSECTIONVIEWSTYLE
  2
AcDbSectionViewStyle
  3
ObjectDBX Classes
 90
     1025
280
     0
281
     0
  0
CLASS
  1
ACDBDETAILVIEWSTYLE
  2
AcDbDetailViewStyle
  3
ObjectDBX Classes
 90
     1025
280
     0
281
     0
  0
CLASS
  1
ACDBPLACEHOLDER
  2
AcDbPlaceHolder
  3
ObjectDBX Classes
 90
        0
280
     0
281
     0
  0
CLASS
  1
LAYOUT
  2
AcDbLayout
  3
ObjectDBX Classes
 90
        0
280
     0
281
     0
  0
ENDSEC
  0
SECTION
  2
TABLES
  0
TABLE
  2
VPORT
  5
7
330
0
100
AcDbSymbolTable
 70
     1
  0
VPORT
  5
DEC
330
7
100
AcDbSymbolTableRecord
100
AcDbViewportTableRecord
  2
*Active
 70
     0
 10
0.0
 20
0.0
 11
1.0
 21
1.0
 12
9.837840471275782
 22
7.927433870466643
 13
0.0
 23
0.0
 14
1.0
 24
1.0
 15
0.0
 25
0.0
 16
0.0
 26
0.0
 36
1.0
 17
0.0
 27
0.0
 37
0.0
 40
79.74935895256603
 41
2.336194563662374
 42
50.0
 43
0.0
 44
0.0
 50
0.0
 51
0.0
 71
     0
 72
   100
 73
     1
 74
     3
 75
     0
 76
     0
 77
     0
 78
     0
281
     0
 65
     0
110
0.0
120
0.0
130
0.0
111
1.0
121
0.0
131
0.0
112
0.0
122
1.0
132
0.0
 79
     0
146
0.0
1001
ACAD_NAV_VCDISPLAY
1070
     3
  0
ENDTAB
  0
TABLE
  2
LTYPE
  5
4
330
0
100
AcDbSymbolTable
 70
     2
  0
LTYPE
  5
11
330
4
100
AcDbSymbolTableRecord
100
AcDbLinetypeTableRecord
  2
ByBlock
 70
     0
  3

 72
    65
 73
     0
 40
0.0
  0
LTYPE
  5
12
330
4
100
AcDbSymbolTableRecord
100
AcDbLinetypeTableRecord
  2
ByLayer
 70
     0
  3

 72
    65
 73
     0
 40
0.0
  0
LTYPE
  5
13
330
4
100
AcDbSymbolTableRecord
100
AcDbLinetypeTableRecord
  2
Continuous
 70
     0
  3
Solid line
 72
    65
 73
     0
 40
0.0
  0
LTYPE
  5
488
330
4
100
AcDbSymbolTableRecord
100
AcDbLinetypeTableRecord
  2
CENTER2
 70
     0
  3
Center (.5x) ___ _ ___ _ ___ _ ___ _ ___ _ ___
 72
    65
 73
     4
 40
28.575
 49
19.05
 74
     0
 49
-3.174999999999998
 74
     0
 49
3.174999999999998
 74
     0
 49
-3.174999999999998
 74
     0
  0
ENDTAB
  0
TABLE
  2
LAYER
  5
2
102
{ACAD_XDICTIONARY
360
4C9
102
}
330
0
100
AcDbSymbolTable
 70
    13
  0
LAYER
  5
14
102
{ACAD_XDICTIONARY
360
E70
102
}
330
2
100
AcDbSymbolTableRecord
100
AcDbLayerTableRecord
  2
0
 70
     0
 62
     7
  6
Continuous
370
    -3
390
1D
  0
LAYER
  5
48A
102
{ACAD_XDICTIONARY
360
48B
102
}
330
2
100
AcDbSymbolTableRecord
100
AcDbLayerTableRecord
  2
1
 70
     0
 62
     4
  6
Continuous
370
    50
390
1D
  0
LAYER
  5
48D
102
{ACAD_XDICTIONARY
360
48E
102
}
330
2
100
AcDbSymbolTableRecord
100
AcDbLayerTableRecord
  2
2
 70
     0
 62
     7
  6
Continuous
370
    25
390
1D
  0
LAYER
  5
490
102
{ACAD_XDICTIONARY
360
491
102
}
330
2
100
AcDbSymbolTableRecord
100
AcDbLayerTableRecord
  2
SK2
 70
     0
 62
     7
  6
Continuous
370
    25
390
1D
  0
LAYER
  5
496
102
{ACAD_XDICTIONARY
360
497
102
}
330
2
100
AcDbSymbolTableRecord
100
AcDbLayerTableRecord
  2
4
 70
     0
 62
     2
  6
CENTER2
370
    25
390
1D
  0
LAYER
  5
499
102
{ACAD_XDICTIONARY
360
49A
102
}
330
2
100
AcDbSymbolTableRecord
100
AcDbLayerTableRecord
  2
SK4
 70
     0
 62
     2
  6
CENTER2
370
    25
390
1D
  0
LAYER
  5
49C
102
{ACAD_XDICTIONARY
360
49D
102
}
330
2
100
AcDbSymbolTableRecord
100
AcDbLayerTableRecord
  2
SK6
 70
     0
 62
     5
  6
Continuous
370
    -3
390
1D
  0
LAYER
  5
49F
330
2
100
AcDbSymbolTableRecord
100
AcDbLayerTableRecord
  2
DEFPOINTS
 70
     0
 62
     7
  6
Continuous
290
     0
370
    25
390
1D
  0
LAYER
  5
4A0
102
{ACAD_XDICTIONARY
360
4A1
102
}
330
2
100
AcDbSymbolTableRecord
100
AcDbLayerTableRecord
  2
CUT
 70
     0
 62
     1
  6
Continuous
370
    25
390
1D
  0
LAYER
  5
4A3
102
{ACAD_XDICTIONARY
360
4A4
102
}
330
2
100
AcDbSymbolTableRecord
100
AcDbLayerTableRecord
  2
NOCUT
 70
     0
 62
     7
  6
Continuous
370
    -3
390
1D
  0
LAYER
  5
4A6
102
{ACAD_XDICTIONARY
360
4A7
102
}
330
2
100
AcDbSymbolTableRecord
100
AcDbLayerTableRecord
  2
INFTOTAL
 70
     0
 62
     9
  6
Continuous
370
    18
390
1D
1001
AcAecLayerStandard
1000

1000

  0
LAYER
  5
4AA
102
{ACAD_XDICTIONARY
360
E72
102
}
330
2
100
AcDbSymbolTableRecord
100
AcDbLayerTableRecord
  2
SK1
 70
     0
 62
     4
  6
Continuous
370
    50
390
1D
1001
AcAecLayerStandard
1000

1000

  0
ENDTAB
  0
TABLE
  2
STYLE
  5
3
330
0
100
AcDbSymbolTable
 70
     1
  0
STYLE
  5
17
330
3
100
AcDbSymbolTableRecord
100
AcDbTextStyleTableRecord
  2
STANDARD
 70
     0
 40
0.0
 41
1.0
 50
0.0
 71
     0
 42
0.0
  3
monos.ttf
  4

1001
ACAD
1000
Monospac821 BT
1071
       49
  0
ENDTAB
  0
TABLE
  2
VIEW
  5
5
330
0
100
AcDbSymbolTable
 70
     0
  0
ENDTAB
  0
TABLE
  2
UCS
  5
6
330
0
100
AcDbSymbolTable
 70
     0
  0
ENDTAB
  0
TABLE
  2
APPID
  5
8
330
0
100
AcDbSymbolTable
 70
    21
  0
APPID
  5
16
330
8
100
AcDbSymbolTableRecord
100
AcDbRegAppTableRecord
  2
ACAD
 70
     0
  0
APPID
  5
4AD
330
8
100
AcDbSymbolTableRecord
100
AcDbRegAppTableRecord
  2
ACAD_PSEXT
 70
     0
  0
APPID
  5
4AE
330
8
100
AcDbSymbolTableRecord
100
AcDbRegAppTableRecord
  2
ACAD_EXEMPT_FROM_CAD_STANDARDS
 70
     0
  0
APPID
  5
4AF
330
8
100
AcDbSymbolTableRecord
100
AcDbRegAppTableRecord
  2
ACAD_MLEADERVER
 70
     0
  0
APPID
  5
4B0
330
8
100
AcDbSymbolTableRecord
100
AcDbRegAppTableRecord
  2
ACAD_DSTYLE_DIMJAG
 70
     0
  0
APPID
  5
4B1
330
8
100
AcDbSymbolTableRecord
100
AcDbRegAppTableRecord
  2
ACAD_DSTYLE_DIMBREAK
 70
     0
  0
APPID
  5
4B2
330
8
100
AcDbSymbolTableRecord
100
AcDbRegAppTableRecord
  2
ACAD_DSTYLE_DIMTALN
 70
     0
  0
APPID
  5
4B3
330
8
100
AcDbSymbolTableRecord
100
AcDbRegAppTableRecord
  2
AcAecLayerStandard
 70
     0
  0
APPID
  5
4B4
330
8
100
AcDbSymbolTableRecord
100
AcDbRegAppTableRecord
  2
DCO15
 70
     0
  0
APPID
  5
4B5
330
8
100
AcDbSymbolTableRecord
100
AcDbRegAppTableRecord
  2
AcadAnnoPO
 70
     0
  0
APPID
  5
4B6
330
8
100
AcDbSymbolTableRecord
100
AcDbRegAppTableRecord
  2
ACAD_DSTYLE_DIMRADIAL_EXTENSION
 70
     0
  0
APPID
  5
4B7
330
8
100
AcDbSymbolTableRecord
100
AcDbRegAppTableRecord
  2
ACAD_DSTYLE_DIMTEXT_FILL
 70
     0
  0
APPID
  5
4B8
330
8
100
AcDbSymbolTableRecord
100
AcDbRegAppTableRecord
  2
ACAD_DSTYLE_DIMEXT_LENGTH
 70
     0
  0
APPID
  5
4B9
330
8
100
AcDbSymbolTableRecord
100
AcDbRegAppTableRecord
  2
ACAD_DSTYLE_DIMEXT_ENABLED
 70
     0
  0
APPID
  5
4BA
330
8
100
AcDbSymbolTableRecord
100
AcDbRegAppTableRecord
  2
ACAD_DSTYLE_DIM_LINETYPE
 70
     0
  0
APPID
  5
4BB
330
8
100
AcDbSymbolTableRecord
100
AcDbRegAppTableRecord
  2
ACAD_DSTYLE_DIM_EXT1_LINETYPE
 70
     0
  0
APPID
  5
4BC
330
8
100
AcDbSymbolTableRecord
100
AcDbRegAppTableRecord
  2
ACAD_DSTYLE_DIM_EXT2_LINETYPE
 70
     0
  0
APPID
  5
4BD
330
8
100
AcDbSymbolTableRecord
100
AcDbRegAppTableRecord
  2
ACAD_DSTYLE_DIMJOGGED_JOGANGLE_SYMBOL
 70
     0
  0
APPID
  5
4BE
330
8
100
AcDbSymbolTableRecord
100
AcDbRegAppTableRecord
  2
ACAD_DSTYLE_DIMARC_LENGTH_SYMBOL
 70
     0
  0
APPID
  5
E6F
330
8
100
AcDbSymbolTableRecord
100
AcDbRegAppTableRecord
  2
AcLayerTools
 70
     0
  0
APPID
  5
1268
330
8
100
AcDbSymbolTableRecord
100
AcDbRegAppTableRecord
  2
ACAD_NAV_VCDISPLAY
 70
     0
  0
ENDTAB
  0
TABLE
  2
DIMSTYLE
  5
9
330
0
100
AcDbSymbolTable
 70
     1
100
AcDbDimStyleTable
 71
     1
340
18
  0
DIMSTYLE
105
18
102
{ACAD_REACTORS
330
4DF
330
4E0
330
4E1
330
4E2
102
}
330
9
100
AcDbSymbolTableRecord
100
AcDbDimStyleTableRecord
  2
STANDARD
 70
     0
 41
2.5
 42
0.625
 43
3.75
 44
1.25
 73
     0
 74
     0
 77
     1
 78
     8
140
3.5
141
0.0
143
0.03937
147
0.625
171
     3
271
     1
272
     1
274
     3
283
     0
284
     8
340
17
1001
ACAD_DSTYLE_DIMEXT_LENGTH
1070
   378
1040
1.25
1001
ACAD_DSTYLE_DIMJOGGED_JOGANGLE_SYMBOL
1070
   384
1040
1.570796326794896
  0
ENDTAB
  0
TABLE
  2
BLOCK_RECORD
  5
1
330
0
100
AcDbSymbolTable
 70
     5
  0
BLOCK_RECORD
  5
A
102
{ACAD_XDICTIONARY
360
548
102
}
330
1
100
AcDbSymbolTableRecord
100
AcDbBlockTableRecord
  2
*MODEL_SPACE
340
20
  0
BLOCK_RECORD
  5
B
330
1
100
AcDbSymbolTableRecord
100
AcDbBlockTableRecord
  2
*PAPER_SPACE
340
21
  0
BLOCK_RECORD
  5
164
330
1
100
AcDbSymbolTableRecord
100
AcDbBlockTableRecord
  2
CERO_POINT
340
0
310
2800000020000000200000000100080000000000000400000000000000000000000000000000000000000000000080000080000000808000800000008000800080800000C0C0C000C0DCC000F0CAA6000020400000206000002080000020A0000020C0000020E00000400000004020000040400000406000004080000040A0
310
000040C0000040E00000600000006020000060400000606000006080000060A0000060C0000060E00000800000008020000080400000806000008080000080A0000080C0000080E00000A0000000A0200000A0400000A0600000A0800000A0A00000A0C00000A0E00000C0000000C0200000C0400000C0600000C0800000C0
310
A00000C0C00000C0E00000E0000000E0200000E0400000E0600000E0800000E0A00000E0C00000E0E00040000000400020004000400040006000400080004000A0004000C0004000E00040200000402020004020400040206000402080004020A0004020C0004020E000404000004040200040404000404060004040800040
310
40A0004040C0004040E00040600000406020004060400040606000406080004060A0004060C0004060E00040800000408020004080400040806000408080004080A0004080C0004080E00040A0000040A0200040A0400040A0600040A0800040A0A00040A0C00040A0E00040C0000040C0200040C0400040C0600040C08000
310
40C0A00040C0C00040C0E00040E0000040E0200040E0400040E0600040E0800040E0A00040E0C00040E0E00080000000800020008000400080006000800080008000A0008000C0008000E00080200000802020008020400080206000802080008020A0008020C0008020E00080400000804020008040400080406000804080
310
008040A0008040C0008040E00080600000806020008060400080606000806080008060A0008060C0008060E00080800000808020008080400080806000808080008080A0008080C0008080E00080A0000080A0200080A0400080A0600080A0800080A0A00080A0C00080A0E00080C0000080C0200080C0400080C0600080C0
310
800080C0A00080C0C00080C0E00080E0000080E0200080E0400080E0600080E0800080E0A00080E0C00080E0E000C0000000C0002000C0004000C0006000C0008000C000A000C000C000C000E000C0200000C0202000C0204000C0206000C0208000C020A000C020C000C020E000C0400000C0402000C0404000C0406000C0
310
408000C040A000C040C000C040E000C0600000C0602000C0604000C0606000C0608000C060A000C060C000C060E000C0800000C0802000C0804000C0806000C0808000C080A000C080C000C080E000C0A00000C0A02000C0A04000C0A06000C0A08000C0A0A000C0A0C000C0A0E000C0C00000C0C02000C0C04000C0C06000
310
C0C08000C0C0A000F0FBFF00A4A0A000808080000000FF0000FF000000FFFF00FF000000FF00FF00FFFF0000FFFFFF00000000000000000000000000000000000000000000000000000000000000000000000000000000000000000000000000FF0000000000000000000000000000000000000000000000000000000000FF
310
FFFFFFFF000000000000000000000000000000000000000000FFFFFFFFFFFF0000FF0000FFFF00FF00000000000000000000000000000000FF00000000000000FFFFFF0000FFFFFFFF000000000000000000000000000000FF0000000000000000FF00FF0000FF00FFFF00000000000000000000000000FF00000000000000
310
0000FFFF00FF0000FF0000FFFF00000000000000000000FF000000000000000000FFFF00FF00FF0000FF0000FF000000000000000000FF0000000000000000000000FF0000FF00FF0000FF0000FF0000000000000000FF00000000000000000000FFFFFF0000FFFFFF0000FF00FFFF000000000000FF000000000000000000
310
000000FF00FF000000FFFF0000FF00FF0000000000FF00000000000000000000000000FFFF00FFFF0000FFFF0000FFFF0000000000FF000000000000000000000000FFFF00FF0000FF0000FFFF0000FF0000000000FF00000000000000000000000000FF0000FF0000FF0000FFFF0000FF00000000FF000000000000000000
310
000000FFFFFF0000FF0000FF0000FFFF00FF00000000FF00FF00000000FF0000FF00FF00FFFFFF0000FF0000FF0000FFFF00FF0000FFFFFFFFFFFFFFFFFFFFFFFFFFFFFFFFFFFFFFFFFFFFFFFFFFFFFFFFFFFF000000FF00FF00FF00FF0000FF0000FFFFFF00000000000000000000000000FF000000FF0000FF00FF00FF00
310
00FF0000FFFF000000000000000000000000FF00000000FFFF0000FF00FF00FF00FF000000FF000000000000000000000000FF00000000FF00FF0000FF00FF00FF00FF0000FF0000000000000000000000FF000000000000FF00FF0000FFFF0000FF00FF00FF0000000000000000000000FF000000000000FFFF00FF00FF00
310
FF0000FF00FFFF00000000000000000000FF0000000000000000FF0000FF00FF00FF0000FF00FF00000000000000000000FF000000000000000000FF0000FF00FF00FF0000FFFF000000000000000000FF0000000000000000000000FF0000FF00FF00FF0000FF000000000000000000FF000000000000000000000000FF00
310
00FF00FF00FF00FF00000000000000FFFF00000000000000000000000000FFFF0000FF00FF00FFFF0000000000FFFF00000000000000000000000000000000FFFFFFFFFF00FF00FF000000FFFF0000000000000000000000000000000000000000000000FFFFFFFFFFFFFF0000000000000000000000000000000000000000
310
0000000000000000FF0000000000000000000000000000000000000000000000000000000000000000000000000000000000000000000000
102
{BLKREFS
331
4DA
102
}
1001
ACAD
1000
DesignCenter Data
1002
{
1070
     1
1070
     4
1002
}
  0
BLOCK_RECORD
  5
4F2
330
1
100
AcDbSymbolTableRecord
100
AcDbBlockTableRecord
  2
*D1
340
0
  0
BLOCK_RECORD
  5
4FE
330
1
100
AcDbSymbolTableRecord
100
AcDbBlockTableRecord
  2
*D2
340
0
  0
BLOCK_RECORD
  5
50A
330
1
100
AcDbSymbolTableRecord
100
AcDbBlockTableRecord
  2
*D3
340
0
  0
BLOCK_RECORD
  5
516
330
1
100
AcDbSymbolTableRecord
100
AcDbBlockTableRecord
  2
*D4
340
0
  0
ENDTAB
  0
ENDSEC
  0
SECTION
  2
BLOCKS
  0
BLOCK
  5
D
330
A
100
AcDbEntity
  8
0
100
AcDbBlockBegin
  2
*MODEL_SPACE
 70
     0
 10
0.0
 20
0.0
 30
0.0
  3
*MODEL_SPACE
  1

  0
ENDBLK
  5
E
330
A
100
AcDbEntity
  8
0
100
AcDbBlockEnd
  0
BLOCK
  5
F
330
B
100
AcDbEntity
 67
     1
  8
0
100
AcDbBlockBegin
  2
*PAPER_SPACE
 70
     0
 10
0.0
 20
0.0
 30
0.0
  3
*PAPER_SPACE
  1

  0
ENDBLK
  5
10
330
B
100
AcDbEntity
 67
     1
  8
0
100
AcDbBlockEnd
  0
BLOCK
  5
165
330
164
100
AcDbEntity
  8
0
100
AcDbBlockBegin
  2
CERO_POINT
 70
     0
 10
0.0
 20
0.0
 30
0.0
  3
CERO_POINT
  1

  0
CIRCLE
  5
166
102
{ACAD_REACTORS
330
16B
102
}
330
164
100
AcDbEntity
  8
SK2
100
AcDbCircle
 10
0.0
 20
0.0
 30
0.0
 40
2.5
  0
LINE
  5
167
330
164
100
AcDbEntity
  8
SK2
100
AcDbLine
 10
0.0900000000037835
 20
0.0
 30
0.0
 11
-0.0899999999965076
 21
0.0
 31
0.0
  0
LINE
  5
168
330
164
100
AcDbEntity
  8
SK2
100
AcDbLine
 10
0.0
 20
0.0899999999999182
 30
0.0
 11
0.0
 21
-0.0899999999999182
 31
0.0
  0
LINE
  5
169
102
{ACAD_REACTORS
330
16B
102
}
330
164
100
AcDbEntity
  8
SK2
100
AcDbLine
 10
0.0
 20
-2.5
 30
0.0
 11
0.0
 21
2.5
 31
0.0
  0
LINE
  5
16A
102
{ACAD_REACTORS
330
16B
102
}
330
164
100
AcDbEntity
  8
SK2
100
AcDbLine
 10
2.5
 20
0.0
 30
0.0
 11
-2.5
 21
0.0
 31
0.0
  0
HATCH
  5
16B
330
164
100
AcDbEntity
  8
SK2
100
AcDbHatch
 10
0.0
 20
0.0
 30
0.0
210
0.0
220
0.0
230
1.0
  2
ANSI31
 70
     0
 71
     1
 91
        2
 92
        7
 72
     1
 73
     1
 93
        3
 10
0.0
 20
-2.5
 42
0.4142135623730951
 10
2.5
 20
0.0
 42
0.0
 10
0.0
 20
0.0
 42
0.0
 97
        3
330
166
330
16A
330
169
 92
        7
 72
     1
 73
     1
 93
        3
 10
0.0
 20
0.0
 42
0.0
 10
0.0
 20
2.5
 42
0.4142135623730951
 10
-2.5
 20
0.0
 42
0.0
 97
        3
330
16A
330
169
330
166
 75
     0
 76
     1
 52
180.0
 41
0.1
 77
     0
 78
     1
 53
225.0
 43
5.170976743218488
 44
0.0
 45
0.2245064030267288
 46
-0.2245064030267289
 79
     0
 47
0.0243816376539857
 98
        2
 10
0.8789156907296272
 20
-1.044463114528752
 10
-0.8545028512526187
 20
0.7841600866017872
  0
ENDBLK
  5
16C
330
164
100
AcDbEntity
  8
0
100
AcDbBlockEnd
  0
BLOCK
  5
4FC
330
4F2
100
AcDbEntity
  8
0
100
AcDbBlockBegin
  2
*D1
 70
     1
 10
0.0
 20
0.0
 30
0.0
  3
*D1
  1

  0
LINE
  5
12D1
330
4F2
100
AcDbEntity
  8
2
 62
     0
370
    -2
100
AcDbLine
 10
80.52499999999998
 20
-4.0
 30
0.0
 11
95.59604099999999
 21
-4.000000000000004
 31
0.0
  0
LINE
  5
12D2
330
4F2
100
AcDbEntity
  8
2
 62
     0
370
    -2
100
AcDbLine
 10
80.52499999999998
 20
4.0
 30
0.0
 11
95.59604099999999
 21
3.999999999999995
 31
0.0
  0
LINE
  5
12D3
330
4F2
100
AcDbEntity
  8
2
 62
     0
370
    -2
100
AcDbLine
 10
94.34604099999999
 20
-1.500000000000003
 30
0.0
 11
94.34604099999999
 21
1.499999999999996
 31
0.0
  0
SOLID
  5
12D4
330
4F2
100
AcDbEntity
  8
2
 62
     0
100
AcDbTrace
 10
93.92937433333333
 20
-1.500000000000003
 30
0.0
 11
94.76270766666667
 21
-1.500000000000004
 31
0.0
 12
94.34604099999999
 22
-4.000000000000004
 32
0.0
 13
94.34604099999999
 23
-4.000000000000004
 33
0.0
  0
SOLID
  5
12D5
330
4F2
100
AcDbEntity
  8
2
 62
     0
100
AcDbTrace
 10
93.92937433333333
 20
1.499999999999996
 30
0.0
 11
94.76270766666667
 21
1.499999999999995
 31
0.0
 12
94.34604099999999
 22
3.999999999999996
 32
0.0
 13
94.34604099999999
 23
3.999999999999996
 33
0.0
  0
MTEXT
  5
12D6
330
4F2
100
AcDbEntity
  8
2
 62
     0
100
AcDbMText
 10
91.85789974912157
 20
0.0844960000000018
 30
0.0
 40
3.5
 41
0.0
 71
     5
 72
     1
  1
%%C8
 11
0.0000000000000001
 21
1.0
 31
0.0
 73
     1
 44
1.0
1001
ACAD
1000
MTEXTBEGIN
1070
    73
1070
     1
1070
    44
1040
1.0
1070
    74
1070
     0
1000
MTEXTEND
  0
POINT
  5
12D7
330
4F2
100
AcDbEntity
  8
DEFPOINTS
 62
     0
100
AcDbPoint
 10
79.89999999999998
 20
-4.0
 30
0.0
  0
POINT
  5
12D8
330
4F2
100
AcDbEntity
  8
DEFPOINTS
 62
     0
100
AcDbPoint
 10
79.89999999999998
 20
4.0
 30
0.0
  0
POINT
  5
12D9
330
4F2
100
AcDbEntity
  8
DEFPOINTS
 62
     0
100
AcDbPoint
 10
94.34604099999999
 20
3.999999999999996
 30
0.0
  0
ENDBLK
  5
4FD
330
4F2
100
AcDbEntity
  8
0
100
AcDbBlockEnd
  0
BLOCK
  5
508
330
4FE
100
AcDbEntity
  8
0
100
AcDbBlockBegin
  2
*D2
 70
     1
 10
0.0
 20
0.0
 30
0.0
  3
*D2
  1

  0
LINE
  5
12DA
330
4FE
100
AcDbEntity
  8
SK2
 62
     0
370
    -2
100
AcDbLine
 10
-56.10002081305135
 20
5.124999999653425
 30
0.0
 11
-56.10109214460325
 21
37.29626642098729
 31
0.0
  0
LINE
  5
12DB
330
4FE
100
AcDbEntity
  8
SK2
 62
     0
370
    -2
100
AcDbLine
 10
83.89997918694865
 20
0.6250049996534411
 30
0.0
 11
83.89875784634091
 21
37.30092853949365
 31
0.0
  0
LINE
  5
12DC
330
4FE
100
AcDbEntity
  8
SK2
 62
     0
370
    -2
100
AcDbLine
 10
-53.60105051988676
 20
36.04634967388573
 30
0.0
 11
81.39879947382976
 21
36.05084528798141
 31
0.0
  0
SOLID
  5
12DD
330
4FE
100
AcDbEntity
  8
SK2
 62
     0
100
AcDbTrace
 10
-53.60106439525432
 20
36.46301634032136
 30
0.0
 11
-53.6010366445192
 21
35.6296830074501
 31
0.0
 12
-56.10105051850058
 22
36.04626642168039
 32
0.0
 13
-56.10105051850058
 23
36.04626642168039
 33
0.0
  0
SOLID
  5
12DE
330
4FE
100
AcDbEntity
  8
SK2
 62
     0
100
AcDbTrace
 10
81.3987855984622
 20
36.46751195441704
 30
0.0
 11
81.39881334919731
 21
35.63417862154577
 31
0.0
 12
83.89879947244358
 22
36.05092854018675
 32
0.0
 13
83.89879947244358
 23
36.05092854018675
 33
0.0
  0
MTEXT
  5
12DF
330
4FE
100
AcDbEntity
  8
SK2
 62
     0
100
AcDbMText
 10
13.70417586274001
 20
38.48508080890895
 30
0.0
 40
3.5
 41
0.0
 71
     5
 72
     1
  1
140
 11
0.9999999994455256
 21
0.0000333008821372
 31
0.0
 73
     1
 44
1.0
1001
ACAD
1000
MTEXTBEGIN
1070
    73
1070
     1
1070
    44
1040
1.0
1070
    74
1070
     0
1000
MTEXTEND
  0
POINT
  5
12E0
330
4FE
100
AcDbEntity
  8
DEFPOINTS
 62
     0
100
AcDbPoint
 10
-56.10000000000002
 20
4.499999999999972
 30
0.0
  0
POINT
  5
12E1
330
4FE
100
AcDbEntity
  8
DEFPOINTS
 62
     0
100
AcDbPoint
 10
83.89999999999998
 20
0.0000049999999874
 30
0.0
  0
POINT
  5
12E2
330
4FE
100
AcDbEntity
  8
DEFPOINTS
 62
     0
100
AcDbPoint
 10
83.89879947244358
 20
36.05092854018675
 30
0.0
  0
ENDBLK
  5
509
330
4FE
100
AcDbEntity
  8
0
100
AcDbBlockEnd
  0
BLOCK
  5
514
330
50A
100
AcDbEntity
  8
0
100
AcDbBlockBegin
  2
*D3
 70
     1
 10
0.0
 20
0.0
 30
0.0
  3
*D3
  1

  0
LINE
  5
12E3
330
50A
100
AcDbEntity
  8
SK2
 62
     0
370
    -2
100
AcDbLine
 10
-56.22500000000003
 20
-5.0
 30
0.0
 11
-66.74721600000001
 21
-4.999999999999996
 31
0.0
  0
LINE
  5
12E4
330
50A
100
AcDbEntity
  8
SK2
 62
     0
370
    -2
100
AcDbLine
 10
-56.22500000000003
 20
4.999999999999886
 30
0.0
 11
-66.74721600000001
 21
4.999999999999889
 31
0.0
  0
LINE
  5
12E5
330
50A
100
AcDbEntity
  8
SK2
 62
     0
370
    -2
100
AcDbLine
 10
-65.49721600000001
 20
-2.499999999999996
 30
0.0
 11
-65.49721600000001
 21
2.499999999999889
 31
0.0
  0
SOLID
  5
12E6
330
50A
100
AcDbEntity
  8
SK2
 62
     0
100
AcDbTrace
 10
-65.91388266666668
 20
-2.499999999999996
 30
0.0
 11
-65.08054933333333
 21
-2.499999999999996
 31
0.0
 12
-65.49721600000001
 22
-4.999999999999997
 32
0.0
 13
-65.49721600000001
 23
-4.999999999999997
 33
0.0
  0
SOLID
  5
12E7
330
50A
100
AcDbEntity
  8
SK2
 62
     0
100
AcDbTrace
 10
-65.91388266666668
 20
2.499999999999889
 30
0.0
 11
-65.08054933333333
 21
2.499999999999889
 31
0.0
 12
-65.49721600000001
 22
4.999999999999888
 32
0.0
 13
-65.49721600000001
 23
4.999999999999888
 33
0.0
  0
MTEXT
  5
12E8
330
50A
100
AcDbEntity
  8
SK2
 62
     0
100
AcDbMText
 10
-67.98535725087844
 20
-0.1816180000000142
 30
0.0
 40
3.5
 41
0.0
 71
     5
 72
     1
  1
%%C10
 11
0.0000000000000001
 21
1.0
 31
0.0
 73
     1
 44
1.0
1001
ACAD
1000
MTEXTBEGIN
1070
    73
1070
     1
1070
    44
1040
1.0
1070
    74
1070
     0
1000
MTEXTEND
  0
POINT
  5
12E9
330
50A
100
AcDbEntity
  8
DEFPOINTS
 62
     0
100
AcDbPoint
 10
-55.60000000000003
 20
-5.0
 30
0.0
  0
POINT
  5
12EA
330
50A
100
AcDbEntity
  8
DEFPOINTS
 62
     0
100
AcDbPoint
 10
-55.60000000000003
 20
4.999999999999886
 30
0.0
  0
POINT
  5
12EB
330
50A
100
AcDbEntity
  8
DEFPOINTS
 62
     0
100
AcDbPoint
 10
-65.49721600000001
 20
4.999999999999888
 30
0.0
  0
ENDBLK
  5
515
330
50A
100
AcDbEntity
  8
0
100
AcDbBlockEnd
  0
BLOCK
  5
520
330
516
100
AcDbEntity
  8
0
100
AcDbBlockBegin
  2
*D4
 70
     1
 10
0.0
 20
0.0
 30
0.0
  3
*D4
  1

  0
LINE
  5
12EC
330
516
100
AcDbEntity
  8
2
 62
     0
370
    -2
100
AcDbLine
 10
9.999979186948626
 20
4.524999999653458
 30
0.0
 11
9.999345906971376
 21
23.54191295382276
 31
0.0
  0
LINE
  5
12ED
330
516
100
AcDbEntity
  8
2
 62
     0
370
    -2
100
AcDbLine
 10
83.89997918694865
 20
0.6250049996534411
 30
0.0
 11
83.89921595174632
 21
23.54437388468644
 31
0.0
  0
LINE
  5
12EE
330
516
100
AcDbEntity
  8
2
 62
     0
370
    -2
100
AcDbLine
 10
12.49938753168786
 20
22.29199620672119
 30
0.0
 11
81.39925757923519
 21
22.29429063317419
 31
0.0
  0
SOLID
  5
12EF
330
516
100
AcDbEntity
  8
2
 62
     0
100
AcDbTrace
 10
12.4993736563203
 20
22.70866287315683
 30
0.0
 11
12.49940140705542
 21
21.87532954028556
 31
0.0
 12
9.999387533074047
 22
22.29191295451585
 32
0.0
 13
9.999387533074047
 23
22.29191295451585
 33
0.0
  0
SOLID
  5
12F0
330
516
100
AcDbEntity
  8
2
 62
     0
100
AcDbTrace
 10
81.39924370386763
 20
22.71095729960983
 30
0.0
 11
81.39927145460275
 21
21.87762396673856
 31
0.0
 12
83.89925757784899
 22
22.29437388537954
 32
0.0
 13
83.89925757784899
 23
22.29437388537954
 33
0.0
  0
MTEXT
  5
12F1
330
516
100
AcDbEntity
  8
2
 62
     0
100
AcDbMText
 10
48.10777086274
 20
24.72967180890925
 30
0.0
 40
3.5
 41
0.0
 71
     5
 72
     1
  1
73.9
 11
0.9999999994455256
 21
0.0000333008821372
 31
0.0
 73
     1
 44
1.0
1001
ACAD
1000
MTEXTBEGIN
1070
    73
1070
     1
1070
    44
1040
1.0
1070
    74
1070
     0
1000
MTEXTEND
  0
POINT
  5
12F2
330
516
100
AcDbEntity
  8
DEFPOINTS
 62
     0
100
AcDbPoint
 10
9.999999999999962
 20
3.900000000000004
 30
0.0
  0
POINT
  5
12F3
330
516
100
AcDbEntity
  8
DEFPOINTS
 62
     0
100
AcDbPoint
 10
83.89999999999998
 20
0.0000049999999874
 30
0.0
  0
POINT
  5
12F4
330
516
100
AcDbEntity
  8
DEFPOINTS
 62
     0
100
AcDbPoint
 10
83.89925757784899
 20
22.29437388537954
 30
0.0
  0
ENDBLK
  5
521
330
516
100
AcDbEntity
  8
0
100
AcDbBlockEnd
  0
ENDSEC
  0
SECTION
  2
ENTITIES
  0
INSERT
  5
4DA
330
A
100
AcDbEntity
  8
SK2
100
AcDbBlockReference
  2
CERO_POINT
 10
0.0
 20
0.0
 30
0.0
  0
LINE
  5
4DB
330
A
100
AcDbEntity
  8
INFTOTAL
100
AcDbLine
 10
-80.23555745481326
 20
47.42757632096266
 30
0.0
 11
-30.23555745481325
 21
47.42757632096266
 31
0.0
  0
LINE
  5
4DC
330
A
100
AcDbEntity
  8
INFTOTAL
100
AcDbLine
 10
99.93690267605641
 20
18.44554512182361
 30
0.0
 11
99.93690267605645
 21
-31.55445487817643
 31
0.0
  0
LINE
  5
4DD
330
A
100
AcDbEntity
  8
INFTOTAL
100
AcDbLine
 10
99.93690267605645
 20
-31.55445487817643
 30
0.0
 11
49.93690267605643
 21
-31.55445487817643
 31
0.0
  0
LINE
  5
4DE
330
A
100
AcDbEntity
  8
INFTOTAL
100
AcDbLine
 10
-80.23555745481326
 20
-2.572423679037285
 30
0.0
 11
-80.23555745481326
 21
47.42757632096266
 31
0.0
  0
DIMENSION
  5
4DF
102
{ACAD_REACTORS
330
A81
102
}
330
A
100
AcDbEntity
  8
2
100
AcDbDimension
  2
*D1
 10
94.34604099999999
 20
3.999999999999996
 30
0.0
 11
94.34604099999999
 21
0.0844960000000015
 31
0.0
 70
   161
  1
%%C<>
 71
     5
 42
8.0
  3
STANDARD
100
AcDbAlignedDimension
 13
79.89999999999998
 23
-4.0
 33
0.0
 14
79.89999999999998
 24
4.0
 34
0.0
  0
DIMENSION
  5
4E0
102
{ACAD_REACTORS
330
A6E
102
}
330
A
100
AcDbEntity
  8
SK2
100
AcDbDimension
  2
*D2
 10
83.89879947244358
 20
36.05092854018675
 30
0.0
 11
13.70425700000001
 21
36.0485909999999
 31
0.0
 70
   160
 71
     5
 42
139.9998500685704
  3
STANDARD
100
AcDbAlignedDimension
 13
-56.10000000000002
 23
4.499999999999971
 33
0.0
 14
83.89999999999998
 24
0.0000049999999874
 34
0.0
 50
0.0019080000008742
100
AcDbRotatedDimension
  0
DIMENSION
  5
4E1
102
{ACAD_REACTORS
330
A6E
102
}
330
A
100
AcDbEntity
  8
SK2
100
AcDbDimension
  2
*D3
 10
-65.49721600000001
 20
4.999999999999888
 30
0.0
 11
-65.49721600000001
 21
-0.1816180000000145
 31
0.0
 70
   161
  1
%%C<>
 71
     5
 42
9.999999999999886
  3
STANDARD
100
AcDbAlignedDimension
 13
-55.60000000000003
 23
-5.0
 33
0.0
 14
-55.60000000000003
 24
4.999999999999886
 34
0.0
  0
DIMENSION
  5
4E2
102
{ACAD_REACTORS
330
A81
102
}
330
A
100
AcDbEntity
  8
2
100
AcDbDimension
  2
*D4
 10
83.89925757784899
 20
22.29437388537954
 30
0.0
 11
48.107852
 21
22.2931820000002
 31
0.0
 70
   160
 71
     5
 42
73.89987008575054
  3
STANDARD
100
AcDbAlignedDimension
 13
9.999999999999962
 23
3.900000000000004
 33
0.0
 14
83.89999999999998
 24
0.0000049999999874
 34
0.0
 50
0.0019080000008742
100
AcDbRotatedDimension
  0
LINE
  5
4E7
330
A
100
AcDbEntity
  8
SK4
100
AcDbLine
 10
-58.23467400000001
 20
0.0
 30
0.0
 11
0.0
 21
0.0
 31
0.0
  0
LINE
  5
4E8
102
{ACAD_REACTORS
330
AC2
102
}
330
A
100
AcDbEntity
  8
1
 48
0.197986
100
AcDbLine
 10
75.02511000000001
 20
-3.700000000000101
 30
0.0
 11
67.10568499999998
 21
-3.700000000000101
 31
0.0
  0
LINE
  5
4E9
102
{ACAD_REACTORS
330
AC2
102
}
330
A
100
AcDbEntity
  8
1
 48
0.197986
100
AcDbLine
 10
75.02511000000001
 20
3.699999999999988
 30
0.0
 11
67.10568499999998
 21
3.699999999999988
 31
0.0
  0
LINE
  5
54A
102
{ACAD_REACTORS
330
AC1
102
}
330
A
100
AcDbEntity
  8
1
100
AcDbLine
 10
76.44492099999998
 20
-3.640803000000004
 30
0.0
 11
76.445637
 21
-3.644864999999981
 31
0.0
  0
LINE
  5
54B
102
{ACAD_REACTORS
330
AC1
102
}
330
A
100
AcDbEntity
  8
1
100
AcDbLine
 10
76.43023299999999
 20
-3.5575070000001
 30
0.0
 11
76.44492099999998
 21
-3.640803000000004
 31
0.0
  0
LINE
  5
54C
102
{ACAD_REACTORS
330
AC1
102
}
330
A
100
AcDbEntity
  8
1
100
AcDbLine
 10
76.39522400000001
 20
-3.358959000000026
 30
0.0
 11
76.43023299999999
 21
-3.5575070000001
 31
0.0
  0
LINE
  5
54D
102
{ACAD_REACTORS
330
AC1
102
}
330
A
100
AcDbEntity
  8
1
100
AcDbLine
 10
76.36413200000001
 20
-3.182628000000021
 30
0.0
 11
76.39522400000001
 21
-3.358959000000026
 31
0.0
  0
ARC
  5
54E
102
{ACAD_REACTORS
330
AC1
102
}
330
A
100
AcDbEntity
  8
1
100
AcDbCircle
 10
79.80682999999998
 20
-0.1739259999999945
 30
0.0
 40
4.093596999999999
100
AcDbArc
 50
38.6497400000006
 51
78.26349099999996
  0
ARC
  5
54F
102
{ACAD_REACTORS
330
AC1
102
}
330
A
100
AcDbEntity
  8
1
100
AcDbCircle
 10
79.85219
 20
0.0318429999999808
 30
0.0
 40
3.882866
100
AcDbArc
 50
78.30121399999986
 51
87.22840799999998
  0
LINE
  5
550
102
{ACAD_REACTORS
330
AC1
102
}
330
A
100
AcDbEntity
  8
1
100
AcDbLine
 10
76.56642500000002
 20
3.208489999999982
 30
0.0
 11
76.63377399999998
 21
3.288753999999982
 31
0.0
  0
LINE
  5
551
102
{ACAD_REACTORS
330
AC1
102
}
330
A
100
AcDbEntity
  8
1
100
AcDbLine
 10
76.63377399999998
 20
3.288753999999982
 30
0.0
 11
76.727983
 21
3.401026999999998
 31
0.0
  0
LINE
  5
552
102
{ACAD_REACTORS
330
AC1
102
}
330
A
100
AcDbEntity
  8
1
100
AcDbLine
 10
76.97100499999997
 20
3.690650000000004
 30
0.0
 11
76.727983
 21
3.401026999999998
 31
0.0
  0
LINE
  5
553
102
{ACAD_REACTORS
330
AC1
102
}
330
A
100
AcDbEntity
  8
1
100
AcDbLine
 10
76.433435
 20
3.049999000000068
 30
0.0
 11
76.56642500000002
 21
3.208489999999982
 31
0.0
  0
LINE
  5
554
102
{ACAD_REACTORS
330
AC1
102
}
330
A
100
AcDbEntity
  8
1
100
AcDbLine
 10
76.71528799999999
 20
-3.158564000000012
 30
0.0
 11
76.73425900000002
 21
-3.266155000000026
 31
0.0
  0
ARC
  5
555
102
{ACAD_REACTORS
330
AC1
102
}
330
A
100
AcDbEntity
  8
1
100
AcDbCircle
 10
80.390052
 20
-17.286091
 30
0.0
 40
14.488739
100
AcDbArc
 50
104.6148210000001
 51
106.0048929999994
  0
SPLINE
  5
556
102
{ACAD_REACTORS
330
AC1
102
}
330
A
100
AcDbEntity
  8
1
100
AcDbSpline
210
0.0
220
0.0
230
1.0
 70
     8
 71
     5
 72
    18
 73
    12
 74
     0
 42
0.000000001
 43
0.0000000001
 40
0.0
 40
0.0
 40
0.0
 40
0.0
 40
0.0
 40
0.0
 40
3.277926714337016
 40
3.277926714337016
 40
3.277926714337016
 40
4.275852358366348
 40
4.275852358366348
 40
4.275852358366348
 40
5.014798508013369
 40
5.014798508013369
 40
5.014798508013369
 40
5.014798508013369
 40
5.014798508013369
 40
5.014798508013369
 10
76.43023338227334
 20
-3.557507455774497
 30
0.0
 10
76.89134406691565
 20
-3.609077875118258
 30
0.0
 10
77.35245475155736
 20
-3.660648294462133
 30
0.0
 10
77.81356543620024
 20
-3.712218713806008
 30
0.0
 10
78.41505576231771
 20
-3.779489131478383
 30
0.0
 10
79.01654608843519
 20
-3.846759549150872
 30
0.0
 10
79.22354040310978
 20
-3.869440415436598
 30
0.0
 10
79.46777282836453
 20
-3.899355310100188
 30
0.0
 10
79.71318233881894
 20
-3.91497149805491
 30
0.0
 10
79.83009543911099
 20
-3.916790503372283
 30
0.0
 10
79.93513707686509
 20
-3.915247801066922
 30
0.0
 10
80.04013491765524
 20
-3.910156138554725
 30
0.0
  0
ARC
  5
557
102
{ACAD_REACTORS
330
AC1
102
}
330
A
100
AcDbEntity
  8
1
100
AcDbCircle
 10
79.85219
 20
-0.0318439999999782
 30
0.0
 40
3.882865
100
AcDbArc
 50
272.774405
 51
281.6987869999999
  0
SPLINE
  5
558
102
{ACAD_REACTORS
330
AC1
102
}
330
A
100
AcDbEntity
  8
1
100
AcDbSpline
210
0.0
220
0.0
230
1.0
 70
     8
 71
     5
 72
    27
 73
    21
 74
     0
 42
0.000000001
 43
0.0000000001
 40
0.2873039110370234
 40
0.2873039110370234
 40
0.2873039110370234
 40
0.2873039110370234
 40
0.2873039110370234
 40
0.2873039110370234
 40
2.883313216445392
 40
2.883313216445392
 40
2.883313216445392
 40
3.829247598609976
 40
3.829247598609976
 40
3.829247598609976
 40
4.298579521704071
 40
4.298579521704071
 40
4.298579521704071
 40
4.529628065479665
 40
4.529628065479665
 40
4.529628065479665
 40
4.764314594234168
 40
4.764314594234168
 40
4.764314594234168
 40
5.974140292606102
 40
5.974140292606102
 40
5.974140292606102
 40
5.974140292606102
 40
5.974140292606102
 40
5.974140292606102
 10
76.73425944132183
 20
-3.266155248047596
 30
0.0
 10
77.09364220539476
 20
-3.294549727539674
 30
0.0
 10
77.45073731876295
 20
-3.325533323848162
 30
0.0
 10
77.8054998011812
 20
-3.359164070892346
 30
0.0
 10
78.28605996439915
 20
-3.408720925602607
 30
0.0
 10
78.76186090332244
 20
-3.463405745072916
 30
0.0
 10
78.88859242051047
 20
-3.478375800161188
 30
0.0
 10
79.07767346109277
 20
-3.501338659638008
 30
0.0
 10
79.26596773384142
 20
-3.525130064546258
 30
0.0
 10
79.32832476063925
 20
-3.533103791888606
 30
0.0
 10
79.42126753731054
 20
-3.545047121183301
 30
0.0
 10
79.5142365327156
 20
-3.555988686611896
 30
0.0
 10
79.54733553362832
 20
-3.559720157098126
 30
0.0
 10
79.60925144482127
 20
-3.566054352805393
 30
0.0
 10
79.67133646989575
 20
-3.571067875485198
 30
0.0
 10
79.7026747705161
 20
-3.573262316434693
 30
0.0
 10
79.89582770642066
 20
-3.58472613666521
 30
0.0
 10
80.09072539803717
 20
-3.583586439713711
 30
0.0
 10
80.25577715991479
 20
-3.573678700366141
 30
0.0
 10
80.41836245665772
 20
-3.552876040927227
 30
0.0
 10
80.57963108741347
 20
-3.523624816096173
 30
0.0
  0
LINE
  5
559
102
{ACAD_REACTORS
330
AC1
102
}
330
A
100
AcDbEntity
  8
1
100
AcDbLine
 10
80.03994499999997
 20
-3.910158000000024
 30
0.0
 11
79.943432
 21
-3.915562000000022
 31
0.0
  0
LINE
  5
55A
102
{ACAD_REACTORS
330
AC1
102
}
330
A
100
AcDbEntity
  8
1
100
AcDbLine
 10
79.943432
 20
-3.915562000000022
 30
0.0
 11
79.873277
 21
-3.918091000000003
 31
0.0
  0
SPLINE
  5
55B
102
{ACAD_REACTORS
330
AC1
102
}
330
A
100
AcDbEntity
  8
1
100
AcDbSpline
210
0.0
220
0.0
230
1.0
 70
     8
 71
     5
 72
    24
 73
    18
 74
     0
 42
0.000000001
 43
0.0000000001
 40
0.0722814200947318
 40
0.0722814200947318
 40
0.0722814200947318
 40
0.0722814200947318
 40
0.0722814200947318
 40
0.0722814200947318
 40
3.667597188746028
 40
3.667597188746028
 40
3.667597188746028
 40
4.173453378140978
 40
4.173453378140978
 40
4.173453378140978
 40
4.426458777944318
 40
4.426458777944318
 40
4.426458777944318
 40
4.680774862106308
 40
4.680774862106308
 40
4.680774862106308
 40
4.960368436479209
 40
4.960368436479209
 40
4.960368436479209
 40
4.960368436479209
 40
4.960368436479209
 40
4.960368436479209
 10
76.44563691816526
 20
-3.64486524883739
 30
0.0
 10
76.94976537090809
 20
-3.688748957037772
 30
0.0
 10
77.45387243265206
 20
-3.732751144343636
 30
0.0
 10
77.95795840532557
 20
-3.776870260704981
 30
0.0
 10
78.53294473991026
 20
-3.827328524223787
 30
0.0
 10
79.10790423046946
 20
-3.877935041544103
 30
0.0
 10
79.17882003036869
 20
-3.884172866727508
 30
0.0
 10
79.28521204154519
 20
-3.893607211037076
 30
0.0
 10
79.39167304639702
 20
-3.902412147330551
 30
0.0
 10
79.42717917306175
 20
-3.905236346438073
 30
0.0
 10
79.49840281639019
 20
-3.910543828069591
 30
0.0
 10
79.56969881351139
 20
-3.914714532343506
 30
0.0
 10
79.60454457509526
 20
-3.916323364436379
 30
0.0
 10
79.67967205045209
 20
-3.918943198901786
 30
0.0
 10
79.75490834269769
 20
-3.919763278007053
 30
0.0
 10
79.7943471288151
 20
-3.919698623885663
 30
0.0
 10
79.83380681736014
 20
-3.9191408486717
 30
0.0
 10
79.87327666022093
 20
-3.918091113971286
 30
0.0
  0
LINE
  5
55C
102
{ACAD_REACTORS
330
AC1
102
}
330
A
100
AcDbEntity
  8
1
100
AcDbLine
 10
83.89898299999998
 20
-0.0858650000000125
 30
0.0
 11
83.898822
 21
-0.0958850000000098
 31
0.0
  0
LINE
  5
55D
102
{ACAD_REACTORS
330
AC1
102
}
330
A
100
AcDbEntity
  8
1
100
AcDbLine
 10
83.89983799999997
 20
-0.0339119999998729
 30
0.0
 11
83.89898299999998
 21
-0.0858650000000125
 31
0.0
  0
LINE
  5
55E
102
{ACAD_REACTORS
330
AC1
102
}
330
A
100
AcDbEntity
  8
1
100
AcDbLine
 10
83.89999999999998
 20
0.0000080000000935
 30
0.0
 11
83.89983799999997
 21
-0.0339119999998729
 31
0.0
  0
LINE
  5
55F
102
{ACAD_REACTORS
330
AC1
102
}
330
A
100
AcDbEntity
  8
1
100
AcDbLine
 10
83.89999999999998
 20
-0.0000059999999849
 30
0.0
 11
83.89983099999998
 21
0.0341149999999857
 31
0.0
  0
SPLINE
  5
560
102
{ACAD_REACTORS
330
AC1
102
}
330
A
100
AcDbEntity
  8
1
100
AcDbSpline
210
0.0
220
0.0
230
1.0
 70
     8
 71
     5
 72
    18
 73
    12
 74
     0
 42
0.000000001
 43
0.0000000001
 40
0.0
 40
0.0
 40
0.0
 40
0.0
 40
0.0
 40
0.0
 40
2.236111408649879
 40
2.236111408649879
 40
2.236111408649879
 40
4.008753856571056
 40
4.008753856571056
 40
4.008753856571056
 40
4.443666592330003
 40
4.443666592330003
 40
4.443666592330003
 40
4.443666592330003
 40
4.443666592330003
 40
4.443666592330003
 10
83.00385568551483
 20
2.382239631253582
 30
0.0
 10
83.16808989337202
 20
2.185495672218792
 30
0.0
 10
83.31622366288943
 20
1.977211019940284
 30
0.0
 10
83.44742842181171
 20
1.758243450762392
 30
0.0
 10
83.64879879294329
 20
1.348901411067686
 30
0.0
 10
83.78470487628659
 20
0.9191566100262209
 30
0.0
 10
83.83140879459871
 20
0.7263626556703004
 30
0.0
 10
83.87251173792353
 20
0.4838517963788719
 30
0.0
 10
83.89210769967091
 20
0.2401721075698902
 30
0.0
 10
83.89513150058144
 20
0.192125096075415
 30
0.0
 10
83.89731400286143
 20
0.1440878012683129
 30
0.0
 10
83.89865716503278
 20
0.0960452315956104
 30
0.0
  0
ARC
  5
561
102
{ACAD_REACTORS
330
AC1
102
}
330
A
100
AcDbEntity
  8
1
100
AcDbCircle
 10
79.684067
 20
-0.4045250000000351
 30
0.0
 40
4.334615
100
AcDbArc
 50
40.01145099999946
 51
77.29265400000031
  0
LINE
  5
562
102
{ACAD_REACTORS
330
AC1
102
}
330
A
100
AcDbEntity
  8
1
100
AcDbLine
 10
80.03976399999997
 20
3.910170999999991
 30
0.0
 11
79.943432
 21
3.915562000000022
 31
0.0
  0
ARC
  5
563
102
{ACAD_REACTORS
330
AC1
102
}
330
A
100
AcDbEntity
  8
1
100
AcDbCircle
 10
79.76867300000002
 20
-0.0753369999999905
 30
0.0
 40
3.994712999999998
100
AcDbArc
 50
77.43783200000014
 51
86.10877599999994
  0
LINE
  5
564
102
{ACAD_REACTORS
330
AC1
102
}
330
A
100
AcDbEntity
  8
1
100
AcDbLine
 10
76.98428599999998
 20
3.161974999999982
 30
0.0
 11
76.89032800000003
 21
3.049999000000068
 31
0.0
  0
LINE
  5
565
102
{ACAD_REACTORS
330
AC1
102
}
330
A
100
AcDbEntity
  8
1
100
AcDbLine
 10
76.98428599999998
 20
3.161974999999982
 30
0.0
 11
76.56642500000002
 21
3.208489999999982
 31
0.0
  0
LINE
  5
566
102
{ACAD_REACTORS
330
AC1
102
}
330
A
100
AcDbEntity
  8
1
100
AcDbLine
 10
79.943432
 20
3.915562000000022
 30
0.0
 11
79.873277
 21
3.918091000000003
 31
0.0
  0
SPLINE
  5
567
102
{ACAD_REACTORS
330
AC1
102
}
330
A
100
AcDbEntity
  8
1
100
AcDbSpline
210
0.0
220
0.0
230
1.0
 70
     8
 71
     5
 72
    24
 73
    18
 74
     0
 42
0.000000001
 43
0.0000000001
 40
0.0050210822941734
 40
0.0050210822941734
 40
0.0050210822941734
 40
0.0050210822941734
 40
0.0050210822941734
 40
0.0050210822941734
 40
2.651315511357803
 40
2.651315511357803
 40
2.651315511357803
 40
3.075514057199208
 40
3.075514057199208
 40
3.075514057199208
 40
3.499716394630541
 40
3.499716394630541
 40
3.499716394630541
 40
3.93385108678712
 40
3.93385108678712
 40
3.93385108678712
 40
4.152249879319881
 40
4.152249879319881
 40
4.152249879319881
 40
4.152249879319881
 40
4.152249879319881
 40
4.152249879319881
 10
76.97100496726136
 20
3.690649973043149
 30
0.0
 10
77.34205034421918
 20
3.723022523427288
 30
0.0
 10
77.71308421898506
 20
3.755458736748606
 30
0.0
 10
78.08410671276664
 20
3.787958001799211
 30
0.0
 10
78.51459063758864
 20
3.825739326562028
 30
0.0
 10
78.94505948524389
 20
3.863603931789156
 30
0.0
 10
79.00453054236199
 20
3.868833172442577
 30
0.0
 10
79.12346859092095
 20
3.87931245508787
 30
0.0
 10
79.24241547831847
 20
3.8897652756051
 30
0.0
 10
79.3018964620388
 20
3.894961557321492
 30
0.0
 10
79.42229060038673
 20
3.905233938942899
 30
0.0
 10
79.54284010223918
 20
3.913591641410221
 30
0.0
 10
79.5969774103942
 20
3.916470453929263
 30
0.0
 10
79.68881622660787
 20
3.919404645862411
 30
0.0
 10
79.78081109260819
 20
3.919650053853727
 30
0.0
 10
79.81162227132073
 20
3.919430954415473
 30
0.0
 10
79.84244604794795
 20
3.918911128432455
 30
0.0
 10
79.87327665836319
 20
3.918091136225993
 30
0.0
  0
LINE
  5
568
102
{ACAD_REACTORS
330
AC1
102
}
330
A
100
AcDbEntity
  8
1
100
AcDbLine
 10
80.31480099999997
 20
3.482613999999898
 30
0.0
 11
80.48781899999999
 21
3.307870999999976
 31
0.0
  0
LINE
  5
569
102
{ACAD_REACTORS
330
AC1
102
}
330
A
100
AcDbEntity
  8
1
100
AcDbLine
 10
79.873277
 20
3.918091000000003
 30
0.0
 11
80.31480099999997
 21
3.482613999999898
 31
0.0
  0
ARC
  5
56A
102
{ACAD_REACTORS
330
AC1
102
}
330
A
100
AcDbEntity
  8
1
100
AcDbCircle
 10
80.489487
 20
3.217158999999981
 30
0.0
 40
0.023946
100
AcDbArc
 50
276.023604
 51
359.7678770000005
  0
SPLINE
  5
56B
102
{ACAD_REACTORS
330
AC1
102
}
330
A
100
AcDbEntity
  8
1
100
AcDbSpline
210
0.0
220
0.0
230
1.0
 70
     8
 71
     5
 72
    18
 73
    12
 74
     0
 42
0.000000001
 43
0.0000000001
 40
0.0
 40
0.0
 40
0.0
 40
0.0
 40
0.0
 40
0.0
 40
0.0379118636103763
 40
0.0379118636103763
 40
0.0379118636103763
 40
0.1127835833823322
 40
0.1127835833823322
 40
0.1127835833823322
 40
0.1829916282144131
 40
0.1829916282144131
 40
0.1829916282144131
 40
0.1829916282144131
 40
0.1829916282144131
 40
0.1829916282144131
 10
80.48781933024363
 20
3.307870614792705
 30
0.0
 10
80.49086075606789
 20
3.304727896590804
 30
0.0
 10
80.49388169676047
 20
3.301565067217893
 30
0.0
 10
80.49649431209088
 20
3.297980431350423
 30
0.0
 10
80.50386696255058
 20
3.287296408870133
 30
0.0
 10
80.50907793143323
 20
3.275494520750953
 30
0.0
 10
80.51136195022383
 20
3.266986347708098
 30
0.0
 10
80.51390493650288
 20
3.251237387586682
 30
0.0
 10
80.51417319533497
 20
3.236271702121598
 30
0.0
 10
80.51399231498093
 20
3.229320958023321
 30
0.0
 10
80.51369460627055
 20
3.22289648208391
 30
0.0
 10
80.51342879528695
 20
3.21706158275799
 30
0.0
  0
LINE
  5
56C
102
{ACAD_REACTORS
330
AC1
102
}
330
A
100
AcDbEntity
  8
1
100
AcDbLine
 10
80.33829800000003
 20
3.161974999999982
 30
0.0
 11
76.98428599999998
 21
3.161974999999982
 31
0.0
  0
LINE
  5
56D
102
{ACAD_REACTORS
330
AC1
102
}
330
A
100
AcDbEntity
  8
1
100
AcDbLine
 10
80.33829800000003
 20
3.161974999999982
 30
0.0
 11
80.49201899999998
 21
3.193158999999976
 31
0.0
  0
LINE
  5
56E
102
{ACAD_REACTORS
330
AC1
102
}
330
A
100
AcDbEntity
  8
1
100
AcDbLine
 10
81.19579999999997
 20
1.966426999999896
 30
0.0
 11
81.330489
 21
2.126942999999982
 31
0.0
  0
ARC
  5
56F
102
{ACAD_REACTORS
330
AC1
102
}
330
A
100
AcDbEntity
  8
1
100
AcDbCircle
 10
62.906878
 20
-14.54063200000001
 30
0.0
 40
24.844256
100
AcDbArc
 50
42.13518900000045
 51
45.4422359999998
  0
ARC
  5
570
102
{ACAD_REACTORS
330
AC1
102
}
330
A
100
AcDbEntity
  8
1
100
AcDbCircle
 10
59.67842599999998
 20
-17.140388
 30
0.0
 40
28.991854
100
AcDbArc
 50
34.93725900000097
 51
36.85629800000097
  0
LINE
  5
571
102
{ACAD_REACTORS
330
AC1
102
}
330
A
100
AcDbEntity
  8
1
100
AcDbLine
 10
82.87602999999998
 20
0.2492139999999949
 30
0.0
 11
82.62256399999998
 21
0.2045209999999997
 31
0.0
  0
SPLINE
  5
572
102
{ACAD_REACTORS
330
AC1
102
}
330
A
100
AcDbEntity
  8
1
100
AcDbSpline
210
0.0
220
0.0
230
1.0
 70
     8
 71
     5
 72
    48
 73
    42
 74
     0
 42
0.000000001
 43
0.0000000001
 40
1.269729520030905
 40
1.269729520030905
 40
1.269729520030905
 40
1.269729520030905
 40
1.269729520030905
 40
1.269729520030905
 40
2.133303148137735
 40
2.133303148137735
 40
2.133303148137735
 40
2.861201729112626
 40
2.861201729112626
 40
2.861201729112626
 40
3.235466928818761
 40
3.235466928818761
 40
3.235466928818761
 40
3.609732128524901
 40
3.609732128524901
 40
3.609732128524901
 40
4.400197090467425
 40
4.400197090467425
 40
4.400197090467425
 40
4.832217733935252
 40
4.832217733935252
 40
4.832217733935252
 40
5.265042213432696
 40
5.265042213432696
 40
5.265042213432696
 40
5.770379199573437
 40
5.770379199573437
 40
5.770379199573437
 40
6.021904368188722
 40
6.021904368188722
 40
6.021904368188722
 40
6.274633776278517
 40
6.274633776278517
 40
6.274633776278517
 40
6.567661415385388
 40
6.567661415385388
 40
6.567661415385388
 40
6.712977532477975
 40
6.712977532477975
 40
6.712977532477975
 40
7.895496454906044
 40
7.895496454906044
 40
7.895496454906044
 40
7.895496454906044
 40
7.895496454906044
 40
7.895496454906044
 10
83.44536657808095
 20
-0.5373545675930133
 30
0.0
 10
83.42541801258622
 20
-0.6433605299606029
 30
0.0
 10
83.40224191925944
 20
-0.7491623032904045
 30
0.0
 10
83.3757312307903
 20
-0.8547091835824858
 30
0.0
 10
83.32042819096795
 20
-1.048489604073097
 30
0.0
 10
83.25265596607811
 20
-1.240429408199133
 30
0.0
 10
83.21890350322581
 20
-1.327850610745143
 30
0.0
 10
83.1636514569716
 20
-1.459046348917809
 30
0.0
 10
83.10198602012297
 20
-1.588374589460613
 30
0.0
 10
83.08029496306868
 20
-1.632072779826273
 30
0.0
 10
83.03545714327311
 20
-1.71890469594814
 30
0.0
 10
82.98771069119977
 20
-1.804591398984598
 30
0.0
 10
82.96310145604209
 20
-1.847144849585561
 30
0.0
 10
82.88447667389055
 20
-1.97846619798747
 30
0.0
 10
82.79878146642449
 20
-2.106335152521292
 30
0.0
 10
82.73702833096951
 20
-2.191284658801349
 30
0.0
 10
82.63600704218863
 20
-2.319750368749736
 30
0.0
 10
82.52696560944903
 20
-2.443143016664009
 30
0.0
 10
82.48742744824388
 20
-2.486116682324673
 30
0.0
 10
82.40647346064722
 20
-2.570654888638101
 30
0.0
 10
82.32190292576504
 20
-2.652085164581706
 30
0.0
 10
82.27911843772256
 20
-2.691664841674707
 30
0.0
 10
82.18325559257257
 20
-2.77605460696827
 30
0.0
 10
82.08289586075895
 20
-2.855950119560247
 30
0.0
 10
82.0275964964159
 20
-2.897735855902168
 30
0.0
 10
81.94356173078118
 20
-2.958468654553256
 30
0.0
 10
81.85754853862453
 20
-3.016339332485926
 30
0.0
 10
81.82806508515097
 20
-3.035737090871521
 30
0.0
 10
81.7697453904303
 20
-3.072803287288023
 30
0.0
 10
81.71023364346158
 20
-3.108032116402508
 30
0.0
 10
81.68009740025983
 20
-3.125219508371798
 30
0.0
 10
81.61452094171924
 20
-3.161432853254153
 30
0.0
 10
81.54802657864195
 20
-3.195988912318114
 30
0.0
 10
81.51212193129088
 20
-3.214155792778683
 30
0.0
 10
81.45822419770414
 20
-3.240840141650551
 30
0.0
 10
81.40388524503768
 20
-3.266479311763586
 30
0.0
 10
81.38506562751564
 20
-3.275206485385751
 30
0.0
 10
81.2191772764209
 20
-3.349926929015166
 30
0.0
 10
81.04689082667972
 20
-3.409772345462896
 30
0.0
 10
80.89385461074796
 20
-3.459009921127687
 30
0.0
 10
80.73724620871525
 20
-3.495008149697353
 30
0.0
 10
80.57963108740834
 20
-3.5236248160964
 30
0.0
  0
SPLINE
  5
573
102
{ACAD_REACTORS
330
AC1
102
}
330
A
100
AcDbEntity
  8
1
100
AcDbSpline
210
0.0
220
0.0
230
1.0
 70
     8
 71
     5
 72
    15
 73
     9
 74
     0
 42
0.000000001
 43
0.0000000001
 40
0.0
 40
0.0
 40
0.0
 40
0.0
 40
0.0
 40
0.0
 40
2.629400010969968
 40
2.629400010969968
 40
2.629400010969968
 40
3.298543780285251
 40
3.298543780285251
 40
3.298543780285251
 40
3.298543780285251
 40
3.298543780285251
 40
3.298543780285251
 10
83.79724229763532
 20
-0.2725842552831068
 30
0.0
 10
83.78695107223908
 20
-0.6308225284566902
 30
0.0
 10
83.72783913925042
 20
-0.9900814962921911
 30
0.0
 10
83.62045046944706
 20
-1.343532093902013
 30
0.0
 10
83.42658747721989
 20
-1.767968317759368
 30
0.0
 10
83.17260284663817
 20
-2.155903927488509
 30
0.0
 10
83.11864498868505
 20
-2.233102858242205
 30
0.0
 10
83.062300063317
 20
-2.308644417856895
 30
0.0
 10
83.00359209859877
 20
-2.382563028785625
 30
0.0
  0
ARC
  5
574
102
{ACAD_REACTORS
330
AC1
102
}
330
A
100
AcDbEntity
  8
1
100
AcDbCircle
 10
79.80682999999998
 20
0.1739259999999945
 30
0.0
 40
4.093596999999999
100
AcDbArc
 50
281.7365090000001
 51
321.3502590000007
  0
ARC
  5
575
102
{ACAD_REACTORS
330
AC1
102
}
330
A
100
AcDbEntity
  8
1
100
AcDbCircle
 10
86.27625699999999
 20
-3.934399999999982
 30
0.0
 40
4.422005
100
AcDbArc
 50
124.0976280000001
 51
129.8057589999989
  0
LINE
  5
576
102
{ACAD_REACTORS
330
AC1
102
}
330
A
100
AcDbEntity
  8
1
100
AcDbLine
 10
83.89983599999998
 20
0.0341059999999516
 30
0.0
 11
83.89898299999998
 21
0.0858789999999772
 31
0.0
  0
SPLINE
  5
577
102
{ACAD_REACTORS
330
AC1
102
}
330
A
100
AcDbEntity
  8
1
100
AcDbSpline
210
0.0
220
0.0
230
1.0
 70
     8
 71
     5
 72
    18
 73
    12
 74
     0
 42
0.000000001
 43
0.0000000001
 40
0.0
 40
0.0
 40
0.0
 40
0.0
 40
0.0
 40
0.0
 40
2.236111418371104
 40
2.236111418371104
 40
2.236111418371104
 40
4.008753873990523
 40
4.008753873990523
 40
4.008753873990523
 40
4.443666611585636
 40
4.443666611585636
 40
4.443666611585636
 40
4.443666611585636
 40
4.443666611585636
 40
4.443666611585636
 10
83.00385567842054
 20
-2.382239639752127
 30
0.0
 10
83.16808988754809
 20
-2.185495680260884
 30
0.0
 10
83.31622365821113
 20
-1.977211027411499
 30
0.0
 10
83.44742841819044
 20
-1.758243457513344
 30
0.0
 10
83.64879879095273
 20
-1.348901416335479
 30
0.0
 10
83.78470487540623
 20
-0.9191566135407921
 30
0.0
 10
83.83140879409841
 20
-0.7263626583653604
 30
0.0
 10
83.87251173774647
 20
-0.4838517980397228
 30
0.0
 10
83.89210769963247
 20
-0.2401721081801043
 30
0.0
 10
83.89513150056288
 20
-0.1921250964826413
 30
0.0
 10
83.89731400285569
 20
-0.144087801472665
 30
0.0
 10
83.89865716503273
 20
-0.0960452315971452
 30
0.0
  0
LINE
  5
578
102
{ACAD_REACTORS
330
AC1
102
}
330
A
100
AcDbEntity
  8
1
100
AcDbLine
 10
83.88487699999997
 20
-0.0387080000000424
 30
0.0
 11
83.79724199999998
 21
-0.2725839999999948
 31
0.0
  0
ARC
  5
579
102
{ACAD_REACTORS
330
AC1
102
}
330
A
100
AcDbEntity
  8
1
100
AcDbCircle
 10
83.47936099999998
 20
0.0666919999999891
 30
0.0
 40
0.419591
100
AcDbArc
 50
345.4303120000009
 51
2.61752299999939
  0
LINE
  5
57A
102
{ACAD_REACTORS
330
AC1
102
}
330
A
100
AcDbEntity
  8
1
100
AcDbLine
 10
83.89865699999999
 20
0.0960439999998926
 30
0.0
 11
83.89898299999998
 21
0.0858789999999772
 31
0.0
  0
LINE
  5
57B
102
{ACAD_REACTORS
330
AC1
102
}
330
A
100
AcDbEntity
  8
1
100
AcDbLine
 10
82.87602999999998
 20
0.2492139999999949
 30
0.0
 11
82.88690199999997
 21
0.2716500000000224
 31
0.0
  0
SPLINE
  5
57C
102
{ACAD_REACTORS
330
AC1
102
}
330
A
100
AcDbEntity
  8
1
100
AcDbSpline
210
0.0
220
0.0
230
1.0
 70
     8
 71
     5
 72
    21
 73
    15
 74
     0
 42
0.000000001
 43
0.0000000001
 40
0.0
 40
0.0
 40
0.0
 40
0.0
 40
0.0
 40
0.0
 40
0.2205758632815615
 40
0.2205758632815615
 40
0.2205758632815615
 40
0.5783407635217901
 40
0.5783407635217901
 40
0.5783407635217901
 40
0.9402573485854835
 40
0.9402573485854835
 40
0.9402573485854835
 40
1.174591377931949
 40
1.174591377931949
 40
1.174591377931949
 40
1.174591377931949
 40
1.174591377931949
 40
1.174591377931949
 10
82.88690231897874
 20
0.2716497475198025
 30
0.0
 10
82.89416942042564
 20
0.286644988539706
 30
0.0
 10
82.89859226251966
 20
0.3040669715720696
 30
0.0
 10
82.89975743510472
 20
0.3242125453660947
 30
0.0
 10
82.89459328747819
 20
0.3784322457610187
 30
0.0
 10
82.87062047285301
 20
0.4374491517536401
 30
0.0
 10
82.85048908543044
 20
0.4725632259138024
 30
0.0
 10
82.80327350468184
 20
0.5394167538169086
 30
0.0
 10
82.74540248318178
 20
0.5975259255226888
 30
0.0
 10
82.71400290134806
 20
0.6245381728783741
 30
0.0
 10
82.6614689690486
 20
0.6634340349711465
 30
0.0
 10
82.60715768646155
 20
0.6938677772486699
 30
0.0
 10
82.58557245594827
 20
0.7044880053397266
 30
0.0
 10
82.56406909338201
 20
0.7135687618439306
 30
0.0
 10
82.54272466371791
 20
0.7210053808547059
 30
0.0
  0
LINE
  5
57D
102
{ACAD_REACTORS
330
AC1
102
}
330
A
100
AcDbEntity
  8
1
100
AcDbLine
 10
82.503579
 20
0.7346220000000017
 30
0.0
 11
82.54272499999997
 21
0.7210049999999911
 31
0.0
  0
ARC
  5
57E
102
{ACAD_REACTORS
330
AC1
102
}
330
A
100
AcDbEntity
  8
1
100
AcDbCircle
 10
61.799262
 20
-15.51263299999999
 30
0.0
 40
26.318077
100
AcDbArc
 50
38.12226599999986
 51
40.89210100000052
  0
LINE
  5
57F
102
{ACAD_REACTORS
330
AC1
102
}
330
A
100
AcDbEntity
  8
1
100
AcDbLine
 10
81.69570299999998
 20
1.749319000000014
 30
0.0
 11
81.69423399999997
 21
1.716133000000126
 31
0.0
  0
SPLINE
  5
580
102
{ACAD_REACTORS
330
AC1
102
}
330
A
100
AcDbEntity
  8
1
100
AcDbSpline
210
0.0
220
0.0
230
1.0
 70
     8
 71
     5
 72
    18
 73
    12
 74
     0
 42
0.000000001
 43
0.0000000001
 40
0.0
 40
0.0
 40
0.0
 40
0.0
 40
0.0
 40
0.0
 40
0.5387807485944443
 40
0.5387807485944443
 40
0.5387807485944443
 40
0.7659554515703553
 40
0.7659554515703553
 40
0.7659554515703553
 40
1.091075166854384
 40
1.091075166854384
 40
1.091075166854384
 40
1.091075166854384
 40
1.091075166854384
 40
1.091075166854384
 10
81.69570261416154
 20
1.749319098609817
 30
0.0
 10
81.69773256593776
 20
1.795307482791599
 30
0.0
 10
81.68907639177438
 20
1.846261184275815
 30
0.0
 10
81.67004929985859
 20
1.89965931408494
 30
0.0
 10
81.62804070187737
 20
1.974413835782113
 30
0.0
 10
81.56865329391441
 20
2.037987724247102
 30
0.0
 10
81.54932989377105
 20
2.055792860126754
 30
0.0
 10
81.50044912401156
 20
2.094038618022294
 30
0.0
 10
81.4471498224678
 20
2.119601364598509
 30
0.0
 10
81.41558408862669
 20
2.128926172564487
 30
0.0
 10
81.38595812978588
 20
2.132050406736309
 30
0.0
 10
81.35907913413324
 20
2.129578743030204
 30
0.0
  0
LINE
  5
581
102
{ACAD_REACTORS
330
AC1
102
}
330
A
100
AcDbEntity
  8
1
100
AcDbLine
 10
81.35907899999997
 20
2.129578999999973
 30
0.0
 11
81.330489
 21
2.126942999999982
 31
0.0
  0
LINE
  5
582
102
{ACAD_REACTORS
330
AC1
102
}
330
A
100
AcDbEntity
  8
1
100
AcDbLine
 10
82.503579
 20
0.7346220000000017
 30
0.0
 11
82.23206499999998
 21
0.6867469999999685
 31
0.0
  0
LINE
  5
583
102
{ACAD_REACTORS
330
AC1
102
}
330
A
100
AcDbEntity
  8
1
100
AcDbLine
 10
81.69423499999998
 20
1.716133000000126
 30
0.0
 11
81.54373099999999
 21
1.536768999999992
 31
0.0
  0
LINE
  5
584
102
{ACAD_REACTORS
330
AC2
102
}
330
A
100
AcDbEntity
  8
1
 48
0.017268
100
AcDbLine
 10
77.744982
 20
-3.247055000000043
 30
0.0
 11
77.05804699999998
 21
-3.174855999999976
 31
0.0
  0
ARC
  5
585
102
{ACAD_REACTORS
330
AC2
102
}
330
A
100
AcDbEntity
  8
1
100
AcDbCircle
 10
76.744461
 20
-6.158420999999972
 30
0.0
 40
3.0
100
AcDbArc
 50
84.00000000000003
 51
124.9677979999996
  0
ARC
  5
586
102
{ACAD_REACTORS
330
AC2
102
}
330
A
100
AcDbEntity
  8
1
100
AcDbCircle
 10
76.744461
 20
6.158420999999972
 30
0.0
 40
3.0
100
AcDbArc
 50
235.0322020000004
 51
265.9160470000005
  0
SPLINE
  5
587
102
{ACAD_REACTORS
330
AC2
102
}
330
A
100
AcDbEntity
  8
1
100
AcDbSpline
210
0.0
220
0.0
230
1.0
 70
     8
 71
     5
 72
    15
 73
     9
 74
     0
 42
0.000000001
 43
0.0000000001
 40
0.0
 40
0.0
 40
0.0
 40
0.0
 40
0.0
 40
0.0
 40
0.3813761987910146
 40
0.3813761987910146
 40
0.3813761987910146
 40
0.6329317119792821
 40
0.6329317119792821
 40
0.6329317119792821
 40
0.6329317119792821
 40
0.6329317119792821
 40
0.6329317119792821
 10
75.18142447386904
 20
3.464101615135858
 30
0.0
 10
75.15953114414592
 20
3.480924052210068
 30
0.0
 10
75.14316333615361
 20
3.498061535012709
 30
0.0
 10
75.13375672081181
 20
3.515131192274111
 30
0.0
 10
75.13244615325668
 20
3.542088725383107
 30
0.0
 10
75.1532401282192
 20
3.565316395245986
 30
0.0
 10
75.16501065557017
 20
3.573932611501504
 30
0.0
 10
75.17948754903166
 20
3.581681541029805
 30
0.0
 10
75.19635651793459
 20
3.588718659613106
 30
0.0
  0
ARC
  5
588
102
{ACAD_REACTORS
330
AC2
102
}
330
A
100
AcDbEntity
  8
1
100
AcDbCircle
 10
76.4
 20
5.050000000000125
 30
0.0
 40
2.0
100
AcDbArc
 50
232.4619790000004
 51
270.0
  0
LINE
  5
589
102
{ACAD_REACTORS
330
AC2
102
}
330
A
100
AcDbEntity
  8
1
 48
0.085
100
AcDbLine
 10
76.4
 20
3.04999999999995
 30
0.0
 11
79.80000000000003
 21
3.04999999999995
 31
0.0
  0
SPLINE
  5
58A
102
{ACAD_REACTORS
330
AC1
102
}
330
A
100
AcDbEntity
  8
1
100
AcDbSpline
210
0.0
220
0.0
230
1.0
 70
     8
 71
     5
 72
    30
 73
    24
 74
     0
 42
0.000000001
 43
0.0000000001
 40
0.0
 40
0.0
 40
0.0
 40
0.0
 40
0.0
 40
0.0
 40
2.55288694977071
 40
2.55288694977071
 40
2.55288694977071
 40
5.526861976287103
 40
5.526861976287103
 40
5.526861976287103
 40
7.604001800001267
 40
7.604001800001267
 40
7.604001800001267
 40
9.707373032552967
 40
9.707373032552967
 40
9.707373032552967
 40
11.76969949959993
 40
11.76969949959993
 40
11.76969949959993
 40
14.44030241758827
 40
14.44030241758827
 40
14.44030241758827
 40
16.27350535321861
 40
16.27350535321861
 40
16.27350535321861
 40
16.27350535321861
 40
16.27350535321861
 40
16.27350535321861
 10
79.80000000000003
 20
-2.053195880569202
 30
0.0
 10
79.51805757663745
 20
-2.128766154748176
 30
0.0
 10
79.22495446989056
 20
-2.171072214467358
 30
0.0
 10
78.92746194736176
 20
-2.183398237512728
 30
0.0
 10
78.28602465669087
 20
-2.147146018348164
 30
0.0
 10
77.67631512784877
 20
-1.963102019963285
 30
0.0
 10
77.36508421972189
 20
-1.817143260506384
 30
0.0
 10
76.90145297307381
 20
-1.473756885116585
 30
0.0
 10
76.58793829512626
 20
-0.9922355406947076
 30
0.0
 10
76.48964419622085
 20
-0.7741834093868647
 30
0.0
 10
76.35655070572275
 20
-0.308654281014924
 30
0.0
 10
76.35557954372436
 20
0.1797512596155002
 30
0.0
 10
76.38887409433022
 20
0.4242590861888972
 30
0.0
 10
76.5218604026107
 20
0.8879810108186346
 30
0.0
 10
76.77885038262954
 20
1.286798916431735
 30
0.0
 10
76.93388175868044
 20
1.461421428285461
 30
0.0
 10
77.34270857593333
 20
1.805247013166308
 30
0.0
 10
77.84129093814851
 20
2.0191684082655
 30
0.0
 10
78.1403970528909
 20
2.100379973611778
 30
0.0
 10
78.65620457805636
 20
2.180071660510179
 30
0.0
 10
79.17794029791986
 20
2.165731045403845
 30
0.0
 10
79.3893248110551
 20
2.144575610074181
 30
0.0
 10
79.59753992700953
 20
2.107462148992794
 30
0.0
 10
79.80000000000003
 20
2.053195880569202
 30
0.0
  0
LINE
  5
58B
102
{ACAD_REACTORS
330
AC2
102
}
330
A
100
AcDbEntity
  8
1
 48
0.002121
100
AcDbLine
 10
79.80000000000003
 20
-3.461915999999973
 30
0.0
 11
79.715509
 21
-3.454165999999986
 31
0.0
  0
LINE
  5
58C
102
{ACAD_REACTORS
330
AC2
102
}
330
A
100
AcDbEntity
  8
1
 48
0.049535
100
AcDbLine
 10
79.715509
 20
-3.454165999999986
 30
0.0
 11
77.744982
 21
-3.247055000000043
 31
0.0
  0
SPLINE
  5
58D
102
{ACAD_REACTORS
330
AC1
102
}
330
A
100
AcDbEntity
  8
1
100
AcDbSpline
210
0.0
220
0.0
230
1.0
 70
     8
 71
     5
 72
    24
 73
    18
 74
     0
 42
0.000000001
 43
0.0000000001
 40
0.0
 40
0.0
 40
0.0
 40
0.0
 40
0.0
 40
0.0
 40
0.9233074303197783
 40
0.9233074303197783
 40
0.9233074303197783
 40
2.771315566612536
 40
2.771315566612536
 40
2.771315566612536
 40
6.427956967026782
 40
6.427956967026782
 40
6.427956967026782
 40
8.263988201727244
 40
8.263988201727244
 40
8.263988201727244
 40
9.106832880453943
 40
9.106832880453943
 40
9.106832880453943
 40
9.106832880453943
 40
9.106832880453943
 40
9.106832880453943
 10
79.80000000000003
 20
2.053195880569202
 30
0.0
 10
79.9019706471673
 20
2.025864237204813
 30
0.0
 10
80.000928771481
 20
1.988267252651212
 30
0.0
 10
80.09558571745015
 20
1.941119913713464
 30
0.0
 10
80.36427588323832
 20
1.77451081831691
 30
0.0
 10
80.58286483487007
 20
1.543014724970588
 30
0.0
 10
80.70376594184381
 20
1.368450330776793
 30
0.0
 10
80.99449029820849
 20
0.8131825462626236
 30
0.0
 10
81.09503454345702
 20
0.1845222754344604
 30
0.0
 10
81.09166786907355
 20
-0.2370558661251039
 30
0.0
 10
80.97974489419625
 20
-0.8633182098764109
 30
0.0
 10
80.67692287742152
 20
-1.409954329588344
 30
0.0
 10
80.55247175623675
 20
-1.580289000616061
 30
0.0
 10
80.33482055134227
 20
-1.798162308582788
 30
0.0
 10
80.0714460183954
 20
-1.952861051526724
 30
0.0
 10
79.98365823848941
 20
-1.994742163824524
 30
0.0
 10
79.89308429081038
 20
-2.028246086585113
 30
0.0
 10
79.80000000000003
 20
-2.053195880569202
 30
0.0
  0
LINE
  5
58E
102
{ACAD_REACTORS
330
AC2
102
}
330
A
100
AcDbEntity
  8
1
 48
0.000337
100
AcDbLine
 10
79.81346199999999
 20
3.04999999999995
 30
0.0
 11
79.80000000000003
 21
3.04999999999995
 31
0.0
  0
ARC
  5
58F
102
{ACAD_REACTORS
330
AC2
102
}
330
A
100
AcDbEntity
  8
1
100
AcDbCircle
 10
79.81346199999999
 20
2.049999999999954
 30
0.0
 40
1.0
100
AcDbArc
 50
39.00000000000055
 51
90.0
  0
LINE
  5
590
102
{ACAD_REACTORS
330
AC2
102
}
330
A
100
AcDbEntity
  8
1
 48
0.104363
100
AcDbLine
 10
80.59060800000002
 20
2.679319999999961
 30
0.0
 11
83.21772999999998
 21
-0.5649060000000077
 31
0.0
  0
ARC
  5
591
102
{ACAD_REACTORS
330
AC2
102
}
330
A
100
AcDbEntity
  8
1
100
AcDbCircle
 10
83.29064399999998
 20
-0.5181910000000018
 30
0.0
 40
0.086075
100
AcDbArc
 50
212.6470289999997
 51
260.2592569999998
  0
ARC
  5
592
102
{ACAD_REACTORS
330
AC2
102
}
330
A
100
AcDbEntity
  8
1
100
AcDbCircle
 10
79.80000600000002
 20
0.0
 30
0.0
 40
3.527992999999998
100
AcDbArc
 50
324.6539140000006
 51
350.1654110000007
  0
ARC
  5
593
102
{ACAD_REACTORS
330
AC2
102
}
330
A
100
AcDbEntity
  8
1
100
AcDbCircle
 10
79.79999499999998
 20
0.0000049999999874
 30
0.0
 40
3.528005
100
AcDbArc
 50
286.6980880000004
 51
324.6539450000007
  0
ARC
  5
594
102
{ACAD_REACTORS
330
AC2
102
}
330
A
100
AcDbEntity
  8
1
100
AcDbCircle
 10
80.05
 20
-0.2716960000000199
 30
0.0
 40
3.2
100
AcDbArc
 50
265.5192010000001
 51
283.8070870000004
  0
ARC
  5
59B
102
{ACAD_REACTORS
330
AC1
102
}
330
A
100
AcDbEntity
  8
1
100
AcDbCircle
 10
78.75767300000003
 20
-0.0924280000000408
 30
0.0
 40
2.169706
100
AcDbArc
 50
32.99999999999978
 51
122.9999999999996
  0
LINE
  5
59E
102
{ACAD_REACTORS
330
AC2
102
}
330
A
100
AcDbEntity
  8
1
 48
0.049396
100
AcDbLine
 10
79.81346199999999
 20
3.071685000000001
 30
0.0
 11
77.83761299999998
 21
3.071685000000001
 31
0.0
  0
ARC
  5
59F
102
{ACAD_REACTORS
330
AC2
102
}
330
A
100
AcDbEntity
  8
1
100
AcDbCircle
 10
79.81345799999998
 20
2.049992999999972
 30
0.0
 40
1.021692
100
AcDbArc
 50
39.00017800000006
 51
89.9998049999999
  0
LINE
  5
5A0
102
{ACAD_REACTORS
330
AC2
102
}
330
A
100
AcDbEntity
  8
1
 48
0.106015
100
AcDbLine
 10
83.27615499999998
 20
-0.602597000000003
 30
0.0
 11
80.60745999999998
 21
2.692966999999951
 31
0.0
  0
ARC
  5
5A1
102
{ACAD_REACTORS
330
AC1
102
}
330
A
100
AcDbEntity
  8
1
100
AcDbCircle
 10
78.9
 20
0.0
 30
0.0
 40
2.0
100
AcDbArc
 50
302.9999999999996
 51
32.99999999999978
  0
ARC
  5
5A2
102
{ACAD_REACTORS
330
AC1
102
}
330
A
100
AcDbEntity
  8
1
100
AcDbCircle
 10
78.665245
 20
0.0498989999999822
 30
0.0
 40
2.0
100
AcDbArc
 50
122.9999999999996
 51
212.9999999999998
  0
ARC
  5
5A3
102
{ACAD_REACTORS
330
AC1
102
}
330
A
100
AcDbEntity
  8
1
100
AcDbCircle
 10
78.80757199999997
 20
0.142327000000023
 30
0.0
 40
2.169706
100
AcDbArc
 50
212.9999999999998
 51
302.9999999999996
  0
LINE
  5
5A4
102
{ACAD_REACTORS
330
AC2
102
}
330
A
100
AcDbEntity
  8
1
 48
0.001038
100
AcDbLine
 10
77.402839
 20
3.051594000000021
 30
0.0
 11
77.36134799999998
 21
3.04999999999995
 31
0.0
  0
ARC
  5
5A5
102
{ACAD_REACTORS
330
AC2
102
}
330
A
100
AcDbEntity
  8
1
100
AcDbCircle
 10
77.48561699999997
 20
6.245851999999897
 30
0.0
 40
3.19435
100
AcDbArc
 50
268.5155390000001
 51
276.3279090000003
  0
SPLINE
  5
5A6
102
{ACAD_REACTORS
330
AC2
102
}
330
A
100
AcDbEntity
  8
1
100
AcDbSpline
210
0.0
220
0.0
230
1.0
 70
     8
 71
     5
 72
    15
 73
     9
 74
     0
 42
0.000000001
 43
0.0000000001
 40
0.0
 40
0.0
 40
0.0
 40
0.0
 40
0.0
 40
0.0
 40
0.2355511425963256
 40
0.2355511425963256
 40
0.2355511425963256
 40
0.4493515236616985
 40
0.4493515236616985
 40
0.4493515236616985
 40
0.4493515236616985
 40
0.4493515236616985
 40
0.4493515236616985
 10
76.22314836009755
 20
3.110533940089283
 30
0.0
 10
76.21443487645464
 20
3.100149614653787
 30
0.0
 10
76.20912458053955
 20
3.090504588908288
 30
0.0
 10
76.2080898714483
 20
3.081564393423718
 30
0.0
 10
76.21593142795217
 20
3.067679439515471
 30
0.0
 10
76.24000108354049
 20
3.058914908225403
 30
0.0
 10
76.25502062532953
 20
3.055917847907493
 30
0.0
 10
76.27219137890427
 20
3.05399667479287
 30
0.0
 10
76.29125025380031
 20
3.052958815471924
 30
0.0
  0
ARC
  5
5A7
102
{ACAD_REACTORS
330
AC2
102
}
330
A
100
AcDbEntity
  8
1
100
AcDbCircle
 10
76.57369499999998
 20
2.754448000000023
 30
0.0
 40
0.500141
100
AcDbArc
 50
119.9867950000001
 51
134.5508299999989
  0
LINE
  5
5A8
102
{ACAD_REACTORS
330
AC2
102
}
330
A
100
AcDbEntity
  8
1
 48
0.197099
100
AcDbLine
 10
75.02511000000001
 20
3.699999999999988
 30
0.0
 11
67.141154
 21
3.699999999999988
 31
0.0
  0
LINE
  5
5A9
102
{ACAD_REACTORS
330
AC2
102
}
330
A
100
AcDbEntity
  8
1
 48
0.197099
100
AcDbLine
 10
75.02511000000001
 20
-3.700000000000101
 30
0.0
 11
67.141154
 21
-3.700000000000101
 31
0.0
  0
LINE
  5
5AA
102
{ACAD_REACTORS
330
AC2
102
}
330
A
100
AcDbEntity
  8
1
 48
0.011936
100
AcDbLine
 10
9.999999999999991
 20
-3.422572000000001
 30
0.0
 11
9.999999999999991
 21
-3.899999999999976
 31
0.0
  0
LINE
  5
5AB
102
{ACAD_REACTORS
330
AC2
102
}
330
A
100
AcDbEntity
  8
1
 48
0.015302
100
AcDbLine
 10
8.9
 20
-4.387913000000025
 30
0.0
 11
8.9
 21
-5.0
 31
0.0
  0
LINE
  5
5AC
102
{ACAD_REACTORS
330
AC2
102
}
330
A
100
AcDbEntity
  8
1
 48
0.013782
100
AcDbLine
 10
67.26585699999998
 20
-3.422572000000001
 30
0.0
 11
66.99021400000001
 21
-3.899999999999976
 31
0.0
  0
LINE
  5
5AD
102
{ACAD_REACTORS
330
AC2
102
}
330
A
100
AcDbEntity
  8
1
 48
0.183064
100
AcDbLine
 10
9.999999999999991
 20
3.899999999999976
 30
0.0
 11
9.999999999999991
 21
-3.422572000000001
 31
0.0
  0
LINE
  5
5AE
102
{ACAD_REACTORS
330
AC2
102
}
330
A
100
AcDbEntity
  8
1
 48
0.234698
100
AcDbLine
 10
8.9
 20
4.999999999999886
 30
0.0
 11
8.9
 21
-4.387913000000025
 31
0.0
  0
LINE
  5
5AF
102
{ACAD_REACTORS
330
AC2
102
}
330
A
100
AcDbEntity
  8
1
 48
0.089489
100
AcDbLine
 10
66.99021400000001
 20
3.899999999999976
 30
0.0
 11
68.78
 21
0.7999999999999547
 31
0.0
  0
LINE
  5
5B0
102
{ACAD_REACTORS
330
AC2
102
}
330
A
100
AcDbEntity
  8
1
 48
0.028
100
AcDbLine
 10
69.89999999999999
 20
0.7999999999999547
 30
0.0
 11
68.78
 21
0.7999999999999547
 31
0.0
  0
LINE
  5
5B1
102
{ACAD_REACTORS
330
AC2
102
}
330
A
100
AcDbEntity
  8
1
 48
0.04
100
AcDbLine
 10
69.89999999999999
 20
-0.8000000000000111
 30
0.0
 11
69.89999999999999
 21
0.7999999999999547
 31
0.0
  0
LINE
  5
5B2
102
{ACAD_REACTORS
330
AC2
102
}
330
A
100
AcDbEntity
  8
1
 48
0.028
100
AcDbLine
 10
68.78
 20
-0.8000000000000111
 30
0.0
 11
69.89999999999999
 21
-0.8000000000000111
 31
0.0
  0
LINE
  5
5B3
102
{ACAD_REACTORS
330
AC2
102
}
330
A
100
AcDbEntity
  8
1
 48
0.075707
100
AcDbLine
 10
67.26585699999998
 20
-3.422572000000001
 30
0.0
 11
68.78
 21
-0.8000000000000111
 31
0.0
  0
LINE
  5
5B4
102
{ACAD_REACTORS
330
A8D
102
}
330
A
100
AcDbEntity
  8
SK1
 48
0.013772
100
AcDbLine
 10
-56.1
 20
-3.949122000000101
 30
0.0
 11
-56.1
 21
-4.5
 31
0.0
  0
LINE
  5
5B5
102
{ACAD_REACTORS
330
A8D
102
}
330
A
100
AcDbEntity
  8
SK1
 48
0.211228
100
AcDbLine
 10
-56.1
 20
4.499999999999971
 30
0.0
 11
-56.1
 21
-3.949122000000101
 31
0.0
  0
LINE
  5
5B6
102
{ACAD_REACTORS
330
AC2
102
}
330
A
100
AcDbEntity
  8
1
 48
0.038891
100
AcDbLine
 10
9.999999999999991
 20
-3.899999999999976
 30
0.0
 11
8.9
 21
-5.0
 31
0.0
  0
LINE
  5
5B7
102
{ACAD_REACTORS
330
AC2
102
}
330
A
100
AcDbEntity
  8
1
100
AcDbLine
 10
66.99021400000001
 20
-3.899999999999976
 30
0.0
 11
9.999999999999991
 21
-3.899999999999976
 31
0.0
  0
LINE
  5
5B8
102
{ACAD_REACTORS
330
AC2
102
}
330
A
100
AcDbEntity
  8
1
 48
0.038891
100
AcDbLine
 10
9.999999999999991
 20
3.899999999999976
 30
0.0
 11
8.9
 21
4.999999999999886
 31
0.0
  0
LINE
  5
5B9
102
{ACAD_REACTORS
330
AC2
102
}
330
A
100
AcDbEntity
  8
1
100
AcDbLine
 10
66.99021400000001
 20
3.899999999999976
 30
0.0
 11
9.999999999999991
 21
3.899999999999976
 31
0.0
  0
LINE
  5
5BA
102
{ACAD_REACTORS
330
AC2
102
}
330
A
100
AcDbEntity
  8
1
100
AcDbLine
 10
8.9
 20
-5.0
 30
0.0
 11
0.0
 21
-5.0
 31
0.0
  0
LINE
  5
5BB
102
{ACAD_REACTORS
330
AC2
102
}
330
A
100
AcDbEntity
  8
1
100
AcDbLine
 10
8.9
 20
4.999999999999886
 30
0.0
 11
0.0
 21
4.999999999999886
 31
0.0
  0
ARC
  5
5BC
102
{ACAD_REACTORS
330
A8D
102
}
330
A
100
AcDbEntity
  8
SK1
100
AcDbCircle
 10
-55.6
 20
-4.5
 30
0.0
 40
0.5
100
AcDbArc
 50
180.0
 51
270.0
  0
ARC
  5
5BD
102
{ACAD_REACTORS
330
A8D
102
}
330
A
100
AcDbEntity
  8
SK1
100
AcDbCircle
 10
-55.6
 20
4.499999999999971
 30
0.0
 40
0.5
100
AcDbArc
 50
90.0
 51
180.0
  0
ARC
  5
5BE
102
{ACAD_REACTORS
330
AC1
102
}
330
A
100
AcDbEntity
  8
1
100
AcDbCircle
 10
79.34999999999998
 20
-1.003742999999984
 30
0.0
 40
0.15
100
AcDbArc
 50
114.1477399999998
 51
180.0
  0
ARC
  5
5BF
102
{ACAD_REACTORS
330
AC1
102
}
330
A
100
AcDbEntity
  8
1
100
AcDbCircle
 10
78.9
 20
0.0000009999999975
 30
0.0
 40
0.9500009999999999
100
AcDbArc
 50
245.852321
 51
294.1477280000001
  0
LINE
  5
5C0
102
{ACAD_REACTORS
330
AC1
102
}
330
A
100
AcDbEntity
  8
1
100
AcDbLine
 10
79.19999999999998
 20
-1.076580000000034
 30
0.0
 11
79.19999999999998
 21
-1.003742999999984
 31
0.0
  0
CIRCLE
  5
5C1
102
{ACAD_REACTORS
330
AC1
102
}
330
A
100
AcDbEntity
  8
1
100
AcDbCircle
 10
78.9
 20
0.0
 30
0.0
 40
1.3
  0
LINE
  5
5C2
102
{ACAD_REACTORS
330
AC1
102
}
330
A
100
AcDbEntity
  8
1
100
AcDbLine
 10
79.61926700000002
 20
-0.761679000000072
 30
0.0
 11
79.68234599999998
 21
-0.7980979999999818
 31
0.0
  0
ARC
  5
5C3
102
{ACAD_REACTORS
330
AC1
102
}
330
A
100
AcDbEntity
  8
1
100
AcDbCircle
 10
79.73234600000002
 20
-0.7114950000000137
 30
0.0
 40
0.1
100
AcDbArc
 50
240.0000000000002
 51
319.4759400000007
  0
ARC
  5
5C4
102
{ACAD_REACTORS
330
AC1
102
}
330
A
100
AcDbEntity
  8
1
100
AcDbCircle
 10
78.9
 20
0.0
 30
0.0
 40
1.195
100
AcDbArc
 50
319.4759400000007
 51
340.5240599999997
  0
ARC
  5
5C5
102
{ACAD_REACTORS
330
AC1
102
}
330
A
100
AcDbEntity
  8
1
100
AcDbCircle
 10
79.932346
 20
-0.3650850000000219
 30
0.0
 40
0.1
100
AcDbArc
 50
340.5240599999997
 51
60.00000000000071
  0
LINE
  5
5C6
102
{ACAD_REACTORS
330
AC1
102
}
330
A
100
AcDbEntity
  8
1
100
AcDbLine
 10
79.98234599999998
 20
-0.2784819999999968
 30
0.0
 11
79.91926699999997
 21
-0.2420640000000276
 31
0.0
  0
ARC
  5
5C7
102
{ACAD_REACTORS
330
AC1
102
}
330
A
100
AcDbEntity
  8
1
100
AcDbCircle
 10
79.994267
 20
-0.1121600000000171
 30
0.0
 40
0.15
100
AcDbArc
 50
174.14774
 51
240.0000000000002
  0
ARC
  5
5C8
102
{ACAD_REACTORS
330
AC1
102
}
330
A
100
AcDbEntity
  8
1
100
AcDbCircle
 10
78.9
 20
0.0
 30
0.0
 40
0.95
100
AcDbArc
 50
354.14774
 51
5.852259999999975
  0
ARC
  5
5C9
102
{ACAD_REACTORS
330
AC1
102
}
330
A
100
AcDbEntity
  8
1
100
AcDbCircle
 10
79.994267
 20
0.1121600000000171
 30
0.0
 40
0.15
100
AcDbArc
 50
119.9999999999992
 51
185.8522599999999
  0
LINE
  5
5CA
102
{ACAD_REACTORS
330
AC1
102
}
330
A
100
AcDbEntity
  8
1
100
AcDbLine
 10
79.91926699999997
 20
0.2420640000000276
 30
0.0
 11
79.98234599999998
 21
0.2784819999999968
 31
0.0
  0
ARC
  5
5CB
102
{ACAD_REACTORS
330
AC1
102
}
330
A
100
AcDbEntity
  8
1
100
AcDbCircle
 10
79.932346
 20
0.3650850000000219
 30
0.0
 40
0.1
100
AcDbArc
 50
299.9999999999992
 51
19.47594000000029
  0
ARC
  5
5CC
102
{ACAD_REACTORS
330
AC1
102
}
330
A
100
AcDbEntity
  8
1
100
AcDbCircle
 10
78.9
 20
0.0
 30
0.0
 40
1.195
100
AcDbArc
 50
19.47594000000029
 51
40.52405999999932
  0
ARC
  5
5CD
102
{ACAD_REACTORS
330
AC1
102
}
330
A
100
AcDbEntity
  8
1
100
AcDbCircle
 10
79.73234600000002
 20
0.7114950000000137
 30
0.0
 40
0.1
100
AcDbArc
 50
40.52405999999932
 51
119.9999999999992
  0
LINE
  5
5CE
102
{ACAD_REACTORS
330
AC1
102
}
330
A
100
AcDbEntity
  8
1
100
AcDbLine
 10
79.68234599999998
 20
0.7980979999999818
 30
0.0
 11
79.61926700000002
 21
0.7616789999999583
 31
0.0
  0
ARC
  5
5CF
102
{ACAD_REACTORS
330
AC1
102
}
330
A
100
AcDbEntity
  8
1
100
AcDbCircle
 10
79.54426699999998
 20
0.8915829999999687
 30
0.0
 40
0.15
100
AcDbArc
 50
234.1477400000003
 51
299.9999999999992
  0
ARC
  5
5D0
102
{ACAD_REACTORS
330
AC1
102
}
330
A
100
AcDbEntity
  8
1
100
AcDbCircle
 10
78.9
 20
0.0
 30
0.0
 40
0.95
100
AcDbArc
 50
54.14774000000031
 51
65.8522600000001
  0
ARC
  5
5D1
102
{ACAD_REACTORS
330
AC1
102
}
330
A
100
AcDbEntity
  8
1
100
AcDbCircle
 10
79.34999999999998
 20
1.003742999999984
 30
0.0
 40
0.15
100
AcDbArc
 50
180.0
 51
245.8522600000001
  0
LINE
  5
5D2
102
{ACAD_REACTORS
330
AC1
102
}
330
A
100
AcDbEntity
  8
1
100
AcDbLine
 10
79.19999999999998
 20
1.003742999999984
 30
0.0
 11
79.19999999999998
 21
1.076579999999978
 31
0.0
  0
ARC
  5
5D3
102
{ACAD_REACTORS
330
AC1
102
}
330
A
100
AcDbEntity
  8
1
100
AcDbCircle
 10
79.1
 20
1.076579999999978
 30
0.0
 40
0.1
100
AcDbArc
 50
0.0
 51
79.47594000000008
  0
ARC
  5
5D4
102
{ACAD_REACTORS
330
AC1
102
}
330
A
100
AcDbEntity
  8
1
100
AcDbCircle
 10
78.9
 20
0.0
 30
0.0
 40
1.195
100
AcDbArc
 50
79.47594000000008
 51
100.5240599999999
  0
ARC
  5
5D5
102
{ACAD_REACTORS
330
AC1
102
}
330
A
100
AcDbEntity
  8
1
100
AcDbCircle
 10
78.69999999999997
 20
1.076579999999978
 30
0.0
 40
0.1
100
AcDbArc
 50
100.5240599999999
 51
180.0
  0
LINE
  5
5D6
102
{ACAD_REACTORS
330
AC1
102
}
330
A
100
AcDbEntity
  8
1
100
AcDbLine
 10
78.59999999999998
 20
1.076579999999978
 30
0.0
 11
78.59999999999998
 21
1.003742999999984
 31
0.0
  0
ARC
  5
5D7
102
{ACAD_REACTORS
330
AC1
102
}
330
A
100
AcDbEntity
  8
1
100
AcDbCircle
 10
78.44999999999997
 20
1.003742999999984
 30
0.0
 40
0.15
100
AcDbArc
 50
294.1477399999999
 51
0.0
  0
ARC
  5
5D8
102
{ACAD_REACTORS
330
AC1
102
}
330
A
100
AcDbEntity
  8
1
100
AcDbCircle
 10
78.9
 20
0.0
 30
0.0
 40
0.95
100
AcDbArc
 50
114.1477399999998
 51
125.8522599999997
  0
ARC
  5
5D9
102
{ACAD_REACTORS
330
AC1
102
}
330
A
100
AcDbEntity
  8
1
100
AcDbCircle
 10
78.25573299999998
 20
0.8915829999999687
 30
0.0
 40
0.15
100
AcDbArc
 50
240.0000000000002
 51
305.8522599999997
  0
LINE
  5
5DA
102
{ACAD_REACTORS
330
AC1
102
}
330
A
100
AcDbEntity
  8
1
100
AcDbLine
 10
78.18073299999998
 20
0.7616789999999583
 30
0.0
 11
78.11765399999998
 21
0.7980979999999818
 31
0.0
  0
ARC
  5
5DB
102
{ACAD_REACTORS
330
AC1
102
}
330
A
100
AcDbEntity
  8
1
100
AcDbCircle
 10
78.067654
 20
0.7114950000000137
 30
0.0
 40
0.1
100
AcDbArc
 50
60.00000000000071
 51
139.4759400000007
  0
ARC
  5
5DC
102
{ACAD_REACTORS
330
AC1
102
}
330
A
100
AcDbEntity
  8
1
100
AcDbCircle
 10
78.9
 20
0.0
 30
0.0
 40
1.195
100
AcDbArc
 50
139.4759400000007
 51
160.5240599999997
  0
ARC
  5
5DD
102
{ACAD_REACTORS
330
AC1
102
}
330
A
100
AcDbEntity
  8
1
100
AcDbCircle
 10
77.86765399999999
 20
0.3650850000000219
 30
0.0
 40
0.1
100
AcDbArc
 50
160.5240599999997
 51
240.0000000000002
  0
LINE
  5
5DE
102
{ACAD_REACTORS
330
AC1
102
}
330
A
100
AcDbEntity
  8
1
100
AcDbLine
 10
77.81765399999997
 20
0.2784819999999968
 30
0.0
 11
77.88073299999997
 21
0.2420640000000276
 31
0.0
  0
ARC
  5
5DF
102
{ACAD_REACTORS
330
AC1
102
}
330
A
100
AcDbEntity
  8
1
100
AcDbCircle
 10
77.80573299999997
 20
0.1121600000000171
 30
0.0
 40
0.15
100
AcDbArc
 50
354.14774
 51
60.00000000000071
  0
ARC
  5
5E0
102
{ACAD_REACTORS
330
AC1
102
}
330
A
100
AcDbEntity
  8
1
100
AcDbCircle
 10
78.9
 20
0.0
 30
0.0
 40
0.95
100
AcDbArc
 50
174.14774
 51
185.8522599999999
  0
ARC
  5
5E1
102
{ACAD_REACTORS
330
AC1
102
}
330
A
100
AcDbEntity
  8
1
100
AcDbCircle
 10
77.80573299999997
 20
-0.1121600000000171
 30
0.0
 40
0.15
100
AcDbArc
 50
299.9999999999992
 51
5.852259999999975
  0
LINE
  5
5E2
102
{ACAD_REACTORS
330
AC1
102
}
330
A
100
AcDbEntity
  8
1
100
AcDbLine
 10
77.88073299999997
 20
-0.2420640000000276
 30
0.0
 11
77.81765399999997
 21
-0.2784819999999968
 31
0.0
  0
ARC
  5
5E3
102
{ACAD_REACTORS
330
AC1
102
}
330
A
100
AcDbEntity
  8
1
100
AcDbCircle
 10
77.86765399999999
 20
-0.3650850000000219
 30
0.0
 40
0.1
100
AcDbArc
 50
119.9999999999992
 51
199.4759400000003
  0
ARC
  5
5E4
102
{ACAD_REACTORS
330
AC1
102
}
330
A
100
AcDbEntity
  8
1
100
AcDbCircle
 10
78.9
 20
0.0
 30
0.0
 40
1.195
100
AcDbArc
 50
199.4759400000003
 51
220.5240599999993
  0
ARC
  5
5E5
102
{ACAD_REACTORS
330
AC1
102
}
330
A
100
AcDbEntity
  8
1
100
AcDbCircle
 10
78.067654
 20
-0.7114950000000137
 30
0.0
 40
0.1
100
AcDbArc
 50
220.5240599999993
 51
299.9999999999992
  0
LINE
  5
5E6
102
{ACAD_REACTORS
330
AC1
102
}
330
A
100
AcDbEntity
  8
1
100
AcDbLine
 10
78.11765399999998
 20
-0.7980979999999818
 30
0.0
 11
78.18073299999998
 21
-0.761679000000072
 31
0.0
  0
ARC
  5
5E7
102
{ACAD_REACTORS
330
AC1
102
}
330
A
100
AcDbEntity
  8
1
100
AcDbCircle
 10
78.25573299999998
 20
-0.8915829999999687
 30
0.0
 40
0.15
100
AcDbArc
 50
54.14774000000031
 51
119.9999999999992
  0
ARC
  5
5E8
102
{ACAD_REACTORS
330
AC1
102
}
330
A
100
AcDbEntity
  8
1
100
AcDbCircle
 10
78.9
 20
0.0
 30
0.0
 40
0.95
100
AcDbArc
 50
234.1477400000003
 51
245.8522600000001
  0
ARC
  5
5E9
102
{ACAD_REACTORS
330
AC1
102
}
330
A
100
AcDbEntity
  8
1
100
AcDbCircle
 10
78.44999999999997
 20
-1.003742999999984
 30
0.0
 40
0.15
100
AcDbArc
 50
0.0
 51
65.8522600000001
  0
LINE
  5
5EA
102
{ACAD_REACTORS
330
AC1
102
}
330
A
100
AcDbEntity
  8
1
100
AcDbLine
 10
78.59999999999998
 20
-1.003742999999984
 30
0.0
 11
78.59999999999998
 21
-1.076580000000034
 31
0.0
  0
ARC
  5
5EB
102
{ACAD_REACTORS
330
AC1
102
}
330
A
100
AcDbEntity
  8
1
100
AcDbCircle
 10
78.69999999999997
 20
-1.076580000000034
 30
0.0
 40
0.1
100
AcDbArc
 50
180.0
 51
259.47594
  0
ARC
  5
5EC
102
{ACAD_REACTORS
330
AC1
102
}
330
A
100
AcDbEntity
  8
1
100
AcDbCircle
 10
78.9
 20
0.0
 30
0.0
 40
1.195
100
AcDbArc
 50
259.47594
 51
280.52406
  0
ARC
  5
5ED
102
{ACAD_REACTORS
330
AC1
102
}
330
A
100
AcDbEntity
  8
1
100
AcDbCircle
 10
79.1
 20
-1.076580000000034
 30
0.0
 40
0.1
100
AcDbArc
 50
280.52406
 51
0.0
  0
ARC
  5
5EE
102
{ACAD_REACTORS
330
AC1
102
}
330
A
100
AcDbEntity
  8
1
100
AcDbCircle
 10
78.9
 20
0.0
 30
0.0
 40
0.95
100
AcDbArc
 50
294.1477399999999
 51
305.8522599999997
  0
ARC
  5
5EF
102
{ACAD_REACTORS
330
AC1
102
}
330
A
100
AcDbEntity
  8
1
100
AcDbCircle
 10
79.54426699999998
 20
-0.8915829999999687
 30
0.0
 40
0.15
100
AcDbArc
 50
60.00000000000071
 51
125.8522599999997
  0
CIRCLE
  5
5F0
102
{ACAD_REACTORS
330
AC1
102
}
330
A
100
AcDbEntity
  8
1
100
AcDbCircle
 10
78.9
 20
0.0
 30
0.0
 40
1.85
  0
ARC
  5
5F1
102
{ACAD_REACTORS
330
AC1
102
}
330
A
100
AcDbEntity
  8
1
100
AcDbCircle
 10
78.900002
 20
-0.0000009999999975
 30
0.0
 40
0.949998
100
AcDbArc
 50
305.8521799999989
 51
354.1477609999998
  0
ARC
  5
5F2
102
{ACAD_REACTORS
330
AC1
102
}
330
A
100
AcDbEntity
  8
1
100
AcDbCircle
 10
78.89999399999997
 20
-0.000001999999995
 30
0.0
 40
0.9499929999999999
100
AcDbArc
 50
185.8521609999997
 51
234.1470119999996
  0
ARC
  5
5F3
102
{ACAD_REACTORS
330
AC1
102
}
330
A
100
AcDbEntity
  8
1
100
AcDbCircle
 10
78.89999800000002
 20
0.0000009999999975
 30
0.0
 40
0.949998
100
AcDbArc
 50
125.852179999999
 51
174.1477609999999
  0
ARC
  5
5F4
102
{ACAD_REACTORS
330
AC1
102
}
330
A
100
AcDbEntity
  8
1
100
AcDbCircle
 10
78.9
 20
-0.0000009999999975
 30
0.0
 40
0.9500009999999999
100
AcDbArc
 50
65.85232099999989
 51
114.1477280000003
  0
ARC
  5
5F5
102
{ACAD_REACTORS
330
AC1
102
}
330
A
100
AcDbEntity
  8
1
100
AcDbCircle
 10
78.90000599999997
 20
0.000001999999995
 30
0.0
 40
0.9499929999999999
100
AcDbArc
 50
5.852160999999717
 51
54.1470119999996
  0
LINE
  5
A8B
102
{ACAD_REACTORS
330
A8D
102
}
330
A
100
AcDbEntity
  8
SK1
100
AcDbLine
 10
0.0
 20
4.999999999999886
 30
0.0
 11
-55.6
 21
4.999999999999886
 31
0.0
  0
LINE
  5
A8C
102
{ACAD_REACTORS
330
A8D
102
}
330
A
100
AcDbEntity
  8
SK1
100
AcDbLine
 10
0.0
 20
-5.0
 30
0.0
 11
-55.6
 21
-5.0
 31
0.0
  0
LINE
  5
A8E
102
{ACAD_REACTORS
330
A94
102
}
330
A
100
AcDbEntity
  8
4
100
AcDbLine
 10
0.0
 20
0.0
 30
0.0
 11
84.883319
 21
0.0
 31
0.0
  0
LINE
  5
A90
102
{ACAD_REACTORS
330
A94
102
}
330
A
100
AcDbEntity
  8
4
100
AcDbLine
 10
81.30499999999997
 20
0.0
 30
0.0
 11
76.495
 21
0.0
 31
0.0
  0
LINE
  5
A91
102
{ACAD_REACTORS
330
A94
102
}
330
A
100
AcDbEntity
  8
4
100
AcDbLine
 10
78.9
 20
2.404999999999998
 30
0.0
 11
78.9
 21
-2.404999999999998
 31
0.0
  0
LINE
  5
1042
102
{ACAD_REACTORS
330
104B
102
}
330
A
100
AcDbEntity
  8
NOCUT
100
AcDbLine
 10
0.0
 20
4.999999999999886
 30
0.0
 11
0.0
 21
0.0
 31
0.0
  0
LINE
  5
1043
102
{ACAD_REACTORS
330
104B
102
}
330
A
100
AcDbEntity
  8
NOCUT
100
AcDbLine
 10
0.0
 20
0.0
 30
0.0
 11
83.42318899999998
 21
0.0
 31
0.0
  0
LINE
  5
1044
102
{ACAD_REACTORS
330
104B
102
}
330
A
100
AcDbEntity
  8
NOCUT
100
AcDbLine
 10
83.42318899999998
 20
0.0
 30
0.0
 11
83.42318899999998
 21
0.7500009801855812
 31
0.0
  0
ARC
  5
1045
102
{ACAD_REACTORS
330
104B
102
}
330
A
100
AcDbEntity
  8
NOCUT
100
AcDbCircle
 10
79.80000000000003
 20
-0.0000000000000133
 30
0.0
 40
3.700000000000001
100
AcDbArc
 50
11.69506590287825
 51
90.0
  0
LINE
  5
1046
102
{ACAD_REACTORS
330
104B
102
}
330
A
100
AcDbEntity
  8
NOCUT
100
AcDbLine
 10
79.80000000000003
 20
3.699999999999986
 30
0.0
 11
67.1056840645162
 21
3.699999999999988
 31
0.0
  0
LINE
  5
1047
102
{ACAD_REACTORS
330
104B
102
}
330
A
100
AcDbEntity
  8
NOCUT
100
AcDbLine
 10
67.1056840645162
 20
3.699999999999988
 30
0.0
 11
66.99021400000001
 21
3.900000000000004
 31
0.0
  0
LINE
  5
1048
102
{ACAD_REACTORS
330
104B
102
}
330
A
100
AcDbEntity
  8
NOCUT
100
AcDbLine
 10
66.99021400000001
 20
3.900000000000004
 30
0.0
 11
9.999999999999994
 21
3.900000000000004
 31
0.0
  0
LINE
  5
1049
102
{ACAD_REACTORS
330
104B
102
}
330
A
100
AcDbEntity
  8
NOCUT
100
AcDbLine
 10
9.999999999999994
 20
3.900000000000004
 30
0.0
 11
8.900000000000002
 21
4.999999999999886
 31
0.0
  0
LINE
  5
104A
102
{ACAD_REACTORS
330
104B
102
}
330
A
100
AcDbEntity
  8
NOCUT
100
AcDbLine
 10
8.900000000000002
 20
4.999999999999886
 30
0.0
 11
0.0
 21
4.999999999999886
 31
0.0
  0
LINE
  5
1069
102
{ACAD_REACTORS
330
106D
102
}
330
A
100
AcDbEntity
  8
CUT
100
AcDbLine
 10
77.0
 20
3.717236000000098
 30
0.0
 11
77.0
 21
0.0
 31
0.0
  0
LINE
  5
106A
102
{ACAD_REACTORS
330
106D
102
}
330
A
100
AcDbEntity
  8
CUT
100
AcDbLine
 10
77.0
 20
0.0
 30
0.0
 11
83.89999999999998
 21
-0.0000000000000012
 31
0.0
  0
ARC
  5
106B
102
{ACAD_REACTORS
330
106D
102
}
330
A
100
AcDbEntity
  8
CUT
100
AcDbCircle
 10
79.89999978420197
 20
0.0000051942985104
 30
0.0
 40
4.000000215801382
100
AcDbArc
 50
359.9999255971584
 51
96.00000616393952
  0
LINE
  5
106C
102
{ACAD_REACTORS
330
106D
102
}
330
A
100
AcDbEntity
  8
CUT
100
AcDbLine
 10
79.48188548060716
 20
3.978092945409668
 30
0.0
 11
77.0
 21
3.717236000000098
 31
0.0
  0
TEXT
  5
125F
330
A
100
AcDbEntity
  8
SK6
100
AcDbText
 10
-28.76022025500614
 20
-25.25578249593595
 30
0.0
 40
3.5
  1
12A5R008075T1R00
100
AcDbText
1001
ACAD
1000
MTEXTBEGIN
1070
    73
1070
     1
1070
    44
1040
1.0
1070
    74
1070
     0
1000
MTEXTEND
  0
VIEWPORT
  5
39
102
{ACAD_XDICTIONARY
360
130A
102
}
330
B
100
AcDbEntity
 67
     1
  8
0
 62
     0
370
     0
100
AcDbViewport
 10
0.0
 20
0.0
 30
0.0
 40
1000.0
 41
1000.0
 68
     1
 69
     1
 12
0.0
 22
0.0
 13
0.0
 23
0.0
 14
1.0
 24
1.0
 15
1.0
 25
1.0
 16
0.0
 26
0.0
 36
1.0
 17
0.0
 27
0.0
 37
0.0
 42
50.0
 43
0.0
 44
0.0
 45
1000.0
 50
0.0
 51
0.0
 72
   100
 90
        0
  1

281
     0
 71
     0
 74
     1
110
0.0
120
0.0
130
0.0
111
1.0
121
0.0
131
0.0
112
0.0
122
1.0
132
0.0
 79
     0
146
0.0
  0
ENDSEC
  0
SECTION
  2
OBJECTS
  0
DICTIONARY
  5
19
330
0
100
AcDbDictionary
281
     1
  3
ACAD_2007HEADERVARS_RT
350
1303
  3
ACAD_CIP_PREVIOUS_PRODUCT_INFO
350
125D
  3
ACAD_COLOR
350
15C
  3
ACAD_DETAILVIEWSTYLE
350
1210
  3
ACAD_GROUP
350
1A
  3
ACAD_LAYOUT
350
1E
  3
ACAD_MATERIAL
350
15B
  3
ACAD_MLEADERSTYLE
350
E1F
  3
ACAD_MLINESTYLE
350
1B
  3
ACAD_PLOTSETTINGS
350
22
  3
ACAD_PLOTSTYLENAME
350
1F
  3
ACAD_SCALELIST
350
E0D
  3
ACAD_SECTIONVIEWSTYLE
350
120E
  3
ACAD_TABLESTYLE
350
15D
  3
ACAD_VISUALSTYLE
350
DF9
  3
ACAD_WIPEOUT_VARS
350
23
  3
ACDB_RECOMPOSE_DATA
350
1301
  3
AcDbVariableDictionary
350
12F6
  3
ASE_INDEX_DICTIONARY
350
119A
  3
DWGPROPS
350
1302
  0
DICTIONARY
  5
4C9
330
2
100
AcDbDictionary
280
     1
281
     1
  3
ACAD_LAYERFILTERS
360
AC6
  3
ACAD_LAYERSTATES
360
4CA
  3
ACLYDICTIONARY
360
AC5
  0
DICTIONARY
  5
E70
330
14
100
AcDbDictionary
280
     1
281
     1
  3
ADSK_XREC_LAYER_RECONCILED
360
E71
  0
DICTIONARY
  5
48B
330
48A
100
AcDbDictionary
280
     1
281
     1
  3
ADSK_XREC_LAYER_RECONCILED
360
48C
  0
DICTIONARY
  5
48E
330
48D
100
AcDbDictionary
280
     1
281
     1
  3
ADSK_XREC_LAYER_RECONCILED
360
48F
  0
DICTIONARY
  5
491
330
490
100
AcDbDictionary
280
     1
281
     1
  3
ADSK_XREC_LAYER_RECONCILED
360
492
  0
DICTIONARY
  5
497
330
496
100
AcDbDictionary
280
     1
281
     1
  3
ADSK_XREC_LAYER_RECONCILED
360
498
  0
DICTIONARY
  5
49A
330
499
100
AcDbDictionary
280
     1
281
     1
  3
ADSK_XREC_LAYER_RECONCILED
360
49B
  0
DICTIONARY
  5
49D
330
49C
100
AcDbDictionary
280
     1
281
     1
  3
ADSK_XREC_LAYER_RECONCILED
360
49E
  0
DICTIONARY
  5
4A1
330
4A0
100
AcDbDictionary
280
     1
281
     1
  3
ADSK_XREC_LAYER_RECONCILED
360
4A2
  0
DICTIONARY
  5
4A4
330
4A3
100
AcDbDictionary
280
     1
281
     1
  3
ADSK_XREC_LAYER_RECONCILED
360
4A5
  0
DICTIONARY
  5
4A7
330
4A6
100
AcDbDictionary
280
     1
281
     1
  3
ADSK_XREC_LAYER_RECONCILED
360
4A8
  0
DICTIONARY
  5
E72
330
4AA
100
AcDbDictionary
280
     1
281
     1
  3
ADSK_XREC_LAYER_RECONCILED
360
E73
  0
DICTIONARY
  5
548
330
A
100
AcDbDictionary
280
     1
281
     1
  3
ACAD_SORTENTS
360
549
  0
DICTIONARY
  5
130A
330
39
100
AcDbDictionary
280
     1
281
     1
  3
ACAD_XREC_ROUNDTRIP
360
130B
  0
DICTIONARY
  5
1303
102
{ACAD_REACTORS
330
19
102
}
330
19
100
AcDbDictionary
281
     1
  3
DIMFXL
350
1304
  3
DIMJOGANG
350
1305
  0
XRECORD
  5
125D
102
{ACAD_REACTORS
330
19
102
}
330
19
100
AcDbXrecord
280
     1
300
ACDLT
300
2015
300
ACDLT_F_S
  0
DICTIONARY
  5
15C
102
{ACAD_REACTORS
330
19
102
}
330
19
100
AcDbDictionary
281
     1
  0
DICTIONARY
  5
1210
102
{ACAD_REACTORS
330
19
102
}
330
19
100
AcDbDictionary
281
     1
  3
METRIC50
350
1211
  0
DICTIONARY
  5
1A
102
{ACAD_REACTORS
330
19
102
}
330
19
100
AcDbDictionary
281
     1
  3
*A1
350
104B
  3
*A2
350
106D
  3
*A3
350
AC1
  3
*A4
350
AC2
  3
*A5
350
A6E
  3
*A6
350
A81
  3
*A7
350
A8D
  3
*A8
350
A94
  0
DICTIONARY
  5
1E
102
{ACAD_REACTORS
330
19
102
}
330
19
100
AcDbDictionary
281
     1
  3
Layout1
350
21
  3
Model
350
20
  0
DICTIONARY
  5
15B
102
{ACAD_REACTORS
330
19
102
}
330
19
100
AcDbDictionary
281
     1
  3
ByBlock
350
4C0
  3
ByLayer
350
4C3
  3
Global
350
4C6
  0
DICTIONARY
  5
E1F
102
{ACAD_REACTORS
330
19
102
}
330
19
100
AcDbDictionary
281
     1
  3
Standard
350
E20
  0
DICTIONARY
  5
1B
102
{ACAD_REACTORS
330
19
102
}
330
19
100
AcDbDictionary
281
     1
  3
Standard
350
1C
  0
DICTIONARY
  5
22
102
{ACAD_REACTORS
330
19
102
}
330
19
100
AcDbDictionary
281
     1
  0
ACDBDICTIONARYWDFLT
  5
1F
102
{ACAD_REACTORS
330
19
102
}
330
19
100
AcDbDictionary
281
     1
  3
Normal
350
1D
100
AcDbDictionaryWithDefault
340
1D
  0
DICTIONARY
  5
E0D
102
{ACAD_REACTORS
330
19
102
}
330
19
100
AcDbDictionary
281
     1
  3
A0
350
E0E
  3
A1
350
E0F
  3
A2
350
E10
  3
A3
350
E11
  3
A4
350
E12
  3
A5
350
E13
  3
A6
350
E14
  3
A7
350
E15
  3
A8
350
E16
  3
A9
350
E17
  3
B0
350
E18
  3
B1
350
E19
  3
B2
350
E1A
  3
B3
350
E1B
  3
B4
350
E1C
  3
B5
350
E1D
  3
B6
350
E1E
  0
DICTIONARY
  5
120E
102
{ACAD_REACTORS
330
19
102
}
330
19
100
AcDbDictionary
281
     1
  3
METRIC50
350
120F
  0
DICTIONARY
  5
15D
102
{ACAD_REACTORS
330
19
102
}
330
19
100
AcDbDictionary
281
     1
  3
Standard
350
15E
  0
DICTIONARY
  5
DF9
102
{ACAD_REACTORS
330
19
102
}
330
19
100
AcDbDictionary
281
     1
  3
2dWireframe
350
DFF
  3
3D Hidden
350
E01
  3
3dWireframe
350
E00
  3
Basic
350
DFE
  3
Brighten
350
E05
  3
ColorChange
350
E09
  3
Conceptual
350
E02
  3
Dim
350
E04
  3
EdgeColorOff
350
E0C
  3
Facepattern
350
E08
  3
Flat
350
DFA
  3
FlatWithEdges
350
DFB
  3
Gouraud
350
DFC
  3
GouraudWithEdges
350
DFD
  3
Hidden
350
1208
  3
JitterOff
350
E0A
  3
Linepattern
350
E07
  3
OverhangOff
350
E0B
  3
Realistic
350
E03
  3
Shaded
350
120D
  3
Shaded with edges
350
120C
  3
Shades of Gray
350
1209
  3
Sketchy
350
120A
  3
Thicken
350
E06
  3
Wireframe
350
1207
  3
X-Ray
350
120B
  0
WIPEOUTVARIABLES
  5
23
330
19
100
AcDbWipeoutVariables
 70
     1
  0
XRECORD
  5
1301
102
{ACAD_REACTORS
330
19
102
}
330
19
100
AcDbXrecord
280
     1
 90
        1
330
15E
  0
DICTIONARY
  5
12F6
102
{ACAD_REACTORS
330
19
102
}
330
19
100
AcDbDictionary
281
     1
  3
CANNOSCALE
350
12FB
  3
CMLEADERSTYLE
350
12F8
  3
CTABLESTYLE
350
12F7
  3
CVIEWDETAILSTYLE
350
12F9
  3
CVIEWSECTIONSTYLE
350
12FA
  3
DIMASSOC
350
12FF
  3
INDEXCTL
350
12FD
  3
SORTENTS
350
12FC
  3
XCLIPFRAME
350
12FE
  0
DICTIONARY
  5
119A
102
{ACAD_REACTORS
330
19
102
}
330
19
100
AcDbDictionary
281
     1
  3
ASEBlockHierarchyIndexRecord
350
119B
1001
DCO15
1040
1720180018.265
  0
XRECORD
  5
1302
102
{ACAD_REACTORS
330
19
102
}
330
19
100
AcDbXrecord
280
     1
  1
DWGPROPS COOKIE
  2

  3

  4

  6

  7

  8
kamerka
  9

300
=
301
=
302
=
303
=
304
=
305
=
306
=
307
=
308
=
309
=
 40
0.0327535532407408
 41
2455371.277295093
 42
2457338.453569387
  1

 90
        0
  0
DICTIONARY
  5
AC6
102
{ACAD_REACTORS
330
4C9
102
}
330
4C9
100
AcDbDictionary
281
     1
  0
DICTIONARY
  5
4CA
102
{ACAD_REACTORS
330
4C9
102
}
330
4C9
100
AcDbDictionary
281
     1
  3
_LAYISO_STATE
350
104C
1001
AcLayerTools
1000
20
1000
0
  0
DICTIONARY
  5
AC5
102
{ACAD_REACTORS
330
4C9
102
}
330
4C9
100
AcDbDictionary
281
     1
1001
ACAD
1000
<All
  0
XRECORD
  5
E71
102
{ACAD_REACTORS
330
E70
102
}
330
E70
100
AcDbXrecord
280
     1
290
     1
  0
XRECORD
  5
48C
102
{ACAD_REACTORS
330
48B
102
}
330
48B
100
AcDbXrecord
280
     1
290
     1
  0
XRECORD
  5
48F
102
{ACAD_REACTORS
330
48E
102
}
330
48E
100
AcDbXrecord
280
     1
290
     1
  0
XRECORD
  5
492
102
{ACAD_REACTORS
330
491
102
}
330
491
100
AcDbXrecord
280
     1
290
     1
  0
XRECORD
  5
498
102
{ACAD_REACTORS
330
497
102
}
330
497
100
AcDbXrecord
280
     1
290
     1
  0
XRECORD
  5
49B
102
{ACAD_REACTORS
330
49A
102
}
330
49A
100
AcDbXrecord
280
     1
290
     1
  0
XRECORD
  5
49E
102
{ACAD_REACTORS
330
49D
102
}
330
49D
100
AcDbXrecord
280
     1
290
     1
  0
XRECORD
  5
4A2
102
{ACAD_REACTORS
330
4A1
102
}
330
4A1
100
AcDbXrecord
280
     1
290
     1
  0
XRECORD
  5
4A5
102
{ACAD_REACTORS
330
4A4
102
}
330
4A4
100
AcDbXrecord
280
     1
290
     1
  0
XRECORD
  5
4A8
102
{ACAD_REACTORS
330
4A7
102
}
330
4A7
100
AcDbXrecord
280
     1
290
     1
  0
XRECORD
  5
E73
102
{ACAD_REACTORS
330
E72
102
}
330
E72
100
AcDbXrecord
280
     1
290
     1
  0
SORTENTSTABLE
  5
549
102
{ACAD_REACTORS
330
548
102
}
330
548
100
AcDbSortentsTable
330
A
331
55C
  5
55F
331
558
  5
55B
331
554
  5
557
331
593
  5
59C
331
550
  5
553
331
5CD
  5
5D4
331
5C9
  5
5D0
331
5C5
  5
5CC
331
1048
  5
104A
331
5C1
  5
5C8
331
58F
  5
592
331
58B
  5
58E
331
4E8
  5
547
331
587
  5
58A
331
583
  5
586
331
5BD
  5
5C4
331
5B9
  5
5BE
331
A90
  5
54B
331
5F4
  5
A90
331
5F0
  5
602
331
57F
  5
582
331
57B
  5
57E
331
577
  5
57A
331
54C
  5
54F
331
573
  5
576
331
106B
  5
125E
331
5B5
  5
5BA
331
5EC
  5
5F3
331
5B1
  5
5B6
331
5E8
  5
5EF
331
5AD
  5
5B2
331
5E4
  5
5EB
331
5E0
  5
5E7
331
5A9
  5
5AC
331
1047
  5
1049
331
56F
  5
572
331
56B
  5
56E
331
1043
  5
1045
331
4E0
  5
4E2
331
567
  5
56A
331
4DC
  5
4DE
331
563
  5
566
331
5DC
  5
5E3
331
5A5
  5
5A8
331
5A1
  5
5A4
331
5D8
  5
5DF
331
5D4
  5
5DB
331
5D0
  5
5D7
331
55F
  5
562
331
55B
  5
55E
331
557
  5
55A
331
553
  5
556
331
592
  5
595
331
5CC
  5
5D3
331
5C8
  5
5CF
331
5C4
  5
5CB
331
5C0
  5
5C7
331
58E
  5
591
331
58A
  5
58D
331
586
  5
589
331
582
  5
585
331
5BC
  5
5C3
331
5B8
  5
5BD
331
A8C
  5
5C0
331
5F3
  5
60B
331
57E
  5
581
331
57A
  5
57D
331
54F
  5
552
331
576
  5
579
331
54B
  5
54E
331
572
  5
575
331
106A
  5
106C
331
5EF
  5
5FC
331
5B4
  5
5B9
331
5EB
  5
5F2
331
5B0
  5
5B5
331
5E7
  5
5EE
331
5AC
  5
5B1
331
5E3
  5
5EA
331
5A8
  5
5AB
331
1046
  5
1048
331
4E7
  5
4E9
331
56E
  5
571
331
56A
  5
56D
331
1042
  5
1044
331
4DF
  5
4E1
331
566
  5
569
331
4DB
  5
4DD
331
562
  5
565
331
5DF
  5
5E6
331
5A4
  5
5A7
331
5DB
  5
5E2
331
5A0
  5
5A3
331
5D7
  5
5DE
331
5D3
  5
5DA
331
55E
  5
561
331
55A
  5
55D
331
556
  5
559
331
552
  5
555
331
591
  5
594
331
5CF
  5
5D6
331
5CB
  5
5D2
331
5C7
  5
5CE
331
104A
  5
106A
331
5C3
  5
5CA
331
58D
  5
590
331
125F
  5
4DB
331
589
  5
58C
331
585
  5
588
331
581
  5
584
331
5BF
  5
5C6
331
5BB
  5
5C1
331
A8B
  5
5C2
331
5F2
  5
608
331
57D
  5
580
331
579
  5
57C
331
54E
  5
551
331
575
  5
578
331
54A
  5
54D
331
571
  5
574
331
1069
  5
106B
331
5EE
  5
5FA
331
5B7
  5
5BC
331
5B3
  5
5B8
331
5EA
  5
5F1
331
5AF
  5
5B4
331
5E6
  5
5ED
331
5AB
  5
5B0
331
5E2
  5
5E9
331
56D
  5
570
331
1045
  5
1047
331
569
  5
56C
331
4E2
  5
4E8
331
4DE
  5
4E0
331
565
  5
568
331
4DA
  5
4DC
331
561
  5
564
331
5DE
  5
5E5
331
5A7
  5
5AA
331
5A3
  5
5A6
331
5DA
  5
5E1
331
59F
  5
5A2
331
5D6
  5
5DD
331
59B
  5
5A0
331
5D2
  5
5D9
331
55D
  5
560
331
559
  5
55C
331
555
  5
558
331
594
  5
59F
331
551
  5
554
331
590
  5
593
331
5CE
  5
5D5
331
5CA
  5
5D1
331
5C6
  5
5CD
331
1049
  5
1069
331
5C2
  5
5C9
331
58C
  5
58F
331
4E9
  5
54A
331
588
  5
58B
331
584
  5
587
331
580
  5
583
331
5BE
  5
5C5
331
5BA
  5
5BF
331
A91
  5
54C
331
A8E
  5
1043
331
5F5
  5
1042
331
5F1
  5
607
331
57C
  5
57F
331
578
  5
57B
331
54D
  5
550
331
574
  5
577
331
106C
  5
125F
331
570
  5
573
331
5ED
  5
5F4
331
5B6
  5
5BB
331
5B2
  5
5B7
331
5E9
  5
5F0
331
5AE
  5
5B3
331
5E5
  5
5EC
331
5AA
  5
5AF
331
5E1
  5
5E8
331
56C
  5
56F
331
1044
  5
1046
331
4E1
  5
4E7
331
568
  5
56B
331
4DD
  5
4DF
331
564
  5
567
331
560
  5
563
331
5DD
  5
5E4
331
5A6
  5
5A9
331
5A2
  5
5A5
331
5D9
  5
5E0
331
59E
  5
5A1
331
5D5
  5
5DC
331
5D1
  5
5D8
  0
XRECORD
  5
130B
102
{ACAD_REACTORS
330
130A
102
}
330
130A
100
AcDbXrecord
280
     1
102
SHADEPLOT
 70
     0
  0
XRECORD
  5
1304
102
{ACAD_REACTORS
330
1303
102
}
330
1303
100
AcDbXrecord
280
     1
 40
1.25
  0
XRECORD
  5
1305
102
{ACAD_REACTORS
330
1303
102
}
330
1303
100
AcDbXrecord
280
     1
 40
1.570796326794896
  0
ACDBDETAILVIEWSTYLE
  5
1211
102
{ACAD_XDICTIONARY
360
1343
102
}
102
{ACAD_REACTORS
330
1210
102
}
330
1210
100
AcDbModelDocViewStyle
 70
     0
  3
Metric50
290
     0
100
AcDbDetailViewStyle
 70
     0
 71
     0
 90
        3
 71
     1
340
17
 40
5.0
340
0
 40
5.0
300

 40
0.0
280
     1
 71
     2
340
13
 90
       25
 71
     3
340
17
 40
5.0
 90
        0
 40
15.0
 90
        1
300
%<\AcVar ViewDetailId>% (%<\AcVar ViewScale \f "%sn">%)
 71
     4
340
13
 90
       25
340
13
 90
       25
280
     0
  0
GROUP
  5
104B
102
{ACAD_REACTORS
330
1A
102
}
330
1A
100
AcDbGroup
300

 70
     0
 71
     1
340
104A
340
1049
340
1048
340
1047
340
1046
340
1045
340
1044
340
1043
340
1042
  0
GROUP
  5
106D
102
{ACAD_REACTORS
330
1A
102
}
330
1A
100
AcDbGroup
300

 70
     0
 71
     1
340
106C
340
106B
340
106A
340
1069
  0
GROUP
  5
AC1
102
{ACAD_REACTORS
330
1A
102
}
330
1A
100
AcDbGroup
300

 70
     1
 71
     1
340
5F5
340
5F4
340
5F3
340
5F2
340
5F1
340
5F0
340
5EF
340
5EE
340
5ED
340
5EC
340
5EB
340
5EA
340
5E9
340
5E8
340
5E7
340
5E6
340
5E5
340
5E4
340
5E3
340
5E2
340
5E1
340
5E0
340
5DF
340
5DE
340
5DD
340
5DC
340
5DB
340
5DA
340
5D9
340
5D8
340
5D7
340
5D6
340
5D5
340
5D4
340
5D3
340
5D2
340
5D1
340
5D0
340
5CF
340
5CE
340
5CD
340
5CC
340
5CB
340
5CA
340
5C9
340
5C8
340
5C7
340
5C6
340
5C5
340
5C4
340
5C3
340
5C2
340
5C1
340
5C0
340
5BF
340
5BE
340
5A3
340
5A2
340
5A1
340
59B
340
583
340
582
340
581
340
580
340
57F
340
57E
340
57D
340
57C
340
57B
340
57A
340
579
340
578
340
577
340
576
340
575
340
574
340
573
340
572
340
571
340
570
340
56F
340
56E
340
56D
340
56C
340
56B
340
56A
340
569
340
568
340
567
340
566
340
565
340
564
340
563
340
562
340
561
340
560
340
55F
340
55E
340
55D
340
55C
340
55B
340
55A
340
559
340
558
340
557
340
556
340
555
340
554
340
553
340
552
340
551
340
550
340
54F
340
54E
340
54D
340
54C
340
54B
340
54A
340
58A
340
58D
  0
GROUP
  5
AC2
102
{ACAD_REACTORS
330
1A
102
}
330
1A
100
AcDbGroup
300

 70
     1
 71
     1
340
5BB
340
5BA
340
5B9
340
5B8
340
5B7
340
5B6
340
5B3
340
5B2
340
5B1
340
5B0
340
5AF
340
5AE
340
5AD
340
5AC
340
5AB
340
5AA
340
5A9
340
5A8
340
5A7
340
5A6
340
5A5
340
5A4
340
5A0
340
59F
340
59E
340
594
340
593
340
592
340
591
340
590
340
58F
340
58E
340
58C
340
58B
340
589
340
588
340
587
340
586
340
585
340
584
340
4E9
340
4E8
  0
GROUP
  5
A6E
102
{ACAD_REACTORS
330
1A
102
}
330
1A
100
AcDbGroup
300

 70
     1
 71
     1
340
4E0
340
4E1
  0
GROUP
  5
A81
102
{ACAD_REACTORS
330
1A
102
}
330
1A
100
AcDbGroup
300

 70
     1
 71
     1
340
4E2
340
4DF
  0
GROUP
  5
A8D
102
{ACAD_REACTORS
330
1A
102
}
330
1A
100
AcDbGroup
300

 70
     1
 71
     1
340
A8C
340
A8B
340
5BD
340
5BC
340
5B5
340
5B4
  0
GROUP
  5
A94
102
{ACAD_REACTORS
330
1A
102
}
330
1A
100
AcDbGroup
300

 70
     1
 71
     1
340
A8E
340
A90
340
A91
  0
LAYOUT
  5
21
102
{ACAD_XDICTIONARY
360
1308
102
}
102
{ACAD_REACTORS
330
1E
102
}
330
1E
100
AcDbPlotSettings
  1

  2

  4

  6

 40
0.0
 41
0.0
 42
0.0
 43
0.0
 44
0.0
 45
0.0
 46
0.0
 47
0.0
 48
0.0
 49
0.0
140
0.0
141
0.0
142
1.0
143
1.0
 70
     0
 72
     0
 73
     0
 74
     0
  7

 75
     0
147
1.0
148
0.0
149
0.0
100
AcDbLayout
  1
Layout1
 70
     1
 71
     1
 10
0.0
 20
0.0
 11
420.0
 21
297.0
 12
0.0
 22
0.0
 32
0.0
 14
0.0
 24
0.0
 34
0.0
 15
50.009048
 25
10.0
 35
2.0
146
0.0
 13
0.0
 23
0.0
 33
0.0
 16
1.0
 26
0.0
 36
0.0
 17
0.0
 27
1.0
 37
0.0
 76
     0
330
B
331
39
  0
LAYOUT
  5
20
102
{ACAD_XDICTIONARY
360
1306
102
}
102
{ACAD_REACTORS
330
1E
102
}
330
1E
100
AcDbPlotSettings
  1

  2

  4

  6

 40
0.0
 41
0.0
 42
0.0
 43
0.0
 44
0.0
 45
0.0
 46
0.0
 47
0.0
 48
0.0
 49
0.0
140
0.0
141
0.0
142
1.0
143
1.0
 70
  1024
 72
     0
 73
     0
 74
     0
  7

 75
     0
147
1.0
148
0.0
149
0.0
100
AcDbLayout
  1
Model
 70
     0
 71
     0
 10
0.0
 20
0.0
 11
0.0
 21
0.0
 12
0.0
 22
0.0
 32
0.0
 14
0.0
 24
0.0
 34
0.0
 15
0.0
 25
0.0
 35
0.0
146
0.0
 13
0.0
 23
0.0
 33
0.0
 16
0.0
 26
0.0
 36
0.0
 17
0.0
 27
0.0
 37
0.0
 76
     0
330
A
331
DEC
  0
MATERIAL
  5
4C0
102
{ACAD_XDICTIONARY
360
4C1
102
}
102
{ACAD_REACTORS
330
15B
102
}
330
15B
100
AcDbMaterial
  1
ByBlock
  0
MATERIAL
  5
4C3
102
{ACAD_XDICTIONARY
360
4C4
102
}
102
{ACAD_REACTORS
330
15B
102
}
330
15B
100
AcDbMaterial
  1
ByLayer
  0
MATERIAL
  5
4C6
102
{ACAD_XDICTIONARY
360
4C7
102
}
102
{ACAD_REACTORS
330
15B
102
}
330
15B
100
AcDbMaterial
  1
Global
  0
MLEADERSTYLE
  5
E20
102
{ACAD_REACTORS
330
E1F
102
}
330
E1F
100
AcDbMLeaderStyle
170
     2
171
     1
172
     0
 90
        2
 40
0.0
 41
0.0
173
     1
 91
-1056964608
340
11
 92
       -2
290
     1
 42
2.0
291
     1
 43
0.36
  3
Standard
 44
4.0
300

342
17
174
     1
178
     6
175
     1
176
     0
 93
-1056964608
 45
4.0
292
     0
297
     0
 46
4.0
 94
-1056964608
 47
1.0
 49
1.0
140
1.0
293
     1
141
0.0
294
     1
177
     0
142
1.0
295
     0
296
     0
143
0.125
1001
ACAD_MLEADERVER
1070
     2
  0
MLINESTYLE
  5
1C
102
{ACAD_REACTORS
330
1B
102
}
330
1B
100
AcDbMlineStyle
  2
STANDARD
 70
     0
  3

 62
     0
 51
90.0
 52
90.0
 71
     2
 49
0.5
 62
   256
  6
BYLAYER
 49
-0.5
 62
   256
  6
BYLAYER
  0
ACDBPLACEHOLDER
  5
1D
102
{ACAD_REACTORS
330
1F
102
}
330
1F
  0
SCALE
  5
E0E
102
{ACAD_REACTORS
330
E0D
102
}
330
E0D
100
AcDbScale
 70
     0
300
1:1
140
1.0
141
1.0
290
     1
  0
SCALE
  5
E0F
102
{ACAD_REACTORS
330
E0D
102
}
330
E0D
100
AcDbScale
 70
     0
300
1:2
140
1.0
141
2.0
290
     0
  0
SCALE
  5
E10
102
{ACAD_REACTORS
330
E0D
102
}
330
E0D
100
AcDbScale
 70
     0
300
1:4
140
1.0
141
4.0
290
     0
  0
SCALE
  5
E11
102
{ACAD_REACTORS
330
E0D
102
}
330
E0D
100
AcDbScale
 70
     0
300
1:5
140
1.0
141
5.0
290
     0
  0
SCALE
  5
E12
102
{ACAD_REACTORS
330
E0D
102
}
330
E0D
100
AcDbScale
 70
     0
300
1:8
140
1.0
141
8.0
290
     0
  0
SCALE
  5
E13
102
{ACAD_REACTORS
330
E0D
102
}
330
E0D
100
AcDbScale
 70
     0
300
1:10
140
1.0
141
10.0
290
     0
  0
SCALE
  5
E14
102
{ACAD_REACTORS
330
E0D
102
}
330
E0D
100
AcDbScale
 70
     0
300
1:16
140
1.0
141
16.0
290
     0
  0
SCALE
  5
E15
102
{ACAD_REACTORS
330
E0D
102
}
330
E0D
100
AcDbScale
 70
     0
300
1:20
140
1.0
141
20.0
290
     0
  0
SCALE
  5
E16
102
{ACAD_REACTORS
330
E0D
102
}
330
E0D
100
AcDbScale
 70
     0
300
1:30
140
1.0
141
30.0
290
     0
  0
SCALE
  5
E17
102
{ACAD_REACTORS
330
E0D
102
}
330
E0D
100
AcDbScale
 70
     0
300
1:40
140
1.0
141
40.0
290
     0
  0
SCALE
  5
E18
102
{ACAD_REACTORS
330
E0D
102
}
330
E0D
100
AcDbScale
 70
     0
300
1:50
140
1.0
141
50.0
290
     0
  0
SCALE
  5
E19
102
{ACAD_REACTORS
330
E0D
102
}
330
E0D
100
AcDbScale
 70
     0
300
1:100
140
1.0
141
100.0
290
     0
  0
SCALE
  5
E1A
102
{ACAD_REACTORS
330
E0D
102
}
330
E0D
100
AcDbScale
 70
     0
300
2:1
140
2.0
141
1.0
290
     0
  0
SCALE
  5
E1B
102
{ACAD_REACTORS
330
E0D
102
}
330
E0D
100
AcDbScale
 70
     0
300
4:1
140
4.0
141
1.0
290
     0
  0
SCALE
  5
E1C
102
{ACAD_REACTORS
330
E0D
102
}
330
E0D
100
AcDbScale
 70
     0
300
8:1
140
8.0
141
1.0
290
     0
  0
SCALE
  5
E1D
102
{ACAD_REACTORS
330
E0D
102
}
330
E0D
100
AcDbScale
 70
     0
300
10:1
140
10.0
141
1.0
290
     0
  0
SCALE
  5
E1E
102
{ACAD_REACTORS
330
E0D
102
}
330
E0D
100
AcDbScale
 70
     0
300
100:1
140
100.0
141
1.0
290
     0
  0
ACDBSECTIONVIEWSTYLE
  5
120F
102
{ACAD_XDICTIONARY
360
1341
102
}
102
{ACAD_REACTORS
330
120E
102
}
330
120E
100
AcDbModelDocViewStyle
 70
     0
  3
Metric50
290
     0
100
AcDbSectionViewStyle
 70
     0
 71
     0
 90
      102
 71
     1
340
17
 40
5.0
340
0
340
0
 40
5.0
300
I, O, Q, S, X, Z
 40
10.0
 90
        0
 40
2.5
 90
        0
 71
     2
340
13
 90
       25
340
13
 90
       50
 40
5.0
 40
2.5
 40
5.0
 71
     3
340
17
 40
5.0
 90
        0
 40
15.0
 90
        1
300
%<\AcVar ViewSectionStartId>%-%<\AcVar ViewSectionEndId>% (%<\AcVar ViewScale \f "%sn">%)
 71
     4
300
ANSI31
 40
1.0
 90
        0
290
     0
290
     0
 90
        6
 40
0.0
 40
1.570796326794896
 40
0.2617993877991494
 40
1.308996938995747
 40
-0.2617993877991494
 40
1.832595714594045
  0
TABLESTYLE
  5
15E
102
{ACAD_XDICTIONARY
360
E7B
102
}
102
{ACAD_REACTORS
330
15D
102
}
330
15D
100
AcDbTableStyle
  3
Standard
 70
     0
 71
     0
 40
1.5
 41
1.5
280
     0
281
     0
  7
STANDARD
140
4.5
170
     2
 62
     0
 63
     7
283
     0
274
    -2
284
     1
 64
     0
275
    -2
285
     1
 65
     0
276
    -2
286
     1
 66
     0
277
    -2
287
     1
 67
     0
278
    -2
288
     1
 68
     0
279
    -2
289
     1
 69
     0
  7
STANDARD
140
6.0
170
     5
 62
     0
 63
     7
283
     0
274
    -2
284
     1
 64
     0
275
    -2
285
     1
 65
     0
276
    -2
286
     1
 66
     0
277
    -2
287
     1
 67
     0
278
    -2
288
     1
 68
     0
279
    -2
289
     1
 69
     0
  7
STANDARD
140
4.5
170
     5
 62
     0
 63
     7
283
     0
274
    -2
284
     1
 64
     0
275
    -2
285
     1
 65
     0
276
    -2
286
     1
 66
     0
277
    -2
287
     1
 67
     0
278
    -2
288
     1
 68
     0
279
    -2
289
     1
 69
     0
  0
VISUALSTYLE
  5
DFF
102
{ACAD_XDICTIONARY
360
1317
102
}
102
{ACAD_REACTORS
330
DF9
102
}
330
DF9
100
AcDbVisualStyle
  2

 70
     4
 71
     0
 72
     2
 73
     0
 90
        0
 40
-0.6
 41
-30.0
 62
     5
 63
     7
 74
     1
 91
        4
 64
     7
 65
   257
 75
     1
175
     1
 42
1.0
 92
        0
 66
   257
 43
1.0
 76
     1
 77
     6
 78
     2
 67
     7
 79
     5
170
     0
171
     0
290
     0
174
     0
 93
        1
 44
0.0
173
     0
291
     0
 45
0.0
1001
ACAD
1000
AcDbSavedByObjectVersion
1070
     0
  0
VISUALSTYLE
  5
E01
102
{ACAD_XDICTIONARY
360
131B
102
}
102
{ACAD_REACTORS
330
DF9
102
}
330
DF9
100
AcDbVisualStyle
  2

 70
     6
 71
     1
 72
     2
 73
     2
 90
        0
 40
-0.6
 41
-30.0
 62
     5
 63
     7
 74
     2
 91
        2
 64
     7
 65
   257
 75
     2
175
     1
 42
179.0
 92
        0
 66
   257
 43
1.0
 76
     1
 77
     6
 78
     2
 67
     7
 79
     3
170
     0
171
     0
290
     0
174
     0
 93
        1
 44
0.0
173
     0
291
     0
 45
0.0
1001
ACAD
1000
AcDbSavedByObjectVersion
1070
     0
  0
VISUALSTYLE
  5
E00
102
{ACAD_XDICTIONARY
360
1319
102
}
102
{ACAD_REACTORS
330
DF9
102
}
330
DF9
100
AcDbVisualStyle
  2

 70
     5
 71
     0
 72
     2
 73
     0
 90
        0
 40
-0.6
 41
-30.0
 62
     5
 63
     7
 74
     1
 91
        4
 64
     7
 65
   257
 75
     1
175
     1
 42
1.0
 92
        0
 66
   257
 43
1.0
 76
     1
 77
     6
 78
     2
 67
     7
 79
     5
170
     0
171
     0
290
     0
174
     0
 93
        1
 44
0.0
173
     0
291
     0
 45
0.0
1001
ACAD
1000
AcDbSavedByObjectVersion
1070
     0
  0
VISUALSTYLE
  5
DFE
102
{ACAD_XDICTIONARY
360
1315
102
}
102
{ACAD_REACTORS
330
DF9
102
}
330
DF9
100
AcDbVisualStyle
  2

 70
     7
 71
     1
 72
     0
 73
     1
 90
        0
 40
-0.6
 41
-30.0
 62
     5
 63
     7
 74
     0
 91
        4
 64
     7
 65
   257
 75
     1
175
     1
 42
1.0
 92
        8
 66
     7
 43
1.0
 76
     1
 77
     6
 78
     2
 67
     7
 79
     5
170
     0
171
     0
290
     0
174
     0
 93
        1
 44
0.0
173
     0
291
     1
 45
0.0
1001
ACAD
1000
AcDbSavedByObjectVersion
1070
     0
  0
VISUALSTYLE
  5
E05
102
{ACAD_XDICTIONARY
360
1323
102
}
102
{ACAD_REACTORS
330
DF9
102
}
330
DF9
100
AcDbVisualStyle
  2

 70
    12
 71
     2
 72
     2
 73
     0
 90
        0
 40
-0.6
 41
-30.0
 62
     5
 63
     7
 74
     1
 91
        4
 64
     7
 65
   257
 75
     1
175
     1
 42
1.0
 92
        8
 66
     7
 43
1.0
 76
     1
 77
     6
 78
     2
 67
     7
 79
     5
170
     0
171
     0
290
     0
174
     0
 93
        1
 44
50.0
173
     0
291
     1
 45
0.0
1001
ACAD
1000
AcDbSavedByObjectVersion
1070
     0
  0
VISUALSTYLE
  5
E09
102
{ACAD_XDICTIONARY
360
132B
102
}
102
{ACAD_REACTORS
330
DF9
102
}
330
DF9
100
AcDbVisualStyle
  2

 70
    16
 71
     2
 72
     2
 73
     3
 90
        0
 40
-0.6
 41
-30.0
 62
     5
 63
     8
 74
     1
 91
        4
 64
     7
 65
   257
 75
     1
175
     1
 42
1.0
 92
        8
 66
     8
 43
1.0
 76
     1
 77
     6
 78
     2
 67
     7
 79
     5
170
     0
171
     0
290
     0
174
     0
 93
        1
 44
0.0
173
     0
291
     1
 45
0.0
1001
ACAD
1000
AcDbSavedByObjectVersion
1070
     0
  0
VISUALSTYLE
  5
E02
102
{ACAD_XDICTIONARY
360
131D
102
}
102
{ACAD_REACTORS
330
DF9
102
}
330
DF9
100
AcDbVisualStyle
  2

 70
     9
 71
     3
 72
     2
 73
     0
 90
        0
 40
-0.6
 41
-30.0
 62
     5
 63
     7
 74
     2
 91
        2
 64
     7
 65
   257
 75
     1
175
     1
 42
179.0
 92
        8
 66
     7
 43
1.0
 76
     1
 77
     6
 78
     2
 67
     7
 79
     3
170
     0
171
     0
290
     0
174
     0
 93
        1
 44
0.0
173
     0
291
     0
 45
0.0
1001
ACAD
1000
AcDbSavedByObjectVersion
1070
     0
  0
VISUALSTYLE
  5
E04
102
{ACAD_XDICTIONARY
360
1321
102
}
102
{ACAD_REACTORS
330
DF9
102
}
330
DF9
100
AcDbVisualStyle
  2

 70
    11
 71
     2
 72
     2
 73
     0
 90
        0
 40
-0.6
 41
-30.0
 62
     5
 63
     7
 74
     1
 91
        4
 64
     7
 65
   257
 75
     1
175
     1
 42
1.0
 92
        8
 66
     7
 43
1.0
 76
     1
 77
     6
 78
     2
 67
     7
 79
     5
170
     0
171
     0
290
     0
174
     0
 93
        1
 44
-50.0
173
     0
291
     1
 45
0.0
1001
ACAD
1000
AcDbSavedByObjectVersion
1070
     0
  0
VISUALSTYLE
  5
E0C
102
{ACAD_XDICTIONARY
360
1331
102
}
102
{ACAD_REACTORS
330
DF9
102
}
330
DF9
100
AcDbVisualStyle
  2

 70
    22
 71
     2
 72
     2
 73
     0
 90
        0
 40
-0.6
 41
-30.0
 62
     5
 63
     7
 74
     1
 91
        4
 64
     7
 65
   257
 75
     1
175
     1
 42
1.0
 92
        8
 66
     7
 43
1.0
 76
     1
 77
     6
 78
     2
 67
     7
 79
     5
170
     0
171
     0
290
     0
174
     0
 93
        1
 44
0.0
173
     0
291
     1
 45
0.0
1001
ACAD
1000
AcDbSavedByObjectVersion
1070
     0
  0
VISUALSTYLE
  5
E08
102
{ACAD_XDICTIONARY
360
1329
102
}
102
{ACAD_REACTORS
330
DF9
102
}
330
DF9
100
AcDbVisualStyle
  2

 70
    15
 71
     2
 72
     2
 73
     0
 90
        0
 40
-0.6
 41
-30.0
 62
     5
 63
     7
 74
     1
 91
        4
 64
     7
 65
   257
 75
     1
175
     1
 42
1.0
 92
        8
 66
     7
 43
1.0
 76
     1
 77
     6
 78
     2
 67
     7
 79
     5
170
     0
171
     0
290
     0
174
     0
 93
        1
 44
0.0
173
     0
291
     1
 45
0.0
1001
ACAD
1000
AcDbSavedByObjectVersion
1070
     0
  0
VISUALSTYLE
  5
DFA
102
{ACAD_XDICTIONARY
360
130D
102
}
102
{ACAD_REACTORS
330
DF9
102
}
330
DF9
100
AcDbVisualStyle
  2

 70
     0
 71
     2
 72
     1
 73
     1
 90
        2
 40
-0.6
 41
30.0
 62
     5
 63
     7
 74
     0
 91
        4
 64
     7
 65
   257
 75
     1
175
     1
 42
1.0
 92
        8
 66
     7
 43
1.0
 76
     1
 77
     6
 78
     2
 67
     7
 79
     5
170
     0
171
     0
290
     0
174
     0
 93
       13
 44
0.0
173
     0
291
     1
 45
0.0
1001
ACAD
1000
AcDbSavedByObjectVersion
1070
     0
  0
VISUALSTYLE
  5
DFB
102
{ACAD_XDICTIONARY
360
130F
102
}
102
{ACAD_REACTORS
330
DF9
102
}
330
DF9
100
AcDbVisualStyle
  2

 70
     1
 71
     2
 72
     1
 73
     1
 90
        2
 40
-0.6
 41
30.0
 62
     5
 63
     7
 74
     1
 91
        4
 64
     7
 65
   257
 75
     1
175
     1
 42
1.0
 92
        0
 66
   257
 43
1.0
 76
     1
 77
     6
 78
     2
 67
     7
 79
     5
170
     0
171
     0
290
     0
174
     0
 93
       13
 44
0.0
173
     0
291
     1
 45
0.0
1001
ACAD
1000
AcDbSavedByObjectVersion
1070
     0
  0
VISUALSTYLE
  5
DFC
102
{ACAD_XDICTIONARY
360
1311
102
}
102
{ACAD_REACTORS
330
DF9
102
}
330
DF9
100
AcDbVisualStyle
  2

 70
     2
 71
     2
 72
     2
 73
     1
 90
        2
 40
-0.6
 41
30.0
 62
     5
 63
     7
 74
     0
 91
        4
 64
     7
 65
   257
 75
     1
175
     1
 42
1.0
 92
        0
 66
     7
 43
1.0
 76
     1
 77
     6
 78
     2
 67
     7
 79
     5
170
     0
171
     0
290
     0
174
     0
 93
       13
 44
0.0
173
     0
291
     1
 45
0.0
1001
ACAD
1000
AcDbSavedByObjectVersion
1070
     0
  0
VISUALSTYLE
  5
DFD
102
{ACAD_XDICTIONARY
360
1313
102
}
102
{ACAD_REACTORS
330
DF9
102
}
330
DF9
100
AcDbVisualStyle
  2

 70
     3
 71
     2
 72
     2
 73
     1
 90
        2
 40
-0.6
 41
30.0
 62
     5
 63
     7
 74
     1
 91
        4
 64
     7
 65
   257
 75
     1
175
     1
 42
1.0
 92
        0
 66
   257
 43
1.0
 76
     1
 77
     6
 78
     2
 67
     7
 79
     5
170
     0
171
     0
290
     0
174
     0
 93
       13
 44
0.0
173
     0
291
     1
 45
0.0
1001
ACAD
1000
AcDbSavedByObjectVersion
1070
     0
  0
VISUALSTYLE
  5
1208
102
{ACAD_XDICTIONARY
360
1335
102
}
102
{ACAD_REACTORS
330
DF9
102
}
330
DF9
100
AcDbVisualStyle
  2

 70
     6
 71
     1
 72
     2
 73
     2
 90
        0
 40
-0.6
 41
-30.0
 62
     5
 63
     7
 74
     2
 91
        2
 64
     7
 65
   257
 75
     2
175
     1
 42
40.0
 92
        0
 66
   257
 43
1.0
 76
     1
 77
     6
 78
     2
 67
     7
 79
     3
170
     0
171
     0
290
     0
174
     0
 93
        1
 44
0.0
173
     0
291
     0
 45
0.0
1001
ACAD
1000
AcDbSavedByObjectVersion
1070
     0
  0
VISUALSTYLE
  5
E0A
102
{ACAD_XDICTIONARY
360
132D
102
}
102
{ACAD_REACTORS
330
DF9
102
}
330
DF9
100
AcDbVisualStyle
  2

 70
    20
 71
     2
 72
     2
 73
     0
 90
        0
 40
-0.6
 41
-30.0
 62
     5
 63
     7
 74
     1
 91
        4
 64
     7
 65
   257
 75
     1
175
     1
 42
1.0
 92
       10
 66
     7
 43
1.0
 76
     1
 77
     6
 78
     2
 67
     7
 79
     5
170
     0
171
     0
290
     0
174
     0
 93
        1
 44
0.0
173
     0
291
     1
 45
0.0
1001
ACAD
1000
AcDbSavedByObjectVersion
1070
     0
  0
VISUALSTYLE
  5
E07
102
{ACAD_XDICTIONARY
360
1327
102
}
102
{ACAD_REACTORS
330
DF9
102
}
330
DF9
100
AcDbVisualStyle
  2

 70
    14
 71
     2
 72
     2
 73
     0
 90
        0
 40
-0.6
 41
-30.0
 62
     5
 63
     7
 74
     1
 91
        4
 64
     7
 65
   257
 75
     7
175
     7
 42
1.0
 92
        8
 66
     7
 43
1.0
 76
     1
 77
     6
 78
     2
 67
     7
 79
     5
170
     0
171
     0
290
     0
174
     0
 93
        1
 44
0.0
173
     0
291
     1
 45
0.0
1001
ACAD
1000
AcDbSavedByObjectVersion
1070
     0
  0
VISUALSTYLE
  5
E0B
102
{ACAD_XDICTIONARY
360
132F
102
}
102
{ACAD_REACTORS
330
DF9
102
}
330
DF9
100
AcDbVisualStyle
  2

 70
    21
 71
     2
 72
     2
 73
     0
 90
        0
 40
-0.6
 41
-30.0
 62
     5
 63
     7
 74
     1
 91
        4
 64
     7
 65
   257
 75
     1
175
     1
 42
1.0
 92
        9
 66
     7
 43
1.0
 76
     1
 77
     6
 78
     2
 67
     7
 79
     5
170
     0
171
     0
290
     0
174
     0
 93
        1
 44
0.0
173
     0
291
     1
 45
0.0
1001
ACAD
1000
AcDbSavedByObjectVersion
1070
     0
  0
VISUALSTYLE
  5
E03
102
{ACAD_XDICTIONARY
360
131F
102
}
102
{ACAD_REACTORS
330
DF9
102
}
330
DF9
100
AcDbVisualStyle
  2

 70
     8
 71
     2
 72
     2
 73
     0
 90
        0
 40
-0.6
 41
-30.0
 62
     5
 63
     7
 74
     1
 91
        0
 64
     7
 65
   257
 75
     1
175
     1
 42
1.0
 92
        8
 66
     8
 43
1.0
 76
     1
 77
     6
 78
     2
 67
     7
 79
     5
170
     0
171
     0
290
     0
174
     0
 93
       13
 44
0.0
173
     0
291
     0
 45
0.0
1001
ACAD
1000
AcDbSavedByObjectVersion
1070
     0
  0
VISUALSTYLE
  5
120D
102
{ACAD_XDICTIONARY
360
133F
102
}
102
{ACAD_REACTORS
330
DF9
102
}
330
DF9
100
AcDbVisualStyle
  2

 70
    27
 71
     2
 72
     2
 73
     1
 90
        2
 40
-0.6
 41
30.0
 62
     5
 63
     7
 74
     0
 91
        4
 64
     7
 65
   257
 75
     1
175
     1
 42
1.0
 92
        8
 66
   257
 43
1.0
 76
     1
 77
     6
 78
     2
 67
     8
 79
     3
170
     0
171
     0
290
     0
174
     0
 93
        5
 44
0.0
173
     0
291
     0
 45
0.0
1001
ACAD
1000
AcDbSavedByObjectVersion
1070
     0
  0
VISUALSTYLE
  5
120C
102
{ACAD_XDICTIONARY
360
133D
102
}
102
{ACAD_REACTORS
330
DF9
102
}
330
DF9
100
AcDbVisualStyle
  2

 70
    26
 71
     2
 72
     2
 73
     1
 90
        2
 40
-0.6
 41
30.0
 62
     5
 63
     7
 74
     1
 91
       10
 64
     7
 65
   257
 75
     2
175
     1
 42
1.0
 92
        8
 66
   257
 43
1.0
 76
     1
 77
     6
 78
     2
 67
     7
 79
     3
170
     0
171
     0
290
     0
174
     0
 93
        5
 44
0.0
173
     0
291
     0
 45
0.0
1001
ACAD
1000
AcDbSavedByObjectVersion
1070
     0
  0
VISUALSTYLE
  5
1209
102
{ACAD_XDICTIONARY
360
1337
102
}
102
{ACAD_REACTORS
330
DF9
102
}
330
DF9
100
AcDbVisualStyle
  2

 70
    23
 71
     2
 72
     2
 73
     3
 90
        0
 40
-0.6
 41
-30.0
 62
     5
 63
     7
 74
     2
 91
        2
 64
     7
 65
     7
 75
     1
175
     1
 42
40.0
 92
        8
 66
     7
 43
1.0
 76
     1
 77
     6
 78
     2
 67
     7
 79
     3
170
     0
171
     0
290
     0
174
     0
 93
        1
 44
0.0
173
     0
291
     0
 45
0.0
1001
ACAD
1000
AcDbSavedByObjectVersion
1070
     0
  0
VISUALSTYLE
  5
120A
102
{ACAD_XDICTIONARY
360
1339
102
}
102
{ACAD_REACTORS
330
DF9
102
}
330
DF9
100
AcDbVisualStyle
  2

 70
    24
 71
     1
 72
     2
 73
     2
 90
        0
 40
-0.6
 41
-30.0
 62
     5
 63
     7
 74
     2
 91
        2
 64
     7
 65
     7
 75
     1
175
     1
 42
40.0
 92
       11
 66
     7
 43
1.0
 76
     1
 77
     6
 78
     2
 67
     7
 79
     6
170
     0
171
     0
290
     0
174
     0
 93
        1
 44
0.0
173
     0
291
     0
 45
0.0
1001
ACAD
1000
AcDbSavedByObjectVersion
1070
     0
  0
VISUALSTYLE
  5
E06
102
{ACAD_XDICTIONARY
360
1325
102
}
102
{ACAD_REACTORS
330
DF9
102
}
330
DF9
100
AcDbVisualStyle
  2

 70
    13
 71
     2
 72
     2
 73
     0
 90
        0
 40
-0.6
 41
-30.0
 62
     5
 63
     7
 74
     1
 91
        4
 64
     7
 65
   257
 75
     1
175
     1
 42
1.0
 92
       12
 66
     7
 43
1.0
 76
     1
 77
     6
 78
     2
 67
     7
 79
     5
170
     0
171
     0
290
     0
174
     0
 93
        1
 44
0.0
173
     0
291
     1
 45
0.0
1001
ACAD
1000
AcDbSavedByObjectVersion
1070
     0
  0
VISUALSTYLE
  5
1207
102
{ACAD_XDICTIONARY
360
1333
102
}
102
{ACAD_REACTORS
330
DF9
102
}
330
DF9
100
AcDbVisualStyle
  2

 70
     5
 71
     0
 72
     2
 73
     0
 90
        0
 40
-0.6
 41
-30.0
 62
     5
 63
     7
 74
     1
 91
        4
 64
     7
 65
   257
 75
     1
175
     1
 42
1.0
 92
        0
 66
   257
 43
1.0
 76
     1
 77
     6
 78
     2
 67
     7
 79
     3
170
     0
171
     0
290
     0
174
     0
 93
        1
 44
0.0
173
     0
291
     0
 45
0.0
1001
ACAD
1000
AcDbSavedByObjectVersion
1070
     0
  0
VISUALSTYLE
  5
120B
102
{ACAD_XDICTIONARY
360
133B
102
}
102
{ACAD_REACTORS
330
DF9
102
}
330
DF9
100
AcDbVisualStyle
  2

 70
    25
 71
     2
 72
     2
 73
     1
 90
        1
 40
0.5
 41
-30.0
 62
     5
 63
     7
 74
     1
 91
        0
 64
     7
 65
   257
 75
     1
175
     1
 42
1.0
 92
        8
 66
     7
 43
1.0
 76
     1
 77
     6
 78
     2
 67
     7
 79
     3
170
     0
171
     0
290
     0
174
     0
 93
       13
 44
0.0
173
     0
291
     0
 45
0.0
1001
ACAD
1000
AcDbSavedByObjectVersion
1070
     0
  0
DICTIONARYVAR
  5
12FB
102
{ACAD_REACTORS
330
12F6
102
}
330
12F6
100
DictionaryVariables
280
     0
  1
1:1
  0
DICTIONARYVAR
  5
12F8
102
{ACAD_REACTORS
330
12F6
102
}
330
12F6
100
DictionaryVariables
280
     0
  1
STANDARD
  0
DICTIONARYVAR
  5
12F7
102
{ACAD_REACTORS
330
12F6
102
}
330
12F6
100
DictionaryVariables
280
     0
  1
STANDARD
  0
DICTIONARYVAR
  5
12F9
102
{ACAD_REACTORS
330
12F6
102
}
330
12F6
100
DictionaryVariables
280
     0
  1
METRIC50
  0
DICTIONARYVAR
  5
12FA
102
{ACAD_REACTORS
330
12F6
102
}
330
12F6
100
DictionaryVariables
280
     0
  1
METRIC50
  0
DICTIONARYVAR
  5
12FF
102
{ACAD_REACTORS
330
12F6
102
}
330
12F6
100
DictionaryVariables
280
     0
  1
1
  0
DICTIONARYVAR
  5
12FD
102
{ACAD_REACTORS
330
12F6
102
}
330
12F6
100
DictionaryVariables
280
     0
  1
0
  0
DICTIONARYVAR
  5
12FC
102
{ACAD_REACTORS
330
12F6
102
}
330
12F6
100
DictionaryVariables
280
     0
  1
127
  0
DICTIONARYVAR
  5
12FE
102
{ACAD_REACTORS
330
12F6
102
}
330
12F6
100
DictionaryVariables
280
     0
  1
0
  0
XRECORD
  5
119B
102
{ACAD_REACTORS
330
119A
102
}
330
119A
100
AcDbXrecord
280
     1
330
4DA
  0
XRECORD
  5
104C
102
{ACAD_XDICTIONARY
360
104D
102
}
102
{ACAD_REACTORS
330
4CA
102
}
330
4CA
100
AcDbXrecord
280
     1
 91
      535
301

290
     0
302
0
330
4AB
 90
        8
 62
     4
370
    50
331
13
390
1D
330
4AA
 90
        8
 62
     4
370
    50
331
13
390
1D
330
4A6
 90
        8
 62
     9
370
    18
331
13
390
1D
330
4A3
 90
        8
 62
     7
370
    -3
331
13
390
1D
330
4A0
 90
        8
 62
     1
370
    25
331
13
390
1D
330
49F
 90
        0
 62
     7
370
    25
331
13
390
1D
330
49C
 90
        8
 62
     5
370
    -3
331
13
390
1D
330
499
 90
        8
 62
     2
370
    25
331
488
390
1D
330
496
 90
        8
 62
     2
370
    25
331
488
390
1D
330
490
 90
        8
 62
     7
370
    25
331
13
390
1D
330
48D
 90
        8
 62
     7
370
    25
331
13
390
1D
330
48A
 90
        8
 62
     4
370
    50
331
13
390
1D
330
14
 90
        8
 62
     7
370
    -3
331
13
390
1D
  0
DICTIONARY
  5
1343
330
1211
100
AcDbDictionary
280
     1
281
     1
  3
ACAD_XREC_ROUNDTRIP
360
1344
  0
DICTIONARY
  5
1308
330
21
100
AcDbDictionary
280
     1
281
     1
  3
ACAD_XREC_ROUNDTRIP
360
1309
  0
DICTIONARY
  5
1306
330
20
100
AcDbDictionary
280
     1
281
     1
  3
ACAD_XREC_ROUNDTRIP
360
1307
  0
DICTIONARY
  5
4C1
330
4C0
100
AcDbDictionary
280
     1
281
     1
  3
ACAD_XREC_ROUNDTRIP
360
4C2
  0
DICTIONARY
  5
4C4
330
4C3
100
AcDbDictionary
280
     1
281
     1
  3
ACAD_XREC_ROUNDTRIP
360
4C5
  0
DICTIONARY
  5
4C7
330
4C6
100
AcDbDictionary
280
     1
281
     1
  3
ACAD_XREC_ROUNDTRIP
360
4C8
  0
DICTIONARY
  5
1341
330
120F
100
AcDbDictionary
280
     1
281
     1
  3
ACAD_XREC_ROUNDTRIP
360
1342
  0
DICTIONARY
  5
E7B
330
15E
100
AcDbDictionary
280
     1
281
     1
  3
ACAD_ROUNDTRIP_2008_TABLESTYLE_CELLSTYLEMAP
360
1300
  3
ACAD_XREC_ROUNDTRIP
360
130C
  0
DICTIONARY
  5
1317
330
DFF
100
AcDbDictionary
280
     1
281
     1
  3
ACAD_XREC_ROUNDTRIP
360
1318
  0
DICTIONARY
  5
131B
330
E01
100
AcDbDictionary
280
     1
281
     1
  3
ACAD_XREC_ROUNDTRIP
360
131C
  0
DICTIONARY
  5
1319
330
E00
100
AcDbDictionary
280
     1
281
     1
  3
ACAD_XREC_ROUNDTRIP
360
131A
  0
DICTIONARY
  5
1315
330
DFE
100
AcDbDictionary
280
     1
281
     1
  3
ACAD_XREC_ROUNDTRIP
360
1316
  0
DICTIONARY
  5
1323
330
E05
100
AcDbDictionary
280
     1
281
     1
  3
ACAD_XREC_ROUNDTRIP
360
1324
  0
DICTIONARY
  5
132B
330
E09
100
AcDbDictionary
280
     1
281
     1
  3
ACAD_XREC_ROUNDTRIP
360
132C
  0
DICTIONARY
  5
131D
330
E02
100
AcDbDictionary
280
     1
281
     1
  3
ACAD_XREC_ROUNDTRIP
360
131E
  0
DICTIONARY
  5
1321
330
E04
100
AcDbDictionary
280
     1
281
     1
  3
ACAD_XREC_ROUNDTRIP
360
1322
  0
DICTIONARY
  5
1331
330
E0C
100
AcDbDictionary
280
     1
281
     1
  3
ACAD_XREC_ROUNDTRIP
360
1332
  0
DICTIONARY
  5
1329
330
E08
100
AcDbDictionary
280
     1
281
     1
  3
ACAD_XREC_ROUNDTRIP
360
132A
  0
DICTIONARY
  5
130D
330
DFA
100
AcDbDictionary
280
     1
281
     1
  3
ACAD_XREC_ROUNDTRIP
360
130E
  0
DICTIONARY
  5
130F
330
DFB
100
AcDbDictionary
280
     1
281
     1
  3
ACAD_XREC_ROUNDTRIP
360
1310
  0
DICTIONARY
  5
1311
330
DFC
100
AcDbDictionary
280
     1
281
     1
  3
ACAD_XREC_ROUNDTRIP
360
1312
  0
DICTIONARY
  5
1313
330
DFD
100
AcDbDictionary
280
     1
281
     1
  3
ACAD_XREC_ROUNDTRIP
360
1314
  0
DICTIONARY
  5
1335
330
1208
100
AcDbDictionary
280
     1
281
     1
  3
ACAD_XREC_ROUNDTRIP
360
1336
  0
DICTIONARY
  5
132D
330
E0A
100
AcDbDictionary
280
     1
281
     1
  3
ACAD_XREC_ROUNDTRIP
360
132E
  0
DICTIONARY
  5
1327
330
E07
100
AcDbDictionary
280
     1
281
     1
  3
ACAD_XREC_ROUNDTRIP
360
1328
  0
DICTIONARY
  5
132F
330
E0B
100
AcDbDictionary
280
     1
281
     1
  3
ACAD_XREC_ROUNDTRIP
360
1330
  0
DICTIONARY
  5
131F
330
E03
100
AcDbDictionary
280
     1
281
     1
  3
ACAD_XREC_ROUNDTRIP
360
1320
  0
DICTIONARY
  5
133F
330
120D
100
AcDbDictionary
280
     1
281
     1
  3
ACAD_XREC_ROUNDTRIP
360
1340
  0
DICTIONARY
  5
133D
330
120C
100
AcDbDictionary
280
     1
281
     1
  3
ACAD_XREC_ROUNDTRIP
360
133E
  0
DICTIONARY
  5
1337
330
1209
100
AcDbDictionary
280
     1
281
     1
  3
ACAD_XREC_ROUNDTRIP
360
1338
  0
DICTIONARY
  5
1339
330
120A
100
AcDbDictionary
280
     1
281
     1
  3
ACAD_XREC_ROUNDTRIP
360
133A
  0
DICTIONARY
  5
1325
330
E06
100
AcDbDictionary
280
     1
281
     1
  3
ACAD_XREC_ROUNDTRIP
360
1326
  0
DICTIONARY
  5
1333
330
1207
100
AcDbDictionary
280
     1
281
     1
  3
ACAD_XREC_ROUNDTRIP
360
1334
  0
DICTIONARY
  5
133B
330
120B
100
AcDbDictionary
280
     1
281
     1
  3
ACAD_XREC_ROUNDTRIP
360
133C
  0
DICTIONARY
  5
104D
330
104C
100
AcDbDictionary
280
     1
281
     1
  3
AcadLayerStateAnnoScale
360
104E
  0
XRECORD
  5
1344
102
{ACAD_REACTORS
330
1343
102
}
330
1343
100
AcDbXrecord
280
     1
102
DISPLAYNAME
  1
METRIC50
102
FLAGS
 90
        0
  0
XRECORD
  5
1309
102
{ACAD_REACTORS
330
1308
102
}
330
1308
100
AcDbXrecord
280
     1
102
SHADEPLOT
 70
     0
102
SHADEPLOTRESLEVEL
 70
     2
102
SHADEPLOTCUSTOMDPI
 70
   300
  0
XRECORD
  5
1307
102
{ACAD_REACTORS
330
1306
102
}
330
1306
100
AcDbXrecord
280
     1
102
SHADEPLOT
 70
     0
102
SHADEPLOTRESLEVEL
 70
     2
102
SHADEPLOTCUSTOMDPI
 70
   300
  0
XRECORD
  5
4C2
102
{ACAD_REACTORS
330
4C1
102
}
330
4C1
100
AcDbXrecord
280
     1
102
MATERIAL
148
0.0
149
0.0
149
0.0
 93
        0
 94
      127
282
     0
 72
     1
 77
     1
171
     1
175
     1
179
     1
273
     0
  0
XRECORD
  5
4C5
102
{ACAD_REACTORS
330
4C4
102
}
330
4C4
100
AcDbXrecord
280
     1
102
MATERIAL
148
0.0
149
0.0
149
0.0
 93
        0
 94
      127
282
     0
 72
     1
 77
     1
171
     1
175
     1
179
     1
273
     0
  0
XRECORD
  5
4C8
102
{ACAD_REACTORS
330
4C7
102
}
330
4C7
100
AcDbXrecord
280
     1
102
MATERIAL
148
0.0
149
0.0
149
0.0
 93
        0
 94
      127
282
     0
 72
     1
 77
     1
171
     1
175
     1
179
     1
273
     0
  0
XRECORD
  5
1342
102
{ACAD_REACTORS
330
1341
102
}
330
1341
100
AcDbXrecord
280
     1
102
DISPLAYNAME
  1
METRIC50
102
FLAGS
 90
        0
  0
CELLSTYLEMAP
  5
1300
102
{ACAD_REACTORS
330
E7B
102
}
330
E7B
100
AcDbCellStyleMap
 90
        3
300
CELLSTYLE
  1
TABLEFORMAT_BEGIN
 90
        5
170
     1
 91
        0
 92
    32768
 62
   257
 93
        1
300
CONTENTFORMAT
  1
CONTENTFORMAT_BEGIN
 90
        0
 91
        0
 92
        4
 93
        0
300

 40
0.0
140
1.0
 94
        5
 62
     0
340
17
144
6.0
309
CONTENTFORMAT_END
171
     1
301
MARGIN
  1
CELLMARGIN_BEGIN
 40
1.5
 40
1.5
 40
1.5
 40
1.5
 40
0.18
 40
0.18
309
CELLMARGIN_END
 94
        6
 95
        1
302
GRIDFORMAT
  1
GRIDFORMAT_BEGIN
 90
        0
 91
        1
 62
     0
 92
       -2
340
0
 93
        0
 40
0.045
309
GRIDFORMAT_END
 95
        2
302
GRIDFORMAT
  1
GRIDFORMAT_BEGIN
 90
        0
 91
        1
 62
     0
 92
       -2
340
0
 93
        0
 40
0.045
309
GRIDFORMAT_END
 95
        4
302
GRIDFORMAT
  1
GRIDFORMAT_BEGIN
 90
        0
 91
        1
 62
     0
 92
       -2
340
0
 93
        0
 40
0.045
309
GRIDFORMAT_END
 95
        8
302
GRIDFORMAT
  1
GRIDFORMAT_BEGIN
 90
        0
 91
        1
 62
     0
 92
       -2
340
0
 93
        0
 40
0.045
309
GRIDFORMAT_END
 95
       16
302
GRIDFORMAT
  1
GRIDFORMAT_BEGIN
 90
        0
 91
        1
 62
     0
 92
       -2
340
0
 93
        0
 40
0.045
309
GRIDFORMAT_END
 95
       32
302
GRIDFORMAT
  1
GRIDFORMAT_BEGIN
 90
        0
 91
        1
 62
     0
 92
       -2
340
0
 93
        0
 40
0.045
309
GRIDFORMAT_END
309
TABLEFORMAT_END
  1
CELLSTYLE_BEGIN
 90
        1
 91
        1
300
_TITLE
309
CELLSTYLE_END
300
CELLSTYLE
  1
TABLEFORMAT_BEGIN
 90
        5
170
     1
 91
        0
 92
        0
 62
   257
 93
        1
300
CONTENTFORMAT
  1
CONTENTFORMAT_BEGIN
 90
        0
 91
        0
 92
        4
 93
        0
300

 40
0.0
140
1.0
 94
        5
 62
     0
340
17
144
4.5
309
CONTENTFORMAT_END
171
     1
301
MARGIN
  1
CELLMARGIN_BEGIN
 40
1.5
 40
1.5
 40
1.5
 40
1.5
 40
0.18
 40
0.18
309
CELLMARGIN_END
 94
        6
 95
        1
302
GRIDFORMAT
  1
GRIDFORMAT_BEGIN
 90
        0
 91
        1
 62
     0
 92
       -2
340
0
 93
        0
 40
0.045
309
GRIDFORMAT_END
 95
        2
302
GRIDFORMAT
  1
GRIDFORMAT_BEGIN
 90
        0
 91
        1
 62
     0
 92
       -2
340
0
 93
        0
 40
0.045
309
GRIDFORMAT_END
 95
        4
302
GRIDFORMAT
  1
GRIDFORMAT_BEGIN
 90
        0
 91
        1
 62
     0
 92
       -2
340
0
 93
        0
 40
0.045
309
GRIDFORMAT_END
 95
        8
302
GRIDFORMAT
  1
GRIDFORMAT_BEGIN
 90
        0
 91
        1
 62
     0
 92
       -2
340
0
 93
        0
 40
0.045
309
GRIDFORMAT_END
 95
       16
302
GRIDFORMAT
  1
GRIDFORMAT_BEGIN
 90
        0
 91
        1
 62
     0
 92
       -2
340
0
 93
        0
 40
0.045
309
GRIDFORMAT_END
 95
       32
302
GRIDFORMAT
  1
GRIDFORMAT_BEGIN
 90
        0
 91
        1
 62
     0
 92
       -2
340
0
 93
        0
 40
0.045
309
GRIDFORMAT_END
309
TABLEFORMAT_END
  1
CELLSTYLE_BEGIN
 90
        2
 91
        1
300
_HEADER
309
CELLSTYLE_END
300
CELLSTYLE
  1
TABLEFORMAT_BEGIN
 90
        5
170
     1
 91
        0
 92
        0
 62
   257
 93
        1
300
CONTENTFORMAT
  1
CONTENTFORMAT_BEGIN
 90
        0
 91
        0
 92
        4
 93
        0
300

 40
0.0
140
1.0
 94
        2
 62
     0
340
17
144
4.5
309
CONTENTFORMAT_END
171
     1
301
MARGIN
  1
CELLMARGIN_BEGIN
 40
1.5
 40
1.5
 40
1.5
 40
1.5
 40
0.18
 40
0.18
309
CELLMARGIN_END
 94
        6
 95
        1
302
GRIDFORMAT
  1
GRIDFORMAT_BEGIN
 90
        0
 91
        1
 62
     0
 92
       -2
340
0
 93
        0
 40
0.045
309
GRIDFORMAT_END
 95
        2
302
GRIDFORMAT
  1
GRIDFORMAT_BEGIN
 90
        0
 91
        1
 62
     0
 92
       -2
340
0
 93
        0
 40
0.045
309
GRIDFORMAT_END
 95
        4
302
GRIDFORMAT
  1
GRIDFORMAT_BEGIN
 90
        0
 91
        1
 62
     0
 92
       -2
340
0
 93
        0
 40
0.045
309
GRIDFORMAT_END
 95
        8
302
GRIDFORMAT
  1
GRIDFORMAT_BEGIN
 90
        0
 91
        1
 62
     0
 92
       -2
340
0
 93
        0
 40
0.045
309
GRIDFORMAT_END
 95
       16
302
GRIDFORMAT
  1
GRIDFORMAT_BEGIN
 90
        0
 91
        1
 62
     0
 92
       -2
340
0
 93
        0
 40
0.045
309
GRIDFORMAT_END
 95
       32
302
GRIDFORMAT
  1
GRIDFORMAT_BEGIN
 90
        0
 91
        1
 62
     0
 92
       -2
340
0
 93
        0
 40
0.045
309
GRIDFORMAT_END
309
TABLEFORMAT_END
  1
CELLSTYLE_BEGIN
 90
        3
 91
        2
300
_DATA
309
CELLSTYLE_END
  0
XRECORD
  5
130C
102
{ACAD_REACTORS
330
E7B
102
}
330
E7B
100
AcDbXrecord
280
     1
102
ACAD_ROUNDTRIP_PRE2007_TABLESTYLE
 90
        4
 91
        0
  1

 92
        4
 93
        0
  2

 94
        4
 95
        0
  3

  0
XRECORD
  5
1318
102
{ACAD_REACTORS
330
1317
102
}
330
1317
100
AcDbXrecord
280
     1
102
RTVSPost2010Prop28
280
     1
102
RTVSPost2010PropOp28
 70
     1
102
RTVSPost2010Prop29
280
     1
102
RTVSPost2010PropOp29
 70
     1
102
RTVSPost2010Prop30
280
     0
102
RTVSPost2010PropOp30
 70
     1
102
RTVSPost2010Prop31
280
     0
102
RTVSPost2010PropOp31
 70
     1
102
RTVSPost2010Prop32
280
     0
102
RTVSPost2010PropOp32
 70
     1
102
RTVSPost2010Prop33
280
     0
102
RTVSPost2010PropOp33
 70
     1
102
RTVSPost2010Prop34
280
     0
102
RTVSPost2010PropOp34
 70
     1
102
RTVSPost2010Prop35
280
     0
102
RTVSPost2010PropOp35
 70
     1
102
RTVSPost2010Prop36
280
     0
102
RTVSPost2010PropOp36
 70
     1
102
RTVSPost2010Prop37
 90
       50
102
RTVSPost2010PropOp37
 70
     1
102
RTVSPost2010Prop38
140
0.0
102
RTVSPost2010PropOp38
 70
     1
102
RTVSPost2010Prop39
140
1.0
102
RTVSPost2010PropOp39
 70
     1
102
RTVSPost2010Prop40
 90
        0
102
RTVSPost2010PropOp40
 70
     1
102
RTVSPost2010Prop41ColorIndex
 90
       18
102
RTVSPost2010Prop41ColorRGB
 90
        0
102
RTVSPost2010PropOp41
 70
     1
102
RTVSPost2010Prop42
 90
       50
102
RTVSPost2010PropOp42
 70
     1
102
RTVSPost2010Prop43
 90
        3
102
RTVSPost2010PropOp43
 70
     1
102
RTVSPost2010Prop44ColorIndex
 90
        5
102
RTVSPost2010Prop44ColorRGB
 90
      255
102
RTVSPost2010PropOp44
 70
     1
102
RTVSPost2010Prop45
280
     0
102
RTVSPost2010PropOp45
 70
     1
102
RTVSPost2010Prop46
 90
       50
102
RTVSPost2010PropOp46
 70
     1
102
RTVSPost2010Prop47
 90
       50
102
RTVSPost2010PropOp47
 70
     1
102
RTVSPost2010Prop48
 90
       50
102
RTVSPost2010PropOp48
 70
     1
102
RTVSPost2010Prop49
280
     0
102
RTVSPost2010PropOp49
 70
     1
102
RTVSPost2010Prop50
 90
       50
102
RTVSPost2010PropOp50
 70
     1
102
RTVSPost2010Prop51ColorIndex
 90
      256
102
RTVSPost2010Prop51ColorRGB
 90
-16777216
102
RTVSPost2010PropOp51
 70
     0
102
RTVSPost2010Prop52
140
1.0
102
RTVSPost2010PropOp52
 70
     0
102
RTVSPost2010Prop53
 90
        2
102
RTVSPost2010PropOp53
 70
     1
102
RTVSPost2010Prop54
  1
strokes_ogs.tif
102
RTVSPost2010PropOp54
 70
     1
102
RTVSPost2010Prop55
280
     0
102
RTVSPost2010PropOp55
 70
     1
102
RTVSPost2010Prop56
140
1.0
102
RTVSPost2010PropOp56
 70
     1
102
RTVSPost2010Prop57
140
1.0
102
RTVSPost2010PropOp57
 70
     1
102
RTVSPropertyOp0
 70
     1
102
RTVSPropertyOp1
 70
     1
102
RTVSPropertyOp2
 70
     1
102
RTVSPropertyOp3
 70
     1
102
RTVSPropertyOp4
 70
     1
102
RTVSPropertyOp5
 70
     1
102
RTVSPropertyOp6
 70
     1
102
RTVSPropertyOp7
 70
     1
102
RTVSPropertyOp8
 70
     1
102
RTVSPropertyOp9
 70
     1
102
RTVSPropertyOp10
 70
     1
102
RTVSPropertyOp11
 70
     1
102
RTVSPropertyOp12
 70
     1
102
RTVSPropertyOp13
 70
     1
102
RTVSPropertyOp14
 70
     1
102
RTVSPropertyOp15
 70
     1
102
RTVSPropertyOp16
 70
     1
102
RTVSPropertyOp17
 70
     1
102
RTVSPropertyOp18
 70
     1
102
RTVSPropertyOp19
 70
     1
102
RTVSPropertyOp20
 70
     1
102
RTVSPropertyOp21
 70
     1
102
RTVSPropertyOp22
 70
     1
102
RTVSPropertyOp23
 70
     1
102
RTVSPropertyOp24
 70
     1
102
RTVSPropertyOp25
 70
     1
102
RTVSPropertyOp26
 70
     1
102
RTVSPropertyOp27
 70
     1
102
RTVSPropertyOp28
 70
     1
102
RTVSPropertyOp29
 70
     1
102
RTVSPropertyOp30
 70
     1
102
RTVSPropertyOp31
 70
     1
102
RTVSPropertyOp32
 70
     1
102
RTVSPropertyOp33
 70
     1
102
RTVSPropertyOp34
 70
     1
102
RTVSPropertyOp35
 70
     1
102
RTVSPropertyOp36
 70
     1
102
RTVSPropertyOp37
 70
     1
102
RTVSPropertyOp38
 70
     1
102
RTVSPropertyOp39
 70
     1
102
RTVSPropertyOp40
 70
     1
102
RTVSPropertyOp41
 70
     1
102
RTVSPropertyOp42
 70
     1
102
RTVSPropertyOp43
 70
     1
102
RTVSPropertyOp44
 70
     1
102
RTVSPropertyOp45
 70
     1
102
RTVSPropertyOp46
 70
     1
102
RTVSPropertyOp47
 70
     1
102
RTVSPropertyOp48
 70
     1
102
RTVSPropertyOp49
 70
     1
102
RTVSPropertyOp50
 70
     1
102
RTVSPropertyOp51
 70
     0
102
RTVSPropertyOp52
 70
     0
102
RTVSPropertyOp53
 70
     1
102
RTVSPropertyOp54
 70
     1
102
RTVSPropertyOp55
 70
     1
102
RTVSPropertyOp56
 70
     1
102
RTVSPropertyOp57
 70
     1
102
RTVSPropertyOp58
 70
     1
102
RTVSPropertyOp59
 70
     1
102
RTVSPropertyOp60
 70
     1
102
RTVSPropertyOp61
 70
     1
102
RTVSPropertyOp62
 70
     1
  0
XRECORD
  5
131C
102
{ACAD_REACTORS
330
131B
102
}
330
131B
100
AcDbXrecord
280
     1
102
RTVSPost2010Prop28
280
     0
102
RTVSPost2010PropOp28
 70
     1
102
RTVSPost2010Prop29
280
     1
102
RTVSPost2010PropOp29
 70
     1
102
RTVSPost2010Prop30
280
     1
102
RTVSPost2010PropOp30
 70
     1
102
RTVSPost2010Prop31
280
     0
102
RTVSPost2010PropOp31
 70
     1
102
RTVSPost2010Prop32
280
     0
102
RTVSPost2010PropOp32
 70
     1
102
RTVSPost2010Prop33
280
     0
102
RTVSPost2010PropOp33
 70
     1
102
RTVSPost2010Prop34
280
     0
102
RTVSPost2010PropOp34
 70
     1
102
RTVSPost2010Prop35
280
     0
102
RTVSPost2010PropOp35
 70
     1
102
RTVSPost2010Prop36
280
     0
102
RTVSPost2010PropOp36
 70
     1
102
RTVSPost2010Prop37
 90
       50
102
RTVSPost2010PropOp37
 70
     1
102
RTVSPost2010Prop38
140
0.0
102
RTVSPost2010PropOp38
 70
     1
102
RTVSPost2010Prop39
140
1.0
102
RTVSPost2010PropOp39
 70
     1
102
RTVSPost2010Prop40
 90
        0
102
RTVSPost2010PropOp40
 70
     1
102
RTVSPost2010Prop41ColorIndex
 90
       18
102
RTVSPost2010Prop41ColorRGB
 90
        0
102
RTVSPost2010PropOp41
 70
     1
102
RTVSPost2010Prop42
 90
       50
102
RTVSPost2010PropOp42
 70
     1
102
RTVSPost2010Prop43
 90
        3
102
RTVSPost2010PropOp43
 70
     1
102
RTVSPost2010Prop44ColorIndex
 90
        5
102
RTVSPost2010Prop44ColorRGB
 90
      255
102
RTVSPost2010PropOp44
 70
     1
102
RTVSPost2010Prop45
280
     0
102
RTVSPost2010PropOp45
 70
     1
102
RTVSPost2010Prop46
 90
       50
102
RTVSPost2010PropOp46
 70
     1
102
RTVSPost2010Prop47
 90
       50
102
RTVSPost2010PropOp47
 70
     1
102
RTVSPost2010Prop48
 90
       50
102
RTVSPost2010PropOp48
 70
     1
102
RTVSPost2010Prop49
280
     0
102
RTVSPost2010PropOp49
 70
     1
102
RTVSPost2010Prop50
 90
       50
102
RTVSPost2010PropOp50
 70
     1
102
RTVSPost2010Prop51ColorIndex
 90
      256
102
RTVSPost2010Prop51ColorRGB
 90
-16777216
102
RTVSPost2010PropOp51
 70
     0
102
RTVSPost2010Prop52
140
1.0
102
RTVSPost2010PropOp52
 70
     0
102
RTVSPost2010Prop53
 90
        2
102
RTVSPost2010PropOp53
 70
     1
102
RTVSPost2010Prop54
  1
strokes_ogs.tif
102
RTVSPost2010PropOp54
 70
     1
102
RTVSPost2010Prop55
280
     0
102
RTVSPost2010PropOp55
 70
     1
102
RTVSPost2010Prop56
140
1.0
102
RTVSPost2010PropOp56
 70
     1
102
RTVSPost2010Prop57
140
1.0
102
RTVSPost2010PropOp57
 70
     1
102
RTVSPropertyOp0
 70
     1
102
RTVSPropertyOp1
 70
     1
102
RTVSPropertyOp2
 70
     1
102
RTVSPropertyOp3
 70
     1
102
RTVSPropertyOp4
 70
     1
102
RTVSPropertyOp5
 70
     1
102
RTVSPropertyOp6
 70
     1
102
RTVSPropertyOp7
 70
     1
102
RTVSPropertyOp8
 70
     1
102
RTVSPropertyOp9
 70
     1
102
RTVSPropertyOp10
 70
     1
102
RTVSPropertyOp11
 70
     1
102
RTVSPropertyOp12
 70
     1
102
RTVSPropertyOp13
 70
     1
102
RTVSPropertyOp14
 70
     1
102
RTVSPropertyOp15
 70
     1
102
RTVSPropertyOp16
 70
     1
102
RTVSPropertyOp17
 70
     1
102
RTVSPropertyOp18
 70
     1
102
RTVSPropertyOp19
 70
     1
102
RTVSPropertyOp20
 70
     1
102
RTVSPropertyOp21
 70
     1
102
RTVSPropertyOp22
 70
     1
102
RTVSPropertyOp23
 70
     1
102
RTVSPropertyOp24
 70
     1
102
RTVSPropertyOp25
 70
     1
102
RTVSPropertyOp26
 70
     1
102
RTVSPropertyOp27
 70
     1
102
RTVSPropertyOp28
 70
     1
102
RTVSPropertyOp29
 70
     1
102
RTVSPropertyOp30
 70
     1
102
RTVSPropertyOp31
 70
     1
102
RTVSPropertyOp32
 70
     1
102
RTVSPropertyOp33
 70
     1
102
RTVSPropertyOp34
 70
     1
102
RTVSPropertyOp35
 70
     1
102
RTVSPropertyOp36
 70
     1
102
RTVSPropertyOp37
 70
     1
102
RTVSPropertyOp38
 70
     1
102
RTVSPropertyOp39
 70
     1
102
RTVSPropertyOp40
 70
     1
102
RTVSPropertyOp41
 70
     1
102
RTVSPropertyOp42
 70
     1
102
RTVSPropertyOp43
 70
     1
102
RTVSPropertyOp44
 70
     1
102
RTVSPropertyOp45
 70
     1
102
RTVSPropertyOp46
 70
     1
102
RTVSPropertyOp47
 70
     1
102
RTVSPropertyOp48
 70
     1
102
RTVSPropertyOp49
 70
     1
102
RTVSPropertyOp50
 70
     1
102
RTVSPropertyOp51
 70
     0
102
RTVSPropertyOp52
 70
     0
102
RTVSPropertyOp53
 70
     1
102
RTVSPropertyOp54
 70
     1
102
RTVSPropertyOp55
 70
     1
102
RTVSPropertyOp56
 70
     1
102
RTVSPropertyOp57
 70
     1
102
RTVSPropertyOp58
 70
     1
102
RTVSPropertyOp59
 70
     1
102
RTVSPropertyOp60
 70
     1
102
RTVSPropertyOp61
 70
     1
102
RTVSPropertyOp62
 70
     1
  0
XRECORD
  5
131A
102
{ACAD_REACTORS
330
1319
102
}
330
1319
100
AcDbXrecord
280
     1
102
RTVSPost2010Prop28
280
     0
102
RTVSPost2010PropOp28
 70
     1
102
RTVSPost2010Prop29
280
     1
102
RTVSPost2010PropOp29
 70
     1
102
RTVSPost2010Prop30
280
     1
102
RTVSPost2010PropOp30
 70
     1
102
RTVSPost2010Prop31
280
     0
102
RTVSPost2010PropOp31
 70
     1
102
RTVSPost2010Prop32
280
     0
102
RTVSPost2010PropOp32
 70
     1
102
RTVSPost2010Prop33
280
     0
102
RTVSPost2010PropOp33
 70
     1
102
RTVSPost2010Prop34
280
     0
102
RTVSPost2010PropOp34
 70
     1
102
RTVSPost2010Prop35
280
     0
102
RTVSPost2010PropOp35
 70
     1
102
RTVSPost2010Prop36
280
     0
102
RTVSPost2010PropOp36
 70
     1
102
RTVSPost2010Prop37
 90
       50
102
RTVSPost2010PropOp37
 70
     1
102
RTVSPost2010Prop38
140
0.0
102
RTVSPost2010PropOp38
 70
     1
102
RTVSPost2010Prop39
140
1.0
102
RTVSPost2010PropOp39
 70
     1
102
RTVSPost2010Prop40
 90
        0
102
RTVSPost2010PropOp40
 70
     1
102
RTVSPost2010Prop41ColorIndex
 90
       18
102
RTVSPost2010Prop41ColorRGB
 90
        0
102
RTVSPost2010PropOp41
 70
     1
102
RTVSPost2010Prop42
 90
       50
102
RTVSPost2010PropOp42
 70
     1
102
RTVSPost2010Prop43
 90
        3
102
RTVSPost2010PropOp43
 70
     1
102
RTVSPost2010Prop44ColorIndex
 90
        5
102
RTVSPost2010Prop44ColorRGB
 90
      255
102
RTVSPost2010PropOp44
 70
     1
102
RTVSPost2010Prop45
280
     0
102
RTVSPost2010PropOp45
 70
     1
102
RTVSPost2010Prop46
 90
       50
102
RTVSPost2010PropOp46
 70
     1
102
RTVSPost2010Prop47
 90
       50
102
RTVSPost2010PropOp47
 70
     1
102
RTVSPost2010Prop48
 90
       50
102
RTVSPost2010PropOp48
 70
     1
102
RTVSPost2010Prop49
280
     0
102
RTVSPost2010PropOp49
 70
     1
102
RTVSPost2010Prop50
 90
       50
102
RTVSPost2010PropOp50
 70
     1
102
RTVSPost2010Prop51ColorIndex
 90
      256
102
RTVSPost2010Prop51ColorRGB
 90
-16777216
102
RTVSPost2010PropOp51
 70
     0
102
RTVSPost2010Prop52
140
1.0
102
RTVSPost2010PropOp52
 70
     0
102
RTVSPost2010Prop53
 90
        2
102
RTVSPost2010PropOp53
 70
     1
102
RTVSPost2010Prop54
  1
strokes_ogs.tif
102
RTVSPost2010PropOp54
 70
     1
102
RTVSPost2010Prop55
280
     0
102
RTVSPost2010PropOp55
 70
     1
102
RTVSPost2010Prop56
140
1.0
102
RTVSPost2010PropOp56
 70
     1
102
RTVSPost2010Prop57
140
1.0
102
RTVSPost2010PropOp57
 70
     1
102
RTVSPropertyOp0
 70
     1
102
RTVSPropertyOp1
 70
     1
102
RTVSPropertyOp2
 70
     1
102
RTVSPropertyOp3
 70
     1
102
RTVSPropertyOp4
 70
     1
102
RTVSPropertyOp5
 70
     1
102
RTVSPropertyOp6
 70
     1
102
RTVSPropertyOp7
 70
     1
102
RTVSPropertyOp8
 70
     1
102
RTVSPropertyOp9
 70
     1
102
RTVSPropertyOp10
 70
     1
102
RTVSPropertyOp11
 70
     1
102
RTVSPropertyOp12
 70
     1
102
RTVSPropertyOp13
 70
     1
102
RTVSPropertyOp14
 70
     1
102
RTVSPropertyOp15
 70
     1
102
RTVSPropertyOp16
 70
     1
102
RTVSPropertyOp17
 70
     1
102
RTVSPropertyOp18
 70
     1
102
RTVSPropertyOp19
 70
     1
102
RTVSPropertyOp20
 70
     1
102
RTVSPropertyOp21
 70
     1
102
RTVSPropertyOp22
 70
     1
102
RTVSPropertyOp23
 70
     1
102
RTVSPropertyOp24
 70
     1
102
RTVSPropertyOp25
 70
     1
102
RTVSPropertyOp26
 70
     1
102
RTVSPropertyOp27
 70
     1
102
RTVSPropertyOp28
 70
     1
102
RTVSPropertyOp29
 70
     1
102
RTVSPropertyOp30
 70
     1
102
RTVSPropertyOp31
 70
     1
102
RTVSPropertyOp32
 70
     1
102
RTVSPropertyOp33
 70
     1
102
RTVSPropertyOp34
 70
     1
102
RTVSPropertyOp35
 70
     1
102
RTVSPropertyOp36
 70
     1
102
RTVSPropertyOp37
 70
     1
102
RTVSPropertyOp38
 70
     1
102
RTVSPropertyOp39
 70
     1
102
RTVSPropertyOp40
 70
     1
102
RTVSPropertyOp41
 70
     1
102
RTVSPropertyOp42
 70
     1
102
RTVSPropertyOp43
 70
     1
102
RTVSPropertyOp44
 70
     1
102
RTVSPropertyOp45
 70
     1
102
RTVSPropertyOp46
 70
     1
102
RTVSPropertyOp47
 70
     1
102
RTVSPropertyOp48
 70
     1
102
RTVSPropertyOp49
 70
     1
102
RTVSPropertyOp50
 70
     1
102
RTVSPropertyOp51
 70
     0
102
RTVSPropertyOp52
 70
     0
102
RTVSPropertyOp53
 70
     1
102
RTVSPropertyOp54
 70
     1
102
RTVSPropertyOp55
 70
     1
102
RTVSPropertyOp56
 70
     1
102
RTVSPropertyOp57
 70
     1
102
RTVSPropertyOp58
 70
     1
102
RTVSPropertyOp59
 70
     1
102
RTVSPropertyOp60
 70
     1
102
RTVSPropertyOp61
 70
     1
102
RTVSPropertyOp62
 70
     1
  0
XRECORD
  5
1316
102
{ACAD_REACTORS
330
1315
102
}
330
1315
100
AcDbXrecord
280
     1
102
RTVSPost2010Prop28
280
     0
102
RTVSPost2010PropOp28
 70
     1
102
RTVSPost2010Prop29
280
     1
102
RTVSPost2010PropOp29
 70
     1
102
RTVSPost2010Prop30
280
     1
102
RTVSPost2010PropOp30
 70
     1
102
RTVSPost2010Prop31
280
     0
102
RTVSPost2010PropOp31
 70
     1
102
RTVSPost2010Prop32
280
     0
102
RTVSPost2010PropOp32
 70
     1
102
RTVSPost2010Prop33
280
     0
102
RTVSPost2010PropOp33
 70
     1
102
RTVSPost2010Prop34
280
     0
102
RTVSPost2010PropOp34
 70
     1
102
RTVSPost2010Prop35
280
     0
102
RTVSPost2010PropOp35
 70
     1
102
RTVSPost2010Prop36
280
     0
102
RTVSPost2010PropOp36
 70
     1
102
RTVSPost2010Prop37
 90
       50
102
RTVSPost2010PropOp37
 70
     1
102
RTVSPost2010Prop38
140
0.0
102
RTVSPost2010PropOp38
 70
     1
102
RTVSPost2010Prop39
140
1.0
102
RTVSPost2010PropOp39
 70
     1
102
RTVSPost2010Prop40
 90
        0
102
RTVSPost2010PropOp40
 70
     1
102
RTVSPost2010Prop41ColorIndex
 90
       18
102
RTVSPost2010Prop41ColorRGB
 90
        0
102
RTVSPost2010PropOp41
 70
     1
102
RTVSPost2010Prop42
 90
       50
102
RTVSPost2010PropOp42
 70
     1
102
RTVSPost2010Prop43
 90
        3
102
RTVSPost2010PropOp43
 70
     1
102
RTVSPost2010Prop44ColorIndex
 90
        5
102
RTVSPost2010Prop44ColorRGB
 90
      255
102
RTVSPost2010PropOp44
 70
     1
102
RTVSPost2010Prop45
280
     0
102
RTVSPost2010PropOp45
 70
     1
102
RTVSPost2010Prop46
 90
       50
102
RTVSPost2010PropOp46
 70
     1
102
RTVSPost2010Prop47
 90
       50
102
RTVSPost2010PropOp47
 70
     1
102
RTVSPost2010Prop48
 90
       50
102
RTVSPost2010PropOp48
 70
     1
102
RTVSPost2010Prop49
280
     0
102
RTVSPost2010PropOp49
 70
     1
102
RTVSPost2010Prop50
 90
       50
102
RTVSPost2010PropOp50
 70
     1
102
RTVSPost2010Prop51ColorIndex
 90
      256
102
RTVSPost2010Prop51ColorRGB
 90
-16777216
102
RTVSPost2010PropOp51
 70
     0
102
RTVSPost2010Prop52
140
1.0
102
RTVSPost2010PropOp52
 70
     0
102
RTVSPost2010Prop53
 90
        2
102
RTVSPost2010PropOp53
 70
     1
102
RTVSPost2010Prop54
  1
strokes_ogs.tif
102
RTVSPost2010PropOp54
 70
     1
102
RTVSPost2010Prop55
280
     0
102
RTVSPost2010PropOp55
 70
     1
102
RTVSPost2010Prop56
140
1.0
102
RTVSPost2010PropOp56
 70
     1
102
RTVSPost2010Prop57
140
1.0
102
RTVSPost2010PropOp57
 70
     1
102
RTVSPropertyOp0
 70
     1
102
RTVSPropertyOp1
 70
     1
102
RTVSPropertyOp2
 70
     1
102
RTVSPropertyOp3
 70
     1
102
RTVSPropertyOp4
 70
     1
102
RTVSPropertyOp5
 70
     1
102
RTVSPropertyOp6
 70
     1
102
RTVSPropertyOp7
 70
     1
102
RTVSPropertyOp8
 70
     1
102
RTVSPropertyOp9
 70
     1
102
RTVSPropertyOp10
 70
     1
102
RTVSPropertyOp11
 70
     1
102
RTVSPropertyOp12
 70
     1
102
RTVSPropertyOp13
 70
     1
102
RTVSPropertyOp14
 70
     1
102
RTVSPropertyOp15
 70
     1
102
RTVSPropertyOp16
 70
     1
102
RTVSPropertyOp17
 70
     1
102
RTVSPropertyOp18
 70
     1
102
RTVSPropertyOp19
 70
     1
102
RTVSPropertyOp20
 70
     1
102
RTVSPropertyOp21
 70
     1
102
RTVSPropertyOp22
 70
     1
102
RTVSPropertyOp23
 70
     1
102
RTVSPropertyOp24
 70
     1
102
RTVSPropertyOp25
 70
     1
102
RTVSPropertyOp26
 70
     1
102
RTVSPropertyOp27
 70
     1
102
RTVSPropertyOp28
 70
     1
102
RTVSPropertyOp29
 70
     1
102
RTVSPropertyOp30
 70
     1
102
RTVSPropertyOp31
 70
     1
102
RTVSPropertyOp32
 70
     1
102
RTVSPropertyOp33
 70
     1
102
RTVSPropertyOp34
 70
     1
102
RTVSPropertyOp35
 70
     1
102
RTVSPropertyOp36
 70
     1
102
RTVSPropertyOp37
 70
     1
102
RTVSPropertyOp38
 70
     1
102
RTVSPropertyOp39
 70
     1
102
RTVSPropertyOp40
 70
     1
102
RTVSPropertyOp41
 70
     1
102
RTVSPropertyOp42
 70
     1
102
RTVSPropertyOp43
 70
     1
102
RTVSPropertyOp44
 70
     1
102
RTVSPropertyOp45
 70
     1
102
RTVSPropertyOp46
 70
     1
102
RTVSPropertyOp47
 70
     1
102
RTVSPropertyOp48
 70
     1
102
RTVSPropertyOp49
 70
     1
102
RTVSPropertyOp50
 70
     1
102
RTVSPropertyOp51
 70
     0
102
RTVSPropertyOp52
 70
     0
102
RTVSPropertyOp53
 70
     1
102
RTVSPropertyOp54
 70
     1
102
RTVSPropertyOp55
 70
     1
102
RTVSPropertyOp56
 70
     1
102
RTVSPropertyOp57
 70
     1
102
RTVSPropertyOp58
 70
     1
102
RTVSPropertyOp59
 70
     1
102
RTVSPropertyOp60
 70
     1
102
RTVSPropertyOp61
 70
     1
102
RTVSPropertyOp62
 70
     1
  0
XRECORD
  5
1324
102
{ACAD_REACTORS
330
1323
102
}
330
1323
100
AcDbXrecord
280
     1
102
RTVSPost2010Prop28
280
     0
102
RTVSPost2010PropOp28
 70
     1
102
RTVSPost2010Prop29
280
     1
102
RTVSPost2010PropOp29
 70
     1
102
RTVSPost2010Prop30
280
     1
102
RTVSPost2010PropOp30
 70
     1
102
RTVSPost2010Prop31
280
     0
102
RTVSPost2010PropOp31
 70
     1
102
RTVSPost2010Prop32
280
     0
102
RTVSPost2010PropOp32
 70
     1
102
RTVSPost2010Prop33
280
     0
102
RTVSPost2010PropOp33
 70
     1
102
RTVSPost2010Prop34
280
     0
102
RTVSPost2010PropOp34
 70
     1
102
RTVSPost2010Prop35
280
     0
102
RTVSPost2010PropOp35
 70
     1
102
RTVSPost2010Prop36
280
     0
102
RTVSPost2010PropOp36
 70
     1
102
RTVSPost2010Prop37
 90
       50
102
RTVSPost2010PropOp37
 70
     1
102
RTVSPost2010Prop38
140
0.0
102
RTVSPost2010PropOp38
 70
     1
102
RTVSPost2010Prop39
140
1.0
102
RTVSPost2010PropOp39
 70
     1
102
RTVSPost2010Prop40
 90
        0
102
RTVSPost2010PropOp40
 70
     1
102
RTVSPost2010Prop41ColorIndex
 90
       18
102
RTVSPost2010Prop41ColorRGB
 90
        0
102
RTVSPost2010PropOp41
 70
     1
102
RTVSPost2010Prop42
 90
       50
102
RTVSPost2010PropOp42
 70
     1
102
RTVSPost2010Prop43
 90
        3
102
RTVSPost2010PropOp43
 70
     1
102
RTVSPost2010Prop44ColorIndex
 90
        5
102
RTVSPost2010Prop44ColorRGB
 90
      255
102
RTVSPost2010PropOp44
 70
     1
102
RTVSPost2010Prop45
280
     0
102
RTVSPost2010PropOp45
 70
     1
102
RTVSPost2010Prop46
 90
       50
102
RTVSPost2010PropOp46
 70
     1
102
RTVSPost2010Prop47
 90
       50
102
RTVSPost2010PropOp47
 70
     1
102
RTVSPost2010Prop48
 90
       50
102
RTVSPost2010PropOp48
 70
     1
102
RTVSPost2010Prop49
280
     0
102
RTVSPost2010PropOp49
 70
     1
102
RTVSPost2010Prop50
 90
       50
102
RTVSPost2010PropOp50
 70
     1
102
RTVSPost2010Prop51ColorIndex
 90
      256
102
RTVSPost2010Prop51ColorRGB
 90
-16777216
102
RTVSPost2010PropOp51
 70
     0
102
RTVSPost2010Prop52
140
1.0
102
RTVSPost2010PropOp52
 70
     0
102
RTVSPost2010Prop53
 90
        2
102
RTVSPost2010PropOp53
 70
     1
102
RTVSPost2010Prop54
  1
strokes_ogs.tif
102
RTVSPost2010PropOp54
 70
     1
102
RTVSPost2010Prop55
280
     0
102
RTVSPost2010PropOp55
 70
     1
102
RTVSPost2010Prop56
140
1.0
102
RTVSPost2010PropOp56
 70
     1
102
RTVSPost2010Prop57
140
1.0
102
RTVSPost2010PropOp57
 70
     1
102
RTVSPropertyOp0
 70
     1
102
RTVSPropertyOp1
 70
     1
102
RTVSPropertyOp2
 70
     1
102
RTVSPropertyOp3
 70
     1
102
RTVSPropertyOp4
 70
     1
102
RTVSPropertyOp5
 70
     1
102
RTVSPropertyOp6
 70
     1
102
RTVSPropertyOp7
 70
     1
102
RTVSPropertyOp8
 70
     1
102
RTVSPropertyOp9
 70
     1
102
RTVSPropertyOp10
 70
     1
102
RTVSPropertyOp11
 70
     1
102
RTVSPropertyOp12
 70
     1
102
RTVSPropertyOp13
 70
     1
102
RTVSPropertyOp14
 70
     1
102
RTVSPropertyOp15
 70
     1
102
RTVSPropertyOp16
 70
     1
102
RTVSPropertyOp17
 70
     1
102
RTVSPropertyOp18
 70
     1
102
RTVSPropertyOp19
 70
     1
102
RTVSPropertyOp20
 70
     1
102
RTVSPropertyOp21
 70
     1
102
RTVSPropertyOp22
 70
     1
102
RTVSPropertyOp23
 70
     1
102
RTVSPropertyOp24
 70
     1
102
RTVSPropertyOp25
 70
     1
102
RTVSPropertyOp26
 70
     1
102
RTVSPropertyOp27
 70
     1
102
RTVSPropertyOp28
 70
     1
102
RTVSPropertyOp29
 70
     1
102
RTVSPropertyOp30
 70
     1
102
RTVSPropertyOp31
 70
     1
102
RTVSPropertyOp32
 70
     1
102
RTVSPropertyOp33
 70
     1
102
RTVSPropertyOp34
 70
     1
102
RTVSPropertyOp35
 70
     1
102
RTVSPropertyOp36
 70
     1
102
RTVSPropertyOp37
 70
     1
102
RTVSPropertyOp38
 70
     1
102
RTVSPropertyOp39
 70
     1
102
RTVSPropertyOp40
 70
     1
102
RTVSPropertyOp41
 70
     1
102
RTVSPropertyOp42
 70
     1
102
RTVSPropertyOp43
 70
     1
102
RTVSPropertyOp44
 70
     1
102
RTVSPropertyOp45
 70
     1
102
RTVSPropertyOp46
 70
     1
102
RTVSPropertyOp47
 70
     1
102
RTVSPropertyOp48
 70
     1
102
RTVSPropertyOp49
 70
     1
102
RTVSPropertyOp50
 70
     1
102
RTVSPropertyOp51
 70
     0
102
RTVSPropertyOp52
 70
     0
102
RTVSPropertyOp53
 70
     1
102
RTVSPropertyOp54
 70
     1
102
RTVSPropertyOp55
 70
     1
102
RTVSPropertyOp56
 70
     1
102
RTVSPropertyOp57
 70
     1
102
RTVSPropertyOp58
 70
     1
102
RTVSPropertyOp59
 70
     1
102
RTVSPropertyOp60
 70
     1
102
RTVSPropertyOp61
 70
     1
102
RTVSPropertyOp62
 70
     1
  0
XRECORD
  5
132C
102
{ACAD_REACTORS
330
132B
102
}
330
132B
100
AcDbXrecord
280
     1
102
RTVSPost2010Prop28
280
     0
102
RTVSPost2010PropOp28
 70
     1
102
RTVSPost2010Prop29
280
     1
102
RTVSPost2010PropOp29
 70
     1
102
RTVSPost2010Prop30
280
     1
102
RTVSPost2010PropOp30
 70
     1
102
RTVSPost2010Prop31
280
     0
102
RTVSPost2010PropOp31
 70
     1
102
RTVSPost2010Prop32
280
     0
102
RTVSPost2010PropOp32
 70
     1
102
RTVSPost2010Prop33
280
     0
102
RTVSPost2010PropOp33
 70
     1
102
RTVSPost2010Prop34
280
     0
102
RTVSPost2010PropOp34
 70
     1
102
RTVSPost2010Prop35
280
     0
102
RTVSPost2010PropOp35
 70
     1
102
RTVSPost2010Prop36
280
     0
102
RTVSPost2010PropOp36
 70
     1
102
RTVSPost2010Prop37
 90
       50
102
RTVSPost2010PropOp37
 70
     1
102
RTVSPost2010Prop38
140
0.0
102
RTVSPost2010PropOp38
 70
     1
102
RTVSPost2010Prop39
140
1.0
102
RTVSPost2010PropOp39
 70
     1
102
RTVSPost2010Prop40
 90
        0
102
RTVSPost2010PropOp40
 70
     1
102
RTVSPost2010Prop41ColorIndex
 90
       18
102
RTVSPost2010Prop41ColorRGB
 90
        0
102
RTVSPost2010PropOp41
 70
     1
102
RTVSPost2010Prop42
 90
       50
102
RTVSPost2010PropOp42
 70
     1
102
RTVSPost2010Prop43
 90
        3
102
RTVSPost2010PropOp43
 70
     1
102
RTVSPost2010Prop44ColorIndex
 90
        5
102
RTVSPost2010Prop44ColorRGB
 90
      255
102
RTVSPost2010PropOp44
 70
     1
102
RTVSPost2010Prop45
280
     0
102
RTVSPost2010PropOp45
 70
     1
102
RTVSPost2010Prop46
 90
       50
102
RTVSPost2010PropOp46
 70
     1
102
RTVSPost2010Prop47
 90
       50
102
RTVSPost2010PropOp47
 70
     1
102
RTVSPost2010Prop48
 90
       50
102
RTVSPost2010PropOp48
 70
     1
102
RTVSPost2010Prop49
280
     0
102
RTVSPost2010PropOp49
 70
     1
102
RTVSPost2010Prop50
 90
       50
102
RTVSPost2010PropOp50
 70
     1
102
RTVSPost2010Prop51ColorIndex
 90
      256
102
RTVSPost2010Prop51ColorRGB
 90
-16777216
102
RTVSPost2010PropOp51
 70
     0
102
RTVSPost2010Prop52
140
1.0
102
RTVSPost2010PropOp52
 70
     0
102
RTVSPost2010Prop53
 90
        2
102
RTVSPost2010PropOp53
 70
     1
102
RTVSPost2010Prop54
  1
strokes_ogs.tif
102
RTVSPost2010PropOp54
 70
     1
102
RTVSPost2010Prop55
280
     0
102
RTVSPost2010PropOp55
 70
     1
102
RTVSPost2010Prop56
140
1.0
102
RTVSPost2010PropOp56
 70
     1
102
RTVSPost2010Prop57
140
1.0
102
RTVSPost2010PropOp57
 70
     1
102
RTVSPropertyOp0
 70
     1
102
RTVSPropertyOp1
 70
     1
102
RTVSPropertyOp2
 70
     1
102
RTVSPropertyOp3
 70
     1
102
RTVSPropertyOp4
 70
     1
102
RTVSPropertyOp5
 70
     1
102
RTVSPropertyOp6
 70
     1
102
RTVSPropertyOp7
 70
     1
102
RTVSPropertyOp8
 70
     1
102
RTVSPropertyOp9
 70
     1
102
RTVSPropertyOp10
 70
     1
102
RTVSPropertyOp11
 70
     1
102
RTVSPropertyOp12
 70
     1
102
RTVSPropertyOp13
 70
     1
102
RTVSPropertyOp14
 70
     1
102
RTVSPropertyOp15
 70
     1
102
RTVSPropertyOp16
 70
     1
102
RTVSPropertyOp17
 70
     1
102
RTVSPropertyOp18
 70
     1
102
RTVSPropertyOp19
 70
     1
102
RTVSPropertyOp20
 70
     1
102
RTVSPropertyOp21
 70
     1
102
RTVSPropertyOp22
 70
     1
102
RTVSPropertyOp23
 70
     1
102
RTVSPropertyOp24
 70
     1
102
RTVSPropertyOp25
 70
     1
102
RTVSPropertyOp26
 70
     1
102
RTVSPropertyOp27
 70
     1
102
RTVSPropertyOp28
 70
     1
102
RTVSPropertyOp29
 70
     1
102
RTVSPropertyOp30
 70
     1
102
RTVSPropertyOp31
 70
     1
102
RTVSPropertyOp32
 70
     1
102
RTVSPropertyOp33
 70
     1
102
RTVSPropertyOp34
 70
     1
102
RTVSPropertyOp35
 70
     1
102
RTVSPropertyOp36
 70
     1
102
RTVSPropertyOp37
 70
     1
102
RTVSPropertyOp38
 70
     1
102
RTVSPropertyOp39
 70
     1
102
RTVSPropertyOp40
 70
     1
102
RTVSPropertyOp41
 70
     1
102
RTVSPropertyOp42
 70
     1
102
RTVSPropertyOp43
 70
     1
102
RTVSPropertyOp44
 70
     1
102
RTVSPropertyOp45
 70
     1
102
RTVSPropertyOp46
 70
     1
102
RTVSPropertyOp47
 70
     1
102
RTVSPropertyOp48
 70
     1
102
RTVSPropertyOp49
 70
     1
102
RTVSPropertyOp50
 70
     1
102
RTVSPropertyOp51
 70
     0
102
RTVSPropertyOp52
 70
     0
102
RTVSPropertyOp53
 70
     1
102
RTVSPropertyOp54
 70
     1
102
RTVSPropertyOp55
 70
     1
102
RTVSPropertyOp56
 70
     1
102
RTVSPropertyOp57
 70
     1
102
RTVSPropertyOp58
 70
     1
102
RTVSPropertyOp59
 70
     1
102
RTVSPropertyOp60
 70
     1
102
RTVSPropertyOp61
 70
     1
102
RTVSPropertyOp62
 70
     1
  0
XRECORD
  5
131E
102
{ACAD_REACTORS
330
131D
102
}
330
131D
100
AcDbXrecord
280
     1
102
RTVSPost2010Prop28
280
     0
102
RTVSPost2010PropOp28
 70
     1
102
RTVSPost2010Prop29
280
     1
102
RTVSPost2010PropOp29
 70
     1
102
RTVSPost2010Prop30
280
     1
102
RTVSPost2010PropOp30
 70
     1
102
RTVSPost2010Prop31
280
     0
102
RTVSPost2010PropOp31
 70
     1
102
RTVSPost2010Prop32
280
     0
102
RTVSPost2010PropOp32
 70
     1
102
RTVSPost2010Prop33
280
     0
102
RTVSPost2010PropOp33
 70
     1
102
RTVSPost2010Prop34
280
     0
102
RTVSPost2010PropOp34
 70
     1
102
RTVSPost2010Prop35
280
     0
102
RTVSPost2010PropOp35
 70
     1
102
RTVSPost2010Prop36
280
     0
102
RTVSPost2010PropOp36
 70
     1
102
RTVSPost2010Prop37
 90
       50
102
RTVSPost2010PropOp37
 70
     1
102
RTVSPost2010Prop38
140
0.0
102
RTVSPost2010PropOp38
 70
     1
102
RTVSPost2010Prop39
140
1.0
102
RTVSPost2010PropOp39
 70
     1
102
RTVSPost2010Prop40
 90
        0
102
RTVSPost2010PropOp40
 70
     1
102
RTVSPost2010Prop41ColorIndex
 90
       18
102
RTVSPost2010Prop41ColorRGB
 90
        0
102
RTVSPost2010PropOp41
 70
     1
102
RTVSPost2010Prop42
 90
       50
102
RTVSPost2010PropOp42
 70
     1
102
RTVSPost2010Prop43
 90
        3
102
RTVSPost2010PropOp43
 70
     1
102
RTVSPost2010Prop44ColorIndex
 90
        5
102
RTVSPost2010Prop44ColorRGB
 90
      255
102
RTVSPost2010PropOp44
 70
     1
102
RTVSPost2010Prop45
280
     0
102
RTVSPost2010PropOp45
 70
     1
102
RTVSPost2010Prop46
 90
       50
102
RTVSPost2010PropOp46
 70
     1
102
RTVSPost2010Prop47
 90
       50
102
RTVSPost2010PropOp47
 70
     1
102
RTVSPost2010Prop48
 90
       50
102
RTVSPost2010PropOp48
 70
     1
102
RTVSPost2010Prop49
280
     0
102
RTVSPost2010PropOp49
 70
     1
102
RTVSPost2010Prop50
 90
       50
102
RTVSPost2010PropOp50
 70
     1
102
RTVSPost2010Prop51ColorIndex
 90
      256
102
RTVSPost2010Prop51ColorRGB
 90
-16777216
102
RTVSPost2010PropOp51
 70
     0
102
RTVSPost2010Prop52
140
1.0
102
RTVSPost2010PropOp52
 70
     0
102
RTVSPost2010Prop53
 90
        2
102
RTVSPost2010PropOp53
 70
     1
102
RTVSPost2010Prop54
  1
strokes_ogs.tif
102
RTVSPost2010PropOp54
 70
     1
102
RTVSPost2010Prop55
280
     0
102
RTVSPost2010PropOp55
 70
     1
102
RTVSPost2010Prop56
140
1.0
102
RTVSPost2010PropOp56
 70
     1
102
RTVSPost2010Prop57
140
1.0
102
RTVSPost2010PropOp57
 70
     1
102
RTVSPropertyOp0
 70
     1
102
RTVSPropertyOp1
 70
     1
102
RTVSPropertyOp2
 70
     1
102
RTVSPropertyOp3
 70
     1
102
RTVSPropertyOp4
 70
     1
102
RTVSPropertyOp5
 70
     1
102
RTVSPropertyOp6
 70
     1
102
RTVSPropertyOp7
 70
     1
102
RTVSPropertyOp8
 70
     1
102
RTVSPropertyOp9
 70
     1
102
RTVSPropertyOp10
 70
     1
102
RTVSPropertyOp11
 70
     1
102
RTVSPropertyOp12
 70
     1
102
RTVSPropertyOp13
 70
     1
102
RTVSPropertyOp14
 70
     1
102
RTVSPropertyOp15
 70
     1
102
RTVSPropertyOp16
 70
     1
102
RTVSPropertyOp17
 70
     1
102
RTVSPropertyOp18
 70
     1
102
RTVSPropertyOp19
 70
     1
102
RTVSPropertyOp20
 70
     1
102
RTVSPropertyOp21
 70
     1
102
RTVSPropertyOp22
 70
     1
102
RTVSPropertyOp23
 70
     1
102
RTVSPropertyOp24
 70
     1
102
RTVSPropertyOp25
 70
     1
102
RTVSPropertyOp26
 70
     1
102
RTVSPropertyOp27
 70
     1
102
RTVSPropertyOp28
 70
     1
102
RTVSPropertyOp29
 70
     1
102
RTVSPropertyOp30
 70
     1
102
RTVSPropertyOp31
 70
     1
102
RTVSPropertyOp32
 70
     1
102
RTVSPropertyOp33
 70
     1
102
RTVSPropertyOp34
 70
     1
102
RTVSPropertyOp35
 70
     1
102
RTVSPropertyOp36
 70
     1
102
RTVSPropertyOp37
 70
     1
102
RTVSPropertyOp38
 70
     1
102
RTVSPropertyOp39
 70
     1
102
RTVSPropertyOp40
 70
     1
102
RTVSPropertyOp41
 70
     1
102
RTVSPropertyOp42
 70
     1
102
RTVSPropertyOp43
 70
     1
102
RTVSPropertyOp44
 70
     1
102
RTVSPropertyOp45
 70
     1
102
RTVSPropertyOp46
 70
     1
102
RTVSPropertyOp47
 70
     1
102
RTVSPropertyOp48
 70
     1
102
RTVSPropertyOp49
 70
     1
102
RTVSPropertyOp50
 70
     1
102
RTVSPropertyOp51
 70
     0
102
RTVSPropertyOp52
 70
     0
102
RTVSPropertyOp53
 70
     1
102
RTVSPropertyOp54
 70
     1
102
RTVSPropertyOp55
 70
     1
102
RTVSPropertyOp56
 70
     1
102
RTVSPropertyOp57
 70
     1
102
RTVSPropertyOp58
 70
     1
102
RTVSPropertyOp59
 70
     1
102
RTVSPropertyOp60
 70
     1
102
RTVSPropertyOp61
 70
     1
102
RTVSPropertyOp62
 70
     1
  0
XRECORD
  5
1322
102
{ACAD_REACTORS
330
1321
102
}
330
1321
100
AcDbXrecord
280
     1
102
RTVSPost2010Prop28
280
     0
102
RTVSPost2010PropOp28
 70
     1
102
RTVSPost2010Prop29
280
     1
102
RTVSPost2010PropOp29
 70
     1
102
RTVSPost2010Prop30
280
     1
102
RTVSPost2010PropOp30
 70
     1
102
RTVSPost2010Prop31
280
     0
102
RTVSPost2010PropOp31
 70
     1
102
RTVSPost2010Prop32
280
     0
102
RTVSPost2010PropOp32
 70
     1
102
RTVSPost2010Prop33
280
     0
102
RTVSPost2010PropOp33
 70
     1
102
RTVSPost2010Prop34
280
     0
102
RTVSPost2010PropOp34
 70
     1
102
RTVSPost2010Prop35
280
     0
102
RTVSPost2010PropOp35
 70
     1
102
RTVSPost2010Prop36
280
     0
102
RTVSPost2010PropOp36
 70
     1
102
RTVSPost2010Prop37
 90
       50
102
RTVSPost2010PropOp37
 70
     1
102
RTVSPost2010Prop38
140
0.0
102
RTVSPost2010PropOp38
 70
     1
102
RTVSPost2010Prop39
140
1.0
102
RTVSPost2010PropOp39
 70
     1
102
RTVSPost2010Prop40
 90
        0
102
RTVSPost2010PropOp40
 70
     1
102
RTVSPost2010Prop41ColorIndex
 90
       18
102
RTVSPost2010Prop41ColorRGB
 90
        0
102
RTVSPost2010PropOp41
 70
     1
102
RTVSPost2010Prop42
 90
       50
102
RTVSPost2010PropOp42
 70
     1
102
RTVSPost2010Prop43
 90
        3
102
RTVSPost2010PropOp43
 70
     1
102
RTVSPost2010Prop44ColorIndex
 90
        5
102
RTVSPost2010Prop44ColorRGB
 90
      255
102
RTVSPost2010PropOp44
 70
     1
102
RTVSPost2010Prop45
280
     0
102
RTVSPost2010PropOp45
 70
     1
102
RTVSPost2010Prop46
 90
       50
102
RTVSPost2010PropOp46
 70
     1
102
RTVSPost2010Prop47
 90
       50
102
RTVSPost2010PropOp47
 70
     1
102
RTVSPost2010Prop48
 90
       50
102
RTVSPost2010PropOp48
 70
     1
102
RTVSPost2010Prop49
280
     0
102
RTVSPost2010PropOp49
 70
     1
102
RTVSPost2010Prop50
 90
       50
102
RTVSPost2010PropOp50
 70
     1
102
RTVSPost2010Prop51ColorIndex
 90
      256
102
RTVSPost2010Prop51ColorRGB
 90
-16777216
102
RTVSPost2010PropOp51
 70
     0
102
RTVSPost2010Prop52
140
1.0
102
RTVSPost2010PropOp52
 70
     0
102
RTVSPost2010Prop53
 90
        2
102
RTVSPost2010PropOp53
 70
     1
102
RTVSPost2010Prop54
  1
strokes_ogs.tif
102
RTVSPost2010PropOp54
 70
     1
102
RTVSPost2010Prop55
280
     0
102
RTVSPost2010PropOp55
 70
     1
102
RTVSPost2010Prop56
140
1.0
102
RTVSPost2010PropOp56
 70
     1
102
RTVSPost2010Prop57
140
1.0
102
RTVSPost2010PropOp57
 70
     1
102
RTVSPropertyOp0
 70
     1
102
RTVSPropertyOp1
 70
     1
102
RTVSPropertyOp2
 70
     1
102
RTVSPropertyOp3
 70
     1
102
RTVSPropertyOp4
 70
     1
102
RTVSPropertyOp5
 70
     1
102
RTVSPropertyOp6
 70
     1
102
RTVSPropertyOp7
 70
     1
102
RTVSPropertyOp8
 70
     1
102
RTVSPropertyOp9
 70
     1
102
RTVSPropertyOp10
 70
     1
102
RTVSPropertyOp11
 70
     1
102
RTVSPropertyOp12
 70
     1
102
RTVSPropertyOp13
 70
     1
102
RTVSPropertyOp14
 70
     1
102
RTVSPropertyOp15
 70
     1
102
RTVSPropertyOp16
 70
     1
102
RTVSPropertyOp17
 70
     1
102
RTVSPropertyOp18
 70
     1
102
RTVSPropertyOp19
 70
     1
102
RTVSPropertyOp20
 70
     1
102
RTVSPropertyOp21
 70
     1
102
RTVSPropertyOp22
 70
     1
102
RTVSPropertyOp23
 70
     1
102
RTVSPropertyOp24
 70
     1
102
RTVSPropertyOp25
 70
     1
102
RTVSPropertyOp26
 70
     1
102
RTVSPropertyOp27
 70
     1
102
RTVSPropertyOp28
 70
     1
102
RTVSPropertyOp29
 70
     1
102
RTVSPropertyOp30
 70
     1
102
RTVSPropertyOp31
 70
     1
102
RTVSPropertyOp32
 70
     1
102
RTVSPropertyOp33
 70
     1
102
RTVSPropertyOp34
 70
     1
102
RTVSPropertyOp35
 70
     1
102
RTVSPropertyOp36
 70
     1
102
RTVSPropertyOp37
 70
     1
102
RTVSPropertyOp38
 70
     1
102
RTVSPropertyOp39
 70
     1
102
RTVSPropertyOp40
 70
     1
102
RTVSPropertyOp41
 70
     1
102
RTVSPropertyOp42
 70
     1
102
RTVSPropertyOp43
 70
     1
102
RTVSPropertyOp44
 70
     1
102
RTVSPropertyOp45
 70
     1
102
RTVSPropertyOp46
 70
     1
102
RTVSPropertyOp47
 70
     1
102
RTVSPropertyOp48
 70
     1
102
RTVSPropertyOp49
 70
     1
102
RTVSPropertyOp50
 70
     1
102
RTVSPropertyOp51
 70
     0
102
RTVSPropertyOp52
 70
     0
102
RTVSPropertyOp53
 70
     1
102
RTVSPropertyOp54
 70
     1
102
RTVSPropertyOp55
 70
     1
102
RTVSPropertyOp56
 70
     1
102
RTVSPropertyOp57
 70
     1
102
RTVSPropertyOp58
 70
     1
102
RTVSPropertyOp59
 70
     1
102
RTVSPropertyOp60
 70
     1
102
RTVSPropertyOp61
 70
     1
102
RTVSPropertyOp62
 70
     1
  0
XRECORD
  5
1332
102
{ACAD_REACTORS
330
1331
102
}
330
1331
100
AcDbXrecord
280
     1
102
RTVSPost2010Prop28
280
     0
102
RTVSPost2010PropOp28
 70
     1
102
RTVSPost2010Prop29
280
     1
102
RTVSPost2010PropOp29
 70
     1
102
RTVSPost2010Prop30
280
     1
102
RTVSPost2010PropOp30
 70
     1
102
RTVSPost2010Prop31
280
     0
102
RTVSPost2010PropOp31
 70
     1
102
RTVSPost2010Prop32
280
     0
102
RTVSPost2010PropOp32
 70
     1
102
RTVSPost2010Prop33
280
     0
102
RTVSPost2010PropOp33
 70
     1
102
RTVSPost2010Prop34
280
     0
102
RTVSPost2010PropOp34
 70
     1
102
RTVSPost2010Prop35
280
     0
102
RTVSPost2010PropOp35
 70
     1
102
RTVSPost2010Prop36
280
     0
102
RTVSPost2010PropOp36
 70
     1
102
RTVSPost2010Prop37
 90
       50
102
RTVSPost2010PropOp37
 70
     1
102
RTVSPost2010Prop38
140
0.0
102
RTVSPost2010PropOp38
 70
     1
102
RTVSPost2010Prop39
140
1.0
102
RTVSPost2010PropOp39
 70
     1
102
RTVSPost2010Prop40
 90
        0
102
RTVSPost2010PropOp40
 70
     1
102
RTVSPost2010Prop41ColorIndex
 90
       18
102
RTVSPost2010Prop41ColorRGB
 90
        0
102
RTVSPost2010PropOp41
 70
     1
102
RTVSPost2010Prop42
 90
       50
102
RTVSPost2010PropOp42
 70
     1
102
RTVSPost2010Prop43
 90
        3
102
RTVSPost2010PropOp43
 70
     1
102
RTVSPost2010Prop44ColorIndex
 90
        5
102
RTVSPost2010Prop44ColorRGB
 90
      255
102
RTVSPost2010PropOp44
 70
     1
102
RTVSPost2010Prop45
280
     0
102
RTVSPost2010PropOp45
 70
     1
102
RTVSPost2010Prop46
 90
       50
102
RTVSPost2010PropOp46
 70
     1
102
RTVSPost2010Prop47
 90
       50
102
RTVSPost2010PropOp47
 70
     1
102
RTVSPost2010Prop48
 90
       50
102
RTVSPost2010PropOp48
 70
     1
102
RTVSPost2010Prop49
280
     0
102
RTVSPost2010PropOp49
 70
     1
102
RTVSPost2010Prop50
 90
       50
102
RTVSPost2010PropOp50
 70
     1
102
RTVSPost2010Prop51ColorIndex
 90
      256
102
RTVSPost2010Prop51ColorRGB
 90
-16777216
102
RTVSPost2010PropOp51
 70
     0
102
RTVSPost2010Prop52
140
1.0
102
RTVSPost2010PropOp52
 70
     0
102
RTVSPost2010Prop53
 90
        2
102
RTVSPost2010PropOp53
 70
     1
102
RTVSPost2010Prop54
  1
strokes_ogs.tif
102
RTVSPost2010PropOp54
 70
     1
102
RTVSPost2010Prop55
280
     0
102
RTVSPost2010PropOp55
 70
     1
102
RTVSPost2010Prop56
140
1.0
102
RTVSPost2010PropOp56
 70
     1
102
RTVSPost2010Prop57
140
1.0
102
RTVSPost2010PropOp57
 70
     1
102
RTVSPropertyOp0
 70
     0
102
RTVSPropertyOp1
 70
     0
102
RTVSPropertyOp2
 70
     0
102
RTVSPropertyOp3
 70
     0
102
RTVSPropertyOp4
 70
     0
102
RTVSPropertyOp5
 70
     0
102
RTVSPropertyOp6
 70
     0
102
RTVSPropertyOp7
 70
     0
102
RTVSPropertyOp8
 70
     0
102
RTVSPropertyOp9
 70
     0
102
RTVSPropertyOp10
 70
     0
102
RTVSPropertyOp11
 70
     0
102
RTVSPropertyOp12
 70
     0
102
RTVSPropertyOp13
 70
     0
102
RTVSPropertyOp14
 70
     2
102
RTVSPropertyOp15
 70
     0
102
RTVSPropertyOp16
 70
     0
102
RTVSPropertyOp17
 70
     0
102
RTVSPropertyOp18
 70
     0
102
RTVSPropertyOp19
 70
     0
102
RTVSPropertyOp20
 70
     0
102
RTVSPropertyOp21
 70
     0
102
RTVSPropertyOp22
 70
     0
102
RTVSPropertyOp23
 70
     0
102
RTVSPropertyOp24
 70
     0
102
RTVSPropertyOp25
 70
     0
102
RTVSPropertyOp26
 70
     0
102
RTVSPropertyOp27
 70
     0
102
RTVSPropertyOp28
 70
     1
102
RTVSPropertyOp29
 70
     1
102
RTVSPropertyOp30
 70
     1
102
RTVSPropertyOp31
 70
     1
102
RTVSPropertyOp32
 70
     1
102
RTVSPropertyOp33
 70
     1
102
RTVSPropertyOp34
 70
     1
102
RTVSPropertyOp35
 70
     1
102
RTVSPropertyOp36
 70
     1
102
RTVSPropertyOp37
 70
     1
102
RTVSPropertyOp38
 70
     1
102
RTVSPropertyOp39
 70
     1
102
RTVSPropertyOp40
 70
     1
102
RTVSPropertyOp41
 70
     1
102
RTVSPropertyOp42
 70
     1
102
RTVSPropertyOp43
 70
     1
102
RTVSPropertyOp44
 70
     1
102
RTVSPropertyOp45
 70
     1
102
RTVSPropertyOp46
 70
     1
102
RTVSPropertyOp47
 70
     1
102
RTVSPropertyOp48
 70
     1
102
RTVSPropertyOp49
 70
     1
102
RTVSPropertyOp50
 70
     1
102
RTVSPropertyOp51
 70
     0
102
RTVSPropertyOp52
 70
     0
102
RTVSPropertyOp53
 70
     1
102
RTVSPropertyOp54
 70
     1
102
RTVSPropertyOp55
 70
     1
102
RTVSPropertyOp56
 70
     1
102
RTVSPropertyOp57
 70
     1
102
RTVSPropertyOp58
 70
     1
102
RTVSPropertyOp59
 70
     1
102
RTVSPropertyOp60
 70
     1
102
RTVSPropertyOp61
 70
     1
102
RTVSPropertyOp62
 70
     1
  0
XRECORD
  5
132A
102
{ACAD_REACTORS
330
1329
102
}
330
1329
100
AcDbXrecord
280
     1
102
RTVSPost2010Prop28
280
     0
102
RTVSPost2010PropOp28
 70
     1
102
RTVSPost2010Prop29
280
     1
102
RTVSPost2010PropOp29
 70
     1
102
RTVSPost2010Prop30
280
     1
102
RTVSPost2010PropOp30
 70
     1
102
RTVSPost2010Prop31
280
     0
102
RTVSPost2010PropOp31
 70
     1
102
RTVSPost2010Prop32
280
     0
102
RTVSPost2010PropOp32
 70
     1
102
RTVSPost2010Prop33
280
     0
102
RTVSPost2010PropOp33
 70
     1
102
RTVSPost2010Prop34
280
     0
102
RTVSPost2010PropOp34
 70
     1
102
RTVSPost2010Prop35
280
     0
102
RTVSPost2010PropOp35
 70
     1
102
RTVSPost2010Prop36
280
     0
102
RTVSPost2010PropOp36
 70
     1
102
RTVSPost2010Prop37
 90
       50
102
RTVSPost2010PropOp37
 70
     1
102
RTVSPost2010Prop38
140
0.0
102
RTVSPost2010PropOp38
 70
     1
102
RTVSPost2010Prop39
140
1.0
102
RTVSPost2010PropOp39
 70
     1
102
RTVSPost2010Prop40
 90
        0
102
RTVSPost2010PropOp40
 70
     1
102
RTVSPost2010Prop41ColorIndex
 90
       18
102
RTVSPost2010Prop41ColorRGB
 90
        0
102
RTVSPost2010PropOp41
 70
     1
102
RTVSPost2010Prop42
 90
       50
102
RTVSPost2010PropOp42
 70
     1
102
RTVSPost2010Prop43
 90
        3
102
RTVSPost2010PropOp43
 70
     1
102
RTVSPost2010Prop44ColorIndex
 90
        5
102
RTVSPost2010Prop44ColorRGB
 90
      255
102
RTVSPost2010PropOp44
 70
     1
102
RTVSPost2010Prop45
280
     0
102
RTVSPost2010PropOp45
 70
     1
102
RTVSPost2010Prop46
 90
       50
102
RTVSPost2010PropOp46
 70
     1
102
RTVSPost2010Prop47
 90
       50
102
RTVSPost2010PropOp47
 70
     1
102
RTVSPost2010Prop48
 90
       50
102
RTVSPost2010PropOp48
 70
     1
102
RTVSPost2010Prop49
280
     0
102
RTVSPost2010PropOp49
 70
     1
102
RTVSPost2010Prop50
 90
       50
102
RTVSPost2010PropOp50
 70
     1
102
RTVSPost2010Prop51ColorIndex
 90
      256
102
RTVSPost2010Prop51ColorRGB
 90
-16777216
102
RTVSPost2010PropOp51
 70
     0
102
RTVSPost2010Prop52
140
1.0
102
RTVSPost2010PropOp52
 70
     0
102
RTVSPost2010Prop53
 90
        2
102
RTVSPost2010PropOp53
 70
     1
102
RTVSPost2010Prop54
  1
strokes_ogs.tif
102
RTVSPost2010PropOp54
 70
     1
102
RTVSPost2010Prop55
280
     0
102
RTVSPost2010PropOp55
 70
     1
102
RTVSPost2010Prop56
140
1.0
102
RTVSPost2010PropOp56
 70
     1
102
RTVSPost2010Prop57
140
1.0
102
RTVSPost2010PropOp57
 70
     1
102
RTVSPropertyOp0
 70
     1
102
RTVSPropertyOp1
 70
     1
102
RTVSPropertyOp2
 70
     1
102
RTVSPropertyOp3
 70
     1
102
RTVSPropertyOp4
 70
     1
102
RTVSPropertyOp5
 70
     1
102
RTVSPropertyOp6
 70
     1
102
RTVSPropertyOp7
 70
     1
102
RTVSPropertyOp8
 70
     1
102
RTVSPropertyOp9
 70
     1
102
RTVSPropertyOp10
 70
     1
102
RTVSPropertyOp11
 70
     1
102
RTVSPropertyOp12
 70
     1
102
RTVSPropertyOp13
 70
     1
102
RTVSPropertyOp14
 70
     1
102
RTVSPropertyOp15
 70
     1
102
RTVSPropertyOp16
 70
     1
102
RTVSPropertyOp17
 70
     1
102
RTVSPropertyOp18
 70
     1
102
RTVSPropertyOp19
 70
     1
102
RTVSPropertyOp20
 70
     1
102
RTVSPropertyOp21
 70
     1
102
RTVSPropertyOp22
 70
     1
102
RTVSPropertyOp23
 70
     1
102
RTVSPropertyOp24
 70
     1
102
RTVSPropertyOp25
 70
     1
102
RTVSPropertyOp26
 70
     1
102
RTVSPropertyOp27
 70
     1
102
RTVSPropertyOp28
 70
     1
102
RTVSPropertyOp29
 70
     1
102
RTVSPropertyOp30
 70
     1
102
RTVSPropertyOp31
 70
     1
102
RTVSPropertyOp32
 70
     1
102
RTVSPropertyOp33
 70
     1
102
RTVSPropertyOp34
 70
     1
102
RTVSPropertyOp35
 70
     1
102
RTVSPropertyOp36
 70
     1
102
RTVSPropertyOp37
 70
     1
102
RTVSPropertyOp38
 70
     1
102
RTVSPropertyOp39
 70
     1
102
RTVSPropertyOp40
 70
     1
102
RTVSPropertyOp41
 70
     1
102
RTVSPropertyOp42
 70
     1
102
RTVSPropertyOp43
 70
     1
102
RTVSPropertyOp44
 70
     1
102
RTVSPropertyOp45
 70
     1
102
RTVSPropertyOp46
 70
     1
102
RTVSPropertyOp47
 70
     1
102
RTVSPropertyOp48
 70
     1
102
RTVSPropertyOp49
 70
     1
102
RTVSPropertyOp50
 70
     1
102
RTVSPropertyOp51
 70
     0
102
RTVSPropertyOp52
 70
     0
102
RTVSPropertyOp53
 70
     1
102
RTVSPropertyOp54
 70
     1
102
RTVSPropertyOp55
 70
     1
102
RTVSPropertyOp56
 70
     1
102
RTVSPropertyOp57
 70
     1
102
RTVSPropertyOp58
 70
     1
102
RTVSPropertyOp59
 70
     1
102
RTVSPropertyOp60
 70
     1
102
RTVSPropertyOp61
 70
     1
102
RTVSPropertyOp62
 70
     1
  0
XRECORD
  5
130E
102
{ACAD_REACTORS
330
130D
102
}
330
130D
100
AcDbXrecord
280
     1
102
RTVSPost2010Prop28
280
     0
102
RTVSPost2010PropOp28
 70
     1
102
RTVSPost2010Prop29
280
     1
102
RTVSPost2010PropOp29
 70
     1
102
RTVSPost2010Prop30
280
     1
102
RTVSPost2010PropOp30
 70
     1
102
RTVSPost2010Prop31
280
     0
102
RTVSPost2010PropOp31
 70
     1
102
RTVSPost2010Prop32
280
     0
102
RTVSPost2010PropOp32
 70
     1
102
RTVSPost2010Prop33
280
     0
102
RTVSPost2010PropOp33
 70
     1
102
RTVSPost2010Prop34
280
     0
102
RTVSPost2010PropOp34
 70
     1
102
RTVSPost2010Prop35
280
     0
102
RTVSPost2010PropOp35
 70
     1
102
RTVSPost2010Prop36
280
     0
102
RTVSPost2010PropOp36
 70
     1
102
RTVSPost2010Prop37
 90
       50
102
RTVSPost2010PropOp37
 70
     1
102
RTVSPost2010Prop38
140
0.0
102
RTVSPost2010PropOp38
 70
     1
102
RTVSPost2010Prop39
140
1.0
102
RTVSPost2010PropOp39
 70
     1
102
RTVSPost2010Prop40
 90
        0
102
RTVSPost2010PropOp40
 70
     1
102
RTVSPost2010Prop41ColorIndex
 90
       18
102
RTVSPost2010Prop41ColorRGB
 90
        0
102
RTVSPost2010PropOp41
 70
     1
102
RTVSPost2010Prop42
 90
       50
102
RTVSPost2010PropOp42
 70
     1
102
RTVSPost2010Prop43
 90
        3
102
RTVSPost2010PropOp43
 70
     1
102
RTVSPost2010Prop44ColorIndex
 90
        5
102
RTVSPost2010Prop44ColorRGB
 90
      255
102
RTVSPost2010PropOp44
 70
     1
102
RTVSPost2010Prop45
280
     0
102
RTVSPost2010PropOp45
 70
     1
102
RTVSPost2010Prop46
 90
       50
102
RTVSPost2010PropOp46
 70
     1
102
RTVSPost2010Prop47
 90
       50
102
RTVSPost2010PropOp47
 70
     1
102
RTVSPost2010Prop48
 90
       50
102
RTVSPost2010PropOp48
 70
     1
102
RTVSPost2010Prop49
280
     0
102
RTVSPost2010PropOp49
 70
     1
102
RTVSPost2010Prop50
 90
       50
102
RTVSPost2010PropOp50
 70
     1
102
RTVSPost2010Prop51ColorIndex
 90
      256
102
RTVSPost2010Prop51ColorRGB
 90
-16777216
102
RTVSPost2010PropOp51
 70
     0
102
RTVSPost2010Prop52
140
1.0
102
RTVSPost2010PropOp52
 70
     0
102
RTVSPost2010Prop53
 90
        2
102
RTVSPost2010PropOp53
 70
     1
102
RTVSPost2010Prop54
  1
strokes_ogs.tif
102
RTVSPost2010PropOp54
 70
     1
102
RTVSPost2010Prop55
280
     0
102
RTVSPost2010PropOp55
 70
     1
102
RTVSPost2010Prop56
140
1.0
102
RTVSPost2010PropOp56
 70
     1
102
RTVSPost2010Prop57
140
1.0
102
RTVSPost2010PropOp57
 70
     1
102
RTVSPropertyOp0
 70
     1
102
RTVSPropertyOp1
 70
     1
102
RTVSPropertyOp2
 70
     1
102
RTVSPropertyOp3
 70
     1
102
RTVSPropertyOp4
 70
     1
102
RTVSPropertyOp5
 70
     1
102
RTVSPropertyOp6
 70
     1
102
RTVSPropertyOp7
 70
     1
102
RTVSPropertyOp8
 70
     1
102
RTVSPropertyOp9
 70
     1
102
RTVSPropertyOp10
 70
     1
102
RTVSPropertyOp11
 70
     1
102
RTVSPropertyOp12
 70
     1
102
RTVSPropertyOp13
 70
     1
102
RTVSPropertyOp14
 70
     1
102
RTVSPropertyOp15
 70
     1
102
RTVSPropertyOp16
 70
     1
102
RTVSPropertyOp17
 70
     1
102
RTVSPropertyOp18
 70
     1
102
RTVSPropertyOp19
 70
     1
102
RTVSPropertyOp20
 70
     1
102
RTVSPropertyOp21
 70
     1
102
RTVSPropertyOp22
 70
     1
102
RTVSPropertyOp23
 70
     1
102
RTVSPropertyOp24
 70
     1
102
RTVSPropertyOp25
 70
     1
102
RTVSPropertyOp26
 70
     1
102
RTVSPropertyOp27
 70
     1
102
RTVSPropertyOp28
 70
     1
102
RTVSPropertyOp29
 70
     1
102
RTVSPropertyOp30
 70
     1
102
RTVSPropertyOp31
 70
     1
102
RTVSPropertyOp32
 70
     1
102
RTVSPropertyOp33
 70
     1
102
RTVSPropertyOp34
 70
     1
102
RTVSPropertyOp35
 70
     1
102
RTVSPropertyOp36
 70
     1
102
RTVSPropertyOp37
 70
     1
102
RTVSPropertyOp38
 70
     1
102
RTVSPropertyOp39
 70
     1
102
RTVSPropertyOp40
 70
     1
102
RTVSPropertyOp41
 70
     1
102
RTVSPropertyOp42
 70
     1
102
RTVSPropertyOp43
 70
     1
102
RTVSPropertyOp44
 70
     1
102
RTVSPropertyOp45
 70
     1
102
RTVSPropertyOp46
 70
     1
102
RTVSPropertyOp47
 70
     1
102
RTVSPropertyOp48
 70
     1
102
RTVSPropertyOp49
 70
     1
102
RTVSPropertyOp50
 70
     1
102
RTVSPropertyOp51
 70
     0
102
RTVSPropertyOp52
 70
     0
102
RTVSPropertyOp53
 70
     1
102
RTVSPropertyOp54
 70
     1
102
RTVSPropertyOp55
 70
     1
102
RTVSPropertyOp56
 70
     1
102
RTVSPropertyOp57
 70
     1
102
RTVSPropertyOp58
 70
     1
102
RTVSPropertyOp59
 70
     1
102
RTVSPropertyOp60
 70
     1
102
RTVSPropertyOp61
 70
     1
102
RTVSPropertyOp62
 70
     1
  0
XRECORD
  5
1310
102
{ACAD_REACTORS
330
130F
102
}
330
130F
100
AcDbXrecord
280
     1
102
RTVSPost2010Prop28
280
     0
102
RTVSPost2010PropOp28
 70
     1
102
RTVSPost2010Prop29
280
     1
102
RTVSPost2010PropOp29
 70
     1
102
RTVSPost2010Prop30
280
     1
102
RTVSPost2010PropOp30
 70
     1
102
RTVSPost2010Prop31
280
     0
102
RTVSPost2010PropOp31
 70
     1
102
RTVSPost2010Prop32
280
     0
102
RTVSPost2010PropOp32
 70
     1
102
RTVSPost2010Prop33
280
     0
102
RTVSPost2010PropOp33
 70
     1
102
RTVSPost2010Prop34
280
     0
102
RTVSPost2010PropOp34
 70
     1
102
RTVSPost2010Prop35
280
     0
102
RTVSPost2010PropOp35
 70
     1
102
RTVSPost2010Prop36
280
     0
102
RTVSPost2010PropOp36
 70
     1
102
RTVSPost2010Prop37
 90
       50
102
RTVSPost2010PropOp37
 70
     1
102
RTVSPost2010Prop38
140
0.0
102
RTVSPost2010PropOp38
 70
     1
102
RTVSPost2010Prop39
140
1.0
102
RTVSPost2010PropOp39
 70
     1
102
RTVSPost2010Prop40
 90
        0
102
RTVSPost2010PropOp40
 70
     1
102
RTVSPost2010Prop41ColorIndex
 90
       18
102
RTVSPost2010Prop41ColorRGB
 90
        0
102
RTVSPost2010PropOp41
 70
     1
102
RTVSPost2010Prop42
 90
       50
102
RTVSPost2010PropOp42
 70
     1
102
RTVSPost2010Prop43
 90
        3
102
RTVSPost2010PropOp43
 70
     1
102
RTVSPost2010Prop44ColorIndex
 90
        5
102
RTVSPost2010Prop44ColorRGB
 90
      255
102
RTVSPost2010PropOp44
 70
     1
102
RTVSPost2010Prop45
280
     0
102
RTVSPost2010PropOp45
 70
     1
102
RTVSPost2010Prop46
 90
       50
102
RTVSPost2010PropOp46
 70
     1
102
RTVSPost2010Prop47
 90
       50
102
RTVSPost2010PropOp47
 70
     1
102
RTVSPost2010Prop48
 90
       50
102
RTVSPost2010PropOp48
 70
     1
102
RTVSPost2010Prop49
280
     0
102
RTVSPost2010PropOp49
 70
     1
102
RTVSPost2010Prop50
 90
       50
102
RTVSPost2010PropOp50
 70
     1
102
RTVSPost2010Prop51ColorIndex
 90
      256
102
RTVSPost2010Prop51ColorRGB
 90
-16777216
102
RTVSPost2010PropOp51
 70
     0
102
RTVSPost2010Prop52
140
1.0
102
RTVSPost2010PropOp52
 70
     0
102
RTVSPost2010Prop53
 90
        2
102
RTVSPost2010PropOp53
 70
     1
102
RTVSPost2010Prop54
  1
strokes_ogs.tif
102
RTVSPost2010PropOp54
 70
     1
102
RTVSPost2010Prop55
280
     0
102
RTVSPost2010PropOp55
 70
     1
102
RTVSPost2010Prop56
140
1.0
102
RTVSPost2010PropOp56
 70
     1
102
RTVSPost2010Prop57
140
1.0
102
RTVSPost2010PropOp57
 70
     1
102
RTVSPropertyOp0
 70
     1
102
RTVSPropertyOp1
 70
     1
102
RTVSPropertyOp2
 70
     1
102
RTVSPropertyOp3
 70
     1
102
RTVSPropertyOp4
 70
     1
102
RTVSPropertyOp5
 70
     1
102
RTVSPropertyOp6
 70
     1
102
RTVSPropertyOp7
 70
     1
102
RTVSPropertyOp8
 70
     1
102
RTVSPropertyOp9
 70
     1
102
RTVSPropertyOp10
 70
     1
102
RTVSPropertyOp11
 70
     1
102
RTVSPropertyOp12
 70
     1
102
RTVSPropertyOp13
 70
     1
102
RTVSPropertyOp14
 70
     1
102
RTVSPropertyOp15
 70
     1
102
RTVSPropertyOp16
 70
     1
102
RTVSPropertyOp17
 70
     1
102
RTVSPropertyOp18
 70
     1
102
RTVSPropertyOp19
 70
     1
102
RTVSPropertyOp20
 70
     1
102
RTVSPropertyOp21
 70
     1
102
RTVSPropertyOp22
 70
     1
102
RTVSPropertyOp23
 70
     1
102
RTVSPropertyOp24
 70
     1
102
RTVSPropertyOp25
 70
     1
102
RTVSPropertyOp26
 70
     1
102
RTVSPropertyOp27
 70
     1
102
RTVSPropertyOp28
 70
     1
102
RTVSPropertyOp29
 70
     1
102
RTVSPropertyOp30
 70
     1
102
RTVSPropertyOp31
 70
     1
102
RTVSPropertyOp32
 70
     1
102
RTVSPropertyOp33
 70
     1
102
RTVSPropertyOp34
 70
     1
102
RTVSPropertyOp35
 70
     1
102
RTVSPropertyOp36
 70
     1
102
RTVSPropertyOp37
 70
     1
102
RTVSPropertyOp38
 70
     1
102
RTVSPropertyOp39
 70
     1
102
RTVSPropertyOp40
 70
     1
102
RTVSPropertyOp41
 70
     1
102
RTVSPropertyOp42
 70
     1
102
RTVSPropertyOp43
 70
     1
102
RTVSPropertyOp44
 70
     1
102
RTVSPropertyOp45
 70
     1
102
RTVSPropertyOp46
 70
     1
102
RTVSPropertyOp47
 70
     1
102
RTVSPropertyOp48
 70
     1
102
RTVSPropertyOp49
 70
     1
102
RTVSPropertyOp50
 70
     1
102
RTVSPropertyOp51
 70
     0
102
RTVSPropertyOp52
 70
     0
102
RTVSPropertyOp53
 70
     1
102
RTVSPropertyOp54
 70
     1
102
RTVSPropertyOp55
 70
     1
102
RTVSPropertyOp56
 70
     1
102
RTVSPropertyOp57
 70
     1
102
RTVSPropertyOp58
 70
     1
102
RTVSPropertyOp59
 70
     1
102
RTVSPropertyOp60
 70
     1
102
RTVSPropertyOp61
 70
     1
102
RTVSPropertyOp62
 70
     1
  0
XRECORD
  5
1312
102
{ACAD_REACTORS
330
1311
102
}
330
1311
100
AcDbXrecord
280
     1
102
RTVSPost2010Prop28
280
     0
102
RTVSPost2010PropOp28
 70
     1
102
RTVSPost2010Prop29
280
     1
102
RTVSPost2010PropOp29
 70
     1
102
RTVSPost2010Prop30
280
     1
102
RTVSPost2010PropOp30
 70
     1
102
RTVSPost2010Prop31
280
     0
102
RTVSPost2010PropOp31
 70
     1
102
RTVSPost2010Prop32
280
     0
102
RTVSPost2010PropOp32
 70
     1
102
RTVSPost2010Prop33
280
     0
102
RTVSPost2010PropOp33
 70
     1
102
RTVSPost2010Prop34
280
     0
102
RTVSPost2010PropOp34
 70
     1
102
RTVSPost2010Prop35
280
     0
102
RTVSPost2010PropOp35
 70
     1
102
RTVSPost2010Prop36
280
     0
102
RTVSPost2010PropOp36
 70
     1
102
RTVSPost2010Prop37
 90
       50
102
RTVSPost2010PropOp37
 70
     1
102
RTVSPost2010Prop38
140
0.0
102
RTVSPost2010PropOp38
 70
     1
102
RTVSPost2010Prop39
140
1.0
102
RTVSPost2010PropOp39
 70
     1
102
RTVSPost2010Prop40
 90
        0
102
RTVSPost2010PropOp40
 70
     1
102
RTVSPost2010Prop41ColorIndex
 90
       18
102
RTVSPost2010Prop41ColorRGB
 90
        0
102
RTVSPost2010PropOp41
 70
     1
102
RTVSPost2010Prop42
 90
       50
102
RTVSPost2010PropOp42
 70
     1
102
RTVSPost2010Prop43
 90
        3
102
RTVSPost2010PropOp43
 70
     1
102
RTVSPost2010Prop44ColorIndex
 90
        5
102
RTVSPost2010Prop44ColorRGB
 90
      255
102
RTVSPost2010PropOp44
 70
     1
102
RTVSPost2010Prop45
280
     0
102
RTVSPost2010PropOp45
 70
     1
102
RTVSPost2010Prop46
 90
       50
102
RTVSPost2010PropOp46
 70
     1
102
RTVSPost2010Prop47
 90
       50
102
RTVSPost2010PropOp47
 70
     1
102
RTVSPost2010Prop48
 90
       50
102
RTVSPost2010PropOp48
 70
     1
102
RTVSPost2010Prop49
280
     0
102
RTVSPost2010PropOp49
 70
     1
102
RTVSPost2010Prop50
 90
       50
102
RTVSPost2010PropOp50
 70
     1
102
RTVSPost2010Prop51ColorIndex
 90
      256
102
RTVSPost2010Prop51ColorRGB
 90
-16777216
102
RTVSPost2010PropOp51
 70
     0
102
RTVSPost2010Prop52
140
1.0
102
RTVSPost2010PropOp52
 70
     0
102
RTVSPost2010Prop53
 90
        2
102
RTVSPost2010PropOp53
 70
     1
102
RTVSPost2010Prop54
  1
strokes_ogs.tif
102
RTVSPost2010PropOp54
 70
     1
102
RTVSPost2010Prop55
280
     0
102
RTVSPost2010PropOp55
 70
     1
102
RTVSPost2010Prop56
140
1.0
102
RTVSPost2010PropOp56
 70
     1
102
RTVSPost2010Prop57
140
1.0
102
RTVSPost2010PropOp57
 70
     1
102
RTVSPropertyOp0
 70
     1
102
RTVSPropertyOp1
 70
     1
102
RTVSPropertyOp2
 70
     1
102
RTVSPropertyOp3
 70
     1
102
RTVSPropertyOp4
 70
     1
102
RTVSPropertyOp5
 70
     1
102
RTVSPropertyOp6
 70
     1
102
RTVSPropertyOp7
 70
     1
102
RTVSPropertyOp8
 70
     1
102
RTVSPropertyOp9
 70
     1
102
RTVSPropertyOp10
 70
     1
102
RTVSPropertyOp11
 70
     1
102
RTVSPropertyOp12
 70
     1
102
RTVSPropertyOp13
 70
     1
102
RTVSPropertyOp14
 70
     1
102
RTVSPropertyOp15
 70
     1
102
RTVSPropertyOp16
 70
     1
102
RTVSPropertyOp17
 70
     1
102
RTVSPropertyOp18
 70
     1
102
RTVSPropertyOp19
 70
     1
102
RTVSPropertyOp20
 70
     1
102
RTVSPropertyOp21
 70
     1
102
RTVSPropertyOp22
 70
     1
102
RTVSPropertyOp23
 70
     1
102
RTVSPropertyOp24
 70
     1
102
RTVSPropertyOp25
 70
     1
102
RTVSPropertyOp26
 70
     1
102
RTVSPropertyOp27
 70
     1
102
RTVSPropertyOp28
 70
     1
102
RTVSPropertyOp29
 70
     1
102
RTVSPropertyOp30
 70
     1
102
RTVSPropertyOp31
 70
     1
102
RTVSPropertyOp32
 70
     1
102
RTVSPropertyOp33
 70
     1
102
RTVSPropertyOp34
 70
     1
102
RTVSPropertyOp35
 70
     1
102
RTVSPropertyOp36
 70
     1
102
RTVSPropertyOp37
 70
     1
102
RTVSPropertyOp38
 70
     1
102
RTVSPropertyOp39
 70
     1
102
RTVSPropertyOp40
 70
     1
102
RTVSPropertyOp41
 70
     1
102
RTVSPropertyOp42
 70
     1
102
RTVSPropertyOp43
 70
     1
102
RTVSPropertyOp44
 70
     1
102
RTVSPropertyOp45
 70
     1
102
RTVSPropertyOp46
 70
     1
102
RTVSPropertyOp47
 70
     1
102
RTVSPropertyOp48
 70
     1
102
RTVSPropertyOp49
 70
     1
102
RTVSPropertyOp50
 70
     1
102
RTVSPropertyOp51
 70
     0
102
RTVSPropertyOp52
 70
     0
102
RTVSPropertyOp53
 70
     1
102
RTVSPropertyOp54
 70
     1
102
RTVSPropertyOp55
 70
     1
102
RTVSPropertyOp56
 70
     1
102
RTVSPropertyOp57
 70
     1
102
RTVSPropertyOp58
 70
     1
102
RTVSPropertyOp59
 70
     1
102
RTVSPropertyOp60
 70
     1
102
RTVSPropertyOp61
 70
     1
102
RTVSPropertyOp62
 70
     1
  0
XRECORD
  5
1314
102
{ACAD_REACTORS
330
1313
102
}
330
1313
100
AcDbXrecord
280
     1
102
RTVSPost2010Prop28
280
     0
102
RTVSPost2010PropOp28
 70
     1
102
RTVSPost2010Prop29
280
     1
102
RTVSPost2010PropOp29
 70
     1
102
RTVSPost2010Prop30
280
     1
102
RTVSPost2010PropOp30
 70
     1
102
RTVSPost2010Prop31
280
     0
102
RTVSPost2010PropOp31
 70
     1
102
RTVSPost2010Prop32
280
     0
102
RTVSPost2010PropOp32
 70
     1
102
RTVSPost2010Prop33
280
     0
102
RTVSPost2010PropOp33
 70
     1
102
RTVSPost2010Prop34
280
     0
102
RTVSPost2010PropOp34
 70
     1
102
RTVSPost2010Prop35
280
     0
102
RTVSPost2010PropOp35
 70
     1
102
RTVSPost2010Prop36
280
     0
102
RTVSPost2010PropOp36
 70
     1
102
RTVSPost2010Prop37
 90
       50
102
RTVSPost2010PropOp37
 70
     1
102
RTVSPost2010Prop38
140
0.0
102
RTVSPost2010PropOp38
 70
     1
102
RTVSPost2010Prop39
140
1.0
102
RTVSPost2010PropOp39
 70
     1
102
RTVSPost2010Prop40
 90
        0
102
RTVSPost2010PropOp40
 70
     1
102
RTVSPost2010Prop41ColorIndex
 90
       18
102
RTVSPost2010Prop41ColorRGB
 90
        0
102
RTVSPost2010PropOp41
 70
     1
102
RTVSPost2010Prop42
 90
       50
102
RTVSPost2010PropOp42
 70
     1
102
RTVSPost2010Prop43
 90
        3
102
RTVSPost2010PropOp43
 70
     1
102
RTVSPost2010Prop44ColorIndex
 90
        5
102
RTVSPost2010Prop44ColorRGB
 90
      255
102
RTVSPost2010PropOp44
 70
     1
102
RTVSPost2010Prop45
280
     0
102
RTVSPost2010PropOp45
 70
     1
102
RTVSPost2010Prop46
 90
       50
102
RTVSPost2010PropOp46
 70
     1
102
RTVSPost2010Prop47
 90
       50
102
RTVSPost2010PropOp47
 70
     1
102
RTVSPost2010Prop48
 90
       50
102
RTVSPost2010PropOp48
 70
     1
102
RTVSPost2010Prop49
280
     0
102
RTVSPost2010PropOp49
 70
     1
102
RTVSPost2010Prop50
 90
       50
102
RTVSPost2010PropOp50
 70
     1
102
RTVSPost2010Prop51ColorIndex
 90
      256
102
RTVSPost2010Prop51ColorRGB
 90
-16777216
102
RTVSPost2010PropOp51
 70
     0
102
RTVSPost2010Prop52
140
1.0
102
RTVSPost2010PropOp52
 70
     0
102
RTVSPost2010Prop53
 90
        2
102
RTVSPost2010PropOp53
 70
     1
102
RTVSPost2010Prop54
  1
strokes_ogs.tif
102
RTVSPost2010PropOp54
 70
     1
102
RTVSPost2010Prop55
280
     0
102
RTVSPost2010PropOp55
 70
     1
102
RTVSPost2010Prop56
140
1.0
102
RTVSPost2010PropOp56
 70
     1
102
RTVSPost2010Prop57
140
1.0
102
RTVSPost2010PropOp57
 70
     1
102
RTVSPropertyOp0
 70
     1
102
RTVSPropertyOp1
 70
     1
102
RTVSPropertyOp2
 70
     1
102
RTVSPropertyOp3
 70
     1
102
RTVSPropertyOp4
 70
     1
102
RTVSPropertyOp5
 70
     1
102
RTVSPropertyOp6
 70
     1
102
RTVSPropertyOp7
 70
     1
102
RTVSPropertyOp8
 70
     1
102
RTVSPropertyOp9
 70
     1
102
RTVSPropertyOp10
 70
     1
102
RTVSPropertyOp11
 70
     1
102
RTVSPropertyOp12
 70
     1
102
RTVSPropertyOp13
 70
     1
102
RTVSPropertyOp14
 70
     1
102
RTVSPropertyOp15
 70
     1
102
RTVSPropertyOp16
 70
     1
102
RTVSPropertyOp17
 70
     1
102
RTVSPropertyOp18
 70
     1
102
RTVSPropertyOp19
 70
     1
102
RTVSPropertyOp20
 70
     1
102
RTVSPropertyOp21
 70
     1
102
RTVSPropertyOp22
 70
     1
102
RTVSPropertyOp23
 70
     1
102
RTVSPropertyOp24
 70
     1
102
RTVSPropertyOp25
 70
     1
102
RTVSPropertyOp26
 70
     1
102
RTVSPropertyOp27
 70
     1
102
RTVSPropertyOp28
 70
     1
102
RTVSPropertyOp29
 70
     1
102
RTVSPropertyOp30
 70
     1
102
RTVSPropertyOp31
 70
     1
102
RTVSPropertyOp32
 70
     1
102
RTVSPropertyOp33
 70
     1
102
RTVSPropertyOp34
 70
     1
102
RTVSPropertyOp35
 70
     1
102
RTVSPropertyOp36
 70
     1
102
RTVSPropertyOp37
 70
     1
102
RTVSPropertyOp38
 70
     1
102
RTVSPropertyOp39
 70
     1
102
RTVSPropertyOp40
 70
     1
102
RTVSPropertyOp41
 70
     1
102
RTVSPropertyOp42
 70
     1
102
RTVSPropertyOp43
 70
     1
102
RTVSPropertyOp44
 70
     1
102
RTVSPropertyOp45
 70
     1
102
RTVSPropertyOp46
 70
     1
102
RTVSPropertyOp47
 70
     1
102
RTVSPropertyOp48
 70
     1
102
RTVSPropertyOp49
 70
     1
102
RTVSPropertyOp50
 70
     1
102
RTVSPropertyOp51
 70
     0
102
RTVSPropertyOp52
 70
     0
102
RTVSPropertyOp53
 70
     1
102
RTVSPropertyOp54
 70
     1
102
RTVSPropertyOp55
 70
     1
102
RTVSPropertyOp56
 70
     1
102
RTVSPropertyOp57
 70
     1
102
RTVSPropertyOp58
 70
     1
102
RTVSPropertyOp59
 70
     1
102
RTVSPropertyOp60
 70
     1
102
RTVSPropertyOp61
 70
     1
102
RTVSPropertyOp62
 70
     1
  0
XRECORD
  5
1336
102
{ACAD_REACTORS
330
1335
102
}
330
1335
100
AcDbXrecord
280
     1
102
RTVSPost2010Prop28
280
     0
102
RTVSPost2010PropOp28
 70
     1
102
RTVSPost2010Prop29
280
     1
102
RTVSPost2010PropOp29
 70
     1
102
RTVSPost2010Prop30
280
     1
102
RTVSPost2010PropOp30
 70
     1
102
RTVSPost2010Prop31
280
     0
102
RTVSPost2010PropOp31
 70
     1
102
RTVSPost2010Prop32
280
     0
102
RTVSPost2010PropOp32
 70
     1
102
RTVSPost2010Prop33
280
     0
102
RTVSPost2010PropOp33
 70
     1
102
RTVSPost2010Prop34
280
     0
102
RTVSPost2010PropOp34
 70
     1
102
RTVSPost2010Prop35
280
     0
102
RTVSPost2010PropOp35
 70
     1
102
RTVSPost2010Prop36
280
     0
102
RTVSPost2010PropOp36
 70
     1
102
RTVSPost2010Prop37
 90
       50
102
RTVSPost2010PropOp37
 70
     1
102
RTVSPost2010Prop38
140
0.0
102
RTVSPost2010PropOp38
 70
     1
102
RTVSPost2010Prop39
140
1.0
102
RTVSPost2010PropOp39
 70
     1
102
RTVSPost2010Prop40
 90
        0
102
RTVSPost2010PropOp40
 70
     1
102
RTVSPost2010Prop41ColorIndex
 90
       18
102
RTVSPost2010Prop41ColorRGB
 90
        0
102
RTVSPost2010PropOp41
 70
     1
102
RTVSPost2010Prop42
 90
       50
102
RTVSPost2010PropOp42
 70
     1
102
RTVSPost2010Prop43
 90
        3
102
RTVSPost2010PropOp43
 70
     1
102
RTVSPost2010Prop44ColorIndex
 90
        5
102
RTVSPost2010Prop44ColorRGB
 90
      255
102
RTVSPost2010PropOp44
 70
     1
102
RTVSPost2010Prop45
280
     0
102
RTVSPost2010PropOp45
 70
     1
102
RTVSPost2010Prop46
 90
       50
102
RTVSPost2010PropOp46
 70
     1
102
RTVSPost2010Prop47
 90
       50
102
RTVSPost2010PropOp47
 70
     1
102
RTVSPost2010Prop48
 90
       50
102
RTVSPost2010PropOp48
 70
     1
102
RTVSPost2010Prop49
280
     0
102
RTVSPost2010PropOp49
 70
     1
102
RTVSPost2010Prop50
 90
       50
102
RTVSPost2010PropOp50
 70
     1
102
RTVSPost2010Prop51ColorIndex
 90
      256
102
RTVSPost2010Prop51ColorRGB
 90
-16777216
102
RTVSPost2010PropOp51
 70
     0
102
RTVSPost2010Prop52
140
1.0
102
RTVSPost2010PropOp52
 70
     0
102
RTVSPost2010Prop53
 90
        2
102
RTVSPost2010PropOp53
 70
     1
102
RTVSPost2010Prop54
  1
strokes_ogs.tif
102
RTVSPost2010PropOp54
 70
     1
102
RTVSPost2010Prop55
280
     0
102
RTVSPost2010PropOp55
 70
     1
102
RTVSPost2010Prop56
140
1.0
102
RTVSPost2010PropOp56
 70
     1
102
RTVSPost2010Prop57
140
1.0
102
RTVSPost2010PropOp57
 70
     1
102
RTVSPropertyOp0
 70
     1
102
RTVSPropertyOp1
 70
     1
102
RTVSPropertyOp2
 70
     1
102
RTVSPropertyOp3
 70
     1
102
RTVSPropertyOp4
 70
     1
102
RTVSPropertyOp5
 70
     1
102
RTVSPropertyOp6
 70
     1
102
RTVSPropertyOp7
 70
     1
102
RTVSPropertyOp8
 70
     1
102
RTVSPropertyOp9
 70
     1
102
RTVSPropertyOp10
 70
     1
102
RTVSPropertyOp11
 70
     1
102
RTVSPropertyOp12
 70
     1
102
RTVSPropertyOp13
 70
     1
102
RTVSPropertyOp14
 70
     1
102
RTVSPropertyOp15
 70
     1
102
RTVSPropertyOp16
 70
     1
102
RTVSPropertyOp17
 70
     1
102
RTVSPropertyOp18
 70
     1
102
RTVSPropertyOp19
 70
     1
102
RTVSPropertyOp20
 70
     1
102
RTVSPropertyOp21
 70
     1
102
RTVSPropertyOp22
 70
     1
102
RTVSPropertyOp23
 70
     1
102
RTVSPropertyOp24
 70
     1
102
RTVSPropertyOp25
 70
     1
102
RTVSPropertyOp26
 70
     1
102
RTVSPropertyOp27
 70
     1
102
RTVSPropertyOp28
 70
     1
102
RTVSPropertyOp29
 70
     1
102
RTVSPropertyOp30
 70
     1
102
RTVSPropertyOp31
 70
     1
102
RTVSPropertyOp32
 70
     1
102
RTVSPropertyOp33
 70
     1
102
RTVSPropertyOp34
 70
     1
102
RTVSPropertyOp35
 70
     1
102
RTVSPropertyOp36
 70
     1
102
RTVSPropertyOp37
 70
     1
102
RTVSPropertyOp38
 70
     1
102
RTVSPropertyOp39
 70
     1
102
RTVSPropertyOp40
 70
     1
102
RTVSPropertyOp41
 70
     1
102
RTVSPropertyOp42
 70
     1
102
RTVSPropertyOp43
 70
     1
102
RTVSPropertyOp44
 70
     1
102
RTVSPropertyOp45
 70
     1
102
RTVSPropertyOp46
 70
     1
102
RTVSPropertyOp47
 70
     1
102
RTVSPropertyOp48
 70
     1
102
RTVSPropertyOp49
 70
     1
102
RTVSPropertyOp50
 70
     1
102
RTVSPropertyOp51
 70
     0
102
RTVSPropertyOp52
 70
     0
102
RTVSPropertyOp53
 70
     1
102
RTVSPropertyOp54
 70
     1
102
RTVSPropertyOp55
 70
     1
102
RTVSPropertyOp56
 70
     1
102
RTVSPropertyOp57
 70
     1
102
RTVSPropertyOp58
 70
     1
102
RTVSPropertyOp59
 70
     1
102
RTVSPropertyOp60
 70
     1
102
RTVSPropertyOp61
 70
     1
102
RTVSPropertyOp62
 70
     1
  0
XRECORD
  5
132E
102
{ACAD_REACTORS
330
132D
102
}
330
132D
100
AcDbXrecord
280
     1
102
RTVSPost2010Prop28
280
     0
102
RTVSPost2010PropOp28
 70
     1
102
RTVSPost2010Prop29
280
     1
102
RTVSPost2010PropOp29
 70
     1
102
RTVSPost2010Prop30
280
     1
102
RTVSPost2010PropOp30
 70
     1
102
RTVSPost2010Prop31
280
     0
102
RTVSPost2010PropOp31
 70
     1
102
RTVSPost2010Prop32
280
     0
102
RTVSPost2010PropOp32
 70
     1
102
RTVSPost2010Prop33
280
     0
102
RTVSPost2010PropOp33
 70
     1
102
RTVSPost2010Prop34
280
     0
102
RTVSPost2010PropOp34
 70
     1
102
RTVSPost2010Prop35
280
     0
102
RTVSPost2010PropOp35
 70
     1
102
RTVSPost2010Prop36
280
     0
102
RTVSPost2010PropOp36
 70
     1
102
RTVSPost2010Prop37
 90
       50
102
RTVSPost2010PropOp37
 70
     1
102
RTVSPost2010Prop38
140
0.0
102
RTVSPost2010PropOp38
 70
     1
102
RTVSPost2010Prop39
140
1.0
102
RTVSPost2010PropOp39
 70
     1
102
RTVSPost2010Prop40
 90
        0
102
RTVSPost2010PropOp40
 70
     1
102
RTVSPost2010Prop41ColorIndex
 90
       18
102
RTVSPost2010Prop41ColorRGB
 90
        0
102
RTVSPost2010PropOp41
 70
     1
102
RTVSPost2010Prop42
 90
       50
102
RTVSPost2010PropOp42
 70
     1
102
RTVSPost2010Prop43
 90
        3
102
RTVSPost2010PropOp43
 70
     1
102
RTVSPost2010Prop44ColorIndex
 90
        5
102
RTVSPost2010Prop44ColorRGB
 90
      255
102
RTVSPost2010PropOp44
 70
     1
102
RTVSPost2010Prop45
280
     0
102
RTVSPost2010PropOp45
 70
     1
102
RTVSPost2010Prop46
 90
       50
102
RTVSPost2010PropOp46
 70
     1
102
RTVSPost2010Prop47
 90
       50
102
RTVSPost2010PropOp47
 70
     1
102
RTVSPost2010Prop48
 90
       50
102
RTVSPost2010PropOp48
 70
     1
102
RTVSPost2010Prop49
280
     0
102
RTVSPost2010PropOp49
 70
     1
102
RTVSPost2010Prop50
 90
       50
102
RTVSPost2010PropOp50
 70
     1
102
RTVSPost2010Prop51ColorIndex
 90
      256
102
RTVSPost2010Prop51ColorRGB
 90
-16777216
102
RTVSPost2010PropOp51
 70
     0
102
RTVSPost2010Prop52
140
1.0
102
RTVSPost2010PropOp52
 70
     0
102
RTVSPost2010Prop53
 90
        2
102
RTVSPost2010PropOp53
 70
     1
102
RTVSPost2010Prop54
  1
strokes_ogs.tif
102
RTVSPost2010PropOp54
 70
     1
102
RTVSPost2010Prop55
280
     0
102
RTVSPost2010PropOp55
 70
     1
102
RTVSPost2010Prop56
140
1.0
102
RTVSPost2010PropOp56
 70
     1
102
RTVSPost2010Prop57
140
1.0
102
RTVSPost2010PropOp57
 70
     1
102
RTVSPropertyOp0
 70
     0
102
RTVSPropertyOp1
 70
     0
102
RTVSPropertyOp2
 70
     0
102
RTVSPropertyOp3
 70
     0
102
RTVSPropertyOp4
 70
     0
102
RTVSPropertyOp5
 70
     0
102
RTVSPropertyOp6
 70
     0
102
RTVSPropertyOp7
 70
     0
102
RTVSPropertyOp8
 70
     0
102
RTVSPropertyOp9
 70
     0
102
RTVSPropertyOp10
 70
     0
102
RTVSPropertyOp11
 70
     0
102
RTVSPropertyOp12
 70
     0
102
RTVSPropertyOp13
 70
     0
102
RTVSPropertyOp14
 70
     2
102
RTVSPropertyOp15
 70
     0
102
RTVSPropertyOp16
 70
     0
102
RTVSPropertyOp17
 70
     0
102
RTVSPropertyOp18
 70
     0
102
RTVSPropertyOp19
 70
     0
102
RTVSPropertyOp20
 70
     0
102
RTVSPropertyOp21
 70
     0
102
RTVSPropertyOp22
 70
     0
102
RTVSPropertyOp23
 70
     0
102
RTVSPropertyOp24
 70
     0
102
RTVSPropertyOp25
 70
     0
102
RTVSPropertyOp26
 70
     0
102
RTVSPropertyOp27
 70
     0
102
RTVSPropertyOp28
 70
     1
102
RTVSPropertyOp29
 70
     1
102
RTVSPropertyOp30
 70
     1
102
RTVSPropertyOp31
 70
     1
102
RTVSPropertyOp32
 70
     1
102
RTVSPropertyOp33
 70
     1
102
RTVSPropertyOp34
 70
     1
102
RTVSPropertyOp35
 70
     1
102
RTVSPropertyOp36
 70
     1
102
RTVSPropertyOp37
 70
     1
102
RTVSPropertyOp38
 70
     1
102
RTVSPropertyOp39
 70
     1
102
RTVSPropertyOp40
 70
     1
102
RTVSPropertyOp41
 70
     1
102
RTVSPropertyOp42
 70
     1
102
RTVSPropertyOp43
 70
     1
102
RTVSPropertyOp44
 70
     1
102
RTVSPropertyOp45
 70
     1
102
RTVSPropertyOp46
 70
     1
102
RTVSPropertyOp47
 70
     1
102
RTVSPropertyOp48
 70
     1
102
RTVSPropertyOp49
 70
     1
102
RTVSPropertyOp50
 70
     1
102
RTVSPropertyOp51
 70
     0
102
RTVSPropertyOp52
 70
     0
102
RTVSPropertyOp53
 70
     1
102
RTVSPropertyOp54
 70
     1
102
RTVSPropertyOp55
 70
     1
102
RTVSPropertyOp56
 70
     1
102
RTVSPropertyOp57
 70
     1
102
RTVSPropertyOp58
 70
     1
102
RTVSPropertyOp59
 70
     1
102
RTVSPropertyOp60
 70
     1
102
RTVSPropertyOp61
 70
     1
102
RTVSPropertyOp62
 70
     1
  0
XRECORD
  5
1328
102
{ACAD_REACTORS
330
1327
102
}
330
1327
100
AcDbXrecord
280
     1
102
RTVSPost2010Prop28
280
     0
102
RTVSPost2010PropOp28
 70
     1
102
RTVSPost2010Prop29
280
     1
102
RTVSPost2010PropOp29
 70
     1
102
RTVSPost2010Prop30
280
     1
102
RTVSPost2010PropOp30
 70
     1
102
RTVSPost2010Prop31
280
     0
102
RTVSPost2010PropOp31
 70
     1
102
RTVSPost2010Prop32
280
     0
102
RTVSPost2010PropOp32
 70
     1
102
RTVSPost2010Prop33
280
     0
102
RTVSPost2010PropOp33
 70
     1
102
RTVSPost2010Prop34
280
     0
102
RTVSPost2010PropOp34
 70
     1
102
RTVSPost2010Prop35
280
     0
102
RTVSPost2010PropOp35
 70
     1
102
RTVSPost2010Prop36
280
     0
102
RTVSPost2010PropOp36
 70
     1
102
RTVSPost2010Prop37
 90
       50
102
RTVSPost2010PropOp37
 70
     1
102
RTVSPost2010Prop38
140
0.0
102
RTVSPost2010PropOp38
 70
     1
102
RTVSPost2010Prop39
140
1.0
102
RTVSPost2010PropOp39
 70
     1
102
RTVSPost2010Prop40
 90
        0
102
RTVSPost2010PropOp40
 70
     1
102
RTVSPost2010Prop41ColorIndex
 90
       18
102
RTVSPost2010Prop41ColorRGB
 90
        0
102
RTVSPost2010PropOp41
 70
     1
102
RTVSPost2010Prop42
 90
       50
102
RTVSPost2010PropOp42
 70
     1
102
RTVSPost2010Prop43
 90
        3
102
RTVSPost2010PropOp43
 70
     1
102
RTVSPost2010Prop44ColorIndex
 90
        5
102
RTVSPost2010Prop44ColorRGB
 90
      255
102
RTVSPost2010PropOp44
 70
     1
102
RTVSPost2010Prop45
280
     0
102
RTVSPost2010PropOp45
 70
     1
102
RTVSPost2010Prop46
 90
       50
102
RTVSPost2010PropOp46
 70
     1
102
RTVSPost2010Prop47
 90
       50
102
RTVSPost2010PropOp47
 70
     1
102
RTVSPost2010Prop48
 90
       50
102
RTVSPost2010PropOp48
 70
     1
102
RTVSPost2010Prop49
280
     0
102
RTVSPost2010PropOp49
 70
     1
102
RTVSPost2010Prop50
 90
       50
102
RTVSPost2010PropOp50
 70
     1
102
RTVSPost2010Prop51ColorIndex
 90
      256
102
RTVSPost2010Prop51ColorRGB
 90
-16777216
102
RTVSPost2010PropOp51
 70
     0
102
RTVSPost2010Prop52
140
1.0
102
RTVSPost2010PropOp52
 70
     0
102
RTVSPost2010Prop53
 90
        2
102
RTVSPost2010PropOp53
 70
     1
102
RTVSPost2010Prop54
  1
strokes_ogs.tif
102
RTVSPost2010PropOp54
 70
     1
102
RTVSPost2010Prop55
280
     0
102
RTVSPost2010PropOp55
 70
     1
102
RTVSPost2010Prop56
140
1.0
102
RTVSPost2010PropOp56
 70
     1
102
RTVSPost2010Prop57
140
1.0
102
RTVSPost2010PropOp57
 70
     1
102
RTVSPropertyOp0
 70
     1
102
RTVSPropertyOp1
 70
     1
102
RTVSPropertyOp2
 70
     1
102
RTVSPropertyOp3
 70
     1
102
RTVSPropertyOp4
 70
     1
102
RTVSPropertyOp5
 70
     1
102
RTVSPropertyOp6
 70
     1
102
RTVSPropertyOp7
 70
     1
102
RTVSPropertyOp8
 70
     1
102
RTVSPropertyOp9
 70
     1
102
RTVSPropertyOp10
 70
     1
102
RTVSPropertyOp11
 70
     1
102
RTVSPropertyOp12
 70
     1
102
RTVSPropertyOp13
 70
     1
102
RTVSPropertyOp14
 70
     1
102
RTVSPropertyOp15
 70
     1
102
RTVSPropertyOp16
 70
     1
102
RTVSPropertyOp17
 70
     1
102
RTVSPropertyOp18
 70
     1
102
RTVSPropertyOp19
 70
     1
102
RTVSPropertyOp20
 70
     1
102
RTVSPropertyOp21
 70
     1
102
RTVSPropertyOp22
 70
     1
102
RTVSPropertyOp23
 70
     1
102
RTVSPropertyOp24
 70
     1
102
RTVSPropertyOp25
 70
     1
102
RTVSPropertyOp26
 70
     1
102
RTVSPropertyOp27
 70
     1
102
RTVSPropertyOp28
 70
     1
102
RTVSPropertyOp29
 70
     1
102
RTVSPropertyOp30
 70
     1
102
RTVSPropertyOp31
 70
     1
102
RTVSPropertyOp32
 70
     1
102
RTVSPropertyOp33
 70
     1
102
RTVSPropertyOp34
 70
     1
102
RTVSPropertyOp35
 70
     1
102
RTVSPropertyOp36
 70
     1
102
RTVSPropertyOp37
 70
     1
102
RTVSPropertyOp38
 70
     1
102
RTVSPropertyOp39
 70
     1
102
RTVSPropertyOp40
 70
     1
102
RTVSPropertyOp41
 70
     1
102
RTVSPropertyOp42
 70
     1
102
RTVSPropertyOp43
 70
     1
102
RTVSPropertyOp44
 70
     1
102
RTVSPropertyOp45
 70
     1
102
RTVSPropertyOp46
 70
     1
102
RTVSPropertyOp47
 70
     1
102
RTVSPropertyOp48
 70
     1
102
RTVSPropertyOp49
 70
     1
102
RTVSPropertyOp50
 70
     1
102
RTVSPropertyOp51
 70
     0
102
RTVSPropertyOp52
 70
     0
102
RTVSPropertyOp53
 70
     1
102
RTVSPropertyOp54
 70
     1
102
RTVSPropertyOp55
 70
     1
102
RTVSPropertyOp56
 70
     1
102
RTVSPropertyOp57
 70
     1
102
RTVSPropertyOp58
 70
     1
102
RTVSPropertyOp59
 70
     1
102
RTVSPropertyOp60
 70
     1
102
RTVSPropertyOp61
 70
     1
102
RTVSPropertyOp62
 70
     1
  0
XRECORD
  5
1330
102
{ACAD_REACTORS
330
132F
102
}
330
132F
100
AcDbXrecord
280
     1
102
RTVSPost2010Prop28
280
     0
102
RTVSPost2010PropOp28
 70
     1
102
RTVSPost2010Prop29
280
     1
102
RTVSPost2010PropOp29
 70
     1
102
RTVSPost2010Prop30
280
     1
102
RTVSPost2010PropOp30
 70
     1
102
RTVSPost2010Prop31
280
     0
102
RTVSPost2010PropOp31
 70
     1
102
RTVSPost2010Prop32
280
     0
102
RTVSPost2010PropOp32
 70
     1
102
RTVSPost2010Prop33
280
     0
102
RTVSPost2010PropOp33
 70
     1
102
RTVSPost2010Prop34
280
     0
102
RTVSPost2010PropOp34
 70
     1
102
RTVSPost2010Prop35
280
     0
102
RTVSPost2010PropOp35
 70
     1
102
RTVSPost2010Prop36
280
     0
102
RTVSPost2010PropOp36
 70
     1
102
RTVSPost2010Prop37
 90
       50
102
RTVSPost2010PropOp37
 70
     1
102
RTVSPost2010Prop38
140
0.0
102
RTVSPost2010PropOp38
 70
     1
102
RTVSPost2010Prop39
140
1.0
102
RTVSPost2010PropOp39
 70
     1
102
RTVSPost2010Prop40
 90
        0
102
RTVSPost2010PropOp40
 70
     1
102
RTVSPost2010Prop41ColorIndex
 90
       18
102
RTVSPost2010Prop41ColorRGB
 90
        0
102
RTVSPost2010PropOp41
 70
     1
102
RTVSPost2010Prop42
 90
       50
102
RTVSPost2010PropOp42
 70
     1
102
RTVSPost2010Prop43
 90
        3
102
RTVSPost2010PropOp43
 70
     1
102
RTVSPost2010Prop44ColorIndex
 90
        5
102
RTVSPost2010Prop44ColorRGB
 90
      255
102
RTVSPost2010PropOp44
 70
     1
102
RTVSPost2010Prop45
280
     0
102
RTVSPost2010PropOp45
 70
     1
102
RTVSPost2010Prop46
 90
       50
102
RTVSPost2010PropOp46
 70
     1
102
RTVSPost2010Prop47
 90
       50
102
RTVSPost2010PropOp47
 70
     1
102
RTVSPost2010Prop48
 90
       50
102
RTVSPost2010PropOp48
 70
     1
102
RTVSPost2010Prop49
280
     0
102
RTVSPost2010PropOp49
 70
     1
102
RTVSPost2010Prop50
 90
       50
102
RTVSPost2010PropOp50
 70
     1
102
RTVSPost2010Prop51ColorIndex
 90
      256
102
RTVSPost2010Prop51ColorRGB
 90
-16777216
102
RTVSPost2010PropOp51
 70
     0
102
RTVSPost2010Prop52
140
1.0
102
RTVSPost2010PropOp52
 70
     0
102
RTVSPost2010Prop53
 90
        2
102
RTVSPost2010PropOp53
 70
     1
102
RTVSPost2010Prop54
  1
strokes_ogs.tif
102
RTVSPost2010PropOp54
 70
     1
102
RTVSPost2010Prop55
280
     0
102
RTVSPost2010PropOp55
 70
     1
102
RTVSPost2010Prop56
140
1.0
102
RTVSPost2010PropOp56
 70
     1
102
RTVSPost2010Prop57
140
1.0
102
RTVSPost2010PropOp57
 70
     1
102
RTVSPropertyOp0
 70
     0
102
RTVSPropertyOp1
 70
     0
102
RTVSPropertyOp2
 70
     0
102
RTVSPropertyOp3
 70
     0
102
RTVSPropertyOp4
 70
     0
102
RTVSPropertyOp5
 70
     0
102
RTVSPropertyOp6
 70
     0
102
RTVSPropertyOp7
 70
     0
102
RTVSPropertyOp8
 70
     0
102
RTVSPropertyOp9
 70
     0
102
RTVSPropertyOp10
 70
     0
102
RTVSPropertyOp11
 70
     0
102
RTVSPropertyOp12
 70
     0
102
RTVSPropertyOp13
 70
     0
102
RTVSPropertyOp14
 70
     2
102
RTVSPropertyOp15
 70
     0
102
RTVSPropertyOp16
 70
     0
102
RTVSPropertyOp17
 70
     0
102
RTVSPropertyOp18
 70
     0
102
RTVSPropertyOp19
 70
     0
102
RTVSPropertyOp20
 70
     0
102
RTVSPropertyOp21
 70
     0
102
RTVSPropertyOp22
 70
     0
102
RTVSPropertyOp23
 70
     0
102
RTVSPropertyOp24
 70
     0
102
RTVSPropertyOp25
 70
     0
102
RTVSPropertyOp26
 70
     0
102
RTVSPropertyOp27
 70
     0
102
RTVSPropertyOp28
 70
     1
102
RTVSPropertyOp29
 70
     1
102
RTVSPropertyOp30
 70
     1
102
RTVSPropertyOp31
 70
     1
102
RTVSPropertyOp32
 70
     1
102
RTVSPropertyOp33
 70
     1
102
RTVSPropertyOp34
 70
     1
102
RTVSPropertyOp35
 70
     1
102
RTVSPropertyOp36
 70
     1
102
RTVSPropertyOp37
 70
     1
102
RTVSPropertyOp38
 70
     1
102
RTVSPropertyOp39
 70
     1
102
RTVSPropertyOp40
 70
     1
102
RTVSPropertyOp41
 70
     1
102
RTVSPropertyOp42
 70
     1
102
RTVSPropertyOp43
 70
     1
102
RTVSPropertyOp44
 70
     1
102
RTVSPropertyOp45
 70
     1
102
RTVSPropertyOp46
 70
     1
102
RTVSPropertyOp47
 70
     1
102
RTVSPropertyOp48
 70
     1
102
RTVSPropertyOp49
 70
     1
102
RTVSPropertyOp50
 70
     1
102
RTVSPropertyOp51
 70
     0
102
RTVSPropertyOp52
 70
     0
102
RTVSPropertyOp53
 70
     1
102
RTVSPropertyOp54
 70
     1
102
RTVSPropertyOp55
 70
     1
102
RTVSPropertyOp56
 70
     1
102
RTVSPropertyOp57
 70
     1
102
RTVSPropertyOp58
 70
     1
102
RTVSPropertyOp59
 70
     1
102
RTVSPropertyOp60
 70
     1
102
RTVSPropertyOp61
 70
     1
102
RTVSPropertyOp62
 70
     1
  0
XRECORD
  5
1320
102
{ACAD_REACTORS
330
131F
102
}
330
131F
100
AcDbXrecord
280
     1
102
RTVSPost2010Prop28
280
     0
102
RTVSPost2010PropOp28
 70
     1
102
RTVSPost2010Prop29
280
     1
102
RTVSPost2010PropOp29
 70
     1
102
RTVSPost2010Prop30
280
     1
102
RTVSPost2010PropOp30
 70
     1
102
RTVSPost2010Prop31
280
     0
102
RTVSPost2010PropOp31
 70
     1
102
RTVSPost2010Prop32
280
     0
102
RTVSPost2010PropOp32
 70
     1
102
RTVSPost2010Prop33
280
     0
102
RTVSPost2010PropOp33
 70
     1
102
RTVSPost2010Prop34
280
     0
102
RTVSPost2010PropOp34
 70
     1
102
RTVSPost2010Prop35
280
     0
102
RTVSPost2010PropOp35
 70
     1
102
RTVSPost2010Prop36
280
     0
102
RTVSPost2010PropOp36
 70
     1
102
RTVSPost2010Prop37
 90
       50
102
RTVSPost2010PropOp37
 70
     1
102
RTVSPost2010Prop38
140
0.0
102
RTVSPost2010PropOp38
 70
     1
102
RTVSPost2010Prop39
140
1.0
102
RTVSPost2010PropOp39
 70
     1
102
RTVSPost2010Prop40
 90
        0
102
RTVSPost2010PropOp40
 70
     1
102
RTVSPost2010Prop41ColorIndex
 90
       18
102
RTVSPost2010Prop41ColorRGB
 90
        0
102
RTVSPost2010PropOp41
 70
     1
102
RTVSPost2010Prop42
 90
       50
102
RTVSPost2010PropOp42
 70
     1
102
RTVSPost2010Prop43
 90
        3
102
RTVSPost2010PropOp43
 70
     1
102
RTVSPost2010Prop44ColorIndex
 90
        5
102
RTVSPost2010Prop44ColorRGB
 90
      255
102
RTVSPost2010PropOp44
 70
     1
102
RTVSPost2010Prop45
280
     0
102
RTVSPost2010PropOp45
 70
     1
102
RTVSPost2010Prop46
 90
       50
102
RTVSPost2010PropOp46
 70
     1
102
RTVSPost2010Prop47
 90
       50
102
RTVSPost2010PropOp47
 70
     1
102
RTVSPost2010Prop48
 90
       50
102
RTVSPost2010PropOp48
 70
     1
102
RTVSPost2010Prop49
280
     0
102
RTVSPost2010PropOp49
 70
     1
102
RTVSPost2010Prop50
 90
       50
102
RTVSPost2010PropOp50
 70
     1
102
RTVSPost2010Prop51ColorIndex
 90
      256
102
RTVSPost2010Prop51ColorRGB
 90
-16777216
102
RTVSPost2010PropOp51
 70
     0
102
RTVSPost2010Prop52
140
1.0
102
RTVSPost2010PropOp52
 70
     0
102
RTVSPost2010Prop53
 90
        2
102
RTVSPost2010PropOp53
 70
     1
102
RTVSPost2010Prop54
  1
strokes_ogs.tif
102
RTVSPost2010PropOp54
 70
     1
102
RTVSPost2010Prop55
280
     0
102
RTVSPost2010PropOp55
 70
     1
102
RTVSPost2010Prop56
140
1.0
102
RTVSPost2010PropOp56
 70
     1
102
RTVSPost2010Prop57
140
1.0
102
RTVSPost2010PropOp57
 70
     1
102
RTVSPropertyOp0
 70
     1
102
RTVSPropertyOp1
 70
     1
102
RTVSPropertyOp2
 70
     1
102
RTVSPropertyOp3
 70
     1
102
RTVSPropertyOp4
 70
     1
102
RTVSPropertyOp5
 70
     1
102
RTVSPropertyOp6
 70
     1
102
RTVSPropertyOp7
 70
     1
102
RTVSPropertyOp8
 70
     1
102
RTVSPropertyOp9
 70
     1
102
RTVSPropertyOp10
 70
     1
102
RTVSPropertyOp11
 70
     1
102
RTVSPropertyOp12
 70
     1
102
RTVSPropertyOp13
 70
     1
102
RTVSPropertyOp14
 70
     1
102
RTVSPropertyOp15
 70
     1
102
RTVSPropertyOp16
 70
     1
102
RTVSPropertyOp17
 70
     1
102
RTVSPropertyOp18
 70
     1
102
RTVSPropertyOp19
 70
     1
102
RTVSPropertyOp20
 70
     1
102
RTVSPropertyOp21
 70
     1
102
RTVSPropertyOp22
 70
     1
102
RTVSPropertyOp23
 70
     1
102
RTVSPropertyOp24
 70
     1
102
RTVSPropertyOp25
 70
     1
102
RTVSPropertyOp26
 70
     1
102
RTVSPropertyOp27
 70
     1
102
RTVSPropertyOp28
 70
     1
102
RTVSPropertyOp29
 70
     1
102
RTVSPropertyOp30
 70
     1
102
RTVSPropertyOp31
 70
     1
102
RTVSPropertyOp32
 70
     1
102
RTVSPropertyOp33
 70
     1
102
RTVSPropertyOp34
 70
     1
102
RTVSPropertyOp35
 70
     1
102
RTVSPropertyOp36
 70
     1
102
RTVSPropertyOp37
 70
     1
102
RTVSPropertyOp38
 70
     1
102
RTVSPropertyOp39
 70
     1
102
RTVSPropertyOp40
 70
     1
102
RTVSPropertyOp41
 70
     1
102
RTVSPropertyOp42
 70
     1
102
RTVSPropertyOp43
 70
     1
102
RTVSPropertyOp44
 70
     1
102
RTVSPropertyOp45
 70
     1
102
RTVSPropertyOp46
 70
     1
102
RTVSPropertyOp47
 70
     1
102
RTVSPropertyOp48
 70
     1
102
RTVSPropertyOp49
 70
     1
102
RTVSPropertyOp50
 70
     1
102
RTVSPropertyOp51
 70
     0
102
RTVSPropertyOp52
 70
     0
102
RTVSPropertyOp53
 70
     1
102
RTVSPropertyOp54
 70
     1
102
RTVSPropertyOp55
 70
     1
102
RTVSPropertyOp56
 70
     1
102
RTVSPropertyOp57
 70
     1
102
RTVSPropertyOp58
 70
     1
102
RTVSPropertyOp59
 70
     1
102
RTVSPropertyOp60
 70
     1
102
RTVSPropertyOp61
 70
     1
102
RTVSPropertyOp62
 70
     1
  0
XRECORD
  5
1340
102
{ACAD_REACTORS
330
133F
102
}
330
133F
100
AcDbXrecord
280
     1
102
RTVSPost2010Prop28
280
     0
102
RTVSPost2010PropOp28
 70
     1
102
RTVSPost2010Prop29
280
     1
102
RTVSPost2010PropOp29
 70
     1
102
RTVSPost2010Prop30
280
     1
102
RTVSPost2010PropOp30
 70
     1
102
RTVSPost2010Prop31
280
     0
102
RTVSPost2010PropOp31
 70
     1
102
RTVSPost2010Prop32
280
     0
102
RTVSPost2010PropOp32
 70
     1
102
RTVSPost2010Prop33
280
     0
102
RTVSPost2010PropOp33
 70
     1
102
RTVSPost2010Prop34
280
     0
102
RTVSPost2010PropOp34
 70
     1
102
RTVSPost2010Prop35
280
     0
102
RTVSPost2010PropOp35
 70
     1
102
RTVSPost2010Prop36
280
     0
102
RTVSPost2010PropOp36
 70
     1
102
RTVSPost2010Prop37
 90
       50
102
RTVSPost2010PropOp37
 70
     1
102
RTVSPost2010Prop38
140
0.0
102
RTVSPost2010PropOp38
 70
     1
102
RTVSPost2010Prop39
140
1.0
102
RTVSPost2010PropOp39
 70
     1
102
RTVSPost2010Prop40
 90
        0
102
RTVSPost2010PropOp40
 70
     1
102
RTVSPost2010Prop41ColorIndex
 90
       18
102
RTVSPost2010Prop41ColorRGB
 90
        0
102
RTVSPost2010PropOp41
 70
     1
102
RTVSPost2010Prop42
 90
       50
102
RTVSPost2010PropOp42
 70
     1
102
RTVSPost2010Prop43
 90
        3
102
RTVSPost2010PropOp43
 70
     1
102
RTVSPost2010Prop44ColorIndex
 90
        5
102
RTVSPost2010Prop44ColorRGB
 90
      255
102
RTVSPost2010PropOp44
 70
     1
102
RTVSPost2010Prop45
280
     0
102
RTVSPost2010PropOp45
 70
     1
102
RTVSPost2010Prop46
 90
       50
102
RTVSPost2010PropOp46
 70
     1
102
RTVSPost2010Prop47
 90
       50
102
RTVSPost2010PropOp47
 70
     1
102
RTVSPost2010Prop48
 90
       50
102
RTVSPost2010PropOp48
 70
     1
102
RTVSPost2010Prop49
280
     0
102
RTVSPost2010PropOp49
 70
     1
102
RTVSPost2010Prop50
 90
       50
102
RTVSPost2010PropOp50
 70
     1
102
RTVSPost2010Prop51ColorIndex
 90
      256
102
RTVSPost2010Prop51ColorRGB
 90
-16777216
102
RTVSPost2010PropOp51
 70
     0
102
RTVSPost2010Prop52
140
1.0
102
RTVSPost2010PropOp52
 70
     0
102
RTVSPost2010Prop53
 90
        2
102
RTVSPost2010PropOp53
 70
     1
102
RTVSPost2010Prop54
  1
strokes_ogs.tif
102
RTVSPost2010PropOp54
 70
     1
102
RTVSPost2010Prop55
280
     0
102
RTVSPost2010PropOp55
 70
     1
102
RTVSPost2010Prop56
140
1.0
102
RTVSPost2010PropOp56
 70
     1
102
RTVSPost2010Prop57
140
1.0
102
RTVSPost2010PropOp57
 70
     1
102
RTVSPropertyOp0
 70
     1
102
RTVSPropertyOp1
 70
     1
102
RTVSPropertyOp2
 70
     1
102
RTVSPropertyOp3
 70
     1
102
RTVSPropertyOp4
 70
     1
102
RTVSPropertyOp5
 70
     1
102
RTVSPropertyOp6
 70
     1
102
RTVSPropertyOp7
 70
     1
102
RTVSPropertyOp8
 70
     1
102
RTVSPropertyOp9
 70
     1
102
RTVSPropertyOp10
 70
     1
102
RTVSPropertyOp11
 70
     1
102
RTVSPropertyOp12
 70
     1
102
RTVSPropertyOp13
 70
     1
102
RTVSPropertyOp14
 70
     1
102
RTVSPropertyOp15
 70
     1
102
RTVSPropertyOp16
 70
     1
102
RTVSPropertyOp17
 70
     1
102
RTVSPropertyOp18
 70
     1
102
RTVSPropertyOp19
 70
     1
102
RTVSPropertyOp20
 70
     1
102
RTVSPropertyOp21
 70
     1
102
RTVSPropertyOp22
 70
     1
102
RTVSPropertyOp23
 70
     1
102
RTVSPropertyOp24
 70
     1
102
RTVSPropertyOp25
 70
     1
102
RTVSPropertyOp26
 70
     1
102
RTVSPropertyOp27
 70
     1
102
RTVSPropertyOp28
 70
     1
102
RTVSPropertyOp29
 70
     1
102
RTVSPropertyOp30
 70
     1
102
RTVSPropertyOp31
 70
     1
102
RTVSPropertyOp32
 70
     1
102
RTVSPropertyOp33
 70
     1
102
RTVSPropertyOp34
 70
     1
102
RTVSPropertyOp35
 70
     1
102
RTVSPropertyOp36
 70
     1
102
RTVSPropertyOp37
 70
     1
102
RTVSPropertyOp38
 70
     1
102
RTVSPropertyOp39
 70
     1
102
RTVSPropertyOp40
 70
     1
102
RTVSPropertyOp41
 70
     1
102
RTVSPropertyOp42
 70
     1
102
RTVSPropertyOp43
 70
     1
102
RTVSPropertyOp44
 70
     1
102
RTVSPropertyOp45
 70
     1
102
RTVSPropertyOp46
 70
     1
102
RTVSPropertyOp47
 70
     1
102
RTVSPropertyOp48
 70
     1
102
RTVSPropertyOp49
 70
     1
102
RTVSPropertyOp50
 70
     1
102
RTVSPropertyOp51
 70
     0
102
RTVSPropertyOp52
 70
     0
102
RTVSPropertyOp53
 70
     1
102
RTVSPropertyOp54
 70
     1
102
RTVSPropertyOp55
 70
     1
102
RTVSPropertyOp56
 70
     1
102
RTVSPropertyOp57
 70
     1
102
RTVSPropertyOp58
 70
     1
102
RTVSPropertyOp59
 70
     1
102
RTVSPropertyOp60
 70
     1
102
RTVSPropertyOp61
 70
     1
102
RTVSPropertyOp62
 70
     1
  0
XRECORD
  5
133E
102
{ACAD_REACTORS
330
133D
102
}
330
133D
100
AcDbXrecord
280
     1
102
RTVSPost2010Prop28
280
     0
102
RTVSPost2010PropOp28
 70
     1
102
RTVSPost2010Prop29
280
     1
102
RTVSPost2010PropOp29
 70
     1
102
RTVSPost2010Prop30
280
     1
102
RTVSPost2010PropOp30
 70
     1
102
RTVSPost2010Prop31
280
     0
102
RTVSPost2010PropOp31
 70
     1
102
RTVSPost2010Prop32
280
     0
102
RTVSPost2010PropOp32
 70
     1
102
RTVSPost2010Prop33
280
     0
102
RTVSPost2010PropOp33
 70
     1
102
RTVSPost2010Prop34
280
     0
102
RTVSPost2010PropOp34
 70
     1
102
RTVSPost2010Prop35
280
     0
102
RTVSPost2010PropOp35
 70
     1
102
RTVSPost2010Prop36
280
     0
102
RTVSPost2010PropOp36
 70
     1
102
RTVSPost2010Prop37
 90
       50
102
RTVSPost2010PropOp37
 70
     1
102
RTVSPost2010Prop38
140
0.0
102
RTVSPost2010PropOp38
 70
     1
102
RTVSPost2010Prop39
140
1.0
102
RTVSPost2010PropOp39
 70
     1
102
RTVSPost2010Prop40
 90
        0
102
RTVSPost2010PropOp40
 70
     1
102
RTVSPost2010Prop41ColorIndex
 90
       18
102
RTVSPost2010Prop41ColorRGB
 90
        0
102
RTVSPost2010PropOp41
 70
     1
102
RTVSPost2010Prop42
 90
       50
102
RTVSPost2010PropOp42
 70
     1
102
RTVSPost2010Prop43
 90
        3
102
RTVSPost2010PropOp43
 70
     1
102
RTVSPost2010Prop44ColorIndex
 90
        5
102
RTVSPost2010Prop44ColorRGB
 90
      255
102
RTVSPost2010PropOp44
 70
     1
102
RTVSPost2010Prop45
280
     0
102
RTVSPost2010PropOp45
 70
     1
102
RTVSPost2010Prop46
 90
       50
102
RTVSPost2010PropOp46
 70
     1
102
RTVSPost2010Prop47
 90
       50
102
RTVSPost2010PropOp47
 70
     1
102
RTVSPost2010Prop48
 90
       50
102
RTVSPost2010PropOp48
 70
     1
102
RTVSPost2010Prop49
280
     0
102
RTVSPost2010PropOp49
 70
     1
102
RTVSPost2010Prop50
 90
       50
102
RTVSPost2010PropOp50
 70
     1
102
RTVSPost2010Prop51ColorIndex
 90
      256
102
RTVSPost2010Prop51ColorRGB
 90
-16777216
102
RTVSPost2010PropOp51
 70
     0
102
RTVSPost2010Prop52
140
1.0
102
RTVSPost2010PropOp52
 70
     0
102
RTVSPost2010Prop53
 90
        2
102
RTVSPost2010PropOp53
 70
     1
102
RTVSPost2010Prop54
  1
strokes_ogs.tif
102
RTVSPost2010PropOp54
 70
     1
102
RTVSPost2010Prop55
280
     0
102
RTVSPost2010PropOp55
 70
     1
102
RTVSPost2010Prop56
140
1.0
102
RTVSPost2010PropOp56
 70
     1
102
RTVSPost2010Prop57
140
1.0
102
RTVSPost2010PropOp57
 70
     1
102
RTVSPropertyOp0
 70
     1
102
RTVSPropertyOp1
 70
     1
102
RTVSPropertyOp2
 70
     1
102
RTVSPropertyOp3
 70
     1
102
RTVSPropertyOp4
 70
     1
102
RTVSPropertyOp5
 70
     1
102
RTVSPropertyOp6
 70
     1
102
RTVSPropertyOp7
 70
     1
102
RTVSPropertyOp8
 70
     1
102
RTVSPropertyOp9
 70
     1
102
RTVSPropertyOp10
 70
     1
102
RTVSPropertyOp11
 70
     1
102
RTVSPropertyOp12
 70
     1
102
RTVSPropertyOp13
 70
     1
102
RTVSPropertyOp14
 70
     1
102
RTVSPropertyOp15
 70
     1
102
RTVSPropertyOp16
 70
     1
102
RTVSPropertyOp17
 70
     1
102
RTVSPropertyOp18
 70
     1
102
RTVSPropertyOp19
 70
     1
102
RTVSPropertyOp20
 70
     1
102
RTVSPropertyOp21
 70
     1
102
RTVSPropertyOp22
 70
     1
102
RTVSPropertyOp23
 70
     1
102
RTVSPropertyOp24
 70
     1
102
RTVSPropertyOp25
 70
     1
102
RTVSPropertyOp26
 70
     1
102
RTVSPropertyOp27
 70
     1
102
RTVSPropertyOp28
 70
     1
102
RTVSPropertyOp29
 70
     1
102
RTVSPropertyOp30
 70
     1
102
RTVSPropertyOp31
 70
     1
102
RTVSPropertyOp32
 70
     1
102
RTVSPropertyOp33
 70
     1
102
RTVSPropertyOp34
 70
     1
102
RTVSPropertyOp35
 70
     1
102
RTVSPropertyOp36
 70
     1
102
RTVSPropertyOp37
 70
     1
102
RTVSPropertyOp38
 70
     1
102
RTVSPropertyOp39
 70
     1
102
RTVSPropertyOp40
 70
     1
102
RTVSPropertyOp41
 70
     1
102
RTVSPropertyOp42
 70
     1
102
RTVSPropertyOp43
 70
     1
102
RTVSPropertyOp44
 70
     1
102
RTVSPropertyOp45
 70
     1
102
RTVSPropertyOp46
 70
     1
102
RTVSPropertyOp47
 70
     1
102
RTVSPropertyOp48
 70
     1
102
RTVSPropertyOp49
 70
     1
102
RTVSPropertyOp50
 70
     1
102
RTVSPropertyOp51
 70
     0
102
RTVSPropertyOp52
 70
     0
102
RTVSPropertyOp53
 70
     1
102
RTVSPropertyOp54
 70
     1
102
RTVSPropertyOp55
 70
     1
102
RTVSPropertyOp56
 70
     1
102
RTVSPropertyOp57
 70
     1
102
RTVSPropertyOp58
 70
     1
102
RTVSPropertyOp59
 70
     1
102
RTVSPropertyOp60
 70
     1
102
RTVSPropertyOp61
 70
     1
102
RTVSPropertyOp62
 70
     1
  0
XRECORD
  5
1338
102
{ACAD_REACTORS
330
1337
102
}
330
1337
100
AcDbXrecord
280
     1
102
RTVSPost2010Prop28
280
     0
102
RTVSPost2010PropOp28
 70
     1
102
RTVSPost2010Prop29
280
     1
102
RTVSPost2010PropOp29
 70
     1
102
RTVSPost2010Prop30
280
     1
102
RTVSPost2010PropOp30
 70
     1
102
RTVSPost2010Prop31
280
     0
102
RTVSPost2010PropOp31
 70
     1
102
RTVSPost2010Prop32
280
     0
102
RTVSPost2010PropOp32
 70
     1
102
RTVSPost2010Prop33
280
     0
102
RTVSPost2010PropOp33
 70
     1
102
RTVSPost2010Prop34
280
     0
102
RTVSPost2010PropOp34
 70
     1
102
RTVSPost2010Prop35
280
     0
102
RTVSPost2010PropOp35
 70
     1
102
RTVSPost2010Prop36
280
     0
102
RTVSPost2010PropOp36
 70
     1
102
RTVSPost2010Prop37
 90
       50
102
RTVSPost2010PropOp37
 70
     1
102
RTVSPost2010Prop38
140
0.0
102
RTVSPost2010PropOp38
 70
     1
102
RTVSPost2010Prop39
140
1.0
102
RTVSPost2010PropOp39
 70
     1
102
RTVSPost2010Prop40
 90
        0
102
RTVSPost2010PropOp40
 70
     1
102
RTVSPost2010Prop41ColorIndex
 90
       18
102
RTVSPost2010Prop41ColorRGB
 90
        0
102
RTVSPost2010PropOp41
 70
     1
102
RTVSPost2010Prop42
 90
       50
102
RTVSPost2010PropOp42
 70
     1
102
RTVSPost2010Prop43
 90
        3
102
RTVSPost2010PropOp43
 70
     1
102
RTVSPost2010Prop44ColorIndex
 90
        5
102
RTVSPost2010Prop44ColorRGB
 90
      255
102
RTVSPost2010PropOp44
 70
     1
102
RTVSPost2010Prop45
280
     0
102
RTVSPost2010PropOp45
 70
     1
102
RTVSPost2010Prop46
 90
       50
102
RTVSPost2010PropOp46
 70
     1
102
RTVSPost2010Prop47
 90
       50
102
RTVSPost2010PropOp47
 70
     1
102
RTVSPost2010Prop48
 90
       50
102
RTVSPost2010PropOp48
 70
     1
102
RTVSPost2010Prop49
280
     0
102
RTVSPost2010PropOp49
 70
     1
102
RTVSPost2010Prop50
 90
       50
102
RTVSPost2010PropOp50
 70
     1
102
RTVSPost2010Prop51ColorIndex
 90
      256
102
RTVSPost2010Prop51ColorRGB
 90
-16777216
102
RTVSPost2010PropOp51
 70
     0
102
RTVSPost2010Prop52
140
1.0
102
RTVSPost2010PropOp52
 70
     0
102
RTVSPost2010Prop53
 90
        2
102
RTVSPost2010PropOp53
 70
     1
102
RTVSPost2010Prop54
  1
strokes_ogs.tif
102
RTVSPost2010PropOp54
 70
     1
102
RTVSPost2010Prop55
280
     0
102
RTVSPost2010PropOp55
 70
     1
102
RTVSPost2010Prop56
140
1.0
102
RTVSPost2010PropOp56
 70
     1
102
RTVSPost2010Prop57
140
1.0
102
RTVSPost2010PropOp57
 70
     1
102
RTVSPropertyOp0
 70
     1
102
RTVSPropertyOp1
 70
     1
102
RTVSPropertyOp2
 70
     1
102
RTVSPropertyOp3
 70
     1
102
RTVSPropertyOp4
 70
     1
102
RTVSPropertyOp5
 70
     1
102
RTVSPropertyOp6
 70
     1
102
RTVSPropertyOp7
 70
     1
102
RTVSPropertyOp8
 70
     1
102
RTVSPropertyOp9
 70
     1
102
RTVSPropertyOp10
 70
     1
102
RTVSPropertyOp11
 70
     1
102
RTVSPropertyOp12
 70
     1
102
RTVSPropertyOp13
 70
     1
102
RTVSPropertyOp14
 70
     1
102
RTVSPropertyOp15
 70
     1
102
RTVSPropertyOp16
 70
     1
102
RTVSPropertyOp17
 70
     1
102
RTVSPropertyOp18
 70
     1
102
RTVSPropertyOp19
 70
     1
102
RTVSPropertyOp20
 70
     1
102
RTVSPropertyOp21
 70
     1
102
RTVSPropertyOp22
 70
     1
102
RTVSPropertyOp23
 70
     1
102
RTVSPropertyOp24
 70
     1
102
RTVSPropertyOp25
 70
     1
102
RTVSPropertyOp26
 70
     1
102
RTVSPropertyOp27
 70
     1
102
RTVSPropertyOp28
 70
     1
102
RTVSPropertyOp29
 70
     1
102
RTVSPropertyOp30
 70
     1
102
RTVSPropertyOp31
 70
     1
102
RTVSPropertyOp32
 70
     1
102
RTVSPropertyOp33
 70
     1
102
RTVSPropertyOp34
 70
     1
102
RTVSPropertyOp35
 70
     1
102
RTVSPropertyOp36
 70
     1
102
RTVSPropertyOp37
 70
     1
102
RTVSPropertyOp38
 70
     1
102
RTVSPropertyOp39
 70
     1
102
RTVSPropertyOp40
 70
     1
102
RTVSPropertyOp41
 70
     1
102
RTVSPropertyOp42
 70
     1
102
RTVSPropertyOp43
 70
     1
102
RTVSPropertyOp44
 70
     1
102
RTVSPropertyOp45
 70
     1
102
RTVSPropertyOp46
 70
     1
102
RTVSPropertyOp47
 70
     1
102
RTVSPropertyOp48
 70
     1
102
RTVSPropertyOp49
 70
     1
102
RTVSPropertyOp50
 70
     1
102
RTVSPropertyOp51
 70
     0
102
RTVSPropertyOp52
 70
     0
102
RTVSPropertyOp53
 70
     1
102
RTVSPropertyOp54
 70
     1
102
RTVSPropertyOp55
 70
     1
102
RTVSPropertyOp56
 70
     1
102
RTVSPropertyOp57
 70
     1
102
RTVSPropertyOp58
 70
     1
102
RTVSPropertyOp59
 70
     1
102
RTVSPropertyOp60
 70
     1
102
RTVSPropertyOp61
 70
     1
102
RTVSPropertyOp62
 70
     1
  0
XRECORD
  5
133A
102
{ACAD_REACTORS
330
1339
102
}
330
1339
100
AcDbXrecord
280
     1
102
RTVSPost2010Prop28
280
     0
102
RTVSPost2010PropOp28
 70
     1
102
RTVSPost2010Prop29
280
     1
102
RTVSPost2010PropOp29
 70
     1
102
RTVSPost2010Prop30
280
     1
102
RTVSPost2010PropOp30
 70
     1
102
RTVSPost2010Prop31
280
     0
102
RTVSPost2010PropOp31
 70
     1
102
RTVSPost2010Prop32
280
     0
102
RTVSPost2010PropOp32
 70
     1
102
RTVSPost2010Prop33
280
     0
102
RTVSPost2010PropOp33
 70
     1
102
RTVSPost2010Prop34
280
     0
102
RTVSPost2010PropOp34
 70
     1
102
RTVSPost2010Prop35
280
     0
102
RTVSPost2010PropOp35
 70
     1
102
RTVSPost2010Prop36
280
     0
102
RTVSPost2010PropOp36
 70
     1
102
RTVSPost2010Prop37
 90
       50
102
RTVSPost2010PropOp37
 70
     1
102
RTVSPost2010Prop38
140
0.0
102
RTVSPost2010PropOp38
 70
     1
102
RTVSPost2010Prop39
140
1.0
102
RTVSPost2010PropOp39
 70
     1
102
RTVSPost2010Prop40
 90
        0
102
RTVSPost2010PropOp40
 70
     1
102
RTVSPost2010Prop41ColorIndex
 90
       18
102
RTVSPost2010Prop41ColorRGB
 90
        0
102
RTVSPost2010PropOp41
 70
     1
102
RTVSPost2010Prop42
 90
       50
102
RTVSPost2010PropOp42
 70
     1
102
RTVSPost2010Prop43
 90
        3
102
RTVSPost2010PropOp43
 70
     1
102
RTVSPost2010Prop44ColorIndex
 90
        5
102
RTVSPost2010Prop44ColorRGB
 90
      255
102
RTVSPost2010PropOp44
 70
     1
102
RTVSPost2010Prop45
280
     0
102
RTVSPost2010PropOp45
 70
     1
102
RTVSPost2010Prop46
 90
       50
102
RTVSPost2010PropOp46
 70
     1
102
RTVSPost2010Prop47
 90
       50
102
RTVSPost2010PropOp47
 70
     1
102
RTVSPost2010Prop48
 90
       50
102
RTVSPost2010PropOp48
 70
     1
102
RTVSPost2010Prop49
280
     0
102
RTVSPost2010PropOp49
 70
     1
102
RTVSPost2010Prop50
 90
       50
102
RTVSPost2010PropOp50
 70
     1
102
RTVSPost2010Prop51ColorIndex
 90
      256
102
RTVSPost2010Prop51ColorRGB
 90
-16777216
102
RTVSPost2010PropOp51
 70
     0
102
RTVSPost2010Prop52
140
1.0
102
RTVSPost2010PropOp52
 70
     0
102
RTVSPost2010Prop53
 90
        2
102
RTVSPost2010PropOp53
 70
     1
102
RTVSPost2010Prop54
  1
strokes_ogs.tif
102
RTVSPost2010PropOp54
 70
     1
102
RTVSPost2010Prop55
280
     0
102
RTVSPost2010PropOp55
 70
     1
102
RTVSPost2010Prop56
140
1.0
102
RTVSPost2010PropOp56
 70
     1
102
RTVSPost2010Prop57
140
1.0
102
RTVSPost2010PropOp57
 70
     1
102
RTVSPropertyOp0
 70
     1
102
RTVSPropertyOp1
 70
     1
102
RTVSPropertyOp2
 70
     1
102
RTVSPropertyOp3
 70
     1
102
RTVSPropertyOp4
 70
     1
102
RTVSPropertyOp5
 70
     1
102
RTVSPropertyOp6
 70
     1
102
RTVSPropertyOp7
 70
     1
102
RTVSPropertyOp8
 70
     1
102
RTVSPropertyOp9
 70
     1
102
RTVSPropertyOp10
 70
     1
102
RTVSPropertyOp11
 70
     1
102
RTVSPropertyOp12
 70
     1
102
RTVSPropertyOp13
 70
     1
102
RTVSPropertyOp14
 70
     1
102
RTVSPropertyOp15
 70
     1
102
RTVSPropertyOp16
 70
     1
102
RTVSPropertyOp17
 70
     1
102
RTVSPropertyOp18
 70
     1
102
RTVSPropertyOp19
 70
     1
102
RTVSPropertyOp20
 70
     1
102
RTVSPropertyOp21
 70
     1
102
RTVSPropertyOp22
 70
     1
102
RTVSPropertyOp23
 70
     1
102
RTVSPropertyOp24
 70
     1
102
RTVSPropertyOp25
 70
     1
102
RTVSPropertyOp26
 70
     1
102
RTVSPropertyOp27
 70
     1
102
RTVSPropertyOp28
 70
     1
102
RTVSPropertyOp29
 70
     1
102
RTVSPropertyOp30
 70
     1
102
RTVSPropertyOp31
 70
     1
102
RTVSPropertyOp32
 70
     1
102
RTVSPropertyOp33
 70
     1
102
RTVSPropertyOp34
 70
     1
102
RTVSPropertyOp35
 70
     1
102
RTVSPropertyOp36
 70
     1
102
RTVSPropertyOp37
 70
     1
102
RTVSPropertyOp38
 70
     1
102
RTVSPropertyOp39
 70
     1
102
RTVSPropertyOp40
 70
     1
102
RTVSPropertyOp41
 70
     1
102
RTVSPropertyOp42
 70
     1
102
RTVSPropertyOp43
 70
     1
102
RTVSPropertyOp44
 70
     1
102
RTVSPropertyOp45
 70
     1
102
RTVSPropertyOp46
 70
     1
102
RTVSPropertyOp47
 70
     1
102
RTVSPropertyOp48
 70
     1
102
RTVSPropertyOp49
 70
     1
102
RTVSPropertyOp50
 70
     1
102
RTVSPropertyOp51
 70
     0
102
RTVSPropertyOp52
 70
     0
102
RTVSPropertyOp53
 70
     1
102
RTVSPropertyOp54
 70
     1
102
RTVSPropertyOp55
 70
     1
102
RTVSPropertyOp56
 70
     1
102
RTVSPropertyOp57
 70
     1
102
RTVSPropertyOp58
 70
     1
102
RTVSPropertyOp59
 70
     1
102
RTVSPropertyOp60
 70
     1
102
RTVSPropertyOp61
 70
     1
102
RTVSPropertyOp62
 70
     1
  0
XRECORD
  5
1326
102
{ACAD_REACTORS
330
1325
102
}
330
1325
100
AcDbXrecord
280
     1
102
RTVSPost2010Prop28
280
     0
102
RTVSPost2010PropOp28
 70
     1
102
RTVSPost2010Prop29
280
     1
102
RTVSPost2010PropOp29
 70
     1
102
RTVSPost2010Prop30
280
     1
102
RTVSPost2010PropOp30
 70
     1
102
RTVSPost2010Prop31
280
     0
102
RTVSPost2010PropOp31
 70
     1
102
RTVSPost2010Prop32
280
     0
102
RTVSPost2010PropOp32
 70
     1
102
RTVSPost2010Prop33
280
     0
102
RTVSPost2010PropOp33
 70
     1
102
RTVSPost2010Prop34
280
     0
102
RTVSPost2010PropOp34
 70
     1
102
RTVSPost2010Prop35
280
     0
102
RTVSPost2010PropOp35
 70
     1
102
RTVSPost2010Prop36
280
     0
102
RTVSPost2010PropOp36
 70
     1
102
RTVSPost2010Prop37
 90
       50
102
RTVSPost2010PropOp37
 70
     1
102
RTVSPost2010Prop38
140
0.0
102
RTVSPost2010PropOp38
 70
     1
102
RTVSPost2010Prop39
140
1.0
102
RTVSPost2010PropOp39
 70
     1
102
RTVSPost2010Prop40
 90
        0
102
RTVSPost2010PropOp40
 70
     1
102
RTVSPost2010Prop41ColorIndex
 90
       18
102
RTVSPost2010Prop41ColorRGB
 90
        0
102
RTVSPost2010PropOp41
 70
     1
102
RTVSPost2010Prop42
 90
       50
102
RTVSPost2010PropOp42
 70
     1
102
RTVSPost2010Prop43
 90
        3
102
RTVSPost2010PropOp43
 70
     1
102
RTVSPost2010Prop44ColorIndex
 90
        5
102
RTVSPost2010Prop44ColorRGB
 90
      255
102
RTVSPost2010PropOp44
 70
     1
102
RTVSPost2010Prop45
280
     0
102
RTVSPost2010PropOp45
 70
     1
102
RTVSPost2010Prop46
 90
       50
102
RTVSPost2010PropOp46
 70
     1
102
RTVSPost2010Prop47
 90
       50
102
RTVSPost2010PropOp47
 70
     1
102
RTVSPost2010Prop48
 90
       50
102
RTVSPost2010PropOp48
 70
     1
102
RTVSPost2010Prop49
280
     0
102
RTVSPost2010PropOp49
 70
     1
102
RTVSPost2010Prop50
 90
       50
102
RTVSPost2010PropOp50
 70
     1
102
RTVSPost2010Prop51ColorIndex
 90
      256
102
RTVSPost2010Prop51ColorRGB
 90
-16777216
102
RTVSPost2010PropOp51
 70
     0
102
RTVSPost2010Prop52
140
1.0
102
RTVSPost2010PropOp52
 70
     0
102
RTVSPost2010Prop53
 90
        2
102
RTVSPost2010PropOp53
 70
     1
102
RTVSPost2010Prop54
  1
strokes_ogs.tif
102
RTVSPost2010PropOp54
 70
     1
102
RTVSPost2010Prop55
280
     0
102
RTVSPost2010PropOp55
 70
     1
102
RTVSPost2010Prop56
140
1.0
102
RTVSPost2010PropOp56
 70
     1
102
RTVSPost2010Prop57
140
1.0
102
RTVSPost2010PropOp57
 70
     1
102
RTVSPropertyOp0
 70
     1
102
RTVSPropertyOp1
 70
     1
102
RTVSPropertyOp2
 70
     1
102
RTVSPropertyOp3
 70
     1
102
RTVSPropertyOp4
 70
     1
102
RTVSPropertyOp5
 70
     1
102
RTVSPropertyOp6
 70
     1
102
RTVSPropertyOp7
 70
     1
102
RTVSPropertyOp8
 70
     1
102
RTVSPropertyOp9
 70
     1
102
RTVSPropertyOp10
 70
     1
102
RTVSPropertyOp11
 70
     1
102
RTVSPropertyOp12
 70
     1
102
RTVSPropertyOp13
 70
     1
102
RTVSPropertyOp14
 70
     1
102
RTVSPropertyOp15
 70
     1
102
RTVSPropertyOp16
 70
     1
102
RTVSPropertyOp17
 70
     1
102
RTVSPropertyOp18
 70
     1
102
RTVSPropertyOp19
 70
     1
102
RTVSPropertyOp20
 70
     1
102
RTVSPropertyOp21
 70
     1
102
RTVSPropertyOp22
 70
     1
102
RTVSPropertyOp23
 70
     1
102
RTVSPropertyOp24
 70
     1
102
RTVSPropertyOp25
 70
     1
102
RTVSPropertyOp26
 70
     1
102
RTVSPropertyOp27
 70
     1
102
RTVSPropertyOp28
 70
     1
102
RTVSPropertyOp29
 70
     1
102
RTVSPropertyOp30
 70
     1
102
RTVSPropertyOp31
 70
     1
102
RTVSPropertyOp32
 70
     1
102
RTVSPropertyOp33
 70
     1
102
RTVSPropertyOp34
 70
     1
102
RTVSPropertyOp35
 70
     1
102
RTVSPropertyOp36
 70
     1
102
RTVSPropertyOp37
 70
     1
102
RTVSPropertyOp38
 70
     1
102
RTVSPropertyOp39
 70
     1
102
RTVSPropertyOp40
 70
     1
102
RTVSPropertyOp41
 70
     1
102
RTVSPropertyOp42
 70
     1
102
RTVSPropertyOp43
 70
     1
102
RTVSPropertyOp44
 70
     1
102
RTVSPropertyOp45
 70
     1
102
RTVSPropertyOp46
 70
     1
102
RTVSPropertyOp47
 70
     1
102
RTVSPropertyOp48
 70
     1
102
RTVSPropertyOp49
 70
     1
102
RTVSPropertyOp50
 70
     1
102
RTVSPropertyOp51
 70
     0
102
RTVSPropertyOp52
 70
     0
102
RTVSPropertyOp53
 70
     1
102
RTVSPropertyOp54
 70
     1
102
RTVSPropertyOp55
 70
     1
102
RTVSPropertyOp56
 70
     1
102
RTVSPropertyOp57
 70
     1
102
RTVSPropertyOp58
 70
     1
102
RTVSPropertyOp59
 70
     1
102
RTVSPropertyOp60
 70
     1
102
RTVSPropertyOp61
 70
     1
102
RTVSPropertyOp62
 70
     1
  0
XRECORD
  5
1334
102
{ACAD_REACTORS
330
1333
102
}
330
1333
100
AcDbXrecord
280
     1
102
RTVSPost2010Prop28
280
     0
102
RTVSPost2010PropOp28
 70
     1
102
RTVSPost2010Prop29
280
     1
102
RTVSPost2010PropOp29
 70
     1
102
RTVSPost2010Prop30
280
     1
102
RTVSPost2010PropOp30
 70
     1
102
RTVSPost2010Prop31
280
     0
102
RTVSPost2010PropOp31
 70
     1
102
RTVSPost2010Prop32
280
     0
102
RTVSPost2010PropOp32
 70
     1
102
RTVSPost2010Prop33
280
     0
102
RTVSPost2010PropOp33
 70
     1
102
RTVSPost2010Prop34
280
     0
102
RTVSPost2010PropOp34
 70
     1
102
RTVSPost2010Prop35
280
     0
102
RTVSPost2010PropOp35
 70
     1
102
RTVSPost2010Prop36
280
     0
102
RTVSPost2010PropOp36
 70
     1
102
RTVSPost2010Prop37
 90
       50
102
RTVSPost2010PropOp37
 70
     1
102
RTVSPost2010Prop38
140
0.0
102
RTVSPost2010PropOp38
 70
     1
102
RTVSPost2010Prop39
140
1.0
102
RTVSPost2010PropOp39
 70
     1
102
RTVSPost2010Prop40
 90
        0
102
RTVSPost2010PropOp40
 70
     1
102
RTVSPost2010Prop41ColorIndex
 90
       18
102
RTVSPost2010Prop41ColorRGB
 90
        0
102
RTVSPost2010PropOp41
 70
     1
102
RTVSPost2010Prop42
 90
       50
102
RTVSPost2010PropOp42
 70
     1
102
RTVSPost2010Prop43
 90
        3
102
RTVSPost2010PropOp43
 70
     1
102
RTVSPost2010Prop44ColorIndex
 90
        5
102
RTVSPost2010Prop44ColorRGB
 90
      255
102
RTVSPost2010PropOp44
 70
     1
102
RTVSPost2010Prop45
280
     0
102
RTVSPost2010PropOp45
 70
     1
102
RTVSPost2010Prop46
 90
       50
102
RTVSPost2010PropOp46
 70
     1
102
RTVSPost2010Prop47
 90
       50
102
RTVSPost2010PropOp47
 70
     1
102
RTVSPost2010Prop48
 90
       50
102
RTVSPost2010PropOp48
 70
     1
102
RTVSPost2010Prop49
280
     0
102
RTVSPost2010PropOp49
 70
     1
102
RTVSPost2010Prop50
 90
       50
102
RTVSPost2010PropOp50
 70
     1
102
RTVSPost2010Prop51ColorIndex
 90
      256
102
RTVSPost2010Prop51ColorRGB
 90
-16777216
102
RTVSPost2010PropOp51
 70
     0
102
RTVSPost2010Prop52
140
1.0
102
RTVSPost2010PropOp52
 70
     0
102
RTVSPost2010Prop53
 90
        2
102
RTVSPost2010PropOp53
 70
     1
102
RTVSPost2010Prop54
  1
strokes_ogs.tif
102
RTVSPost2010PropOp54
 70
     1
102
RTVSPost2010Prop55
280
     0
102
RTVSPost2010PropOp55
 70
     1
102
RTVSPost2010Prop56
140
1.0
102
RTVSPost2010PropOp56
 70
     1
102
RTVSPost2010Prop57
140
1.0
102
RTVSPost2010PropOp57
 70
     1
102
RTVSPropertyOp0
 70
     1
102
RTVSPropertyOp1
 70
     1
102
RTVSPropertyOp2
 70
     1
102
RTVSPropertyOp3
 70
     1
102
RTVSPropertyOp4
 70
     1
102
RTVSPropertyOp5
 70
     1
102
RTVSPropertyOp6
 70
     1
102
RTVSPropertyOp7
 70
     1
102
RTVSPropertyOp8
 70
     1
102
RTVSPropertyOp9
 70
     1
102
RTVSPropertyOp10
 70
     1
102
RTVSPropertyOp11
 70
     1
102
RTVSPropertyOp12
 70
     1
102
RTVSPropertyOp13
 70
     1
102
RTVSPropertyOp14
 70
     1
102
RTVSPropertyOp15
 70
     1
102
RTVSPropertyOp16
 70
     1
102
RTVSPropertyOp17
 70
     1
102
RTVSPropertyOp18
 70
     1
102
RTVSPropertyOp19
 70
     1
102
RTVSPropertyOp20
 70
     1
102
RTVSPropertyOp21
 70
     1
102
RTVSPropertyOp22
 70
     1
102
RTVSPropertyOp23
 70
     1
102
RTVSPropertyOp24
 70
     1
102
RTVSPropertyOp25
 70
     1
102
RTVSPropertyOp26
 70
     1
102
RTVSPropertyOp27
 70
     1
102
RTVSPropertyOp28
 70
     1
102
RTVSPropertyOp29
 70
     1
102
RTVSPropertyOp30
 70
     1
102
RTVSPropertyOp31
 70
     1
102
RTVSPropertyOp32
 70
     1
102
RTVSPropertyOp33
 70
     1
102
RTVSPropertyOp34
 70
     1
102
RTVSPropertyOp35
 70
     1
102
RTVSPropertyOp36
 70
     1
102
RTVSPropertyOp37
 70
     1
102
RTVSPropertyOp38
 70
     1
102
RTVSPropertyOp39
 70
     1
102
RTVSPropertyOp40
 70
     1
102
RTVSPropertyOp41
 70
     1
102
RTVSPropertyOp42
 70
     1
102
RTVSPropertyOp43
 70
     1
102
RTVSPropertyOp44
 70
     1
102
RTVSPropertyOp45
 70
     1
102
RTVSPropertyOp46
 70
     1
102
RTVSPropertyOp47
 70
     1
102
RTVSPropertyOp48
 70
     1
102
RTVSPropertyOp49
 70
     1
102
RTVSPropertyOp50
 70
     1
102
RTVSPropertyOp51
 70
     0
102
RTVSPropertyOp52
 70
     0
102
RTVSPropertyOp53
 70
     1
102
RTVSPropertyOp54
 70
     1
102
RTVSPropertyOp55
 70
     1
102
RTVSPropertyOp56
 70
     1
102
RTVSPropertyOp57
 70
     1
102
RTVSPropertyOp58
 70
     1
102
RTVSPropertyOp59
 70
     1
102
RTVSPropertyOp60
 70
     1
102
RTVSPropertyOp61
 70
     1
102
RTVSPropertyOp62
 70
     1
  0
XRECORD
  5
133C
102
{ACAD_REACTORS
330
133B
102
}
330
133B
100
AcDbXrecord
280
     1
102
RTVSPost2010Prop28
280
     0
102
RTVSPost2010PropOp28
 70
     1
102
RTVSPost2010Prop29
280
     1
102
RTVSPost2010PropOp29
 70
     1
102
RTVSPost2010Prop30
280
     1
102
RTVSPost2010PropOp30
 70
     1
102
RTVSPost2010Prop31
280
     0
102
RTVSPost2010PropOp31
 70
     1
102
RTVSPost2010Prop32
280
     0
102
RTVSPost2010PropOp32
 70
     1
102
RTVSPost2010Prop33
280
     0
102
RTVSPost2010PropOp33
 70
     1
102
RTVSPost2010Prop34
280
     0
102
RTVSPost2010PropOp34
 70
     1
102
RTVSPost2010Prop35
280
     0
102
RTVSPost2010PropOp35
 70
     1
102
RTVSPost2010Prop36
280
     0
102
RTVSPost2010PropOp36
 70
     1
102
RTVSPost2010Prop37
 90
       50
102
RTVSPost2010PropOp37
 70
     1
102
RTVSPost2010Prop38
140
0.0
102
RTVSPost2010PropOp38
 70
     1
102
RTVSPost2010Prop39
140
1.0
102
RTVSPost2010PropOp39
 70
     1
102
RTVSPost2010Prop40
 90
        0
102
RTVSPost2010PropOp40
 70
     1
102
RTVSPost2010Prop41ColorIndex
 90
       18
102
RTVSPost2010Prop41ColorRGB
 90
        0
102
RTVSPost2010PropOp41
 70
     1
102
RTVSPost2010Prop42
 90
       50
102
RTVSPost2010PropOp42
 70
     1
102
RTVSPost2010Prop43
 90
        3
102
RTVSPost2010PropOp43
 70
     1
102
RTVSPost2010Prop44ColorIndex
 90
        5
102
RTVSPost2010Prop44ColorRGB
 90
      255
102
RTVSPost2010PropOp44
 70
     1
102
RTVSPost2010Prop45
280
     0
102
RTVSPost2010PropOp45
 70
     1
102
RTVSPost2010Prop46
 90
       50
102
RTVSPost2010PropOp46
 70
     1
102
RTVSPost2010Prop47
 90
       50
102
RTVSPost2010PropOp47
 70
     1
102
RTVSPost2010Prop48
 90
       50
102
RTVSPost2010PropOp48
 70
     1
102
RTVSPost2010Prop49
280
     0
102
RTVSPost2010PropOp49
 70
     1
102
RTVSPost2010Prop50
 90
       50
102
RTVSPost2010PropOp50
 70
     1
102
RTVSPost2010Prop51ColorIndex
 90
      256
102
RTVSPost2010Prop51ColorRGB
 90
-16777216
102
RTVSPost2010PropOp51
 70
     0
102
RTVSPost2010Prop52
140
1.0
102
RTVSPost2010PropOp52
 70
     0
102
RTVSPost2010Prop53
 90
        2
102
RTVSPost2010PropOp53
 70
     1
102
RTVSPost2010Prop54
  1
strokes_ogs.tif
102
RTVSPost2010PropOp54
 70
     1
102
RTVSPost2010Prop55
280
     0
102
RTVSPost2010PropOp55
 70
     1
102
RTVSPost2010Prop56
140
1.0
102
RTVSPost2010PropOp56
 70
     1
102
RTVSPost2010Prop57
140
1.0
102
RTVSPost2010PropOp57
 70
     1
102
RTVSPropertyOp0
 70
     1
102
RTVSPropertyOp1
 70
     1
102
RTVSPropertyOp2
 70
     1
102
RTVSPropertyOp3
 70
     1
102
RTVSPropertyOp4
 70
     1
102
RTVSPropertyOp5
 70
     1
102
RTVSPropertyOp6
 70
     1
102
RTVSPropertyOp7
 70
     1
102
RTVSPropertyOp8
 70
     1
102
RTVSPropertyOp9
 70
     1
102
RTVSPropertyOp10
 70
     1
102
RTVSPropertyOp11
 70
     1
102
RTVSPropertyOp12
 70
     1
102
RTVSPropertyOp13
 70
     1
102
RTVSPropertyOp14
 70
     1
102
RTVSPropertyOp15
 70
     1
102
RTVSPropertyOp16
 70
     1
102
RTVSPropertyOp17
 70
     1
102
RTVSPropertyOp18
 70
     1
102
RTVSPropertyOp19
 70
     1
102
RTVSPropertyOp20
 70
     1
102
RTVSPropertyOp21
 70
     1
102
RTVSPropertyOp22
 70
     1
102
RTVSPropertyOp23
 70
     1
102
RTVSPropertyOp24
 70
     1
102
RTVSPropertyOp25
 70
     1
102
RTVSPropertyOp26
 70
     1
102
RTVSPropertyOp27
 70
     1
102
RTVSPropertyOp28
 70
     1
102
RTVSPropertyOp29
 70
     1
102
RTVSPropertyOp30
 70
     1
102
RTVSPropertyOp31
 70
     1
102
RTVSPropertyOp32
 70
     1
102
RTVSPropertyOp33
 70
     1
102
RTVSPropertyOp34
 70
     1
102
RTVSPropertyOp35
 70
     1
102
RTVSPropertyOp36
 70
     1
102
RTVSPropertyOp37
 70
     1
102
RTVSPropertyOp38
 70
     1
102
RTVSPropertyOp39
 70
     1
102
RTVSPropertyOp40
 70
     1
102
RTVSPropertyOp41
 70
     1
102
RTVSPropertyOp42
 70
     1
102
RTVSPropertyOp43
 70
     1
102
RTVSPropertyOp44
 70
     1
102
RTVSPropertyOp45
 70
     1
102
RTVSPropertyOp46
 70
     1
102
RTVSPropertyOp47
 70
     1
102
RTVSPropertyOp48
 70
     1
102
RTVSPropertyOp49
 70
     1
102
RTVSPropertyOp50
 70
     1
102
RTVSPropertyOp51
 70
     0
102
RTVSPropertyOp52
 70
     0
102
RTVSPropertyOp53
 70
     1
102
RTVSPropertyOp54
 70
     1
102
RTVSPropertyOp55
 70
     1
102
RTVSPropertyOp56
 70
     1
102
RTVSPropertyOp57
 70
     1
102
RTVSPropertyOp58
 70
     1
102
RTVSPropertyOp59
 70
     1
102
RTVSPropertyOp60
 70
     1
102
RTVSPropertyOp61
 70
     1
102
RTVSPropertyOp62
 70
     1
  0
XRECORD
  5
104E
102
{ACAD_REACTORS
330
104D
102
}
330
104D
100
AcDbXrecord
280
     1
330
E0E
  0
ENDSEC
  0
EOF
