  0
SECTION
  2
HEADER
  9
$ACADVER
  1
AC1021
  9
$ACADMAINTVER
 70
    25
  9
$DWGCODEPAGE
  3
ANSI_949
  9
$LASTSAVEDBY
  1
fottrem
  9
$INSBASE
 10
0.0
 20
0.0
 30
0.0
  9
$EXTMIN
 10
-82.89516686166219
 20
-31.04609393478341
 30
0.0
  9
$EXTMAX
 10
57.32040529865122
 20
30.05259819485313
 30
0.0
  9
$LIMMIN
 10
-170.0
 20
-170.0
  9
$LIMMAX
 10
519.0
 20
260.0
  9
$ORTHOMODE
 70
     0
  9
$REGENMODE
 70
     1
  9
$FILLMODE
 70
     1
  9
$QTEXTMODE
 70
     0
  9
$MIRRTEXT
 70
     0
  9
$LTSCALE
 40
1.0
  9
$ATTMODE
 70
     1
  9
$TEXTSIZE
 40
5.0
  9
$TRACEWID
 40
1.0
  9
$TEXTSTYLE
  7
Standard
  9
$CLAYER
  8
2
  9
$CELTYPE
  6
ByLayer
  9
$CECOLOR
 62
   256
  9
$CELTSCALE
 40
1.0
  9
$DISPSILH
 70
     0
  9
$DIMSCALE
 40
1.0
  9
$DIMASZ
 40
2.5
  9
$DIMEXO
 40
0.0
  9
$DIMDLI
 40
3.75
  9
$DIMRND
 40
0.0
  9
$DIMDLE
 40
0.0
  9
$DIMEXE
 40
1.25
  9
$DIMTP
 40
0.0
  9
$DIMTM
 40
0.0
  9
$DIMTXT
 40
3.5
  9
$DIMCEN
 40
0.0
  9
$DIMTSZ
 40
0.0
  9
$DIMTOL
 70
     0
  9
$DIMLIM
 70
     0
  9
$DIMTIH
 70
     0
  9
$DIMTOH
 70
     0
  9
$DIMSE1
 70
     0
  9
$DIMSE2
 70
     0
  9
$DIMTAD
 70
     1
  9
$DIMZIN
 70
     8
  9
$DIMBLK
  1

  9
$DIMASO
 70
     1
  9
$DIMSHO
 70
     1
  9
$DIMPOST
  1

  9
$DIMAPOST
  1

  9
$DIMALT
 70
     0
  9
$DIMALTD
 70
     3
  9
$DIMALTF
 40
0.039370078
  9
$DIMLFAC
 40
1.0
  9
$DIMTOFL
 70
     1
  9
$DIMTVP
 40
0.0
  9
$DIMTIX
 70
     0
  9
$DIMSOXD
 70
     0
  9
$DIMSAH
 70
     0
  9
$DIMBLK1
  1

  9
$DIMBLK2
  1

  9
$DIMSTYLE
  2
Standard
  9
$DIMCLRD
 70
     0
  9
$DIMCLRE
 70
     0
  9
$DIMCLRT
 70
     0
  9
$DIMTFAC
 40
1.0
  9
$DIMGAP
 40
0.625
  9
$DIMJUST
 70
     0
  9
$DIMSD1
 70
     0
  9
$DIMSD2
 70
     0
  9
$DIMTOLJ
 70
     0
  9
$DIMTZIN
 70
     8
  9
$DIMALTZ
 70
     0
  9
$DIMALTTZ
 70
     0
  9
$DIMUPT
 70
     0
  9
$DIMDEC
 70
     2
  9
$DIMTDEC
 70
     2
  9
$DIMALTU
 70
     2
  9
$DIMALTTD
 70
     3
  9
$DIMTXSTY
  7
Standard
  9
$DIMAUNIT
 70
     0
  9
$DIMADEC
 70
     2
  9
$DIMALTRND
 40
0.0
  9
$DIMAZIN
 70
     2
  9
$DIMDSEP
 70
    46
  9
$DIMATFIT
 70
     3
  9
$DIMFRAC
 70
     0
  9
$DIMLDRBLK
  1

  9
$DIMLUNIT
 70
     2
  9
$DIMLWD
 70
    -2
  9
$DIMLWE
 70
    -2
  9
$DIMTMOVE
 70
     0
  9
$DIMFXL
 40
1.0
  9
$DIMFXLON
 70
     0
  9
$DIMJOGANG
 40
0.7853981633974483
  9
$DIMTFILL
 70
     0
  9
$DIMTFILLCLR
 70
     0
  9
$DIMARCSYM
 70
     0
  9
$DIMLTYPE
  6

  9
$DIMLTEX1
  6

  9
$DIMLTEX2
  6

  9
$LUNITS
 70
     2
  9
$LUPREC
 70
     4
  9
$SKETCHINC
 40
1.0
  9
$FILLETRAD
 40
0.0
  9
$AUNITS
 70
     0
  9
$AUPREC
 70
     0
  9
$MENU
  1
.
  9
$ELEVATION
 40
0.0
  9
$PELEVATION
 40
0.0
  9
$THICKNESS
 40
0.0
  9
$LIMCHECK
 70
     0
  9
$CHAMFERA
 40
0.0
  9
$CHAMFERB
 40
0.0
  9
$CHAMFERC
 40
0.0
  9
$CHAMFERD
 40
0.0
  9
$SKPOLY
 70
     0
  9
$TDCREATE
 40
2453354.092125822
  9
$TDUCREATE
 40
2453353.717125822
  9
$TDUPDATE
 40
2457102.459471771
  9
$TDUUPDATE
 40
2457102.084471771
  9
$TDINDWG
 40
2.937975081
  9
$TDUSRTIMER
 40
2.9379729977
  9
$USRTIMER
 70
     1
  9
$ANGBASE
 50
0.0
  9
$ANGDIR
 70
     0
  9
$PDMODE
 70
     0
  9
$PDSIZE
 40
0.0
  9
$PLINEWID
 40
0.0
  9
$SPLFRAME
 70
     0
  9
$SPLINETYPE
 70
     6
  9
$SPLINESEGS
 70
     8
  9
$HANDSEED
  5
123CA
  9
$SURFTAB1
 70
     6
  9
$SURFTAB2
 70
     6
  9
$SURFTYPE
 70
     6
  9
$SURFU
 70
     6
  9
$SURFV
 70
     6
  9
$UCSBASE
  2

  9
$UCSNAME
  2

  9
$UCSORG
 10
0.0
 20
0.0
 30
0.0
  9
$UCSXDIR
 10
1.0
 20
0.0
 30
0.0
  9
$UCSYDIR
 10
0.0
 20
1.0
 30
0.0
  9
$UCSORTHOREF
  2

  9
$UCSORTHOVIEW
 70
     0
  9
$UCSORGTOP
 10
0.0
 20
0.0
 30
0.0
  9
$UCSORGBOTTOM
 10
0.0
 20
0.0
 30
0.0
  9
$UCSORGLEFT
 10
0.0
 20
0.0
 30
0.0
  9
$UCSORGRIGHT
 10
0.0
 20
0.0
 30
0.0
  9
$UCSORGFRONT
 10
0.0
 20
0.0
 30
0.0
  9
$UCSORGBACK
 10
0.0
 20
0.0
 30
0.0
  9
$PUCSBASE
  2

  9
$PUCSNAME
  2

  9
$PUCSORG
 10
0.0
 20
0.0
 30
0.0
  9
$PUCSXDIR
 10
1.0
 20
0.0
 30
0.0
  9
$PUCSYDIR
 10
0.0
 20
1.0
 30
0.0
  9
$PUCSORTHOREF
  2

  9
$PUCSORTHOVIEW
 70
     0
  9
$PUCSORGTOP
 10
0.0
 20
0.0
 30
0.0
  9
$PUCSORGBOTTOM
 10
0.0
 20
0.0
 30
0.0
  9
$PUCSORGLEFT
 10
0.0
 20
0.0
 30
0.0
  9
$PUCSORGRIGHT
 10
0.0
 20
0.0
 30
0.0
  9
$PUCSORGFRONT
 10
0.0
 20
0.0
 30
0.0
  9
$PUCSORGBACK
 10
0.0
 20
0.0
 30
0.0
  9
$USERI1
 70
     0
  9
$USERI2
 70
     0
  9
$USERI3
 70
     0
  9
$USERI4
 70
     0
  9
$USERI5
 70
     0
  9
$USERR1
 40
0.0
  9
$USERR2
 40
0.0
  9
$USERR3
 40
0.0
  9
$USERR4
 40
0.0
  9
$USERR5
 40
0.0
  9
$WORLDVIEW
 70
     1
  9
$SHADEDGE
 70
     3
  9
$SHADEDIF
 70
    70
  9
$TILEMODE
 70
     1
  9
$MAXACTVP
 70
    64
  9
$PINSBASE
 10
0.0
 20
0.0
 30
0.0
  9
$PLIMCHECK
 70
     0
  9
$PEXTMIN
 10
0.0
 20
0.0
 30
0.0
  9
$PEXTMAX
 10
0.0
 20
0.0
 30
0.0
  9
$PLIMMIN
 10
0.0
 20
0.0
  9
$PLIMMAX
 10
12.0
 20
9.0
  9
$UNITMODE
 70
     0
  9
$VISRETAIN
 70
     0
  9
$PLINEGEN
 70
     0
  9
$PSLTSCALE
 70
     1
  9
$TREEDEPTH
 70
  3020
  9
$CMLSTYLE
  2
Standard
  9
$CMLJUST
 70
     0
  9
$CMLSCALE
 40
20.0
  9
$PROXYGRAPHICS
 70
     0
  9
$MEASUREMENT
 70
     1
  9
$CELWEIGHT
370
    -1
  9
$ENDCAPS
280
     0
  9
$JOINSTYLE
280
     0
  9
$LWDISPLAY
290
     0
  9
$INSUNITS
 70
     4
  9
$HYPERLINKBASE
  1

  9
$STYLESHEET
  1

  9
$XEDIT
290
     1
  9
$CEPSNTYPE
380
     0
  9
$PSTYLEMODE
290
     1
  9
$FINGERPRINTGUID
  2
{FFB8C8EB-D02A-4238-A6B1-145454AF2DD3}
  9
$VERSIONGUID
  2
{836108FB-8300-46FF-8A03-D68D5E00F8A0}
  9
$EXTNAMES
290
     1
  9
$PSVPSCALE
 40
0.0
  9
$OLESTARTUP
290
     0
  9
$SORTENTS
280
   127
  9
$INDEXCTL
280
     0
  9
$HIDETEXT
280
     1
  9
$XCLIPFRAME
290
     1
  9
$HALOGAP
280
     0
  9
$OBSCOLOR
 70
   257
  9
$OBSLTYPE
280
     0
  9
$INTERSECTIONDISPLAY
280
     0
  9
$INTERSECTIONCOLOR
 70
   257
  9
$DIMASSOC
280
     2
  9
$PROJECTNAME
  1

  9
$CAMERADISPLAY
290
     0
  9
$LENSLENGTH
 40
50.0
  9
$CAMERAHEIGHT
 40
0.0
  9
$STEPSPERSEC
 40
2.0
  9
$STEPSIZE
 40
6.0
  9
$3DDWFPREC
 40
2.0
  9
$PSOLWIDTH
 40
0.25
  9
$PSOLHEIGHT
 40
4.0
  9
$LOFTANG1
 40
1.570796326794897
  9
$LOFTANG2
 40
1.570796326794897
  9
$LOFTMAG1
 40
1.0
  9
$LOFTMAG2
 40
1.0
  9
$LOFTPARAM
 70
     7
  9
$LOFTNORMALS
280
     1
  9
$LATITUDE
 40
37.795
  9
$LONGITUDE
 40
-122.394
  9
$NORTHDIRECTION
 40
0.0
  9
$TIMEZONE
 70
 -8000
  9
$LIGHTGLYPHDISPLAY
280
     1
  9
$TILEMODELIGHTSYNCH
280
     1
  9
$SOLIDHIST
280
     1
  9
$SHOWHIST
280
     1
  9
$DWFFRAME
280
     0
  9
$DGNFRAME
280
     2
  9
$REALWORLDSCALE
290
     1
  9
$INTERFERECOLOR
 62
   256
  9
$CSHADOW
280
     0
  9
$SHADOWPLANELOCATION
 40
0.0
  0
ENDSEC
  0
SECTION
  2
CLASSES
  0
CLASS
  1
ACDBDICTIONARYWDFLT
  2
AcDbDictionaryWithDefault
  3
ObjectDBX Classes
 90
        0
 91
        4
280
     0
281
     0
  0
CLASS
  1
ACDBPLACEHOLDER
  2
AcDbPlaceHolder
  3
ObjectDBX Classes
 90
        0
 91
        1
280
     0
281
     0
  0
CLASS
  1
LAYOUT
  2
AcDbLayout
  3
ObjectDBX Classes
 90
        0
 91
        1
280
     0
281
     0
  0
CLASS
  1
DICTIONARYVAR
  2
AcDbDictionaryVar
  3
ObjectDBX Classes
 90
        0
 91
        4
280
     0
281
     0
  0
CLASS
  1
TABLESTYLE
  2
AcDbTableStyle
  3
ObjectDBX Classes
 90
     4095
 91
        4
280
     0
281
     0
  0
CLASS
  1
SCALE
  2
AcDbScale
  3
ObjectDBX Classes
 90
     1153
 91
        4
280
     0
281
     0
  0
CLASS
  1
WIPEOUTVARIABLES
  2
AcDbWipeoutVariables
  3
WipeOut|AutoCAD Express Tool|expresstools@autodesk.com
 90
        0
 91
        4
280
     0
281
     0
  0
CLASS
  1
SORTENTSTABLE
  2
AcDbSortentsTable
  3
ObjectDBX Classes
 90
        0
 91
        4
280
     0
281
     0
  0
ENDSEC
  0
SECTION
  2
TABLES
  0
TABLE
  2
VPORT
  5
8
330
0
100
AcDbSymbolTable
 70
     2
  0
VPORT
  5
97
330
8
100
AcDbSymbolTableRecord
100
AcDbViewportTableRecord
  2
*Active
 70
     0
 10
0.0
 20
0.0
 11
1.0
 21
1.0
 12
312.1586318774866
 22
-155.7423926971078
 13
0.0
 23
0.0
 14
5.0
 24
5.0
 15
5.0
 25
5.0
 16
0.0
 26
0.0
 36
4.675706334103843
 17
-324.9460126589921
 27
155.2456448271427
 37
0.0
 40
64.45637261041459
 41
0.9208173690932312
 42
50.0
 43
0.0
 44
0.0
 50
0.0
 51
0.0
 71
    16
 72
  2000
 73
     1
 74
     1
 75
     0
 76
     0
 77
     0
 78
     0
281
     0
 65
     1
110
0.0
120
0.0
130
0.0
111
1.0
121
0.0
131
0.0
112
0.0
122
1.0
132
0.0
 79
     0
146
0.0
 60
     0
 61
     5
292
     1
282
     1
141
0.0
142
0.0
 63
   256
  0
ENDTAB
  0
TABLE
  2
LTYPE
  5
5
330
0
100
AcDbSymbolTable
 70
     2
  0
LTYPE
  5
14
330
5
100
AcDbSymbolTableRecord
100
AcDbLinetypeTableRecord
  2
ByBlock
 70
     0
  3

 72
    65
 73
     0
 40
0.0
  0
LTYPE
  5
15
330
5
100
AcDbSymbolTableRecord
100
AcDbLinetypeTableRecord
  2
ByLayer
 70
     0
  3

 72
    65
 73
     0
 40
0.0
  0
LTYPE
  5
16
330
5
100
AcDbSymbolTableRecord
100
AcDbLinetypeTableRecord
  2
Continuous
 70
     0
  3
Solid line
 72
    65
 73
     0
 40
0.0
  0
LTYPE
  5
123B5
330
5
100
AcDbSymbolTableRecord
100
AcDbLinetypeTableRecord
  2
CENTER2
 70
     0
  3
Center (.5x) ___ _ ___ _ ___ _ ___ _ ___ _ ___
 72
    65
 73
     4
 40
28.57499999999999
 49
19.05
 74
     4
 75
     0
340
0
 46
1.0
 50
0.0
 44
0.0
 45
0.0
 49
-3.174999999999998
 74
     4
 75
     0
340
0
 46
1.0
 50
0.0
 44
0.0
 45
0.0
 49
3.174999999999998
 74
     4
 75
     0
340
0
 46
1.0
 50
0.0
 44
0.0
 45
0.0
 49
-3.174999999999998
 74
     4
 75
     0
340
0
 46
1.0
 50
0.0
 44
0.0
 45
0.0
  0
ENDTAB
  0
TABLE
  2
LAYER
  5
2
102
{ACAD_XDICTIONARY
360
123BC
102
}
330
0
100
AcDbSymbolTable
 70
    13
  0
LAYER
  5
10
102
{ACAD_XDICTIONARY
360
123B6
102
}
330
2
100
AcDbSymbolTableRecord
100
AcDbLayerTableRecord
  2
0
 70
     0
 62
     7
  6
Continuous
370
    -3
390
F
347
0
  0
LAYER
  5
23
102
{ACAD_XDICTIONARY
360
123B7
102
}
330
2
100
AcDbSymbolTableRecord
100
AcDbLayerTableRecord
  2
1
 70
     0
 62
     4
  6
Continuous
370
    50
390
F
347
0
  0
LAYER
  5
25
102
{ACAD_XDICTIONARY
360
123B8
102
}
330
2
100
AcDbSymbolTableRecord
100
AcDbLayerTableRecord
  2
2
 70
     0
 62
     7
  6
Continuous
370
    25
390
F
347
0
  0
LAYER
  5
2E
102
{ACAD_XDICTIONARY
360
123B9
102
}
330
2
100
AcDbSymbolTableRecord
100
AcDbLayerTableRecord
  2
SK6
 70
     0
 62
     5
  6
Continuous
370
    -3
390
F
347
0
  0
LAYER
  5
49B
102
{ACAD_XDICTIONARY
360
123BA
102
}
330
2
100
AcDbSymbolTableRecord
100
AcDbLayerTableRecord
  2
INFTOTAL
 70
     0
 62
     9
  6
Continuous
370
    18
390
F
347
0
1001
AcAecLayerStandard
1000

1000

  0
LAYER
  5
5F84
330
2
100
AcDbSymbolTableRecord
100
AcDbLayerTableRecord
  2
DEFPOINTS
 70
     0
 62
     7
  6
Continuous
290
     0
370
    25
390
F
347
0
  0
LAYER
  5
E5AF
330
2
100
AcDbSymbolTableRecord
100
AcDbLayerTableRecord
  2
4
 70
     0
 62
     2
  6
CENTER2
370
    25
390
F
347
0
1001
AcAecLayerStandard
1000

1000

  0
LAYER
  5
10476
330
2
100
AcDbSymbolTableRecord
100
AcDbLayerTableRecord
  2
INSERT
 70
     0
 62
     4
  6
Continuous
370
    50
390
F
347
0
1001
AcAecLayerStandard
1000

1000

  0
LAYER
  5
10477
330
2
100
AcDbSymbolTableRecord
100
AcDbLayerTableRecord
  2
SK2
 70
     0
 62
     7
  6
Continuous
370
    25
390
F
347
0
1001
AcAecLayerStandard
1000

1000

  0
LAYER
  5
10478
330
2
100
AcDbSymbolTableRecord
100
AcDbLayerTableRecord
  2
SK1
 70
     0
 62
     4
  6
Continuous
370
    50
390
F
347
0
1001
AcAecLayerStandard
1000

1000

  0
LAYER
  5
10479
330
2
100
AcDbSymbolTableRecord
100
AcDbLayerTableRecord
  2
SK4
 70
     0
 62
     2
  6
CENTER2
370
    25
390
F
347
0
1001
AcAecLayerStandard
1000

1000

  0
LAYER
  5
1047A
330
2
100
AcDbSymbolTableRecord
100
AcDbLayerTableRecord
  2
NOCUT
 70
     0
 62
     7
  6
Continuous
370
    25
390
F
347
0
1001
AcAecLayerStandard
1000

1000

  0
LAYER
  5
1047B
330
2
100
AcDbSymbolTableRecord
100
AcDbLayerTableRecord
  2
CUT
 70
     0
 62
     1
  6
Continuous
370
    25
390
F
347
0
  0
ENDTAB
  0
TABLE
  2
STYLE
  5
3
330
0
100
AcDbSymbolTable
 70
     1
  0
STYLE
  5
11
330
3
100
AcDbSymbolTableRecord
100
AcDbTextStyleTableRecord
  2
Standard
 70
     0
 40
0.0
 41
1.0
 50
0.0
 71
     0
 42
5.0
  3
monos.ttf
  4

1001
ACAD
1000
Monospac821 BT
1071
       49
  0
ENDTAB
  0
TABLE
  2
VIEW
  5
6
330
0
100
AcDbSymbolTable
 70
     0
  0
ENDTAB
  0
TABLE
  2
UCS
  5
7
330
0
100
AcDbSymbolTable
 70
     0
  0
ENDTAB
  0
TABLE
  2
APPID
  5
9
330
0
100
AcDbSymbolTable
 70
    20
  0
APPID
  5
12
330
9
100
AcDbSymbolTableRecord
100
AcDbRegAppTableRecord
  2
ACAD
 70
     0
  0
APPID
  5
123A2
330
9
100
AcDbSymbolTableRecord
100
AcDbRegAppTableRecord
  2
ACAD_PSEXT
 70
     0
  0
APPID
  5
123A3
330
9
100
AcDbSymbolTableRecord
100
AcDbRegAppTableRecord
  2
ACAD_EXEMPT_FROM_CAD_STANDARDS
 70
     0
  0
APPID
  5
123A4
330
9
100
AcDbSymbolTableRecord
100
AcDbRegAppTableRecord
  2
ACAD_MLEADERVER
 70
     0
  0
APPID
  5
123A5
330
9
100
AcDbSymbolTableRecord
100
AcDbRegAppTableRecord
  2
ACAD_DSTYLE_DIMJAG
 70
     0
  0
APPID
  5
123A6
330
9
100
AcDbSymbolTableRecord
100
AcDbRegAppTableRecord
  2
ACAD_DSTYLE_DIMBREAK
 70
     0
  0
APPID
  5
123A7
330
9
100
AcDbSymbolTableRecord
100
AcDbRegAppTableRecord
  2
ACAD_DSTYLE_DIMTALN
 70
     0
  0
APPID
  5
123A8
330
9
100
AcDbSymbolTableRecord
100
AcDbRegAppTableRecord
  2
AcAecLayerStandard
 70
     0
  0
APPID
  5
123A9
330
9
100
AcDbSymbolTableRecord
100
AcDbRegAppTableRecord
  2
DCO15
 70
     0
  0
APPID
  5
123AA
330
9
100
AcDbSymbolTableRecord
100
AcDbRegAppTableRecord
  2
AcadAnnoPO
 70
     0
  0
APPID
  5
123AB
330
9
100
AcDbSymbolTableRecord
100
AcDbRegAppTableRecord
  2
ACAD_DSTYLE_DIMRADIAL_EXTENSION
 70
     0
  0
APPID
  5
123AC
330
9
100
AcDbSymbolTableRecord
100
AcDbRegAppTableRecord
  2
ACAD_DSTYLE_DIMTEXT_FILL
 70
     0
  0
APPID
  5
123AD
330
9
100
AcDbSymbolTableRecord
100
AcDbRegAppTableRecord
  2
ACAD_DSTYLE_DIMEXT_LENGTH
 70
     0
  0
APPID
  5
123AE
330
9
100
AcDbSymbolTableRecord
100
AcDbRegAppTableRecord
  2
ACAD_DSTYLE_DIMEXT_ENABLED
 70
     0
  0
APPID
  5
123AF
330
9
100
AcDbSymbolTableRecord
100
AcDbRegAppTableRecord
  2
ACAD_DSTYLE_DIM_LINETYPE
 70
     0
  0
APPID
  5
123B0
330
9
100
AcDbSymbolTableRecord
100
AcDbRegAppTableRecord
  2
ACAD_DSTYLE_DIM_EXT1_LINETYPE
 70
     0
  0
APPID
  5
123B1
330
9
100
AcDbSymbolTableRecord
100
AcDbRegAppTableRecord
  2
ACAD_DSTYLE_DIM_EXT2_LINETYPE
 70
     0
  0
APPID
  5
123B2
330
9
100
AcDbSymbolTableRecord
100
AcDbRegAppTableRecord
  2
ACAD_DSTYLE_DIMJOGGED_JOGANGLE_SYMBOL
 70
     0
  0
APPID
  5
123B3
330
9
100
AcDbSymbolTableRecord
100
AcDbRegAppTableRecord
  2
ACAD_DSTYLE_DIMARC_LENGTH_SYMBOL
 70
     0
  0
APPID
  5
123B4
330
9
100
AcDbSymbolTableRecord
100
AcDbRegAppTableRecord
  2
AcLayerTools
 70
     0
  0
ENDTAB
  0
TABLE
  2
DIMSTYLE
  5
A
330
0
100
AcDbSymbolTable
 70
     1
100
AcDbDimStyleTable
  0
DIMSTYLE
105
27
102
{ACAD_REACTORS
330
117BB
330
12041
330
120B5
330
1214D
102
}
330
A
100
AcDbSymbolTableRecord
100
AcDbDimStyleTableRecord
  2
Standard
 70
     0
 41
2.5
 42
0.0
 43
3.75
 44
1.25
 73
     0
 74
     0
 77
     1
 78
     8
 79
     2
140
3.5
141
0.0
143
0.039370078
147
0.625
171
     3
172
     1
179
     2
271
     2
272
     2
274
     3
283
     0
284
     8
340
11
1001
ACAD_DSTYLE_DIMJAG
1070
   388
1040
1.5
1001
ACAD_DSTYLE_DIMTALN
1070
   392
1070
     0
  0
ENDTAB
  0
TABLE
  2
BLOCK_RECORD
  5
1
330
0
100
AcDbSymbolTable
 70
     5
  0
BLOCK_RECORD
  5
1F
102
{ACAD_XDICTIONARY
360
123C7
102
}
330
1
100
AcDbSymbolTableRecord
100
AcDbBlockTableRecord
  2
*Model_Space
340
22
 70
     0
280
     1
281
     0
  0
BLOCK_RECORD
  5
73
330
1
100
AcDbSymbolTableRecord
100
AcDbBlockTableRecord
  2
*Paper_Space
340
74
 70
     0
280
     1
281
     0
  0
BLOCK_RECORD
  5
109E9
330
1
100
AcDbSymbolTableRecord
100
AcDbBlockTableRecord
  2
_None
340
0
102
{BLKREFS
331
12378
102
}
 70
     0
280
     1
281
     0
  0
BLOCK_RECORD
  5
117BC
330
1
100
AcDbSymbolTableRecord
100
AcDbBlockTableRecord
  2
*D1
340
0
 70
     0
280
     1
281
     0
  0
BLOCK_RECORD
  5
1204C
330
1
100
AcDbSymbolTableRecord
100
AcDbBlockTableRecord
  2
*D2
340
0
 70
     0
280
     1
281
     0
  0
BLOCK_RECORD
  5
120C0
330
1
100
AcDbSymbolTableRecord
100
AcDbBlockTableRecord
  2
*D3
340
0
 70
     0
280
     1
281
     0
  0
BLOCK_RECORD
  5
12158
330
1
100
AcDbSymbolTableRecord
100
AcDbBlockTableRecord
  2
*D4
340
0
 70
     0
280
     1
281
     0
  0
ENDTAB
  0
ENDSEC
  0
SECTION
  2
BLOCKS
  0
BLOCK
  5
20
330
1F
100
AcDbEntity
  8
0
100
AcDbBlockBegin
  2
*Model_Space
 70
     0
 10
0.0
 20
0.0
 30
0.0
  3
*Model_Space
  1

  0
ENDBLK
  5
21
330
1F
100
AcDbEntity
  8
0
100
AcDbBlockEnd
  0
BLOCK
  5
75
330
73
100
AcDbEntity
 67
     1
  8
0
100
AcDbBlockBegin
  2
*Paper_Space
 70
     0
 10
0.0
 20
0.0
 30
0.0
  3
*Paper_Space
  1

  0
ENDBLK
  5
76
330
73
100
AcDbEntity
 67
     1
  8
0
100
AcDbBlockEnd
  0
BLOCK
  5
123BD
330
109E9
100
AcDbEntity
  8
0
100
AcDbBlockBegin
  2
_None
 70
     0
 10
0.0
 20
0.0
 30
0.0
  3
_None
  1

  0
ENDBLK
  5
123BE
330
109E9
100
AcDbEntity
  8
0
100
AcDbBlockEnd
  0
BLOCK
  5
123BF
330
117BC
100
AcDbEntity
  8
0
100
AcDbBlockBegin
  2
*D1
 70
     1
 10
0.0
 20
0.0
 30
0.0
  3
*D1
  1

  0
POINT
  5
12374
330
117BC
100
AcDbEntity
  8
DEFPOINTS
  6
ByBlock
 62
     0
100
AcDbPoint
 10
54.06574328702652
 20
-2.955432103193573
 30
0.0
  0
POINT
  5
12375
330
117BC
100
AcDbEntity
  8
DEFPOINTS
  6
ByBlock
 62
     0
100
AcDbPoint
 10
36.00000000000001
 20
4.0
 30
0.0
  0
LINE
  5
12376
330
117BC
100
AcDbEntity
  8
2
  6
ByBlock
 62
     0
370
    -2
100
AcDbLine
 10
36.00000000000001
 20
4.0
 30
0.0
 11
53.25000012180424
 21
4.0
 31
0.0
  0
LINE
  5
12377
330
117BC
100
AcDbEntity
  8
2
  6
ByBlock
 62
     0
370
    -2
100
AcDbLine
 10
52.00000012180424
 20
-2.955432103193573
 30
0.0
 11
52.00000012180424
 21
4.0
 31
0.0
  0
INSERT
  5
12378
330
117BC
100
AcDbEntity
  8
2
  6
ByBlock
370
    -2
100
AcDbBlockReference
  2
_None
 10
52.00000012180424
 20
-2.955432103193573
 30
0.0
 41
2.5
 42
2.5
 43
2.5
 50
270.0
  0
SOLID
  5
12379
330
117BC
100
AcDbEntity
  8
2
  6
ByBlock
 62
     0
100
AcDbTrace
 10
52.00000012180424
 20
4.0
 30
0.0
 11
52.41666678847099
 21
1.5
 31
0.0
 12
51.58333345513749
 22
1.5
 32
0.0
 13
51.58333345513749
 23
1.5
 33
0.0
  0
LINE
  5
1237A
330
117BC
100
AcDbEntity
  8
2
  6
ByBlock
 62
     0
370
    -2
100
AcDbLine
 10
54.06574328702652
 20
-2.955432103193573
 30
0.0
 11
54.06574328702652
 21
-2.955432103193573
 31
0.0
  0
MTEXT
  5
1237B
330
117BC
100
AcDbEntity
  8
2
  6
ByBlock
 62
     0
100
AcDbMText
 10
49.4540584492814
 20
-0.1175708217606211
 30
0.0
 40
3.5
 41
0.0
 46
0.0
 71
     5
 72
     1
  1
%%C8
 11
6.123031769111886E-17
 21
1.0
 31
0.0
 73
     1
 44
1.0
  0
ENDBLK
  5
123C0
330
117BC
100
AcDbEntity
  8
0
100
AcDbBlockEnd
  0
BLOCK
  5
123C1
330
1204C
100
AcDbEntity
  8
0
100
AcDbBlockBegin
  2
*D2
 70
     1
 10
0.0
 20
0.0
 30
0.0
  3
*D2
  1

  0
POINT
  5
12398
330
1204C
100
AcDbEntity
  8
DEFPOINTS
  6
ByBlock
 62
     0
100
AcDbPoint
 10
-59.99999999999999
 20
4.0
 30
0.0
  0
POINT
  5
12399
330
1204C
100
AcDbEntity
  8
DEFPOINTS
  6
ByBlock
 62
     0
100
AcDbPoint
 10
-59.99999999999999
 20
-4.0
 30
0.0
  0
LINE
  5
1239A
330
1204C
100
AcDbEntity
  8
SK2
  6
ByBlock
 62
     0
370
    -2
100
AcDbLine
 10
-59.99999999999999
 20
4.0
 30
0.0
 11
-73.25
 21
4.0
 31
0.0
  0
LINE
  5
1239B
330
1204C
100
AcDbEntity
  8
SK2
  6
ByBlock
 62
     0
370
    -2
100
AcDbLine
 10
-59.99999999999999
 20
-4.0
 30
0.0
 11
-73.25
 21
-4.0
 31
0.0
  0
LINE
  5
1239C
330
1204C
100
AcDbEntity
  8
SK2
  6
ByBlock
 62
     0
370
    -2
100
AcDbLine
 10
-72.0
 20
4.0
 30
0.0
 11
-72.0
 21
-4.0
 31
0.0
  0
SOLID
  5
1239D
330
1204C
100
AcDbEntity
  8
SK2
  6
ByBlock
 62
     0
100
AcDbTrace
 10
-72.0
 20
4.0
 30
0.0
 11
-72.41666666666674
 21
1.5
 31
0.0
 12
-71.58333333333326
 22
1.5
 32
0.0
 13
-71.58333333333326
 23
1.5
 33
0.0
  0
SOLID
  5
1239E
330
1204C
100
AcDbEntity
  8
SK2
  6
ByBlock
 62
     0
100
AcDbTrace
 10
-72.0
 20
-4.0
 30
0.0
 11
-72.41666666666674
 21
-1.5
 31
0.0
 12
-71.58333333333326
 22
-1.5
 32
0.0
 13
-71.58333333333326
 23
-1.5
 33
0.0
  0
LINE
  5
1239F
330
1204C
100
AcDbEntity
  8
SK2
  6
ByBlock
 62
     0
370
    -2
100
AcDbLine
 10
-59.99999999999999
 20
4.0
 30
0.0
 11
-59.99999999999999
 21
4.0
 31
0.0
  0
MTEXT
  5
123A0
330
1204C
100
AcDbEntity
  8
SK2
  6
ByBlock
 62
     0
100
AcDbMText
 10
-74.54594167252284
 20
0.0
 30
0.0
 40
3.5
 41
0.0
 46
0.0
 71
     5
 72
     1
  1
%%C8
 11
6.123031769111886E-17
 21
1.0
 31
0.0
 73
     1
 44
1.0
  0
ENDBLK
  5
123C2
330
1204C
100
AcDbEntity
  8
0
100
AcDbBlockEnd
  0
BLOCK
  5
123C3
330
120C0
100
AcDbEntity
  8
0
100
AcDbBlockBegin
  2
*D3
 70
     1
 10
0.0
 20
0.0
 30
0.0
  3
*D3
  1

  0
POINT
  5
12386
330
120C0
100
AcDbEntity
  8
DEFPOINTS
  6
ByBlock
 62
     0
100
AcDbPoint
 10
39.99999999999962
 20
0.0
 30
0.0
  0
POINT
  5
12387
330
120C0
100
AcDbEntity
  8
DEFPOINTS
  6
ByBlock
 62
     0
100
AcDbPoint
 10
-59.99999999999999
 20
4.0
 30
0.0
  0
LINE
  5
12388
330
120C0
100
AcDbEntity
  8
SK2
  6
ByBlock
 62
     0
370
    -2
100
AcDbLine
 10
39.99999999999962
 20
0.0
 30
0.0
 11
39.99999999999962
 21
21.05836177316689
 31
0.0
  0
LINE
  5
12389
330
120C0
100
AcDbEntity
  8
SK2
  6
ByBlock
 62
     0
370
    -2
100
AcDbLine
 10
-59.99999999999999
 20
4.0
 30
0.0
 11
-59.99999999999999
 21
21.05836177316689
 31
0.0
  0
LINE
  5
1238A
330
120C0
100
AcDbEntity
  8
SK2
  6
ByBlock
 62
     0
370
    -2
100
AcDbLine
 10
39.99999999999962
 20
19.80836177316689
 30
0.0
 11
-59.99999999999999
 21
19.80836177316689
 31
0.0
  0
SOLID
  5
1238B
330
120C0
100
AcDbEntity
  8
SK2
  6
ByBlock
 62
     0
100
AcDbTrace
 10
39.99999999999962
 20
19.80836177316689
 30
0.0
 11
37.49999999999962
 21
20.22502843983364
 31
0.0
 12
37.49999999999962
 22
19.39169510650014
 32
0.0
 13
37.49999999999962
 23
19.39169510650014
 33
0.0
  0
SOLID
  5
1238C
330
120C0
100
AcDbEntity
  8
SK2
  6
ByBlock
 62
     0
100
AcDbTrace
 10
-59.99999999999999
 20
19.80836177316689
 30
0.0
 11
-57.49999999999999
 21
20.22502843983364
 31
0.0
 12
-57.49999999999999
 22
19.39169510650014
 32
0.0
 13
-57.49999999999999
 23
19.39169510650014
 33
0.0
  0
LINE
  5
1238D
330
120C0
100
AcDbEntity
  8
SK2
  6
ByBlock
 62
     0
370
    -2
100
AcDbLine
 10
39.99999999999962
 20
0.0
 30
0.0
 11
39.99999999999962
 21
0.0
 31
0.0
  0
MTEXT
  5
1238E
330
120C0
100
AcDbEntity
  8
SK2
  6
ByBlock
 62
     0
100
AcDbMText
 10
-10.00000000000018
 20
22.25591974927371
 30
0.0
 40
3.5
 41
0.0
 46
0.0
 71
     5
 72
     1
  1
100
 73
     1
 44
1.0
  0
ENDBLK
  5
123C4
330
120C0
100
AcDbEntity
  8
0
100
AcDbBlockEnd
  0
BLOCK
  5
123C5
330
12158
100
AcDbEntity
  8
0
100
AcDbBlockBegin
  2
*D4
 70
     1
 10
0.0
 20
0.0
 30
0.0
  3
*D4
  1

  0
POINT
  5
12190
330
12158
100
AcDbEntity
  8
DEFPOINTS
  6
ByBlock
 62
     0
100
AcDbPoint
 10
10.00000000000001
 20
4.0
 30
0.0
  0
POINT
  5
12191
330
12158
100
AcDbEntity
  8
DEFPOINTS
  6
ByBlock
 62
     0
100
AcDbPoint
 10
39.99999999999962
 20
4.0
 30
0.0
  0
LINE
  5
12192
330
12158
100
AcDbEntity
  8
2
  6
ByBlock
 62
     0
370
    -2
100
AcDbLine
 10
10.00000000000001
 20
4.0
 30
0.0
 11
10.00000000000001
 21
13.25
 31
0.0
  0
LINE
  5
12193
330
12158
100
AcDbEntity
  8
2
  6
ByBlock
 62
     0
370
    -2
100
AcDbLine
 10
39.99999999999962
 20
4.0
 30
0.0
 11
39.99999999999962
 21
13.25
 31
0.0
  0
LINE
  5
12194
330
12158
100
AcDbEntity
  8
2
  6
ByBlock
 62
     0
370
    -2
100
AcDbLine
 10
10.00000000000001
 20
12.0
 30
0.0
 11
39.99999999999962
 21
12.0
 31
0.0
  0
SOLID
  5
12195
330
12158
100
AcDbEntity
  8
2
  6
ByBlock
 62
     0
100
AcDbTrace
 10
10.00000000000001
 20
12.0
 30
0.0
 11
12.50000000000001
 21
11.58333333333325
 31
0.0
 12
12.50000000000001
 22
12.41666666666675
 32
0.0
 13
12.50000000000001
 23
12.41666666666675
 33
0.0
  0
SOLID
  5
12196
330
12158
100
AcDbEntity
  8
2
  6
ByBlock
 62
     0
100
AcDbTrace
 10
39.99999999999962
 20
12.0
 30
0.0
 11
37.49999999999962
 21
11.58333333333325
 31
0.0
 12
37.49999999999962
 22
12.41666666666675
 32
0.0
 13
37.49999999999962
 23
12.41666666666675
 33
0.0
  0
LINE
  5
12197
330
12158
100
AcDbEntity
  8
2
  6
ByBlock
 62
     0
370
    -2
100
AcDbLine
 10
10.00000000000001
 20
4.0
 30
0.0
 11
10.00000000000001
 21
4.0
 31
0.0
  0
MTEXT
  5
12198
330
12158
100
AcDbEntity
  8
2
  6
ByBlock
 62
     0
100
AcDbMText
 10
24.99999999999981
 20
14.44755797610682
 30
0.0
 40
3.5
 41
0.0
 46
0.0
 71
     5
 72
     1
  1
30
 73
     1
 44
1.0
  0
ENDBLK
  5
123C6
330
12158
100
AcDbEntity
  8
0
100
AcDbBlockEnd
  0
ENDSEC
  0
SECTION
  2
ENTITIES
  0
LINE
  5
F17
330
1F
100
AcDbEntity
  8
INFTOTAL
100
AcDbLine
 10
-82.89516686166219
 20
30.05259819485313
 30
0.0
 11
-32.89516686166223
 21
30.05259819485313
 31
0.0
  0
LINE
  5
F18
102
{ACAD_REACTORS
330
6D2D
102
}
330
1F
100
AcDbEntity
  8
INFTOTAL
100
AcDbLine
 10
57.32040529865122
 20
18.95390606521659
 30
0.0
 11
57.32040529865122
 21
-31.04609393478341
 31
0.0
  0
LINE
  5
F19
102
{ACAD_REACTORS
330
6D2D
102
}
330
1F
100
AcDbEntity
  8
INFTOTAL
100
AcDbLine
 10
57.32040529865122
 20
-31.04609393478341
 30
0.0
 11
7.32040529865111
 21
-31.04609393478341
 31
0.0
  0
LINE
  5
F1A
330
1F
100
AcDbEntity
  8
INFTOTAL
100
AcDbLine
 10
-82.89516686166219
 20
-19.94740180514692
 30
0.0
 11
-82.89516686166219
 21
30.05259819485313
 31
0.0
  0
MTEXT
  5
117BA
330
1F
100
AcDbEntity
  8
SK6
100
AcDbMText
 10
-10.43326929631471
 20
-9.993055025806363
 30
0.0
 40
5.0
 41
100.4218
 46
0.0
 71
     2
 72
     5
  1
\P{\H0.7x;TNF 080-08-CT-L100}
 73
     1
 44
1.0
  0
DIMENSION
  5
117BB
330
1F
100
AcDbEntity
  8
2
100
AcDbDimension
  2
*D1
 10
52.00000012180424
 20
4.0
 30
0.0
 11
52.00000012180424
 21
-0.1175708217606211
 31
0.0
 70
   160
  1
%%C8
 71
     5
 42
6.955432103193573
 73
     0
 74
     0
 75
     0
  3
Standard
100
AcDbAlignedDimension
 13
54.06574328702652
 23
-2.955432103193573
 33
0.0
 14
36.00000000000001
 24
4.0
 34
0.0
 50
90.0
100
AcDbRotatedDimension
1001
ACAD
1000
DSTYLE
1002
{
1070
    75
1070
     1
1070
   343
1005
109E9
1070
   173
1070
     1
1070
   344
1005
0
1002
}
  0
LINE
  5
11E50
330
1F
100
AcDbEntity
  8
4
390
F
100
AcDbLine
 10
46.00000012180424
 20
0.0
 30
0.0
 11
0.0000000000000071
 21
0.0
 31
0.0
  0
LINE
  5
11E51
330
1F
100
AcDbEntity
  8
SK1
 48
0.187758
390
F
100
AcDbLine
 10
-59.99999999999999
 20
-3.510331000000008
 30
0.0
 11
-59.99999999999999
 21
4.0
 31
0.0
  0
LINE
  5
11E52
330
1F
100
AcDbEntity
  8
SK1
 48
0.012242
390
F
100
AcDbLine
 10
-59.99999999999999
 20
-4.0
 30
0.0
 11
-59.99999999999999
 21
-3.510331000000008
 31
0.0
  0
LINE
  5
11E53
330
1F
100
AcDbEntity
  8
1
 48
0.012242
390
F
100
AcDbLine
 10
10.00000000000001
 20
-3.510331000000008
 30
0.0
 11
10.00000000000001
 21
-4.0
 31
0.0
  0
LINE
  5
11E54
330
1F
100
AcDbEntity
  8
1
 48
0.135701
390
F
100
AcDbLine
 10
10.00000000000001
 20
1.917701999999991
 30
0.0
 11
10.00000000000001
 21
-3.510331000000008
 31
0.0
  0
LINE
  5
11E55
330
1F
100
AcDbEntity
  8
1
 48
0.052057
390
F
100
AcDbLine
 10
10.00000000000001
 20
4.0
 30
0.0
 11
10.00000000000001
 21
1.917701999999991
 31
0.0
  0
LINE
  5
11E56
330
1F
100
AcDbEntity
  8
1
 48
0.127596
390
F
100
AcDbLine
 10
35.90000000000001
 20
1.942795999999987
 30
0.0
 11
30.79999999999999
 21
1.744601999999986
 31
0.0
  0
LINE
  5
11E57
330
1F
100
AcDbEntity
  8
1
 48
0.048885
390
F
100
AcDbLine
 10
30.79999999999999
 20
3.699999999999989
 30
0.0
 11
30.79999999999999
 21
1.744601999999986
 31
0.0
  0
LINE
  5
11E58
330
1F
100
AcDbEntity
  8
1
 48
0.025
390
F
100
AcDbLine
 10
30.79999999999999
 20
3.699999999999989
 30
0.0
 11
31.79999999999999
 21
3.699999999999989
 31
0.0
  0
CIRCLE
  5
11E59
330
1F
100
AcDbEntity
  8
1
390
F
100
AcDbCircle
 10
35.00000000000001
 20
0.0
 30
0.0
 40
1.599999999999994
  0
LINE
  5
11E5A
330
1F
100
AcDbEntity
  8
1
 48
0.025
390
F
100
AcDbLine
 10
30.79999999999999
 20
-3.700000000000017
 30
0.0
 11
31.79999999999999
 21
-3.700000000000017
 31
0.0
  0
LINE
  5
11E5B
330
1F
100
AcDbEntity
  8
1
 48
0.004182
390
F
100
AcDbLine
 10
31.79999999999999
 20
-3.700000000000017
 30
0.0
 11
31.79999999999999
 21
-3.532705000000021
 31
0.0
  0
LINE
  5
11E5C
330
1F
100
AcDbEntity
  8
1
 48
0.1025
390
F
100
AcDbLine
 10
31.79999999999999
 20
-3.532705000000021
 30
0.0
 11
35.90000000000001
 21
-3.532705000000021
 31
0.0
  0
ARC
  5
11E5D
330
1F
100
AcDbEntity
  8
1
390
F
100
AcDbCircle
 10
35.90000100000001
 20
-0.000001999999995
 30
0.0
 40
3.532703000000004
100
AcDbArc
 50
269.9999869999997
 51
356.8527129999998
  0
ELLIPSE
  5
11E5E
330
1F
100
AcDbEntity
  8
1
390
F
100
AcDbEllipse
 10
35.905441
 20
-0.0005790000000161
 30
0.0
 11
3.694510015200109
 21
0.0005208577664745917
 31
0.0
210
0.0
220
0.0
230
1.0
 40
0.173718
 41
5.490951641015476
 42
5.976307730680914
  0
SPLINE
  5
11E5F
330
1F
100
AcDbEntity
  8
1
390
F
100
AcDbSpline
210
0.0
220
0.0
230
1.0
 70
     8
 71
     5
 72
    18
 73
    12
 74
     0
 42
0.0
 43
0.0
 40
0.0
 40
0.0
 40
0.0
 40
0.0
 40
0.0
 40
0.0
 40
2.096769292974197
 40
2.096769292974197
 40
2.096769292974197
 40
4.263644554796178
 40
4.263644554796178
 40
4.263644554796178
 40
7.22446732655701
 40
7.22446732655701
 40
7.22446732655701
 40
7.22446732655701
 40
7.22446732655701
 40
7.22446732655701
 10
38.50000020885782
 20
-0.4571273953517618
 30
0.0
 10
38.50000020885884
 20
-0.250829184344326
 30
0.0
 10
38.47737695591949
 20
-0.0447949241232379
 30
0.0
 10
38.43210797760978
 20
0.161518790530323
 30
0.0
 10
38.2892443624576
 20
0.5772754011786674
 30
0.0
 10
38.04094875672954
 20
0.9673874997763505
 30
0.0
 10
37.88725203509072
 20
1.153489330035711
 30
0.0
 10
37.46443091169053
 20
1.549378310646972
 30
0.0
 10
36.93090856268996
 20
1.81490005121438
 30
0.0
 10
36.59778285217252
 20
1.914311248275681
 30
0.0
 10
36.25429112861645
 20
1.956957934017538
 30
0.0
 10
35.91275146708578
 20
1.943300924596343
 30
0.0
  0
LINE
  5
11E60
330
1F
100
AcDbEntity
  8
1
 48
0.000319
390
F
100
AcDbLine
 10
35.91275099999999
 20
1.943300999999991
 30
0.0
 11
35.90000000000001
 21
1.942795999999987
 31
0.0
  0
LINE
  5
11E61
330
1F
100
AcDbEntity
  8
INSERT
 48
0.105064
390
F
100
AcDbLine
 10
38.49999999999998
 20
-0.1939600000000041
 30
0.0
 11
39.42737600000002
 21
-0.1939600000000041
 31
0.0
  0
ARC
  5
11E62
330
1F
100
AcDbEntity
  8
INSERT
 48
0.105064
390
F
100
AcDbCircle
 10
36.00000000000001
 20
-0.1939600000000041
 30
0.0
 40
2.499998999999999
100
AcDbArc
 50
359.9999919999999
 51
92.0000009999999
  0
LINE
  5
11E63
330
1F
100
AcDbEntity
  8
INSERT
 48
0.105064
390
F
100
AcDbLine
 10
31.79999999999999
 20
2.160897000000006
 30
0.0
 11
35.91275099999999
 21
2.304517000000004
 31
0.0
  0
LINE
  5
11E64
330
1F
100
AcDbEntity
  8
INSERT
 48
0.105064
390
F
100
AcDbLine
 10
31.79999999999999
 20
2.354855999999984
 30
0.0
 11
31.79999999999999
 21
2.160897000000006
 31
0.0
  0
LINE
  5
11E65
330
1F
100
AcDbEntity
  8
INSERT
 48
0.105064
390
F
100
AcDbLine
 10
31.79999999999999
 20
2.354855999999984
 30
0.0
 11
31.79999999999999
 21
3.699999999999989
 31
0.0
  0
LINE
  5
11E66
330
1F
100
AcDbEntity
  8
1
 48
0.025015
390
F
100
AcDbLine
 10
30.79999999999999
 20
2.319934999999987
 30
0.0
 11
31.79999999999999
 21
2.354855999999984
 31
0.0
  0
LINE
  5
11E67
330
1F
100
AcDbEntity
  8
1
 48
0.006579
390
F
100
AcDbLine
 10
38.49999999999998
 20
-0.1939600000000041
 30
0.0
 11
38.49999999999998
 21
-0.457127000000014
 31
0.0
  0
LINE
  5
11E68
330
1F
100
AcDbEntity
  8
1
390
F
100
AcDbLine
 10
10.00000000000001
 20
-4.0
 30
0.0
 11
0.0000000000000071
 21
-4.0
 31
0.0
  0
LINE
  5
11E69
330
1F
100
AcDbEntity
  8
1
390
F
100
AcDbLine
 10
10.00000000000001
 20
4.0
 30
0.0
 11
0.0000000000000071
 21
4.0
 31
0.0
  0
LINE
  5
11E6A
330
1F
100
AcDbEntity
  8
1
390
F
100
AcDbLine
 10
30.79999999999999
 20
3.699999999999989
 30
0.0
 11
10.00000000000001
 21
3.699999999999989
 31
0.0
  0
LINE
  5
11E6B
330
1F
100
AcDbEntity
  8
1
390
F
100
AcDbLine
 10
30.79999999999999
 20
-3.700000000000017
 30
0.0
 11
10.00000000000001
 21
-3.700000000000017
 31
0.0
  0
ARC
  5
11E6C
330
1F
100
AcDbEntity
  8
INSERT
 48
0.105064
390
F
100
AcDbCircle
 10
35.99999900000001
 20
0.0
 30
0.0
 40
3.845777999999986
100
AcDbArc
 50
270.0000180000002
 51
352.3351800000002
  0
LINE
  5
11E6D
330
1F
100
AcDbEntity
  8
INSERT
 48
0.105064
390
F
100
AcDbLine
 10
31.79999999999999
 20
-3.692990000000009
 30
0.0
 11
36.00000000000001
 21
-3.845776999999998
 31
0.0
  0
LINE
  5
11E6E
330
1F
100
AcDbEntity
  8
1
 48
0.004007
390
F
100
AcDbLine
 10
31.79999999999999
 20
-3.532705000000021
 30
0.0
 11
31.79999999999999
 21
-3.692990000000009
 31
0.0
  0
LINE
  5
11E6F
330
1F
100
AcDbEntity
  8
INSERT
 48
0.105064
390
F
100
AcDbLine
 10
39.39546900000003
 20
-0.5129390000000171
 30
0.0
 11
39.81141599999999
 21
-0.5129390000000171
 31
0.0
  0
LINE
  5
11E70
330
1F
100
AcDbEntity
  8
INSERT
 48
0.105064
390
F
100
AcDbLine
 10
31.79999999999999
 20
3.853331999999995
 30
0.0
 11
36.00000000000001
 21
4.0
 31
0.0
  0
LINE
  5
11E71
330
1F
100
AcDbEntity
  8
INSERT
 48
0.105064
390
F
100
AcDbLine
 10
31.79999999999999
 20
-3.692990000000009
 30
0.0
 11
31.79999999999999
 21
-3.853333000000021
 31
0.0
  0
LINE
  5
11E72
330
1F
100
AcDbEntity
  8
INSERT
 48
0.105064
390
F
100
AcDbLine
 10
31.79999999999999
 20
2.354855999999984
 30
0.0
 11
31.79999999999999
 21
3.853331999999995
 31
0.0
  0
ELLIPSE
  5
11E73
330
1F
100
AcDbEntity
  8
INSERT
 48
0.105064
390
F
100
AcDbEllipse
 10
36.00398999999999
 20
-0.0003890000000126
 30
0.0
 11
3.996010116839926
 21
0.0004711663173111447
 31
0.0
210
0.0
220
0.0
230
1.0
 40
0.422818
 41
5.974690862474718
 42
6.28313634491858
  0
ARC
  5
11E74
330
1F
100
AcDbEntity
  8
INSERT
390
F
100
AcDbCircle
 10
35.99999900000001
 20
-0.000001999999995
 30
0.0
 40
4.000001000000009
100
AcDbArc
 50
0.0000249999999301
 51
89.99998099999993
  0
LINE
  5
11E75
330
1F
100
AcDbEntity
  8
INSERT
 48
0.105064
390
F
100
AcDbLine
 10
31.79999999999999
 20
-3.853333000000021
 30
0.0
 11
36.00000000000001
 21
-4.0
 31
0.0
  0
ARC
  5
11E76
330
1F
100
AcDbEntity
  8
INSERT
 48
0.105064
390
F
100
AcDbCircle
 10
35.99999900000001
 20
0.0000009999999975
 30
0.0
 40
4.00000099999999
100
AcDbArc
 50
270.000019
 51
359.9999749999999
  0
LINE
  5
11E77
330
1F
100
AcDbEntity
  8
INSERT
 48
0.105064
390
F
100
AcDbLine
 10
38.49999999999998
 20
0.0
 30
0.0
 11
38.49999999999998
 21
-0.192419000000001
 31
0.0
  0
ARC
  5
11E78
330
1F
100
AcDbEntity
  8
INSERT
 48
0.105064
390
F
100
AcDbCircle
 10
36.00000000000001
 20
0.0
 30
0.0
 40
2.499999999999972
100
AcDbArc
 50
0.0
 51
92.0
  0
LINE
  5
11E79
330
1F
100
AcDbEntity
  8
INSERT
 48
0.105064
390
F
100
AcDbLine
 10
31.79999999999999
 20
2.354855999999984
 30
0.0
 11
35.91275099999999
 21
2.49847699999998
 31
0.0
  0
LINE
  5
11E7A
330
1F
100
AcDbEntity
  8
NOCUT
390
F
100
AcDbLine
 10
39.6
 20
0.0
 30
0.0
 11
-0.0000000000000142
 21
0.0
 31
0.0
  0
LINE
  5
11E7F
330
1F
100
AcDbEntity
  8
NOCUT
 48
0.052057
390
F
100
AcDbLine
 10
10.00000000000001
 20
4.0
 30
0.0
 11
10.00000000000001
 21
3.699999999999989
 31
0.0
  0
LINE
  5
11E83
330
1F
100
AcDbEntity
  8
NOCUT
390
F
100
AcDbLine
 10
10.00000000000001
 20
4.0
 30
0.0
 11
0.0000000000000071
 21
4.0
 31
0.0
  0
LINE
  5
11E84
330
1F
100
AcDbEntity
  8
NOCUT
390
F
100
AcDbLine
 10
35.90000000000001
 20
3.699999999999989
 30
0.0
 11
10.00000000000001
 21
3.699999999999989
 31
0.0
  0
ARC
  5
11E87
330
1F
100
AcDbEntity
  8
NOCUT
390
F
100
AcDbCircle
 10
35.90000000000001
 20
0.0
 30
0.0
 40
3.700000000000017
100
AcDbArc
 50
0.0
 51
90.0
  0
LINE
  5
11E88
330
1F
100
AcDbEntity
  8
NOCUT
 48
0.052057
100
AcDbLine
 10
0.0
 20
4.0
 30
0.0
 11
0.0
 21
0.0
 31
0.0
  0
LINE
  5
11E8A
330
1F
100
AcDbEntity
  8
CUT
 48
0.105064
100
AcDbLine
 10
31.79999999999999
 20
3.853331999999995
 30
0.0
 11
36.00000000000001
 21
4.0
 31
0.0
  0
ARC
  5
11E8B
330
1F
100
AcDbEntity
  8
CUT
100
AcDbCircle
 10
35.99999900000001
 20
-0.000001999999995
 30
0.0
 40
4.000001000000009
100
AcDbArc
 50
0.0000249999999301
 51
89.99998099999993
  0
LINE
  5
11E8C
330
1F
100
AcDbEntity
  8
CUT
100
AcDbLine
 10
39.99999999999964
 20
-0.0000002546703115
 30
0.0
 11
31.79999999999999
 21
-0.0000002546703115
 31
0.0
  0
LINE
  5
11E8D
330
1F
100
AcDbEntity
  8
CUT
100
AcDbLine
 10
31.79999999999999
 20
3.853331999999995
 30
0.0
 11
31.79999999999999
 21
-0.0000002546703115
 31
0.0
  0
LINE
  5
11E90
330
1F
100
AcDbEntity
  8
SK4
100
AcDbLine
 10
0.0000000000000071
 20
0.0
 30
0.0
 11
-66.0
 21
0.0
 31
0.0
  0
LINE
  5
11E91
330
1F
100
AcDbEntity
  8
SK1
100
AcDbLine
 10
0.0000000000000071
 20
-4.0
 30
0.0
 11
-59.99999999999999
 21
-4.0
 31
0.0
  0
LINE
  5
11E92
330
1F
100
AcDbEntity
  8
SK1
100
AcDbLine
 10
0.0000000000000071
 20
4.0
 30
0.0
 11
-59.99999999999999
 21
4.0
 31
0.0
  0
DIMENSION
  5
12041
330
1F
100
AcDbEntity
  8
SK2
100
AcDbDimension
  2
*D2
 10
-72.0
 20
-3.999999999999999
 30
0.0
 11
-74.54594167252284
 21
0.0
 31
0.0
 70
    32
  1
%%C<>
 71
     5
 41
0.0
 42
8.0
 73
     0
 74
     0
 75
     0
  3
Standard
100
AcDbAlignedDimension
 13
-59.99999999999999
 23
4.0
 33
0.0
 14
-59.99999999999999
 24
-4.0
 34
0.0
 50
90.0
100
AcDbRotatedDimension
  0
DIMENSION
  5
120B5
330
1F
100
AcDbEntity
  8
SK2
100
AcDbDimension
  2
*D3
 10
-59.99999999999999
 20
19.80836177316689
 30
0.0
 11
-10.00000000000018
 21
22.25591974927371
 31
0.0
 70
    32
 71
     5
 41
0.0
 42
99.9999999999996
 73
     0
 74
     0
 75
     0
  3
Standard
100
AcDbAlignedDimension
 13
39.99999999999962
 23
0.0
 33
0.0
 14
-59.99999999999999
 24
4.0
 34
0.0
100
AcDbRotatedDimension
  0
DIMENSION
  5
1214D
330
1F
100
AcDbEntity
  8
2
100
AcDbDimension
  2
*D4
 10
39.99999999999962
 20
12.0
 30
0.0
 11
24.99999999999981
 21
14.44755797610682
 31
0.0
 70
    32
 71
     5
 41
0.0
 42
29.99999999999961
 73
     0
 74
     0
 75
     0
  3
Standard
100
AcDbAlignedDimension
 13
10.00000000000001
 23
4.0
 33
0.0
 14
39.99999999999962
 24
4.0
 34
0.0
100
AcDbRotatedDimension
  0
ENDSEC
  0
SECTION
  2
OBJECTS
  0
DICTIONARY
  5
C
330
0
100
AcDbDictionary
281
     1
  3
ACAD_BACKGROUND
350
762A
  3
ACAD_COLOR
350
6C
  3
ACAD_GROUP
350
D
  3
ACAD_LAYOUT
350
1A
  3
ACAD_MATERIAL
350
6B
  3
ACAD_MLEADERSTYLE
350
43C
  3
ACAD_MLINESTYLE
350
17
  3
ACAD_PLOTSETTINGS
350
19
  3
ACAD_PLOTSTYLENAME
350
E
  3
ACAD_SCALELIST
350
99
  3
ACAD_TABLESTYLE
350
92
  3
ACAD_VISUALSTYLE
350
3F2
  3
ACAD_WIPEOUT_VARS
350
123BB
  3
ACDB_RECOMPOSE_DATA
350
11E23
  3
AcDbVariableDictionary
350
59
  3
AEC_PROPERTY_SET_DEFS
350
5CF
  3
ASE_INDEX_DICTIONARY
350
10A7E
  0
DICTIONARY
  5
123BC
330
2
100
AcDbDictionary
280
     1
281
     1
  3
ACAD_LAYERFILTERS
360
23C2
  3
ACAD_LAYERSTATES
360
6E9
  3
ACLYDICTIONARY
360
23C1
  0
DICTIONARY
  5
123B6
330
10
100
AcDbDictionary
280
     1
281
     1
  3
ADSK_XREC_LAYER_RECONCILED
360
F63
  0
DICTIONARY
  5
123B7
330
23
100
AcDbDictionary
280
     1
281
     1
  3
ADSK_XREC_LAYER_RECONCILED
360
F65
  0
DICTIONARY
  5
123B8
330
25
100
AcDbDictionary
280
     1
281
     1
  3
ADSK_XREC_LAYER_RECONCILED
360
F67
  0
DICTIONARY
  5
123B9
330
2E
100
AcDbDictionary
280
     1
281
     1
  3
ADSK_XREC_LAYER_RECONCILED
360
F71
  0
DICTIONARY
  5
123BA
330
49B
100
AcDbDictionary
280
     1
281
     1
  3
ADSK_XREC_LAYER_RECONCILED
360
F79
  0
DICTIONARY
  5
123C7
330
1F
100
AcDbDictionary
280
     1
281
     1
  3
ACAD_SORTENTS
360
123C8
  0
DICTIONARY
  5
762A
102
{ACAD_REACTORS
330
C
102
}
330
C
100
AcDbDictionary
281
     1
  0
DICTIONARY
  5
6C
102
{ACAD_REACTORS
330
C
102
}
330
C
100
AcDbDictionary
281
     1
  0
DICTIONARY
  5
D
102
{ACAD_REACTORS
330
C
102
}
330
C
100
AcDbDictionary
281
     1
  3
INFTOTAL
350
6D2D
  0
DICTIONARY
  5
1A
102
{ACAD_REACTORS
330
C
102
}
330
C
100
AcDbDictionary
281
     1
  3
Layout1
350
74
  3
Model
350
22
  0
DICTIONARY
  5
6B
102
{ACAD_REACTORS
330
C
102
}
330
C
100
AcDbDictionary
281
     1
  0
DICTIONARY
  5
43C
102
{ACAD_REACTORS
330
C
102
}
330
C
100
AcDbDictionary
281
     1
  0
DICTIONARY
  5
17
102
{ACAD_REACTORS
330
C
102
}
330
C
100
AcDbDictionary
281
     1
  3
Standard
350
18
  0
DICTIONARY
  5
19
102
{ACAD_REACTORS
330
C
102
}
330
C
100
AcDbDictionary
281
     1
  0
ACDBDICTIONARYWDFLT
  5
E
102
{ACAD_REACTORS
330
C
102
}
330
C
100
AcDbDictionary
281
     1
  3
Normal
350
F
100
AcDbDictionaryWithDefault
340
F
  0
DICTIONARY
  5
99
102
{ACAD_REACTORS
330
C
102
}
330
C
100
AcDbDictionary
281
     1
  3
A0
350
9A
  3
A1
350
9B
  3
A2
350
9C
  3
A3
350
9D
  3
A4
350
9E
  3
A5
350
9F
  3
A6
350
A0
  3
A7
350
A1
  3
A8
350
A2
  3
A9
350
A3
  3
B0
350
A4
  3
B1
350
A5
  3
B2
350
A6
  3
B3
350
A7
  3
B4
350
A8
  3
B5
350
A9
  3
B6
350
AA
  3
B7
350
AB
  3
B8
350
AC
  3
B9
350
AD
  3
C0
350
AE
  3
C1
350
AF
  3
C2
350
B0
  3
C3
350
B1
  3
C4
350
B2
  3
C5
350
B3
  3
C6
350
B4
  3
C7
350
B5
  3
C8
350
B6
  3
C9
350
B7
  3
D0
350
B8
  3
D1
350
B9
  3
D2
350
BA
  0
DICTIONARY
  5
92
102
{ACAD_REACTORS
330
C
102
}
330
C
100
AcDbDictionary
281
     1
  3
Standard
350
93
  0
DICTIONARY
  5
3F2
102
{ACAD_REACTORS
330
C
102
}
330
C
100
AcDbDictionary
281
     1
  0
WIPEOUTVARIABLES
  5
123BB
102
{ACAD_REACTORS
330
C
102
}
330
C
100
AcDbWipeoutVariables
 70
     1
  0
XRECORD
  5
11E23
102
{ACAD_REACTORS
330
C
102
}
330
C
100
AcDbXrecord
280
     1
 90
        1
330
0
  0
DICTIONARY
  5
59
102
{ACAD_REACTORS
330
C
102
}
330
C
100
AcDbDictionary
281
     1
  3
CANNOSCALE
350
123C9
  3
CMLEADERSTYLE
350
447
  3
CTABLESTYLE
350
38E
  3
DIMASSOC
350
359
  3
HALOGAP
350
11E4F
  3
HIDETEXT
350
358
  3
INDEXCTL
350
F7B
  3
LIGHTINGUNITS
350
44A
  3
MSLTSCALE
350
448
  3
PROJECTNAME
350
1051
  3
SORTENTS
350
F7A
  3
XCLIPFRAME
350
11DF4
  0
DICTIONARY
  5
5CF
102
{ACAD_REACTORS
330
C
102
}
330
C
100
AcDbDictionary
281
     1
  0
DICTIONARY
  5
10A7E
102
{ACAD_REACTORS
330
C
102
}
330
C
100
AcDbDictionary
281
     1
  3
ASEBLOCKHIERARCHYINDEXRECORD
350
10A7F
  0
DICTIONARY
  5
23C2
102
{ACAD_REACTORS
330
123BC
102
}
330
123BC
100
AcDbDictionary
281
     1
  0
DICTIONARY
  5
6E9
102
{ACAD_REACTORS
330
123BC
102
}
330
123BC
100
AcDbDictionary
281
     1
  3
_LAYISO_STATE
350
4506
  0
DICTIONARY
  5
23C1
102
{ACAD_REACTORS
330
123BC
102
}
330
123BC
100
AcDbDictionary
281
     1
  0
XRECORD
  5
F63
102
{ACAD_REACTORS
330
123B6
102
}
330
123B6
100
AcDbXrecord
280
     1
290
     1
  0
XRECORD
  5
F65
102
{ACAD_REACTORS
330
123B7
102
}
330
123B7
100
AcDbXrecord
280
     1
290
     1
  0
XRECORD
  5
F67
102
{ACAD_REACTORS
330
123B8
102
}
330
123B8
100
AcDbXrecord
280
     1
290
     1
  0
XRECORD
  5
F71
102
{ACAD_REACTORS
330
123B9
102
}
330
123B9
100
AcDbXrecord
280
     1
290
     1
  0
XRECORD
  5
F79
102
{ACAD_REACTORS
330
123BA
102
}
330
123BA
100
AcDbXrecord
280
     1
290
     1
  0
SORTENTSTABLE
  5
123C8
102
{ACAD_REACTORS
330
123C7
330
123C7
102
}
330
123C7
100
AcDbSortentsTable
330
1F
  0
GROUP
  5
6D2D
102
{ACAD_REACTORS
330
D
102
}
330
D
100
AcDbGroup
300

 70
     0
 71
     1
340
F18
340
F19
  0
LAYOUT
  5
74
102
{ACAD_REACTORS
330
1A
102
}
330
1A
100
AcDbPlotSettings
  1

  2
\\ADSCCNDC1\hq601xrx1
  4

  6

 40
0.0
 41
0.0
 42
0.0
 43
0.0
 44
0.0
 45
0.0
 46
0.0
 47
0.0
 48
0.0
 49
0.0
140
0.0
141
0.0
142
1.0
143
1.0
 70
   688
 72
     0
 73
     0
 74
     5
  7
monochrome.ctb
 75
    16
 76
     0
 77
     2
 78
   300
147
1.0
148
0.0
149
0.0
100
AcDbLayout
  1
Layout1
 70
     1
 71
     1
 10
0.0
 20
0.0
 11
12.0
 21
9.0
 12
0.0
 22
0.0
 32
0.0
 14
0.0
 24
0.0
 34
0.0
 15
0.0
 25
0.0
 35
0.0
146
0.0
 13
0.0
 23
0.0
 33
0.0
 16
1.0
 26
0.0
 36
0.0
 17
0.0
 27
1.0
 37
0.0
 76
     0
330
73
  0
LAYOUT
  5
22
102
{ACAD_REACTORS
330
1A
102
}
330
1A
100
AcDbPlotSettings
  1

  2
none_device
  4
Letter_(8.50_x_11.00_Inches)
  6

 40
6.349999904632568
 41
6.349999904632568
 42
6.350006103515625
 43
6.350006103515625
 44
215.8999938964844
 45
279.3999938964844
 46
1.587498486042017
 47
0.0
 48
0.0
 49
0.0
140
0.0
141
0.0
142
1.0
143
0.0449943777463696
 70
 11956
 72
     1
 73
     1
 74
     1
  7
monochrome.ctb
 75
     0
 76
     0
 77
     2
 78
   300
147
22.22499899069468
148
-82.3508777524703
149
-53.69369632994493
100
AcDbLayout
  1
Model
 70
     1
 71
     0
 10
-170.0
 20
-170.0
 11
519.0
 21
260.0
 12
0.0
 22
0.0
 32
0.0
 14
-82.89516686166219
 24
-31.04609393478341
 34
0.0
 15
57.32040529865122
 25
30.05259819485313
 35
0.0
146
0.0
 13
0.0
 23
0.0
 33
0.0
 16
1.0
 26
0.0
 36
0.0
 17
0.0
 27
1.0
 37
0.0
 76
     0
330
1F
331
97
  0
MLINESTYLE
  5
18
102
{ACAD_REACTORS
330
17
102
}
330
17
100
AcDbMlineStyle
  2
STANDARD
 70
     0
  3

 62
     0
 51
90.0
 52
90.0
 71
     2
 49
0.5
 62
   256
  6
BYLAYER
 49
-0.5
 62
   256
  6
BYLAYER
  0
ACDBPLACEHOLDER
  5
F
102
{ACAD_REACTORS
330
E
102
}
330
E
  0
SCALE
  5
9A
102
{ACAD_REACTORS
330
99
102
}
330
99
100
AcDbScale
 70
     0
300
1:1
140
1.0
141
1.0
290
     1
  0
SCALE
  5
9B
102
{ACAD_REACTORS
330
99
102
}
330
99
100
AcDbScale
 70
     0
300
1:2
140
1.0
141
2.0
290
     0
  0
SCALE
  5
9C
102
{ACAD_REACTORS
330
99
102
}
330
99
100
AcDbScale
 70
     0
300
1:4
140
1.0
141
4.0
290
     0
  0
SCALE
  5
9D
102
{ACAD_REACTORS
330
99
102
}
330
99
100
AcDbScale
 70
     0
300
1:5
140
1.0
141
5.0
290
     0
  0
SCALE
  5
9E
102
{ACAD_REACTORS
330
99
102
}
330
99
100
AcDbScale
 70
     0
300
1:8
140
1.0
141
8.0
290
     0
  0
SCALE
  5
9F
102
{ACAD_REACTORS
330
99
102
}
330
99
100
AcDbScale
 70
     0
300
1:10
140
1.0
141
10.0
290
     0
  0
SCALE
  5
A0
102
{ACAD_REACTORS
330
99
102
}
330
99
100
AcDbScale
 70
     0
300
1:16
140
1.0
141
16.0
290
     0
  0
SCALE
  5
A1
102
{ACAD_REACTORS
330
99
102
}
330
99
100
AcDbScale
 70
     0
300
1:20
140
1.0
141
20.0
290
     0
  0
SCALE
  5
A2
102
{ACAD_REACTORS
330
99
102
}
330
99
100
AcDbScale
 70
     0
300
1:30
140
1.0
141
30.0
290
     0
  0
SCALE
  5
A3
102
{ACAD_REACTORS
330
99
102
}
330
99
100
AcDbScale
 70
     0
300
1:40
140
1.0
141
40.0
290
     0
  0
SCALE
  5
A4
102
{ACAD_REACTORS
330
99
102
}
330
99
100
AcDbScale
 70
     0
300
1:50
140
1.0
141
50.0
290
     0
  0
SCALE
  5
A5
102
{ACAD_REACTORS
330
99
102
}
330
99
100
AcDbScale
 70
     0
300
1:100
140
1.0
141
100.0
290
     0
  0
SCALE
  5
A6
102
{ACAD_REACTORS
330
99
102
}
330
99
100
AcDbScale
 70
     0
300
2:1
140
2.0
141
1.0
290
     0
  0
SCALE
  5
A7
102
{ACAD_REACTORS
330
99
102
}
330
99
100
AcDbScale
 70
     0
300
4:1
140
4.0
141
1.0
290
     0
  0
SCALE
  5
A8
102
{ACAD_REACTORS
330
99
102
}
330
99
100
AcDbScale
 70
     0
300
8:1
140
8.0
141
1.0
290
     0
  0
SCALE
  5
A9
102
{ACAD_REACTORS
330
99
102
}
330
99
100
AcDbScale
 70
     0
300
10:1
140
10.0
141
1.0
290
     0
  0
SCALE
  5
AA
102
{ACAD_REACTORS
330
99
102
}
330
99
100
AcDbScale
 70
     0
300
100:1
140
100.0
141
1.0
290
     0
  0
SCALE
  5
AB
102
{ACAD_REACTORS
330
99
102
}
330
99
100
AcDbScale
 70
     0
300
1/128" = 1'-0"
140
0.0078125
141
12.0
290
     0
  0
SCALE
  5
AC
102
{ACAD_REACTORS
330
99
102
}
330
99
100
AcDbScale
 70
     0
300
1/64" = 1'-0"
140
0.015625
141
12.0
290
     0
  0
SCALE
  5
AD
102
{ACAD_REACTORS
330
99
102
}
330
99
100
AcDbScale
 70
     0
300
1/32" = 1'-0"
140
0.03125
141
12.0
290
     0
  0
SCALE
  5
AE
102
{ACAD_REACTORS
330
99
102
}
330
99
100
AcDbScale
 70
     0
300
1/16" = 1'-0"
140
0.0625
141
12.0
290
     0
  0
SCALE
  5
AF
102
{ACAD_REACTORS
330
99
102
}
330
99
100
AcDbScale
 70
     0
300
3/32" = 1'-0"
140
0.09375
141
12.0
290
     0
  0
SCALE
  5
B0
102
{ACAD_REACTORS
330
99
102
}
330
99
100
AcDbScale
 70
     0
300
1/8" = 1'-0"
140
0.125
141
12.0
290
     0
  0
SCALE
  5
B1
102
{ACAD_REACTORS
330
99
102
}
330
99
100
AcDbScale
 70
     0
300
3/16" = 1'-0"
140
0.1875
141
12.0
290
     0
  0
SCALE
  5
B2
102
{ACAD_REACTORS
330
99
102
}
330
99
100
AcDbScale
 70
     0
300
1/4" = 1'-0"
140
0.25
141
12.0
290
     0
  0
SCALE
  5
B3
102
{ACAD_REACTORS
330
99
102
}
330
99
100
AcDbScale
 70
     0
300
3/8" = 1'-0"
140
0.375
141
12.0
290
     0
  0
SCALE
  5
B4
102
{ACAD_REACTORS
330
99
102
}
330
99
100
AcDbScale
 70
     0
300
1/2" = 1'-0"
140
0.5
141
12.0
290
     0
  0
SCALE
  5
B5
102
{ACAD_REACTORS
330
99
102
}
330
99
100
AcDbScale
 70
     0
300
3/4" = 1'-0"
140
0.75
141
12.0
290
     0
  0
SCALE
  5
B6
102
{ACAD_REACTORS
330
99
102
}
330
99
100
AcDbScale
 70
     0
300
1" = 1'-0"
140
1.0
141
12.0
290
     0
  0
SCALE
  5
B7
102
{ACAD_REACTORS
330
99
102
}
330
99
100
AcDbScale
 70
     0
300
1-1/2" = 1'-0"
140
1.5
141
12.0
290
     0
  0
SCALE
  5
B8
102
{ACAD_REACTORS
330
99
102
}
330
99
100
AcDbScale
 70
     0
300
3" = 1'-0"
140
3.0
141
12.0
290
     0
  0
SCALE
  5
B9
102
{ACAD_REACTORS
330
99
102
}
330
99
100
AcDbScale
 70
     0
300
6" = 1'-0"
140
6.0
141
12.0
290
     0
  0
SCALE
  5
BA
102
{ACAD_REACTORS
330
99
102
}
330
99
100
AcDbScale
 70
     0
300
1'-0" = 1'-0"
140
12.0
141
12.0
290
     0
  0
TABLESTYLE
  5
93
102
{ACAD_REACTORS
330
92
102
}
330
92
100
AcDbTableStyle
  3
Standard
 70
     0
 71
     0
 40
0.06
 41
0.06
280
     0
281
     0
  7
Standard
140
0.18
170
     2
 62
     0
 63
     7
283
     0
 90
      512
 91
        0
  1

274
    -2
284
     1
 64
     0
275
    -2
285
     1
 65
     0
276
    -2
286
     1
 66
     0
277
    -2
287
     1
 67
     0
278
    -2
288
     1
 68
     0
279
    -2
289
     1
 69
     0
  7
Standard
140
0.25
170
     5
 62
     0
 63
     7
283
     0
 90
      512
 91
        0
  1

274
    -2
284
     1
 64
     0
275
    -2
285
     1
 65
     0
276
    -2
286
     1
 66
     0
277
    -2
287
     1
 67
     0
278
    -2
288
     1
 68
     0
279
    -2
289
     1
 69
     0
  7
Standard
140
0.18
170
     5
 62
     0
 63
     7
283
     0
 90
      512
 91
        0
  1

274
    -2
284
     1
 64
     0
275
    -2
285
     1
 65
     0
276
    -2
286
     1
 66
     0
277
    -2
287
     1
 67
     0
278
    -2
288
     1
 68
     0
279
    -2
289
     1
 69
     0
  0
DICTIONARYVAR
  5
123C9
102
{ACAD_REACTORS
330
59
102
}
330
59
100
DictionaryVariables
280
     0
  1
1:1
  0
DICTIONARYVAR
  5
447
102
{ACAD_REACTORS
330
59
102
}
330
59
100
DictionaryVariables
280
     0
  1

  0
DICTIONARYVAR
  5
38E
102
{ACAD_REACTORS
330
59
102
}
330
59
100
DictionaryVariables
280
     0
  1
Standard
  0
DICTIONARYVAR
  5
359
102
{ACAD_REACTORS
330
59
102
}
330
59
100
DictionaryVariables
280
     0
  1
2
  0
DICTIONARYVAR
  5
11E4F
102
{ACAD_REACTORS
330
59
102
}
330
59
100
DictionaryVariables
280
     0
  1
0
  0
DICTIONARYVAR
  5
358
102
{ACAD_REACTORS
330
59
102
}
330
59
100
DictionaryVariables
280
     0
  1
1
  0
DICTIONARYVAR
  5
F7B
102
{ACAD_REACTORS
330
59
102
}
330
59
100
DictionaryVariables
280
     0
  1
0
  0
DICTIONARYVAR
  5
44A
102
{ACAD_REACTORS
330
59
102
}
330
59
100
DictionaryVariables
280
     0
  1
0
  0
DICTIONARYVAR
  5
448
102
{ACAD_REACTORS
330
59
102
}
330
59
100
DictionaryVariables
280
     0
  1
1
  0
DICTIONARYVAR
  5
1051
102
{ACAD_REACTORS
330
59
102
}
330
59
100
DictionaryVariables
280
     0
  1

  0
DICTIONARYVAR
  5
F7A
102
{ACAD_REACTORS
330
59
102
}
330
59
100
DictionaryVariables
280
     0
  1
127
  0
DICTIONARYVAR
  5
11DF4
102
{ACAD_REACTORS
330
59
102
}
330
59
100
DictionaryVariables
280
     0
  1
1
  0
XRECORD
  5
10A7F
102
{ACAD_REACTORS
330
10A7E
102
}
330
10A7E
100
AcDbXrecord
280
     1
  0
XRECORD
  5
4506
102
{ACAD_REACTORS
330
6E9
102
}
330
6E9
100
AcDbXrecord
280
     1
 91
      535
301

290
     0
302
0
330
0
 90
        8
 62
     5
370
    -3
331
16
  1
색상_5
330
0
 90
        8
 62
     3
370
    -3
331
16
  1
색상_3
330
0
 90
        8
 62
     4
370
    -3
331
16
  1
색상_4
330
0
 90
        8
 62
     2
370
    -3
331
16
  1
색상_2
330
0
 90
        8
 62
     1
370
    -3
331
16
  1
색상_1
330
0
 90
        8
 62
     6
370
    -3
331
16
  1
색상_6
330
0
 90
        0
 62
     7
370
    -3
331
16
  1
색상_7
330
0
 90
        8
 62
     6
370
    50
331
16
  1
색상_6
330
0
 90
        8
 62
     4
370
    50
331
16
  1
색상_4
330
0
 90
        8
 62
     1
370
    35
331
0
  1
색상_1
330
49B
 90
        8
 62
     9
370
    18
331
16
  1
색상_9
330
0
 90
        8
 62
     7
370
    -3
331
16
  1
색상_7
330
0
 90
        8
 62
     1
370
    25
331
16
  1
색상_1
330
2E
 90
        8
 62
     5
370
    -3
331
16
  1
색상_5
330
0
 90
        8
 62
     2
370
    25
331
0
  1
색상_2
330
0
 90
        8
 62
     2
370
    25
331
0
  1
색상_2
330
0
 90
        8
 62
     1
370
    35
331
0
  1
색상_1
330
0
 90
        8
 62
     7
370
    25
331
16
  1
색상_7
330
25
 90
        8
 62
     7
370
    25
331
16
  1
색상_7
330
23
 90
        8
 62
     4
370
    50
331
16
  1
색상_4
330
10
 90
        8
 62
     7
370
    -3
331
16
  1
색상_7
  0
ENDSEC
  0
EOF
