  0
SECTION
  2
HEADER
  9
$ACADVER
  1
AC1015
  9
$ACADMAINTVER
 70
    20
  9
$DWGCODEPAGE
  3
ANSI_1252
  9
$INSBASE
 10
0.0
 20
0.0
 30
0.0
  9
$EXTMIN
 10
-49.24919288182787
 20
-161.7467502944016
 30
-0.0000003298184735
  9
$EXTMAX
 10
144.7261870630793
 20
141.8181008350454
 30
0.0053620828373447
  9
$LIMMIN
 10
0.0
 20
0.0
  9
$LIMMAX
 10
841.0
 20
594.0
  9
$ORTHOMODE
 70
     0
  9
$REGENMODE
 70
     1
  9
$FILLMODE
 70
     1
  9
$QTEXTMODE
 70
     0
  9
$MIRRTEXT
 70
     1
  9
$LTSCALE
 40
10.0
  9
$ATTMODE
 70
     1
  9
$TEXTSIZE
 40
0.2
  9
$TRACEWID
 40
0.05
  9
$TEXTSTYLE
  7
STANDARD
  9
$CLAYER
  8
0
  9
$CELTYPE
  6
BYLAYER
  9
$CECOLOR
 62
   256
  9
$CELTSCALE
 40
1.0
  9
$DISPSILH
 70
     0
  9
$DIMSCALE
 40
1.0
  9
$DIMASZ
 40
2.5
  9
$DIMEXO
 40
5.256249999999996
  9
$DIMDLI
 40
31.958
  9
$DIMRND
 40
0.0
  9
$DIMDLE
 40
0.0
  9
$DIMEXE
 40
15.13799999999999
  9
$DIMTP
 40
0.01
  9
$DIMTM
 40
0.01
  9
$DIMTXT
 40
3.5
  9
$DIMCEN
 40
7.568999999999999
  9
$DIMTSZ
 40
0.0
  9
$DIMTOL
 70
     1
  9
$DIMLIM
 70
     0
  9
$DIMTIH
 70
     1
  9
$DIMTOH
 70
     1
  9
$DIMSE1
 70
     0
  9
$DIMSE2
 70
     0
  9
$DIMTAD
 70
     0
  9
$DIMZIN
 70
     0
  9
$DIMBLK
  1
_FILLED
  9
$DIMASO
 70
     1
  9
$DIMSHO
 70
     1
  9
$DIMPOST
  1

  9
$DIMAPOST
  1

  9
$DIMALT
 70
     0
  9
$DIMALTD
 70
     2
  9
$DIMALTF
 40
25.4
  9
$DIMLFAC
 40
1.0
  9
$DIMTOFL
 70
     0
  9
$DIMTVP
 40
0.0
  9
$DIMTIX
 70
     0
  9
$DIMSOXD
 70
     0
  9
$DIMSAH
 70
     0
  9
$DIMBLK1
  1

  9
$DIMBLK2
  1

  9
$DIMSTYLE
  2
STANDARD
  9
$DIMCLRD
 70
     0
  9
$DIMCLRE
 70
     0
  9
$DIMCLRT
 70
     0
  9
$DIMTFAC
 40
1.0
  9
$DIMGAP
 40
0.09
  9
$DIMJUST
 70
     0
  9
$DIMSD1
 70
     0
  9
$DIMSD2
 70
     0
  9
$DIMTOLJ
 70
     1
  9
$DIMTZIN
 70
     0
  9
$DIMALTZ
 70
     0
  9
$DIMALTTZ
 70
     0
  9
$DIMUPT
 70
     0
  9
$DIMDEC
 70
     4
  9
$DIMTDEC
 70
     4
  9
$DIMALTU
 70
     2
  9
$DIMALTTD
 70
     2
  9
$DIMTXSTY
  7
STANDARD
  9
$DIMAUNIT
 70
     0
  9
$DIMADEC
 70
     0
  9
$DIMALTRND
 40
0.0
  9
$DIMAZIN
 70
     0
  9
$DIMDSEP
 70
    46
  9
$DIMATFIT
 70
     3
  9
$DIMFRAC
 70
     0
  9
$DIMLDRBLK
  1
_FILLED
  9
$DIMLUNIT
 70
     2
  9
$DIMLWD
 70
    -2
  9
$DIMLWE
 70
    -2
  9
$DIMTMOVE
 70
     0
  9
$LUNITS
 70
     2
  9
$LUPREC
 70
     4
  9
$SKETCHINC
 40
0.1
  9
$FILLETRAD
 40
0.0
  9
$AUNITS
 70
     0
  9
$AUPREC
 70
     0
  9
$MENU
  1

  9
$ELEVATION
 40
0.0
  9
$PELEVATION
 40
0.0
  9
$THICKNESS
 40
0.0
  9
$LIMCHECK
 70
     0
  9
$CHAMFERA
 40
0.0
  9
$CHAMFERB
 40
0.0
  9
$CHAMFERC
 40
0.0
  9
$CHAMFERD
 40
0.0
  9
$SKPOLY
 70
     0
  9
$TDCREATE
 40
2453446.397722049
  9
$TDUCREATE
 40
2453446.314388715
  9
$TDUPDATE
 40
2453908.563116458
  9
$TDUUPDATE
 40
2453908.479783125
  9
$TDINDWG
 40
0.1093447801
  9
$TDUSRTIMER
 40
0.0257312731
  9
$USRTIMER
 70
     1
  9
$ANGBASE
 50
0.0
  9
$ANGDIR
 70
     0
  9
$PDMODE
 70
     0
  9
$PDSIZE
 40
0.3125
  9
$PLINEWID
 40
0.0
  9
$SPLFRAME
 70
     0
  9
$SPLINETYPE
 70
     6
  9
$SPLINESEGS
 70
     8
  9
$HANDSEED
  5
112C1
  9
$SURFTAB1
 70
     6
  9
$SURFTAB2
 70
     6
  9
$SURFTYPE
 70
     6
  9
$SURFU
 70
     6
  9
$SURFV
 70
     6
  9
$UCSBASE
  2

  9
$UCSNAME
  2

  9
$UCSORG
 10
0.0
 20
0.0
 30
0.0
  9
$UCSXDIR
 10
1.0
 20
0.0
 30
0.0
  9
$UCSYDIR
 10
0.0
 20
1.0
 30
0.0
  9
$UCSORTHOREF
  2

  9
$UCSORTHOVIEW
 70
     0
  9
$UCSORGTOP
 10
0.0
 20
0.0
 30
0.0
  9
$UCSORGBOTTOM
 10
0.0
 20
0.0
 30
0.0
  9
$UCSORGLEFT
 10
0.0
 20
0.0
 30
0.0
  9
$UCSORGRIGHT
 10
0.0
 20
0.0
 30
0.0
  9
$UCSORGFRONT
 10
0.0
 20
0.0
 30
0.0
  9
$UCSORGBACK
 10
0.0
 20
0.0
 30
0.0
  9
$PUCSBASE
  2

  9
$PUCSNAME
  2

  9
$PUCSORG
 10
0.0
 20
0.0
 30
0.0
  9
$PUCSXDIR
 10
1.0
 20
0.0
 30
0.0
  9
$PUCSYDIR
 10
0.0
 20
1.0
 30
0.0
  9
$PUCSORTHOREF
  2

  9
$PUCSORTHOVIEW
 70
     0
  9
$PUCSORGTOP
 10
0.0
 20
0.0
 30
0.0
  9
$PUCSORGBOTTOM
 10
0.0
 20
0.0
 30
0.0
  9
$PUCSORGLEFT
 10
0.0
 20
0.0
 30
0.0
  9
$PUCSORGRIGHT
 10
0.0
 20
0.0
 30
0.0
  9
$PUCSORGFRONT
 10
0.0
 20
0.0
 30
0.0
  9
$PUCSORGBACK
 10
0.0
 20
0.0
 30
0.0
  9
$USERI1
 70
     0
  9
$USERI2
 70
     0
  9
$USERI3
 70
     0
  9
$USERI4
 70
     0
  9
$USERI5
 70
     0
  9
$USERR1
 40
0.0
  9
$USERR2
 40
0.0
  9
$USERR3
 40
0.0
  9
$USERR4
 40
0.0
  9
$USERR5
 40
0.0
  9
$WORLDVIEW
 70
     1
  9
$SHADEDGE
 70
     3
  9
$SHADEDIF
 70
    70
  9
$TILEMODE
 70
     1
  9
$MAXACTVP
 70
    64
  9
$PINSBASE
 10
0.0
 20
0.0
 30
0.0
  9
$PLIMCHECK
 70
     0
  9
$PEXTMIN
 10
100.0
 20
100.0
 30
100.0
  9
$PEXTMAX
 10
-100.0
 20
-100.0
 30
-100.0
  9
$PLIMMIN
 10
0.0
 20
0.0
  9
$PLIMMAX
 10
12.0
 20
9.0
  9
$UNITMODE
 70
     0
  9
$VISRETAIN
 70
     1
  9
$PLINEGEN
 70
     1
  9
$PSLTSCALE
 70
     1
  9
$TREEDEPTH
 70
  3020
  9
$CMLSTYLE
  2
STANDARD
  9
$CMLJUST
 70
     0
  9
$CMLSCALE
 40
1.0
  9
$PROXYGRAPHICS
 70
     1
  9
$MEASUREMENT
 70
     0
  9
$CELWEIGHT
370
    -1
  9
$ENDCAPS
280
     0
  9
$JOINSTYLE
280
     0
  9
$LWDISPLAY
290
     0
  9
$INSUNITS
 70
     0
  9
$HYPERLINKBASE
  1

  9
$STYLESHEET
  1

  9
$XEDIT
290
     1
  9
$CEPSNTYPE
380
     0
  9
$PSTYLEMODE
290
     1
  9
$FINGERPRINTGUID
  2
{F13535E1-5A28-4897-BA6F-020FD65615BC}
  9
$VERSIONGUID
  2
{777C4442-D3AE-45CE-AF95-476FED54BF01}
  9
$EXTNAMES
290
     1
  9
$PSVPSCALE
 40
0.0
  9
$OLESTARTUP
290
     0
  0
ENDSEC
  0
SECTION
  2
CLASSES
  0
CLASS
  1
ACDBDICTIONARYWDFLT
  2
AcDbDictionaryWithDefault
  3
ObjectDBX Classes
 90
        0
280
     0
281
     0
  0
CLASS
  1
ACDBPLACEHOLDER
  2
AcDbPlaceHolder
  3
ObjectDBX Classes
 90
        0
280
     0
281
     0
  0
CLASS
  1
LAYOUT
  2
AcDbLayout
  3
ObjectDBX Classes
 90
        0
280
     0
281
     0
  0
CLASS
  1
TABLESTYLE
  2
AcDbTableStyle
  3
ObjectDBX Classes
 90
     2047
280
     0
281
     0
  0
CLASS
  1
DICTIONARYVAR
  2
AcDbDictionaryVar
  3
ObjectDBX Classes
 90
        0
280
     0
281
     0
  0
ENDSEC
  0
SECTION
  2
TABLES
  0
TABLE
  2
VPORT
  5
8
330
0
100
AcDbSymbolTable
 70
     2
  0
VPORT
  5
112BB
330
8
100
AcDbSymbolTableRecord
100
AcDbViewportTableRecord
  2
*Active
 70
     0
 10
0.0
 20
0.0
 11
1.0
 21
1.0
 12
47.73849709062576
 22
-9.964324729678082
 13
0.0
 23
0.0
 14
1.0
 24
1.0
 15
0.0
 25
0.0
 16
0.0
 26
0.0
 36
1.0
 17
0.0
 27
0.0
 37
0.0
 40
305.8762586253566
 41
1.532401524777636
 42
50.0
 43
0.0
 44
0.0
 50
0.0
 51
0.0
 71
     0
 72
  1000
 73
     1
 74
     1
 75
     0
 76
     0
 77
     0
 78
     0
281
     0
 65
     1
110
0.0
120
0.0
130
0.0
111
1.0
121
0.0
131
0.0
112
0.0
122
1.0
132
0.0
 79
     0
146
0.0
  0
ENDTAB
  0
TABLE
  2
LTYPE
  5
5
330
0
100
AcDbSymbolTable
 70
     3
  0
LTYPE
  5
13
330
5
100
AcDbSymbolTableRecord
100
AcDbLinetypeTableRecord
  2
BYBLOCK
 70
     0
  3

 72
    65
 73
     0
 40
0.0
  0
LTYPE
  5
14
330
5
100
AcDbSymbolTableRecord
100
AcDbLinetypeTableRecord
  2
BYLAYER
 70
     0
  3

 72
    65
 73
     0
 40
0.0
  0
LTYPE
  5
15
330
5
100
AcDbSymbolTableRecord
100
AcDbLinetypeTableRecord
  2
CONTINUOUS
 70
     0
  3
Solid line
 72
    65
 73
     0
 40
0.0
  0
LTYPE
  5
23
330
5
100
AcDbSymbolTableRecord
100
AcDbLinetypeTableRecord
  2
CENTER
 70
     0
  3
____ _ ____ _ ____ _ ____ _ ____ _ ____ _ ____
 72
    65
 73
     4
 40
0.6
 49
0.375
 74
     0
 49
-0.075
 74
     0
 49
0.075
 74
     0
 49
-0.075
 74
     0
  0
LTYPE
  5
24
330
5
100
AcDbSymbolTableRecord
100
AcDbLinetypeTableRecord
  2
HIDDEN
 70
     0
  3
- - - - - - - - - - - - - - - - - - - -
 72
    65
 73
     2
 40
0.2
 49
0.1
 74
     0
 49
-0.1
 74
     0
  0
ENDTAB
  0
TABLE
  2
LAYER
  5
2
330
0
100
AcDbSymbolTable
 70
    12
  0
LAYER
  5
10
330
2
100
AcDbSymbolTableRecord
100
AcDbLayerTableRecord
  2
0
 70
     0
 62
     7
  6
CONTINUOUS
370
    -3
390
9FDE
  0
LAYER
  5
26
330
2
100
AcDbSymbolTableRecord
100
AcDbLayerTableRecord
  2
1
 70
     0
 62
     4
  6
CONTINUOUS
370
    -3
390
9FDE
  0
LAYER
  5
27
330
2
100
AcDbSymbolTableRecord
100
AcDbLayerTableRecord
  2
2
 70
     0
 62
     7
  6
CONTINUOUS
370
    -3
390
9FDE
  0
LAYER
  5
28
330
2
100
AcDbSymbolTableRecord
100
AcDbLayerTableRecord
  2
3
 70
     0
 62
     1
  6
HIDDEN
370
    -3
390
9FDE
  0
LAYER
  5
29
330
2
100
AcDbSymbolTableRecord
100
AcDbLayerTableRecord
  2
4
 70
     0
 62
     2
  6
CENTER
370
    -3
390
9FDE
  0
LAYER
  5
3E
330
2
100
AcDbSymbolTableRecord
100
AcDbLayerTableRecord
  2
DEFPOINTS
 70
     0
 62
     7
  6
CONTINUOUS
290
     0
370
    -3
390
9FDE
  0
LAYER
  5
10C93
330
2
100
AcDbSymbolTableRecord
100
AcDbLayerTableRecord
  2
6
 70
     0
 62
     5
  6
CONTINUOUS
370
    -3
390
9FDE
  0
LAYER
  5
10C94
330
2
100
AcDbSymbolTableRecord
100
AcDbLayerTableRecord
  2
CUT
 70
     0
 62
     1
  6
CONTINUOUS
370
    -3
390
9FDE
  0
LAYER
  5
10C95
330
2
100
AcDbSymbolTableRecord
100
AcDbLayerTableRecord
  2
NOCUT
 70
     0
 62
     7
  6
CONTINUOUS
370
    -3
390
9FDE
  0
LAYER
  5
10F7C
330
2
100
AcDbSymbolTableRecord
100
AcDbLayerTableRecord
  2
SK2
 70
     0
 62
     7
  6
CONTINUOUS
370
    -3
390
9FDE
  0
LAYER
  5
112AC
330
2
100
AcDbSymbolTableRecord
100
AcDbLayerTableRecord
  2
SK4
 70
     0
 62
     2
  6
CENTER
370
    -3
390
9FDE
  0
LAYER
  5
112AD
330
2
100
AcDbSymbolTableRecord
100
AcDbLayerTableRecord
  2
SK3
 70
     0
 62
     1
  6
HIDDEN
370
    -3
390
9FDE
  0
ENDTAB
  0
TABLE
  2
STYLE
  5
3
330
0
100
AcDbSymbolTable
 70
     1
  0
STYLE
  5
11
330
3
100
AcDbSymbolTableRecord
100
AcDbTextStyleTableRecord
  2
STANDARD
 70
     0
 40
0.0
 41
0.8
 50
0.0
 71
     0
 42
0.2
  3
isocp.shx
  4

  0
ENDTAB
  0
TABLE
  2
VIEW
  5
6
330
0
100
AcDbSymbolTable
 70
     0
  0
ENDTAB
  0
TABLE
  2
UCS
  5
7
330
0
100
AcDbSymbolTable
 70
     0
  0
ENDTAB
  0
TABLE
  2
APPID
  5
9
330
0
100
AcDbSymbolTable
 70
     4
  0
APPID
  5
12
330
9
100
AcDbSymbolTableRecord
100
AcDbRegAppTableRecord
  2
ACAD
 70
     0
  0
APPID
  5
10C99
330
9
100
AcDbSymbolTableRecord
100
AcDbRegAppTableRecord
  2
GENIUS_GENODEF_13
 70
     0
  0
APPID
  5
10C9A
330
9
100
AcDbSymbolTableRecord
100
AcDbRegAppTableRecord
  2
GENIUS_GENOBJ-N-CEN_13
 70
     0
  0
APPID
  5
10C9B
330
9
100
AcDbSymbolTableRecord
100
AcDbRegAppTableRecord
  2
GENIUS_GENOBJ-N-FIL_13
 70
     0
  0
ENDTAB
  0
TABLE
  2
DIMSTYLE
  5
A
330
0
100
AcDbSymbolTable
 70
     2
100
AcDbDimStyleTable
 71
     0
  0
DIMSTYLE
105
2C
330
A
100
AcDbSymbolTableRecord
100
AcDbDimStyleTableRecord
  2
STANDARD
 70
     0
340
11
  0
DIMSTYLE
105
1260
102
{ACAD_REACTORS
330
CE
330
CD
330
D0
330
CF
330
CA
330
11F9
330
CB
330
CC
330
11FA
102
}
330
A
100
AcDbSymbolTableRecord
100
AcDbDimStyleTableRecord
  2
ISO-25
 70
     0
 41
3.5
 42
0.625
 43
3.75
 44
1.25
 73
     0
 74
     0
 77
     1
 78
     8
140
3.5
141
2.5
143
0.03937007874016
147
0.625
171
     3
172
     1
176
   256
177
   256
178
   256
271
     2
272
     2
274
     3
283
     0
284
     8
340
11
  0
ENDTAB
  0
TABLE
  2
BLOCK_RECORD
  5
1
330
0
100
AcDbSymbolTable
 70
    11
  0
BLOCK_RECORD
  5
1E
102
{ACAD_XDICTIONARY
360
72C9
102
}
330
1
100
AcDbSymbolTableRecord
100
AcDbBlockTableRecord
  2
*MODEL_SPACE
340
9FDF
  0
BLOCK_RECORD
  5
1A
102
{ACAD_XDICTIONARY
360
72C7
102
}
330
1
100
AcDbSymbolTableRecord
100
AcDbBlockTableRecord
  2
*PAPER_SPACE
340
9FE0
  0
BLOCK_RECORD
  5
31
330
1
100
AcDbSymbolTableRecord
100
AcDbBlockTableRecord
  2
_FILLED
340
0
  0
BLOCK_RECORD
  5
178F
330
1
100
AcDbSymbolTableRecord
100
AcDbBlockTableRecord
  2
*D1
340
0
  0
BLOCK_RECORD
  5
179B
330
1
100
AcDbSymbolTableRecord
100
AcDbBlockTableRecord
  2
*D2
340
0
  0
BLOCK_RECORD
  5
17A7
330
1
100
AcDbSymbolTableRecord
100
AcDbBlockTableRecord
  2
*D3
340
0
  0
BLOCK_RECORD
  5
17B3
330
1
100
AcDbSymbolTableRecord
100
AcDbBlockTableRecord
  2
*D4
340
0
  0
BLOCK_RECORD
  5
17BF
330
1
100
AcDbSymbolTableRecord
100
AcDbBlockTableRecord
  2
*D5
340
0
  0
BLOCK_RECORD
  5
17CB
330
1
100
AcDbSymbolTableRecord
100
AcDbBlockTableRecord
  2
*D6
340
0
  0
BLOCK_RECORD
  5
17D7
330
1
100
AcDbSymbolTableRecord
100
AcDbBlockTableRecord
  2
*D7
340
0
  0
BLOCK_RECORD
  5
17E3
330
1
100
AcDbSymbolTableRecord
100
AcDbBlockTableRecord
  2
*D8
340
0
  0
BLOCK_RECORD
  5
17F1
330
1
100
AcDbSymbolTableRecord
100
AcDbBlockTableRecord
  2
*D9
340
0
  0
ENDTAB
  0
ENDSEC
  0
SECTION
  2
BLOCKS
  0
BLOCK
  5
1F
330
1E
100
AcDbEntity
  8
0
100
AcDbBlockBegin
  2
*MODEL_SPACE
 70
     0
 10
0.0
 20
0.0
 30
0.0
  3
*MODEL_SPACE
  1

  0
ENDBLK
  5
20
330
1E
100
AcDbEntity
  8
0
100
AcDbBlockEnd
  0
BLOCK
  5
1B
330
1A
100
AcDbEntity
 67
     1
  8
0
100
AcDbBlockBegin
  2
*PAPER_SPACE
 70
     0
 10
0.0
 20
0.0
 30
0.0
  3
*PAPER_SPACE
  1

  0
ENDBLK
  5
1C
330
1A
100
AcDbEntity
 67
     1
  8
0
100
AcDbBlockEnd
  0
BLOCK
  5
32
330
31
100
AcDbEntity
  8
0
100
AcDbBlockBegin
  2
_FILLED
 70
     0
 10
0.0
 20
0.0
 30
0.0
  3
_FILLED
  1

  0
SOLID
  5
33
330
31
100
AcDbEntity
  8
0
  6
ByBlock
 62
     0
100
AcDbTrace
 10
0.0
 20
0.0
 30
0.0
 11
-1.0
 21
0.132
 31
0.0
 12
-1.0
 22
-0.132
 32
0.0
 13
-1.0
 23
-0.132
 33
0.0
  0
ENDBLK
  5
34
330
31
100
AcDbEntity
  8
0
100
AcDbBlockEnd
  0
BLOCK
  5
1799
330
178F
100
AcDbEntity
  8
0
100
AcDbBlockBegin
  2
*D1
 70
     1
 10
0.0
 20
0.0
 30
0.0
  3
*D1
  1

  0
LINE
  5
11292
330
178F
100
AcDbEntity
  8
SK2
370
    -2
100
AcDbLine
 10
28.19492321960002
 20
133.4999999999999
 30
0.0
 11
-46.31986301556838
 21
133.4999999999999
 31
0.0
  0
LINE
  5
11293
330
178F
100
AcDbEntity
  8
SK2
370
    -2
100
AcDbLine
 10
27.02293380729998
 20
-133.4999999999999
 30
0.0
 11
-46.31986301556843
 21
-133.4999999999999
 31
0.0
  0
LINE
  5
11294
330
178F
100
AcDbEntity
  8
SK2
370
    -2
100
AcDbLine
 10
-45.06986301556838
 20
129.9999999999999
 30
0.0
 11
-45.06986301556843
 21
-129.9999999999999
 31
0.0
  0
SOLID
  5
11295
330
178F
100
AcDbEntity
  8
SK2
100
AcDbTrace
 10
-45.65319634890172
 20
129.9999999999999
 30
0.0
 11
-44.48652968223504
 21
129.9999999999999
 31
0.0
 12
-45.06986301556838
 22
133.4999999999999
 32
0.0
 13
-45.06986301556838
 23
133.4999999999999
 33
0.0
  0
SOLID
  5
11296
330
178F
100
AcDbEntity
  8
SK2
100
AcDbTrace
 10
-45.65319634890178
 20
-129.9999999999999
 30
0.0
 11
-44.48652968223511
 21
-129.9999999999999
 31
0.0
 12
-45.06986301556843
 22
-133.4999999999999
 32
0.0
 13
-45.06986301556843
 23
-133.4999999999999
 33
0.0
  0
MTEXT
  5
11297
330
178F
100
AcDbEntity
  8
SK2
100
AcDbMText
 10
-47.44486301556841
 20
-0.0388769156731938
 30
0.0
 40
3.5
 41
0.0
 71
     5
 72
     1
  1
%%c267
 11
0.0000000000000001
 21
1.0
 31
0.0
 73
     1
 44
1.0
1001
ACAD
1000
MTEXTBEGIN
1070
    73
1070
     1
1070
    44
1040
1.0
1070
    74
1070
     0
1000
MTEXTEND
  0
POINT
  5
11298
330
178F
100
AcDbEntity
  8
DEFPOINTS
 62
     0
100
AcDbPoint
 10
28.81992321960002
 20
133.4999999999999
 30
0.0
  0
POINT
  5
11299
330
178F
100
AcDbEntity
  8
DEFPOINTS
 62
     0
100
AcDbPoint
 10
27.64793380729998
 20
-133.4999999999999
 30
0.0
  0
POINT
  5
1129A
330
178F
100
AcDbEntity
  8
DEFPOINTS
 62
     0
100
AcDbPoint
 10
-45.06986301556843
 20
-133.4999999999999
 30
0.0
  0
ENDBLK
  5
179A
330
178F
100
AcDbEntity
  8
0
100
AcDbBlockEnd
  0
BLOCK
  5
17A5
330
179B
100
AcDbEntity
  8
0
100
AcDbBlockBegin
  2
*D2
 70
     1
 10
0.0
 20
0.0
 30
0.0
  3
*D2
  1

  0
LINE
  5
1129B
330
179B
100
AcDbEntity
  8
SK2
370
    -2
100
AcDbLine
 10
-1.124999999999985
 20
110.0
 30
0.0
 11
-36.3141508694443
 21
110.0
 31
0.0
  0
LINE
  5
1129C
330
179B
100
AcDbEntity
  8
SK2
370
    -2
100
AcDbLine
 10
-1.125000000000012
 20
-110.0
 30
0.0
 11
-36.31415086944434
 21
-109.9999999999999
 31
0.0
  0
LINE
  5
1129D
330
179B
100
AcDbEntity
  8
SK2
370
    -2
100
AcDbLine
 10
-35.0641508694443
 20
106.5
 30
0.0
 11
-35.06415086944434
 21
-106.4999999999999
 31
0.0
  0
SOLID
  5
1129E
330
179B
100
AcDbEntity
  8
SK2
100
AcDbTrace
 10
-35.64748420277764
 20
106.5
 30
0.0
 11
-34.48081753611097
 21
106.5
 31
0.0
 12
-35.0641508694443
 22
110.0
 32
0.0
 13
-35.0641508694443
 23
110.0
 33
0.0
  0
SOLID
  5
1129F
330
179B
100
AcDbEntity
  8
SK2
100
AcDbTrace
 10
-35.64748420277768
 20
-106.4999999999999
 30
0.0
 11
-34.48081753611101
 21
-106.4999999999999
 31
0.0
 12
-35.06415086944434
 22
-109.9999999999999
 32
0.0
 13
-35.06415086944434
 23
-109.9999999999999
 33
0.0
  0
MTEXT
  5
112A0
330
179B
100
AcDbEntity
  8
SK2
100
AcDbMText
 10
-37.43915086944433
 20
0.2658354629950327
 30
0.0
 40
3.5
 41
0.0
 71
     5
 72
     1
  1
%%c220
 11
0.0000000000000001
 21
1.0
 31
0.0
 73
     1
 44
1.0
1001
ACAD
1000
MTEXTBEGIN
1070
    73
1070
     1
1070
    44
1040
1.0
1070
    74
1070
     0
1000
MTEXTEND
  0
POINT
  5
112A1
330
179B
100
AcDbEntity
  8
DEFPOINTS
 62
     0
100
AcDbPoint
 10
-0.4999999999999865
 20
110.0
 30
0.0
  0
POINT
  5
112A2
330
179B
100
AcDbEntity
  8
DEFPOINTS
 62
     0
100
AcDbPoint
 10
-0.5000000000000135
 20
-110.0
 30
0.0
  0
POINT
  5
112A3
330
179B
100
AcDbEntity
  8
DEFPOINTS
 62
     0
100
AcDbPoint
 10
-35.06415086944434
 20
-109.9999999999999
 30
0.0
  0
ENDBLK
  5
17A6
330
179B
100
AcDbEntity
  8
0
100
AcDbBlockEnd
  0
BLOCK
  5
17B1
330
17A7
100
AcDbEntity
  8
0
100
AcDbBlockBegin
  2
*D3
 70
     1
 10
0.0
 20
0.0
 30
0.0
  3
*D3
  1

  0
LINE
  5
11280
330
17A7
100
AcDbEntity
  8
SK2
370
    -2
100
AcDbLine
 10
-3.734516522500004
 20
-50.8
 30
0.0
 11
-26.31253870867204
 21
-50.79999999999999
 31
0.0
  0
LINE
  5
11281
330
17A7
100
AcDbEntity
  8
SK2
370
    -2
100
AcDbLine
 10
-5.14623330369999
 20
50.7999999999999
 30
0.0
 11
-26.31253870867202
 21
50.79999999999991
 31
0.0
  0
LINE
  5
11282
330
17A7
100
AcDbEntity
  8
SK2
370
    -2
100
AcDbLine
 10
-25.06253870867204
 20
-47.29999999999999
 30
0.0
 11
-25.06253870867202
 21
47.29999999999989
 31
0.0
  0
SOLID
  5
11283
330
17A7
100
AcDbEntity
  8
SK2
100
AcDbTrace
 10
-25.64587204200537
 20
-47.29999999999999
 30
0.0
 11
-24.47920537533871
 21
-47.29999999999999
 31
0.0
 12
-25.06253870867204
 22
-50.79999999999999
 32
0.0
 13
-25.06253870867204
 23
-50.79999999999999
 33
0.0
  0
SOLID
  5
11284
330
17A7
100
AcDbEntity
  8
SK2
100
AcDbTrace
 10
-25.64587204200535
 20
47.29999999999989
 30
0.0
 11
-24.4792053753387
 21
47.29999999999989
 31
0.0
 12
-25.06253870867202
 22
50.79999999999991
 32
0.0
 13
-25.06253870867202
 23
50.79999999999991
 33
0.0
  0
MTEXT
  5
11285
330
17A7
100
AcDbEntity
  8
SK2
100
AcDbMText
 10
-27.43753870867204
 20
0.5705478416632594
 30
0.0
 40
3.5
 41
0.0
 71
     5
 72
     1
  1
%%c101.6
 11
0.0000000000000001
 21
1.0
 31
0.0
 73
     1
 44
1.0
1001
ACAD
1000
MTEXTBEGIN
1070
    73
1070
     1
1070
    44
1040
1.0
1070
    74
1070
     0
1000
MTEXTEND
  0
POINT
  5
11286
330
17A7
100
AcDbEntity
  8
DEFPOINTS
 62
     0
100
AcDbPoint
 10
-3.109516522500004
 20
-50.8
 30
0.0
  0
POINT
  5
11287
330
17A7
100
AcDbEntity
  8
DEFPOINTS
 62
     0
100
AcDbPoint
 10
-4.52123330369999
 20
50.7999999999999
 30
0.0
  0
POINT
  5
11288
330
17A7
100
AcDbEntity
  8
DEFPOINTS
 62
     0
100
AcDbPoint
 10
-25.06253870867202
 20
50.79999999999991
 30
0.0
  0
ENDBLK
  5
17B2
330
17A7
100
AcDbEntity
  8
0
100
AcDbBlockEnd
  0
BLOCK
  5
17BD
330
17B3
100
AcDbEntity
  8
0
100
AcDbBlockBegin
  2
*D4
 70
     1
 10
0.0
 20
0.0
 30
0.0
  3
*D4
  1

  0
LINE
  5
11289
330
17B3
100
AcDbEntity
  8
SK2
370
    -2
100
AcDbLine
 10
-2.119773545399985
 20
30.0
 30
0.0
 11
-16.28468124693196
 21
30.0
 31
0.0
  0
LINE
  5
1128A
330
17B3
100
AcDbEntity
  8
SK2
370
    -2
100
AcDbLine
 10
-0.6250000000000037
 20
-30.0
 30
0.0
 11
-16.28468124693197
 21
-30.0
 31
0.0
  0
LINE
  5
1128B
330
17B3
100
AcDbEntity
  8
SK2
370
    -2
100
AcDbLine
 10
-15.03468124693196
 20
26.5
 30
0.0
 11
-15.03468124693197
 21
-26.49999999999999
 31
0.0
  0
SOLID
  5
1128C
330
17B3
100
AcDbEntity
  8
SK2
100
AcDbTrace
 10
-15.6180145802653
 20
26.5
 30
0.0
 11
-14.45134791359863
 21
26.5
 31
0.0
 12
-15.03468124693196
 22
30.0
 32
0.0
 13
-15.03468124693196
 23
30.0
 33
0.0
  0
SOLID
  5
1128D
330
17B3
100
AcDbEntity
  8
SK2
100
AcDbTrace
 10
-15.61801458026531
 20
-26.49999999999999
 30
0.0
 11
-14.45134791359864
 21
-26.49999999999999
 31
0.0
 12
-15.03468124693197
 22
-30.0
 32
0.0
 13
-15.03468124693197
 23
-30.0
 33
0.0
  0
MTEXT
  5
1128E
330
17B3
100
AcDbEntity
  8
SK2
100
AcDbMText
 10
-17.40968124693197
 20
0.0626933116172972
 30
0.0
 40
3.5
 41
0.0
 71
     5
 72
     1
  1
%%c60
 11
0.0000000000000001
 21
1.0
 31
0.0
 73
     1
 44
1.0
1001
ACAD
1000
MTEXTBEGIN
1070
    73
1070
     1
1070
    44
1040
1.0
1070
    74
1070
     0
1000
MTEXTEND
  0
POINT
  5
1128F
330
17B3
100
AcDbEntity
  8
DEFPOINTS
 62
     0
100
AcDbPoint
 10
-1.494773545399985
 20
30.0
 30
0.0
  0
POINT
  5
11290
330
17B3
100
AcDbEntity
  8
DEFPOINTS
 62
     0
100
AcDbPoint
 10
-0.0000000000000037
 20
-30.0
 30
0.0
  0
POINT
  5
11291
330
17B3
100
AcDbEntity
  8
DEFPOINTS
 62
     0
100
AcDbPoint
 10
-15.03468124693197
 20
-30.0
 30
0.0
  0
ENDBLK
  5
17BE
330
17B3
100
AcDbEntity
  8
0
100
AcDbBlockEnd
  0
BLOCK
  5
17C9
330
17BF
100
AcDbEntity
  8
0
100
AcDbBlockBegin
  2
*D5
 70
     1
 10
0.0
 20
0.0
 30
0.0
  3
*D5
  1

  0
LINE
  5
1124F
330
17BF
100
AcDbEntity
  8
2
370
    -2
100
AcDbLine
 10
64.125
 20
124.9999999999999
 30
0.0
 11
88.23611201425189
 21
124.9999999999999
 31
0.0
  0
LINE
  5
11250
330
17BF
100
AcDbEntity
  8
2
370
    -2
100
AcDbLine
 10
64.12499999999997
 20
-125.0
 30
0.0
 11
88.2361120142518
 21
-125.0
 31
0.0
  0
LINE
  5
11251
330
17BF
100
AcDbEntity
  8
2
370
    -2
100
AcDbLine
 10
86.98611201425189
 20
121.4999999999998
 30
0.0
 11
86.9861120142518
 21
-121.5
 31
0.0
  0
SOLID
  5
11252
330
17BF
100
AcDbEntity
  8
2
100
AcDbTrace
 10
86.40277868091855
 20
121.4999999999998
 30
0.0
 11
87.5694453475852
 21
121.4999999999998
 31
0.0
 12
86.98611201425189
 22
124.9999999999999
 32
0.0
 13
86.98611201425189
 23
124.9999999999999
 33
0.0
  0
SOLID
  5
11253
330
17BF
100
AcDbEntity
  8
2
100
AcDbTrace
 10
86.40277868091848
 20
-121.5
 30
0.0
 11
87.56944534758515
 21
-121.5
 31
0.0
 12
86.9861120142518
 22
-125.0
 32
0.0
 13
86.9861120142518
 23
-125.0
 33
0.0
  0
MTEXT
  5
11254
330
17BF
100
AcDbEntity
  8
2
100
AcDbMText
 10
84.61111201425184
 20
0.2910057395006229
 30
0.0
 40
3.5
 41
0.0
 71
     5
 72
     1
  1
%%c250
 11
0.0000000000000001
 21
1.0
 31
0.0
 73
     1
 44
1.0
1001
ACAD
1000
MTEXTBEGIN
1070
    73
1070
     1
1070
    44
1040
1.0
1070
    74
1070
     0
1000
MTEXTEND
  0
POINT
  5
11255
330
17BF
100
AcDbEntity
  8
DEFPOINTS
 62
     0
100
AcDbPoint
 10
63.50000000000001
 20
124.9999999999999
 30
0.0
  0
POINT
  5
11256
330
17BF
100
AcDbEntity
  8
DEFPOINTS
 62
     0
100
AcDbPoint
 10
63.49999999999997
 20
-125.0
 30
0.0
  0
POINT
  5
11257
330
17BF
100
AcDbEntity
  8
DEFPOINTS
 62
     0
100
AcDbPoint
 10
86.9861120142518
 20
-125.0
 30
0.0
  0
ENDBLK
  5
17CA
330
17BF
100
AcDbEntity
  8
0
100
AcDbBlockEnd
  0
BLOCK
  5
17D5
330
17CB
100
AcDbEntity
  8
0
100
AcDbBlockBegin
  2
*D6
 70
     1
 10
0.0
 20
0.0
 30
0.0
  3
*D6
  1

  0
LINE
  5
11277
330
17CB
100
AcDbEntity
  8
2
370
    -2
100
AcDbLine
 10
64.1875
 20
-125.0
 30
0.0
 11
79.23420575539373
 21
-125.0
 31
0.0
  0
LINE
  5
11278
330
17CB
100
AcDbEntity
  8
2
370
    -2
100
AcDbLine
 10
64.18749999999999
 20
-109.5409365767989
 30
0.0
 11
79.23420575539373
 21
-109.5409365767989
 31
0.0
  0
LINE
  5
11279
330
17CB
100
AcDbEntity
  8
2
370
    -2
100
AcDbLine
 10
77.98420575539373
 20
-121.5
 30
0.0
 11
77.98420575539373
 21
-113.0409365767989
 31
0.0
  0
SOLID
  5
1127A
330
17CB
100
AcDbEntity
  8
2
100
AcDbTrace
 10
77.4008724220604
 20
-121.5
 30
0.0
 11
78.56753908872706
 21
-121.5
 31
0.0
 12
77.98420575539373
 22
-125.0
 32
0.0
 13
77.98420575539373
 23
-125.0
 33
0.0
  0
SOLID
  5
1127B
330
17CB
100
AcDbEntity
  8
2
100
AcDbTrace
 10
77.4008724220604
 20
-113.0409365767989
 30
0.0
 11
78.56753908872706
 21
-113.0409365767989
 31
0.0
 12
77.98420575539373
 22
-109.5409365767989
 32
0.0
 13
77.98420575539373
 23
-109.5409365767989
 33
0.0
  0
MTEXT
  5
1127C
330
17CB
100
AcDbEntity
  8
2
100
AcDbMText
 10
75.60920575539373
 20
-117.2704682883994
 30
0.0
 40
3.5
 41
0.0
 71
     5
 72
     1
  1
15
 11
0.0000000000000001
 21
1.0
 31
0.0
 73
     1
 44
1.0
1001
ACAD
1000
MTEXTBEGIN
1070
    73
1070
     1
1070
    44
1040
1.0
1070
    74
1070
     0
1000
MTEXTEND
  0
POINT
  5
1127D
330
17CB
100
AcDbEntity
  8
DEFPOINTS
 62
     0
100
AcDbPoint
 10
63.56249999999999
 20
-125.0
 30
0.0
  0
POINT
  5
1127E
330
17CB
100
AcDbEntity
  8
DEFPOINTS
 62
     0
100
AcDbPoint
 10
63.56249999999999
 20
-109.5409365767989
 30
0.0
  0
POINT
  5
1127F
330
17CB
100
AcDbEntity
  8
DEFPOINTS
 62
     0
100
AcDbPoint
 10
77.98420575539373
 20
-109.5409365767989
 30
0.0
  0
ENDBLK
  5
17D6
330
17CB
100
AcDbEntity
  8
0
100
AcDbBlockEnd
  0
BLOCK
  5
17E1
330
17D7
100
AcDbEntity
  8
0
100
AcDbBlockBegin
  2
*D7
 70
     1
 10
0.0
 20
0.0
 30
0.0
  3
*D7
  1

  0
LINE
  5
1126E
330
17D7
100
AcDbEntity
  8
2
370
    -2
100
AcDbLine
 10
-0.0000000000000133
 20
-109.525
 30
0.0
 11
-0.0000000000000165
 21
-161.7006288037026
 31
0.0
  0
LINE
  5
1126F
330
17D7
100
AcDbEntity
  8
2
370
    -2
100
AcDbLine
 10
62.99999999999998
 20
-126.1249999999999
 30
0.0
 11
62.99999999999998
 21
-161.7006288037026
 31
0.0
  0
LINE
  5
11270
330
17D7
100
AcDbEntity
  8
2
370
    -2
100
AcDbLine
 10
3.499999999999982
 20
-160.4506288037026
 30
0.0
 11
59.49999999999998
 21
-160.4506288037026
 31
0.0
  0
SOLID
  5
11271
330
17D7
100
AcDbEntity
  8
2
100
AcDbTrace
 10
3.499999999999982
 20
-159.8672954703692
 30
0.0
 11
3.499999999999982
 21
-161.0339621370359
 31
0.0
 12
-0.0000000000000165
 22
-160.4506288037026
 32
0.0
 13
-0.0000000000000165
 23
-160.4506288037026
 33
0.0
  0
SOLID
  5
11272
330
17D7
100
AcDbEntity
  8
2
100
AcDbTrace
 10
59.49999999999998
 20
-159.8672954703692
 30
0.0
 11
59.49999999999998
 21
-161.0339621370359
 31
0.0
 12
62.99999999999998
 22
-160.4506288037026
 32
0.0
 13
62.99999999999998
 23
-160.4506288037026
 33
0.0
  0
MTEXT
  5
11273
330
17D7
100
AcDbEntity
  8
2
100
AcDbMText
 10
31.86835225249998
 20
-158.0756288037026
 30
0.0
 40
3.5
 41
0.0
 71
     5
 72
     1
  1
63
 73
     1
 44
1.0
1001
ACAD
1000
MTEXTBEGIN
1070
    73
1070
     1
1070
    44
1040
1.0
1070
    74
1070
     0
1000
MTEXTEND
  0
POINT
  5
11274
330
17D7
100
AcDbEntity
  8
DEFPOINTS
 62
     0
100
AcDbPoint
 10
-0.0000000000000133
 20
-108.9
 30
0.0
  0
POINT
  5
11275
330
17D7
100
AcDbEntity
  8
DEFPOINTS
 62
     0
100
AcDbPoint
 10
62.99999999999998
 20
-125.5
 30
0.0
  0
POINT
  5
11276
330
17D7
100
AcDbEntity
  8
DEFPOINTS
 62
     0
100
AcDbPoint
 10
62.99999999999998
 20
-160.4506288037026
 30
0.0
  0
ENDBLK
  5
17E2
330
17D7
100
AcDbEntity
  8
0
100
AcDbBlockEnd
  0
BLOCK
  5
17EF
330
17E3
100
AcDbEntity
  8
0
100
AcDbBlockBegin
  2
*D8
 70
     1
 10
0.0
 20
0.0
 30
0.0
  3
*D8
  1

  0
LINE
  5
11263
330
17E3
100
AcDbEntity
  8
2
370
    -2
100
AcDbLine
 10
45.54196801892699
 20
-135.0015641306437
 30
0.0
 11
39.81491140886387
 21
-138.2818216085937
 31
0.0
  0
LINE
  5
11264
330
17E3
100
AcDbEntity
  8
2
370
    -2
100
AcDbLine
 10
62.94999999999998
 20
-148.8091233409999
 30
0.0
 11
62.94999999999998
 21
-151.6920700241964
 31
0.0
  0
ARC
  5
11265
330
17E3
100
AcDbEntity
  8
2
370
    -2
100
AcDbCircle
 10
62.94999999999999
 20
-125.0308530009563
 30
0.0
 40
25.41121702324008
100
AcDbArc
 50
217.700424535122
 51
262.1021460615638
  0
SOLID
  5
11266
330
17E3
100
AcDbEntity
  8
2
100
AcDbTrace
 10
42.35914676233549
 20
-140.894743623156
 30
0.0
 11
43.32917770163265
 21
-140.2465529969376
 31
0.0
 12
40.89959035332887
 22
-137.6605554921553
 32
0.0
 13
40.89959035332887
 23
-137.6605554921553
 33
0.0
  0
SOLID
  5
11267
330
17E3
100
AcDbEntity
  8
2
100
AcDbTrace
 10
59.49848212775631
 20
-149.6190863333736
 30
0.0
 11
59.41813703193506
 21
-150.7829831400917
 31
0.0
 12
62.94999999999998
 22
-150.4420700241964
 32
0.0
 13
62.94999999999998
 23
-150.4420700241964
 33
0.0
  0
MTEXT
  5
11268
330
17E3
100
AcDbEntity
  8
2
100
AcDbMText
 10
51.39753690155711
 20
-144.9609280409789
 30
0.0
 40
3.5
 41
0.0
 71
     5
 72
     1
  1
60° EFF.
 11
0.8651626705858932
 21
-0.5014913293614211
 31
0.0
 73
     1
 44
1.0
1001
ACAD
1000
MTEXTBEGIN
1070
    73
1070
     1
1070
    44
1040
1.0
1070
    74
1070
     0
1000
MTEXTEND
  0
POINT
  5
11269
330
17E3
100
AcDbEntity
  8
DEFPOINTS
 62
     0
100
AcDbPoint
 10
46.57131020254346
 20
-144.4594008396625
 30
0.0
  0
POINT
  5
1126A
330
17E3
100
AcDbEntity
  8
DEFPOINTS
 62
     0
100
AcDbPoint
 10
62.94999999999999
 20
-148.1841233409999
 30
0.0
  0
POINT
  5
1126B
330
17E3
100
AcDbEntity
  8
DEFPOINTS
 62
     0
100
AcDbPoint
 10
62.51698729809999
 20
-125.2788675135
 30
0.0
  0
POINT
  5
1126C
330
17E3
100
AcDbEntity
  8
DEFPOINTS
 62
     0
100
AcDbPoint
 10
46.08430749115949
 20
-134.6909310724246
 30
0.0
  0
POINT
  5
1126D
330
17E3
100
AcDbEntity
  8
DEFPOINTS
 62
     0
100
AcDbPoint
 10
62.94999999999999
 20
-125.5288675135
 30
0.0
  0
ENDBLK
  5
17F0
330
17E3
100
AcDbEntity
  8
0
100
AcDbBlockEnd
  0
BLOCK
  5
17FD
330
17F1
100
AcDbEntity
  8
0
100
AcDbBlockBegin
  2
*D9
 70
     1
 10
0.0
 20
0.0
 30
0.0
  3
*D9
  1

  0
LINE
  5
11258
330
17F1
100
AcDbEntity
  8
2
370
    -2
100
AcDbLine
 10
62.99999999999998
 20
-126.1874999999998
 30
0.0
 11
62.99999999999998
 21
-141.3099142136618
 31
0.0
  0
LINE
  5
11259
330
17F1
100
AcDbEntity
  8
2
370
    -2
100
AcDbLine
 10
60.99908214684957
 20
-126.1874999999998
 30
0.0
 11
60.99908214684957
 21
-141.3099142136618
 31
0.0
  0
LINE
  5
1125A
330
17F1
100
AcDbEntity
  8
2
370
    -2
100
AcDbLine
 10
66.49999999999997
 20
-140.0599142136619
 30
0.0
 11
69.99999999999997
 21
-140.0599142136619
 31
0.0
  0
LINE
  5
1125B
330
17F1
100
AcDbEntity
  8
2
370
    -2
100
AcDbLine
 10
57.49908214684957
 20
-140.0599142136619
 30
0.0
 11
50.88241548018291
 21
-140.0599142136619
 31
0.0
  0
LINE
  5
1125C
330
17F1
100
AcDbEntity
  8
2
370
    -2
100
AcDbLine
 10
62.99999999999998
 20
-140.0599142136619
 30
0.0
 11
60.99908214684957
 21
-140.0599142136619
 31
0.0
  0
SOLID
  5
1125D
330
17F1
100
AcDbEntity
  8
2
100
AcDbTrace
 10
66.49999999999997
 20
-139.4765808803285
 30
0.0
 11
66.49999999999997
 21
-140.6432475469952
 31
0.0
 12
62.99999999999998
 22
-140.0599142136619
 32
0.0
 13
62.99999999999998
 23
-140.0599142136619
 33
0.0
  0
SOLID
  5
1125E
330
17F1
100
AcDbEntity
  8
2
100
AcDbTrace
 10
57.49908214684957
 20
-139.4765808803285
 30
0.0
 11
57.49908214684957
 21
-140.6432475469952
 31
0.0
 12
60.99908214684957
 22
-140.0599142136619
 32
0.0
 13
60.99908214684957
 23
-140.0599142136619
 33
0.0
  0
MTEXT
  5
1125F
330
17F1
100
AcDbEntity
  8
2
100
AcDbMText
 10
52.44074881351624
 20
-137.6849142136618
 30
0.0
 40
3.5
 41
0.0
 71
     5
 72
     1
  1
2
 73
     1
 44
1.0
1001
ACAD
1000
MTEXTBEGIN
1070
    73
1070
     1
1070
    44
1040
1.0
1070
    74
1070
     0
1000
MTEXTEND
  0
POINT
  5
11260
330
17F1
100
AcDbEntity
  8
DEFPOINTS
 62
     0
100
AcDbPoint
 10
62.99999999999998
 20
-125.5624999999999
 30
0.0
  0
POINT
  5
11261
330
17F1
100
AcDbEntity
  8
DEFPOINTS
 62
     0
100
AcDbPoint
 10
60.99908214684957
 20
-125.5624999999999
 30
0.0
  0
POINT
  5
11262
330
17F1
100
AcDbEntity
  8
DEFPOINTS
 62
     0
100
AcDbPoint
 10
60.99908214684957
 20
-140.0599142136619
 30
0.0
  0
ENDBLK
  5
17FE
330
17F1
100
AcDbEntity
  8
0
100
AcDbBlockEnd
  0
ENDSEC
  0
SECTION
  2
ENTITIES
  0
DIMENSION
  5
CA
330
1E
100
AcDbEntity
  8
2
100
AcDbDimension
  2
*D5
 10
86.9861120142518
 20
-125.0
 30
0.0
 11
86.98611201425185
 21
0.2910057395006226
 31
0.0
 70
   160
  1
%%c<>
 71
     5
 42
249.9999999999999
  3
ISO-25
100
AcDbAlignedDimension
 13
63.50000000000001
 23
124.9999999999999
 33
0.0
 14
63.49999999999997
 24
-125.0
 34
0.0
 50
270.0
100
AcDbRotatedDimension
  0
DIMENSION
  5
CB
330
1E
100
AcDbEntity
  8
2
100
AcDbDimension
  2
*D7
 10
62.99999999999998
 20
-160.4506288037026
 30
0.0
 11
31.86835225249998
 21
-160.4506288037026
 31
0.0
 70
   160
 71
     5
 42
62.99999999999999
  3
ISO-25
100
AcDbAlignedDimension
 13
-0.0000000000000133
 23
-108.9
 33
0.0
 14
62.99999999999998
 24
-125.5
 34
0.0
100
AcDbRotatedDimension
  0
DIMENSION
  5
CC
330
1E
100
AcDbEntity
  8
2
100
AcDbDimension
  2
*D8
 10
62.94999999999999
 20
-125.5288675135
 30
0.0
 11
51.39753690155712
 21
-144.960928040979
 31
0.0
 70
    34
  1
<> EFF.
 71
     5
 42
1.050643344324676
  3
ISO-25
100
AcDb2LineAngularDimension
 13
62.51698729809999
 23
-125.2788675135
 33
0.0
 14
46.08430749115949
 24
-134.6909310724246
 34
0.0
 15
62.94999999999998
 25
-148.1841233409999
 35
0.0
 16
46.57131020254346
 26
-144.4594008396625
 36
0.0
1001
ACAD
1000
DSTYLE
1002
{
1070
   271
1070
     0
1002
}
  0
DIMENSION
  5
CD
330
1E
100
AcDbEntity
  8
SK2
100
AcDbDimension
  2
*D2
 10
-35.06415086944434
 20
-109.9999999999999
 30
0.0
 11
-35.06415086944433
 21
0.2658354629950324
 31
0.0
 70
   160
  1
%%c<>
 71
     5
 42
220.0
  3
ISO-25
100
AcDbAlignedDimension
 13
-0.4999999999999865
 23
110.0
 33
0.0
 14
-0.5000000000000135
 24
-110.0
 34
0.0
 50
270.0
100
AcDbRotatedDimension
  0
DIMENSION
  5
CE
330
1E
100
AcDbEntity
  8
SK2
100
AcDbDimension
  2
*D1
 10
-45.06986301556843
 20
-133.4999999999999
 30
0.0
 11
-45.06986301556842
 21
-0.0388769156731941
 31
0.0
 70
   160
  1
%%c<>
 71
     5
 42
266.9999999999998
  3
ISO-25
100
AcDbAlignedDimension
 13
28.81992321960002
 23
133.4999999999999
 33
0.0
 14
27.64793380729998
 24
-133.4999999999999
 34
0.0
 50
270.0
100
AcDbRotatedDimension
  0
DIMENSION
  5
CF
330
1E
100
AcDbEntity
  8
SK2
100
AcDbDimension
  2
*D4
 10
-15.03468124693197
 20
-30.0
 30
0.0
 11
-15.03468124693197
 21
0.0626933116172969
 31
0.0
 70
   160
  1
%%c<>
 71
     5
 42
60.0
  3
ISO-25
100
AcDbAlignedDimension
 13
-1.494773545399985
 23
30.0
 33
0.0
 14
-0.0000000000000037
 24
-30.0
 34
0.0
 50
270.0
100
AcDbRotatedDimension
  0
DIMENSION
  5
D0
330
1E
100
AcDbEntity
  8
SK2
100
AcDbDimension
  2
*D3
 10
-25.06253870867202
 20
50.79999999999991
 30
0.0
 11
-25.06253870867203
 21
0.570547841663259
 31
0.0
 70
   160
  1
%%c<>
 71
     5
 42
101.5999999999998
  3
ISO-25
100
AcDbAlignedDimension
 13
-3.109516522500004
 23
-50.8
 33
0.0
 14
-4.52123330369999
 24
50.7999999999999
 34
0.0
 50
89.99999999999998
100
AcDbRotatedDimension
  0
LINE
  5
D1
330
1E
100
AcDbEntity
  8
1
100
AcDbLine
 10
36.5337347874
 20
133.4999999999999
 30
0.0
 11
32.07106781190001
 21
133.4999999999999
 31
0.0
  0
LINE
  5
D2
330
1E
100
AcDbEntity
  8
1
100
AcDbLine
 10
62.91161431979997
 20
-125.1057536428
 30
0.0
 11
56.17146801399997
 21
-128.9908067665999
 31
0.0
  0
LINE
  5
D3
330
1E
100
AcDbEntity
  8
1
100
AcDbLine
 10
55.47694767909998
 20
-128.5826011928
 30
0.0
 11
47.17397787779995
 21
-133.3684733831
 31
0.0
  0
LINE
  5
D4
330
1E
100
AcDbEntity
  8
1
100
AcDbLine
 10
62.30467595069998
 20
-124.12089228
 30
0.0
 11
55.56452964479998
 21
-128.0059454039
 31
0.0
  0
LINE
  5
D5
330
1E
100
AcDbEntity
  8
1
100
AcDbLine
 10
46.65071747669997
 20
-132.5193938424999
 30
0.0
 11
47.06985055279996
 21
-132.2778034982997
 31
0.0
  0
LINE
  5
D6
330
1E
100
AcDbEntity
  8
1
100
AcDbLine
 10
62.91161431979999
 20
125.1057536427
 30
0.0
 11
56.171468014
 21
128.9908067665999
 31
0.0
  0
LINE
  5
D7
330
1E
100
AcDbEntity
  8
1
100
AcDbLine
 10
55.46903163399999
 20
128.5871640395999
 30
0.0
 11
47.1739778778
 21
133.3684733831
 31
0.0
  0
LINE
  5
D8
330
1E
100
AcDbEntity
  8
1
100
AcDbLine
 10
62.04423054500001
 20
120.8876232580998
 30
0.0
 11
61.79999999999999
 21
121.0283989324999
 31
0.0
  0
LINE
  5
D9
330
1E
100
AcDbEntity
  8
1
100
AcDbLine
 10
61.82700338460001
 20
120.0640355551995
 30
0.0
 11
61.80168397350001
 21
120.0786297869999
 31
0.0
  0
LINE
  5
DA
330
1E
100
AcDbEntity
  8
1
100
AcDbLine
 10
10.0
 20
110.0
 30
0.0
 11
1.600000000000002
 21
110.0
 31
0.0
  0
LINE
  5
DB
330
1E
100
AcDbEntity
  8
SK3
100
AcDbLine
 10
0.4999999968000074
 20
59.79999999999989
 30
0.0
 11
31.5000000032
 21
59.79999999999989
 31
0.0
  0
LINE
  5
DC
330
1E
100
AcDbEntity
  8
SK4
100
AcDbLine
 10
34.5000032783
 20
50.7999999999999
 30
0.0
 11
-2.50000327829999
 21
50.7999999999999
 31
0.0
  0
LINE
  5
DD
330
1E
100
AcDbEntity
  8
1
100
AcDbLine
 10
62.0296065542
 20
-86.70403077899997
 30
0.0
 11
62.98857247559999
 21
-80.6009751722
 31
0.0
  0
LINE
  5
DE
330
1E
100
AcDbEntity
  8
1
100
AcDbLine
 10
62.02939391179999
 20
-76.98881952010001
 30
0.0
 11
62.9883598332
 21
-70.88576391330002
 31
0.0
  0
LINE
  5
DF
330
1E
100
AcDbEntity
  8
1
100
AcDbLine
 10
60.456840298
 20
-24.6794445035
 30
0.0
 11
59.508499111
 21
-25.2827785545001
 31
0.0
  0
LINE
  5
E0
330
1E
100
AcDbEntity
  8
SK3
100
AcDbLine
 10
0.4999999968000052
 20
41.79999999999989
 30
0.0
 11
31.5000000032
 21
41.79999999999988
 31
0.0
  0
LINE
  5
E1
330
1E
100
AcDbEntity
  8
1
100
AcDbLine
 10
62.0293939118
 20
-18.7753952467
 30
0.0
 11
62.9883598332
 21
-28.0480975078
 31
0.0
  0
LINE
  5
E2
330
1E
100
AcDbEntity
  8
1
100
AcDbLine
 10
62.0296065542
 20
-23.86889008219998
 30
0.0
 11
62.98857247559999
 21
-33.1415923434001
 31
0.0
  0
LINE
  5
E3
330
1E
100
AcDbEntity
  8
1
100
AcDbLine
 10
62.30467595069999
 20
-1.168078394300045
 30
0.0
 11
62.91161431979999
 21
-12.4343573526
 31
0.0
  0
LINE
  5
E4
330
1E
100
AcDbEntity
  8
1
100
AcDbLine
 10
62.91161431979997
 20
-125.1057536428
 30
0.0
 11
62.8894362673
 21
-124.1951675412
 31
0.0
  0
LINE
  5
E5
330
1E
100
AcDbEntity
  8
1
100
AcDbLine
 10
61.79999999999999
 20
-1.096018536100024
 30
0.0
 11
61.79999999999999
 21
123.3002570746998
 31
0.0
  0
LINE
  5
E6
330
1E
100
AcDbEntity
  8
1
100
AcDbLine
 10
61.79999999999999
 20
-12.2756361569
 30
0.0
 11
61.79999999999999
 21
-23.65154203529998
 31
0.0
  0
LINE
  5
E7
330
1E
100
AcDbEntity
  8
1
100
AcDbLine
 10
61.79999999999998
 20
-33.26786261760001
 30
0.0
 11
61.79999999999998
 21
-40.46983132500001
 31
0.0
  0
LINE
  5
E8
330
1E
100
AcDbEntity
  8
1
100
AcDbLine
 10
61.79999999999998
 20
-40.4732111724
 30
0.0
 11
61.79999999999997
 21
-123.082691221
 31
0.0
  0
LINE
  5
E9
330
1E
100
AcDbEntity
  8
1
100
AcDbLine
 10
62.30467595069998
 20
-124.12089228
 30
0.0
 11
62.3085291181
 21
-123.2525462873
 31
0.0
  0
LINE
  5
EA
330
1E
100
AcDbEntity
  8
1
100
AcDbLine
 10
62.91161431979999
 20
125.1057536427
 30
0.0
 11
62.8894362673
 21
124.1951675411999
 31
0.0
  0
LINE
  5
EB
330
1E
100
AcDbEntity
  8
1
100
AcDbLine
 10
62.57581048319999
 20
-6.201006668000056
 30
0.0
 11
62.91161431979999
 21
0.0089293598999725
 31
0.0
  0
LINE
  5
EC
330
1E
100
AcDbEntity
  8
1
100
AcDbLine
 10
62.56696560079999
 20
-6.036823749800086
 30
0.0
 11
62.8894362673
 21
-0.0734546891000682
 31
0.0
  0
LINE
  5
ED
330
1E
100
AcDbEntity
  8
1
100
AcDbLine
 10
61.8161019381
 20
-1.098317641800017
 30
0.0
 11
61.8270033846
 21
-0.8967199300000247
 31
0.0
  0
LINE
  5
EE
330
1E
100
AcDbEntity
  8
1
100
AcDbLine
 10
62.91161431979999
 20
0.0089293599999601
 30
0.0
 11
62.8894362673
 21
-0.0734546891000682
 31
0.0
  0
LINE
  5
EF
330
1E
100
AcDbEntity
  8
1
100
AcDbLine
 10
56.38016501560001
 20
-26.60938684830011
 30
0.0
 11
56.703687418
 21
-26.47219322090011
 31
0.0
  0
LINE
  5
F0
330
1E
100
AcDbEntity
  8
1
100
AcDbLine
 10
56.886230417
 20
-26.394783632
 30
0.0
 11
59.508499111
 21
-25.2827785545001
 31
0.0
  0
LINE
  5
F1
330
1E
100
AcDbEntity
  8
1
100
AcDbLine
 10
60.2685258952
 20
-24.34489427910011
 30
0.0
 11
61.6611751841
 21
-23.7852815724001
 31
0.0
  0
LINE
  5
F2
330
1E
100
AcDbEntity
  8
SK3
100
AcDbLine
 10
1.599999999999988
 20
30.0
 30
0.0
 11
30.4
 21
30.0
 31
0.0
  0
LINE
  5
F3
330
1E
100
AcDbEntity
  8
1
100
AcDbLine
 10
59.508499111
 20
-25.2827785545001
 30
0.0
 11
60.33795342039999
 21
-33.3031708117
 31
0.0
  0
LINE
  5
F4
330
1E
100
AcDbEntity
  8
1
100
AcDbLine
 10
56.38016501560001
 20
-26.60938684830011
 30
0.0
 11
57.00189519600001
 21
-32.62119469419998
 31
0.0
  0
LINE
  5
F5
330
1E
100
AcDbEntity
  8
1
100
AcDbLine
 10
55.9126764501
 20
-26.78535462410011
 30
0.0
 11
56.48865546919997
 21
-32.35477250849999
 31
0.0
  0
LINE
  5
F6
330
1E
100
AcDbEntity
  8
1
100
AcDbLine
 10
55.5645296448
 20
-0.2056905753000318
 30
0.0
 11
56.171468014
 21
-11.47196953359997
 31
0.0
  0
LINE
  5
F7
330
1E
100
AcDbEntity
  8
1
100
AcDbLine
 10
54.953687278
 20
-0.3421676620000717
 30
0.0
 11
55.4769476791
 21
-10.0551763391001
 31
0.0
  0
LINE
  5
F8
330
1E
100
AcDbEntity
  8
1
100
AcDbLine
 10
55.30798398299999
 20
-10.0507156040001
 30
0.0
 11
55.3692614832
 21
-11.1881777363001
 31
0.0
  0
LINE
  5
F9
330
1E
100
AcDbEntity
  8
1
100
AcDbLine
 10
56.44999863159998
 20
-32.5423939676
 30
0.0
 11
56.44999863159998
 21
-31.98098097200011
 31
0.0
  0
LINE
  5
FA
330
1E
100
AcDbEntity
  8
1
100
AcDbLine
 10
62.044230545
 20
-0.5636107852000765
 30
0.0
 11
61.8270033846
 21
-0.8967199300000247
 31
0.0
  0
LINE
  5
FB
330
1E
100
AcDbEntity
  8
1
100
AcDbLine
 10
47.1739778778
 20
-8.869641688100044
 30
0.0
 11
46.6507174767
 21
0.8433669890999285
 31
0.0
  0
LINE
  5
FC
330
1E
100
AcDbEntity
  8
1
100
AcDbLine
 10
45.27904536869999
 20
-8.933718571600081
 30
0.0
 11
45.26041883479999
 21
-8.587963981200065
 31
0.0
  0
LINE
  5
FD
330
1E
100
AcDbEntity
  8
1
100
AcDbLine
 10
62.8894362673
 20
-0.0734546891000682
 30
0.0
 11
62.044230545
 21
-0.5636107852000765
 31
0.0
  0
LINE
  5
FE
330
1E
100
AcDbEntity
  8
1
100
AcDbLine
 10
12.4
 20
12.84999999999999
 30
0.0
 11
1.599999999999988
 21
12.85
 31
0.0
  0
LINE
  5
FF
330
1E
100
AcDbEntity
  8
SK3
100
AcDbLine
 10
31.99999999999999
 20
-72.96816705890001
 30
0.0
 11
32.00000000000001
 21
72.96816705890001
 31
0.0
  0
LINE
  5
100
330
1E
100
AcDbEntity
  8
SK3
100
AcDbLine
 10
30.39999999999999
 20
-30.0
 30
0.0
 11
30.4
 21
30.0
 31
0.0
  0
LINE
  5
101
330
1E
100
AcDbEntity
  8
1
100
AcDbLine
 10
62.0293939118
 20
99.75966713780001
 30
0.0
 11
62.9883598332
 21
103.8710551639997
 31
0.0
  0
LINE
  5
102
330
1E
100
AcDbEntity
  8
1
100
AcDbLine
 10
62.8894362673
 20
124.1951675411999
 30
0.0
 11
62.04423054500001
 21
120.8876232580998
 31
0.0
  0
LINE
  5
103
330
1E
100
AcDbEntity
  8
SK3
100
AcDbLine
 10
-0.0000000000000039
 20
-31.6
 30
0.0
 11
1.599999999999984
 21
-30.0
 31
0.0
  0
LINE
  5
104
330
1E
100
AcDbEntity
  8
1
100
AcDbLine
 10
46.6507174767
 20
0.8433669890999285
 30
0.0
 11
45.81899241539999
 21
0.2939249987999743
 31
0.0
  0
LINE
  5
105
330
1E
100
AcDbEntity
  8
4
100
AcDbLine
 10
66.0829356702
 20
-0.0000000000000081
 30
0.0
 11
-3.000000280100008
 21
0.0000000000000004
 31
0.0
  0
LINE
  5
106
330
1E
100
AcDbEntity
  8
1
100
AcDbLine
 10
62.30467595069999
 20
-1.168078394300045
 30
0.0
 11
55.5645296448
 21
-0.2056905753000318
 31
0.0
  0
LINE
  5
107
330
1E
100
AcDbEntity
  8
1
100
AcDbLine
 10
46.6507174767
 20
0.8433669890999285
 30
0.0
 11
54.953687278
 21
-0.3421676620000717
 31
0.0
  0
LINE
  5
108
330
1E
100
AcDbEntity
  8
1
100
AcDbLine
 10
55.3692614832
 20
-11.1881777363001
 30
0.0
 11
52.826536052
 21
-10.1295613608
 31
0.0
  0
LINE
  5
109
330
1E
100
AcDbEntity
  8
1
100
AcDbLine
 10
52.826536052
 20
-10.1295613608
 30
0.0
 11
52.6268293088
 21
-9.979931636000006
 31
0.0
  0
LINE
  5
10A
330
1E
100
AcDbEntity
  8
SK3
100
AcDbLine
 10
0.0000000000000039
 20
31.6
 30
0.0
 11
1.599999999999988
 21
30.0
 31
0.0
  0
LINE
  5
10B
330
1E
100
AcDbEntity
  8
1
100
AcDbLine
 10
62.8894362673
 20
-124.1951675412
 30
0.0
 11
62.04423054499998
 21
-120.8876232580998
 31
0.0
  0
LINE
  5
10C
330
1E
100
AcDbEntity
  8
1
100
AcDbLine
 10
61.79999999999997
 20
-121.0937157970999
 30
0.0
 11
62.3085291181
 21
-123.2525462873
 31
0.0
  0
LINE
  5
10D
330
1E
100
AcDbEntity
  8
1
100
AcDbLine
 10
62.04423054500001
 20
120.8876232580998
 30
0.0
 11
61.82700338460001
 21
120.0640355551995
 31
0.0
  0
LINE
  5
10E
330
1E
100
AcDbEntity
  8
1
100
AcDbLine
 10
54.95477436319999
 20
-0.3623466551000617
 30
0.0
 11
55.5645296448
 21
-0.2056905753000318
 31
0.0
  0
LINE
  5
10F
330
1E
100
AcDbEntity
  8
1
100
AcDbLine
 10
62.91161431979999
 20
0.0089293598999725
 30
0.0
 11
61.79999999999999
 21
-0.2145348656999965
 31
0.0
  0
LINE
  5
110
330
1E
100
AcDbEntity
  8
1
100
AcDbLine
 10
62.044230545
 20
-0.5636107852000765
 30
0.0
 11
61.79999999999999
 21
-0.6127076605000715
 31
0.0
  0
LINE
  5
111
330
1E
100
AcDbEntity
  8
1
100
AcDbLine
 10
61.8270033846
 20
-0.8967199300000247
 30
0.0
 11
61.79999999999999
 21
-0.9021483330000775
 31
0.0
  0
LINE
  5
112
330
1E
100
AcDbEntity
  8
1
100
AcDbLine
 10
45.15115804909997
 20
-8.591658619700012
 30
0.0
 11
46.9831954134
 21
-8.529708526900042
 31
0.0
  0
LINE
  5
113
330
1E
100
AcDbEntity
  8
1
100
AcDbLine
 10
47.1739778778
 20
-8.869641688100044
 30
0.0
 11
45.27904536869999
 21
-8.933718571600081
 31
0.0
  0
LINE
  5
114
330
1E
100
AcDbEntity
  8
1
100
AcDbLine
 10
55.4769476791
 20
-10.0551763391001
 30
0.0
 11
52.60160299069999
 21
-9.979265647200012
 31
0.0
  0
LINE
  5
115
330
1E
100
AcDbEntity
  8
1
100
AcDbLine
 10
55.4769476791
 20
-10.0551763391001
 30
0.0
 11
47.1739778778
 21
-8.869641688100044
 31
0.0
  0
LINE
  5
116
330
1E
100
AcDbEntity
  8
1
100
AcDbLine
 10
45.2575243654
 20
-8.633979344900076
 30
0.0
 11
45.26293943339999
 21
-8.634752532200034
 31
0.0
  0
LINE
  5
117
330
1E
100
AcDbEntity
  8
1
100
AcDbLine
 10
52.60160299069999
 20
-9.979265647200012
 30
0.0
 11
45.27904536869999
 21
-8.933718571600081
 31
0.0
  0
LINE
  5
118
330
1E
100
AcDbEntity
  8
1
100
AcDbLine
 10
62.91161431979999
 20
-12.4343573526
 30
0.0
 11
56.171468014
 21
-11.47196953359997
 31
0.0
  0
LINE
  5
119
330
1E
100
AcDbEntity
  8
1
100
AcDbLine
 10
55.3692614832
 20
-11.1881777363001
 30
0.0
 11
56.171468014
 21
-11.47196953359997
 31
0.0
  0
LINE
  5
11A
330
1E
100
AcDbEntity
  8
1
100
AcDbLine
 10
62.04423054499998
 20
-120.8876232580998
 30
0.0
 11
61.82700338459998
 21
-120.0640355551999
 31
0.0
  0
LINE
  5
11B
330
1E
100
AcDbEntity
  8
1
100
AcDbLine
 10
15.0
 20
116.4289321880998
 30
0.0
 11
14.99999999999998
 21
-116.4289321880998
 31
0.0
  0
LINE
  5
11C
330
1E
100
AcDbEntity
  8
1
100
AcDbLine
 10
13.99999999999999
 20
-11.25
 30
0.0
 11
14.0
 21
11.24999999999999
 31
0.0
  0
LINE
  5
11D
330
1E
100
AcDbEntity
  8
1
100
AcDbLine
 10
-0.0000000000000018
 20
-14.45
 30
0.0
 11
1.599999999999987
 21
-12.85
 31
0.0
  0
LINE
  5
11E
330
1E
100
AcDbEntity
  8
1
100
AcDbLine
 10
12.39999999999999
 20
-12.85
 30
0.0
 11
1.599999999999987
 21
-12.85
 31
0.0
  0
LINE
  5
11F
330
1E
100
AcDbEntity
  8
1
100
AcDbLine
 10
57.00189519600001
 20
-32.62119469419998
 30
0.0
 11
56.48865546919997
 21
-32.35477250849999
 31
0.0
  0
LINE
  5
120
330
1E
100
AcDbEntity
  8
1
100
AcDbLine
 10
0.0000000000000018
 20
14.45
 30
0.0
 11
1.599999999999988
 21
12.85
 31
0.0
  0
LINE
  5
121
330
1E
100
AcDbEntity
  8
SK3
100
AcDbLine
 10
30.4
 20
30.0
 30
0.0
 11
32.00000000000001
 21
31.6
 31
0.0
  0
LINE
  5
122
330
1E
100
AcDbEntity
  8
1
100
AcDbLine
 10
57.00189519600001
 20
-32.62119469419998
 30
0.0
 11
60.33795342039999
 21
-33.3031708117
 31
0.0
  0
LINE
  5
123
330
1E
100
AcDbEntity
  8
SK3
100
AcDbLine
 10
30.39999999999999
 20
-30.0
 30
0.0
 11
31.99999999999999
 21
-31.6
 31
0.0
  0
LINE
  5
124
330
1E
100
AcDbEntity
  8
SK3
100
AcDbLine
 10
1.599999999999984
 20
-30.0
 30
0.0
 11
1.599999999999987
 21
-12.85
 31
0.0
  0
LINE
  5
125
330
1E
100
AcDbEntity
  8
SK3
100
AcDbLine
 10
1.599999999999988
 20
12.85
 30
0.0
 11
1.599999999999988
 21
30.0
 31
0.0
  0
LINE
  5
126
330
1E
100
AcDbEntity
  8
1
100
AcDbLine
 10
-0.0000000000000133
 20
-108.4
 30
0.0
 11
-0.0000000000000018
 21
-14.4495239078
 31
0.0
  0
LINE
  5
127
330
1E
100
AcDbEntity
  8
1
100
AcDbLine
 10
0.0000000000000018
 20
14.4495170799
 30
0.0
 11
0.0000000000000133
 21
108.4
 31
0.0
  0
LINE
  5
128
330
1E
100
AcDbEntity
  8
1
100
AcDbLine
 10
61.80530063630001
 20
120.0288191323997
 30
0.0
 11
61.82478420979999
 21
120.0604345643
 31
0.0
  0
LINE
  5
129
330
1E
100
AcDbEntity
  8
1
100
AcDbLine
 10
56.38016501560001
 20
-26.60938684830011
 30
0.0
 11
56.1688496038
 21
-26.6280870894
 31
0.0
  0
LINE
  5
12A
330
1E
100
AcDbEntity
  8
SK3
100
AcDbLine
 10
1.599999999999984
 20
-30.0
 30
0.0
 11
30.39999999999999
 21
-30.0
 31
0.0
  0
LINE
  5
12B
330
1E
100
AcDbEntity
  8
1
100
AcDbLine
 10
61.40868933100001
 20
-33.30905727840011
 30
0.0
 11
60.33795342039999
 21
-33.3031708117
 31
0.0
  0
LINE
  5
12C
330
1E
100
AcDbEntity
  8
1
100
AcDbLine
 10
61.79999999999997
 20
-120.0202179429
 30
0.0
 11
61.82700338459998
 21
-120.0640355551999
 31
0.0
  0
LINE
  5
12D
330
1E
100
AcDbEntity
  8
SK3
100
AcDbLine
 10
0.4999999967999952
 20
-41.79999999999997
 30
0.0
 11
31.50000000319999
 21
-41.79999999999997
 31
0.0
  0
LINE
  5
12E
330
1E
100
AcDbEntity
  8
1
100
AcDbLine
 10
62.3085291181
 20
-123.2525462873
 30
0.0
 11
62.8894362673
 21
-124.1951675412
 31
0.0
  0
LINE
  5
12F
330
1E
100
AcDbEntity
  8
1
100
AcDbLine
 10
62.30467595069998
 20
-124.12089228
 30
0.0
 11
62.91161431979997
 21
-125.1057536428
 31
0.0
  0
LINE
  5
130
330
1E
100
AcDbEntity
  8
1
100
AcDbLine
 10
55.56452964479998
 20
-128.0059454039
 30
0.0
 11
56.17146801399997
 21
-128.9908067665999
 31
0.0
  0
LINE
  5
131
330
1E
100
AcDbEntity
  8
1
100
AcDbLine
 10
47.1739778778
 20
133.3684733831
 30
0.0
 11
46.97440665810002
 21
133.0361719199
 31
0.0
  0
LINE
  5
132
330
1E
100
AcDbEntity
  8
1
100
AcDbLine
 10
46.96654328840002
 20
133.0393265311
 30
0.0
 11
46.9831954134
 21
133.0670536027
 31
0.0
  0
LINE
  5
133
330
1E
100
AcDbEntity
  8
SK4
100
AcDbLine
 10
34.50000327829999
 20
-50.8
 30
0.0
 11
-2.500003278300003
 21
-50.8
 31
0.0
  0
LINE
  5
134
330
1E
100
AcDbEntity
  8
1
100
AcDbLine
 10
55.02997319899996
 20
-127.8573086130998
 30
0.0
 11
55.47694767909998
 21
-128.5826011928
 31
0.0
  0
LINE
  5
135
330
1E
100
AcDbEntity
  8
1
100
AcDbLine
 10
46.81061410769999
 20
-132.7931156123999
 30
0.0
 11
46.61866936839997
 21
-132.4735128271
 31
0.0
  0
LINE
  5
136
330
1E
100
AcDbEntity
  8
1
100
AcDbLine
 10
46.65071747669997
 20
-132.5193938424999
 30
0.0
 11
46.62231440909997
 21
-132.4720599493
 31
0.0
  0
LINE
  5
137
330
1E
100
AcDbEntity
  8
SK3
100
AcDbLine
 10
60.30000000000001
 20
89.99999999999998
 30
0.0
 11
32.60000000000001
 21
74.00739754339991
 31
0.0
  0
LINE
  5
138
330
1E
100
AcDbEntity
  8
SK3
100
AcDbLine
 10
0.4999999967999928
 20
-59.8
 30
0.0
 11
31.50000000319999
 21
-59.8
 31
0.0
  0
LINE
  5
139
330
1E
100
AcDbEntity
  8
SK3
100
AcDbLine
 10
60.29999999999998
 20
-90.00000000000001
 30
0.0
 11
32.59999999999998
 21
-74.0073975434
 31
0.0
  0
LINE
  5
13A
330
1E
100
AcDbEntity
  8
1
100
AcDbLine
 10
46.98319541339999
 20
-133.0670536027
 30
0.0
 11
46.81061410769999
 21
-132.7931156123999
 31
0.0
  0
LINE
  5
13B
330
1E
100
AcDbEntity
  8
1
100
AcDbLine
 10
47.17397787779995
 20
-133.3684733831
 30
0.0
 11
46.65071747669997
 21
-132.5193938424999
 31
0.0
  0
LINE
  5
13C
330
1E
100
AcDbEntity
  8
1
100
AcDbLine
 10
55.3692614832
 20
128.529832875
 30
0.0
 11
55.06116438890003
 21
128.2476220956999
 31
0.0
  0
LINE
  5
13D
330
1E
100
AcDbEntity
  8
1
100
AcDbLine
 10
28.53553390590002
 20
132.0355339058999
 30
0.0
 11
16.46446609410001
 21
119.9644660941
 31
0.0
  0
LINE
  5
13E
330
1E
100
AcDbEntity
  8
1
100
AcDbLine
 10
55.3692614832
 20
128.529832875
 30
0.0
 11
56.171468014
 21
128.9908067665999
 31
0.0
  0
LINE
  5
13F
330
1E
100
AcDbEntity
  8
1
100
AcDbLine
 10
55.15540717589999
 20
-127.7852305774
 30
0.0
 11
55.56452964479998
 21
-128.0059454039
 31
0.0
  0
LINE
  5
140
330
1E
100
AcDbEntity
  8
1
100
AcDbLine
 10
55.46903163399997
 20
-128.5871640395999
 30
0.0
 11
56.17146801399997
 21
-128.9908067665999
 31
0.0
  0
LINE
  5
141
330
1E
100
AcDbEntity
  8
1
100
AcDbLine
 10
28.53553390589998
 20
-132.0355339058999
 30
0.0
 11
16.46446609409998
 21
-119.9644660941
 31
0.0
  0
LINE
  5
142
330
1E
100
AcDbEntity
  8
1
100
AcDbLine
 10
9.999999999999984
 20
-110.0
 30
0.0
 11
1.599999999999974
 21
-110.0
 31
0.0
  0
LINE
  5
143
330
1E
100
AcDbEntity
  8
1
100
AcDbLine
 10
35.28026553589997
 20
-133.4999999999999
 30
0.0
 11
32.07106781189998
 21
-133.4999999999999
 31
0.0
  0
ARC
  5
144
330
1E
100
AcDbEntity
  8
SK3
100
AcDbCircle
 10
33.19999999999998
 20
-72.96816705890001
 30
0.0
 40
1.199999999999999
100
AcDbArc
 50
180.0
 51
239.9999999999999
  0
ARC
  5
145
330
1E
100
AcDbEntity
  8
SK3
100
AcDbCircle
 10
33.20000000000001
 20
72.96816705890001
 30
0.0
 40
1.199999999999999
100
AcDbArc
 50
119.9999999999999
 51
180.0
  0
ARC
  5
146
330
1E
100
AcDbEntity
  8
1
100
AcDbCircle
 10
12.4
 20
11.24999999999999
 30
0.0
 40
1.6
100
AcDbArc
 50
0.0
 51
90.0
  0
ARC
  5
147
330
1E
100
AcDbEntity
  8
1
100
AcDbCircle
 10
12.39999999999999
 20
-11.25
 30
0.0
 40
1.6
100
AcDbArc
 50
270.0
 51
0.0
  0
ARC
  5
148
330
1E
100
AcDbEntity
  8
1
100
AcDbCircle
 10
9.999999999999984
 20
-115.0
 30
0.0
 40
5.0
100
AcDbArc
 50
0.0
 51
90.0
  0
ARC
  5
149
330
1E
100
AcDbEntity
  8
1
100
AcDbCircle
 10
10.0
 20
115.0
 30
0.0
 40
5.0
100
AcDbArc
 50
270.0
 51
0.0
  0
ARC
  5
14A
330
1E
100
AcDbEntity
  8
1
100
AcDbCircle
 10
19.99999999999998
 20
-116.4289321880998
 30
0.0
 40
5.0
100
AcDbArc
 50
180.0
 51
225.0
  0
ARC
  5
14B
330
1E
100
AcDbEntity
  8
1
100
AcDbCircle
 10
20.00000000000001
 20
116.4289321880998
 30
0.0
 40
5.0
100
AcDbArc
 50
134.9999999999999
 51
180.0
  0
ARC
  5
14C
330
1E
100
AcDbEntity
  8
1
100
AcDbCircle
 10
32.07106781189998
 20
-128.4999999999999
 30
0.0
 40
5.0
100
AcDbArc
 50
225.0
 51
270.0
  0
ARC
  5
14D
330
1E
100
AcDbEntity
  8
1
100
AcDbCircle
 10
32.07106781190001
 20
128.4999999999999
 30
0.0
 40
5.0
100
AcDbArc
 50
90.0
 51
134.9999999999999
  0
ARC
  5
14E
330
1E
100
AcDbEntity
  8
1
100
AcDbCircle
 10
1.599999999999974
 20
-108.4
 30
0.0
 40
1.6
100
AcDbArc
 50
180.0
 51
270.0
  0
ARC
  5
14F
330
1E
100
AcDbEntity
  8
1
100
AcDbCircle
 10
1.600000000000002
 20
108.4
 30
0.0
 40
1.6
100
AcDbArc
 50
90.0
 51
180.0
  0
LWPOLYLINE
  5
150
330
1E
100
AcDbEntity
  8
1
100
AcDbPolyline
 90
       78
 70
     0
 43
0.0
 10
62.77589458819999
 20
-75.58714589960003
 10
62.77342406332477
 20
-75.58621766680444
 10
62.77086824748349
 20
-75.58550133869694
 10
62.76830901529699
 20
-75.58501265267643
 10
62.76582564781558
 20
-75.58476660447102
 10
62.76345302845588
 20
-75.58476549363479
 10
62.76118875762071
 20
-75.58500095808081
 10
62.7590292786855
 20
-75.58546430485261
 10
62.75697103502561
 20
-75.58614684099359
 10
62.75501047001629
 20
-75.58703987354751
 10
62.75314402703308
 20
-75.5881347095578
 10
62.75136814945128
 20
-75.58942265606798
 10
62.74967928064639
 20
-75.5908950201216
 10
62.7480738639937
 20
-75.5925431087622
 10
62.74654834286859
 20
-75.59435822903342
 10
62.74509916064639
 20
-75.59633168797859
 10
62.7437227607027
 20
-75.59845479264142
 10
62.7424155864127
 20
-75.60071885006529
 10
62.74117408115188
 20
-75.60311516729402
 10
62.73999468829559
 20
-75.60563505137081
 10
62.7388738512192
 20
-75.60826980933952
 10
62.73780801329809
 20
-75.61101074824342
 10
62.73679361790772
 20
-75.61384917512611
 10
62.73582710842338
 20
-75.61677639703122
 10
62.73490492822049
 20
-75.61978372100231
 10
62.73402352067449
 20
-75.62286245408279
 10
62.73317932916069
 20
-75.62600390331631
 10
62.7319750418341
 20
-75.63081465411109
 10
62.73083448456659
 20
-75.63571761837009
 10
62.72939213021378
 20
-75.64234763830248
 10
62.72733877925709
 20
-75.65235012391659
 10
62.72600183838049
 20
-75.65895533364431
 10
62.72499630061369
 20
-75.6638282415049
 10
62.72398282474249
 20
-75.66861911199501
 10
62.72296171406988
 20
-75.67333003785829
 10
62.72193334687778
 20
-75.67796330333108
 10
62.72089810144779
 20
-75.68252119265008
 10
62.71985635606188
 20
-75.68700599005172
 10
62.71880848900178
 20
-75.6914199797723
 10
62.71775487854919
 20
-75.69576544604861
 10
62.71669590298589
 20
-75.70004467311702
 10
62.71563194059369
 20
-75.70425994521411
 10
62.71456336965439
 20
-75.70841354657622
 10
62.71313209337119
 20
-75.7138596975347
 10
62.71169419328421
 20
-75.71920568698259
 10
62.71025056606119
 20
-75.7244569294064
 10
62.70880210837019
 20
-75.72961883929281
 10
62.70734971687922
 20
-75.73469683112822
 10
62.70589428825589
 20
-75.7396963193992
 10
62.70443671916829
 20
-75.74462271859231
 10
62.70261311379839
 20
-75.75068618469959
 10
62.7007893163012
 20
-75.75665448442702
 10
62.6986029715331
 20
-75.7637057143162
 10
62.69642189823438
 20
-75.77065340675372
 10
62.69352723112898
 20
-75.77978752291669
 10
62.68887334605459
 20
-75.79441880216823
 10
62.68155619163611
 20
-75.81792321209708
 10
62.67819080403978
 20
-75.82925135429379
 10
62.67556619641899
 20
-75.83845247747281
 10
62.67300295780318
 20
-75.84778914599174
 10
62.6704987723524
 20
-75.85725481042551
 10
62.66774923727749
 20
-75.86804956122398
 10
62.6650681483581
 20
-75.8789896183002
 10
62.66216538488329
 20
-75.89130409730902
 10
62.6593384396742
 20
-75.9037731934104
 10
62.65631091564509
 20
-75.91765222027311
 10
62.65309933703629
 20
-75.9329679627472
 10
62.64946248213778
 20
-75.95103784011723
 10
62.64518827988959
 20
-75.97322233766608
 10
62.63914078128159
 20
-76.00620198687678
 10
62.6238194559245
 20
-76.09521371064861
 10
62.61646813825349
 20
-76.1386040769312
 10
62.60765304770121
 20
-76.1906493920777
 10
62.59466537025017
 20
-76.26789137992772
 10
62.56996582658329
 20
-76.41992241412861
 10
62.54865156950149
 20
-76.56138269034342
 10
62.52052750277639
 20
-76.76351763669709
 10
62.50898449988401
 20
-76.85034985037102
  0
LWPOLYLINE
  5
1A0
330
1E
100
AcDbEntity
  8
1
100
AcDbPolyline
 90
       40
 70
     0
 43
0.0
 10
62.50898319369999
 20
-76.85035976470001
 10
62.47067044220749
 20
-77.15372040308742
 10
62.42716229910261
 20
-77.52953817663463
 10
62.38045728221401
 20
-77.9727826805682
 10
62.33336448102409
 20
-78.4680733874562
 10
62.28953687041959
 20
-78.98447015713831
 10
62.25172536784818
 20
-79.4909495258766
 10
62.2227005196407
 20
-79.94090606285118
 10
62.20169168336108
 20
-80.32897761155751
 10
62.18637591493628
 20
-80.67599898875231
 10
62.17938018018347
 20
-80.88320723580142
 10
62.17556699316249
 20
-81.0487567358747
 10
62.17147706999869
 20
-81.4016038975834
 10
62.17132123620729
 20
-81.47984835534511
 10
62.1718159555716
 20
-81.5266411422179
 10
62.17264663280261
 20
-81.56288243052619
 10
62.17373881099568
 20
-81.59380353605945
 10
62.1752374275799
 20
-81.62456389067704
 10
62.17683469052627
 20
-81.65005498209453
 10
62.17918013719799
 20
-81.68047424484312
 10
62.1859293915369
 20
-81.75659402350396
 10
62.18842153943569
 20
-81.78749385276523
 10
62.19017157049639
 20
-81.81361889965042
 10
62.19126853753678
 20
-81.83483170340361
 10
62.19202741878029
 20
-81.85637428114961
 10
62.19242496395529
 20
-81.87827220928111
 10
62.19277063461561
 20
-81.89477917605922
 10
62.19322924718921
 20
-81.9057129628681
 10
62.19400003486558
 20
-81.91652025972361
 10
62.1951941199846
 20
-81.92714123480945
 10
62.19692262488567
 20
-81.93751605630941
 10
62.1992966719085
 20
-81.94758489240742
 10
62.2024273833928
 20
-81.9572879112872
 10
62.20642588167812
 20
-81.96656528113257
 10
62.21140328910401
 20
-81.97535717012742
 10
62.2174707161665
 20
-81.98360372920511
 10
62.22468678729999
 20
-81.9911686636721
 10
62.2329371343098
 20
-81.99766371612803
 10
62.24207179909998
 20
-82.00264879270008
 10
62.24206260815227
 20
-82.00264485222453
  0
LWPOLYLINE
  5
1CA
330
1E
100
AcDbEntity
  8
1
100
AcDbPolyline
 90
        2
 70
     0
 43
0.0
 10
62.98857247559999
 20
-80.6009751722
 10
62.98835988249389
 20
-70.88577391317852
  0
LWPOLYLINE
  5
1CE
330
1E
100
AcDbEntity
  8
1
100
AcDbPolyline
 90
        2
 70
     0
 43
0.0
 10
62.9883598332
 20
-70.88576391330002
 10
61.80001198937949
 20
-70.48464914947669
  0
LWPOLYLINE
  5
1D2
330
1E
100
AcDbEntity
  8
1
100
AcDbPolyline
 90
        2
 70
     0
 43
0.0
 10
62.0296065542
 20
-86.70403077899997
 10
61.80001345979479
 20
-86.74559187594411
  0
LWPOLYLINE
  5
1D6
330
1E
100
AcDbEntity
  8
1
100
AcDbPolyline
 90
       78
 70
     0
 43
0.0
 10
62.24207179909998
 20
-82.00264879270008
 10
62.2445423239758
 20
-82.0035770254943
 10
62.24709813981878
 20
-82.00429335359848
 10
62.24965737200887
 20
-82.00478203961528
 10
62.25214073949599
 20
-82.00502808781802
 10
62.25451335886138
 20
-82.0050291986522
 10
62.25677762970189
 20
-82.00479373420511
 10
62.2589371086422
 20
-82.00433038743296
 10
62.26099535230689
 20
-82.00364785129222
 10
62.26295591732069
 20
-82.00275481873921
 10
62.26482236030818
 20
-82.00165998273051
 10
62.26659823789389
 20
-82.00037203622249
 10
62.2682871067025
 20
-81.99889967217153
 10
62.2698925233587
 20
-81.997251583534
 10
62.27141804448699
 20
-81.99543646326651
 10
62.27286722671209
 20
-81.99346300432528
 10
62.2742436266586
 20
-81.99133989966695
 10
62.27555080095108
 20
-81.98907584224761
 10
62.27679230621427
 20
-81.98667952502402
 10
62.27797169907269
 20
-81.98415964095245
 10
62.27909253615088
 20
-81.98152488298921
 10
62.28015837407371
 20
-81.97878394409093
 10
62.28117276946559
 20
-81.97594551721392
 10
62.2821392789512
 20
-81.97301829531459
 10
62.28306145915521
 20
-81.97001097134943
 10
62.28394286670209
 20
-81.96693223827479
 10
62.28478705821672
 20
-81.96379078904724
 10
62.28599134554409
 20
-81.95898003826092
 10
62.2871319028122
 20
-81.95407707401022
 10
62.28857425716519
 20
-81.94744705408814
 10
62.29062760812118
 20
-81.93744456848731
 10
62.29196454899679
 20
-81.93083935876641
 10
62.29297008676259
 20
-81.92596645090999
 10
62.29398356263288
 20
-81.92117558042353
 10
62.29500467330471
 20
-81.91646465456349
 10
62.296033040496
 20
-81.9118313890935
 10
62.29706828592521
 20
-81.907273499777
 10
62.29811003131049
 20
-81.9027887023776
 10
62.29915789836999
 20
-81.8983747126588
 10
62.30021150882208
 20
-81.89402924638399
 10
62.3012704843849
 20
-81.88975001931671
 10
62.30233444677669
 20
-81.88553474722061
 10
62.30340301771558
 20
-81.88138114585902
 10
62.30483429399839
 20
-81.87593499490089
 10
62.30627219408511
 20
-81.87058900545281
 10
62.30771582130778
 20
-81.86533776302843
 10
62.3091642789986
 20
-81.86017585314109
 10
62.31061667048958
 20
-81.85509786130429
 10
62.31207209911299
 20
-81.85009837303162
 10
62.31352966820058
 20
-81.84517197383652
 10
62.31535327357079
 20
-81.83910850772624
 10
62.31717707106827
 20
-81.8331402079954
 10
62.31936341583679
 20
-81.82608897810181
 10
62.32154448913618
 20
-81.81914128565948
 10
62.32443915624267
 20
-81.81000716948949
 10
62.32909304131919
 20
-81.7953758902262
 10
62.33641019574169
 20
-81.77187148027902
 10
62.33977558334029
 20
-81.76054333807512
 10
62.34240019096279
 20
-81.75134221489129
 10
62.34496342958039
 20
-81.74200554636822
 10
62.3474676150329
 20
-81.7325398819308
 10
62.35021715010961
 20
-81.72174513112897
 10
62.35289823903079
 20
-81.71080507405006
 10
62.35580100250738
 20
-81.69849059503901
 10
62.35862794771819
 20
-81.68602149893608
 10
62.36165547174909
 20
-81.67214247207242
 10
62.3648670503594
 20
-81.65682672959801
 10
62.3685039052594
 20
-81.63875685222839
 10
62.37277810750878
 20
-81.61657235468101
 10
62.37882560611709
 20
-81.5835927054737
 10
62.394146931465
 20
-81.49458098171008
 10
62.40149824912538
 20
-81.45119061542741
 10
62.41031333966109
 20
-81.39914530027693
 10
62.42330101708421
 20
-81.321903312416
 10
62.4480005607146
 20
-81.16987227818951
 10
62.4693148178186
 20
-81.02841200196364
 10
62.4974388846115
 20
-80.82627705560692
 10
62.50898188751599
 20
-80.73944484192908
  0
LWPOLYLINE
  5
226
330
1E
100
AcDbEntity
  8
1
100
AcDbPolyline
 90
        2
 70
     0
 43
0.0
 10
61.79999272299999
 20
-76.84722407660011
 10
62.02938540185539
 20
-76.98881426835342
  0
LWPOLYLINE
  5
22A
330
1E
100
AcDbEntity
  8
1
100
AcDbPolyline
 90
        2
 70
     0
 43
0.0
 10
62.02939391179999
 20
-76.98881952010001
 10
62.02960650490608
 20
-86.70402077912148
  0
LWPOLYLINE
  5
22E
330
1E
100
AcDbEntity
  8
1
100
AcDbPolyline
 90
       40
 70
     0
 43
0.0
 10
62.50898319369999
 20
-80.73943492759999
 10
62.5472959451207
 20
-80.43607428920072
 10
62.59080408821088
 20
-80.06025651564703
 10
62.63750910520379
 20
-79.61701201172029
 10
62.68460190637349
 20
-79.12172130482481
 10
62.72842951697448
 20
-78.60532453513702
 10
62.76624101955329
 20
-78.09884516639399
 10
62.7952658677696
 20
-77.64888862941489
 10
62.81627470398549
 20
-77.26081708070158
 10
62.83159047234459
 20
-76.91379570349913
 10
62.83858620709779
 20
-76.70658745644772
 10
62.84239939415819
 20
-76.54103795637602
 10
62.84648931739849
 20
-76.18819079465922
 10
62.8466451511716
 20
-76.10994633689101
 10
62.84615043178988
 20
-76.06315355001631
 10
62.8453197545425
 20
-76.02691226170842
 10
62.84422757633379
 20
-75.99599115617731
 10
62.8427289597327
 20
-75.96523080156392
 10
62.84113169677127
 20
-75.93973971015159
 10
62.83878625008139
 20
-75.90932044741122
 10
62.8320369957111
 20
-75.83320066876794
 10
62.82954484781239
 20
-75.8023008395069
 10
62.82779481676008
 20
-75.77617579261681
 10
62.8266978497329
 20
-75.75496298885531
 10
62.82593896850939
 20
-75.73342041109659
 10
62.82554142336099
 20
-75.71152248294781
 10
62.8251957527221
 20
-75.69501551615592
 10
62.82473714016199
 20
-75.68408172933851
 10
62.82396635249769
 20
-75.67327443247599
 10
62.8227722673887
 20
-75.6626534573852
 10
62.82104376249479
 20
-75.65227863588282
 10
62.8186697154756
 20
-75.64220979978552
 10
62.81553900399071
 20
-75.63250678091042
 10
62.81154050569979
 20
-75.62322941107422
 10
62.80656309826261
 20
-75.61443752209361
 10
62.8004956711824
 20
-75.60619096303594
 10
62.79327960002691
 20
-75.59862602859459
 10
62.78502925299829
 20
-75.59213097616201
 10
62.77589458819999
 20
-75.58714589960003
 10
62.77590377914769
 20
-75.58714984007561
  0
LWPOLYLINE
  5
258
330
1E
100
AcDbEntity
  8
1
100
AcDbPolyline
 90
       97
 70
     0
 43
0.0
 10
56.48543381609997
 20
-128.1424835548999
 10
56.48477709349435
 20
-128.1436878934069
 10
56.48411623606678
 20
-128.1449069976229
 10
56.48341544670389
 20
-128.146209206944
 10
56.48267566182928
 20
-128.147596276872
 10
56.4818982508896
 20
-128.1490698610709
 10
56.4810850753907
 20
-128.1506314814876
 10
56.48023855088639
 20
-128.152282496975
 10
56.47932536017869
 20
-128.154097032161
 10
56.47835069306029
 20
-128.1560783272439
 10
56.47728643098107
 20
-128.1583037425719
 10
56.47634966636029
 20
-128.160326048965
 10
56.47557044435448
 20
-128.162061747905
 10
56.47487620786709
 20
-128.163655867398
 10
56.47426382897427
 20
-128.1651050623439
 10
56.47369874053818
 20
-128.1664833859939
 10
56.47317955420058
 20
-128.1677894289389
 10
56.47270466601129
 20
-128.1690220082329
 10
56.47227230660959
 20
-128.1701801419939
 10
56.47188058845298
 20
-128.1712630255019
 10
56.47150083293328
 20
-128.1723475203069
 10
56.47115938624739
 20
-128.173355755062
 10
56.47082915222968
 20
-128.1743649246459
 10
56.47053464679888
 20
-128.1752971062809
 10
56.47025040379578
 20
-128.176229725876
 10
56.46997676327078
 20
-128.177162611312
 10
56.46973553053219
 20
-128.1780178428268
 10
56.46950375448247
 20
-128.178873020518
 10
56.46928169704708
 20
-128.17972801181
 10
56.46906962015129
 20
-128.180582684128
 10
56.4688857041752
 20
-128.181359270607
 10
56.46871044983469
 20
-128.1821353842969
 10
56.4685440539181
 20
-128.1829109255939
 10
56.46838671321398
 20
-128.1836857948899
 10
56.46823862451061
 20
-128.18445989258
 10
56.46811341778388
 20
-128.185155838452
 10
56.46799600803518
 20
-128.18585100603
 10
56.46788653872327
 20
-128.1865453227009
 10
56.46778515330698
 20
-128.1872387158495
 10
56.46769199524488
 20
-128.187931112867
 10
56.46760720799598
 20
-128.188622441137
 10
56.46753093501878
 20
-128.1893126280479
 10
56.46746331977221
 20
-128.190001600988
 10
56.46741060152297
 20
-128.1906129435399
 10
56.46736493805572
 20
-128.191223218534
 10
56.46732643012579
 20
-128.19183237497
 10
56.46729517848898
 20
-128.192440361851
 10
56.46727128390108
 20
-128.193047128178
 10
56.46725484711769
 20
-128.1936526229529
 10
56.46724596889439
 20
-128.194256795177
 10
56.46724474998698
 20
-128.194859593853
 10
56.46725129115099
 20
-128.195460967981
 10
56.46726569314228
 20
-128.196060866565
 10
56.46728805671628
 20
-128.1966592386039
 10
56.46731423503688
 20
-128.1971815218039
 10
56.46734665358388
 20
-128.1977025630339
 10
56.46738537985561
 20
-128.1982223281289
 10
56.46743048135046
 20
-128.1987407829229
 10
56.46748202556707
 20
-128.1992578932519
 10
56.46754008000367
 20
-128.199773624951
 10
56.46760471215878
 20
-128.2002879438559
 10
56.46767598953077
 20
-128.2008008158005
 10
56.46775397961821
 20
-128.201312206621
 10
56.46783874991928
 20
-128.2018220821508
 10
56.46793036793257
 20
-128.2023304082279
 10
56.46802890115658
 20
-128.202837150685
 10
56.46813441708959
 20
-128.203342275358
 10
56.46824698323007
 20
-128.203845748082
 10
56.46836666707658
 20
-128.204347534692
 10
56.46849353612727
 20
-128.2048476010239
 10
56.46862765788078
 20
-128.205345912912
 10
56.46876909983546
 20
-128.2058424361909
 10
56.46891792948988
 20
-128.206337136697
 10
56.46905142893579
 20
-128.2067596890257
 10
56.46919044817639
 20
-128.207180855559
 10
56.46933502971798
 20
-128.207600614781
 10
56.46948521606677
 20
-128.208018945177
 10
56.46964104972918
 20
-128.2084358252319
 10
56.46980257321139
 20
-128.2088512334319
 10
56.46996982901978
 20
-128.2092651482608
 10
56.47014285966069
 20
-128.209677548204
 10
56.47032170764028
 20
-128.2100884117469
 10
56.47050641546488
 20
-128.210497717375
 10
56.47069702564087
 20
-128.210905443573
 10
56.47089358067447
 20
-128.211311568825
 10
56.4710961189926
 20
-128.2117160556039
 10
56.47130463845929
 20
-128.21211870716
 10
56.47151911369808
 20
-128.2125192355149
 10
56.47173951905749
 20
-128.212917351614
 10
56.47196582888599
 20
-128.213312766399
 10
56.47219801753228
 20
-128.2137051908149
 10
56.4724360593447
 20
-128.2140943358049
 10
56.47267992867199
 20
-128.214479912314
 10
56.47292959986259
 20
-128.214861631284
 10
56.47318504726507
 20
-128.215239203659
 10
56.47344624522808
 20
-128.2156123403829
 10
56.47370723567849
 20
-128.215972701963
  0
LWPOLYLINE
  5
2BB
330
1E
100
AcDbEntity
  8
1
100
AcDbPolyline
 90
       65
 70
     0
 43
0.0
 10
62.00243079649998
 20
-124.8957182942999
 10
61.99340579985348
 20
-124.886685128619
 10
61.98218424518739
 20
-124.880143006921
 10
61.96948920328607
 20
-124.8756509650079
 10
61.95604374493349
 20
-124.872768038679
 10
61.94253391794671
 20
-124.871070070951
 10
61.92921754674038
 20
-124.8703273042089
 10
61.91607720882418
 20
-124.8704349339039
 10
61.90309094014669
 20
-124.871290217205
 10
61.89023677665659
 20
-124.8727904112808
 10
61.87749275430237
 20
-124.874832773303
 10
61.86483690903278
 20
-124.8773145604399
 10
61.85224727679658
 20
-124.8801330298608
 10
61.83343893151728
 20
-124.8847672633349
 10
61.79591024870978
 20
-124.8946099228618
 10
61.75847697368261
 20
-124.90500872861
 10
61.72117220651397
 20
-124.915976873242
 10
61.69020696519599
 20
-124.925561507224
 10
61.65937314002999
 20
-124.935558459796
 10
61.62868879870845
 20
-124.94597388908
 10
61.59206492586359
 20
-124.958997868329
 10
61.55563537049058
 20
-124.972534495592
 10
61.51334952254428
 20
-124.988888610088
 10
61.45926718824198
 20
-125.010645092033
 10
61.38753313571298
 20
-125.0405784487149
 10
61.29236864936522
 20
-125.0815987019039
 10
61.19180330108028
 20
-125.126411754203
 10
61.08002716784721
 20
-125.177860187998
 10
60.95717849846508
 20
-125.236210207883
 10
60.81175530575578
 20
-125.3073978792319
 10
60.62669810954189
 20
-125.4006948070719
 10
60.41977080510059
 20
-125.5081090478809
 10
60.18555227718479
 20
-125.633192172131
 10
59.91876214348708
 20
-125.779729257443
 10
59.62551805360869
 20
-125.945313600609
 10
59.31185000059238
 20
-126.127360665575
 10
58.98924877609378
 20
-126.319766537003
 10
58.66897900311361
 20
-126.5160281411529
 10
58.36753610457519
 20
-126.7057792302359
 10
58.09016018587239
 20
-126.885093979578
 10
57.84198023116478
 20
-127.049881975662
 10
57.62795776910017
 20
-127.195829840102
 10
57.44229758905959
 20
-127.3258790009599
 10
57.28461526807489
 20
-127.4393983398699
 10
57.15448772250299
 20
-127.5357155117359
 10
57.04626649401598
 20
-127.61806362791
 10
56.95446120014579
 20
-127.689928112466
 10
56.87874612696568
 20
-127.750870931907
 10
56.81391241275978
 20
-127.8046461077799
 10
56.75982195169439
 20
-127.8510014252939
 10
56.71139946008299
 20
-127.893932003621
 10
56.67327336631488
 20
-127.9289145601399
 10
56.64045957581828
 20
-127.9601300948609
 10
56.61280828725619
 20
-127.987436521504
 10
56.59014194570918
 20
-128.010640456955
 10
56.56785139441758
 20
-128.034301146089
 10
56.55035389949109
 20
-128.0536082297319
 10
56.53757015020249
 20
-128.068382911685
 10
56.52520964216448
 20
-128.083475310214
 10
56.51339149133539
 20
-128.0989442854179
 10
56.50587285637189
 20
-128.1094952115319
 10
56.49868350310001
 20
-128.1202571051319
 10
56.49185872513696
 20
-128.1312474062439
 10
56.48543381609997
 20
-128.1424835548999
 10
56.48543861318709
 20
-128.14247478063
  0
LWPOLYLINE
  5
2FE
330
1E
100
AcDbEntity
  8
1
100
AcDbPolyline
 90
       97
 70
     0
 43
0.0
 10
61.99071014849999
 20
-124.9692154918
 10
61.99136687110559
 20
-124.968011153293
 10
61.99202772853309
 20
-124.966792049077
 10
61.99272851789608
 20
-124.9654898397559
 10
61.99346830277068
 20
-124.9641027698279
 10
61.99424571371038
 20
-124.962629185629
 10
61.99505888920928
 20
-124.961067565212
 10
61.9959054137136
 20
-124.9594165497249
 10
61.99681860442128
 20
-124.957602014539
 10
61.99779327153969
 20
-124.955620719456
 10
61.99885753361888
 20
-124.9533953041279
 10
61.99979429823969
 20
-124.9513729977349
 10
62.0005735202455
 20
-124.949637298795
 10
62.0012677567329
 20
-124.948043179302
 10
62.00188013562569
 20
-124.9465939843559
 10
62.00244522406179
 20
-124.945215660706
 10
62.00296441039938
 20
-124.943909617761
 10
62.00343929858859
 20
-124.942677038467
 10
62.00387165799039
 20
-124.9415189047059
 10
62.00426337614688
 20
-124.940436021198
 10
62.00464313166667
 20
-124.9393515263929
 10
62.00498457835248
 20
-124.9383432916377
 10
62.00531481237028
 20
-124.937334122054
 10
62.0056093178011
 20
-124.9364019404189
 10
62.00589356080421
 20
-124.9354693208239
 10
62.00616720132918
 20
-124.934536435388
 10
62.00640843406779
 20
-124.933681203873
 10
62.00664021011736
 20
-124.932826026182
 10
62.00686226755288
 20
-124.9319710348899
 10
62.0070743444486
 20
-124.9311163625719
 10
62.00725826042468
 20
-124.930339776093
 10
62.00743351476528
 20
-124.9295636624029
 10
62.00759991068178
 20
-124.9287881211059
 10
62.00775725138599
 20
-124.92801325181
 10
62.00790534008928
 20
-124.9272391541199
 10
62.00803054681609
 20
-124.926543208248
 10
62.00814795656468
 20
-124.9258480406699
 10
62.00825742587658
 20
-124.925153723999
 10
62.00835881129297
 20
-124.92446033085
 10
62.008451969355
 20
-124.923767933833
 10
62.008536756604
 20
-124.923076605563
 10
62.00861302958118
 20
-124.922386418652
 10
62.00868064482778
 20
-124.9216974457119
 10
62.00873336307688
 20
-124.92108610316
 10
62.00877902654426
 20
-124.920475828166
 10
62.00881753447418
 20
-124.91986667173
 10
62.00884878611089
 20
-124.919258684849
 10
62.00887268069878
 20
-124.918651918522
 10
62.00888911748227
 20
-124.9180464237469
 10
62.0088979957056
 20
-124.9174422515229
 10
62.00889921461299
 20
-124.9168394528469
 10
62.00889267344888
 20
-124.916238078719
 10
62.00887827145769
 20
-124.915638180135
 10
62.00885590788359
 20
-124.915039808096
 10
62.00882972956296
 20
-124.9145175248959
 10
62.00879731101609
 20
-124.9139964836659
 10
62.00875858474437
 20
-124.913476718571
 10
62.00871348324946
 20
-124.912958263777
 10
62.00866193903287
 20
-124.912441153448
 10
62.00860388459628
 20
-124.911925421749
 10
62.00853925244119
 20
-124.911411102844
 10
62.00846797506919
 20
-124.910898230899
 10
62.00838998498178
 20
-124.910386840079
 10
62.00830521468069
 20
-124.909876964549
 10
62.00821359666726
 20
-124.9093686384719
 10
62.00811506344336
 20
-124.9088618960149
 10
62.00800954751028
 20
-124.9083567713419
 10
62.00789698136979
 20
-124.9078532986177
 10
62.00777729752338
 20
-124.907351512008
 10
62.00765042847269
 20
-124.9068514456759
 10
62.00751630671921
 20
-124.9063531337879
 10
62.00737486476437
 20
-124.9058566105089
 10
62.00722603511009
 20
-124.9053619100028
 10
62.00709253566419
 20
-124.904939357674
 10
62.0069535164236
 20
-124.9045181911409
 10
62.006808934882
 20
-124.904098431919
 10
62.00665874853318
 20
-124.9036801015229
 10
62.00650291487078
 20
-124.903263221468
 10
62.00634139138847
 20
-124.9028478132679
 10
62.00617413558019
 20
-124.902433898439
 10
62.00600110493929
 20
-124.902021498496
 10
62.00582225695971
 20
-124.9016106349529
 10
62.0056375491351
 20
-124.901201329325
 10
62.0054469389591
 20
-124.900793603128
 10
62.00525038392549
 20
-124.9003874778749
 10
62.00504784560749
 20
-124.8999829910959
 10
62.00483932614067
 20
-124.8995803395399
 10
62.00462485090188
 20
-124.8991798111849
 10
62.00440444554248
 20
-124.898781695086
 10
62.00417813571398
 20
-124.898386280301
 10
62.00394594706768
 20
-124.897993855885
 10
62.00370790525528
 20
-124.897604710895
 10
62.00346403592799
 20
-124.897219134386
 10
62.00321436473736
 20
-124.8968374154159
 10
62.00295891733489
 20
-124.896459843041
 10
62.00269771937189
 20
-124.8960867063169
 10
62.0024367289216
 20
-124.895726344737
  0
LWPOLYLINE
  5
361
330
1E
100
AcDbEntity
  8
1
100
AcDbPolyline
 90
       65
 70
     0
 43
0.0
 10
56.47371316810001
 20
-128.2159807523999
 10
56.48273816474638
 20
-128.22501391808
 10
56.49395971941228
 20
-128.231556039778
 10
56.50665476131358
 20
-128.236048081691
 10
56.52010021966638
 20
-128.2389310080199
 10
56.53361004665359
 20
-128.24062897575
 10
56.54692641786059
 20
-128.241371742495
 10
56.56006675577771
 20
-128.241264112805
 10
56.57305302445609
 20
-128.240408829508
 10
56.58590718794709
 20
-128.2389086354355
 10
56.59865121030199
 20
-128.236866273418
 10
56.61130705557187
 20
-128.2343844862849
 10
56.62389668780829
 20
-128.231566016865
 10
56.64270503308678
 20
-128.2269317833899
 10
56.68023371588969
 20
-128.2170891238489
 10
56.71766699090959
 20
-128.2066903180775
 10
56.75497175806997
 20
-128.1957221734169
 10
56.78593699938119
 20
-128.186137539412
 10
56.81677082454168
 20
-128.17614058682
 10
56.84745516585968
 20
-128.165725157524
 10
56.88407903870309
 20
-128.152701178268
 10
56.92050859407697
 20
-128.139164551007
 10
56.96279444202677
 20
-128.12281043652
 10
57.01687677633568
 20
-128.1010539545939
 10
57.08861082887368
 20
-128.071120597938
 10
57.18377531523
 20
-128.030100344771
 10
57.28434066352107
 20
-127.985287292485
 10
57.39611679676098
 20
-127.9338388587019
 10
57.51896546615219
 20
-127.8754888388349
 10
57.66438865886938
 20
-127.804301167503
 10
57.84944585508007
 20
-127.7110042396569
 10
58.05637315950728
 20
-127.6035899988209
 10
58.29059168741427
 20
-127.4785068745539
 10
58.55738182112276
 20
-127.331969789261
 10
58.85062591102251
 20
-127.1663854461319
 10
59.16429396401248
 20
-126.9843383811219
 10
59.48689518849946
 20
-126.7919325096729
 10
59.80716496152077
 20
-126.5956709055896
 10
60.10860786006617
 20
-126.4059198165188
 10
60.38598377874238
 20
-126.2266050671349
 10
60.63416373344109
 20
-126.0618170710379
 10
60.8481861955309
 20
-125.915869206634
 10
61.03384637557219
 20
-125.785820045777
 10
61.19152869653099
 20
-125.6723007068309
 10
61.32165624208409
 20
-125.5759835349399
 10
61.42987747056899
 20
-125.4936354187639
 10
61.52168276445107
 20
-125.4217709342229
 10
61.59739783765211
 20
-125.3608281148059
 10
61.66223155187759
 20
-125.3070529389558
 10
61.71632201295317
 20
-125.2606976214539
 10
61.76474450456311
 20
-125.2177670431259
 10
61.80287059832109
 20
-125.182784486597
 10
61.83568438880538
 20
-125.1515689518639
 10
61.86333567735669
 20
-125.124262525209
 10
61.8860020188961
 20
-125.101058589751
 10
61.90829257018238
 20
-125.077397900611
 10
61.92579006510698
 20
-125.0580908169659
 10
61.93857381439517
 20
-125.0433161350119
 10
61.95093432243348
 20
-125.0282237364839
 10
61.96275247326319
 20
-125.0127547612809
 10
61.97027110822719
 20
-125.002203835167
 10
61.97746046149948
 20
-124.9914419415679
 10
61.98428523946287
 20
-124.980451640455
 10
61.99071014849999
 20
-124.9692154918
 10
61.99070535141288
 20
-124.96922426607
  0
LWPOLYLINE
  5
3A4
330
1E
100
AcDbEntity
  8
1
100
AcDbPolyline
 90
        2
 70
     0
 43
0.0
 10
62.9885724756
 20
119.5025360766999
 10
62.98835986253751
 20
103.8710651639569
  0
LWPOLYLINE
  5
3A8
330
1E
100
AcDbEntity
  8
1
100
AcDbPolyline
 90
        2
 70
     0
 43
0.0
 10
61.80000362090002
 20
99.63842453379992
 10
62.02938507096031
 20
99.75966246451919
  0
LWPOLYLINE
  5
3AC
330
1E
100
AcDbEntity
  8
1
100
AcDbPolyline
 90
        2
 70
     0
 43
0.0
 10
61.8467682808
 20
120.1389676151997
 10
62.98856374212951
 20
119.5025409476847
  0
LWPOLYLINE
  5
3B0
330
1E
100
AcDbEntity
  8
1
100
AcDbPolyline
 90
       38
 70
     0
 43
0.0
 10
61.80412340950002
 20
118.6271965992999
 10
61.87832781415378
 20
118.2442112633518
 10
61.94836855093299
 20
117.8604201300748
 10
62.01422147359092
 20
117.475862758404
 10
62.07373484099881
 20
117.1043616604149
 10
62.1293121669496
 20
116.7322413177979
 10
62.18093282676393
 20
116.3595475130857
 10
62.22857619588642
 20
115.9863260287629
 10
62.2722238013663
 20
115.6126218047928
 10
62.31186480131981
 20
115.238476792977
 10
62.34749004487451
 20
114.8639322829527
 10
62.37909038115851
 20
114.4890295643589
 10
62.40665665929942
 20
114.1138099268319
 10
62.43017974274589
 20
113.7383146638756
 10
62.44965345279221
 20
113.3625858671889
 10
62.46507817209741
 20
112.98666739911
 10
62.47645516525942
 20
112.6106033599709
 10
62.48378569687612
 20
112.2344378501066
 10
62.48707103154551
 20
111.8582149698519
 10
62.48631253158132
 20
111.4819788083027
 10
62.48151589112731
 20
111.105772956429
 10
62.47269276098442
 20
110.7296403202219
 10
62.4598552250044
 20
110.3536237558769
 10
62.44301536703932
 20
109.977766119589
 10
62.42218527094121
 20
109.6021102675538
 10
62.39737725667719
 20
109.2266989213049
 10
62.36860826238951
 20
108.8515721685377
 10
62.33589943359642
 20
108.476767697394
 10
62.29927206954823
 20
108.102323108339
 10
62.25717199208621
 20
107.7144305290226
 10
62.21090440303472
 20
107.3270073555979
 10
62.160493719984
 20
106.9400957260967
 10
62.10597064185261
 20
106.553739702595
 10
62.04736933175489
 20
106.1679844082958
 10
61.98241229062823
 20
105.7691335808809
 10
61.91315519523872
 20
105.3710257187769
 10
61.83963604131321
 20
104.9737109624736
 10
61.8026316048116
 20
104.7822094737769
  0
LWPOLYLINE
  5
3D8
330
1E
100
AcDbEntity
  8
1
100
AcDbPolyline
 90
        2
 70
     0
 43
0.0
 10
62.9883598332
 20
103.8710551639997
 10
61.80000619275421
 20
103.0640067180737
  0
LWPOLYLINE
  5
3DC
330
1E
100
AcDbEntity
  8
1
100
AcDbPolyline
 90
       83
 70
     0
 43
0.0
 10
47.83206825859998
 20
-132.4846692863
 10
47.83062856814739
 20
-132.487340323857
 10
47.82936479188085
 20
-132.489753513131
 10
47.82820001652328
 20
-132.4920431860739
 10
47.82713140160306
 20
-132.494207154547
 10
47.82615570718788
 20
-132.496243257104
 10
47.82526940106178
 20
-132.49814937885
 10
47.82443714677308
 20
-132.499994619395
 10
47.82365749649907
 20
-132.501778055806
 10
47.82292887443258
 20
-132.503498766616
 10
47.82224959838968
 20
-132.505155835821
 10
47.82161790055427
 20
-132.5067483567289
 10
47.82100446905277
 20
-132.508348324619
 10
47.82043657892759
 20
-132.5098826138809
 10
47.81991278146228
 20
-132.511350293286
 10
47.81945659396159
 20
-132.512676610496
 10
47.81901574339488
 20
-132.514008070555
 10
47.81861425638719
 20
-132.5152703016117
 10
47.81825025749749
 20
-132.516462506966
 10
47.81792178336359
 20
-132.517583932061
 10
47.81760619009488
 20
-132.5187089816589
 10
47.81732370492487
 20
-132.519762308698
 10
47.81705329405938
 20
-132.520818813397
 10
47.81679536960028
 20
-132.5218785055648
 10
47.81656740896109
 20
-132.5228653680929
 10
47.81635089994678
 20
-132.5238549953089
 10
47.81614617250935
 20
-132.524847395066
 10
47.81596793570487
 20
-132.525765924006
 10
47.81580027829899
 20
-132.526686828214
 10
47.81564345980789
 20
-132.5276101138689
 10
47.81550945285488
 20
-132.52845855636
 10
47.81538497156009
 20
-132.5293090098749
 10
47.81527023195418
 20
-132.530161462056
 10
47.81516559408988
 20
-132.5310157478108
 10
47.81507960138659
 20
-132.531793755886
 10
47.81500264524477
 20
-132.532572891636
 10
47.81493505355569
 20
-132.533352970175
 10
47.81488249864427
 20
-132.534055694133
 10
47.81483803356358
 20
-132.5347588972068
 10
47.81480189734628
 20
-132.5354624446139
 10
47.81477432902478
 20
-132.5361662015698
 10
47.81475556763168
 20
-132.536870033293
 10
47.81474647754568
 20
-132.537495615298
 10
47.81474470276567
 20
-132.5381210552199
 10
47.81475041117198
 20
-132.538746258396
 10
47.81476377064468
 20
-132.539371130165
 10
47.81478494906397
 20
-132.539995575862
 10
47.81481411431019
 20
-132.540619500827
 10
47.81485143426327
 20
-132.5412428103969
 10
47.81489091060648
 20
-132.541787627036
 10
47.81493687139707
 20
-132.542331836621
 10
47.81498942910178
 20
-132.542875375735
 10
47.81504869618697
 20
-132.543418180962
 10
47.81511478511947
 20
-132.543960188884
 10
47.81518780836587
 20
-132.5445013360859
 10
47.81526787839267
 20
-132.545041559151
 10
47.81535510766651
 20
-132.5455807946629
 10
47.81544960865399
 20
-132.546118979204
 10
47.81555149382177
 20
-132.54665604936
 10
47.81566087260228
 20
-132.547191939358
 10
47.81577779406569
 20
-132.547726536573
 10
47.81590225173178
 20
-132.548259685263
 10
47.81603423705084
 20
-132.54879122808
 10
47.81617374147328
 20
-132.549321007675
 10
47.81632075644927
 20
-132.549848866698
 10
47.81647527342907
 20
-132.550374647803
 10
47.81663728386309
 20
-132.550898193638
 10
47.81680677920159
 20
-132.5514193468569
 10
47.81698375089487
 20
-132.551937950109
 10
47.81716819039318
 20
-132.552453846047
 10
47.81736008914688
 20
-132.552966877322
 10
47.81755943860608
 20
-132.553476886584
 10
47.81776623022135
 20
-132.5539837164859
 10
47.81798045544277
 20
-132.5544872096779
 10
47.81820210572077
 20
-132.554987208812
 10
47.81843117250557
 20
-132.555483556539
 10
47.81866764724748
 20
-132.5559760955099
 10
47.81891152139677
 20
-132.556464668376
 10
47.81916278640377
 20
-132.5569491177897
 10
47.81942143371877
 20
-132.5574292864009
 10
47.81968745479207
 20
-132.5579050168619
 10
47.81996084107388
 20
-132.558376151823
 10
47.81999539040838
 20
-132.558434474599
  0
LWPOLYLINE
  5
431
330
1E
100
AcDbEntity
  8
1
100
AcDbPolyline
 90
       66
 70
     0
 43
0.0
 10
53.34941235269999
 20
-129.2376274368999
 10
53.34081811580797
 20
-129.227957431188
 10
53.32961945563987
 20
-129.221343317628
 10
53.31728674380308
 20
-129.2172847340299
 10
53.30452957267509
 20
-129.2149488212089
 10
53.29160566569628
 20
-129.213840003864
 10
53.27864372427349
 20
-129.2136136963509
 10
53.26568639763949
 20
-129.214071586798
 10
53.25276159598819
 20
-129.2150524201078
 10
53.23987707496458
 20
-129.21646544738
 10
53.22703672441111
 20
-129.218233752702
 10
53.21424202658087
 20
-129.2202985783019
 10
53.19513256988609
 20
-129.2238704066839
 10
53.17611747628909
 20
-129.227910272197
 10
53.15719028964089
 20
-129.232342998645
 10
53.13834417792676
 20
-129.2371080932118
 10
53.11333159109899
 20
-129.243899540336
 10
53.08843914844039
 20
-129.251119160423
 10
53.05747512571219
 20
-129.260648652216
 10
53.02666219141828
 20
-129.2706558986399
 10
52.98986414215828
 20
-129.283196938605
 10
52.94714999205268
 20
-129.298449089843
 10
52.89858568313668
 20
-129.316569688256
 10
52.84423201721677
 20
-129.337693173064
 10
52.78414450298821
 20
-129.361934646564
 10
52.71240978592079
 20
-129.391925553248
 10
52.62916303012996
 20
-129.4279576722469
 10
52.53453078193651
 20
-129.470288917198
 10
52.42276230672018
 20
-129.521893208243
 10
52.29405868917536
 20
-129.583164976853
 10
52.14280766623488
 20
-129.657342577082
 10
51.9635180637621
 20
-129.747890749833
 10
51.75655915642121
 20
-129.8554795203637
 10
51.51660091169728
 20
-129.9838321689759
 10
51.24978437341789
 20
-130.1306136187079
 10
50.95650788412758
 20
-130.296460755193
 10
50.64280191524836
 20
-130.478780903557
 10
50.32016150357008
 20
-130.6714641825249
 10
49.99985804990989
 20
-130.8680076696018
 10
49.69839437017277
 20
-131.058038721368
 10
49.42101603071417
 20
-131.2376313435889
 10
49.17284857027951
 20
-131.402690229022
 10
48.95886027214435
 20
-131.548903872765
 10
48.77326534983819
 20
-131.679215456336
 10
48.62089408127818
 20
-131.789165292324
 10
48.49079351082369
 20
-131.8856636638479
 10
48.38261546676678
 20
-131.968193261557
 10
48.29088969290899
 20
-132.0402227415719
 10
48.21532794984188
 20
-132.101347094074
 10
48.15559081153269
 20
-132.1511145066205
 10
48.10152201415477
 20
-132.197550719064
 10
48.05789163659198
 20
-132.236240665934
 10
48.01967933440379
 20
-132.2712644451899
 10
47.98678955617218
 20
-132.302495889074
 10
47.95910343175799
 20
-132.329788278155
 10
47.93647456433848
 20
-132.352972770788
 10
47.91872582964447
 20
-132.371860459253
 10
47.90136654670234
 20
-132.3911067959537
 10
47.88865438328178
 20
-132.405814576137
 10
47.87626920538285
 20
-132.4207978565069
 10
47.86428093456389
 20
-132.43610060777
 10
47.85279881609549
 20
-132.45178772628
 10
47.84549476608519
 20
-132.462499269634
 10
47.83855033791017
 20
-132.473447708374
 10
47.83206825860008
 20
-132.4846692863
 10
47.83207305572608
 20
-132.484660512043
  0
LWPOLYLINE
  5
475
330
1E
100
AcDbEntity
  8
1
100
AcDbPolyline
 90
       65
 70
     0
 43
0.0
 10
47.82000049699997
 20
-132.5584430725
 10
47.82859473378628
 20
-132.568113078284
 10
47.8397933940015
 20
-132.574727191833
 10
47.85212610581406
 20
-132.578785775447
 10
47.86488327694637
 20
-132.581121688216
 10
47.87780718393878
 20
-132.582230505531
 10
47.89076912536216
 20
-132.5824568130929
 10
47.90372645199236
 20
-132.5819989227109
 10
47.91665125364398
 20
-132.581018089427
 10
47.92953577466888
 20
-132.5796050621449
 10
47.94237612522027
 20
-132.5778367567918
 10
47.95517082304437
 20
-132.5757719311529
 10
47.97428027973135
 20
-132.572200102734
 10
47.99329537333298
 20
-132.56816023724
 10
48.01222255999348
 20
-132.5637275108449
 10
48.03106867171768
 20
-132.558962416319
 10
48.05608125854748
 20
-132.5521709692007
 10
48.08097370119629
 20
-132.544951349078
 10
48.11193772390608
 20
-132.5354218572247
 10
48.14275065819908
 20
-132.525414610797
 10
48.17954870748199
 20
-132.5128735708989
 10
48.22226285760168
 20
-132.4976214196985
 10
48.27082716650099
 20
-132.4795008212399
 10
48.32518083239738
 20
-132.4583773363699
 10
48.38526834665438
 20
-132.434135862938
 10
48.45700306373299
 20
-132.4041449562809
 10
48.54024981952075
 20
-132.368112837272
 10
48.63488206771668
 20
-132.3257815923239
 10
48.74665054293388
 20
-132.2741773012789
 10
48.87535416046478
 20
-132.212905532637
 10
49.02660518341578
 20
-132.138727932425
 10
49.20589478589569
 20
-132.048179759685
 10
49.41285369324019
 20
-131.940590989157
 10
49.65281193797085
 20
-131.812238340552
 10
49.91962847623028
 20
-131.665456890778
 10
50.21290496554159
 20
-131.4996097543239
 10
50.5266109344194
 20
-131.3172896059519
 10
50.84925134605768
 20
-131.124606326912
 10
51.16955479976986
 20
-130.9280628399139
 10
51.47101847946437
 20
-130.738031788074
 10
51.74839681896827
 20
-130.558439165919
 10
51.99656427940507
 20
-130.3933802804839
 10
52.21055257750396
 20
-130.247166636685
 10
52.39614749988039
 20
-130.116855053211
 10
52.54851876839559
 20
-130.0069052171579
 10
52.67861933885757
 20
-129.910406845641
 10
52.78679738291868
 20
-129.8278772479355
 10
52.87852315675859
 20
-129.7558477678959
 10
52.95408489982708
 20
-129.694723415396
 10
53.01382203813939
 20
-129.6449560028499
 10
53.06789083552619
 20
-129.5985197904178
 10
53.11152121306219
 20
-129.559829843516
 10
53.14973351529527
 20
-129.524806064309
 10
53.18262329352349
 20
-129.493574620422
 10
53.21030941796339
 20
-129.466282231364
 10
53.23293828541411
 20
-129.4430977387609
 10
53.25068702008977
 20
-129.42421005028
 10
53.26804630299911
 20
-129.4049637135477
 10
53.28075846641219
 20
-129.390255933358
 10
53.29314364431509
 20
-129.375272652992
 10
53.30513191513719
 20
-129.3599699017308
 10
53.31661403360488
 20
-129.3442827832199
 10
53.32391808361468
 20
-129.333571239866
 10
53.33086251178976
 20
-129.322622801126
 10
53.33733979397388
 20
-129.311409997457
  0
LWPOLYLINE
  5
4B8
330
1E
100
AcDbEntity
  8
1
100
AcDbPolyline
 90
       83
 70
     0
 43
0.0
 10
53.33734459109997
 20
-129.3114012231999
 10
53.33878428155328
 20
-129.308730185639
 10
53.34004805781888
 20
-129.3063169963619
 10
53.34121283317472
 20
-129.3040273234147
 10
53.34228144809237
 20
-129.301863354937
 10
53.34325714250489
 20
-129.2998272523755
 10
53.34414344862828
 20
-129.2979211306259
 10
53.34497570291459
 20
-129.2960758900767
 10
53.34575535318617
 20
-129.2942924536619
 10
53.34648397525057
 20
-129.292571742849
 10
53.34716325129168
 20
-129.2909146736409
 10
53.34779494912588
 20
-129.2893221527299
 10
53.34840838062648
 20
-129.287722184837
 10
53.34897627075127
 20
-129.286187895573
 10
53.34950006821671
 20
-129.2847202161659
 10
53.34995625571778
 20
-129.283393898955
 10
53.35039710628499
 20
-129.2820624388939
 10
53.35079859329358
 20
-129.2808002078359
 10
53.35116259218409
 20
-129.279608002481
 10
53.35149106631899
 20
-129.278486577384
 10
53.35180665958878
 20
-129.2773615277849
 10
53.35208914475988
 20
-129.2763082007449
 10
53.35235955562659
 20
-129.2752516960449
 10
53.35261748008679
 20
-129.274192003876
 10
53.35284544072719
 20
-129.273205141347
 10
53.35306194974259
 20
-129.27221551413
 10
53.35326667718109
 20
-129.2712231143729
 10
53.35344491398657
 20
-129.270304585432
 10
53.35361257139338
 20
-129.2693836812229
 10
53.35376938988549
 20
-129.268460395568
 10
53.35390339683938
 20
-129.267611953075
 10
53.35402787813489
 20
-129.26676149956
 10
53.35414261774158
 20
-129.265909047378
 10
53.3542472556066
 20
-129.265054761622
 10
53.35433324831048
 20
-129.2642767535459
 10
53.35441020445278
 20
-129.263497617795
 10
53.35447779614248
 20
-129.262717539256
 10
53.35453035105437
 20
-129.262014815297
 10
53.35457481613539
 20
-129.261311612222
 10
53.35461095235318
 20
-129.2606080648139
 10
53.35463852067499
 20
-129.259904307857
 10
53.35465728206847
 20
-129.2592004761329
 10
53.35466637215477
 20
-129.2585748941277
 10
53.35466814693508
 20
-129.257949454205
 10
53.35466243852909
 20
-129.257324251028
 10
53.35464907905659
 20
-129.256699379259
 10
53.35462790063751
 20
-129.2560749335599
 10
53.35459873539149
 20
-129.255451008595
 10
53.35456141543859
 20
-129.2548276990235
 10
53.35452193909547
 20
-129.2542828823835
 10
53.35447597830498
 20
-129.2537386727989
 10
53.35442342060048
 20
-129.253195133684
 10
53.35436415351538
 20
-129.2526523284567
 10
53.35429806458297
 20
-129.252110320534
 10
53.35422504133678
 20
-129.251569173331
 10
53.35414497130996
 20
-129.251028950265
 10
53.35405774203628
 20
-129.250489714753
 10
53.35396324104878
 20
-129.2499515302109
 10
53.35386135588109
 20
-129.249414460055
 10
53.35375197710058
 20
-129.248878570056
 10
53.35363505563719
 20
-129.2483439728409
 10
53.35351059797119
 20
-129.2478108241489
 10
53.35337861265209
 20
-129.2472792813319
 10
53.35323910822967
 20
-129.246749501736
 10
53.3530920932537
 20
-129.246221642712
 10
53.35293757627376
 20
-129.245695861607
 10
53.35277556583967
 20
-129.245172315771
 10
53.35260607050106
 20
-129.244651162552
 10
53.35242909880777
 20
-129.244132559299
 10
53.35224465930938
 20
-129.2436166633599
 10
53.35205276055559
 20
-129.2431036320849
 10
53.35185341109617
 20
-129.2425936228219
 10
53.35164661948081
 20
-129.2420867929189
 10
53.35143239425921
 20
-129.241583299727
 10
53.35121074398099
 20
-129.241083300592
 10
53.35098167719596
 20
-129.240586952865
 10
53.35074520245388
 20
-129.2400944138929
 10
53.35050132830438
 20
-129.2396058410259
 10
53.35025006329709
 20
-129.2391213916117
 10
53.34999141598188
 20
-129.2386412229997
 10
53.34972539490828
 20
-129.2381654925389
 10
53.34945200862619
 20
-129.2376943575769
 10
53.34941745929159
 20
-129.237636034801
  0
LWPOLYLINE
  5
50D
330
1E
100
AcDbEntity
  8
1
100
AcDbPolyline
 90
       29
 70
     0
 43
0.0
 10
62.19090603569999
 20
-22.7514674817
 10
62.18793750110879
 20
-22.7546981585123
 10
62.1854369670973
 20
-22.75827232003819
 10
62.1833482481897
 20
-22.76213949056077
 10
62.18161515891051
 20
-22.76624919436339
 10
62.18018151378428
 20
-22.7705509557291
 10
62.1789911273353
 20
-22.7749942989412
 10
62.177987814088
 20
-22.7795287482828
 10
62.1771153885669
 20
-22.7841038280371
 10
62.175951807759
 20
-22.7909536525143
 10
62.1749313525995
 20
-22.7977675329128
 10
62.1740460048031
 20
-22.80454777931038
 10
62.173287770842
 20
-22.8112967253229
 10
62.1726486571883
 20
-22.81801670456639
 10
62.17212067031421
 20
-22.82471005065698
 10
62.1715757357205
 20
-22.83359711617261
 10
62.1711952015084
 20
-22.8424465140457
 10
62.1709601200562
 20
-22.85126377581089
 10
62.1708419456674
 20
-22.8622485885621
 10
62.170884428484
 20
-22.8732026354449
 10
62.1711433470646
 20
-22.88850718481501
 10
62.1732230750128
 20
-22.96970520019061
 10
62.1773384314976
 20
-23.1495271163989
 10
62.1799107887871
 20
-23.2182852958634
 10
62.1843818102778
 20
-23.31121623911639
 10
62.2009766139925
 20
-23.58964355806099
 10
62.22731818806011
 20
-23.9765149680717
 10
62.273505397017
 20
-24.56173598922839
 10
62.3076982706011
 20
-24.95902334286959
  0
LWPOLYLINE
  5
52C
330
1E
100
AcDbEntity
  8
1
100
AcDbPolyline
 90
        4
 70
     0
 43
0.0
 10
62.3076991537
 20
-24.95903330380011
 10
62.3945553584935
 20
-25.88398586504169
 10
62.4928071073983
 20
-26.8302334500257
 10
62.5089820926493
 20
-26.97741331640052
  0
LWPOLYLINE
  5
532
330
1E
100
AcDbEntity
  8
1
100
AcDbPolyline
 90
       68
 70
     0
 43
0.0
 10
62.5089831937
 20
-26.9774232556001
 10
62.5901412219762
 20
-27.67942610360941
 10
62.65297701613249
 20
-28.1820489355241
 10
62.6694564266915
 20
-28.3047099131474
 10
62.68229772195249
 20
-28.3956812105613
 10
62.7028731489521
 20
-28.5360319243815
 10
62.7092846362187
 20
-28.5798231277846
 10
62.7140949409207
 20
-28.61303445816581
 10
62.7182573226486
 20
-28.64213283377001
 10
62.7220888212732
 20
-28.66929396695681
 10
62.7255879802815
 20
-28.69447693827039
 10
62.7303476763663
 20
-28.72923320125341
 10
62.7391051118151
 20
-28.79193795814611
 10
62.74214744268129
 20
-28.8125512044378
 10
62.7445763654481
 20
-28.8283880702368
 10
62.7467090969578
 20
-28.84179206297631
 10
62.748894423218
 20
-28.855011439452
 10
62.7507596039284
 20
-28.8658679250007
 10
62.75266818926739
 20
-28.87656331916069
 10
62.75462330673351
 20
-28.88708267390919
 10
62.7562230055167
 20
-28.89536136426039
 10
62.7578560877394
 20
-28.9035101692661
 10
62.75952415468061
 20
-28.9115214355387
 10
62.7612288076196
 20
-28.91938750969059
 10
62.76297164783549
 20
-28.92710073833399
 10
62.7647542766075
 20
-28.9346534680814
 10
62.7665782952147
 20
-28.94203804554511
 10
62.76844488225739
 20
-28.94924972941531
 10
62.770831520604
 20
-28.95807083811099
 10
62.77820771540072
 20
-28.9842703628471
 10
62.7801939552598
 20
-28.99145095200699
 10
62.78167995452999
 20
-28.99695609062399
 10
62.78315929210871
 20
-29.0025895710816
 10
62.78462881181189
 20
-29.0083745635458
 10
62.78608535745599
 20
-29.01433423818251
 10
62.78704762146549
 20
-29.01841584231581
 10
62.78800178131259
 20
-29.022592246056
 10
62.7889469018316
 20
-29.0268703146377
 10
62.78988204785699
 20
-29.0312569132952
 10
62.79080628422327
 20
-29.0357589072628
 10
62.7917186757649
 20
-29.04038316177489
 10
62.79261828731621
 20
-29.04513654206589
 10
62.79350418371159
 20
-29.05002591337018
 10
62.79437542978559
 20
-29.05505814092199
 10
62.7952310903726
 20
-29.0602400899559
 10
62.79607023030698
 20
-29.06557862570609
 10
62.79689191442319
 20
-29.07108061340689
 10
62.79769520755579
 20
-29.0767529182929
 10
62.79847917453909
 20
-29.08260240559831
 10
62.79924288020749
 20
-29.08863594055739
 10
62.79998538939549
 20
-29.0948603884048
 10
62.80070576693749
 20
-29.1012826143746
 10
62.80140466915611
 20
-29.10790343191489
 10
62.80245455334429
 20
-29.11805531878589
 10
62.80359021521248
 20
-29.12816273348131
 10
62.80444175435169
 20
-29.134703944588
 10
62.80540158234488
 20
-29.1409668523943
 10
62.8064977653684
 20
-29.14684804174461
 10
62.80775836959839
 20
-29.15224409748331
 10
62.80921146121118
 20
-29.1570516044548
 10
62.81088510638309
 20
-29.16116714750351
 10
62.81280737129019
 20
-29.16448731147379
 10
62.81500632210899
 20
-29.1669086812101
 10
62.81751002501559
 20
-29.1683278415568
 10
62.82034654618628
 20
-29.16864137735839
 10
62.82354395179739
 20
-29.1677458734591
 10
62.82706035169999
 20
-29.16552010830002
 10
62.82705307460639
 20
-29.16552696871289
  0
LWPOLYLINE
  5
578
330
1E
100
AcDbEntity
  8
1
100
AcDbPolyline
 90
        3
 70
     0
 43
0.0
 10
62.98857247559999
 20
-33.1415923434001
 10
62.99994648599178
 20
-30.6406880124263
 10
62.988359917017
 20
-28.0481075074487
  0
LWPOLYLINE
  5
57D
330
1E
100
AcDbEntity
  8
1
100
AcDbPolyline
 90
        2
 70
     0
 43
0.0
 10
61.79999791270001
 20
-18.79657492029998
 10
62.0293839540131
 20
-18.7753961645674
  0
LWPOLYLINE
  5
581
330
1E
100
AcDbEntity
  8
1
100
AcDbPolyline
 90
        2
 70
     0
 43
0.0
 10
61.40868933100001
 20
-33.30905727840011
 10
62.9885625323217
 20
-33.1415934069871
  0
LWPOLYLINE
  5
585
330
1E
100
AcDbEntity
  8
1
100
AcDbPolyline
 90
       67
 70
     0
 43
0.0
 10
62.5089831937
 20
-24.93956433440001
 10
62.4278251653628
 20
-24.23756148642199
 10
62.3649893712453
 20
-23.73493865447009
 10
62.3485099606851
 20
-23.61227767686198
 10
62.3356686654515
 20
-23.52130637948969
 10
62.3150932385133
 20
-23.38095566574269
 10
62.3086817512513
 20
-23.33716446234221
 10
62.30387144654351
 20
-23.3039531319513
 10
62.2997090648025
 20
-23.2748547563288
 10
62.2958775661582
 20
-23.24769362311561
 10
62.2923784071245
 20
-23.2225106517689
 10
62.2876187109942
 20
-23.1877543887276
 10
62.2788612754585
 20
-23.1250496317234
 10
62.2758189445698
 20
-23.1044363854028
 10
62.2733900217902
 20
-23.08859951958719
 10
62.2712572902736
 20
-23.07519552683849
 10
62.2690719640108
 20
-23.0619761503592
 10
62.2672067833022
 20
-23.05111966481239
 10
62.2652981979688
 20
-23.04042427065911
 10
62.2633430805126
 20
-23.02990491592268
 10
62.2617433817405
 20
-23.02162622558519
 10
62.2601102995322
 20
-23.01347742059721
 10
62.2584422326085
 20
-23.0054661543465
 10
62.2567375796906
 20
-22.99760008022099
 10
62.2549947394996
 20
-22.98988685160848
 10
62.25321211075629
 20
-22.982334121897
 10
62.25138809218178
 20
-22.9749495444742
 10
62.2495215051761
 20
-22.96773786065031
 10
62.2471348668802
 20
-22.9589167520187
 10
62.2397586722409
 20
-22.9327172274833
 10
62.2377724324185
 20
-22.92553663837059
 10
62.2362864331727
 20
-22.9200314997852
 10
62.2348070956152
 20
-22.9143980193551
 10
62.23333757592921
 20
-22.9086130269136
 10
62.2318810302979
 20
-22.9026533522938
 10
62.2309187662942
 20
-22.89857174816839
 10
62.2299646064506
 20
-22.89439534443296
 10
62.22901948593239
 20
-22.89011727585279
 10
62.228084339905
 20
-22.88573067719338
 10
62.2271601035339
 20
-22.8812286832201
 10
62.22624771198439
 20
-22.87660442869839
 10
62.2253481004219
 20
-22.8718510483936
 10
62.2244622040119
 20
-22.8669616770713
 10
62.2235909579197
 20
-22.86192944949669
 10
62.2227352973107
 20
-22.85674750043539
 10
62.2218961573504
 20
-22.85140896465259
 10
62.221074473204
 20
-22.84590697691391
 10
62.22027118003709
 20
-22.8402346719847
 10
62.2194872130151
 20
-22.83438518463039
 10
62.2187235073032
 20
-22.8283516496163
 10
62.217980998067
 20
-22.8221272017079
 10
62.21726062047179
 20
-22.8157049756707
 10
62.216561718195
 20
-22.80908415805698
 10
62.21551183391309
 20
-22.7989322710701
 10
62.2143761719511
 20
-22.7888248562605
 10
62.2135246327534
 20
-22.78228364508338
 10
62.212564804708
 20
-22.77602073721439
 10
62.211468621641
 20
-22.770139547812
 10
62.21020801737878
 20
-22.7647434920345
 10
62.2087549257475
 20
-22.75993598504039
 10
62.2070812805733
 20
-22.755820441988
 10
62.2051590156826
 20
-22.7525002780358
 10
62.2029600649015
 20
-22.75007890834209
 10
62.20045636205629
 20
-22.7486597480653
 10
62.19761984097321
 20
-22.74834621236389
 10
62.19442243547849
 20
-22.74924171639619
 10
62.19091331279351
 20
-22.75146062128719
  0
LWPOLYLINE
  5
5CA
330
1E
100
AcDbEntity
  8
1
100
AcDbPolyline
 90
        6
 70
     0
 43
0.0
 10
60.735806133
 20
-24.15831500639999
 10
60.6788663776135
 20
-24.2699507480259
 10
60.61791706700059
 20
-24.38617874605431
 10
60.55227818844279
 20
-24.50795211794751
 10
60.4815226449942
 20
-24.6356801011332
 10
60.4568452270584
 20
-24.67943580267331
  0
LWPOLYLINE
  5
5D2
330
1E
100
AcDbEntity
  8
1
100
AcDbPolyline
 90
        3
 70
     0
 43
0.0
 10
62.0293939118
 20
-18.7753952467
 10
62.0180199013959
 20
-21.27629957762311
 10
62.0296064703831
 20
-23.8688800825513
  0
LWPOLYLINE
  5
5D7
330
1E
100
AcDbEntity
  8
1
100
AcDbPolyline
 90
       25
 70
     0
 43
0.0
 10
62.82706035169999
 20
-29.16552010830002
 10
62.83233514463849
 20
-29.1590288392274
 10
62.83608132771188
 20
-29.1514467041256
 10
62.83869386708809
 20
-29.1431285313666
 10
62.84056772893509
 20
-29.1344291493225
 10
62.84207121462318
 20
-29.1256780344988
 10
62.8433410107241
 20
-29.11698445293719
 10
62.8443947447867
 20
-29.10834447392911
 10
62.84524906629329
 20
-29.09975323685729
 10
62.84592062472627
 20
-29.09120588110488
 10
62.84662170235529
 20
-29.07845649235051
 10
62.84700521640659
 20
-29.06577849559401
 10
62.84712735888319
 20
-29.05315548625321
 10
62.8469807594937
 20
-29.03638198951281
 10
62.8462471261175
 20
-29.00707646040709
 10
62.84440145706721
 20
-28.9312076271047
 10
62.84069359749199
 20
-28.76952751128779
 10
62.8379956501167
 20
-28.6972953987599
 10
62.83326736117389
 20
-28.5998152133088
 10
62.8152075105881
 20
-28.2992547539052
 10
62.78869085562298
 20
-27.91390026740451
 10
62.7402343029794
 20
-27.3047457576275
 10
62.6645973903005
 20
-26.45936510429439
 10
62.56800455129461
 20
-25.48808941442821
 10
62.5089842947507
 20
-24.9395742735995
  0
LWPOLYLINE
  5
5F2
330
1E
100
AcDbEntity
  8
1
100
AcDbPolyline
 90
        2
 70
     0
 43
0.0
 10
62.5629637765
 20
-26.99408920119999
 10
62.5610729317084
 20
-26.9727395415942
  0
LWPOLYLINE
  5
5F6
330
1E
100
AcDbEntity
  8
1
100
AcDbPolyline
 90
        2
 70
     0
 43
0.0
 10
62.0296065542
 20
-23.86889008219998
 10
60.45684918179659
 20
-24.6794399124046
  0
LWPOLYLINE
  5
5FA
330
1E
100
AcDbEntity
  8
1
100
AcDbPolyline
 90
      126
 70
     0
 43
0.0
 10
56.4854338161
 20
-5.926990145200084
 10
56.4812282448716
 20
-5.973577648005766
 10
56.4776073003971
 20
-6.020224197471494
 10
56.47457083569879
 20
-6.066921154817523
 10
56.4721187037991
 20
-6.113659881264065
 10
56.4702507577203
 20
-6.160431738031362
 10
56.4689668504848
 20
-6.207228086339642
 10
56.4682668351148
 20
-6.254040287409146
 10
56.4681505646328
 20
-6.300859702460105
 10
56.468617892061
 20
-6.347677692712745
 10
56.46966867042189
 20
-6.394485619387297
 10
56.4713027526298
 20
-6.441274845574787
 10
56.4735199647055
 20
-6.488037200723867
 10
56.47632007055889
 20
-6.534765591328777
 10
56.4797028253595
 20
-6.581453075451647
 10
56.4836679842766
 20
-6.628092711154657
 10
56.48821530247971
 20
-6.674677556499947
 10
56.4933445351381
 20
-6.721200669549667
 10
56.49905543742129
 20
-6.767655108365973
 10
56.5053477644987
 20
-6.814033931011025
 10
56.5122212715396
 20
-6.860330195546964
 10
56.51967571371359
 20
-6.906536960035947
 10
56.5277108463746
 20
-6.952647274359437
 10
56.5363264330873
 20
-6.998653824890427
 10
56.54552224871729
 20
-7.044548797651505
 10
56.55529806895289
 20
-7.090324342237396
 10
56.5656536694825
 20
-7.135972608242795
 10
56.5765888259943
 20
-7.181485745262396
 10
56.588103314177
 20
-7.226855902890892
 10
56.6001969097186
 20
-7.272075230723017
 10
56.6128693883078
 20
-7.317135878353449
 10
56.62612052563272
 20
-7.362029995376877
 10
56.63995009738179
 20
-7.406749731388025
 10
56.65435786625589
 20
-7.451287204314955
 10
56.66934342825779
 20
-7.495634125637214
 10
56.6849062638766
 20
-7.539781925184687
 10
56.7010458512844
 20
-7.583722027137767
 10
56.717761668653
 20
-7.627445855676892
 10
56.7350531941545
 20
-7.670944834982487
 10
56.7529199059609
 20
-7.714210389234967
 10
56.77136128224422
 20
-7.757233942614765
 10
56.79037680117638
 20
-7.800006919302295
 10
56.8099659409295
 20
-7.842520743477987
 10
56.8301281796696
 20
-7.884766839312707
 10
56.85086285688539
 20
-7.926736406518087
 10
56.87216881430321
 20
-7.968419839141159
 10
56.8940447820102
 20
-8.009807350533682
 10
56.916489490094
 20
-8.050889154047425
 10
56.93950166864199
 20
-8.091655463034147
 10
56.9630800477416
 20
-8.132096490845585
 10
56.9872233574803
 20
-8.172202450833516
 10
57.01193032794539
 20
-8.211963556349697
 10
57.03719968922438
 20
-8.251370020745877
 10
57.0630301714047
 20
-8.290412057373817
 10
57.08942044710489
 20
-8.329079828061727
 10
57.116368391009
 20
-8.367362779252095
 10
57.1438712937771
 20
-8.405249833782653
 10
57.1719264326933
 20
-8.442729902498667
 10
57.20053108504128
 20
-8.479791896245407
 10
57.2296825281052
 20
-8.516424725868127
 10
57.25937803916878
 20
-8.552617302212116
 10
57.28961489551601
 20
-8.588358536122626
 10
57.3203903744308
 20
-8.623637338444947
 10
57.35170175319709
 20
-8.658442620024338
 10
57.38354627852261
 20
-8.692763278095867
 10
57.4159201660447
 20
-8.726587750939657
 10
57.45250587680789
 20
-8.763573809852477
 10
57.485980669547
 20
-8.796310938662177
 10
57.5199689870712
 20
-8.828514103533706
 10
57.5544657144016
 20
-8.860171150457054
 10
57.5894657365597
 20
-8.891269925422204
 10
57.6249639385666
 20
-8.921798274419126
 10
57.6609552054436
 20
-8.951744043437795
 10
57.6974344222121
 20
-8.981095078468204
 10
57.7302658381096
 20
-9.006675775628185
 10
57.76347390388711
 20
-9.031768343711435
 10
57.7970527630172
 20
-9.056364108793749
 10
57.8309965185479
 20
-9.080454394491024
 10
57.8652992735272
 20
-9.104030524419187
 10
57.89995513100279
 20
-9.127083822194114
 10
57.93495819402298
 20
-9.149605611431713
 10
57.9703025656356
 20
-9.1715872157479
 10
58.0059823488885
 20
-9.193019958758569
 10
58.0374726658086
 20
-9.211316550312977
 10
58.06921131691479
 20
-9.229180464574259
 10
58.1011943469918
 20
-9.246605890647327
 10
58.1334171922566
 20
-9.263587224579907
 10
58.1658740861712
 20
-9.280119271415452
 10
58.19855912105699
 20
-9.296196884192106
 10
58.2314663892355
 20
-9.311814915948009
 10
58.26458998302809
 20
-9.326968219721274
 10
58.29792399475628
 20
-9.341651648550078
 10
58.3314625167416
 20
-9.355860055472533
 10
58.3651996413053
 20
-9.369588293526772
 10
58.399129460769
 20
-9.382831215750952
 10
58.4332460674541
 20
-9.395583675183207
 10
58.4675435536821
 20
-9.40784052486166
 10
58.5020160117745
 20
-9.419596617824462
 10
58.5366573172912
 20
-9.430847076291023
 10
58.5664789599152
 20
-9.440084993979192
 10
58.5964149726308
 20
-9.448946414754846
 10
58.62646081322388
 20
-9.457429118077467
 10
58.65661193948071
 20
-9.465530883406556
 10
58.6868638091871
 20
-9.473249490201595
 10
58.7172118801292
 20
-9.480582717922075
 10
58.747651610093
 20
-9.487528346027486
 10
58.7781784568646
 20
-9.494084153977313
 10
58.80878787823
 20
-9.500247921231066
 10
58.8394753319753
 20
-9.506017427248192
 10
58.8702362758864
 20
-9.511390451488226
 10
58.90106616774939
 20
-9.516364773410636
 10
58.9319604650592
 20
-9.520938172749014
 10
58.96291424266721
 20
-9.525108789496217
 10
58.9939214396232
 20
-9.528875833003587
 10
59.0249757852104
 20
-9.532238710117908
 10
59.05607100871179
 20
-9.535196827685988
 10
59.0872008394107
 20
-9.537749592554622
 10
59.1183590065901
 20
-9.539896411570612
 10
59.1495392395334
 20
-9.541636691580775
 10
59.1807352675236
 20
-9.542969839431895
 10
59.2119408198439
 20
-9.543895261970773
 10
59.2431496257775
 20
-9.544412366044227
 10
59.2743554146075
 20
-9.544520558499037
 10
59.3055519156171
 20
-9.544219246182027
 10
59.3367328580895
 20
-9.543507835939966
 10
59.3471119700089
 20
-9.543179801670087
  0
LWPOLYLINE
  5
67A
330
1E
100
AcDbEntity
  8
1
100
AcDbPolyline
 90
      110
 70
     0
 43
0.0
 10
59.1290220004
 20
-3.096868464100065
 10
59.09948286626571
 20
-3.098051976778265
 10
59.0699526770615
 20
-3.099605277854067
 10
59.0404360367733
 20
-3.101527520438016
 10
59.010938234162
 20
-3.103817715571547
 10
58.9814645579882
 20
-3.106474874296076
 10
58.9520202970126
 20
-3.109498007653033
 10
58.9226107399958
 20
-3.112886126683837
 10
58.8932411756988
 20
-3.116638242429905
 10
58.863916892882
 20
-3.120753365932676
 10
58.8346431803063
 20
-3.125230508233556
 10
58.80542532673221
 20
-3.130068680373976
 10
58.7762686209207
 20
-3.135266893395356
 10
58.7471783516322
 20
-3.140824158339115
 10
58.71815980762771
 20
-3.146739486246683
 10
58.6892182776676
 20
-3.153011888159475
 10
58.6603589411803
 20
-3.159640293638286
 10
58.63158597427979
 20
-3.166622884518925
 10
58.60290301370739
 20
-3.173957440666753
 10
58.5743136910202
 20
-3.181641738083756
 10
58.5458216377754
 20
-3.189673552771896
 10
58.51338305520701
 20
-3.199275447968667
 10
58.4810816825661
 20
-3.209325018673775
 10
58.4489229407195
 20
-3.219818945100076
 10
58.4169122505338
 20
-3.230753907460416
 10
58.3850550328758
 20
-3.242126585967646
 10
58.3533567086123
 20
-3.253933660834626
 10
58.32182269860989
 20
-3.266171812274217
 10
58.2904584237354
 20
-3.278837720499247
 10
58.2592693042574
 20
-3.291928065072676
 10
58.22826048974438
 20
-3.305439231380616
 10
58.1974364323371
 20
-3.319366846897406
 10
58.16680147338679
 20
-3.333706418699595
 10
58.13635995424469
 20
-3.348453453863766
 10
58.10611621626221
 20
-3.363603459466481
 10
58.0760746007905
 20
-3.379151942584326
 10
58.0462394491809
 20
-3.395094410293867
 10
58.0166151027847
 20
-3.411426369671667
 10
57.9835450966866
 20
-3.430259794015233
 10
57.9507535667975
 20
-3.449574085244484
 10
57.91824669445539
 20
-3.469362846208706
 10
57.8860306609984
 20
-3.489619679757127
 10
57.8541115979076
 20
-3.510338177277575
 10
57.8224945291464
 20
-3.531511675553346
 10
57.7911833925021
 20
-3.553133261669545
 10
57.76018208017429
 20
-3.575196012231236
 10
57.72949448436279
 20
-3.597693003843485
 10
57.6957698288043
 20
-3.623190535476734
 10
57.6624426218657
 20
-3.649206122658836
 10
57.6295182026414
 20
-3.675730268277416
 10
57.5970019102256
 20
-3.702753475220056
 10
57.56489908371239
 20
-3.730266246374386
 10
57.53321506219609
 20
-3.758259084627997
 10
57.4988527109968
 20
-3.789594352446016
 10
57.4650094856691
 20
-3.821486555633156
 10
57.4316895342986
 20
-3.853923514897676
 10
57.3988968525915
 20
-3.886893074712805
 10
57.3666354362537
 20
-3.920383079551752
 10
57.33490928099119
 20
-3.954381373887747
 10
57.30372238250989
 20
-3.988875802193996
 10
57.273078736516
 20
-4.023854208943736
 10
57.24298233871529
 20
-4.059304438610187
 10
57.21343718481378
 20
-4.095214335666566
 10
57.18444726126151
 20
-4.131571749903196
 10
57.1560157980577
 20
-4.168364965647897
 10
57.12814471960999
 20
-4.205583017216286
 10
57.10083582087849
 20
-4.243215013284094
 10
57.07409089682322
 20
-4.281250062527075
 10
57.0479117424043
 20
-4.319677273620957
 10
57.0246049786467
 20
-4.354942242875816
 10
57.001768625119
 20
-4.390514128926346
 10
56.9794040304016
 20
-4.426384748959423
 10
56.95751254307459
 20
-4.462545920161947
 10
56.93609551171777
 20
-4.498989459720766
 10
56.9151542636464
 20
-4.535707205859916
 10
56.8946896653138
 20
-4.572691452722244
 10
56.8747021374745
 20
-4.609934935369761
 10
56.8551920826511
 20
-4.647430406900596
 10
56.83615990336662
 20
-4.685170620412876
 10
56.8176060021436
 20
-4.723148329004723
 10
56.79953078150489
 20
-4.761356285774287
 10
56.7819346439734
 20
-4.799787243819674
 10
56.7648179920718
 20
-4.838433956239025
 10
56.7481812283228
 20
-4.877289176130465
 10
56.7320247552492
 20
-4.916345656592126
 10
56.7163489753739
 20
-4.955596150722135
 10
56.7011542181563
 20
-4.995033593173173
 10
56.68644048209539
 20
-5.034651740999266
 10
56.67220767202509
 20
-5.074444584002327
 10
56.6584556927734
 20
-5.114406111998916
 10
56.6451844491684
 20
-5.154530314805627
 10
56.6323938460379
 20
-5.194811182238995
 10
56.6200837882101
 20
-5.235242704115606
 10
56.60825418051288
 20
-5.275818870252016
 10
56.59690492777428
 20
-5.316533670464786
 10
56.5860359348224
 20
-5.357381094570497
 10
56.5756471064851
 20
-5.398355132385697
 10
56.56573834755878
 20
-5.439449772816011
 10
56.5563095562581
 20
-5.480658814998446
 10
56.54736061616929
 20
-5.521975636306327
 10
56.53889140890822
 20
-5.563393557298127
 10
56.5309018160903
 20
-5.604905898532346
 10
56.5233917193316
 20
-5.646505980567456
 10
56.51636100024779
 20
-5.688187123961966
 10
56.5098095404546
 20
-5.729942649274356
 10
56.5037372215677
 20
-5.771765877063112
 10
56.49814392520299
 20
-5.813650127886722
 10
56.49302953297599
 20
-5.855588722303686
 10
56.4883939265027
 20
-5.897574980872465
 10
56.4854347777882
 20
-5.926980191549427
  0
LWPOLYLINE
  5
6EA
330
1E
100
AcDbEntity
  8
1
100
AcDbPolyline
 90
      110
 70
     0
 43
0.0
 10
59.3471219643
 20
-9.543179463800075
 10
59.3766610984341
 20
-9.541995951121775
 10
59.40619128763779
 20
-9.540442650045351
 10
59.4357079279253
 20
-9.538520407460348
 10
59.46520573053579
 20
-9.536230212325435
 10
59.49467940670879
 20
-9.533573053599354
 10
59.5241236676836
 20
-9.530549920240806
 10
59.5535332246994
 20
-9.527161801208492
 10
59.5829027889958
 20
-9.523409685461157
 10
59.612227071812
 20
-9.519294561957462
 10
59.64150078438729
 20
-9.514817419656155
 10
59.6707186379611
 20
-9.509979247515927
 10
59.69987534377288
 20
-9.504781034495495
 10
59.7289656130618
 20
-9.499223769553577
 10
59.7579841570672
 20
-9.493308441648872
 10
59.7869256870286
 20
-9.487036039740095
 10
59.8157850235177
 20
-9.480407634266578
 10
59.8445579904204
 20
-9.473425043392373
 10
59.87324095099539
 20
-9.466090487251886
 10
59.9018302736854
 20
-9.458406189842907
 10
59.9303223269331
 20
-9.450374375163226
 10
59.9627609095049
 20
-9.440772479976335
 10
59.995062282149
 20
-9.430722909281016
 10
60.02722102399861
 20
-9.420228982864042
 10
60.0592317141869
 20
-9.40929402051222
 10
60.0910889318469
 20
-9.397921342012315
 10
60.12278725611171
 20
-9.386114267151148
 10
60.1543212661144
 20
-9.373876115715496
 10
60.18568554098821
 20
-9.361210207492149
 10
60.21687466046429
 20
-9.348119862917792
 10
60.2478834749742
 20
-9.334608696606172
 10
60.2787075323773
 20
-9.320681081083275
 10
60.3093424913225
 20
-9.306341509272927
 10
60.33978401045871
 20
-9.291594474098967
 10
60.3700277484349
 20
-9.276444468485202
 10
60.40006936389989
 20
-9.260895985355487
 10
60.4299045155028
 20
-9.244953517633637
 10
60.4595288618923
 20
-9.228621558243487
 10
60.49259886798321
 20
-9.209788133886467
 10
60.5253903978659
 20
-9.190473842644786
 10
60.5578972702024
 20
-9.170685081669756
 10
60.5901133036551
 20
-9.150428248112676
 10
60.62203236674299
 20
-9.129709750586286
 10
60.65364943550278
 20
-9.108536252307398
 10
60.6849605721472
 20
-9.086914666190596
 10
60.7159618844762
 20
-9.064851915630452
 10
60.74664948028988
 20
-9.042354924021593
 10
60.78037413585199
 20
-9.016857392393836
 10
60.8137013427948
 20
-8.990841805218586
 10
60.84662576202401
 20
-8.964317659607758
 10
60.879142054445
 20
-8.937294452673286
 10
60.91124488096347
 20
-8.909781681527118
 10
60.94292890248489
 20
-8.881788843281158
 10
60.9772912536895
 20
-8.850453575470409
 10
61.0111344790217
 20
-8.818561372289027
 10
61.0444544303958
 20
-8.786124413028794
 10
61.0772471121057
 20
-8.753154853216566
 10
61.1095085284453
 20
-8.719664848379217
 10
61.14123468370849
 20
-8.685666554043605
 10
61.17242158218921
 20
-8.651172125736586
 10
61.20306522818129
 20
-8.616193718985035
 10
61.2331616259787
 20
-8.580743489315807
 10
61.2627067798754
 20
-8.544833592255766
 10
61.2916967034212
 20
-8.508476178014674
 10
61.3201281666171
 20
-8.471682962264846
 10
61.3479992450558
 20
-8.434464910690907
 10
61.3753081437777
 20
-8.396832914617347
 10
61.4020530678234
 20
-8.358797865368668
 10
61.428232222233
 20
-8.320370654269375
 10
61.451538985983
 20
-8.285105685010043
 10
61.474375339504
 20
-8.249533798955653
 10
61.4967399342162
 20
-8.213663178919507
 10
61.51863142154
 20
-8.177502007714897
 10
61.5400484528956
 20
-8.141058468155128
 10
61.5609897009684
 20
-8.104340722016356
 10
61.58145429930488
 20
-8.067356475155696
 10
61.6014418271502
 20
-8.030112992510936
 10
61.620951881981
 20
-7.992617520983717
 10
61.6399840612742
 20
-7.954877307475697
 10
61.6585379625064
 20
-7.916899598888517
 10
61.67661318315449
 20
-7.878691642123837
 10
61.6942093206951
 20
-7.840260684083298
 10
61.7113259726052
 20
-7.801613971668556
 10
61.72796273636129
 20
-7.762758751781246
 10
61.7441192094403
 20
-7.723702271323037
 10
61.7597949893191
 20
-7.684451777195577
 10
61.7749897465376
 20
-7.645014334746007
 10
61.7897034825971
 20
-7.605396186920375
 10
61.80393629266401
 20
-7.565603343916918
 10
61.8176882719106
 20
-7.525641815919198
 10
61.8309595155093
 20
-7.485517613110786
 10
61.8437501186323
 20
-7.445236745675266
 10
61.85606017645199
 20
-7.404805223796217
 10
61.8678897841408
 20
-7.364229057657198
 10
61.87923903687078
 20
-7.323514257441797
 10
61.89010802981449
 20
-7.282666833333577
 10
61.9004968581441
 20
-7.241692795516116
 10
61.91040561706358
 20
-7.200598155083945
 10
61.9198344083586
 20
-7.159389112900147
 10
61.92878334844279
 20
-7.118072291591357
 10
61.93725255570029
 20
-7.076654370599016
 10
61.94524214851529
 20
-7.035142029364597
 10
61.95275224527179
 20
-6.993541947329547
 10
61.9597829643542
 20
-6.951860803935316
 10
61.9663344241464
 20
-6.910105278623356
 10
61.9724067430327
 20
-6.868282050835146
 10
61.97800003939711
 20
-6.826397800012117
 10
61.983114431624
 20
-6.784459205595717
 10
61.98775003809728
 20
-6.742472947027422
 10
61.99070918681179
 20
-6.713067736350707
  0
LWPOLYLINE
  5
75A
330
1E
100
AcDbEntity
  8
1
100
AcDbPolyline
 90
      126
 70
     0
 43
0.0
 10
61.99071014850001
 20
-6.713057782700056
 10
61.9949157197286
 20
-6.666470279895047
 10
61.9985366642037
 20
-6.619823730429887
 10
62.00157312890279
 20
-6.573126773084387
 10
62.0040252608035
 20
-6.526388046638348
 10
62.0058932068833
 20
-6.479616189871567
 10
62.00717711411961
 20
-6.432819841563847
 10
62.0078771294899
 20
-6.386007640494997
 10
62.00799339997189
 20
-6.339188225444813
 10
62.0075260725429
 20
-6.292370235193127
 10
62.0064752941804
 20
-6.245562308519697
 10
62.00484121196989
 20
-6.198773082333587
 10
62.0026239998907
 20
-6.152010727186103
 10
61.99982389403309
 20
-6.105282336582947
 10
61.9964411392281
 20
-6.058594852461856
 10
61.9924759803067
 20
-6.011955216760576
 10
61.9879286620998
 20
-5.965370371416857
 10
61.9827994294384
 20
-5.918847258368437
 10
61.9770885271536
 20
-5.872392819553065
 10
61.9707962000762
 20
-5.826013996908496
 10
61.96392269303728
 20
-5.779717732372467
 10
61.95646825086779
 20
-5.733510967882717
 10
61.948433118214
 20
-5.687400653557705
 10
61.9398175315112
 20
-5.641394103024467
 10
61.93062171589328
 20
-5.595499130260585
 10
61.9208458956711
 20
-5.549723585671596
 10
61.91049029515561
 20
-5.504075319663017
 10
61.89955513865779
 20
-5.458562182640356
 10
61.8880406504887
 20
-5.413192025009148
 10
61.8759470549591
 20
-5.367972697174886
 10
61.86327457638
 20
-5.322912049543106
 10
61.8500234390623
 20
-5.278017932519317
 10
61.8361938673171
 20
-5.233298196509037
 10
61.82178609844279
 20
-5.188760723584417
 10
61.8068005364368
 20
-5.144413802265748
 10
61.7912377008108
 20
-5.100266002722847
 10
61.7750981133938
 20
-5.056325900774965
 10
61.75838229601439
 20
-5.012602072241316
 10
61.7410907705015
 20
-4.969103092941168
 10
61.72322405868399
 20
-4.925837538693746
 10
61.7047826823906
 20
-4.882813985318278
 10
61.68576716345
 20
-4.840041008634018
 10
61.6661780236913
 20
-4.797527184460196
 10
61.646015784949
 20
-4.755281088625605
 10
61.62528110773489
 20
-4.713311521418424
 10
61.60397515032228
 20
-4.671628088791933
 10
61.5820991826231
 20
-4.630240577394806
 10
61.55965447454899
 20
-4.589158773875714
 10
61.5366422960119
 20
-4.548392464883343
 10
61.5130639169236
 20
-4.507951437066386
 10
61.4889206071959
 20
-4.467845477073494
 10
61.46421363674051
 20
-4.428084371553356
 10
61.43894427546939
 20
-4.388677907154654
 10
61.4131137932943
 20
-4.349635870526067
 10
61.3867235175959
 20
-4.310968099839765
 10
61.3597755736903
 20
-4.272685148653144
 10
61.3322726709181
 20
-4.234798094127985
 10
61.30421753199579
 20
-4.197318025418485
 10
61.2756128796404
 20
-4.160256031678883
 10
61.2464614365685
 20
-4.123623202063384
 10
61.2167659254969
 20
-4.087430625726196
 10
61.1865290691424
 20
-4.051689391821547
 10
61.15575359022169
 20
-4.016410589503647
 10
61.12444221145159
 20
-3.981605307926707
 10
61.09259768612488
 20
-3.947284649855156
 10
61.06022379860441
 20
-3.913460177008838
 10
61.02363808784579
 20
-3.876474118090896
 10
60.9901632951126
 20
-3.843736989275106
 10
60.95617497759561
 20
-3.811533824396656
 10
60.92167825027289
 20
-3.779876777466116
 10
60.8866782281227
 20
-3.748778002494056
 10
60.85118002612329
 20
-3.718249653491056
 10
60.8151887592527
 20
-3.688303884467676
 10
60.7787095424893
 20
-3.658952849434497
 10
60.7458781265945
 20
-3.633372152274096
 10
60.7126700608181
 20
-3.608279584192376
 10
60.6790912016877
 20
-3.583683819113168
 10
60.64514744615561
 20
-3.559593533420196
 10
60.61084469117409
 20
-3.536017403497206
 10
60.5761888336956
 20
-3.512964105727915
 10
60.54118577067221
 20
-3.490442316496056
 10
60.50584139905621
 20
-3.468460712185357
 10
60.4701616158001
 20
-3.447027969179556
 10
60.43867129887749
 20
-3.428731377628587
 10
60.4069326477694
 20
-3.410867463369727
 10
60.37494961769109
 20
-3.393442037297837
 10
60.34272677242578
 20
-3.376460703365096
 10
60.31026987851128
 20
-3.359928656528285
 10
60.2775848436262
 20
-3.343851043749555
 10
60.24467757544879
 20
-3.328233011991046
 10
60.2115539816577
 20
-3.313079708214886
 10
60.17821996993109
 20
-3.298396279383235
 10
60.1446814479477
 20
-3.284187872458216
 10
60.11094432338571
 20
-3.270459634401986
 10
60.0770145039237
 20
-3.257216712176676
 10
60.0428978972401
 20
-3.244464252744426
 10
60.0086004110134
 20
-3.232207403067376
 10
59.9741279529219
 20
-3.220451310107687
 10
59.9394866474055
 20
-3.209200851646076
 10
59.9096650047814
 20
-3.199962933963396
 10
59.8797289920654
 20
-3.191101513194096
 10
59.8496831514717
 20
-3.182618809878417
 10
59.8195320252141
 20
-3.174517044556586
 10
59.7892801555068
 20
-3.166798437768856
 10
59.7589320845637
 20
-3.159465210055466
 10
59.72849235459889
 20
-3.152519581956647
 10
59.69796550782628
 20
-3.145963774012633
 10
59.66735608646
 20
-3.139800006763674
 10
59.6366686327139
 20
-3.134030500750015
 10
59.6059076888022
 20
-3.128657476511873
 10
59.5750777969388
 20
-3.123683154589516
 10
59.54418349962889
 20
-3.119109755249046
 10
59.5132297220211
 20
-3.114939138497496
 10
59.4822225250655
 20
-3.111172094983856
 10
59.4511681794791
 20
-3.107809217861685
 10
59.42007295597861
 20
-3.104851100284596
 10
59.3889431252807
 20
-3.102298335406155
 10
59.35778495810229
 20
-3.100151516379947
 10
59.3266047251603
 20
-3.098411236359563
 10
59.29540869717129
 20
-3.097078088498595
 10
59.2642031448521
 20
-3.096152665950616
 10
59.23299433891971
 20
-3.095635561869213
 10
59.2017885500907
 20
-3.095527369407983
 10
59.170592049082
 20
-3.095828681720495
 10
59.1394111066103
 20
-3.096540091960337
 10
59.1290319946911
 20
-3.096868126230055
  0
LWPOLYLINE
  5
7DA
330
1E
100
AcDbEntity
  8
1
100
AcDbPolyline
 90
      126
 70
     0
 43
0.0
 10
47.83206825859999
 20
-4.738049319300055
 10
47.82785915776421
 20
-4.784674880882594
 10
47.82423572261738
 20
-4.831351601928584
 10
47.8211977908997
 20
-4.878070722507406
 10
47.8187451835689
 20
-4.924823679681463
 10
47.8168776222005
 20
-4.971603077067713
 10
47.81559479192328
 20
-5.018401946096994
 10
47.8148963819633
 20
-5.065213291532534
 10
47.814782119298
 20
-5.112029869783023
 10
47.8152517510481
 20
-5.158844304745076
 10
47.8163050248076
 20
-5.205649223906265
 10
47.8179416924088
 20
-5.252437326692743
 10
47.8201615089362
 20
-5.299201367722623
 10
47.82296422991
 20
-5.345934102049205
 10
47.8263496204758
 20
-5.392628258171685
 10
47.8303174563245
 20
-5.439276535496603
 10
47.83486751375339
 20
-5.485871631632304
 10
47.83999957328979
 20
-5.532406224784315
 10
47.845713422078
 20
-5.578872962806965
 10
47.85200884784297
 20
-5.625264490782754
 10
47.85888563928138
 20
-5.671573425743021
 10
47.8663435872713
 20
-5.717792321719735
 10
47.87438248298768
 20
-5.763913724148546
 10
47.8830021155895
 20
-5.809930151498556
 10
47.8922022676908
 20
-5.855834034696838
 10
47.9019827205802
 20
-5.901617786937345
 10
47.9123432517427
 20
-5.947273797535205
 10
47.9232836208986
 20
-5.992794344271576
 10
47.93480358258579
 20
-6.038171672389825
 10
47.94690288668238
 20
-6.083398007574984
 10
47.9595812522228
 20
-6.128465446053534
 10
47.9728383857059
 20
-6.173366031438797
 10
47.98667398880128
 20
-6.218091791957655
 10
48.0010877185956
 20
-6.262634614134346
 10
48.0160792079462
 20
-6.306986307482227
 10
48.0316480849752
 20
-6.351138669304312
 10
48.04779391945199
 20
-6.395083348306235
 10
48.06451624037478
 20
-6.438811889368888
 10
48.08181457190038
 20
-6.482315826821555
 10
48.0996883662101
 20
-6.525586543631406
 10
48.11813701320249
 20
-6.568615291787586
 10
48.1371598972115
 20
-6.611393312744624
 10
48.15675631697811
 20
-6.653911696454501
 10
48.17692548285521
 20
-6.696161376417795
 10
48.1976665979945
 20
-6.738133274221767
 10
48.2189787655245
 20
-6.779818161000185
 10
48.2408609699742
 20
-6.821206629491475
 10
48.26331218603599
 20
-6.862289258287866
 10
48.28633127202249
 20
-6.903056476502005
 10
48.30991693419928
 20
-6.943498517955562
 10
48.3340678655198
 20
-6.983605599947145
 10
48.3587826226684
 20
-7.023367790329404
 10
48.3840595746636
 20
-7.062774951142456
 10
48.4098970732647
 20
-7.101816926087795
 10
48.4362933085449
 20
-7.140483408125672
 10
48.4632462466512
 20
-7.178763881448053
 10
48.49075383249299
 20
-7.216647811151607
 10
48.5188138159563
 20
-7.254124509206075
 10
48.5474236883272
 20
-7.291183084535433
 10
48.5765809158635
 20
-7.327812627380315
 10
48.6062827258841
 20
-7.364002072470225
 10
48.6365260572459
 20
-7.399740166791946
 10
48.6673078197039
 20
-7.435015639875053
 10
48.69862462707811
 20
-7.469817065591596
 10
48.73047278407891
 20
-7.504132855226606
 10
48.76647826512378
 20
-7.541677818225705
 10
48.80312946409079
 20
-7.578592761894264
 10
48.8366626256531
 20
-7.611264070848262
 10
48.870709399208
 20
-7.643399945380835
 10
48.9052647522441
 20
-7.674988318678446
 10
48.94032346496389
 20
-7.706017068786414
 10
48.975880174414
 20
-7.736474047486156
 10
49.0119289324463
 20
-7.766346999311013
 10
49.04846364080889
 20
-7.795623641321716
 10
49.0813417995038
 20
-7.821136775600744
 10
49.1145940515531
 20
-7.846160364186766
 10
49.1482154438061
 20
-7.870685731753666
 10
49.1822009225356
 20
-7.894704206992947
 10
49.2165449571727
 20
-7.918207137644126
 10
49.25124187597671
 20
-7.941185877085974
 10
49.2862859506874
 20
-7.963631787546006
 10
49.3216709844622
 20
-7.985536304634244
 10
49.35739054866459
 20
-8.006890900260946
 10
49.3889145171428
 20
-8.025118364080034
 10
49.4206850813725
 20
-8.042912635777472
 10
49.45269741414509
 20
-8.060268148023792
 10
49.4849466802456
 20
-8.077179335734575
 10
49.5174279644438
 20
-8.093640667046116
 10
49.5501359940298
 20
-8.109646758512905
 10
49.583065396501
 20
-8.125192268121391
 10
49.6162107937415
 20
-8.140271857035925
 10
49.64956658629329
 20
-8.154880311763065
 10
49.6831268852391
 20
-8.169012582725205
 10
49.71688578212098
 20
-8.182663631410076
 10
49.7508373148031
 20
-8.195828459113656
 10
49.784975183927
 20
-8.208502317219245
 10
49.81929295948909
 20
-8.220680553998075
 10
49.85378420841859
 20
-8.232358520585451
 10
49.8884423180437
 20
-8.243531739375855
 10
49.9182768483409
 20
-8.252703857666924
 10
49.9482245414257
 20
-8.261499418795615
 10
49.9782810327067
 20
-8.269915795220711
 10
50.008441831114
 20
-8.277950514123265
 10
50.0387023001394
 20
-8.285601280600431
 10
50.0690577952439
 20
-8.292865809573795
 10
50.0995036698656
 20
-8.299741819179894
 10
50.13003518005239
 20
-8.306227182356675
 10
50.1606474432697
 20
-8.312319992318311
 10
50.191335566399
 20
-8.318018359101905
 10
50.2220946554216
 20
-8.323320394673036
 10
50.252919745659
 20
-8.328224362324132
 10
50.2838057520987
 20
-8.332728783059392
 10
50.3147475780015
 20
-8.336832202997925
 10
50.3457401262615
 20
-8.340533169374715
 10
50.3767782517842
 20
-8.343830375574505
 10
50.40785671424099
 20
-8.346722805019334
 10
50.4389702620721
 20
-8.349209475335511
 10
50.470113643611
 20
-8.351289404747102
 10
50.5012815828617
 20
-8.352961747840616
 10
50.53246874867471
 20
-8.354225968322221
 10
50.5636698023012
 20
-8.355081572490446
 10
50.5948794045719
 20
-8.355528066967824
 10
50.6260920345637
 20
-8.355565098348796
 10
50.6573017066568
 20
-8.355192671099306
 10
50.688502362025
 20
-8.354410846063116
 10
50.69369117491139
 20
-8.354241081530743
  0
LWPOLYLINE
  5
85A
330
1E
100
AcDbEntity
  8
1
100
AcDbPolyline
 90
      110
 70
     0
 43
0.0
 10
50.47571168050001
 20
-1.907925532500034
 10
50.4461448810421
 20
-1.909109555275596
 10
50.4165932991356
 20
-1.910661562024093
 10
50.3870618435831
 20
-1.912581134505735
 10
50.35755576473039
 20
-1.914867797040825
 10
50.32808031292379
 20
-1.917521073949636
 10
50.2986405905219
 20
-1.920540428645043
 10
50.2692410662784
 20
-1.923925063765495
 10
50.2398860394091
 20
-1.927674112172343
 10
50.21057980912759
 20
-1.931786706726145
 10
50.1813266810801
 20
-1.936261955242203
 10
50.1521310245905
 20
-1.941098717599111
 10
50.1229972453432
 20
-1.946295712100346
 10
50.093929749448
 20
-1.951851655393435
 10
50.0649329396778
 20
-1.957765258758356
 10
50.0360111151865
 20
-1.964035066795715
 10
50.0071684539331
 20
-1.970659429154455
 10
49.9784091269975
 20
-1.977636684417934
 10
49.9497373053308
 20
-1.984965170940775
 10
49.92115710978699
 20
-1.992643138111695
 10
49.8926725353884
 20
-2.000668611857565
 10
49.8602409230612
 20
-2.010263523477775
 10
49.8279453305074
 20
-2.020306699328513
 10
49.79579160293679
 20
-2.030795031394735
 10
49.76378534347079
 20
-2.041725113733543
 10
49.73193211448
 20
-2.053093490251034
 10
49.70023747523971
 20
-2.064896701816425
 10
49.6687068296809
 20
-2.077131136875264
 10
49.6373453569523
 20
-2.089792963316955
 10
49.60615821862289
 20
-2.102878331781665
 10
49.57515056290811
 20
-2.116383382773465
 10
49.5443273141425
 20
-2.130304086857893
 10
49.5136932111107
 20
-2.144636273757446
 10
49.4832529869946
 20
-2.159375768941925
 10
49.45301134182599
 20
-2.174518378607043
 10
49.42297270249859
 20
-2.190059750141684
 10
49.39314136153728
 20
-2.205995452810595
 10
49.3635216105304
 20
-2.222321055334044
 10
49.3304575604441
 20
-2.241147854468482
 10
49.29767224569619
 20
-2.260455946290794
 10
49.2651711434791
 20
-2.280238750687085
 10
49.2329597156571
 20
-2.300489683087235
 10
49.2010431143134
 20
-2.321202068901345
 10
49.1694262036286
 20
-2.342369149877365
 10
49.13811383678579
 20
-2.363984164576016
 10
49.107110737925
 20
-2.386040330292395
 10
49.07642123360851
 20
-2.408530798802853
 10
49.0426947499106
 20
-2.434021231091732
 10
49.0093664393037
 20
-2.460029955609813
 10
48.9764415891267
 20
-2.486547536024763
 10
48.943925245722
 20
-2.513564524869943
 10
48.9118224236581
 20
-2.541071476647835
 10
48.88013773141288
 20
-2.569058973585276
 10
48.84577266147428
 20
-2.600389033564793
 10
48.8119244549365
 20
-2.632276679934625
 10
48.7785983265176
 20
-2.664709499411666
 10
48.74579912187321
 20
-2.697675145627553
 10
48.7135316274799
 20
-2.731161288636994
 10
48.681800141145
 20
-2.765155742647752
 10
48.6506086847926
 20
-2.799646403250585
 10
48.6199612134621
 20
-2.834621193203243
 10
48.5898612186623
 20
-2.870068226055142
 10
48.56031198715109
 20
-2.905975699632102
 10
48.53131673267079
 20
-2.942331850603274
 10
48.50287824632538
 20
-2.979125141112842
 10
48.4749991657211
 20
-3.016344115195213
 10
48.44768205419889
 20
-3.053977366089223
 10
48.4209291007456
 20
-3.092013735205326
 10
48.39474237632
 20
-3.130442142198134
 10
48.3714293098818
 20
-3.165707973555763
 10
48.34858712172879
 20
-3.201280599781693
 10
48.3262170008275
 20
-3.237151990804873
 10
48.3043201215087
 20
-3.273314130574481
 10
48.2828974807501
 20
-3.309759172954154
 10
48.2619499575291
 20
-3.346479384858226
 10
48.2414784269207
 20
-3.383467037248163
 10
48.2214836652961
 20
-3.420714512842462
 10
48.2019663001594
 20
-3.458214362914663
 10
48.182926946679
 20
-3.495959152705522
 10
48.16436618277549
 20
-3.533941497112683
 10
48.1462844425188
 20
-3.572154202809063
 10
48.12868212525677
 20
-3.610590122756981
 10
48.11155962194778
 20
-3.649242123102502
 10
48.0949172237619
 20
-3.688103226794013
 10
48.0787551564038
 20
-3.727166559649863
 10
48.06307364387079
 20
-3.766425250333734
 10
48.0478728628615
 20
-3.805872515429254
 10
48.03315290785659
 20
-3.845501724348856
 10
48.0189138651102
 20
-3.885306261796693
 10
48.00515580774689
 20
-3.925279541941014
 10
47.99187873868389
 20
-3.965415136505584
 10
47.97908263746808
 20
-4.00570666966048
 10
47.966767481989
 20
-4.046147769988523
 10
47.95493321253778
 20
-4.086732166337402
 10
47.94357973189178
 20
-4.127453687593481
 10
47.9327069411982
 20
-4.168306166995956
 10
47.9223147293337
 20
-4.209283483615486
 10
47.9124029468998
 20
-4.250379659481763
 10
47.9029714370559
 20
-4.291588744420224
 10
47.8940200417034
 20
-4.332904791763706
 10
47.88554858736829
 20
-4.374321897704595
 10
47.8775568902901
 20
-4.415834187110326
 10
47.8700447664365
 20
-4.457435786130105
 10
47.8630120164617
 20
-4.499120960452994
 10
47.85645840790549
 20
-4.540884277514295
 10
47.8503837039855
 20
-4.582720344132095
 10
47.8447876763349
 20
-4.624623683183592
 10
47.83967016753339
 20
-4.666588109864446
 10
47.8350310557395
 20
-4.708607084479875
 10
47.8320692202881
 20
-4.738039365649596
  0
LWPOLYLINE
  5
8CA
330
1E
100
AcDbEntity
  8
1
100
AcDbPolyline
 90
      110
 70
     0
 43
0.0
 10
50.6937011692
 20
-8.354240743600032
 10
50.723267968658
 20
-8.353056720830375
 10
50.75281955056428
 20
-8.351504714084892
 10
50.78235100611671
 20
-8.349585141602156
 10
50.8118570849689
 20
-8.347298479063589
 10
50.84133253677499
 20
-8.344645202150637
 10
50.87077225917621
 20
-8.341625847451986
 10
50.9001717834191
 20
-8.338241212329892
 10
50.9295268102883
 20
-8.334492163923526
 10
50.9588330405701
 20
-8.330379569372793
 10
50.9880861686187
 20
-8.325904320862647
 10
51.0172818251096
 20
-8.321067558511977
 10
51.0464156043573
 20
-8.315870564013296
 10
51.0754831002511
 20
-8.310314620714997
 10
51.10447991001709
 20
-8.304401017333226
 10
51.1334017345017
 20
-8.298131209269023
 10
51.162244395748
 20
-8.291506846881587
 10
51.1910037226783
 20
-8.284529591596022
 10
51.21967554434379
 20
-8.277201105066206
 10
51.2482557398912
 20
-8.269523137907556
 10
51.2767403142968
 20
-8.261497664186476
 10
51.30917192663289
 20
-8.251902752599107
 10
51.34146751919359
 20
-8.241859576774006
 10
51.3736212467669
 20
-8.231371244718051
 10
51.4056275062323
 20
-8.220441162378048
 10
51.437480735221
 20
-8.209072785853802
 10
51.46917537445911
 20
-8.197269574281936
 10
51.5007060200166
 20
-8.185035139220227
 10
51.53206749274489
 20
-8.172373312778907
 10
51.5632546310751
 20
-8.159287944317142
 10
51.5942622867918
 20
-8.145782893330135
 10
51.6250855355594
 20
-8.131862189250256
 10
51.65571963859161
 20
-8.117530002351843
 10
51.6861598627047
 20
-8.102790507161838
 10
51.7164015078654
 20
-8.087647897481947
 10
51.7464401471814
 20
-8.072106525925867
 10
51.77627148813029
 20
-8.056170823234044
 10
51.8058912391265
 20
-8.039845220691386
 10
51.83895528920579
 20
-8.021018421544987
 10
51.87174060395228
 20
-8.001710329721317
 10
51.90424170617379
 20
-7.981927525333165
 10
51.9364531340058
 20
-7.961676592949485
 10
51.96836973536329
 20
-7.940964207157195
 10
51.9999866460628
 20
-7.919797126203656
 10
52.03129901291799
 20
-7.898182111523424
 10
52.0623021117862
 20
-7.876125945817565
 10
52.09299161610388
 20
-7.853635477308736
 10
52.12671809979459
 20
-7.828145045010685
 10
52.16004641038459
 20
-7.802136320472143
 10
52.1929712605415
 20
-7.775618740033165
 10
52.2254876039327
 20
-7.748601751171775
 10
52.2575904259986
 20
-7.721094799396022
 10
52.28927511825979
 20
-7.693107302477063
 10
52.3236401882211
 20
-7.661777242523584
 10
52.3574883947754
 20
-7.629889596171915
 10
52.3908145231989
 20
-7.597456776699561
 10
52.42361372783538
 20
-7.564491130475888
 10
52.4558812222085
 20
-7.531004987448022
 10
52.4876127085201
 20
-7.497010533416536
 10
52.5188041648603
 20
-7.462519872802672
 10
52.54945163620071
 20
-7.427545082858268
 10
52.5795516310232
 20
-7.392098050025854
 10
52.609100862551
 20
-7.356190576463766
 10
52.63809611702661
 20
-7.319834425489985
 10
52.66653460335209
 20
-7.283041134965325
 10
52.6944136839353
 20
-7.245822160866816
 10
52.72173079544677
 20
-7.208188909965236
 10
52.7484837489011
 20
-7.170152540850432
 10
52.7746704733367
 20
-7.131724133865196
 10
52.7979835397895
 20
-7.096458302517605
 10
52.8208257279585
 20
-7.060885676302206
 10
52.8431958488729
 20
-7.025014285287554
 10
52.86509272819778
 20
-6.988852145522134
 10
52.88651536895621
 20
-6.952407103142772
 10
52.90746289217461
 20
-6.915686891237455
 10
52.9279344227821
 20
-6.878699238847036
 10
52.9479291844083
 20
-6.841451763253736
 10
52.9674465495459
 20
-6.803951913182386
 10
52.986485903023
 20
-6.766207123390391
 10
53.0050466669167
 20
-6.728224778978963
 10
53.0231284071604
 20
-6.690012073276764
 10
53.0407307244107
 20
-6.651576153323662
 10
53.0578532277136
 20
-6.612924152975644
 10
53.0744956258992
 20
-6.574063049284394
 10
53.09065769326061
 20
-6.534999716430353
 10
53.10633920579821
 20
-6.495741025748595
 10
53.121539986811
 20
-6.456293760654625
 10
53.1362599418171
 20
-6.416664551735675
 10
53.150498984561
 20
-6.376860014287382
 10
53.16425704191772
 20
-6.336886734141546
 10
53.1775341109759
 20
-6.296751139576055
 10
53.19033021219689
 20
-6.256459606422964
 10
53.20264536769871
 20
-6.216018506101525
 10
53.21447963718579
 20
-6.175434109762872
 10
53.22583311786489
 20
-6.134712588516394
 10
53.236705908572
 20
-6.093860109118466
 10
53.2470981204207
 20
-6.052882792495836
 10
53.25700990282189
 20
-6.011786616621907
 10
53.2664414126324
 20
-5.970577531675512
 10
53.27539280796621
 20
-5.929261484327735
 10
53.2838642622992
 20
-5.887844378386676
 10
53.29185595938501
 20
-5.846332088983062
 10
53.2993680832485
 20
-5.804730489965802
 10
53.3064008332307
 20
-5.763045315644593
 10
53.3129544417918
 20
-5.721281998584256
 10
53.31902914571429
 20
-5.679445931966955
 10
53.3246251733658
 20
-5.637542592915796
 10
53.3297426821672
 20
-5.595578166235235
 10
53.3343817939607
 20
-5.553559191620074
 10
53.33734362941189
 20
-5.524126910450473
  0
LWPOLYLINE
  5
93A
330
1E
100
AcDbEntity
  8
1
100
AcDbPolyline
 90
      126
 70
     0
 43
0.0
 10
53.3373445911
 20
-5.524116956800016
 10
53.3415536919346
 20
-5.477491395217076
 10
53.34517712707889
 20
-5.430814674170592
 10
53.3482150587947
 20
-5.384095553591306
 10
53.350667666126
 20
-5.337342596416933
 10
53.3525352274966
 20
-5.290563199030485
 10
53.3538180577762
 20
-5.243764330001003
 10
53.3545164677377
 20
-5.196952984565196
 10
53.3546307304031
 20
-5.150136406314393
 10
53.3541610986522
 20
-5.103321971352014
 10
53.35310782489161
 20
-5.056517052190574
 10
53.3514711572895
 20
-5.009728949403855
 10
53.3492513407625
 20
-4.962964908373656
 10
53.3464486197912
 20
-4.916232174046553
 10
53.3430632292294
 20
-4.869538017923424
 10
53.3390953933841
 20
-4.822889740597924
 10
53.3345453359558
 20
-4.776294644461922
 10
53.3294132764165
 20
-4.729760051309987
 10
53.3236994276241
 20
-4.683293313287514
 10
53.3174040018557
 20
-4.636901785311795
 10
53.31052721041629
 20
-4.590592850351335
 10
53.3030692624268
 20
-4.544373954374273
 10
53.29503036671121
 20
-4.498252551945085
 10
53.2864107341096
 20
-4.452236124594755
 10
53.277210582008
 20
-4.406332241396206
 10
53.2674301291182
 20
-4.360548489155442
 10
53.2570695979554
 20
-4.314892478557323
 10
53.24612922879939
 20
-4.269371931820673
 10
53.2346092671121
 20
-4.223994603702146
 10
53.2225099630153
 20
-4.178768268516706
 10
53.2098315974747
 20
-4.133700830037896
 10
53.1965744639914
 20
-4.088800244652386
 10
53.18273886089579
 20
-4.044074484133265
 10
53.16832513110129
 20
-3.999531661956316
 10
53.15333364175049
 20
-3.955179968608186
 10
53.13776476472121
 20
-3.911027606785865
 10
53.12161893024421
 20
-3.867082927783727
 10
53.1048966093212
 20
-3.823354386720836
 10
53.0875982777954
 20
-3.779850449267883
 10
53.0697244834855
 20
-3.736579732457765
 10
53.05127583649269
 20
-3.693550984301392
 10
53.03225295248321
 20
-3.650772963344305
 10
53.012656532716
 20
-3.608254579634416
 10
52.9924873668388
 20
-3.566004899670876
 10
52.9717462517001
 20
-3.524033001866133
 10
52.9504340841709
 20
-3.482348115086746
 10
52.92855187972079
 20
-3.440959646595403
 10
52.90610066365538
 20
-3.399877017800936
 10
52.8830815776641
 20
-3.359109799589555
 10
52.85949591548749
 20
-3.318667758135504
 10
52.83534498417839
 20
-3.278560676136086
 10
52.8106302270505
 20
-3.238798485739955
 10
52.7853532750721
 20
-3.199391324915924
 10
52.7595157764701
 20
-3.160349349971765
 10
52.7331195411707
 20
-3.121682867947335
 10
52.70616660304461
 20
-3.083402394638176
 10
52.678659017201
 20
-3.045518464934445
 10
52.6505990337565
 20
-3.008041766864796
 10
52.621989161407
 20
-2.970983191519044
 10
52.5928319338755
 20
-2.934353648671035
 10
52.56313012383899
 20
-2.898164203594146
 10
52.53288679245461
 20
-2.862426109290524
 10
52.502105029982
 20
-2.827150636219013
 10
52.4707882226057
 20
-2.792349210503976
 10
52.438940065609
 20
-2.758033420865134
 10
52.40293458456839
 20
-2.720488457861625
 10
52.36628338560191
 20
-2.683573514191925
 10
52.3327502240365
 20
-2.650902205240686
 10
52.2987034504759
 20
-2.618766330714246
 10
52.264148097437
 20
-2.587177957419735
 10
52.2290893847238
 20
-2.556149207303235
 10
52.19353267529321
 20
-2.525692228579125
 10
52.1574839172822
 20
-2.495819276728004
 10
52.1209492089277
 20
-2.466542634707765
 10
52.0880710502222
 20
-2.441029500442803
 10
52.05481879815359
 20
-2.416005911881693
 10
52.021197405883
 20
-2.391480544337273
 10
51.98721192714621
 20
-2.367462069107455
 10
51.95286789250978
 20
-2.343959138455014
 10
51.91817097370979
 20
-2.320980399007293
 10
51.883126899002
 20
-2.298534488542474
 10
51.8477418652275
 20
-2.276629971452845
 10
51.8120223010231
 20
-2.255275375828825
 10
51.7804983325415
 20
-2.237047912015746
 10
51.7487277683084
 20
-2.219253640324746
 10
51.7167154355351
 20
-2.201898128079514
 10
51.68446616943921
 20
-2.184986940358554
 10
51.6519848852525
 20
-2.168525609022414
 10
51.6192768556805
 20
-2.152519517525695
 10
51.58634745322022
 20
-2.136974007894465
 10
51.5532020559816
 20
-2.121894418976634
 10
51.5198462634216
 20
-2.107285964268085
 10
51.4862859644626
 20
-2.093153693335925
 10
51.4525270675677
 20
-2.079502644681105
 10
51.41857553487771
 20
-2.066337816997385
 10
51.3844376657516
 20
-2.053663958898085
 10
51.3501198901924
 20
-2.041485722111235
 10
51.3156286412704
 20
-2.029807755500883
 10
51.28097053165529
 20
-2.018634536676945
 10
51.2511360013661
 20
-2.009462418358074
 10
51.22118830828672
 20
-2.000666857211153
 10
51.19113181700621
 20
-1.992250480785415
 10
51.1609710185943
 20
-1.984215761900415
 10
51.13071054956138
 20
-1.976564995451115
 10
51.1003550544491
 20
-1.969300466507596
 10
51.06990917982161
 20
-1.962424456925025
 10
51.0393776696321
 20
-1.955939093760695
 10
51.0087654064146
 20
-1.949846283800565
 10
50.97807728328699
 20
-1.944147917008154
 10
50.9473181942675
 20
-1.938845881418425
 10
50.91649310403369
 20
-1.933941913741293
 10
50.8856070975976
 20
-1.929437492977974
 10
50.85466527169799
 20
-1.925334073014995
 10
50.8236727234401
 20
-1.921633106623025
 10
50.792634597918
 20
-1.918335900419435
 10
50.7615561354609
 20
-1.915443470977374
 10
50.73044258762901
 20
-1.912956800664876
 10
50.6992992060892
 20
-1.910876871252225
 10
50.668131266838
 20
-1.909204528151144
 10
50.6369441010248
 20
-1.907940307662394
 10
50.6057430473982
 20
-1.907084703495615
 10
50.5745334451276
 20
-1.906638209036405
 10
50.54332081513621
 20
-1.906601177691614
 10
50.51211114304321
 20
-1.906973604979175
 10
50.4809104876751
 20
-1.907755430036425
 10
50.4757216747886
 20
-1.907925194569326
  0
LWPOLYLINE
  5
9BA
330
1E
100
AcDbEntity
  8
1
100
AcDbPolyline
 90
        3
 70
     0
 43
0.0
 10
50.47571951270001
 20
-1.909167231500026
 10
50.4518817731208
 20
-1.909322260913085
 10
50.43955788380579
 20
-1.909496107015185
  0
LWPOLYLINE
  5
9BF
330
1E
100
AcDbEntity
  8
1
100
AcDbPolyline
 90
        3
 70
     0
 43
0.0
 10
50.69362845779998
 20
-8.353000917600013
 10
50.6697741044816
 20
-8.354459956981365
 10
50.6528535100266
 20
-8.355349173490102
  0
LWPOLYLINE
  5
9C4
330
1E
100
AcDbEntity
  8
1
100
AcDbPolyline
 90
        2
 70
     0
 43
0.0
 10
61.40868899999999
 20
-125.9990419999999
 10
60.33796166459691
 20
-126.6158680075299
  0
LWPOLYLINE
  5
9C8
330
1E
100
AcDbEntity
  8
1
100
AcDbPolyline
 90
        2
 70
     0
 43
0.0
 10
61.40868899999999
 20
-125.9990419999999
 10
62.55022944520548
 20
-125.314057853882
  0
LWPOLYLINE
  5
9CC
330
1E
100
AcDbEntity
  8
1
100
AcDbPolyline
 90
        2
 70
     0
 43
0.0
 10
62.55023801939998
 20
-125.3140527076999
 10
62.91139904994722
 20
-125.097270876951
  0
LWPOLYLINE
  5
9D0
330
1E
100
AcDbEntity
  8
1
100
AcDbPolyline
 90
        2
 70
     0
 43
0.0
 10
62.91140762379999
 20
-125.0972657302
 10
62.98856342613918
 20
-125.0509501467379
  0
LWPOLYLINE
  5
9D4
330
1E
100
AcDbEntity
  8
1
100
AcDbPolyline
 90
        2
 70
     0
 43
0.0
 10
62.98835999999997
 20
-108.961986
 10
61.80000830917729
 20
-108.164605656711
  0
LWPOLYLINE
  5
9D8
330
1E
100
AcDbEntity
  8
1
100
AcDbPolyline
 90
        2
 70
     0
 43
0.0
 10
62.98857199999998
 20
-125.050945
 10
62.98836002873329
 20
-108.9619959999589
  0
LWPOLYLINE
  5
9DC
330
1E
100
AcDbEntity
  8
1
100
AcDbPolyline
 90
       20
 70
     0
 43
0.0
 10
40.41316043359999
 20
-30.7209672392
 10
40.52272169781588
 20
-30.7268356501275
 10
40.6343663516886
 20
-30.7339698145859
 10
40.74593546287659
 20
-30.7422516147149
 10
40.8595612445331
 20
-30.75186133893899
 10
40.97308522173139
 20
-30.7626410792343
 10
41.08863385066507
 20
-30.7748175066478
 10
41.20405126954189
 20
-30.7881881827436
 10
41.32145784589098
 20
-30.80302347647089
 10
41.43870186242799
 20
-30.8190773334099
 10
41.55577202142649
 20
-30.8363439738948
 10
41.67265739848118
 20
-30.85481843505689
 10
41.79146682004149
 20
-30.8748646264504
 10
41.91006182278028
 20
-30.8961525750531
 10
42.02843054038718
 20
-30.918677391577
 10
42.14655841485389
 20
-30.9424369917267
 10
42.26442959220888
 20
-30.96743064171739
 10
42.382028210184
 20
-30.9936576164103
 10
42.49933840651099
 20
-31.02111719066638
 10
42.53906202431068
 20
-31.030711385295
  0
LWPOLYLINE
  5
9F2
330
1E
100
AcDbEntity
  8
1
100
AcDbPolyline
 90
       16
 70
     0
 43
0.0
 10
47.691556655
 20
1.917352626999953
 10
47.71059781758689
 20
1.920854221968094
 10
47.72967861601439
 20
1.924158585774694
 10
47.74879616962738
 20
1.927265189487133
 10
47.76794759777078
 20
1.930173504172813
 10
47.78713001978949
 20
1.932883000899139
 10
47.80605785729299
 20
1.935357683531553
 10
47.8250102318099
 20
1.937638333365724
 10
47.8439843879129
 20
1.939724444462813
 10
47.86297757017499
 20
1.941615510884024
 10
47.88198702316878
 20
1.943311026690513
 10
47.90100999146718
 20
1.944810485943473
 10
47.91975960020159
 20
1.946095393800584
 10
47.9385180632622
 20
1.947189404659111
 10
47.9575693198778
 20
1.948104928305991
 10
47.9743426240125
 20
1.948748239444713
  0
LWPOLYLINE
  5
A04
330
1E
100
AcDbEntity
  8
1
100
AcDbPolyline
 90
       23
 70
     0
 43
0.0
 10
47.69155665499996
 20
-131.9428673333
 10
47.94894091304858
 20
-131.7879317299409
 10
48.20585622563609
 20
-131.6373669030959
 10
48.45077763599199
 20
-131.4976457182817
 10
48.67886727380859
 20
-131.371000499987
 10
48.8852146482317
 20
-131.259515468807
 10
49.06950526372487
 20
-131.1626739515669
 10
49.22908818238147
 20
-131.081155597702
 10
49.3636313289986
 20
-131.014362557226
 10
49.47756318504128
 20
-130.959406934124
 10
49.57541317552021
 20
-130.913587329271
 10
49.65699373513037
 20
-130.876536637838
 10
49.72452483299338
 20
-130.8467970604569
 10
49.78027206938286
 20
-130.8230037380557
 10
49.82898140038019
 20
-130.8028711448249
 10
49.87058177103358
 20
-130.786243537168
 10
49.90500166104378
 20
-130.7729567666789
 10
49.93711092438157
 20
-130.761000418256
 10
49.96440641764127
 20
-130.751221881871
 10
49.98683902565769
 20
-130.7435104153159
 10
50.00686414400418
 20
-130.736914861233
 10
50.02445806372088
 20
-130.73137065344
 10
50.02696771952549
 20
-130.73060020219
  0
LWPOLYLINE
  5
A1D
330
1E
100
AcDbEntity
  8
1
100
AcDbPolyline
 90
       82
 70
     0
 43
0.0
 10
61.01446626519999
 20
-124.4153607202999
 10
61.03264683991818
 20
-124.4047375951987
 10
61.05069082419388
 20
-124.393877801811
 10
61.06859447699196
 20
-124.3827832978618
 10
61.08635405727728
 20
-124.3714560410799
 10
61.10396582401458
 20
-124.3598979891899
 10
61.12276274472669
 20
-124.347194993797
 10
61.1413792255306
 20
-124.33422904636
 10
61.15981063378296
 20
-124.3210025880139
 10
61.17805288204138
 20
-124.307518004901
 10
61.19610227809069
 20
-124.2937776432929
 10
61.21395513856429
 20
-124.279783848572
 10
61.23160778009547
 20
-124.265538966116
 10
61.24905651931777
 20
-124.2510453413069
 10
61.26629767286438
 20
-124.2363053195248
 10
61.28453579395049
 20
-124.220241699094
 10
61.30252681515107
 20
-124.203901198996
 10
61.32026613578777
 20
-124.187287380019
 10
61.33774915420648
 20
-124.1704038123369
 10
61.35497126875318
 20
-124.153254066121
 10
61.37192787777358
 20
-124.135841711546
 10
61.38861437961367
 20
-124.118170318782
 10
61.40502622349239
 20
-124.100243524562
 10
61.42009234202489
 20
-124.083284910168
 10
61.43491201130778
 20
-124.066110555755
 10
61.44948179050468
 20
-124.048723757126
 10
61.46379823877921
 20
-124.031127810086
 10
61.47785791529488
 20
-124.0133260104389
 10
61.49165737921546
 20
-123.995321653988
 10
61.50423519136138
 20
-123.978424877419
 10
61.51658312204411
 20
-123.96135925465
 10
61.52869864528828
 20
-123.9441277854079
 10
61.54057923515137
 20
-123.926733469473
 10
61.55222236569088
 20
-123.9091793066239
 10
61.5636255109641
 20
-123.891468296639
 10
61.57478614502839
 20
-123.8736034392988
 10
61.58570174244427
 20
-123.85558773492
 10
61.5963698705055
 20
-123.837424282908
 10
61.60599579488597
 20
-123.820529747568
 10
61.61540722059328
 20
-123.8035147723749
 10
61.62460241246066
 20
-123.786381985533
 10
61.63357963532149
 20
-123.769134015247
 10
61.64233715400911
 20
-123.7517734897219
 10
61.65087323335669
 20
-123.7343030371649
 10
61.65918613819778
 20
-123.716725285779
 10
61.66727417705498
 20
-123.699042895472
 10
61.67513585949667
 20
-123.68125867202
 10
61.68276975288419
 20
-123.6633754631339
 10
61.69017442458358
 20
-123.6453961165309
 10
61.6973484419616
 20
-123.627323479924
 10
61.70429037238418
 20
-123.609160401029
 10
61.71044870309199
 20
-123.5924338931519
 10
61.71640970898578
 20
-123.575635974967
 10
61.7221722894012
 20
-123.558768842041
 10
61.72773545490798
 20
-123.541834772604
 10
61.73309836132196
 20
-123.5248361528249
 10
61.73826017424167
 20
-123.507775376142
 10
61.74322005926569
 20
-123.4906548359929
 10
61.74797718199236
 20
-123.473476925817
 10
61.75253070802027
 20
-123.4562440390509
 10
61.75687980294809
 20
-123.438958569133
 10
61.76102363237419
 20
-123.421622909503
 10
61.76496136272509
 20
-123.404239453483
 10
61.7686922573241
 20
-123.3868105809708
 10
61.77221576593618
 20
-123.3693386460279
 10
61.77553135950568
 20
-123.351825999784
 10
61.77863850897669
 20
-123.334274993365
 10
61.78153668529358
 20
-123.3166879778989
 10
61.78422535940068
 20
-123.299067304515
 10
61.78670400224218
 20
-123.281415324339
 10
61.78897208476239
 20
-123.263734388501
 10
61.79102907791079
 20
-123.2460268481369
 10
61.79287451561537
 20
-123.2282951791719
 10
61.79450815146589
 20
-123.210542292767
 10
61.79592978691459
 20
-123.192771194918
 10
61.79713922341369
 20
-123.1749848916209
 10
61.79813626241529
 20
-123.157186388871
 10
61.79892070537171
 20
-123.139378692665
 10
61.79949235373488
 20
-123.1215648089978
 10
61.79985100895717
 20
-123.103747743866
 10
61.79999647249089
 20
-123.085930503264
 10
61.79999999996638
 20
-123.082701221001
  0
LWPOLYLINE
  5
A71
330
1E
100
AcDbEntity
  8
1
100
AcDbPolyline
 90
       47
 70
     0
 43
0.0
 10
47.691556655
 20
132.6789875878
 10
47.63622201856529
 20
132.711724976378
 10
47.58048035154778
 20
132.743776648019
 10
47.52434183097149
 20
132.775136983146
 10
47.46781663386022
 20
132.8058003621829
 10
47.41329322554512
 20
132.834526899102
 10
47.35843298614589
 20
132.862603252098
 10
47.30324431297841
 20
132.890025004908
 10
47.2477347805109
 20
132.916788519852
 10
47.19191189575091
 20
132.9428902230789
 10
47.13578316570539
 20
132.9683265407409
 10
47.07935609738171
 20
132.993093898989
 10
47.02263820203953
 20
133.0171887249238
 10
46.96812131479268
 20
133.0396033972208
 10
46.91335254992138
 20
133.061396522216
 10
46.85833904976639
 20
133.082565100435
 10
46.80308795666831
 20
133.1031061324019
 10
46.74760641296791
 20
133.123016618642
 10
46.69190156100571
 20
133.142293559681
 10
46.63598055063927
 20
133.160934015017
 10
46.57985056837509
 20
133.178935331688
 10
46.52351881187231
 20
133.1962949442329
 10
46.46699247879271
 20
133.2130102872107
 10
46.41027876679831
 20
133.2290787951829
 10
46.35597476676589
 20
133.243811158677
 10
46.3015128556958
 20
133.2579495873939
 10
46.24689942275651
 20
133.271491978823
 10
46.19214104820521
 20
133.284436421077
 10
46.13724432811761
 20
133.296781018048
 10
46.08221585856902
 20
133.30852387363
 10
46.02706223563511
 20
133.319663091715
 10
45.97179005539138
 20
133.3301967761967
 10
45.91640591121112
 20
133.34012303525
 10
45.86091629015911
 20
133.3494401454788
 10
45.80532754047052
 20
133.358146603448
 10
45.74964600102808
 20
133.3662409205359
 10
45.69387801071498
 20
133.3737216081229
 10
45.63802990841401
 20
133.380587177589
 10
45.58210803300807
 20
133.3868361403129
 10
45.52611873623853
 20
133.392467010613
 10
45.47006906246418
 20
133.397478461018
 10
45.41396708653671
 20
133.401869399452
 10
45.36049547242591
 20
133.4054733706819
 10
45.30699086660042
 20
133.408512619234
 10
45.25346031680672
 20
133.410986218266
 10
45.19991087079112
 20
133.4128932409358
 10
45.1463595743592
 20
133.4142325633849
  0
LWPOLYLINE
  5
AA2
330
1E
100
AcDbEntity
  8
1
100
AcDbPolyline
 90
       95
 70
     0
 43
0.0
 10
45.67633012129999
 20
-0.2535547754000107
 10
45.6802994352155
 20
-0.2255106424602736
 10
45.6846088710461
 20
-0.1975125141171716
 10
45.68925660612008
 20
-0.1695649624939616
 10
45.69424081776589
 20
-0.1416725597138996
 10
45.69955968331179
 20
-0.1138398779002416
 10
45.7052113800861
 20
-0.0860714891762449
 10
45.7111940854171
 20
-0.0583719656651655
 10
45.71750597663309
 20
-0.0307458794902599
 10
45.72414522206599
 20
-0.0031977754259996
 10
45.7311097698994
 20
0.0242684709784568
 10
45.7383973405616
 20
0.0516496765270144
 10
45.7460056439617
 20
0.0789426899995878
 10
45.7548326970452
 20
0.1091609926141404
 10
45.76404974778538
 20
0.1392622030660744
 10
45.77365365476828
 20
0.1692419986940944
 10
45.78364127658
 20
0.1990960568369014
 10
45.79400946963519
 20
0.2288200567925764
 10
45.804754931225
 20
0.2584098214516904
 10
45.8158740938049
 20
0.2878614126906384
 10
45.8273633647815
 20
0.3171709149900084
 10
45.8392191515615
 20
0.3463344128303924
 10
45.85143786155138
 20
0.3753479906923784
 10
45.86401590215779
 20
0.4042077330565557
 10
45.8769496807873
 20
0.4329097244035136
 10
45.89023560451199
 20
0.4614500540481994
 10
45.90525253723328
 20
0.4926533595523515
 10
45.92068635289918
 20
0.5236523168734604
 10
45.9365322057149
 20
0.5544426402559914
 10
45.95278524988589
 20
0.5850200439444114
 10
45.9694406396176
 20
0.6153802421831843
 10
45.98649352911539
 20
0.6455189492167773
 10
46.00393907258459
 20
0.6754318792896564
 10
46.02177246222999
 20
0.7051148219514543
 10
46.03998906108039
 20
0.7345639052831146
 10
46.0602933705656
 20
0.7664190244193514
 10
46.0810423116452
 20
0.7979864335361043
 10
46.1022299265661
 20
0.82926122928548
 10
46.12385025757521
 20
0.8602385083195851
 10
46.1458973469194
 20
0.8909133672905243
 10
46.1683653266851
 20
0.9212809401712743
 10
46.1912486932564
 20
0.9513365122702134
 10
46.2165014833988
 20
0.9835392074579624
 10
46.2422285453832
 20
1.015364301307444
 10
46.26842299923079
 20
1.046805848266544
 10
46.29507796496278
 20
1.077857902783164
 10
46.3221865812959
 20
1.108514511278684
 10
46.3497423569164
 20
1.138769561338542
 10
46.3799108291358
 20
1.170895664452754
 10
46.41058309764328
 20
1.202540973886703
 10
46.4417514945497
 20
1.233697666649692
 10
46.4734083519657
 20
1.264357919751053
 10
46.5055460307916
 20
1.294513861955192
 10
46.53581234506428
 20
1.322056811407793
 10
46.56648139877598
 20
1.349150396638014
 10
46.59754760639879
 20
1.375787426049593
 10
46.62900538240478
 20
1.401960708046274
 10
46.6608491412664
 20
1.427663051031774
 10
46.69307330299271
 20
1.452887219154693
 10
46.7231515745845
 20
1.475739741851354
 10
46.75354505514659
 20
1.498171193965223
 10
46.7842494980343
 20
1.520174748007453
 10
46.81526065660288
 20
1.54174357648916
 10
46.8465742842077
 20
1.562870851921504
 10
46.8781861340295
 20
1.583549745641404
 10
46.907421966843
 20
1.602105345642303
 10
46.936901335641
 20
1.620271745502724
 10
46.9666207877124
 20
1.638042465276023
 10
46.9965768703462
 20
1.655411025015544
 10
47.0267661308313
 20
1.67237094477462
 10
47.05718511645669
 20
1.688915744606634
 10
47.0850351804678
 20
1.703590787014143
 10
47.1130694397321
 20
1.717912144003933
 10
47.1412847122368
 20
1.731873876465873
 10
47.16967777616376
 20
1.74546997280496
 10
47.198245409695
 20
1.758694421426213
 10
47.22698439101249
 20
1.771541210734629
 10
47.2558914982981
 20
1.784004329135234
 10
47.28496350973388
 20
1.796077765033013
 10
47.31126657995538
 20
1.806605569305033
 10
47.337697845855
 20
1.816807640270963
 10
47.3642545421181
 20
1.826678760244534
 10
47.39093390342989
 20
1.836213711539494
 10
47.41773316447578
 20
1.845407276469584
 10
47.4446495599411
 20
1.854254237348553
 10
47.47168032451109
 20
1.862749376490133
 10
47.4988226834182
 20
1.870887472179484
 10
47.52304004723678
 20
1.87781710997836
 10
47.54733922859101
 20
1.884455902407879
 10
47.5717165944881
 20
1.890799464333383
 10
47.59616851193478
 20
1.896843410620181
 10
47.62069134793839
 20
1.902583356133613
 10
47.6452814695059
 20
1.908014915739033
 10
47.66993524364428
 20
1.913133704301754
 10
47.69154682945139
 20
1.917350767268403
  0
LWPOLYLINE
  5
B03
330
1E
100
AcDbEntity
  8
1
100
AcDbPolyline
 90
       87
 70
     0
 43
0.0
 10
46.8106141077
 20
-2.649072681500062
 10
46.7807125011982
 20
-2.628537317367095
 10
46.75108910998139
 20
-2.607594336257474
 10
46.7217490196216
 20
-2.586249933546584
 10
46.6904746600656
 20
-2.562821832799015
 10
46.6595411122668
 20
-2.538943101048404
 10
46.62895472798189
 20
-2.514621476169134
 10
46.5987217177106
 20
-2.489864472913724
 10
46.5688474373771
 20
-2.464678256193503
 10
46.53933692318538
 20
-2.439068485907335
 10
46.50812790525779
 20
-2.411165860813054
 10
46.47734845035578
 20
-2.382790470181062
 10
46.4470047521074
 20
-2.353949274356105
 10
46.41710320432839
 20
-2.324649172870704
 10
46.38765094452319
 20
-2.294896839342726
 10
46.3586552828561
 20
-2.264698894940083
 10
46.3301235294915
 20
-2.234061960830724
 10
46.3020629945935
 20
-2.202992658182584
 10
46.2744809908113
 20
-2.171497607347224
 10
46.24917614938939
 20
-2.141723891638243
 10
46.2243010904338
 20
-2.111590250170664
 10
46.19986222793921
 20
-2.081101911598294
 10
46.1758659759006
 20
-2.050264104574974
 10
46.1523187483127
 20
-2.019082057754534
 10
46.13086113215611
 20
-1.989823635210504
 10
46.1098014393458
 20
-1.960277158031095
 10
46.08914516785547
 20
-1.930447097981184
 10
46.0688978686556
 20
-1.900337968544245
 10
46.04906509271689
 20
-1.869954283203764
 10
46.0296523910099
 20
-1.839300555443223
 10
46.01066531450499
 20
-1.808381298746114
 10
45.993521358648
 20
-1.779608680606384
 10
45.97674922353021
 20
-1.750617453203784
 10
45.9603534032417
 20
-1.721411671318784
 10
45.9443383957122
 20
-1.691995404862684
 10
45.92870869887149
 20
-1.662372723746783
 10
45.9134688106493
 20
-1.632547697882384
 10
45.8986232289753
 20
-1.602524397180764
 10
45.8841764505305
 20
-1.572306897403494
 10
45.8712876979469
 20
-1.544440641133215
 10
45.85874112662899
 20
-1.516418546809183
 10
45.8465400797595
 20
-1.488244317886235
 10
45.8346879005207
 20
-1.459921657819175
 10
45.82318793209529
 20
-1.431454270062841
 10
45.81204351766589
 20
-1.402845858072072
 10
45.801258000415
 20
-1.374100125301674
 10
45.79083469031188
 20
-1.345220824649414
 10
45.78077663193538
 20
-1.316212104085694
 10
45.77108674264638
 20
-1.287078300963814
 10
45.76176793900528
 20
-1.257823753828315
 10
45.75362077000879
 20
-1.231127583881044
 10
45.74578488500178
 20
-1.204338470679504
 10
45.73826247523927
 20
-1.177459673836394
 10
45.7310557319767
 20
-1.150494452964464
 10
45.7241667744197
 20
-1.123446123509793
 10
45.7175973550364
 20
-1.096318285116584
 10
45.7113491099005
 20
-1.069114627627014
 10
45.705423675038
 20
-1.041838840920054
 10
45.6998226864752
 20
-1.014494614874674
 10
45.69454778023819
 20
-0.9870856393698311
 10
45.6896005923532
 20
-0.9596156042844942
 10
45.68498275884629
 20
-0.9320881994976303
 10
45.6806958540461
 20
-0.9045071445177496
 10
45.67674096987722
 20
-0.8768763905213976
 10
45.6731189712611
 20
-0.8491999977004363
 10
45.6698307217962
 20
-0.8214820268822714
 10
45.66687708508039
 20
-0.7937265388943075
 10
45.664258924712
 20
-0.7659375945639498
 10
45.6619771042891
 20
-0.7381192547186039
 10
45.66003248740988
 20
-0.710275580185675
 10
45.65842588323028
 20
-0.6824106231761645
 10
45.6571575912234
 20
-0.6545283552352818
 10
45.6562276324246
 20
-0.6266327038408355
 10
45.65563602504528
 20
-0.5987275960236575
 10
45.6553827872968
 20
-0.5708169588145747
 10
45.6554679373903
 20
-0.5429047192444179
 10
45.6558914935372
 20
-0.5149948043440137
 10
45.65665347394871
 20
-0.4870911411441918
 10
45.657753844916
 20
-0.4591976982964419
 10
45.65919199532099
 20
-0.4313189073196186
 10
45.6609669535821
 20
-0.4034594886905296
 10
45.6630777426289
 20
-0.3756241672857177
 10
45.6655233853912
 20
-0.3478176679817256
 10
45.6683029047986
 20
-0.3200447156550966
 10
45.67141532378078
 20
-0.2923100351823726
 10
45.6748596652677
 20
-0.2646183514400976
 10
45.6763287800634
 20
-0.2535646850463526
  0
LWPOLYLINE
  5
B5C
330
1E
100
AcDbEntity
  8
1
100
AcDbPolyline
 90
        4
 70
     0
 43
0.0
 10
46.9831954134
 20
-8.529708526900042
 10
46.9203511755728
 20
-5.835907372365324
 10
46.83244086824529
 20
-3.201668698258623
 10
46.81061451310259
 20
-2.649082673279123
  0
LWPOLYLINE
  5
B62
330
1E
100
AcDbEntity
  8
1
100
AcDbPolyline
 90
       19
 70
     0
 43
0.0
 10
45.1463495763
 20
-31.6648638832
 10
45.32202908515059
 20
-31.70657838236761
 10
45.49562505215349
 20
-31.74586713289681
 10
45.66710272385027
 20
-31.78278261888911
 10
45.8339024987262
 20
-31.81686822904339
 10
45.9985162143421
 20
-31.8487239157093
 10
46.15837770215645
 20
-31.8779373071859
 10
46.31599251312938
 20
-31.90504827521201
 10
46.46878851485829
 20
-31.92969090080699
 10
46.61673109397559
 20
-31.9519763627973
 10
46.75978762065136
 20
-31.97201138247891
 10
46.897927691626
 20
-31.98990439856
 10
47.03112217047939
 20
-32.00576021095651
 10
47.15934402676478
 20
-32.0196857180896
 10
47.28256827750437
 20
-32.0317867277869
 10
47.40334280824279
 20
-32.04238116874069
 10
47.51907928420648
 20
-32.05131260586861
 10
47.62975393616389
 20
-32.05868698885039
 10
47.6915466702384
 20
-32.0622902752525
  0
LWPOLYLINE
  5
B77
330
1E
100
AcDbEntity
  8
1
100
AcDbPolyline
 90
       28
 70
     0
 43
0.0
 10
45.67633012129997
 20
-132.8368339336
 10
45.67949270224921
 20
-132.8342885138819
 10
45.68271526586237
 20
-132.831821462525
 10
45.68599364015847
 20
-132.829428327495
 10
45.68932365315617
 20
-132.827104656757
 10
45.69270113287448
 20
-132.8248459982769
 10
45.69612190733209
 20
-132.822647900019
 10
45.70045240287877
 20
-132.819978657614
 10
45.70483587933457
 20
-132.8173883888719
 10
45.70926418829857
 20
-132.814868398414
 10
45.71462586501819
 20
-132.8119249341019
 10
45.72092913482328
 20
-132.8085829275398
 10
45.72817404219946
 20
-132.804860588202
 10
45.73636922829738
 20
-132.8007842439049
 10
45.74460834292085
 20
-132.796816645447
 10
45.75381018672568
 20
-132.792524265536
 10
45.76398415268758
 20
-132.787928803208
 10
45.77606960770657
 20
-132.782645306071
 10
45.79102091479458
 20
-132.7763218593829
 10
45.80980515340747
 20
-132.7686324122369
 10
45.83151565581519
 20
-132.760037963408
 10
45.8590203949145
 20
-132.7495124722869
 10
45.90188575659968
 20
-132.733666920289
 10
45.97454835276938
 20
-132.7077091219609
 10
46.35474733299171
 20
-132.573908288971
 10
46.46234852975129
 20
-132.5341077892479
 10
46.55718056883517
 20
-132.4978481812989
 10
46.62236421412818
 20
-132.4722121428029
  0
LWPOLYLINE
  5
B95
330
1E
100
AcDbEntity
  8
1
100
AcDbPolyline
 90
       16
 70
     0
 43
0.0
 10
46.62237350539998
 20
-132.4722084452
 10
46.70653336974047
 20
-132.4381848081767
 10
46.78810886804845
 20
-132.4041512174888
 10
46.86601078965908
 20
-132.370630703171
 10
46.94244247187572
 20
-132.3367282312609
 10
47.01740119170238
 20
-132.30246410785
 10
47.09088623095069
 20
-132.2678614080269
 10
47.16289822164339
 20
-132.232945322293
 10
47.23343920390008
 20
-132.197744855578
 10
47.30357186503748
 20
-132.1617380054615
 10
47.37222852195738
 20
-132.125482729823
 10
47.44046139634348
 20
-132.088435368412
 10
47.50825706349948
 20
-132.050591963708
 10
47.57560139997768
 20
-132.0119496283868
 10
47.64247894276286
 20
-131.9725075267869
 10
47.69154811816257
 20
-131.942872541218
  0
LWPOLYLINE
  5
BA7
330
1E
100
AcDbEntity
  8
1
100
AcDbPolyline
 90
       36
 70
     0
 43
0.0
 10
45.14634957629999
 20
-133.4081776905998
 10
45.19895832668725
 20
-133.4080920364858
 10
45.25156817923849
 20
-133.407455620152
 10
45.30417231018897
 20
-133.406268555165
 10
45.35676389577418
 20
-133.4045309550899
 10
45.40933611222938
 20
-133.402242933493
 10
45.46188213578999
 20
-133.3994046039399
 10
45.51439514269139
 20
-133.396016079997
 10
45.56686846064867
 20
-133.392077521326
 10
45.61929630500138
 20
-133.3875893577147
 10
45.67167321340618
 20
-133.382552117033
 10
45.72399372397526
 20
-133.3769663272929
 10
45.77625237482068
 20
-133.370832516505
 10
45.82844370405459
 20
-133.3641512126789
 10
45.88056224978898
 20
-133.3569229438269
 10
45.93260252468268
 20
-133.3491482668399
 10
45.986412753765
 20
-133.340520782921
 10
46.04012636222395
 20
-133.331309148325
 10
46.09373683498549
 20
-133.3215144567009
 10
46.14723765697546
 20
-133.3111378016959
 10
46.20062231311997
 20
-133.300180276961
 10
46.25388428834507
 20
-133.288642976141
 10
46.30701711577366
 20
-133.276527020539
 10
46.36001468296067
 20
-133.263833734796
 10
46.41287103562677
 20
-133.2505645342976
 10
46.46558022022371
 20
-133.236720834852
 10
46.51813628320327
 20
-133.2223040522628
 10
46.57053327101746
 20
-133.207315602336
 10
46.62276523011818
 20
-133.191756900877
 10
46.67482604299387
 20
-133.1756294894989
 10
46.72670872122965
 20
-133.1589355780529
 10
46.78018525776928
 20
-133.1410724633359
 10
46.83345532013878
 20
-133.1226083986269
 10
46.88651085269428
 20
-133.103546075181
 10
46.93934379979221
 20
-133.083888184251
 10
46.98318609466372
 20
-133.067057230531
  0
LWPOLYLINE
  5
BCD
330
1E
100
AcDbEntity
  8
1
100
AcDbPolyline
 90
        7
 70
     0
 43
0.0
 10
45.40566027689997
 20
-133.402466463
 10
45.35437271623321
 20
-133.405849843437
 10
45.30330878182147
 20
-133.408700824275
 10
45.25221732458659
 20
-133.411036810785
 10
45.20110612075177
 20
-133.412856817538
 10
45.1502424722086
 20
-133.414154551772
 10
45.1463595743592
 20
-133.4142325633849
  0
LWPOLYLINE
  5
BD6
330
1E
100
AcDbEntity
  8
1
100
AcDbPolyline
 90
       16
 70
     0
 43
0.0
 10
55.8414203479
 20
-26.98942337540002
 10
55.84143336428859
 20
-26.9864601729868
 10
55.84147727622729
 20
-26.98345353347971
 10
55.84155195877849
 20
-26.9804473405107
 10
55.8416572535389
 20
-26.97744190167411
 10
55.8417951925719
 20
-26.97439399219049
 10
55.8419643091357
 20
-26.9713474965941
 10
55.8421675119751
 20
-26.9682592588101
 10
55.8424023956336
 20
-26.96517317166798
 10
55.84267271185879
 20
-26.96204618961989
 10
55.84297514546921
 20
-26.95892217586552
 10
55.84331433048809
 20
-26.95575819419261
 10
55.8436860495311
 20
-26.9525980525247
 10
55.84409581754929
 20
-26.949398947624
 10
55.8445385152182
 20
-26.94620461027501
 10
55.84456817824939
 20
-26.94599885607861
  0
LWPOLYLINE
  5
BE8
330
1E
100
AcDbEntity
  8
1
100
AcDbPolyline
 90
       88
 70
     0
 43
0.0
 10
55.84456960859999
 20
-26.9459889589
 10
55.8451359665585
 20
-26.94223052584149
 10
55.8457473847722
 20
-26.9384788705026
 10
55.8464034834674
 20
-26.9347344549212
 10
55.8471038828706
 20
-26.93099774113481
 10
55.84784820320829
 20
-26.9272691911814
 10
55.8486360647068
 20
-26.92354926709861
 10
55.8494670875937
 20
-26.91983843090719
 10
55.85044060675979
 20
-26.91572648432119
 10
55.851466426306
 20
-26.9116268845466
 10
55.8525440293436
 20
-26.9075401961949
 10
55.8536728989842
 20
-26.9034669838778
 10
55.85485251833921
 20
-26.89940781220661
 10
55.85608237051999
 20
-26.89536324579279
 10
55.85736193863811
 20
-26.8913338492479
 10
55.858690705805
 20
-26.88732018718349
 10
55.8600681551321
 20
-26.88332282421101
 10
55.86149376973089
 20
-26.87934232494189
 10
55.8629670327128
 20
-26.8753792539878
 10
55.864642038969
 20
-26.87104067950571
 10
55.8663733913114
 20
-26.866724615811
 10
55.868160464034
 20
-26.8624316617294
 10
55.87000266826628
 20
-26.8581623257786
 10
55.871899415745
 20
-26.8539171149864
 10
55.87385011820729
 20
-26.84969653638111
 10
55.87585418738989
 20
-26.8455010969906
 10
55.87791103502979
 20
-26.84133130384289
 10
55.880020072864
 20
-26.8371876639661
 10
55.8821807126293
 20
-26.8330706843883
 10
55.88459593473849
 20
-26.82861043568699
 10
55.8870711036033
 20
-26.82418317661038
 10
55.88960545551951
 20
-26.81978956540661
 10
55.8921982490245
 20
-26.8154302476541
 10
55.89484880699689
 20
-26.81110583228031
 10
55.89755646388191
 20
-26.80681692162381
 10
55.9003205541247
 20
-26.8025641180232
 10
55.90314041217049
 20
-26.798348023817
 10
55.9062574188805
 20
-26.7938227125623
 10
55.90943824800699
 20
-26.7893419565927
 10
55.9126820533555
 20
-26.78490652172839
 10
55.91598798873178
 20
-26.78051717379011
 10
55.91935520794151
 20
-26.77617467859819
 10
55.9227828654154
 20
-26.7718798017964
 10
55.9265408528915
 20
-26.7673086695434
 10
55.93036705511029
 20
-26.7627945630547
 10
55.934260536721
 20
-26.7583384044418
 10
55.9382203623734
 20
-26.7539411158163
 10
55.9422455967167
 20
-26.74960361928949
 10
55.9463353044007
 20
-26.7453268369731
 10
55.9507876170675
 20
-26.74081299201789
 10
55.95531171831339
 20
-26.7363710372011
 10
55.95959796717369
 20
-26.7322910741083
 10
55.96394481455639
 20
-26.7282756498188
 10
55.968351327629
 20
-26.72432574060151
 10
55.9728165750161
 20
-26.72044235407051
 10
55.97733962536519
 20
-26.7166264983296
 10
55.9815905438485
 20
-26.713144552506
 10
55.9858897538939
 20
-26.7097225111383
 10
55.99023650980839
 20
-26.70636118137089
 10
55.9946300658992
 20
-26.703061370348
 10
55.9990696764731
 20
-26.69982388521411
 10
56.0035545958373
 20
-26.69664953311349
 10
56.0080840786745
 20
-26.6935391233284
 10
56.0123040556312
 20
-26.69072546941547
 10
56.01656080272778
 20
-26.68796773975329
 10
56.02085374708368
 20
-26.68526664671341
 10
56.0251823158179
 20
-26.6826229026676
 10
56.02954593604978
 20
-26.68003721998769
 10
56.0339440348987
 20
-26.6775103110453
 10
56.0383760394836
 20
-26.67504288821231
 10
56.042841376924
 20
-26.6726356638604
 10
56.04696339561811
 20
-26.67048253264669
 10
56.05111250052679
 20
-26.6683811321767
 10
56.05528825038611
 20
-26.66633201115811
 10
56.0594901679951
 20
-26.66433573497259
 10
56.0637175677553
 20
-26.6623929656958
 10
56.0679696891314
 20
-26.66050440017281
 10
56.0722457714895
 20
-26.6586707352944
 10
56.0765450541961
 20
-26.65689266795149
 10
56.0808667766173
 20
-26.655170895035
 10
56.0848144476093
 20
-26.6536550838788
 10
56.0887794637216
 20
-26.65218689656919
 10
56.092761253479
 20
-26.65076685669039
 10
56.0967592454059
 20
-26.64939548782701
 10
56.1007728680271
 20
-26.6480733135633
 10
56.1048015498671
 20
-26.64680085748369
 10
56.10884471945059
 20
-26.64557864317261
 10
56.1100508094917
 20
-26.64522465256711
  0
LWPOLYLINE
  5
C42
330
1E
100
AcDbEntity
  8
1
100
AcDbPolyline
 90
       31
 70
     0
 43
0.0
 10
45.40563776920001
 20
133.4024219244
 10
45.45900519810319
 20
133.3995743293389
 10
45.5123409848922
 20
133.396159035454
 10
45.56564088657562
 20
133.3921758236388
 10
45.61889886601599
 20
133.38762506928
 10
45.6721081624576
 20
133.3825073875289
 10
45.72526201314111
 20
133.376823394202
 10
45.7783536553069
 20
133.3705737051189
 10
45.8313763261956
 20
133.363758936095
 10
45.88432326304778
 20
133.356379702947
 10
45.93718777913029
 20
133.348436655533
 10
45.98996375043522
 20
133.339930695657
 10
46.04264530550009
 20
133.3308628381979
 10
46.09522657406118
 20
133.3212340985669
 10
46.14770168585461
 20
133.311045492181
 10
46.2000647706164
 20
133.300298034452
 10
46.25230995808279
 20
133.288992740795
 10
46.30443139123411
 20
133.277130651134
 10
46.35642332183361
 20
133.264713006715
 10
46.40828005502021
 20
133.2517411475639
 10
46.4599958963007
 20
133.2382164143879
 10
46.51312550740509
 20
133.223704998733
 10
46.56609328545961
 20
133.208609583359
 10
46.6188930024441
 20
133.192931634588
 10
46.6715183092383
 20
133.176672719208
 10
46.7239620519654
 20
133.1598350716689
 10
46.77621674857199
 20
133.142421198686
 10
46.82827491603839
 20
133.1244336077799
 10
46.88012907134499
 20
133.105874806467
 10
46.93177173147211
 20
133.086747302268
 10
46.9831860946638
 20
133.067057230531
  0
LWPOLYLINE
  5
C63
330
1E
100
AcDbEntity
  8
1
100
AcDbPolyline
 90
       88
 70
     0
 43
0.0
 10
61.6613416375
 20
-23.7852143955
 10
61.66793305173978
 20
-23.7825252067953
 10
61.6741213706135
 20
-23.7799196424033
 10
61.6799074975558
 20
-23.77740519020679
 10
61.68529337545749
 20
-23.7749903704408
 10
61.6902818367944
 20
-23.7726844455558
 10
61.6950596687645
 20
-23.77040859302089
 10
61.6996278666
 20
-23.76816661556
 10
61.7039877591049
 20
-23.7659626429667
 10
61.7081409649085
 20
-23.76380107641849
 10
61.7122682386751
 20
-23.76158930241901
 10
61.7161904915154
 20
-23.75942504588319
 10
61.71990997455529
 20
-23.7573133180251
 10
61.7236044366607
 20
-23.75515540831699
 10
61.72709800059871
 20
-23.7530556266731
 10
61.7303915997882
 20
-23.75101828151719
 10
61.7334866765732
 20
-23.749047946182
 10
61.736385241568
 20
-23.7471494725673
 10
61.73925800719127
 20
-23.7452129096477
 10
61.74193651666449
 20
-23.74335409557081
 10
61.74458890421298
 20
-23.7414589067841
 10
61.7470503842555
 20
-23.73964799567448
 10
61.74948620697151
 20
-23.7378029392915
 10
61.7517353409764
 20
-23.73604915149321
 10
61.7539599254792
 20
-23.73426384668201
 10
61.7561588988357
 20
-23.73244616907869
 10
61.75817694226591
 20
-23.7307285907003
 10
61.76017113720689
 20
-23.7289816759708
 10
61.7621406336469
 20
-23.72720473970539
 10
61.76408458157411
 20
-23.7253970967192
 10
61.76585558109779
 20
-23.7237006567728
 10
61.76760302310579
 20
-23.7219770229169
 10
61.76932504754709
 20
-23.7202259368001
 10
61.7710196966695
 20
-23.71844716307739
 10
61.7725474045169
 20
-23.7167920967041
 10
61.77404895646909
 20
-23.71511338601961
 10
61.7753900375207
 20
-23.71356661506819
 10
61.7767071229173
 20
-23.7120000173539
 10
61.77787104709928
 20
-23.71057301496349
 10
61.7790137911779
 20
-23.70912974329089
 10
61.7801345292266
 20
-23.7076701030498
 10
61.7812324353186
 20
-23.7061939949539
 10
61.7821885165861
 20
-23.70486799373868
 10
61.7831253251305
 20
-23.7035288327048
 10
61.78404228087689
 20
-23.70217644212031
 10
61.78493880375079
 20
-23.7008107522533
 10
61.7858143136774
 20
-23.699431693372
 10
61.7865626916642
 20
-23.6982139952626
 10
61.7872941488888
 20
-23.69698596139821
 10
61.7880082967466
 20
-23.6957475450638
 10
61.7887047466328
 20
-23.69449869954439
 10
61.7893831099427
 20
-23.69323937812509
 10
61.79004299807161
 20
-23.6919695340909
 10
61.7906840224148
 20
-23.69068912072698
 10
61.7913057943675
 20
-23.6893980913185
 10
61.79190795046129
 20
-23.68809646554989
 10
61.7924082876402
 20
-23.6869726091678
 10
61.7928939080298
 20
-23.68584149855248
 10
61.7933646834597
 20
-23.68470341216001
 10
61.7938204857596
 20
-23.68355862844639
 10
61.7942611867592
 20
-23.6824074258673
 10
61.7946866582881
 20
-23.68125008287889
 10
61.7950967721761
 20
-23.6800868779371
 10
61.79549140025279
 20
-23.6789180894976
 10
61.795870414348
 20
-23.67774399601652
 10
61.7962336862911
 20
-23.67656487594981
 10
61.7965810879121
 20
-23.67538100775319
 10
61.79691249104049
 20
-23.6741926698829
 10
61.797227767506
 20
-23.6730001407945
 10
61.79752678913828
 20
-23.67180369894421
 10
61.797809427767
 20
-23.67060362278779
 10
61.7980755552219
 20
-23.6694001907813
 10
61.7983250433327
 20
-23.6681936813805
 10
61.798557763929
 20
-23.66698437304139
 10
61.7987735888404
 20
-23.66577254421998
 10
61.79897238989671
 20
-23.66455847337208
 10
61.7991540389276
 20
-23.6633424389536
 10
61.79931840776269
 20
-23.6621247194206
 10
61.7994653682317
 20
-23.66090559322889
 10
61.7995947921643
 20
-23.6596853388344
 10
61.7997065513901
 20
-23.6584642346931
 10
61.79980051773888
 20
-23.65724255926089
 10
61.79987656304028
 20
-23.65602059099371
 10
61.799934559124
 20
-23.65479860834751
 10
61.7999743778197
 20
-23.65357688977811
 10
61.7999935820928
 20
-23.65255919358788
 10
61.79999999999999
 20
-23.65154203529998
 10
61.7999999993781
 20
-23.6515520353338
  0
LWPOLYLINE
  5
CBD
330
1E
100
AcDbEntity
  8
1
100
AcDbPolyline
 90
       14
 70
     0
 43
0.0
 10
33.12671116729998
 20
-133.4562524048999
 10
33.13717020320118
 20
-133.4531733464749
 10
33.14858957328038
 20
-133.452431023093
 10
33.15962349007387
 20
-133.451140759265
 10
33.18655628263057
 20
-133.447243284065
 10
33.19744138674668
 20
-133.446053241235
 10
33.21392307675818
 20
-133.4446836821999
 10
33.23604630413729
 20
-133.4433117290199
 10
33.39015595922347
 20
-133.434623718055
 10
33.58846685402049
 20
-133.426671487462
 10
33.95762093288388
 20
-133.415653141226
 10
34.76224490447079
 20
-133.399694104698
 10
36.33314796285886
 20
-133.384116866459
 10
38.63724303248257
 20
-133.3832057503459
  0
LWPOLYLINE
  5
CCD
330
1E
100
AcDbEntity
  8
1
100
AcDbPolyline
 90
      103
 70
     0
 43
0.0
 10
45.65878952609998
 20
-132.8800766025
 10
45.65862123341449
 20
-132.8797111672409
 10
45.65845802336546
 20
-132.8793423500565
 10
45.65829992136719
 20
-132.878970274772
 10
45.65814695283408
 20
-132.878595065209
 10
45.65799914318009
 20
-132.878216845194
 10
45.65785651781967
 20
-132.877835738549
 10
45.65771910216708
 20
-132.877451869099
 10
45.65758692163638
 20
-132.8770653606669
 10
45.65746000164199
 20
-132.876676337078
 10
45.65733836759809
 20
-132.8762849221559
 10
45.65722204491888
 20
-132.875891239724
 10
45.65711105901859
 20
-132.875495413608
 10
45.65701834416135
 20
-132.8751474046059
 10
45.65692975175887
 20
-132.8747979320999
 10
45.65684529883667
 20
-132.874447079042
 10
45.65676500242028
 20
-132.8740949283849
 10
45.65668887953528
 20
-132.873741563082
 10
45.65661694720726
 20
-132.873387066084
 10
45.65654922246177
 20
-132.8730315203449
 10
45.65648572232436
 20
-132.872675008815
 10
45.65642646382069
 20
-132.8723176144489
 10
45.65637146397608
 20
-132.871959420198
 10
45.65632073981627
 20
-132.871600509014
 10
45.65627430836666
 20
-132.8712409638509
 10
45.65623218665307
 20
-132.87088086766
 10
45.65619439170077
 20
-132.8705203033929
 10
45.65616094053548
 20
-132.8701593540039
 10
45.65613185018277
 20
-132.869798102445
 10
45.65610713766818
 20
-132.869436631668
 10
45.65608682001719
 20
-132.869075024625
 10
45.65607091425537
 20
-132.8687133642679
 10
45.65605943740838
 20
-132.868351733552
 10
45.65605240650159
 20
-132.867990215426
 10
45.65604983856077
 20
-132.867628892845
 10
45.65605175061139
 20
-132.86726784876
 10
45.65605815967899
 20
-132.866907166124
 10
45.65606908278907
 20
-132.866546927889
 10
45.65608453696738
 20
-132.866187217008
 10
45.65610453923928
 20
-132.8658281164329
 10
45.65612910663038
 20
-132.865469709116
 10
45.65615825616627
 20
-132.865112078011
 10
45.65619200487247
 20
-132.8647553060679
 10
45.65623036977457
 20
-132.864399476241
 10
45.65627336789819
 20
-132.8640446714819
 10
45.65632101626868
 20
-132.863690974743
 10
45.65637333191187
 20
-132.8633384689769
 10
45.65643033185309
 20
-132.862987237136
 10
45.65649203311798
 20
-132.862637362173
 10
45.65655845273218
 20
-132.8622889270399
 10
45.65662960772107
 20
-132.861942014689
 10
45.65670551511035
 20
-132.861596708073
 10
45.65678619192559
 20
-132.861253090144
 10
45.65687165519228
 20
-132.8609112438549
 10
45.65696192193597
 20
-132.8605712521579
 10
45.65705699887408
 20
-132.8602331855977
 10
45.65715683940179
 20
-132.8598970505429
 10
45.65726137972386
 20
-132.8595628326669
 10
45.65737055603698
 20
-132.8592305176369
 10
45.65748430453766
 20
-132.858900091119
 10
45.65760256142247
 20
-132.858571538779
 10
45.65772526288788
 20
-132.8582448462829
 10
45.65785234513035
 20
-132.8579199992969
 10
45.65798374434659
 20
-132.8575969834868
 10
45.65811939673309
 20
-132.85727578452
 10
45.65825923848628
 20
-132.85695638806
 10
45.65842410562278
 20
-132.856593552301
 10
45.65859426600989
 20
-132.8562330307199
 10
45.6587696244076
 20
-132.8558748019198
 10
45.65895008557558
 20
-132.855518844505
 10
45.65913555427398
 20
-132.8551651370789
 10
45.65932593526238
 20
-132.854813658246
 10
45.65952113330077
 20
-132.854464386608
 10
45.65972105314886
 20
-132.8541173007689
 10
45.65995148843119
 20
-132.853729415273
 10
45.66018764361009
 20
-132.853344238634
 10
45.66042938307988
 20
-132.852961740387
 10
45.66067657123507
 20
-132.8525818900679
 10
45.66092907247009
 20
-132.852204657212
 10
45.66118675117919
 20
-132.8518300113539
 10
45.66147896826818
 20
-132.8514167352579
 10
45.66177722387027
 20
-132.8510065735849
 10
45.66208133196957
 20
-132.850599484546
 10
45.66242238850317
 20
-132.850155185618
 10
45.66277005389188
 20
-132.849714498389
 10
45.66312408054858
 20
-132.8492773672359
 10
45.66351725551776
 20
-132.8488044872169
 10
45.66391738483688
 20
-132.848335700814
 10
45.66435833324968
 20
-132.8478323846549
 10
45.6648066574476
 20
-132.8473336962459
 10
45.66529724802108
 20
-132.846801717293
 10
45.66583126741806
 20
-132.8462374472339
 10
45.66640975882638
 20
-132.84564191145
 10
45.66707057727446
 20
-132.84497956272
 10
45.66781598533617
 20
-132.844252807798
 10
45.66868586388328
 20
-132.843428576081
 10
45.66960565866708
 20
-132.842581139659
 10
45.67061310063318
 20
-132.8416769800869
 10
45.67166798011639
 20
-132.8407525745929
 10
45.67276741359068
 20
-132.839808699205
 10
45.67394698937278
 20
-132.838813059209
 10
45.67524058265198
 20
-132.837735242611
 10
45.67632241071577
 20
-132.836840301884
  0
LWPOLYLINE
  5
D36
330
1E
100
AcDbEntity
  8
1
100
AcDbPolyline
 90
       89
 70
     0
 43
0.0
 10
45.10920538229999
 20
-8.599552917100034
 10
45.10919259463428
 20
-8.599466200419092
 10
45.1091849844314
 20
-8.599378563360014
 10
45.10918196029961
 20
-8.599290641093796
 10
45.10918293084709
 20
-8.599203068791434
 10
45.1091873059055
 20
-8.599116480161955
 10
45.10919466307727
 20
-8.599031308433735
 10
45.10920491699449
 20
-8.598947584095363
 10
45.10921802262148
 20
-8.598865289440054
 10
45.1092339349221
 20
-8.598784406761032
 10
45.1092526088607
 20
-8.598704918351495
 10
45.10927399940129
 20
-8.598626806504665
 10
45.1092980615081
 20
-8.598550053513745
 10
45.1093247501452
 20
-8.598474641671932
 10
45.10935402027678
 20
-8.598400553272462
 10
45.10938582686689
 20
-8.598327770608532
 10
45.1094201248797
 20
-8.598256275973355
 10
45.1094568692793
 20
-8.598186051660142
 10
45.10949601502987
 20
-8.598117079962115
 10
45.1095375170956
 20
-8.598049343172462
 10
45.1095813304405
 20
-8.597982823584406
 10
45.1096274100288
 20
-8.597917503491162
 10
45.1096757108246
 20
-8.597853365185923
 10
45.109726187792
 20
-8.597790390961922
 10
45.1097787958952
 20
-8.597728563112365
 10
45.10983349009829
 20
-8.597667863930455
 10
45.1098902253654
 20
-8.597608275709403
 10
45.1099489566607
 20
-8.597549780742415
 10
45.11000963894828
 20
-8.597492361322714
 10
45.1100722271922
 20
-8.597435999743503
 10
45.11013667635679
 20
-8.597380678298005
 10
45.110202941406
 20
-8.597326379279415
 10
45.1103056452477
 20
-8.597246809068392
 10
45.1104121815032
 20
-8.597169439717236
 10
45.1105223981765
 20
-8.597094211465533
 10
45.1106361432715
 20
-8.597021064552864
 10
45.1107532647921
 20
-8.596949939218825
 10
45.11087361074229
 20
-8.596880775703002
 10
45.11099702912599
 20
-8.596813514244972
 10
45.11112336794729
 20
-8.596748095084315
 10
45.11125247520989
 20
-8.596684458460641
 10
45.11138419891799
 20
-8.596622544613515
 10
45.11151838707538
 20
-8.596562293782534
 10
45.1116548876861
 20
-8.596503646207272
 10
45.11179354875399
 20
-8.596446542127344
 10
45.11198152817999
 20
-8.596372701057196
 10
45.1121727179166
 20
-8.596301356083666
 10
45.112366757677
 20
-8.596232365552445
 10
45.11261276634889
 20
-8.596149222521406
 10
45.1128619615491
 20
-8.596069260303023
 10
45.11311363959229
 20
-8.595992202228714
 10
45.1134179398077
 20
-8.595903176460343
 10
45.113774572563
 20
-8.595803457255996
 10
45.11418191924621
 20
-8.595694027713253
 10
45.114586271073
 20
-8.595588355601556
 10
45.11493617425929
 20
-8.595498372658164
 10
45.11528241004099
 20
-8.595410615207915
 10
45.1156737484028
 20
-8.595312992927004
 10
45.1160605825581
 20
-8.595218161458445
 10
45.1164430649724
 20
-8.595126058959994
 10
45.1168213481112
 20
-8.595036623589425
 10
45.1172420870334
 20
-8.594939119847992
 10
45.11765792129629
 20
-8.594844825368474
 10
45.11806906798478
 20
-8.594753652098164
 10
45.1185206639015
 20
-8.594655902045376
 10
45.1189670384794
 20
-8.594561775844605
 10
45.119452375274
 20
-8.594462278415216
 10
45.11993215091821
 20
-8.594366858930525
 10
45.1204496657956
 20
-8.594267226917585
 10
45.1210039675242
 20
-8.594164310836724
 10
45.1216361877971
 20
-8.594051708888075
 10
45.1223443878691
 20
-8.593931562855782
 10
45.12312718046859
 20
-8.593805971558335
 10
45.1239840335377
 20
-8.593676867647225
 10
45.1249560034107
 20
-8.593540409970803
 10
45.12612573604809
 20
-8.593389016175036
 10
45.1276621511892
 20
-8.593208324117181
 10
45.12876452252569
 20
-8.593088809198665
 10
45.1297559858155
 20
-8.592986989962716
 10
45.1308420815298
 20
-8.592881070203505
 10
45.1320245583558
 20
-8.592772000791955
 10
45.13339067176829
 20
-8.592653554778104
 10
45.13494404694671
 20
-8.592528012025223
 10
45.1368625484365
 20
-8.592385316814171
 10
45.13963839685898
 20
-8.592200753578065
 10
45.143325289543
 20
-8.591991123833594
 10
45.14737043523949
 20
-8.591801868173952
 10
45.15032613406139
 20
-8.591687462627522
 10
45.1511480545589
 20
-8.591658957766044
  0
LWPOLYLINE
  5
D91
330
1E
100
AcDbEntity
  8
1
100
AcDbPolyline
 90
        2
 70
     0
 43
0.0
 10
61.01446626519999
 20
-124.4153607202999
 10
50.02698595505157
 20
-130.7305922988319
  0
LWPOLYLINE
  5
D95
330
1E
100
AcDbEntity
  8
1
100
AcDbPolyline
 90
       80
 70
     0
 43
0.0
 10
61.79999999999999
 20
123.3002570746998
 10
61.79989094253723
 20
123.3182459850209
 10
61.79956405912539
 20
123.3362354295816
 10
61.79901978322901
 20
123.3542223230299
 10
61.79825854831261
 20
123.3722035800129
 10
61.797280787841
 20
123.3901761151769
 10
61.79608693527871
 20
123.4081368431698
 10
61.7946774240903
 20
123.4260826786388
 10
61.79305268774051
 20
123.4440105362306
 10
61.79121315969371
 20
123.4619173305927
 10
61.78915927540622
 20
123.479799980976
 10
61.78689159388811
 20
123.4976556922319
 10
61.78441086802922
 20
123.5154821173789
 10
61.78171786767779
 20
123.5332769486326
 10
61.77881336268189
 20
123.55103787821
 10
61.77569812288965
 20
123.5687625983276
 10
61.77237291814911
 20
123.5864488012019
 10
61.76883851830841
 20
123.6040941790509
 10
61.76509569321559
 20
123.6216964240888
 10
61.7611452127188
 20
123.6392532285337
 10
61.75698787844781
 20
123.6567622857619
 10
61.7526246689156
 20
123.6742212956017
 10
61.74805662381291
 20
123.6916279601148
 10
61.74328478288909
 20
123.7089799813648
 10
61.73831018589392
 20
123.7262750614138
 10
61.7331338725765
 20
123.7435109023269
 10
61.72775688268661
 20
123.7606852061668
 10
61.72218025597349
 20
123.7777956749958
 10
61.71640503218679
 20
123.7948400108787
 10
61.70987952781231
 20
123.8133557274659
 10
61.70312046187549
 20
123.8317872556429
 10
61.69612945624662
 20
123.8501319324417
 10
61.68890813377172
 20
123.8683870960407
 10
61.6814581172969
 20
123.8865500846217
 10
61.67378102966821
 20
123.9046182363648
 10
61.66587849373178
 20
123.9225888894498
 10
61.65775213233381
 20
123.9404593820577
 10
61.6494035712186
 20
123.9582270556718
 10
61.64083452824741
 20
123.9758893567537
 10
61.63204683024722
 20
123.9934438559447
 10
61.62304231034312
 20
124.010888131065
 10
61.61382280166001
 20
124.0282197599319
 10
61.6035945178142
 20
124.0468657637479
 10
61.59311840278202
 20
124.0653736423829
 10
61.58239678722042
 20
124.0837403162469
 10
61.57143200559829
 20
124.1019627120659
 10
61.560226485939
 20
124.1200379116198
 10
61.54878275321561
 20
124.1379631573628
 10
61.5371033368924
 20
124.1557356991959
 10
61.52519076643327
 20
124.1733527870165
 10
61.51210399940172
 20
124.1921480300868
 10
61.49875292157609
 20
124.2107563590209
 10
61.48514069231872
 20
124.2291743393279
 10
61.471270510449
 20
124.2473986390109
 10
61.45714567060778
 20
124.2654261749729
 10
61.4427694817007
 20
124.2832539011726
 10
61.42709126093562
 20
124.3021298480648
 10
61.41113236999972
 20
124.3207691782759
 10
61.39489687870222
 20
124.3391681453088
 10
61.3783888617155
 20
124.3573230099249
 10
61.36161250837369
 20
124.3752302040389
 10
61.34342681647192
 20
124.3940543986306
 10
61.32494594788042
 20
124.4125888265888
 10
61.30617513426122
 20
124.4308293775409
 10
61.2883188199369
 20
124.4476593387636
 10
61.27021657985349
 20
124.4642240107479
 10
61.25187268303339
 20
124.4805201562829
 10
61.23329130159238
 20
124.496544885596
 10
61.21447659386561
 20
124.5122953583245
 10
61.19543271818828
 20
124.5277687341039
 10
61.176163832896
 20
124.5429621725689
 10
61.157980199652
 20
124.5568876437789
 10
61.13960758181381
 20
124.5705644698179
 10
61.12104983083979
 20
124.5839902251209
 10
61.10231123628111
 20
124.5971623758979
 10
61.08339610582639
 20
124.610078383882
 10
61.06430874716432
 20
124.6227357108029
 10
61.0450534679835
 20
124.6351318183929
 10
61.02563457597272
 20
124.6472641683829
 10
61.01447482208461
 20
124.6540723662858
  0
LWPOLYLINE
  5
DE7
330
1E
100
AcDbEntity
  8
1
100
AcDbPolyline
 90
        3
 70
     0
 43
0.0
 10
45.14634957629999
 20
-133.4142327604
 10
40.69383596495418
 20
-133.479764135265
 10
36.53374478739998
 20
-133.4999999999999
  0
LWPOLYLINE
  5
DEC
330
1E
100
AcDbEntity
  8
1
100
AcDbPolyline
 90
        2
 70
     0
 43
0.0
 10
45.14634957629999
 20
-133.4081776905998
 10
38.63726303231727
 20
-133.3832058316539
  0
LWPOLYLINE
  5
DF0
330
1E
100
AcDbEntity
  8
1
100
AcDbPolyline
 90
        3
 70
     0
 43
0.0
 10
45.14634957630001
 20
133.4142327604
 10
40.69383596495422
 20
133.479764135265
 10
36.53374478740001
 20
133.4999999999999
  0
LWPOLYLINE
  5
DF5
330
1E
100
AcDbEntity
  8
1
100
AcDbPolyline
 90
        2
 70
     0
 43
0.0
 10
61.01446626520002
 20
124.6540775411999
 10
47.69156522981012
 20
132.678982442644
  0
LWPOLYLINE
  5
DF9
330
1E
100
AcDbEntity
  8
1
100
AcDbPolyline
 90
        2
 70
     0
 43
0.0
 10
47.69155665499999
 20
-32.06229082710001
 10
56.44998864633461
 20
-32.54239342494368
  0
LWPOLYLINE
  5
DFD
330
1E
100
AcDbEntity
  8
1
100
AcDbPolyline
 90
        2
 70
     0
 43
0.0
 10
42.53907155709995
 20
-31.0307137058001
 10
45.14633985914668
 20
-31.6648615216475
  0
LWPOLYLINE
  5
E01
330
1E
100
AcDbEntity
  8
1
100
AcDbPolyline
 90
        2
 70
     0
 43
0.0
 10
56.8090889913
 20
-26.44146867490011
 10
60.91718404356
 20
-23.950944077609
  0
LWPOLYLINE
  5
E05
330
1E
100
AcDbEntity
  8
1
100
AcDbPolyline
 90
        2
 70
     0
 43
0.0
 10
56.11006041
 20
-26.6452218543
 10
56.80907939088641
 20
-26.44147147348161
  0
LWPOLYLINE
  5
E09
330
1E
100
AcDbEntity
  8
1
100
AcDbPolyline
 90
        2
 70
     0
 43
0.0
 10
55.1554096658
 20
-0.3107832987000798
 10
50.02698718281759
 20
0.4176302698764479
  0
LWPOLYLINE
  5
E0D
330
1E
100
AcDbEntity
  8
1
100
AcDbPolyline
 90
        2
 70
     0
 43
0.0
 10
50.026977282
 20
0.4176316747999579
 10
49.970665822639
 20
0.3690100081325438
  0
LWPOLYLINE
  5
E11
330
1E
100
AcDbEntity
  8
1
100
AcDbPolyline
 90
        3
 70
     0
 43
0.0
 10
60.9171925899
 20
-23.9509388853
 10
60.9702498420949
 20
-23.94095175733049
 10
61.0144564634871
 20
-23.9322059357207
  0
LWPOLYLINE
  5
E16
330
1E
100
AcDbEntity
  8
1
100
AcDbPolyline
 90
      118
 70
     0
 43
0.0
 10
61.79999999999998
 20
-42.5654731934001
 10
61.79984676854579
 20
-42.59299196850661
 10
61.7994149148744
 20
-42.61898256262401
 10
61.79869584880908
 20
-42.64496923773889
 10
61.79774943985821
 20
-42.6694197166597
 10
61.79653464858461
 20
-42.6938590666215
 10
61.79504470368748
 20
-42.71828357491879
 10
61.79339196336838
 20
-42.74116477055851
 10
61.79148585809149
 20
-42.7640265994714
 10
61.7893206772667
 20
-42.7868659027965
 10
61.78705993311499
 20
-42.80815861971749
 10
61.78456110893549
 20
-42.82942428306639
 10
61.7818179030361
 20
-42.85065906433451
 10
61.7790463107894
 20
-42.87034607698779
 10
61.77605352256279
 20
-42.890000095294
 10
61.772834492869
 20
-42.90961805393489
 10
61.7693841762207
 20
-42.92919688759218
 10
61.76598962084987
 20
-42.94723227986978
 10
61.76238960253149
 20
-42.965229108346
 10
61.75857925654788
 20
-42.98318347171771
 10
61.75455341692599
 20
-43.00109096776351
 10
61.75066934608111
 20
-43.01746124005901
 10
61.7465958796615
 20
-43.03378503904601
 10
61.74232903803019
 20
-43.05005897302438
 10
61.73786484155019
 20
-43.0662796502945
 10
61.73319931058449
 20
-43.08244367915628
 10
61.72877985829821
 20
-43.0970862391167
 10
61.72418772430378
 20
-43.11167659499171
 10
61.71941967287168
 20
-43.1262113698338
 10
61.71447223855397
 20
-43.1406864121046
 10
61.70934194632719
 20
-43.155097537978
 10
61.70402532116789
 20
-43.1694405636282
 10
61.69907817176039
 20
-43.18228760309049
 10
61.69397474461649
 20
-43.19507304246378
 10
61.68871250644428
 20
-43.20779383173911
 10
61.6832889239516
 20
-43.2204469209073
 10
61.67770146384639
 20
-43.2330292599594
 10
61.67194760542971
 20
-43.24553767798811
 10
61.66602493053648
 20
-43.25796801972621
 10
61.6599310709406
 20
-43.27031565047451
 10
61.65366365875089
 20
-43.28257593232049
 10
61.64794501298437
 20
-43.29339688133488
 10
61.64208570527029
 20
-43.30414189205499
 10
61.63608407256267
 20
-43.31480770712659
 10
61.62993845181599
 20
-43.3253910691956
 10
61.62364717998428
 20
-43.3358887209077
 10
61.61720859402191
 20
-43.3462974049087
 10
61.6106211122921
 20
-43.3566137534946
 10
61.60388367031599
 20
-43.36683369795479
 10
61.5969954060286
 20
-43.37695289520661
 10
61.5899554578356
 20
-43.38696700152961
 10
61.58276296414259
 20
-43.3968716732033
 10
61.57541706335528
 20
-43.40666256650711
 10
61.56791689387929
 20
-43.41633533772078
 10
61.56026159412021
 20
-43.42588564312372
 10
61.55245030248391
 20
-43.43530913899551
 10
61.54448218104699
 20
-43.4446014745201
 10
61.53635710788309
 20
-43.45375808425671
 10
61.52807578774162
 20
-43.46277415496309
 10
61.51963897132269
 20
-43.47164485962291
 10
61.5110474093267
 20
-43.48036537121998
 10
61.50230185245389
 20
-43.48893086273778
 10
61.49340305140459
 20
-43.4973365071601
 10
61.485491482523
 20
-43.5045565267833
 10
61.47746366373429
 20
-43.51164723406571
 10
61.4693201300825
 20
-43.5186054061155
 10
61.46106208528639
 20
-43.52542804544319
 10
61.4526913648195
 20
-43.53211236751678
 10
61.44420982889768
 20
-43.53865559614429
 10
61.43561933773668
 20
-43.5450549551341
 10
61.4269217515525
 20
-43.55130766829431
 10
61.41938284886037
 20
-43.55654831420618
 10
61.4117678022475
 20
-43.5616774324013
 10
61.40407778316149
 20
-43.56669327460749
 10
61.39631396305048
 20
-43.5715940925523
 10
61.38847754785879
 20
-43.57637817734511
 10
61.3805701405759
 20
-43.5810442733686
 10
61.37259359847321
 20
-43.58559141529791
 10
61.36454978297649
 20
-43.59001864255101
 10
61.35644055551178
 20
-43.5943249945459
 10
61.34826777750509
 20
-43.59850951070059
 10
61.34003331038209
 20
-43.6025712304331
 10
61.3317390155688
 20
-43.60650919316127
 10
61.32338675449119
 20
-43.61032243830329
 10
61.3149783885751
 20
-43.61401000527711
 10
61.30651577951478
 20
-43.61757093454921
 10
61.29800085952999
 20
-43.62100454217628
 10
61.28943572548321
 20
-43.6243107875851
 10
61.28082249769018
 20
-43.62748972184861
 10
61.27216329646638
 20
-43.63054139603949
 10
61.2634602421274
 20
-43.63346586123109
 10
61.25471545498861
 20
-43.6362631684961
 10
61.24593105536579
 20
-43.63893336890749
 10
61.23710916357438
 20
-43.64147651353841
 10
61.22825189992999
 20
-43.64389265346161
 10
61.21936138474818
 20
-43.64618183975021
 10
61.2104397188844
 20
-43.6483441738185
 10
61.20148881042259
 20
-43.65038025576299
 10
61.19251045731568
 20
-43.65229097057889
 10
61.18350645622657
 20
-43.6540772065992
 10
61.17447860381779
 20
-43.6557398521568
 10
61.16542869675221
 20
-43.6572797955847
 10
61.1563585316925
 20
-43.65869792521579
 10
61.14726990530139
 20
-43.65999512938301
 10
61.13816461424169
 20
-43.66117229641921
 10
61.129044455176
 20
-43.66223031465747
 10
61.11991122476709
 20
-43.66317007243071
 10
61.11076669134568
 20
-43.66399251561641
 10
61.10161247843818
 20
-43.66469888419898
 10
61.09245016343098
 20
-43.66529051187728
 10
61.08328132369049
 20
-43.66576873239021
 10
61.07410753658339
 20
-43.66613487947651
 10
61.06493037947609
 20
-43.66639028687489
 10
61.05422154125089
 20
-43.66655007885969
 10
61.04351276785187
 20
-43.66656307511949
 10
61.0328065640786
 20
-43.66643139358211
 10
61.02210543473059
 20
-43.66615715217551
 10
61.0144762565697
 20
-43.6658755725081
  0
LWPOLYLINE
  5
E8E
330
1E
100
AcDbEntity
  8
1
100
AcDbPolyline
 90
       12
 70
     0
 43
0.0
 10
55.84306238039999
 20
-27.01975637190001
 10
55.8427735403138
 20
-27.01697629669039
 10
55.84251304933121
 20
-27.01419283381721
 10
55.8422783914478
 20
-27.0113761032764
 10
55.8420724032196
 20
-27.00855677816489
 10
55.84189318045989
 20
-27.00570494571739
 10
55.8417429383698
 20
-27.0028513580654
 10
55.8416203844289
 20
-26.99996608874169
 10
55.841527112215
 20
-26.9970799510693
 10
55.8414624405102
 20
-26.9941630245564
 10
55.8414273412088
 20
-26.9912461652692
 10
55.84142035500288
 20
-26.9894333754026
  0
LWPOLYLINE
  5
E9C
330
1E
100
AcDbEntity
  8
1
100
AcDbPolyline
 90
      158
 70
     0
 43
0.0
 10
36.71645901299999
 20
-34.7488786970001
 10
36.65780973693038
 20
-34.69641659751002
 10
36.60002406615419
 20
-34.64298509452331
 10
36.54880356605997
 20
-34.59405143031581
 10
36.49837237722728
 20
-34.5443018781515
 10
36.4487730322226
 20
-34.49372190960289
 10
36.40004874550328
 20
-34.4422968748525
 10
36.35751461859678
 20
-34.39586324123899
 10
36.31575343021611
 20
-34.3487370035592
 10
36.2748058393281
 20
-34.3009060377399
 10
36.23967606484239
 20
-34.25846631421451
 10
36.20522756879
 20
-34.21546962853209
 10
36.17148942335878
 20
-34.17190832422599
 10
36.13849835835929
 20
-34.1277766895127
 10
36.11084427439028
 20
-34.08949169267261
 10
36.08379190791771
 20
-34.05078057671021
 10
36.05736564759428
 20
-34.01164006430411
 10
36.03158988207309
 20
-33.9720668781329
 10
36.00648986970889
 20
-33.93205821103561
 10
35.98611109948179
 20
-33.89838485417011
 10
35.96624104182009
 20
-33.8644094426597
 10
35.94689817287789
 20
-33.83013243819011
 10
35.92810096880898
 20
-33.79555430244691
 10
35.9098679057676
 20
-33.76067549711569
 10
35.89221746902278
 20
-33.72549649428629
 10
35.87516933715948
 20
-33.6900191281036
 10
35.85874555664288
 20
-33.65424793542
 10
35.84296845314388
 20
-33.61818777177431
 10
35.83082738064828
 20
-33.58913484468711
 10
35.81912590061669
 20
-33.55990256976491
 10
35.80787544379278
 20
-33.53049343304348
 10
35.79708745432679
 20
-33.50090996984571
 10
35.78677377799729
 20
-33.4711561919852
 10
35.77694672208289
 20
-33.4412378078696
 10
35.7676186193156
 20
-33.4111606194801
 10
35.75880180242729
 20
-33.38093042879822
 10
35.75050860414999
 20
-33.35055303780539
 10
35.7427513572159
 20
-33.3200342484829
 10
35.73554237217879
 20
-33.2893799475627
 10
35.72889346460738
 20
-33.25859791330151
 10
35.72281596333528
 20
-33.22769778395251
 10
35.71732117666847
 20
-33.1966892762129
 10
35.71242041291289
 20
-33.1655821067801
 10
35.70812498037471
 20
-33.13438599235111
 10
35.70444618694089
 20
-33.10311065005588
 10
35.7020982270719
 20
-33.07960834316491
 10
35.70010664348578
 20
-33.05607270331111
 10
35.69847476530389
 20
-33.03250931861981
 10
35.69720592164719
 20
-33.00892377721651
 10
35.69630344163709
 20
-32.98532166722671
 10
35.69577065439459
 20
-32.96170857677589
 10
35.6956108890409
 20
-32.9380900939895
 10
35.6958274746795
 20
-32.91447180699961
 10
35.69642330755359
 20
-32.8908594640503
 10
35.69739972842928
 20
-32.8672593887473
 10
35.69875772880418
 20
-32.84367803388819
 10
35.7004983001759
 20
-32.8201218522707
 10
35.70262243404197
 20
-32.79659729669239
 10
35.70513112190027
 20
-32.77311081995101
 10
35.70802535524828
 20
-32.7496688748441
 10
35.71130612416569
 20
-32.72627791407721
 10
35.71497373994529
 20
-32.70294434624111
 10
35.71902674927859
 20
-32.6796744652438
 10
35.7234634157941
 20
-32.6564745465968
 10
35.72828200312008
 20
-32.63335086581161
 10
35.73348077488496
 20
-32.61030969839981
 10
35.7390579947171
 20
-32.587357319873
 10
35.74501192624488
 20
-32.5645000057427
 10
35.75134081872628
 20
-32.54174402420899
 10
35.75804205095489
 20
-32.51909520059291
 10
35.76511164774419
 20
-32.49655867133091
 10
35.77254551687828
 20
-32.47413951331671
 10
35.78033956614139
 20
-32.45184280344378
 10
35.79128483906028
 20
-32.42231310671119
 10
35.80285345709071
 20
-32.39302215527031
 10
35.81503569536919
 20
-32.36398195286779
 10
35.82782051216428
 20
-32.3352028902613
 10
35.84119491722919
 20
-32.3066929715363
 10
35.8551457630805
 20
-32.27846000818471
 10
35.86965990223478
 20
-32.25051181169811
 10
35.88472418720899
 20
-32.22285619356819
 10
35.90032546895328
 20
-32.1955009579492
 10
35.91645032297659
 20
-32.16845261863289
 10
35.93308473595578
 20
-32.1417149309074
 10
35.9502146187336
 20
-32.1152912948004
 10
35.96782588215289
 20
-32.08918511033948
 10
35.98590443705647
 20
-32.06339977755249
 10
36.00443619428697
 20
-32.03793869646711
 10
36.02340711935507
 20
-32.01280509876031
 10
36.0477180300846
 20
-31.9818502985991
 10
36.07266897480968
 20
-31.9514087774116
 10
36.09823469874088
 20
-31.92148020662861
 10
36.12438994708877
 20
-31.8920642576807
 10
36.15110946506388
 20
-31.8631606019987
 10
36.1783684394976
 20
-31.8347684915053
 10
36.20614497408118
 20
-31.8068844073187
 10
36.23441835542929
 20
-31.7795037068662
 10
36.26316787353378
 20
-31.7526217443663
 10
36.29237281838709
 20
-31.7262338740376
 10
36.32799075582828
 20
-31.69521409004889
 10
36.36419962779889
 20
-31.66489081563319
 10
36.400969952903
 20
-31.6352537290019
 10
36.43827482372259
 20
-31.60629157197819
 10
36.47608734667135
 20
-31.57799308135381
 10
36.51438062816288
 20
-31.5503469939201
 10
36.55312777461071
 20
-31.52334204646889
 10
36.592302946149
 20
-31.49696694129449
 10
36.63188559272647
 20
-31.47121020751189
 10
36.67185682068319
 20
-31.4460603200082
 10
36.71219773693259
 20
-31.42150575365198
 10
36.75288944838789
 20
-31.3975349833118
 10
36.79391306196239
 20
-31.3741364838561
 10
36.84216836817888
 20
-31.3475461773494
 10
36.89082436431038
 20
-31.321701850055
 10
36.93986064957679
 20
-31.2965873541813
 10
36.98925711054059
 20
-31.2721866063947
 10
37.0389936337646
 20
-31.2484835233619
 10
37.08905010581107
 20
-31.22546202174939
 10
37.13940641324299
 20
-31.2031060182238
 10
37.19004361395339
 20
-31.1813999504881
 10
37.24824055569039
 20
-31.157371651699
 10
37.30676656171878
 20
-31.1341554532721
 10
37.3656023124561
 20
-31.1117321088197
 10
37.42472848831979
 20
-31.090082371954
 10
37.48412576972749
 20
-31.0691869962874
 10
37.5437748833311
 20
-31.0490267661203
 10
37.61116069620207
 20
-31.02720365932431
 10
37.6788265239455
 20
-31.0062680027624
 10
37.74675509208988
 20
-30.986199185264
 10
37.81492912616388
 20
-30.96697659565847
 10
37.88333135169639
 20
-30.9485796227754
 10
37.95958044590818
 20
-30.9290817887896
 10
38.03606709086848
 20
-30.9105502614803
 10
38.11277408891871
 20
-30.89296243318589
 10
38.18968652803977
 20
-30.87629768893199
 10
38.26678950269418
 20
-30.8605354193949
 10
38.35180505359597
 20
-30.8442146839745
 10
38.43701327752209
 20
-30.8289335746705
 10
38.52239475089729
 20
-30.814665132405
 10
38.60793406510309
 20
-30.8013869562151
 10
38.69361806001379
 20
-30.78907919781439
 10
38.78724108192388
 20
-30.7767360199014
 10
38.88100360030878
 20
-30.7654983996465
 10
38.97488856185311
 20
-30.7553406050263
 10
39.06887975726847
 20
-30.74623804829089
 10
39.17080880327517
 20
-30.7375448862875
 10
39.2728328196036
 20
-30.73004350140648
 10
39.37493693423559
 20
-30.7237104098589
 10
39.47710627515277
 20
-30.7185221278553
 10
39.57932606903509
 20
-30.71445539774289
 10
39.68945026021089
 20
-30.71130770171659
 10
39.79960280928978
 20
-30.7094171588154
 10
39.90976889496889
 20
-30.7087630383346
 10
40.01993369594518
 20
-30.7093246095693
 10
40.13794919495988
 20
-30.71125186708719
 10
40.25593003695997
 20
-30.7145288652001
 10
40.3738626179972
 20
-30.7191378962263
 10
40.41315044529599
 20
-30.7209667556887
  0
LWPOLYLINE
  5
F3C
330
1E
100
AcDbEntity
  8
1
100
AcDbPolyline
 90
       25
 70
     0
 43
0.0
 10
35.28026553589997
 20
-133.4981367563
 10
33.92517368451528
 20
-133.48905083201
 10
33.53688965245428
 20
-133.4823459032049
 10
33.37481300219399
 20
-133.477843215332
 10
33.31898056219188
 20
-133.475836213312
 10
33.26340342235008
 20
-133.473433085972
 10
33.24605111340658
 20
-133.4725405064249
 10
33.23066760537578
 20
-133.471676760827
 10
33.20174547501798
 20
-133.4698352211939
 10
33.19298447386177
 20
-133.469203798978
 10
33.18652977105186
 20
-133.4687098563139
 10
33.18020601113538
 20
-133.468198292119
 10
33.17404151992917
 20
-133.4676689656459
 10
33.17003432979979
 20
-133.4673061438929
 10
33.16611874196258
 20
-133.466935286648
 10
33.15843941346656
 20
-133.46613449172
 10
33.15452780399867
 20
-133.465667857101
 10
33.15046524913629
 20
-133.4651316207449
 10
33.14617451244329
 20
-133.4645066999258
 10
33.14157835748378
 20
-133.463774011916
 10
33.13659954782188
 20
-133.4629144739909
 10
33.1312317881981
 20
-133.4618778075169
 10
33.12694414012247
 20
-133.4599649556299
 10
33.12671116729998
 20
-133.4562524048999
 10
33.12670309732009
 20
-133.4562583025297
  0
LWPOLYLINE
  5
F57
330
1E
100
AcDbEntity
  8
1
100
AcDbPolyline
 90
      166
 70
     0
 43
0.0
 10
35.2802655359
 20
-12.5571645041001
 10
35.1838901267943
 20
-12.50222003763568
 10
35.0969365414741
 20
-12.4511069455668
 10
35.01065254391019
 20
-12.3988606008924
 10
34.9250774375004
 20
-12.3454567288343
 10
34.84025052564251
 20
-12.29087105461418
 10
34.756211818566
 20
-12.2350788066293
 10
34.6730098128886
 20
-12.1780492482886
 10
34.59888810030351
 20
-12.1256360869963
 10
34.5255274520246
 20
-12.0721672856533
 10
34.4529673812512
 20
-12.0176175138534
 10
34.3812479398904
 20
-11.96196130019399
 10
34.3104197163542
 20
-11.9051704155488
 10
34.24825812387339
 20
-11.8537122168899
 10
34.18689077718489
 20
-11.8013115432293
 10
34.12636019431779
 20
-11.7479467393327
 10
34.066709243253
 20
-11.69359609675389
 10
34.0079899604233
 20
-11.6382365129383
 10
33.9502642195105
 20
-11.5818433895289
 10
33.90061823242199
 20
-11.53163218567667
 10
33.8518224431236
 20
-11.4805942603478
 10
33.80391902744639
 20
-11.42871310122369
 10
33.75695906565059
 20
-11.3759725501459
 10
33.7175039051484
 20
-11.330070372137
 10
33.6788237314784
 20
-11.28351524033109
 10
33.64095643973779
 20
-11.2362972071478
 10
33.60393994190081
 20
-11.18840632957567
 10
33.5737726712766
 20
-11.1479768027879
 10
33.5442548019217
 20
-11.1070701536918
 10
33.51541667407138
 20
-11.0656829023975
 10
33.4872886279611
 20
-11.023811569015
 10
33.45990100382589
 20
-10.98145267365449
 10
33.43328416869059
 20
-10.9386027528305
 10
33.40747139551989
 20
-10.8952601225073
 10
33.3874261089693
 20
-10.8602323695495
 10
33.367940365863
 20
-10.8248913921705
 10
33.34903431339188
 20
-10.7892382334273
 10
33.3307280987472
 20
-10.75327393637659
 10
33.3130418691195
 20
-10.71699954407516
 10
33.2959963552305
 20
-10.68041687517679
 10
33.27961479356558
 20
-10.6435310788588
 10
33.26392109307128
 20
-10.6063481980967
 10
33.2489391627021
 20
-10.5688742758769
 10
33.2346929114125
 20
-10.5311153551859
 10
33.22120624827489
 20
-10.4930774796626
 10
33.20850334714069
 20
-10.45476816116869
 10
33.1995055465045
 20
-10.4258652700083
 10
33.1909732913879
 20
-10.3968219844031
 10
33.18291719759269
 20
-10.36764378826189
 10
33.1753478809212
 20
-10.33833616549399
 10
33.16827595717539
 20
-10.3089046000083
 10
33.16171203422169
 20
-10.27935459820668
 10
33.1556662795574
 20
-10.2496929146838
 10
33.15014819791587
 20
-10.2199281825878
 10
33.14516723927229
 20
-10.1900691902743
 10
33.14073285360199
 20
-10.1601247260989
 10
33.13685449088011
 20
-10.1301035784171
 10
33.133541601082
 20
-10.10001453558468
 10
33.1308034021735
 20
-10.06986659845866
 10
33.1286471436385
 20
-10.03967057086349
 10
33.1270790825645
 20
-10.0094381655772
 10
33.126105468448
 20
-9.979181102330004
 10
33.1257325507858
 20
-9.948911100852471
 10
33.1259665790746
 20
-9.918639880875007
 10
33.1268137348582
 20
-9.888379182456786
 10
33.1282780437681
 20
-9.858141390619804
 10
33.1303609833253
 20
-9.827939652678994
 10
33.1330638839703
 20
-9.797787159949825
 10
33.1363880761436
 20
-9.767697103747751
 10
33.1403348902859
 20
-9.737682675388244
 10
33.1449056354747
 20
-9.707757063674273
 10
33.15009977439149
 20
-9.677933240255415
 10
33.15591352494269
 20
-9.648223795165414
 10
33.1623427758125
 20
-9.618641279718474
 10
33.1693834156853
 20
-9.589198245228791
 10
33.17703133324569
 20
-9.559907243010556
 10
33.18528241068189
 20
-9.530780820806644
 10
33.1941312173115
 20
-9.501830804579636
 10
33.20356942421788
 20
-9.473067426922616
 10
33.21358831508749
 20
-9.444500707448382
 10
33.2241791736064
 20
-9.416140665769706
 10
33.23533328346111
 20
-9.387997321499366
 10
33.2470419283376
 20
-9.360080694250164
 10
33.2592959574724
 20
-9.332400222324212
 10
33.27208438253381
 20
-9.304962885286872
 10
33.28539572944039
 20
-9.277775012751812
 10
33.2992185241079
 20
-9.250842934328773
 10
33.313541292452
 20
-9.224172979627462
 10
33.3283525603883
 20
-9.197771478257591
 10
33.34364084359271
 20
-9.171644693782305
 10
33.3593943893342
 20
-9.145797158547175
 10
33.38110204501911
 20
-9.111772772489873
 10
33.403586853512
 20
-9.078255706429343
 10
33.42682024007329
 20
-9.045252082847923
 10
33.4507736299633
 20
-9.012768024227911
 10
33.4754188047785
 20
-8.980808710076232
 10
33.5007292711943
 20
-8.949374754808243
 10
33.52667905720839
 20
-8.918465393259172
 10
33.55324219092938
 20
-8.888079859970734
 10
33.5803927004659
 20
-8.858217389484599
 10
33.6081046381361
 20
-8.828877194953243
 10
33.64349746159319
 20
-8.792932621376222
 10
33.6796878901406
 20
-8.757791092573071
 10
33.7166345781796
 20
-8.723442825515324
 10
33.75429618011139
 20
-8.689878037174512
 10
33.7926313666234
 20
-8.657086939083994
 10
33.8316018576755
 20
-8.625058724566612
 10
33.87117598840129
 20
-8.593780378012281
 10
33.91132296055729
 20
-8.563238594428812
 10
33.95201197590031
 20
-8.533420068823994
 10
33.993212236187
 20
-8.504311496205664
 10
34.034893141477
 20
-8.475899570762383
 10
34.0770286027779
 20
-8.448170968046932
 10
34.11959701442949
 20
-8.421112345090383
 10
34.1625769635515
 20
-8.394710358127372
 10
34.2059470372634
 20
-8.368951663392547
 10
34.2584759408411
 20
-8.338871587430361
 10
34.3114988694993
 20
-8.309675599032361
 10
34.3649835947825
 20
-8.281341797500154
 10
34.4189050419744
 20
-8.253850016730021
 10
34.4732387381671
 20
-8.227180236541084
 10
34.52796021045259
 20
-8.201312436752433
 10
34.58304498592311
 20
-8.176226597183202
 10
34.63846862194011
 20
-8.151902711700737
 10
34.6942095510634
 20
-8.128322108574494
 10
34.7596198660885
 20
-8.101729161148304
 10
34.82541466530761
 20
-8.076100365716424
 10
34.891568834324
 20
-8.051410311376711
 10
34.95805725874108
 20
-8.027633587227002
 10
35.02485487636511
 20
-8.004744817638702
 10
35.09193991932269
 20
-7.982720852956043
 10
35.1592958214186
 20
-7.961542058297792
 10
35.23658499695161
 20
-7.938347833699673
 10
35.3141828657764
 20
-7.916203417553043
 10
35.39206538420788
 20
-7.895079963409592
 10
35.4702086003265
 20
-7.874948706311112
 10
35.5485921346707
 20
-7.855784053745002
 10
35.6272002514747
 20
-7.837564536933204
 10
35.715883623014
 20
-7.818170925433945
 10
35.8048097465819
 20
-7.799916504012324
 10
35.8939566594538
 20
-7.782771097594674
 10
35.9833025823611
 20
-7.766704735332004
 10
36.07282955153049
 20
-7.751691693805852
 10
36.1724988402053
 20
-7.736219512004245
 10
36.27235440945279
 20
-7.721991353972492
 10
36.37237675443529
 20
-7.708977652158912
 10
36.4725463703151
 20
-7.697148839011802
 10
36.5728441580384
 20
-7.686475936298602
 10
36.67325478230561
 20
-7.676935431878334
 10
36.7838209290521
 20
-7.667724273863762
 10
36.8944898536807
 20
-7.659831143768972
 10
37.0052438881466
 20
-7.653228730934634
 10
37.1160653644052
 20
-7.647889724701433
 10
37.22693720526299
 20
-7.643787747540772
 10
37.3479301986082
 20
-7.640699833692353
 10
37.4689520539364
 20
-7.639036482556995
 10
37.58998749752338
 20
-7.638774341537012
 10
37.71102125564521
 20
-7.639890058034713
 10
37.83203805457739
 20
-7.642360279452392
 10
37.95302261388611
 20
-7.646162723896722
 10
38.0840350722637
 20
-7.651766512072664
 10
38.2149722257561
 20
-7.658896421181303
 10
38.3458145831319
 20
-7.667534255418735
 10
38.4765426531594
 20
-7.677661818981055
 10
38.6071369446069
 20
-7.689260916064353
 10
38.6372430791639
 20
-7.692143718532951
  0
LWPOLYLINE
  5
FFF
330
1E
100
AcDbEntity
  8
1
100
AcDbPolyline
 90
        3
 70
     0
 43
0.0
 10
45.1463495763
 20
-18.0116214659001
 10
36.12603108459
 20
-13.0311423384037
 10
35.280274256718
 20
-12.55716939770139
  0
LWPOLYLINE
  5
1004
330
1E
100
AcDbEntity
  8
1
100
AcDbPolyline
 90
        2
 70
     0
 43
0.0
 10
61.01446626520001
 20
-20.5562805843
 10
47.69156657689179
 20
-18.9034682661228
  0
LWPOLYLINE
  5
1008
330
1E
100
AcDbEntity
  8
1
100
AcDbPolyline
 90
       50
 70
     0
 43
0.0
 10
45.2575243654
 20
-8.633979344900076
 10
45.2336793392005
 20
-8.630456615047473
 10
45.2148706648011
 20
-8.627480369832971
 10
45.19850839034959
 20
-8.624718884910103
 10
45.18354765220279
 20
-8.622032768170972
 10
45.17105042593929
 20
-8.619654773015966
 10
45.16338936719499
 20
-8.618112101371954
 10
45.1575341224886
 20
-8.616870123476905
 10
45.1524286052639
 20
-8.615732597426733
 10
45.1479209395705
 20
-8.614679629530844
 10
45.1437118664799
 20
-8.613650851632682
 10
45.1392132662485
 20
-8.612500387888465
 10
45.1344479380691
 20
-8.611221773400773
 10
45.1306165640213
 20
-8.610146398656922
 10
45.12755742348479
 20
-8.609255469281311
 10
45.1249656195833
 20
-8.608476419710175
 10
45.12325272683889
 20
-8.607940973710164
 10
45.12211548239938
 20
-8.607568463697674
 10
45.1211224442513
 20
-8.607228068349643
 10
45.1202722009321
 20
-8.606923113469205
 10
45.11956396487929
 20
-8.606658202481696
 10
45.11885571286939
 20
-8.606382291295682
 10
45.118147174221
 20
-8.606094256361874
 10
45.1175799550246
 20
-8.605854344291262
 10
45.1170122405547
 20
-8.605605378693244
 10
45.11644389222221
 20
-8.605346784310562
 10
45.11587477143851
 20
-8.605077985885973
 10
45.11530473961449
 20
-8.604798408162233
 10
45.1147336581615
 20
-8.604507475882082
 10
45.11416138849059
 20
-8.604204613788281
 10
45.1137313230995
 20
-8.603969292224523
 10
45.1133004529124
 20
-8.603726693871733
 10
45.11286874540959
 20
-8.603476569483932
 10
45.1124379819766
 20
-8.603218211274924
 10
45.11201291425489
 20
-8.602950160602253
 10
45.1115985688852
 20
-8.602670889305892
 10
45.1113307777929
 20
-8.602477720114915
 10
45.111071475628
 20
-8.602278432009674
 10
45.11082215176578
 20
-8.602072572202045
 10
45.11058429558111
 20
-8.601859687903866
 10
45.1103593964492
 20
-8.601639326326973
 10
45.11014894374509
 20
-8.601411034683232
 10
45.10995442684378
 20
-8.601174360184474
 10
45.1097773351204
 20
-8.600928850042553
 10
45.1096191579501
 20
-8.600674051469301
 10
45.10948138470778
 20
-8.600409511676584
 10
45.10936550476858
 20
-8.600134777876233
 10
45.1092730075077
 20
-8.599849397280102
 10
45.10920538229999
 20
-8.599552917100034
 10
45.1092071772649
 20
-8.599562751102125
  0
LWPOLYLINE
  5
103C
330
1E
100
AcDbEntity
  8
1
100
AcDbPolyline
 90
        2
 70
     0
 43
0.0
 10
45.1463495763
 20
-8.323976382300031
 10
38.6372629856356
 20
-7.692145650471432
  0
LWPOLYLINE
  5
1040
330
1E
100
AcDbEntity
  8
1
100
AcDbPolyline
 90
        5
 70
     0
 43
0.0
 10
45.1463495763
 20
-8.323976382300031
 10
45.7917762144322
 20
-8.389916656621712
 10
46.40895367605039
 20
-8.459256370942544
 10
46.972194680811
 20
-8.528301130172753
 10
46.9831854943811
 20
-8.529707256835136
  0
LWPOLYLINE
  5
1047
330
1E
100
AcDbEntity
  8
1
100
AcDbPolyline
 90
        2
 70
     0
 43
0.0
 10
36.53373478739998
 20
-133.4999999999999
 10
35.28027553585568
 20
-133.498136786079
  0
LWPOLYLINE
  5
104B
330
1E
100
AcDbEntity
  8
1
100
AcDbPolyline
 90
       35
 70
     0
 43
0.0
 10
47.691556655
 20
-18.90346701869998
 10
47.6404705589742
 20
-18.8967584595236
 10
47.58945656347377
 20
-18.88949594362511
 10
47.535840434607
 20
-18.88126748343428
 10
47.48231437737579
 20
-18.8724557396514
 10
47.4262146701427
 20
-18.86259277451669
 10
47.37022606666768
 20
-18.8521221101895
 10
47.31169606155829
 20
-18.84051961546161
 10
47.2506452955166
 20
-18.827714428433
 10
47.18974023357399
 20
-18.81423678047361
 10
47.1263456590515
 20
-18.79947578813281
 10
47.0631162948998
 20
-18.7840228943785
 10
46.9974315981378
 20
-18.7672122954156
 10
46.9293166463585
 20
-18.7489775933185
 10
46.86140546541358
 20
-18.72999637200281
 10
46.7911009960573
 20
-18.7095165379048
 10
46.71843130755749
 20
-18.687474888641
 10
46.64342604838799
 20
-18.6638100538027
 10
46.5686877762379
 20
-18.63931838936061
 10
46.4916552302166
 20
-18.61313486095861
 10
46.41235928817549
 20
-18.58519809113388
 10
46.3308322084872
 20
-18.555448788351
 10
46.2471075413145
 20
-18.52382934332561
 10
46.1612195057647
 20
-18.4902799213888
 10
46.07320335693329
 20
-18.45474106533201
 10
45.98309564897991
 20
-18.41715562084339
 10
45.890934225521
 20
-18.37746890217649
 10
45.7967575314187
 20
-18.33562494815881
 10
45.7006045134862
 20
-18.2915661826656
 10
45.6025152304695
 20
-18.24523717406929
 10
45.5025309237512
 20
-18.19658499872811
 10
45.40069518709509
 20
-18.14555656497211
 10
45.2970544438317
 20
-18.092097724317
 10
45.1916567869161
 20
-18.0361565962643
 10
45.1463583578134
 20
-18.01162624972937
  0
LWPOLYLINE
  5
1070
330
1E
100
AcDbEntity
  8
1
100
AcDbPolyline
 90
       54
 70
     0
 43
0.0
 10
47.69155665499999
 20
-43.05218403510001
 10
47.6631526290945
 20
-43.0505920498232
 10
47.63192708644459
 20
-43.04847404390961
 10
47.60072572737078
 20
-43.04597756168429
 10
47.5695530877271
 20
-43.04310859833671
 10
47.53841370336759
 20
-43.03987314905589
 10
47.50731211014628
 20
-43.03627720903119
 10
47.47625284391721
 20
-43.03232677345199
 10
47.44524044053427
 20
-43.02802783750741
 10
47.41146740429019
 20
-43.022947652233
 10
47.37775953852838
 20
-43.01746729390371
 10
47.34411954425699
 20
-43.01159395974771
 10
47.31055007997709
 20
-43.0053348391766
 10
47.27705380418969
 20
-42.9986971216024
 10
47.24085184664677
 20
-42.99108736310979
 10
47.20474228402847
 20
-42.98305085724611
 10
47.1687284963851
 20
-42.97459674471599
 10
47.13281380833667
 20
-42.96573411567877
 10
47.09425020328889
 20
-42.9557424998054
 10
47.05580701107499
 20
-42.94529669263029
 10
47.01748672565939
 20
-42.93440653527889
 10
46.97929184100686
 20
-42.9230818688764
 10
46.93851074019788
 20
-42.91047730634891
 10
46.89787952478338
 20
-42.89739734652971
 10
46.85740126125309
 20
-42.883854092471
 10
46.814395908839
 20
-42.86891028487922
 10
46.77156907338618
 20
-42.85346474759978
 10
46.72626264294597
 20
-42.83651752556971
 10
46.68116082355979
 20
-42.8190318085315
 10
46.63626520299689
 20
-42.80102197476161
 10
46.58895517770718
 20
-42.78139744901761
 10
46.54187998240138
 20
-42.76121850801138
 10
46.49244564881008
 20
-42.7393345275859
 10
46.44327456236009
 20
-42.71686652809299
 10
46.3917999655606
 20
-42.6926024003345
 10
46.34061715289688
 20
-42.6677270208984
 10
46.28718928701498
 20
-42.64097013518411
 10
46.23156239404148
 20
-42.6122612494954
 10
46.17628849716768
 20
-42.58288202339801
 10
46.11887810560749
 20
-42.551472205139
 10
46.05937929078718
 20
-42.5179620081391
 10
46.00029467017718
 20
-42.48372551231748
 10
45.93918626906988
 20
-42.44731648727021
 10
45.87610510192257
 20
-42.40867284537971
 10
45.81110324930349
 20
-42.36773367414321
 10
45.74423289476399
 20
-42.32443552067151
 10
45.67554700721959
 20
-42.2787167546939
 10
45.6050994065725
 20
-42.2305189560109
 10
45.53294465415709
 20
-42.17978748408937
 10
45.45913815303816
 20
-42.1264710481381
 10
45.38373717789858
 20
-42.07051684399241
 10
45.30454876574869
 20
-42.0101342337061
 10
45.22392944133527
 20
-41.94695806645451
 10
45.1463573288797
 20
-41.88454963794749
  0
LWPOLYLINE
  5
10A8
330
1E
100
AcDbEntity
  8
1
100
AcDbPolyline
 90
       72
 70
     0
 43
0.0
 10
46.81061410769999
 20
-132.7931156123999
 10
46.76995334026925
 20
-132.8049688917529
 10
46.73029639779604
 20
-132.816061840284
 10
46.69051993644877
 20
-132.8267235778139
 10
46.65176958896117
 20
-132.836661954112
 10
46.61291447212358
 20
-132.8461819550659
 10
46.57510547941448
 20
-132.855015814596
 10
46.53720432176837
 20
-132.8634425465199
 10
46.50036650171728
 20
-132.871218412425
 10
46.46344757331968
 20
-132.878598321265
 10
46.42760760682757
 20
-132.885363810562
 10
46.39285626939288
 20
-132.8915439786179
 10
46.35804113691928
 20
-132.897354411933
 10
46.32432828714689
 20
-132.902611602737
 10
46.29056055376358
 20
-132.907507445391
 10
46.25790742979268
 20
-132.9118838746857
 10
46.22637704554839
 20
-132.915767497666
 10
46.19597711221286
 20
-132.9191842501265
 10
46.16671450777316
 20
-132.922161091322
 10
46.13742316158549
 20
-132.924826303335
 10
46.10927862870127
 20
-132.927082573939
 10
46.08228517476461
 20
-132.92895413055
 10
46.05644634963467
 20
-132.930465101951
 10
46.03176537607469
 20
-132.9316413853129
 10
46.00824517365817
 20
-132.932510275949
 10
45.98588876232038
 20
-132.933099514307
 10
45.96470263944159
 20
-132.933431723484
 10
45.94469392214778
 20
-132.9335285596829
 10
45.92586767107219
 20
-132.933414595912
 10
45.90822714063677
 20
-132.933116669342
 10
45.89059933998868
 20
-132.932624125659
 10
45.87416052929717
 20
-132.931978971852
 10
45.85890496229517
 20
-132.931204835252
 10
45.84482701418258
 20
-132.9303271032109
 10
45.83192288296228
 20
-132.929374408187
 10
45.81901683508426
 20
-132.9282705397289
 10
45.80728032434839
 20
-132.927128075973
 10
45.79553844659189
 20
-132.9258460320899
 10
45.78497226985309
 20
-132.924561130508
 10
45.77559643840639
 20
-132.923297757621
 10
45.76741642241947
 20
-132.922086365126
 10
45.75926826359908
 20
-132.920765538111
 10
45.75231643641521
 20
-132.9195386617689
 10
45.74540053033547
 20
-132.9182176362319
 10
45.73852632190109
 20
-132.916796116121
 10
45.73283383472948
 20
-132.915530171463
 10
45.72717728225888
 20
-132.9141860303469
 10
45.72155369630908
 20
-132.912754488246
 10
45.71707339755408
 20
-132.9115373604099
 10
45.71260526356279
 20
-132.9102488582329
 10
45.70814528642109
 20
-132.9088820877829
 10
45.70368945821468
 20
-132.907430155128
 10
45.70034789878778
 20
-132.90628117081
 10
45.69700472784627
 20
-132.9050774965379
 10
45.69365825455148
 20
-132.9038162239349
 10
45.69030678806438
 20
-132.9024944446225
 10
45.68694863754635
 20
-132.9011092502249
 10
45.68358213020871
 20
-132.899657723402
 10
45.68021721975667
 20
-132.898131174242
 10
45.67799502558336
 20
-132.89705991941
 10
45.67580589764758
 20
-132.8959364800499
 10
45.67366372395069
 20
-132.894752850263
 10
45.67158239249409
 20
-132.893501024151
 10
45.66957579127928
 20
-132.8921729958169
 10
45.66765780830777
 20
-132.8907607593619
 10
45.66584233158097
 20
-132.889256308888
 10
45.66414324910025
 20
-132.887651638496
 10
45.66257444886717
 20
-132.885938742289
 10
45.66114981888309
 20
-132.8841096143675
 10
45.65988324714939
 20
-132.8821562488359
 10
45.65878952609998
 20
-132.8800766025
 10
45.65879377914108
 20
-132.880085653187
  0
LWPOLYLINE
  5
10F2
330
1E
100
AcDbEntity
  8
1
100
AcDbPolyline
 90
        2
 70
     0
 43
0.0
 10
56.44999863159998
 20
-32.5423939676
 10
55.8430634648127
 20
-27.01976631292859
  0
LWPOLYLINE
  5
10F6
330
1E
100
AcDbEntity
  8
1
100
AcDbPolyline
 90
       97
 70
     0
 43
0.0
 10
47.97435261829998
 20
1.948748577399944
 10
47.9962423235521
 20
1.949359161490173
 10
48.0181399488584
 20
1.9497109757624
 10
48.0400421674086
 20
1.949804012352214
 10
48.0619456523921
 20
1.949638263395194
 10
48.0838470769984
 20
1.949213721026938
 10
48.1057431144171
 20
1.948530377383031
 10
48.12763043783771
 20
1.947588224599053
 10
48.1495057385235
 20
1.946387299083144
 10
48.1713658717531
 20
1.944928039006081
 10
48.193207780185
 20
1.943211096579893
 10
48.2150284072923
 20
1.941237126011303
 10
48.23682469654778
 20
1.939006781507024
 10
48.2585935914245
 20
1.936520717273774
 10
48.28033203539529
 20
1.933779587518263
 10
48.302036971933
 20
1.930784046447199
 10
48.32370534451079
 20
1.927534748267324
 10
48.3453340966014
 20
1.924032347185323
 10
48.36692018405851
 20
1.920277516894763
 10
48.38846075342409
 20
1.916271231226703
 10
48.41263611922578
 20
1.911465098171139
 10
48.4367466100747
 20
1.9063439783496
 10
48.4607883818931
 20
1.900909602645403
 10
48.4847575906034
 20
1.895163701941823
 10
48.50865039212798
 20
1.889108007122159
 10
48.5324629423891
 20
1.88274424906973
 10
48.55619139730929
 20
1.876074158667813
 10
48.57983191614049
 20
1.869099470975803
 10
48.60338084209669
 20
1.861822151768133
 10
48.62683479478478
 20
1.8542445134575
 10
48.65019041659411
 20
1.846368897028709
 10
48.6734443499137
 20
1.838197643466543
 10
48.6965932371327
 20
1.82973309375575
 10
48.7196337206404
 20
1.820977588881143
 10
48.74256244282578
 20
1.811933469827474
 10
48.7653760460781
 20
1.802603077579543
 10
48.78807117364338
 20
1.792988753680053
 10
48.8106446426681
 20
1.783092952914491
 10
48.83309365456231
 20
1.772918380297723
 10
48.8578876915493
 20
1.761289675748223
 10
48.8825209177808
 20
1.749323945796873
 10
48.9069895648477
 20
1.73702494695811
 10
48.9312898643411
 20
1.724396435746383
 10
48.9554180478518
 20
1.711442168676114
 10
48.9793703469709
 20
1.698165902261751
 10
49.0031430352081
 20
1.68457140699043
 10
49.0267328584821
 20
1.670662610815979
 10
49.0501368605634
 20
1.656443540974439
 10
49.0733520898845
 20
1.641918226255784
 10
49.0986672869041
 20
1.625591475593054
 10
49.1237465689509
 20
1.608904405784389
 10
49.1485860074889
 20
1.591862379149284
 10
49.1731816739816
 20
1.574470758007194
 10
49.19752969535128
 20
1.556734907751404
 10
49.2216267868149
 20
1.538660226381474
 10
49.24762489520549
 20
1.518562322716543
 10
49.2733170906909
 20
1.49807466338485
 10
49.2986995751243
 20
1.477204282307974
 10
49.3237685503589
 20
1.45595821340743
 10
49.34852021824778
 20
1.434343490604794
 10
49.37497207546389
 20
1.410519678497633
 10
49.4010429638466
 20
1.386280286285602
 10
49.42672940367138
 20
1.361634026364
 10
49.4520279446482
 20
1.336589606097243
 10
49.47693513648721
 20
1.311155732849704
 10
49.50144752889849
 20
1.285341113985783
 10
49.5255616715921
 20
1.259154456869873
 10
49.5492742261238
 20
1.232604419232192
 10
49.572582577571
 20
1.205699337722343
 10
49.5954843989373
 20
1.178447421215812
 10
49.6179773639646
 20
1.150856878260424
 10
49.64005914639461
 20
1.122935917403961
 10
49.6617274199693
 20
1.094692747194234
 10
49.682979858569
 20
1.06613557610029
 10
49.70381431146289
 20
1.037272512906924
 10
49.7242291464081
 20
1.008111371709813
 10
49.7426998383401
 20
0.980935539829259
 10
49.76081046763649
 20
0.9535184396844959
 10
49.77855982549029
 20
0.9258661746484598
 10
49.7959467030945
 20
0.8979848480940857
 10
49.8129698916419
 20
0.8698805633943067
 10
49.8296282436413
 20
0.841559345034981
 10
49.8459209878917
 20
0.8130267333762779
 10
49.8618474958554
 20
0.7842880852315961
 10
49.8774071392662
 20
0.7553487570649359
 10
49.89259928985799
 20
0.726214105340297
 10
49.9074233193647
 20
0.6968894865216802
 10
49.9218785995201
 20
0.667380257073085
 10
49.9359645015123
 20
0.6376917783575271
 10
49.9496803682961
 20
0.607829665172159
 10
49.9630255014793
 20
0.5777999034632739
 10
49.9759991993808
 20
0.547608508698626
 10
49.9886007603197
 20
0.517261496345971
 10
50.00082948261489
 20
0.48676488187306
 10
50.01268466458551
 20
0.456124680747649
 10
50.02416560455039
 20
0.4253469084374909
 10
50.0269738721535
 20
0.4176410754888681
  0
LWPOLYLINE
  5
1159
330
1E
100
AcDbEntity
  8
1
100
AcDbPolyline
 90
        4
 70
     0
 43
0.0
 10
36.71645901299999
 20
-34.7488786970001
 10
39.55193380434909
 20
-37.2111053288386
 10
42.47034325512927
 20
-39.6783892453544
 10
45.14634182372429
 20
-41.8845370050476
  0
LWPOLYLINE
  5
115F
330
1E
100
AcDbEntity
  8
1
100
AcDbPolyline
 90
        2
 70
     0
 43
0.0
 10
47.69155665499999
 20
-43.05218403510001
 10
61.01445627383439
 20
-43.66587474163121
  0
LWPOLYLINE
  5
1163
330
1E
100
AcDbEntity
  8
1
100
AcDbPolyline
 90
       20
 70
     0
 43
0.0
 10
61.01446626520001
 20
-23.93220395420001
 10
61.16109774934129
 20
-23.9034768826287
 10
61.3612517986341
 20
-23.8647126928237
 10
61.415225776694
 20
-23.85352715209689
 10
61.452209238413
 20
-23.8454531770672
 10
61.4819841493399
 20
-23.8386214551407
 10
61.50716582747548
 20
-23.83256263763379
 10
61.5284175596879
 20
-23.82720740708959
 10
61.5463990764548
 20
-23.82246790254719
 10
61.5630475046127
 20
-23.8178832480973
 10
61.5777306273797
 20
-23.81366391959589
 10
61.59173209980171
 20
-23.8094710396468
 10
61.6037846097517
 20
-23.80571359604761
 10
61.6151608833086
 20
-23.8020226297708
 10
61.625232797714
 20
-23.7986233861495
 10
61.63463591735479
 20
-23.7953265904402
 10
61.6433739774663
 20
-23.7921464680515
 10
61.6514517546809
 20
-23.78909865131351
 10
61.6594918697515
 20
-23.7859542726367
 10
61.6613323581387
 20
-23.785218122892
  0
LWPOLYLINE
  5
1179
330
1E
100
AcDbEntity
  8
1
100
AcDbPolyline
 90
      126
 70
     0
 43
0.0
 10
61.79999999999999
 20
-20.0178308693
 10
61.7999494802207
 20
-20.0266551936138
 10
61.79979660324121
 20
-20.03548157901581
 10
61.799539392599
 20
-20.04430813723631
 10
61.7991758718317
 20
-20.05313298000559
 10
61.7987040644767
 20
-20.0619542190539
 10
61.7981219940716
 20
-20.0707699661118
 10
61.79742768415399
 20
-20.0795783329093
 10
61.7966191582613
 20
-20.08837743117689
 10
61.7956944399312
 20
-20.0971653726448
 10
61.79478844352139
 20
-20.1048441849363
 10
61.7937906499721
 20
-20.1125117446034
 10
61.7926997352079
 20
-20.12016678665289
 10
61.79151437515329
 20
-20.1278080460916
 10
61.790233245733
 20
-20.1354342579265
 10
61.78885504074679
 20
-20.143044120594
 10
61.7873786262232
 20
-20.1506359801803
 10
61.7858029644572
 20
-20.15820798582619
 10
61.7841270187959
 20
-20.16575828451979
 10
61.7823497525865
 20
-20.173285023249
 10
61.78047012917629
 20
-20.1807863490018
 10
61.77848711191249
 20
-20.18826040876619
 10
61.77639966414218
 20
-20.19570534953019
 10
61.7742067492128
 20
-20.2031193182819
 10
61.7719073304714
 20
-20.21050046200929
 10
61.7695003712653
 20
-20.2178469277003
 10
61.76735088414218
 20
-20.224114892791
 10
61.76512097325637
 20
-20.23035485183279
 10
61.7628099857886
 20
-20.2365656379144
 10
61.7604172691001
 20
-20.2427460840464
 10
61.7579423344615
 20
-20.24889495249881
 10
61.7553851593676
 20
-20.2550108043257
 10
61.7527458036521
 20
-20.261092165045
 10
61.7500243271488
 20
-20.26713756017469
 10
61.7472207896912
 20
-20.2731455152326
 10
61.744335251113
 20
-20.27911455573661
 10
61.7413677712481
 20
-20.2850432072047
 10
61.73831840993
 20
-20.29092999515471
 10
61.73518722699238
 20
-20.29677344510461
 10
61.7319742822691
 20
-20.30257208257221
 10
61.7286796355937
 20
-20.30832443307548
 10
61.7253033467999
 20
-20.31402902213248
 10
61.7218454757214
 20
-20.31968437526081
 10
61.71830608219188
 20
-20.3252890179786
 10
61.7146852260451
 20
-20.33084147580369
 10
61.7109831093199
 20
-20.33634033447599
 10
61.70720054056261
 20
-20.34178443658289
 10
61.7026871556124
 20
-20.34806523005311
 10
61.69806712773249
 20
-20.35426828236098
 10
61.6933419975836
 20
-20.36039186429539
 10
61.68851330582651
 20
-20.3664342466453
 10
61.6835825931218
 20
-20.37239370019948
 10
61.6785514001305
 20
-20.378268495747
 10
61.67342126751329
 20
-20.38405690407679
 10
61.66819373593078
 20
-20.38975719597761
 10
61.6628703460439
 20
-20.39536764223839
 10
61.6574526385133
 20
-20.40088651364811
 10
61.6519421550009
 20
-20.40631208275669
 10
61.6463406471502
 20
-20.4116429914687
 10
61.640650333993
 20
-20.416878703819
 10
61.63487349763061
 20
-20.4220187947806
 10
61.6290124201645
 20
-20.4270628393268
 10
61.62306938369579
 20
-20.43201041243059
 10
61.61704667032601
 20
-20.43686108906519
 10
61.6109465621564
 20
-20.4416144442036
 10
61.6047713412883
 20
-20.4462700528189
 10
61.59852328982299
 20
-20.45082748988439
 10
61.5922046898618
 20
-20.45528633037301
 10
61.5858178235062
 20
-20.45964614925789
 10
61.57936497285728
 20
-20.4639065215123
 10
61.57284841115409
 20
-20.4680670613545
 10
61.5662702803656
 20
-20.4721279642976
 10
61.55963262208977
 20
-20.4760898703219
 10
61.5529374753821
 20
-20.4799534306678
 10
61.5461868792976
 20
-20.48371929657629
 10
61.5393828728916
 20
-20.48738811928779
 10
61.5325274952193
 20
-20.4909605500431
 10
61.5256227853359
 20
-20.4944372400828
 10
61.5186707822966
 20
-20.4978188406477
 10
61.5116735251567
 20
-20.5011060029783
 10
61.5046330529713
 20
-20.50429937831539
 10
61.4975514047957
 20
-20.50739961789961
 10
61.49043061968519
 20
-20.51040737297149
 10
61.4832727148149
 20
-20.51332330822579
 10
61.47607935909938
 20
-20.5161483024992
 10
61.4678167542262
 20
-20.5192668589486
 10
61.45951172410899
 20
-20.52226958273839
 10
61.4511663314914
 20
-20.52515804917729
 10
61.44278263911701
 20
-20.52793383357391
 10
61.4343627097295
 20
-20.5305985112368
 10
61.4259086060725
 20
-20.53315365747458
 10
61.4174223908897
 20
-20.53560084759598
 10
61.4089061269246
 20
-20.5379416569095
 10
61.40036187692089
 20
-20.54017766072369
 10
61.3917917036224
 20
-20.5423104343473
 10
61.383197661092
 20
-20.5443415523701
 10
61.3735029293765
 20
-20.5465069723745
 10
61.3637818998527
 20
-20.5485478357595
 10
61.3540362890569
 20
-20.5504662844324
 10
61.3442678135254
 20
-20.5522644603003
 10
61.33447818979429
 20
-20.5539445052703
 10
61.3246691344
 20
-20.5555085612498
 10
61.3148423638786
 20
-20.55695877014581
 10
61.3039050407504
 20
-20.5584391941611
 10
61.2929503209207
 20
-20.5597846486956
 10
61.28198055903439
 20
-20.5609980718937
 10
61.2709981072736
 20
-20.56208240058569
 10
61.2600049637214
 20
-20.56304038272279
 10
61.2490024063191
 20
-20.56387438212539
 10
61.2368901410275
 20
-20.5646513469555
 10
61.22476951000789
 20
-20.56528418061239
 10
61.21264209780029
 20
-20.56577596725261
 10
61.2005094889447
 20
-20.56612979103269
 10
61.1872698508157
 20
-20.566362058597
 10
61.17402797114321
 20
-20.5664378134312
 10
61.160785907091
 20
-20.56636105960949
 10
61.14754571564628
 20
-20.5661358009733
 10
61.1332064472071
 20
-20.56572853243161
 10
61.11887328140571
 20
-20.56515528527198
 10
61.1045478120629
 20
-20.5644198045003
 10
61.09023163299911
 20
-20.56352583512219
 10
61.07482642725429
 20
-20.5623901498058
 10
61.05943583513229
 20
-20.5610796759602
 10
61.0440618472766
 20
-20.55959909100721
 10
61.0276104046841
 20
-20.5578292928216
 10
61.0144761912367
 20
-20.55628179830498
  0
DIMENSION
  5
11F9
330
1E
100
AcDbEntity
  8
2
100
AcDbDimension
  2
*D6
 10
77.98420575539373
 20
-109.5409365767989
 30
0.0
 11
75.60920575539373
 21
-117.2704682883994
 31
0.0
 70
    32
 71
     5
 42
15.4590634232011
  3
ISO-25
100
AcDbAlignedDimension
 13
63.56249999999999
 23
-125.0
 33
0.0
 14
63.56249999999999
 24
-109.5409365767989
 34
0.0
 50
270.0
100
AcDbRotatedDimension
1001
ACAD
1000
DSTYLE
1002
{
1070
   271
1070
     0
1002
}
  0
DIMENSION
  5
11FA
330
1E
100
AcDbEntity
  8
2
100
AcDbDimension
  2
*D9
 10
60.99908214684957
 20
-140.0599142136619
 30
0.0
 11
52.44074881351624
 21
-137.6849142136618
 31
0.0
 70
    32
 71
     5
 42
2.000917853150403
  3
ISO-25
100
AcDbAlignedDimension
 13
62.99999999999998
 23
-125.5624999999999
 33
0.0
 14
60.99908214684957
 24
-125.5624999999999
 34
0.0
 50
180.0
100
AcDbRotatedDimension
  0
LINE
  5
11FB
330
1E
100
AcDbEntity
  8
1
100
AcDbLine
 10
60.33795300000001
 20
-126.6158729999999
 30
0.0053078028
 11
60.31704598138907
 21
-126.60127545653
 31
0.0043310654102824
  0
TEXT
  5
14B5
330
1E
100
AcDbEntity
  8
6
100
AcDbText
 10
107.9031587721062
 20
-158.2051056940599
 30
0.0
 40
5.0
  1
6MDK250R00
100
AcDbText
  0
LINE
  5
E489
330
1E
100
AcDbEntity
  8
NOCUT
100
AcDbLine
 10
28.53553390590013
 20
132.0355339058999
 30
0.0
 11
16.46446609399992
 21
119.9644660939999
 31
0.0
  0
LINE
  5
E49B
330
1E
100
AcDbEntity
  8
NOCUT
100
AcDbLine
 10
0.0
 20
108.3999999999999
 30
0.0
 11
0.0
 21
0.0
 31
0.0
  0
LINE
  5
E4A4
330
1E
100
AcDbEntity
  8
NOCUT
100
AcDbLine
 10
15.0
 20
115.0
 30
0.0
 11
15.0
 21
116.4289321880998
 31
0.0
  0
LINE
  5
E4B2
330
1E
100
AcDbEntity
  8
NOCUT
100
AcDbLine
 10
61.79999999999996
 20
-0.0000000000000018
 30
0.0
 11
61.79999999999996
 21
123.5473761124999
 31
0.0
  0
LINE
  5
E4B9
330
1E
100
AcDbEntity
  8
NOCUT
100
AcDbLine
 10
10.0
 20
110.0
 30
0.0
 11
1.600000000000022
 21
110.0
 31
0.0
  0
LINE
  5
E4BB
330
1E
100
AcDbEntity
  8
NOCUT
100
AcDbLine
 10
45.14634957630003
 20
133.4999999999999
 30
0.0
 11
32.07106781180005
 21
133.4999999999999
 31
0.0
  0
LINE
  5
E4BF
330
1E
100
AcDbEntity
  8
NOCUT
100
AcDbLine
 10
61.01446626519996
 20
124.9245633556999
 30
0.0
 11
47.691556655
 21
132.8037101349997
 31
0.0
  0
ARC
  5
ED67
330
1E
100
AcDbEntity
  8
NOCUT
100
AcDbCircle
 10
1.600000000000022
 20
108.3999999999999
 30
0.0
 40
1.6
100
AcDbArc
 50
90.0
 51
180.0
  0
ARC
  5
ED68
330
1E
100
AcDbEntity
  8
NOCUT
100
AcDbCircle
 10
10.0
 20
115.0
 30
0.0
 40
5.0
100
AcDbArc
 50
270.0
 51
359.9999999987005
  0
ARC
  5
ED69
330
1E
100
AcDbEntity
  8
NOCUT
100
AcDbCircle
 10
20.0
 20
116.4289321880998
 30
0.0
 40
5.0
100
AcDbArc
 50
135.0000000005999
 51
179.9999999992996
  0
ARC
  5
ED6A
330
1E
100
AcDbEntity
  8
NOCUT
100
AcDbCircle
 10
32.07106781180005
 20
128.4999999999999
 30
0.0
 40
5.0
100
AcDbArc
 50
90.0
 51
134.9999999996004
  0
ARC
  5
ED6B
330
1E
100
AcDbEntity
  8
NOCUT
100
AcDbCircle
 10
45.14634957630003
 20
128.4999999999999
 30
0.0
 40
5.0
100
AcDbArc
 50
59.40000000030044
 51
90.0
  0
ARC
  5
ED6C
330
1E
100
AcDbEntity
  8
NOCUT
100
AcDbCircle
 10
60.19999999999993
 20
123.5473761124999
 30
0.0
 40
1.6
100
AcDbArc
 50
0.000000004899988
 51
59.3999999966991
  0
SPLINE
  5
107FA
330
1E
100
AcDbEntity
  8
CUT
100
AcDbSpline
210
0.0
220
0.0
230
1.0
 70
     8
 71
     3
 72
    36
 73
    32
 74
    30
 42
0.0000000001
 43
0.0000000001
 44
0.0000000001
 12
-0.7389208863283879
 22
-0.6737921962650427
 32
0.0
 13
-0.7397797302135309
 23
-0.6728491292743089
 33
0.0
 40
0.0
 40
0.0
 40
0.0
 40
0.0
 40
0.118658269412676
 40
0.2373124962062401
 40
0.355961333099018
 40
0.474606127759307
 40
0.5932455330342757
 40
0.7118816355369687
 40
0.8305122836888994
 40
0.9491382167897423
 40
1.067759435064468
 40
1.186375938739206
 40
1.304988467259499
 40
1.423595542411007
 40
1.542197903639733
 40
1.660795551171178
 40
1.779388485231375
 40
1.897977445413003
 40
2.016560953208187
 40
2.135139748209558
 40
2.253713830643421
 40
2.372283200735417
 40
2.490847185570607
 40
2.609407871200418
 40
2.72796243254664
 40
2.846512955531553
 40
2.965058094293177
 40
3.083598522101524
 40
3.202134305939195
 40
3.320665312519728
 40
3.439190935947525
 40
3.439190935947525
 40
3.439190935947525
 40
3.439190935947525
 10
55.36926099999989
 20
128.5396079999997
 30
0.0053618274
 10
55.34003464213169
 20
128.5129576613488
 30
0.0053618274
 10
55.2815824936373
 20
128.4596583619042
 30
0.0053618274
 10
55.19390310907675
 20
128.379714353376
 30
0.0053618274
 10
55.10622235517033
 20
128.2997785134873
 30
0.0053618274
 10
55.01854309569663
 20
128.2198483676649
 30
0.0053618274
 10
54.93086236488422
 20
128.1399261368439
 30
0.0053618274
 10
54.84318181172167
 20
128.0600107112395
 30
0.0053618274
 10
54.75550176976118
 20
127.9801013913846
 30
0.0053618274
 10
54.66782174621076
 20
127.9001994170503
 30
0.0053618274
 10
54.5801417002172
 20
127.8203044673714
 30
0.0053618274
 10
54.49246172550217
 20
127.7404160735694
 30
0.0053618274
 10
54.40478075958787
 20
127.6605357677472
 30
0.0053618274
 10
54.31710078366029
 20
127.580661375279
 30
0.0053618274
 10
54.22942074239276
 20
127.5007944204008
 30
0.0053618274
 10
54.14174070116517
 20
127.4209344655132
 30
0.0053618274
 10
54.0540607250299
 20
127.3410810730974
 30
0.0053618274
 10
53.96637975966839
 20
127.2612357669726
 30
0.0053618274
 10
53.87869978381795
 20
127.1813963742473
 30
0.0053618274
 10
53.79101974132723
 20
127.101564420733
 30
0.0053618274
 10
53.70333970484145
 20
127.0217394606552
 30
0.0053618274
 10
53.61566005910123
 20
126.9419214046298
 30
0.0053618274
 10
53.52797932584602
 20
126.8621111771298
 30
0.0053618274
 10
53.4402991677571
 20
126.7823076510826
 30
0.0053618274
 10
53.35261838030757
 20
126.7025114832636
 30
0.0053618274
 10
53.26493911720473
 20
126.6227213399849
 30
0.0053618274
 10
53.17725859987014
 20
126.5429395750136
 30
0.0053618274
 10
53.08957908613184
 20
126.4631640073007
 30
0.0053618274
 10
53.00189741017746
 20
126.3833978162637
 30
0.0053618274
 10
52.91421799108217
 20
126.3036364778287
 30
0.0053618274
 10
52.85576361790761
 20
126.2504662875066
 30
0.0053618274
 10
52.82653600000001
 20
126.2238829999999
 30
0.0053618274
 11
55.36926099999989
 21
128.5396079999997
 31
0.0053618274
 11
55.28158099999993
 21
128.4596579999996
 31
0.0053618274
 11
55.19390099999996
 21
128.3797139999997
 31
0.0053618274
 11
55.10622099999999
 21
128.2997779999996
 31
0.0053618274
 11
55.018541
 21
128.2198479999997
 31
0.0053618274
 11
54.93086099999992
 21
128.1399259999998
 31
0.0053618274
 11
54.84317999999993
 21
128.0600099999996
 31
0.0053618274
 11
54.75549999999996
 21
127.9801009999999
 31
0.0053618274
 11
54.66781999999998
 21
127.9001989999996
 31
0.0053618274
 11
54.58014000000001
 21
127.8203039999997
 31
0.0053618274
 11
54.49245999999989
 21
127.7404159999997
 31
0.0053618274
 11
54.40477899999994
 21
127.6605349999998
 31
0.0053618274
 11
54.31709899999996
 21
127.5806609999998
 31
0.0053618274
 11
54.22941899999997
 21
127.5007939999996
 31
0.0053618274
 11
54.14173900000001
 21
127.4209339999996
 31
0.0053618274
 11
54.0540589999999
 21
127.3410809999997
 31
0.0053618274
 11
53.96637799999993
 21
127.2612349999999
 31
0.0053618274
 11
53.87869799999997
 21
127.1813959999998
 31
0.0053618274
 11
53.79101799999999
 21
127.1015639999999
 31
0.0053618274
 11
53.703338
 21
127.0217389999997
 31
0.0053618274
 11
53.61565799999993
 21
126.9419209999997
 31
0.0053618274
 11
53.52797799999994
 21
126.8621109999997
 31
0.0053618274
 11
53.44029699999996
 21
126.7823069999996
 31
0.0053618274
 11
53.35261699999999
 21
126.7025109999996
 31
0.0053618274
 11
53.26493700000001
 21
126.6227209999996
 31
0.0053618274
 11
53.17725699999993
 21
126.5429389999996
 31
0.0053618274
 11
53.08957699999993
 21
126.4631639999997
 31
0.0053618274
 11
53.00189599999995
 21
126.3833969999996
 31
0.0053618274
 11
52.91421599999999
 21
126.3036359999996
 31
0.0053618274
 11
52.82653600000001
 21
126.2238829999999
 31
0.0053618274
  0
SPLINE
  5
107FB
330
1E
100
AcDbEntity
  8
CUT
100
AcDbSpline
210
0.0
220
0.0
230
1.0
 70
     8
 71
     3
 72
    36
 73
    32
 74
    30
 42
0.0000000001
 43
0.0000000001
 44
0.0000000001
 12
-0.866028930028558
 22
0.4999938923162874
 32
0.0
 13
-0.8649753026085623
 23
0.5018144337075471
 33
0.0
 40
0.0
 40
0.0
 40
0.0
 40
0.0
 40
0.3670299067923776
 40
0.7340758154196907
 40
1.10113736219616
 40
1.468215780991124
 40
1.835309342103287
 40
2.202420279695793
 40
2.56954636392973
 40
2.936688827974688
 40
3.303846442851383
 40
3.671020942065327
 40
4.038210095686467
 40
4.405416137684809
 40
4.772636337342899
 40
5.139873429353027
 40
5.507124682890736
 40
5.87439283275388
 40
6.241675512368672
 40
6.608973361425963
 40
6.976286609218547
 40
7.343614529259996
 40
7.710958352816355
 40
8.078315849814817
 40
8.445689755291226
 40
8.813077337826339
 40
9.180480831010623
 40
9.547898004809033
 40
9.915330591126688
 40
10.2827768615527
 40
10.65023904963877
 40
10.65023904963877
 40
10.65023904963877
 40
10.65023904963877
 10
62.04423099999996
 20
120.8889369999996
 30
0.0053618274
 10
61.938278160844
 20
120.9501079038975
 30
0.0053618274
 10
61.72637207127555
 20
121.0724596675788
 30
0.0053618274
 10
61.40851997071421
 20
121.256015251811
 30
0.0053618274
 10
61.09066895901074
 20
121.4396050545833
 30
0.0053618274
 10
60.77281721943244
 20
121.6232253534254
 30
0.0053618274
 10
60.45496568500547
 20
121.8068789177961
 30
0.0053618274
 10
60.13711419320207
 20
121.9905643124352
 30
0.0053618274
 10
59.81926320084584
 20
122.1742831477224
 30
0.0053618274
 10
59.50141117082538
 20
122.3580312779237
 30
0.0053618274
 10
59.18355991151863
 20
122.5418129845954
 30
0.0053618274
 10
58.86570847706964
 20
122.7256254783883
 30
0.0053618274
 10
58.54785683530871
 20
122.9094698568446
 30
0.0053618274
 10
58.23000575773936
 20
123.0933456342221
 30
0.0053618274
 10
57.91215379315381
 20
123.277251787963
 30
0.0053618274
 10
57.59430278344673
 20
123.4611896824676
 30
0.0053618274
 10
57.27645072561514
 20
123.6451576753094
 30
0.0053618274
 10
56.95859991611737
 20
123.8291581578236
 30
0.0053618274
 10
56.64074701910626
 20
124.0131860347754
 30
0.0053618274
 10
56.3228967431325
 20
124.1972484382514
 30
0.0053618274
 10
56.00504430772275
 20
124.3813372038361
 30
0.0053618274
 10
55.68719337249967
 20
124.5654591351911
 30
0.0053618274
 10
55.36934191726025
 20
124.7496095931284
 30
0.0053618274
 10
55.05149003343731
 20
124.9337898869029
 30
0.0053618274
 10
54.73363893480812
 20
125.1180006270513
 30
0.0053618274
 10
54.41578729598598
 20
125.3022410101628
 30
0.0053618274
 10
54.09793587327928
 20
125.4865105244631
 30
0.0053618274
 10
53.78008456255567
 20
125.670810140031
 30
0.0053618274
 10
53.46223287517911
 20
125.8551375312221
 30
0.0053618274
 10
53.14438128220505
 20
126.03949499338
 30
0.0053618274
 10
52.93248457244565
 20
126.1624170567254
 30
0.0053618274
 10
52.82653600000001
 20
126.2238829999999
 30
0.0053618274
 11
62.04423099999996
 21
120.8889369999996
 31
0.0053618274
 11
61.72637899999993
 21
121.0724609999996
 31
0.0053618274
 11
61.40852699999991
 21
121.2560169999997
 31
0.0053618274
 11
61.09067600000001
 21
121.4396059999997
 31
0.0053618274
 11
60.77282399999999
 21
121.6232269999997
 31
0.0053618274
 11
60.45497299999997
 21
121.8068799999997
 31
0.0053618274
 11
60.13712099999995
 21
121.9905659999998
 31
0.0053618274
 11
59.81926999999993
 21
122.1742839999996
 31
0.0053618274
 11
59.50141799999992
 21
122.3580329999996
 31
0.0053618274
 11
59.18356700000002
 21
122.5418139999996
 31
0.0053618274
 11
58.865715
 21
122.7256269999996
 31
0.0053618274
 11
58.54786399999998
 21
122.9094709999996
 31
0.0053618274
 11
58.23001199999996
 21
123.0933469999998
 31
0.0053618274
 11
57.91216099999996
 21
123.2772529999996
 31
0.0053618274
 11
57.59430899999993
 21
123.4611909999997
 31
0.0053618274
 11
57.2764579999999
 21
123.6451589999997
 31
0.0053618274
 11
56.95860600000001
 21
123.8291589999996
 31
0.0053618274
 11
56.64075399999997
 21
124.0131879999996
 31
0.0053618274
 11
56.32290299999997
 21
124.1972489999999
 31
0.0053618274
 11
56.00505099999995
 21
124.3813389999997
 31
0.0053618274
 11
55.68719999999993
 21
124.5654599999996
 31
0.0053618274
 11
55.36934799999992
 21
124.7496109999996
 31
0.0053618274
 11
55.05149700000002
 21
124.9337909999997
 31
0.0053618274
 11
54.73364499999998
 21
125.1180019999996
 31
0.0053618274
 11
54.41579399999998
 21
125.3022419999996
 31
0.0053618274
 11
54.09794199999996
 21
125.4865119999996
 31
0.0053618274
 11
53.78009099999995
 21
125.6708109999996
 31
0.0053618274
 11
53.46223899999993
 21
125.8551389999998
 31
0.0053618274
 11
53.14438799999989
 21
126.0394959999997
 31
0.0053618274
 11
52.82653600000001
 21
126.2238829999999
 31
0.0053618274
  0
SPLINE
  5
107FC
330
1E
100
AcDbEntity
  8
CUT
100
AcDbSpline
210
0.0
220
0.0
230
1.0
 70
     8
 71
     3
 72
    36
 73
    32
 74
    30
 42
0.0000000001
 43
0.0000000001
 44
0.0000000001
 12
-0.2476047443071911
 22
-0.9688611307078897
 32
0.0
 13
-0.2477446828237488
 23
-0.9688253568794328
 33
0.0
 40
0.0
 40
0.0
 40
0.0
 40
0.0
 40
0.1177073013411996
 40
0.2354126649612593
 40
0.3531151220047089
 40
0.4708156413323629
 40
0.5885142229463105
 40
0.7062098979943946
 40
0.8239036353343411
 40
0.9415954349676759
 40
1.059284328046197
 40
1.176971283423573
 40
1.294656301102207
 40
1.412338412236432
 40
1.530017616830946
 40
1.647695852579855
 40
1.765371181795348
 40
1.883043604482452
 40
2.000714089486014
 40
2.118382636808558
 40
2.236048277613434
 40
2.353711980742326
 40
2.471372777361063
 40
2.589031636309279
 40
2.706688557589093
 40
2.824342572369638
 40
2.941993680655961
 40
3.059642851282101
 40
3.177289115421678
 40
3.294933441906146
 40
3.4125758307378
 40
3.4125758307378
 40
3.4125758307378
 40
3.4125758307378
 10
62.88943600000003
 20
124.1951889999997
 30
0.0053618274
 10
62.87972103791614
 20
124.1571749903097
 30
0.0053618274
 10
62.86029123989722
 20
124.081147605357
 30
0.0053618274
 10
62.83114638293723
 20
123.9671079021318
 30
0.0053618274
 10
62.80200122753668
 20
123.853070608513
 30
0.0053618274
 10
62.77285622632603
 20
123.7390356088217
 30
0.0053618274
 10
62.74371138658946
 20
123.6250029011924
 30
0.0053618274
 10
62.71456622660609
 20
123.5109726087473
 30
0.0053618274
 10
62.68542122647763
 20
123.3969446087795
 30
0.0053618274
 10
62.65627638699533
 20
123.2829189010825
 30
0.0053618274
 10
62.62713122493855
 20
123.1688956091701
 30
0.0053618274
 10
62.59798623282357
 20
123.0548746071536
 30
0.0053618274
 10
62.56884136336116
 20
122.9408559071179
 30
0.0053618274
 10
62.53969639321607
 20
122.8268398994833
 30
0.0053618274
 10
62.5105510633287
 20
122.7128263171442
 30
0.0053618274
 10
62.48140639325194
 20
122.5988148994712
 30
0.0053618274
 10
62.4522613632744
 20
122.4848059071316
 30
0.0053618274
 10
62.42311623329851
 20
122.3707996070242
 30
0.0053618274
 10
62.39397122330288
 20
122.2567956095788
 30
0.0053618274
 10
62.36482639328189
 20
122.1427938994544
 30
0.0053618274
 10
62.33568120333757
 20
122.0287946146805
 30
0.0053618274
 10
62.3065363932128
 20
121.9147978994677
 30
0.0053618274
 10
62.27739122365463
 20
121.8008036094836
 30
0.0053618274
 10
62.24824623208091
 20
121.6868116073285
 30
0.0053618274
 10
62.21910136795469
 20
121.5728219059198
 30
0.0053618274
 10
62.1899563760494
 20
121.4588349038472
 30
0.0053618274
 10
62.1608112078475
 20
121.3448506135206
 30
0.0053618274
 10
62.1316663925892
 20
121.2308688996139
 30
0.0053618274
 10
62.10252122187047
 20
121.1168896099322
 30
0.0053618274
 10
62.07337624001693
 20
121.0029126052912
 30
0.0053618274
 10
62.05394609210253
 20
120.9269286431142
 30
0.0053618274
 10
62.04423099999996
 20
120.8889369999996
 30
0.0053618274
 11
62.88943600000003
 21
124.1951889999997
 31
0.0053618274
 11
62.86029099999993
 21
124.0811469999996
 31
0.0053618274
 11
62.83114599999997
 21
123.9671069999999
 31
0.0053618274
 11
62.802001
 21
123.8530699999996
 31
0.0053618274
 11
62.77285600000002
 21
123.7390349999996
 31
0.0053618274
 11
62.74371099999993
 21
123.6250019999999
 31
0.0053618274
 11
62.71456599999996
 21
123.5109719999998
 31
0.0053618274
 11
62.685421
 21
123.3969439999996
 31
0.0053618274
 11
62.65627599999991
 21
123.2829179999999
 31
0.0053618274
 11
62.62713099999993
 21
123.1688949999997
 31
0.0053618274
 11
62.59798599999997
 21
123.0548739999997
 31
0.0053618274
 11
62.568841
 21
122.9408549999996
 31
0.0053618274
 11
62.53969599999989
 21
122.8268389999996
 31
0.0053618274
 11
62.51055099999994
 21
122.7128259999996
 31
0.0053618274
 11
62.48140599999997
 21
122.5988139999997
 31
0.0053618274
 11
62.452261
 21
122.4848049999998
 31
0.0053618274
 11
62.4231159999999
 21
122.3707989999996
 31
0.0053618274
 11
62.39397099999994
 21
122.2567949999997
 31
0.0053618274
 11
62.36482599999997
 21
122.1427929999997
 31
0.0053618274
 11
62.33568100000001
 21
122.0287939999996
 31
0.0053618274
 11
62.30653599999993
 21
121.9147969999996
 31
0.0053618274
 11
62.27739099999993
 21
121.8008029999998
 31
0.0053618274
 11
62.24824599999998
 21
121.6868109999998
 31
0.0053618274
 11
62.219101
 21
121.5728209999996
 31
0.0053618274
 11
62.18995599999992
 21
121.4588339999997
 31
0.0053618274
 11
62.16081099999993
 21
121.3448499999997
 31
0.0053618274
 11
62.13166599999997
 21
121.2308679999996
 31
0.0053618274
 11
62.10252099999999
 21
121.1168889999996
 31
0.0053618274
 11
62.0733759999999
 21
121.0029119999997
 31
0.0053618274
 11
62.04423099999996
 21
120.8889369999996
 31
0.0053618274
  0
SPLINE
  5
107FD
330
1E
100
AcDbEntity
  8
CUT
100
AcDbSpline
210
0.0
220
0.0
230
1.0
 70
     8
 71
     3
 72
    36
 73
    32
 74
    30
 42
0.0000000001
 43
0.0000000001
 44
0.0000000001
 12
-0.0242918203988991
 22
-0.9997049101918566
 32
0.0
 13
-0.0243632015130867
 23
-0.9997031731529277
 33
0.0
 40
0.0
 40
0.0
 40
0.0
 40
0.0
 40
0.0314092931472966
 40
0.0628176109308747
 40
0.0942269284180777
 40
0.1256352462017554
 40
0.1570445393488387
 40
0.1884528571324168
 40
0.2198621746193357
 40
0.2512704924031982
 40
0.2826788101868608
 40
0.3140871036298432
 40
0.3454954214135068
 40
0.3769037391969854
 40
0.4083120569807625
 40
0.4397203504237304
 40
0.471128668207493
 40
0.5025359862878486
 40
0.5339443040715119
 40
0.5653525975143947
 40
0.5967599155946364
 40
0.6281682333784988
 40
0.6595755514586552
 40
0.6909828451976261
 40
0.7223911629812042
 40
0.7537984810616454
 40
0.7852057991419861
 40
0.8166130928809568
 40
0.8480204109611143
 40
0.8794277290416543
 40
0.910835047121893
 40
0.910835047121893
 40
0.910835047121893
 40
0.910835047121893
 10
62.91161399999996
 20
125.1057539999999
 30
0.0053618274
 10
62.91135967036396
 20
125.0952873251382
 30
0.0053618274
 10
62.91085017853692
 20
125.0743543208652
 30
0.0053618274
 10
62.91008491291304
 20
125.0429546687883
 30
0.0053618274
 10
62.90932012903006
 20
125.0115553301908
 30
0.0053618274
 10
62.90855461175389
 20
124.9801556842351
 30
0.0053618274
 10
62.90779138459069
 20
124.9487563158532
 30
0.0053618274
 10
62.90702588924587
 20
124.9173566693632
 30
0.0053618274
 10
62.90626101763646
 20
124.8859573329034
 30
0.0053618274
 10
62.90549608890021
 20
124.8545579978352
 30
0.0053618274
 10
62.90473063507572
 20
124.8231590170007
 30
0.0053618274
 10
62.90396737198175
 20
124.7917599828266
 30
0.0053618274
 10
62.90320187581195
 20
124.7603610030234
 30
0.0053618274
 10
62.90243712457229
 20
124.7289619969666
 30
0.0053618274
 10
62.90167162609623
 20
124.6975630172194
 30
0.0053618274
 10
62.90090837222745
 20
124.6661639828208
 30
0.0053618274
 10
62.90014289193014
 20
124.6347653359639
 30
0.0053618274
 10
62.89937810856518
 20
124.6033666640232
 30
0.0053618274
 10
62.89861262529505
 20
124.5719680172388
 30
0.0053618274
 10
62.89784939141532
 20
124.5405693156866
 30
0.0053618274
 10
62.89708385650603
 20
124.5091706701604
 30
0.0053618274
 10
62.89631914177285
 20
124.4777723298808
 30
0.0053618274
 10
62.89555362531128
 20
124.4463740172391
 30
0.0053618274
 10
62.89479035819056
 20
124.414975649829
 30
0.0053618274
 10
62.89402489209317
 20
124.3835773359602
 30
0.0053618274
 10
62.89326012194212
 20
124.3521789970306
 30
0.0053618274
 10
62.89249462844968
 20
124.3207810171626
 30
0.0053618274
 10
62.89173136544383
 20
124.2893829829854
 30
0.0053618274
 10
62.89096590858941
 20
124.2579850022252
 30
0.0053618274
 10
62.89020100000008
 20
124.2265870000002
 30
0.0053618274
 10
62.88969106093983
 20
124.2056549985147
 30
0.0053618274
 10
62.88943600000003
 20
124.1951889999997
 30
0.0053618274
 11
62.91161399999996
 21
125.1057539999999
 31
0.0053618274
 11
62.91084999999996
 21
125.0743539999997
 31
0.0053618274
 11
62.91008499999996
 21
125.0429549999998
 31
0.0053618274
 11
62.90931999999996
 21
125.0115549999996
 31
0.0053618274
 11
62.90855499999995
 21
124.9801559999996
 31
0.0053618274
 11
62.90779099999995
 21
124.9487559999996
 31
0.0053618274
 11
62.90702599999995
 21
124.9173569999997
 31
0.0053618274
 11
62.90626099999995
 21
124.8859569999998
 31
0.0053618274
 11
62.90549599999994
 21
124.8545579999996
 31
0.0053618274
 11
62.90473099999996
 21
124.8231589999996
 31
0.0053618274
 11
62.90396699999995
 21
124.7917599999996
 31
0.0053618274
 11
62.90320199999993
 21
124.7603609999996
 31
0.0053618274
 11
62.90243699999994
 21
124.7289619999998
 31
0.0053618274
 11
62.90167199999993
 21
124.6975629999997
 31
0.0053618274
 11
62.90090799999993
 21
124.6661639999997
 31
0.0053618274
 11
62.90014299999993
 21
124.6347649999996
 31
0.0053618274
 11
62.89937799999993
 21
124.6033669999996
 31
0.0053618274
 11
62.89861299999993
 21
124.5719679999996
 31
0.0053618274
 11
62.89784899999993
 21
124.5405689999997
 31
0.0053618274
 11
62.89708399999994
 21
124.5091709999998
 31
0.0053618274
 11
62.89631899999992
 21
124.4777719999996
 31
0.0053618274
 11
62.89555399999994
 21
124.4463739999998
 31
0.0053618274
 11
62.89478999999992
 21
124.4149759999997
 31
0.0053618274
 11
62.89402499999992
 21
124.3835769999998
 31
0.0053618274
 11
62.89325999999991
 21
124.3521789999997
 31
0.0053618274
 11
62.89249499999993
 21
124.3207809999997
 31
0.0053618274
 11
62.89173099999992
 21
124.2893829999996
 31
0.0053618274
 11
62.89096599999989
 21
124.2579849999998
 31
0.0053618274
 11
62.89020099999991
 21
124.2265869999996
 31
0.0053618274
 11
62.88943600000003
 21
124.1951889999997
 31
0.0053618274
  0
SPLINE
  5
107FE
330
1E
100
AcDbEntity
  8
CUT
100
AcDbSpline
210
0.0
220
0.0
230
1.0
 70
     8
 71
     3
 72
    36
 73
    32
 74
    30
 42
0.0000000001
 43
0.0000000001
 44
0.0000000001
 12
-0.8663861857749701
 22
0.4993745859555724
 32
0.0
 13
-0.865608917816567
 23
0.5007206820138666
 33
0.0
 40
0.0
 40
0.0
 40
0.0
 40
0.0
 40
0.2682673224415812
 40
0.536542268763493
 40
0.8048265724601293
 40
1.07311986754215
 40
1.341421655320345
 40
1.609731936603027
 40
1.878051211889065
 40
2.146377616428374
 40
2.414713383073445
 40
2.683058146288774
 40
2.951410907215379
 40
3.219772166494821
 40
3.488141924934358
 40
3.756519317330046
 40
4.024905576445321
 40
4.29330033709657
 40
4.561703600090792
 40
4.83011486602807
 40
5.098534135623368
 40
5.366961044035863
 40
5.635397323778423
 40
5.903841109024039
 40
6.172293401266167
 40
6.440754201311383
 40
6.709222508912132
 40
6.977698460140512
 40
7.246182785958704
 40
7.514675622617349
 40
7.783175969511004
 40
7.783175969511004
 40
7.783175969511004
 40
7.783175969511004
 10
62.91161399999996
 20
125.1057539999999
 30
0.0053618274
 10
62.83413963258055
 20
125.1504092943564
 30
0.0053618274
 10
62.67919153081728
 20
125.2397260704559
 30
0.0053618274
 10
62.44677318023313
 20
125.3737166194829
 30
0.0053618274
 10
62.21435403482809
 20
125.5077231233425
 30
0.0053618274
 10
61.98193535101203
 20
125.6417483392044
 30
0.0053618274
 10
61.74951634590756
 20
125.7757903311244
 30
0.0053618274
 10
61.51709704867697
 20
125.9098491500252
 30
0.0053618274
 10
61.28467877002559
 20
126.0439261568338
 30
0.0053618274
 10
61.05226016227203
 20
126.1780195929897
 30
0.0053618274
 10
60.81984100375882
 20
126.312129074797
 30
0.0053618274
 10
60.58742262879333
 20
126.4462574920133
 30
0.0053618274
 10
60.35500326751659
 20
126.5804012001359
 30
0.0053618274
 10
60.1225843646414
 20
126.7145623692052
 30
0.0053618274
 10
59.89016544172161
 20
126.8487399261899
 30
0.0053618274
 10
59.65774742923596
 20
126.9829357266192
 30
0.0053618274
 10
59.42532826689329
 20
127.1171462022737
 30
0.0053618274
 10
59.19290931122436
 20
127.2513742798793
 30
0.0053618274
 10
58.96049054489221
 20
127.3856193518535
 30
0.0053618274
 10
58.72807157515134
 20
127.5198804049236
 30
0.0053618274
 10
58.49565246906026
 20
127.6541569784563
 30
0.0053618274
 10
58.26323410068527
 20
127.7884514955473
 30
0.0053618274
 10
58.03081582455667
 20
127.9227625053435
 30
0.0053618274
 10
57.79839627846238
 20
128.057088227818
 30
0.0053618274
 10
57.56597725462159
 20
128.1914311874475
 30
0.0053618274
 10
57.33355889479984
 20
128.3257916288336
 30
0.0053618274
 10
57.10113933960478
 20
128.4601657594535
 30
0.0053618274
 10
56.86872172367061
 20
128.5945589106553
 30
0.0053618274
 10
56.6363021881285
 20
128.7289650755032
 30
0.0053618274
 10
56.40388374943885
 20
128.863389380129
 30
0.0053618274
 10
56.24894009823598
 20
128.9530144410606
 30
0.0053618274
 10
56.17146799999998
 20
128.9978289999998
 30
0.0053618274
 11
62.91161399999996
 21
125.1057539999999
 31
0.0053618274
 11
62.67919499999989
 21
125.2397269999997
 31
0.0053618274
 11
62.44677699999996
 21
125.3737169999999
 31
0.0053618274
 11
62.21435799999992
 21
125.5077239999998
 31
0.0053618274
 11
61.98193899999999
 21
125.6417489999998
 31
0.0053618274
 11
61.74951999999994
 21
125.7757909999996
 31
0.0053618274
 11
61.517101
 21
125.9098499999997
 31
0.0053618274
 11
61.28468199999995
 21
126.0439269999997
 31
0.0053618274
 11
61.05226400000002
 21
126.1780199999998
 31
0.0053618274
 11
60.81984499999997
 21
126.3121299999997
 31
0.0053618274
 11
60.58742599999989
 21
126.4462579999999
 31
0.0053618274
 11
60.35500699999998
 21
126.5804019999998
 31
0.0053618274
 11
60.12258799999994
 21
126.7145629999999
 31
0.0053618274
 11
59.89016899999999
 21
126.8487409999996
 31
0.0053618274
 11
59.65775099999993
 21
126.9829359999999
 31
0.0053618274
 11
59.42533199999999
 21
127.1171469999996
 31
0.0053618274
 11
59.19291299999995
 21
127.2513749999997
 31
0.0053618274
 11
58.96049400000002
 21
127.3856199999996
 31
0.0053618274
 11
58.72807499999996
 21
127.5198809999997
 31
0.0053618274
 11
58.49565599999992
 21
127.6541579999999
 31
0.0053618274
 11
58.26323799999998
 21
127.7884519999996
 31
0.0053618274
 11
58.03081899999993
 21
127.9227629999996
 31
0.0053618274
 11
57.7984
 21
128.0570889999997
 31
0.0053618274
 11
57.56598099999994
 21
128.1914319999998
 31
0.0053618274
 11
57.33356200000001
 21
128.3257919999996
 31
0.0053618274
 11
57.10114299999997
 21
128.4601669999996
 31
0.0053618274
 11
56.86872500000002
 21
128.5945589999996
 31
0.0053618274
 11
56.63630599999997
 21
128.7289659999997
 31
0.0053618274
 11
56.40388699999991
 21
128.8633899999996
 31
0.0053618274
 11
56.17146799999998
 21
128.9978289999998
 31
0.0053618274
  0
SPLINE
  5
107FF
330
1E
100
AcDbEntity
  8
CUT
100
AcDbSpline
210
0.0
220
0.0
230
1.0
 70
     8
 71
     3
 72
    36
 73
    32
 74
    30
 42
0.0000000001
 43
0.0000000001
 44
0.0000000001
 12
0.868455157534003
 22
0.4957677272197029
 32
0.0
 13
0.8682241265069379
 23
0.4961722142071892
 33
0.0
 40
0.0
 40
0.0
 40
0.0
 40
0.0
 40
0.0318537347576088
 40
0.0637070969034748
 40
0.0955604590493206
 40
0.1274146896161284
 40
0.1592690434787105
 40
0.1911229014710656
 40
0.2229786196078067
 40
0.2548334693640849
 40
0.2866883191204054
 40
0.318543664794348
 40
0.350400374762459
 40
0.3822562163774297
 40
0.4141120579925414
 40
0.4459692639120045
 40
0.4778260974803523
 40
0.5096829310486818
 40
0.5415402606291996
 40
0.5733989545446026
 40
0.6052567801610371
 40
0.6371146057773308
 40
0.668973795738696
 40
0.7008326134978499
 40
0.732691431256794
 40
0.7645516133810555
 40
0.7964109272469912
 40
0.8282707372431959
 40
0.8601305472395008
 40
0.8919917216216278
 40
0.9238520277720365
 40
0.9238520277720365
 40
0.9238520277720365
 40
0.9238520277720365
 10
55.36926099999989
 20
128.5396079999997
 30
0.0053618274
 10
55.37848218007888
 20
128.5448720178944
 30
0.0053618274
 10
55.3969240048784
 20
128.5554007409626
 30
0.0053618274
 10
55.42458601170677
 20
128.5711949794973
 30
0.0053618274
 10
55.45224809181612
 20
128.5869894229948
 30
0.0053618274
 10
55.47991141642632
 20
128.6027823535801
 30
0.0053618274
 10
55.50757260016829
 20
128.6185793668829
 30
0.0053618274
 10
55.53523575229175
 20
128.6343739329657
 30
0.0053618274
 10
55.56289776490265
 20
128.6501708279849
 30
0.0053618274
 10
55.59055996701118
 20
128.6659680577624
 30
0.0053618274
 10
55.61822225924103
 20
128.6817648793925
 30
0.0053618274
 10
55.64588439575031
 20
128.697563224045
 30
0.0053618274
 10
55.67354681424899
 20
128.7133617415965
 30
0.0053618274
 10
55.70120898273295
 20
128.7291610302343
 30
0.0053618274
 10
55.72887139837308
 20
128.7449602194516
 30
0.0053618274
 10
55.75653408028209
 20
128.7607596092045
 30
0.0053618274
 10
55.78419592097262
 20
128.7765611383508
 30
0.0053618274
 10
55.81185827162163
 20
128.7923618578317
 30
0.0053618274
 10
55.83952039238359
 20
128.808164229967
 30
0.0053618274
 10
55.86718281529459
 20
128.8239667398314
 30
0.0053618274
 10
55.89484498212346
 20
128.8397700312936
 30
0.0053618274
 10
55.92250739978396
 20
128.8555732170112
 30
0.0053618274
 10
55.95017007520778
 20
128.8713766182687
 30
0.0053618274
 10
55.9778319401943
 20
128.8871821046753
 30
0.0053618274
 10
56.00549445117186
 20
128.902987127093
 30
0.0053618274
 10
56.03315676796957
 20
128.918792822705
 30
0.0053618274
 10
56.06081925637599
 20
128.9345988846658
 30
0.0053618274
 10
56.08848096035104
 20
128.9504060693859
 30
0.0053618274
 10
56.11614344067925
 20
128.9662131454807
 30
0.0053618274
 10
56.14380578975391
 20
128.982020784609
 30
0.0053618274
 10
56.16224737117409
 20
128.9925596004505
 30
0.0053618274
 10
56.17146799999998
 20
128.9978289999998
 30
0.0053618274
 11
55.36926099999989
 21
128.5396079999997
 31
0.0053618274
 11
55.39692399999999
 21
128.5554009999998
 31
0.0053618274
 11
55.42458599999996
 21
128.5711949999997
 31
0.0053618274
 11
55.45224799999992
 21
128.5869889999996
 31
0.0053618274
 11
55.47991099999999
 21
128.6027829999996
 31
0.0053618274
 11
55.50757299999997
 21
128.6185789999997
 31
0.0053618274
 11
55.53523499999992
 21
128.6343739999997
 31
0.0053618274
 11
55.562898
 21
128.6501709999998
 31
0.0053618274
 11
55.59055999999996
 21
128.6659679999997
 31
0.0053618274
 11
55.61822199999992
 21
128.6817649999997
 31
0.0053618274
 11
55.64588399999998
 21
128.6975629999998
 31
0.0053618274
 11
55.67354699999996
 21
128.7133619999996
 31
0.0053618274
 11
55.70120899999992
 21
128.7291609999996
 31
0.0053618274
 11
55.72887099999999
 21
128.7449599999997
 31
0.0053618274
 11
55.75653399999996
 21
128.7607599999996
 31
0.0053618274
 11
55.78419599999993
 21
128.7765609999997
 31
0.0053618274
 11
55.811858
 21
128.7923619999996
 31
0.0053618274
 11
55.83951999999997
 21
128.8081639999997
 31
0.0053618274
 11
55.86718299999994
 21
128.8239669999996
 31
0.0053618274
 11
55.89484500000001
 21
128.8397699999997
 31
0.0053618274
 11
55.92250699999997
 21
128.8555729999997
 31
0.0053618274
 11
55.95016999999994
 21
128.8713769999996
 31
0.0053618274
 11
55.97783200000002
 21
128.8871819999998
 31
0.0053618274
 11
56.00549399999998
 21
128.9029869999998
 31
0.0053618274
 11
56.03315699999993
 21
128.9187929999996
 31
0.0053618274
 11
56.06081900000002
 21
128.9345989999997
 31
0.0053618274
 11
56.08848099999998
 21
128.9504059999996
 31
0.0053618274
 11
56.11614299999993
 21
128.9662129999997
 31
0.0053618274
 11
56.14380600000002
 21
128.9820209999998
 31
0.0053618274
 11
56.17146799999998
 21
128.9978289999998
 31
0.0053618274
  0
SPLINE
  5
10800
330
1E
100
AcDbEntity
  8
CUT
100
AcDbSpline
210
0.0
220
0.0
230
1.0
 70
     8
 71
     3
 72
    36
 73
    32
 74
    30
 42
0.0000000001
 43
0.0000000001
 44
0.0000000001
 12
0.2335107208978621
 22
-0.9723542272370499
 32
0.0
 13
-0.2408791647663623
 23
-0.9705551133147769
 33
0.0
 40
0.0
 40
0.0
 40
0.0
 40
0.0
 40
0.6488895410606343
 40
1.294405071780753
 40
1.936710148866592
 40
2.575951474665981
 40
3.212152249341022
 40
3.845701861817524
 40
4.477071842307575
 40
5.106534234718737
 40
5.734071851316148
 40
6.36009717391999
 40
6.985037134449002
 40
7.608939631614135
 40
8.231999264050703
 40
8.854650089618383
 40
9.477248340635043
 40
10.09975651162157
 40
10.72252520694323
 40
11.34598521506895
 40
11.97032771507766
 40
12.59560301778049
 40
13.22223611708174
 40
13.8506373953555
 40
14.48079120930405
 40
15.1129677281096
 40
15.74763068224649
 40
16.38516509315317
 40
17.025598464142
 40
17.66907136525973
 40
18.31574767957144
 40
18.31574767957144
 40
18.31574767957144
 40
18.31574767957144
 10
61.40868899999996
 20
125.9990419999996
 30
0.0053618274
 10
61.45919655483868
 20
125.7887251705795
 30
0.0053618274
 10
61.55665599372937
 20
125.3683860676146
 30
0.0053618274
 10
61.69245003745611
 20
124.7372326971461
 30
0.0053618274
 10
61.81745385700897
 20
124.107130458321
 30
0.0053618274
 10
61.93167498956565
 20
123.4781396921287
 30
0.0053618274
 10
62.0350004353134
 20
122.8502244608222
 30
0.0053618274
 10
62.12756459108057
 20
122.2232854777862
 30
0.0053618274
 10
62.20952213792791
 20
121.5971376833928
 30
0.0053618274
 10
62.28098422852396
 20
120.9717217237792
 30
0.0053618274
 10
62.34178947299981
 20
120.3469692282397
 30
0.0053618274
 10
62.39205415071076
 20
119.7227934639209
 30
0.0053618274
 10
62.43187310624183
 20
119.0990785145773
 30
0.0053618274
 10
62.46123707942283
 20
118.4757732639369
 30
0.0053618274
 10
62.48010613127947
 20
117.8528253332719
 30
0.0053618274
 10
62.48851677152615
 20
117.2300834316839
 30
0.0053618274
 10
62.48650440923395
 20
116.6074719045792
 30
0.0053618274
 10
62.47407435230784
 20
115.9849418224317
 30
0.0053618274
 10
62.45118307557927
 20
115.3624208821456
 30
0.0053618274
 10
62.41778956923956
 20
114.7397626693852
 30
0.0053618274
 10
62.373929002106
 20
114.1169169190168
 30
0.0053618274
 10
62.31961950881839
 20
113.4938334519777
 30
0.0053618274
 10
62.25475347566981
 20
112.8703993910563
 30
0.0053618274
 10
62.17921407440941
 20
112.2465309130905
 30
0.0053618274
 10
62.09316439503176
 20
111.6221603917294
 30
0.0053618274
 10
61.99649092395248
 20
110.9972336544567
 30
0.0053618274
 10
61.88903631252178
 20
110.3715732708806
 30
0.0053618274
 10
61.77065704148936
 20
109.745087025127
 30
0.0053618274
 10
61.64147131962006
 20
109.1177414444113
 30
0.0053618274
 10
61.50147181255551
 20
108.4895996742566
 30
0.0053618274
 10
61.40118861682179
 20
108.0713836678381
 30
0.0053618274
 10
61.34926499999992
 20
107.8621719999999
 30
0.0053618274
 11
61.40868899999996
 21
125.9990419999996
 31
0.0053618274
 11
61.55522599999994
 21
125.3669149999997
 31
0.0053618274
 11
61.69097699999995
 21
124.7358349999998
 31
0.0053618274
 11
61.81594399999992
 21
124.1058039999996
 31
0.0053618274
 11
61.93011499999998
 21
123.4768409999998
 31
0.0053618274
 11
62.03341099999998
 21
122.8490819999997
 31
0.0053618274
 11
62.12594899999997
 21
122.2223269999996
 31
0.0053618274
 11
62.20789100000001
 21
121.5962969999996
 31
0.0053618274
 11
62.27930699999999
 21
120.9708989999996
 31
0.0053618274
 11
62.34009999999997
 21
120.3463129999998
 31
0.0053618274
 11
62.39035399999998
 21
119.7223079999996
 31
0.0053618274
 11
62.43015899999998
 21
119.0986369999996
 31
0.0053618274
 11
62.45950400000001
 21
118.4754249999997
 31
0.0053618274
 11
62.47836800000001
 21
117.8526509999997
 31
0.0053618274
 11
62.48677999999993
 21
117.2300569999996
 31
0.0053618274
 11
62.48476800000001
 21
116.6074619999996
 31
0.0053618274
 11
62.47233500000002
 21
115.9850779999996
 31
0.0053618274
 11
62.44944799999993
 21
115.3627299999999
 31
0.0053618274
 11
62.41607199999997
 21
114.7401639999998
 31
0.0053618274
 11
62.37222599999993
 21
114.1173629999997
 31
0.0053618274
 11
62.31792499999992
 21
113.4944499999996
 31
0.0053618274
 11
62.25307099999995
 21
112.8711819999997
 31
0.0053618274
 11
62.17757700000002
 21
112.2473319999996
 31
0.0053618274
 11
62.09154199999998
 21
111.6230789999997
 31
0.0053618274
 11
61.994894
 21
110.9983339999996
 31
0.0053618274
 11
61.88746699999999
 21
110.3728289999998
 31
0.0053618274
 11
61.76913799999997
 21
109.7463719999997
 31
0.0053618274
 11
61.63998799999999
 21
109.1190959999996
 31
0.0053618274
 11
61.50003100000001
 21
108.4910279999997
 31
0.0053618274
 11
61.34926499999992
 21
107.8621719999999
 31
0.0053618274
  0
SPLINE
  5
10801
330
1E
100
AcDbEntity
  8
CUT
100
AcDbSpline
210
0.0
220
0.0
230
1.0
 70
     8
 71
     3
 72
    36
 73
    32
 74
    30
 42
0.0000000001
 43
0.0000000001
 44
0.0000000001
 12
-0.8665330474900224
 22
0.4991197026842908
 32
0.0
 13
-0.8664596848069251
 23
0.4992470476670683
 33
0.0
 40
0.0
 40
0.0
 40
0.0
 40
0.0
 40
0.0426084127844828
 40
0.0852168255687173
 40
0.1278248709358069
 40
0.1704337828321845
 40
0.2130426947287351
 40
0.2556516066251429
 40
0.2982610176513972
 40
0.3408704286775148
 40
0.3834798397038177
 40
0.4260897498773656
 40
0.4686996600507901
 40
0.5113095702243993
 40
0.5539194803980278
 40
0.5965298897365651
 40
0.6391402990752143
 40
0.6817507084136461
 40
0.7243607504459926
 40
0.7669716589671958
 40
0.8095825674884613
 40
0.8521939752098763
 40
0.8948048837310487
 40
0.937416291452415
 40
0.9800281983917233
 40
1.022639606113132
 40
1.065251513052304
 40
1.107863419991557
 40
1.150475826166279
 40
1.193088232341025
 40
1.235700638515802
 40
1.235700638515802
 40
1.235700638515802
 40
1.235700638515802
 10
61.40868899999996
 20
125.9990419999996
 30
0.0053618274
 10
61.39638180074034
 20
126.0061308994399
 30
0.0053618274
 10
61.37176700000091
 20
126.0203079999995
 30
0.0053618274
 10
61.33484490501458
 20
126.0415735897156
 30
0.0053618274
 10
61.29792387253704
 20
126.0628413574119
 30
0.0053618274
 10
61.26100195892798
 20
126.0841079286946
 30
0.0053618274
 10
61.22408004145725
 20
126.1053750719731
 30
0.0053618274
 10
61.18715773107147
 20
126.1266418664525
 30
0.0053618274
 10
61.15023602506723
 20
126.1479100435191
 30
0.0053618274
 10
61.11331402449105
 20
126.1691780425154
 30
0.0053618274
 10
61.07639173279316
 20
126.1904458694638
 30
0.0053618274
 10
61.03947003512349
 20
126.2117150609737
 30
0.0053618274
 10
61.00254798254072
 20
126.2329839696912
 30
0.0053618274
 10
60.96562603471334
 20
126.2542530602593
 30
0.0053618274
 10
60.92870373442785
 20
126.2755218723224
 30
0.0053618274
 10
60.89178201833871
 20
126.2967920318359
 30
0.0053618274
 10
60.85486004804183
 20
126.31806208339
 30
0.0053618274
 10
60.81793789558564
 20
126.339331573488
 30
0.0053618274
 10
60.7810168619768
 20
126.3606033390147
 30
0.0053618274
 10
60.74409501072659
 20
126.3818740186173
 30
0.0053618274
 10
60.70717270066253
 20
126.4031448137582
 30
0.0053618274
 10
60.67025132152281
 20
126.4244172247505
 30
0.0053618274
 10
60.63332873416306
 20
126.445687871903
 30
0.0053618274
 10
60.59640673253444
 20
126.4669598691054
 30
0.0053618274
 10
60.55948532639726
 20
126.4882332331826
 30
0.0053618274
 10
60.52256268281117
 20
126.5095047827995
 30
0.0053618274
 10
60.48564107723776
 20
126.5307781340561
 30
0.0053618274
 10
60.4487187198605
 20
126.5520508471256
 30
0.0053618274
 10
60.4117970339876
 20
126.5733250589885
 30
0.0053618274
 10
60.37487500000017
 20
126.5945989999994
 30
0.0053618274
 10
60.3502603106743
 20
126.6087816273407
 30
0.0053618274
 10
60.33795299999995
 20
126.6158729999997
 30
0.0053618274
 11
61.40868899999996
 21
125.9990419999996
 31
0.0053618274
 11
61.37176699999995
 21
126.0203079999999
 31
0.0053618274
 11
61.33484499999995
 21
126.0415739999997
 31
0.0053618274
 11
61.29792399999995
 21
126.0628409999998
 31
0.0053618274
 11
61.26100199999993
 21
126.0841079999996
 31
0.0053618274
 11
61.22407999999993
 21
126.1053749999998
 31
0.0053618274
 11
61.18715799999993
 21
126.1266419999997
 31
0.0053618274
 11
61.15023599999993
 21
126.1479099999998
 31
0.0053618274
 11
61.11331399999992
 21
126.1691779999996
 31
0.0053618274
 11
61.07639199999992
 21
126.1904459999998
 31
0.0053618274
 11
61.0394699999999
 21
126.2117149999997
 31
0.0053618274
 11
61.00254800000001
 21
126.2329839999996
 31
0.0053618274
 11
60.96562600000002
 21
126.2542529999997
 31
0.0053618274
 11
60.92870400000002
 21
126.2755219999998
 31
0.0053618274
 11
60.89178199999999
 21
126.2967919999997
 31
0.0053618274
 11
60.85486000000001
 21
126.3180619999999
 31
0.0053618274
 11
60.81793799999999
 21
126.3393319999996
 31
0.0053618274
 11
60.78101700000001
 21
126.3606029999996
 31
0.0053618274
 11
60.74409499999998
 21
126.3818739999996
 31
0.0053618274
 11
60.70717299999999
 21
126.4031449999998
 31
0.0053618274
 11
60.67025099999998
 21
126.4244169999998
 31
0.0053618274
 11
60.63332899999998
 21
126.4456879999998
 31
0.0053618274
 11
60.59640699999998
 21
126.4669599999997
 31
0.0053618274
 11
60.55948499999997
 21
126.4882329999998
 31
0.0053618274
 11
60.52256299999997
 21
126.5095049999998
 31
0.0053618274
 11
60.48564099999996
 21
126.5307779999996
 31
0.0053618274
 11
60.44871899999996
 21
126.5520509999996
 31
0.0053618274
 11
60.41179699999997
 21
126.5733249999996
 31
0.0053618274
 11
60.37487499999995
 21
126.5945989999996
 31
0.0053618274
 11
60.33795299999995
 21
126.6158729999997
 31
0.0053618274
  0
SPLINE
  5
10802
330
1E
100
AcDbEntity
  8
CUT
100
AcDbSpline
210
0.0
220
0.0
230
1.0
 70
     8
 71
     3
 72
    36
 73
    32
 74
    30
 42
0.0000000001
 43
0.0000000001
 44
0.0000000001
 12
0.9986805803007033
 22
0.0513526876633606
 32
0.0
 13
0.9986265503077648
 23
0.0523928718473552
 33
0.0
 40
0.0
 40
0.0
 40
0.0
 40
0.0
 40
0.1151891745347922
 40
0.2303776074262281
 40
0.3455671933183742
 40
0.4607560379171709
 40
0.5759460357208286
 40
0.6911352925809245
 40
0.8063257544473824
 40
0.9215154241231351
 40
1.03670629907859
 40
1.151896382123884
 40
1.267087670722497
 40
1.382278167691661
 40
1.49746992230112
 40
1.6126608337481
 40
1.727853003178166
 40
1.84304432965724
 40
1.958236914461922
 40
2.073428708514299
 40
2.188621709247875
 40
2.303813919509715
 40
2.419006338083949
 40
2.534199963749628
 40
2.649392799364558
 40
2.764586894547452
 40
2.879780147756915
 40
2.994974660877161
 40
3.110168332235471
 40
3.225363263847001
 40
3.3405574062849
 40
3.3405574062849
 40
3.3405574062849
 40
3.3405574062849
 10
57.00189499999996
 20
126.4425529999998
 30
0.0053618274
 10
57.04024073055621
 20
126.4445247579005
 30
0.0053618274
 10
57.11693179635563
 20
126.4484711476049
 30
0.0053618274
 10
57.23196839597706
 20
126.4543957836822
 30
0.0053618274
 10
57.34700481285105
 20
126.4603218306283
 30
0.0053618274
 10
57.46204139294312
 20
126.4662548443359
 30
0.0053618274
 10
57.57707780919234
 20
126.4721889051818
 30
0.0053618274
 10
57.69211442874284
 20
126.4781294863395
 30
0.0053618274
 10
57.80715077340947
 20
126.4840732681382
 30
0.0053618274
 10
57.92218743399581
 20
126.4900213871636
 30
0.0053618274
 10
58.03722377184353
 20
126.4959733011976
 30
0.0053618274
 10
58.15226043584651
 20
126.5019293540722
 30
0.0053618274
 10
58.2672967668225
 20
126.5078894007049
 30
0.0053618274
 10
58.38233347216758
 20
126.5138529900017
 30
0.0053618274
 10
58.49736973086264
 20
126.5198227630604
 30
0.0053618274
 10
58.61240647706122
 20
126.5257938992456
 30
0.0053618274
 10
58.727442730954
 20
126.5317717630452
 30
0.0053618274
 10
58.84247947252692
 20
126.5377509900207
 30
0.0053618274
 10
58.95751576723641
 20
126.5437364010707
 30
0.0053618274
 10
59.07255243649064
 20
126.5497253525014
 30
0.0053618274
 10
59.18758877221844
 20
126.5557183079439
 30
0.0053618274
 10
59.30262510372664
 20
126.5617153442716
 30
0.0053618274
 10
59.41766143696189
 20
126.5677163475259
 30
0.0053618274
 10
59.53269776749593
 20
126.5737214022903
 30
0.0053618274
 10
59.64773447321163
 20
126.5797299900577
 30
0.0053618274
 10
59.76277073137774
 20
126.5857447624651
 30
0.0053618274
 10
59.87780747803378
 20
126.5917609013432
 30
0.0053618274
 10
59.99284373178377
 20
126.5977837564515
 30
0.0053618274
 10
60.10788047231216
 20
126.6038080140725
 30
0.0053618274
 10
60.22291677262995
 20
126.6098383126717
 30
0.0053618274
 10
60.29960769030714
 20
126.6138612160189
 30
0.0053618274
 10
60.33795299999995
 20
126.6158729999997
 30
0.0053618274
 11
57.00189499999996
 21
126.4425529999998
 31
0.0053618274
 11
57.11693199999999
 21
126.4484719999998
 31
0.0053618274
 11
57.23196799999993
 21
126.4543959999997
 31
0.0053618274
 11
57.34700499999995
 21
126.4603229999996
 31
0.0053618274
 11
57.46204099999998
 21
126.4662549999996
 31
0.0053618274
 11
57.57707800000001
 21
126.4721899999996
 31
0.0053618274
 11
57.69211399999992
 21
126.4781299999996
 31
0.0053618274
 11
57.80715099999995
 21
126.4840739999997
 31
0.0053618274
 11
57.92218699999999
 21
126.4900219999997
 31
0.0053618274
 11
58.03722400000001
 21
126.4959739999997
 31
0.0053618274
 11
58.15225999999993
 21
126.5019299999996
 31
0.0053618274
 11
58.26729699999996
 21
126.5078899999998
 31
0.0053618274
 11
58.38233299999998
 21
126.5138539999997
 31
0.0053618274
 11
58.49737000000001
 21
126.5198229999996
 31
0.0053618274
 11
58.61240599999995
 21
126.5257949999996
 31
0.0053618274
 11
58.72744299999997
 21
126.5317719999996
 31
0.0053618274
 11
58.842479
 21
126.5377519999997
 31
0.0053618274
 11
58.95751599999993
 21
126.5437369999997
 31
0.0053618274
 11
59.07255199999995
 21
126.5497259999998
 31
0.0053618274
 11
59.18758899999998
 21
126.5557189999997
 31
0.0053618274
 11
59.30262500000001
 21
126.5617159999999
 31
0.0053618274
 11
59.41766099999993
 21
126.5677169999998
 31
0.0053618274
 11
59.53269799999996
 21
126.5737219999996
 31
0.0053618274
 11
59.64773399999999
 21
126.5797309999997
 31
0.0053618274
 11
59.76277100000002
 21
126.5857449999996
 31
0.0053618274
 11
59.87780699999993
 21
126.5917619999996
 31
0.0053618274
 11
59.99284399999996
 21
126.5977839999999
 31
0.0053618274
 11
60.10788
 21
126.6038089999997
 31
0.0053618274
 11
60.22291699999993
 21
126.6098389999998
 31
0.0053618274
 11
60.33795299999995
 21
126.6158729999997
 31
0.0053618274
  0
SPLINE
  5
10803
330
1E
100
AcDbEntity
  8
CUT
100
AcDbSpline
210
0.0
220
0.0
230
1.0
 70
     8
 71
     3
 72
    36
 73
    32
 74
    30
 42
0.0000000001
 43
0.0000000001
 44
0.0000000001
 12
-0.6911586886285682
 22
-0.7227030283133164
 32
0.0
 13
-0.6912742880644664
 23
-0.7225924568253985
 33
0.0
 40
0.0
 40
0.0
 40
0.0
 40
0.0
 40
0.0256057460153562
 40
0.0512107693506388
 40
0.0768157926859732
 40
0.1024201248389547
 40
0.1280251481740065
 40
0.1536301715093561
 40
0.1792351948446954
 40
0.2048394955186714
 40
0.2304437961925138
 40
0.2560480968664179
 40
0.2816523975403987
 40
0.3072566982140822
 40
0.3328609988881403
 40
0.3584645769193458
 40
0.3840681549507067
 40
0.4096717329818925
 40
0.4352746197917895
 40
0.4608781978229852
 40
0.4864810532300049
 40
0.5120846312612054
 40
0.537687486668369
 40
0.5632903420756713
 40
0.5888931974827482
 40
0.6144960528899118
 40
0.6400981856916245
 40
0.6657010410989117
 40
0.6913031739006196
 40
0.7169053067024711
 40
0.742507439504179
 40
0.742507439504179
 40
0.742507439504179
 40
0.742507439504179
 10
57.00189499999996
 20
126.4425529999998
 30
0.0053618274
 10
56.99599578872085
 20
126.4363845499373
 30
0.0053618274
 10
56.98419724975064
 20
126.4240480944649
 30
0.0053618274
 10
56.96649902505467
 20
126.4055439760376
 30
0.0053618274
 10
56.94880097578317
 20
126.3870403419657
 30
0.0053618274
 10
56.93110402727917
 20
126.3685356551047
 30
0.0053618274
 10
56.91340595963319
 20
126.3500320386065
 30
0.0053618274
 10
56.89570797493878
 20
126.3315280239707
 30
0.0053618274
 10
56.87801030710938
 20
126.3130240395926
 30
0.0053618274
 10
56.86031196213618
 20
126.2945210362152
 30
0.0053618274
 10
56.84261401085183
 20
126.2760179896202
 30
0.0053618274
 10
56.82491599445638
 20
126.257515005302
 30
0.0053618274
 10
56.80721801132256
 20
126.2390119891695
 30
0.0053618274
 10
56.78951996025382
 20
126.2205090380177
 30
0.0053618274
 10
56.77182231415976
 20
126.2020060328332
 30
0.0053618274
 10
56.75412394862261
 20
126.183504049143
 30
0.0053618274
 10
56.73642605785608
 20
126.1650019446594
 30
0.0053618274
 10
56.71872797921951
 20
126.146500338715
 30
0.0053618274
 10
56.70103098084182
 20
126.127997699488
 30
0.0053618274
 10
56.68333330834405
 20
126.1094960383772
 30
0.0053618274
 10
56.66563462553805
 20
126.0909950248665
 30
0.0053618274
 10
56.64793735699161
 20
126.0724929918449
 30
0.0053618274
 10
56.63023894551123
 20
126.0539920521223
 30
0.0053618274
 10
56.61254102747006
 20
126.0354909737218
 30
0.0053618274
 10
56.59484294460845
 20
126.0169900529882
 30
0.0053618274
 10
56.57714536059399
 20
125.9984889883806
 30
0.0053618274
 10
56.55944661203209
 20
125.9799890378052
 30
0.0053618274
 10
56.54174935876246
 20
125.9614879901327
 30
0.0053618274
 10
56.52405095193608
 20
125.9429880459784
 30
0.0053618274
 10
56.50635300000035
 20
125.9244879999998
 30
0.0053618274
 10
56.49455436537511
 20
125.9121546360134
 30
0.0053618274
 10
56.48865499999997
 20
125.9059879999997
 30
0.0053618274
 11
57.00189499999996
 21
126.4425529999998
 31
0.0053618274
 11
56.98419699999997
 21
126.4240479999997
 31
0.0053618274
 11
56.96649899999997
 21
126.4055439999997
 31
0.0053618274
 11
56.94880099999998
 21
126.3870399999996
 31
0.0053618274
 11
56.93110399999998
 21
126.3685359999996
 31
0.0053618274
 11
56.91340599999999
 21
126.3500319999999
 31
0.0053618274
 11
56.89570799999999
 21
126.3315279999998
 31
0.0053618274
 11
56.87801
 21
126.3130239999997
 31
0.0053618274
 11
56.860312
 21
126.2945209999996
 31
0.0053618274
 11
56.842614
 21
126.2760179999997
 31
0.0053618274
 11
56.82491600000001
 21
126.2575149999997
 31
0.0053618274
 11
56.807218
 21
126.2390119999996
 31
0.0053618274
 11
56.78952000000002
 21
126.2205089999999
 31
0.0053618274
 11
56.77182200000002
 21
126.2020059999997
 31
0.0053618274
 11
56.75412400000002
 21
126.1835039999997
 31
0.0053618274
 11
56.7364259999999
 21
126.1650019999996
 31
0.0053618274
 11
56.71872799999992
 21
126.1464999999996
 31
0.0053618274
 11
56.70103099999992
 21
126.1279979999996
 31
0.0053618274
 11
56.68333299999993
 21
126.1094959999996
 31
0.0053618274
 11
56.66563499999993
 21
126.0909949999998
 31
0.0053618274
 11
56.64793699999993
 21
126.0724929999998
 31
0.0053618274
 11
56.63023899999993
 21
126.0539919999998
 31
0.0053618274
 11
56.61254099999993
 21
126.0354909999996
 31
0.0053618274
 11
56.59484299999995
 21
126.0169899999997
 31
0.0053618274
 11
56.57714499999995
 21
125.9984889999997
 31
0.0053618274
 11
56.55944699999995
 21
125.9799889999998
 31
0.0053618274
 11
56.54174899999996
 21
125.9614879999996
 31
0.0053618274
 11
56.52405099999996
 21
125.9429879999997
 31
0.0053618274
 11
56.50635299999997
 21
125.9244879999996
 31
0.0053618274
 11
56.48865499999997
 21
125.9059879999997
 31
0.0053618274
  0
SPLINE
  5
10804
330
1E
100
AcDbEntity
  8
CUT
100
AcDbSpline
210
0.0
220
0.0
230
1.0
 70
    24
 71
     3
 72
    36
 73
    32
 74
    30
 42
0.0000000001
 43
0.0000000001
 44
0.0000000001
 12
0.0
 22
-1.0
 32
0.0
 13
0.0
 23
-1.0
 33
0.0
 40
0.0
 40
0.0
 40
0.0
 40
0.0
 40
0.635107000000005
 40
1.270201999999898
 40
1.905284999999793
 40
2.540353999999794
 40
3.175411000000096
 40
3.810454999999905
 40
4.44548500000009
 40
5.080502000000095
 40
5.715505000000092
 40
6.3504929999999
 40
6.985467999999997
 40
7.620428000000003
 40
8.255374000000102
 40
8.890304999999898
 40
9.525219999999791
 40
10.16012000000009
 40
10.79500400000009
 40
11.42987299999979
 40
12.06472499999999
 40
12.6995610000001
 40
13.33437999999999
 40
13.96918200000009
 40
14.60396699999999
 40
15.23873399999999
 40
15.87348300000009
 40
16.50821399999999
 40
17.1429260000001
 40
17.7776199999999
 40
18.4122940000001
 40
18.4122940000001
 40
18.4122940000001
 40
18.4122940000001
 10
56.48865499999997
 20
125.9059879999997
 30
0.0053618274
 10
56.48865499999997
 20
125.6942856666663
 30
0.0053618274
 10
56.48865499999998
 20
125.2708849999997
 30
0.0053618274
 10
56.48865499999995
 20
124.6357899999998
 30
0.0053618274
 10
56.48865499999998
 20
124.0007076666665
 30
0.0053618274
 10
56.48865499999998
 20
123.3656379999998
 30
0.0053618274
 10
56.48865499999996
 20
122.730581333333
 30
0.0053618274
 10
56.48865499999998
 20
122.0955376666663
 30
0.0053618274
 10
56.48865499999996
 20
121.460507333333
 30
0.0053618274
 10
56.48865499999997
 20
120.8254906666663
 30
0.0053618274
 10
56.48865499999995
 20
120.1904879999996
 30
0.0053618274
 10
56.48865499999998
 20
119.555499333333
 30
0.0053618274
 10
56.48865499999998
 20
118.9205249999997
 30
0.0053618274
 10
56.48865499999996
 20
118.2855646666663
 30
0.0053618274
 10
56.48865499999999
 20
117.6506189999997
 30
0.0053618274
 10
56.48865499999995
 20
117.0156883333331
 30
0.0053618274
 10
56.48865499999996
 20
116.3807729999997
 30
0.0053618274
 10
56.48865499999998
 20
115.745873333333
 30
0.0053618274
 10
56.48865499999997
 20
115.1109889999997
 30
0.0053618274
 10
56.48865499999997
 20
114.4761206666663
 30
0.0053618274
 10
56.48865499999997
 20
113.8412683333331
 30
0.0053618274
 10
56.48865499999996
 20
113.2064326666663
 30
0.0053618274
 10
56.48865499999998
 20
112.5716136666663
 30
0.0053618274
 10
56.48865499999996
 20
111.9368116666663
 30
0.0053618274
 10
56.48865499999998
 20
111.3020269999997
 30
0.0053618274
 10
56.48865499999996
 20
110.6672599999996
 30
0.0053618274
 10
56.48865499999999
 20
110.0325109999997
 30
0.0053618274
 10
56.48865499999996
 20
109.397780333333
 30
0.0053618274
 10
56.48865499999997
 20
108.7630679999997
 30
0.0053618274
 10
56.48865499999996
 20
108.1283746666663
 30
0.0053618274
 10
56.48865499999997
 20
107.7052519999996
 30
0.0053618274
 10
56.48865499999997
 20
107.4936939999996
 30
0.0053618274
 11
56.48865499999997
 21
125.9059879999997
 31
0.0053618274
 11
56.48865499999997
 21
125.2708809999997
 31
0.0053618274
 11
56.48865499999997
 21
124.6357859999998
 31
0.0053618274
 11
56.48865499999997
 21
124.0007029999999
 31
0.0053618274
 11
56.48865499999997
 21
123.3656339999999
 31
0.0053618274
 11
56.48865499999997
 21
122.7305769999996
 31
0.0053618274
 11
56.48865499999997
 21
122.0955329999998
 31
0.0053618274
 11
56.48865499999997
 21
121.4605029999996
 31
0.0053618274
 11
56.48865499999997
 21
120.8254859999996
 31
0.0053618274
 11
56.48865499999997
 21
120.1904829999996
 31
0.0053618274
 11
56.48865499999997
 21
119.5554949999998
 31
0.0053618274
 11
56.48865499999997
 21
118.9205199999997
 31
0.0053618274
 11
56.48865499999997
 21
118.2855599999997
 31
0.0053618274
 11
56.48865499999997
 21
117.6506139999996
 31
0.0053618274
 11
56.48865499999997
 21
117.0156829999998
 31
0.0053618274
 11
56.48865499999997
 21
116.3807679999999
 31
0.0053618274
 11
56.48865499999997
 21
115.7458679999996
 31
0.0053618274
 11
56.48865499999997
 21
115.1109839999996
 31
0.0053618274
 11
56.48865499999997
 21
114.4761149999999
 31
0.0053618274
 11
56.48865499999997
 21
113.8412629999997
 31
0.0053618274
 11
56.48865499999997
 21
113.2064269999996
 31
0.0053618274
 11
56.48865499999997
 21
112.5716079999997
 31
0.0053618274
 11
56.48865499999997
 21
111.9368059999996
 31
0.0053618274
 11
56.48865499999997
 21
111.3020209999997
 31
0.0053618274
 11
56.48865499999997
 21
110.6672539999997
 31
0.0053618274
 11
56.48865499999997
 21
110.0325049999996
 31
0.0053618274
 11
56.48865499999997
 21
109.3977739999997
 31
0.0053618274
 11
56.48865499999997
 21
108.7630619999996
 31
0.0053618274
 11
56.48865499999997
 21
108.1283679999998
 31
0.0053618274
 11
56.48865499999997
 21
107.4936939999996
 31
0.0053618274
  0
SPLINE
  5
10805
330
1E
100
AcDbEntity
  8
CUT
100
AcDbSpline
210
0.0
220
0.0
230
1.0
 70
     8
 71
     3
 72
    36
 73
    32
 74
    30
 42
0.0000000001
 43
0.0000000001
 44
0.0000000001
 12
0.727090604007876
 22
-0.6865415162708387
 32
0.0
 13
0.7271146567296563
 23
-0.6865160420331883
 33
0.0
 40
0.0
 40
0.0
 40
0.0
 40
0.0
 40
0.0243408447880626
 40
0.0486816895761934
 40
0.0730225343643828
 40
0.0973633791525086
 40
0.1217042239406445
 40
0.1460450687287123
 40
0.1703859135168328
 40
0.1947260717741827
 40
0.2190669165625334
 40
0.2434077613505277
 40
0.2677479196081657
 40
0.2920887643962816
 40
0.3164288821034737
 40
0.3407690403609545
 40
0.3651091986184754
 40
0.3894500434066114
 40
0.413790201664176
 40
0.4381310464523017
 40
0.4624712047097934
 40
0.4868113629672213
 40
0.5111515212246492
 40
0.5354916794820674
 40
0.5598318377397684
 40
0.5841719959972647
 40
0.6085121542546927
 40
0.6328515854106735
 40
0.6571917436683011
 40
0.6815319019257926
 40
0.7058720601832153
 40
0.7058720601832153
 40
0.7058720601832153
 40
0.7058720601832153
 10
56.48865499999997
 20
107.4936939999996
 30
0.0053618274
 10
56.49455433317964
 20
107.4881236665035
 30
0.0053618274
 10
56.5063530000001
 20
107.4769829999998
 30
0.0053618274
 10
56.52405100023007
 20
107.4602720002433
 30
0.0053618274
 10
56.5417489990795
 20
107.4435609990248
 30
0.0053618274
 10
56.55944700345163
 20
107.4268500036552
 30
0.0053618274
 10
56.57714498711367
 20
107.4101389863518
 30
0.0053618274
 10
56.59484304809338
 20
107.3934280509351
 30
0.0053618274
 10
56.61254065412471
 20
107.3767169670185
 30
0.0053618274
 10
56.63023933705482
 20
107.3600070236393
 30
0.0053618274
 10
56.64793699601024
 20
107.3432959957745
 30
0.0053618274
 10
56.66563467890313
 20
107.3265849932603
 30
0.0053618274
 10
56.68333329002388
 20
107.3098749738319
 30
0.0053618274
 10
56.70103098314196
 20
107.2931643351566
 30
0.0053618274
 10
56.71872772013099
 20
107.276452683914
 30
0.0053618274
 10
56.73642602892005
 20
107.2597430306259
 30
0.0053618274
 10
56.75412434041268
 20
107.2430330271963
 30
0.0053618274
 10
56.77182160778109
 20
107.2263219179358
 30
0.0053618274
 10
56.78952039650014
 20
107.2096120865974
 30
0.0053618274
 10
56.80721763818072
 20
107.192900950132
 30
0.0053618274
 10
56.8249160524224
 20
107.1761910555199
 30
0.0053618274
 10
56.84261398573259
 20
107.1594809848891
 30
0.0053618274
 10
56.86031200464723
 20
107.1427710049216
 30
0.0053618274
 10
56.87800999567852
 20
107.1260609954229
 30
0.0053618274
 10
56.89570801263911
 20
107.1093510133857
 30
0.0053618274
 10
56.91340595376468
 20
107.092640951032
 30
0.0053618274
 10
56.93110399607185
 20
107.0759313488715
 30
0.0053618274
 10
56.94880100459339
 20
107.0592206518325
 30
0.0053618274
 10
56.96649904290914
 20
107.0425110454445
 30
0.0053618274
 10
56.98419699999961
 20
107.0258009999997
 30
0.0053618274
 10
56.99599563806127
 20
107.0146609697028
 30
0.0053618274
 10
57.00189499999996
 20
107.0090909999997
 30
0.0053618274
 11
56.48865499999997
 21
107.4936939999996
 31
0.0053618274
 11
56.50635299999997
 21
107.4769829999997
 31
0.0053618274
 11
56.52405099999996
 21
107.4602719999997
 31
0.0053618274
 11
56.54174899999996
 21
107.4435609999996
 31
0.0053618274
 11
56.55944699999995
 21
107.4268499999996
 31
0.0053618274
 11
56.57714499999995
 21
107.4101389999996
 31
0.0053618274
 11
56.59484299999995
 21
107.3934279999997
 31
0.0053618274
 11
56.61254099999993
 21
107.3767169999997
 31
0.0053618274
 11
56.63023899999993
 21
107.3600069999999
 31
0.0053618274
 11
56.64793699999993
 21
107.3432959999996
 31
0.0053618274
 11
56.66563499999993
 21
107.3265849999998
 31
0.0053618274
 11
56.68333299999993
 21
107.3098749999996
 31
0.0053618274
 11
56.70103099999992
 21
107.2931639999996
 31
0.0053618274
 11
56.71872799999992
 21
107.2764529999996
 31
0.0053618274
 11
56.7364259999999
 21
107.2597429999996
 31
0.0053618274
 11
56.75412400000002
 21
107.2430329999997
 31
0.0053618274
 11
56.77182200000002
 21
107.2263219999997
 31
0.0053618274
 11
56.78952000000002
 21
107.2096119999996
 31
0.0053618274
 11
56.807218
 21
107.1929009999996
 31
0.0053618274
 11
56.82491600000001
 21
107.1761909999996
 31
0.0053618274
 11
56.842614
 21
107.1594809999997
 31
0.0053618274
 11
56.860312
 21
107.1427709999998
 31
0.0053618274
 11
56.87801
 21
107.1260609999999
 31
0.0053618274
 11
56.89570799999999
 21
107.1093509999996
 31
0.0053618274
 11
56.91340599999999
 21
107.0926409999996
 31
0.0053618274
 11
56.93110399999998
 21
107.0759309999997
 31
0.0053618274
 11
56.94880099999998
 21
107.0592209999998
 31
0.0053618274
 11
56.96649899999997
 21
107.0425109999996
 31
0.0053618274
 11
56.98419699999997
 21
107.0258009999996
 31
0.0053618274
 11
57.00189499999996
 21
107.0090909999997
 31
0.0053618274
  0
SPLINE
  5
10806
330
1E
100
AcDbEntity
  8
CUT
100
AcDbSpline
210
0.0
220
0.0
230
1.0
 70
     8
 71
     3
 72
    36
 73
    32
 74
    30
 42
0.0000000001
 43
0.0000000001
 44
0.0000000001
 12
0.9987893658635922
 22
0.0491914894855138
 32
0.0
 13
0.9987280446730956
 23
0.0504211541265679
 33
0.0
 40
0.0
 40
0.0
 40
0.0
 40
0.0
 40
0.115176598881925
 40
0.2303524451865477
 40
0.3455294873998417
 40
0.4607058267756304
 40
0.5758833624021868
 40
0.691060146282365
 40
0.8062381761882749
 40
0.9214154547852711
 40
1.036593979836611
 40
1.151771704419032
 40
1.266950725481927
 40
1.382128946426695
 40
1.497308414640469
 40
1.612487132813512
 40
1.72766709868434
 40
1.842846314951896
 40
1.958026729454461
 40
2.07320644468248
 40
2.188387358487689
 40
2.303567523520593
 40
2.418747938748103
 40
2.533929603130967
 40
2.649110519397546
 40
2.764292635062286
 40
2.879474053233706
 40
2.994656671145467
 40
3.10983854177192
 40
3.22502166279659
 40
3.340204036973398
 40
3.340204036973398
 40
3.340204036973398
 40
3.340204036973398
 10
57.00189499999996
 20
107.0090909999997
 30
0.0053618274
 10
57.04024072071983
 20
107.010979569484
 30
0.0053618274
 10
57.11693179084928
 20
107.0147591481378
 30
0.0053618274
 10
57.2319684204942
 20
107.0204335666286
 30
0.0053618274
 10
57.34700482968799
 20
107.0261106989501
 30
0.0053618274
 10
57.46204141921147
 20
107.0317955960094
 30
0.0053618274
 10
57.57707779704414
 20
107.0374830308745
 30
0.0053618274
 10
57.69211445377706
 20
107.0431762340511
 30
0.0053618274
 10
57.80715079127809
 20
107.048874151915
 30
0.0053618274
 10
57.92218746001307
 20
107.0545771126437
 30
0.0053618274
 10
58.03722375686803
 20
107.0602855159607
 30
0.0053618274
 10
58.15226049365324
 20
107.0659967729407
 30
0.0053618274
 10
58.26729675704171
 20
107.0717155159046
 30
0.0053618274
 10
58.38233346041134
 20
107.0774371128311
 30
0.0053618274
 10
58.49736979192961
 20
107.0831641517284
 30
0.0053618274
 10
58.61240645456794
 20
107.088896234566
 30
0.0053618274
 10
58.72744279822141
 20
107.0946330300623
 30
0.0053618274
 10
58.84247941994297
 20
107.1003755986499
 30
0.0053618274
 10
58.95751583205137
 20
107.106120690678
 30
0.0053618274
 10
59.07255242018585
 20
107.1118735970727
 30
0.0053618274
 10
59.18758879831333
 20
107.1176290366327
 30
0.0053618274
 10
59.30262512393055
 20
107.1233901931835
 30
0.0053618274
 10
59.41766145560521
 20
107.129156228204
 30
0.0053618274
 10
59.53269779892119
 20
107.134927031651
 30
0.0053618274
 10
59.64773442045808
 20
107.1407035986003
 30
0.0053618274
 10
59.76277083305564
 20
107.1464826901597
 30
0.0053618274
 10
59.87780742059188
 20
107.152269599198
 30
0.0053618274
 10
59.99284379944931
 20
107.1580590295208
 30
0.0053618274
 10
60.10788045583061
 20
107.1638542361018
 30
0.0053618274
 10
60.22291679371285
 20
107.1696541478542
 30
0.0053618274
 10
60.29960771088582
 20
107.1735241239194
 30
0.0053618274
 10
60.33795299999995
 20
107.1754599999998
 30
0.0053618274
 11
57.00189499999996
 21
107.0090909999997
 31
0.0053618274
 11
57.11693199999999
 21
107.0147599999998
 31
0.0053618274
 11
57.23196799999993
 21
107.0204339999998
 31
0.0053618274
 11
57.34700499999995
 21
107.0261119999996
 31
0.0053618274
 11
57.46204099999998
 21
107.0317959999997
 31
0.0053618274
 11
57.57707800000001
 21
107.0374839999997
 31
0.0053618274
 11
57.69211399999992
 21
107.0431769999997
 31
0.0053618274
 11
57.80715099999995
 21
107.0488749999997
 31
0.0053618274
 11
57.92218699999999
 21
107.0545779999998
 31
0.0053618274
 11
58.03722400000001
 21
107.0602859999997
 31
0.0053618274
 11
58.15225999999993
 21
107.0659979999998
 31
0.0053618274
 11
58.26729699999996
 21
107.0717159999998
 31
0.0053618274
 11
58.38233299999998
 21
107.0774379999996
 31
0.0053618274
 11
58.49737000000001
 21
107.0831649999997
 31
0.0053618274
 11
58.61240599999995
 21
107.0888969999996
 31
0.0053618274
 11
58.72744299999997
 21
107.0946339999996
 31
0.0053618274
 11
58.842479
 21
107.1003759999997
 31
0.0053618274
 11
58.95751599999993
 21
107.1061219999996
 31
0.0053618274
 11
59.07255199999995
 21
107.1118739999999
 31
0.0053618274
 11
59.18758899999998
 21
107.1176299999996
 31
0.0053618274
 11
59.30262500000001
 21
107.1233909999997
 31
0.0053618274
 11
59.41766099999993
 21
107.1291569999996
 31
0.0053618274
 11
59.53269799999996
 21
107.1349279999996
 31
0.0053618274
 11
59.64773399999999
 21
107.1407039999997
 31
0.0053618274
 11
59.76277100000002
 21
107.1464839999996
 31
0.0053618274
 11
59.87780699999993
 21
107.1522699999996
 31
0.0053618274
 11
59.99284399999996
 21
107.1580599999996
 31
0.0053618274
 11
60.10788
 21
107.1638549999996
 31
0.0053618274
 11
60.22291699999993
 21
107.1696549999996
 31
0.0053618274
 11
60.33795299999995
 21
107.1754599999998
 31
0.0053618274
  0
SPLINE
  5
10807
330
1E
100
AcDbEntity
  8
CUT
100
AcDbSpline
210
0.0
220
0.0
230
1.0
 70
     8
 71
     3
 72
    36
 73
    32
 74
    30
 42
0.0000000001
 43
0.0000000001
 44
0.0000000001
 12
-0.8271950748803542
 22
-0.5619148584026635
 32
0.0
 13
-0.8274270725550806
 23
-0.5615731827668851
 33
0.0
 40
0.0
 40
0.0
 40
0.0
 40
0.0
 40
0.0421579749277609
 40
0.0843145607478449
 40
0.1264719737732571
 40
0.1686282630430357
 40
0.2107851141825543
 40
0.2529408415988902
 40
0.2950957417766479
 40
0.3372509073557884
 40
0.3794060729348632
 40
0.4215606766928385
 40
0.4637147186461172
 40
0.505868760599543
 40
0.5480214134817159
 40
0.5901743318740596
 40
0.6323272502663974
 40
0.6744796069028281
 40
0.7166314017994332
 40
0.7587831966960068
 40
0.8009336025420765
 40
0.84308483571518
 40
0.8852355071807306
 40
0.9273856169551894
 40
0.969535726729622
 40
1.011683885799844
 40
1.053833433899351
 40
1.09598185869781
 40
1.138130283496517
 40
1.18027870829505
 40
1.222426009857491
 40
1.222426009857491
 40
1.222426009857491
 40
1.222426009857491
 10
61.34926499999992
 20
107.8621719999999
 30
0.0053618274
 10
61.33764071025753
 20
107.8542756024958
 30
0.0053618274
 10
61.31439240786703
 20
107.8384832236071
 30
0.0053618274
 10
61.27951976864391
 20
107.8147948498807
 30
0.0053618274
 10
61.24464761381798
 20
107.7911067629729
 30
0.0053618274
 10
61.20977356212065
 20
107.767421311346
 30
0.0053618274
 10
61.1749016729067
 20
107.7437336759426
 30
0.0053618274
 10
61.14002798845418
 20
107.7200495077788
 30
0.0053618274
 10
61.10515620672082
 20
107.6963635381721
 30
0.0053618274
 10
61.07028290047937
 20
107.6726801465324
 30
0.0053618274
 10
61.03541027309812
 20
107.6489959312109
 30
0.0053618274
 10
61.00053724651199
 20
107.625312970336
 30
0.0053618274
 10
60.96566398023042
 20
107.6016310291104
 30
0.0053618274
 10
60.9307913705366
 20
107.5779492785528
 30
0.0053618274
 10
60.89591914574
 20
107.5542676278362
 30
0.0053618274
 10
60.86104591702497
 20
107.5305881221925
 30
0.0053618274
 10
60.82617326785285
 20
107.5069079388674
 30
0.0053618274
 10
60.79130025087046
 20
107.4832289638555
 30
0.0053618274
 10
60.75642696796462
 20
107.4595510471813
 30
0.0053618274
 10
60.72155441524665
 20
107.4358732126905
 30
0.0053618274
 10
60.68668182433547
 20
107.4121957677783
 30
0.0053618274
 10
60.65180922828625
 20
107.388518997093
 30
0.0053618274
 10
60.61693627361251
 20
107.3648429303105
 30
0.0053618274
 10
60.58206291650524
 20
107.3411681229888
 30
0.0053618274
 10
60.54719075324134
 20
107.3174930481278
 30
0.0053618274
 10
60.512317453297
 20
107.2938199809748
 30
0.0053618274
 10
60.47744559980292
 20
107.2701457830907
 30
0.0053618274
 10
60.44257193299399
 20
107.2464740987062
 30
0.0053618274
 10
60.40769897802504
 20
107.2228020323727
 30
0.0053618274
 10
60.37282646468743
 20
107.1991299820854
 30
0.0053618274
 10
60.34957760611591
 20
107.1833495980943
 30
0.0053618274
 10
60.33795299999995
 20
107.1754599999998
 30
0.0053618274
 11
61.34926499999992
 21
107.8621719999999
 31
0.0053618274
 11
61.31439199999999
 21
107.8384829999996
 31
0.0053618274
 11
61.27951999999989
 21
107.8147949999996
 31
0.0053618274
 11
61.24464699999997
 21
107.7911069999996
 31
0.0053618274
 11
61.20977400000001
 21
107.7674209999996
 31
0.0053618274
 11
61.17490099999995
 21
107.7437339999997
 31
0.0053618274
 11
61.14002800000001
 21
107.7200489999996
 31
0.0053618274
 11
61.10515599999993
 21
107.6963639999998
 31
0.0053618274
 11
61.07028299999999
 21
107.6726799999996
 31
0.0053618274
 11
61.03540999999993
 21
107.6489959999997
 31
0.0053618274
 11
61.00053699999999
 21
107.6253129999998
 31
0.0053618274
 11
60.96566399999993
 21
107.6016309999999
 31
0.0053618274
 11
60.93079099999997
 21
107.5779489999996
 31
0.0053618274
 11
60.89591899999991
 21
107.5542679999996
 31
0.0053618274
 11
60.86104599999996
 21
107.5305879999997
 31
0.0053618274
 11
60.82617300000002
 21
107.5069079999998
 31
0.0053618274
 11
60.79129999999995
 21
107.4832289999998
 31
0.0053618274
 11
60.75642700000001
 21
107.4595509999996
 31
0.0053618274
 11
60.72155399999996
 21
107.4358729999996
 31
0.0053618274
 11
60.686682
 21
107.4121959999998
 31
0.0053618274
 11
60.65180899999994
 21
107.3885189999996
 31
0.0053618274
 11
60.61693599999999
 21
107.3648429999996
 31
0.0053618274
 11
60.58206299999993
 21
107.3411679999997
 31
0.0053618274
 11
60.54718999999998
 21
107.3174929999997
 31
0.0053618274
 11
60.51231799999992
 21
107.2938199999996
 31
0.0053618274
 11
60.47744499999996
 21
107.2701459999997
 31
0.0053618274
 11
60.44257200000002
 21
107.2464739999998
 31
0.0053618274
 11
60.40769899999997
 21
107.2228019999996
 31
0.0053618274
 11
60.37282600000001
 21
107.1991299999996
 31
0.0053618274
 11
60.33795299999995
 21
107.1754599999998
 31
0.0053618274
  0
SPLINE
  5
10808
330
1E
100
AcDbEntity
  8
CUT
100
AcDbSpline
210
0.0
220
0.0
230
1.0
 70
     8
 71
     3
 72
    36
 73
    32
 74
    30
 42
0.0000000001
 43
0.0000000001
 44
0.0000000001
 12
0.8575301359438734
 22
-0.5144337332913562
 32
0.0
 13
0.8573860799361066
 23
-0.5146737898239977
 33
0.0
 40
0.0
 40
0.0
 40
0.0
 40
0.0
 40
0.0635656076977671
 40
0.1271281283841555
 40
0.1906884195808743
 40
0.2542475102287956
 40
0.3178029994095173
 40
0.3813576310895518
 40
0.4449100332866652
 40
0.5084598630109891
 40
0.5720083207421072
 40
0.6355542060298062
 40
0.6990978618420188
 40
0.7626398027158993
 40
0.826179514117504
 40
0.8897175105998577
 40
0.953253277613507
 40
1.016785957708065
 40
1.08031778035626
 40
1.143846516098315
 40
1.207373536971479
 40
1.270899185815086
 40
1.334422262377811
 40
1.397943109483311
 40
1.461461384349582
 40
1.524978287170901
 40
1.588492960538529
 40
1.652005061700347
 40
1.715516305468779
 40
1.779024462401551
 40
1.842530389888663
 40
1.842530389888663
 40
1.842530389888663
 40
1.842530389888663
 10
61.40868899999996
 20
125.9990419999996
 30
0.0053618274
 10
61.4268588080701
 20
125.9881419023739
 30
0.0053618274
 10
61.46319717641411
 20
125.9663416273878
 30
0.0053618274
 10
61.51770329763738
 20
125.933641273839
 30
0.0053618274
 10
61.57220794654691
 20
125.9009426887597
 30
0.0053618274
 10
61.62670884736128
 20
125.8682424122552
 30
0.0053618274
 10
61.68120886980851
 20
125.8355443385809
 30
0.0053618274
 10
61.73570629100209
 20
125.8028462627826
 30
0.0053618274
 10
61.79020252496288
 20
125.7701498749284
 30
0.0053618274
 10
61.84469543270353
 20
125.7374519434065
 30
0.0053618274
 10
61.89918752857336
 20
125.7047568809105
 30
0.0053618274
 10
61.95367627668689
 20
125.6720602389278
 30
0.0053618274
 10
62.00816367857052
 20
125.6393655753362
 30
0.0053618274
 10
62.06264830337619
 20
125.6066702834103
 30
0.0053618274
 10
62.11713166698034
 20
125.573976555997
 30
0.0053618274
 10
62.17161232314137
 20
125.541282316348
 30
0.0053618274
 10
62.22609120744393
 20
125.5085896790107
 30
0.0053618274
 10
62.28056778872344
 20
125.4758972033845
 30
0.0053618274
 10
62.33504215758912
 20
125.4432055959249
 30
0.0053618274
 10
62.38951466974593
 20
125.4105145605407
 30
0.0053618274
 10
62.44398445811033
 20
125.377822985835
 30
0.0053618274
 10
62.49845352750982
 20
125.3451338789266
 30
0.0053618274
 10
62.55291925624736
 20
125.3124432048973
 30
0.0053618274
 10
62.60738351680675
 20
125.2797548610426
 30
0.0053618274
 10
62.66184450109728
 20
125.2470650574836
 30
0.0053618274
 10
62.7163043615378
 20
125.2143773803265
 30
0.0053618274
 10
62.77076246516612
 20
125.1816907749656
 30
0.0053618274
 10
62.82521774960412
 20
125.1490031381659
 30
0.0053618274
 10
62.87967120379017
 20
125.1163166728285
 30
0.0053618274
 10
62.9341223775867
 20
125.0836304070528
 30
0.0053618274
 10
62.970422300593
 20
125.0618399454584
 30
0.0053618274
 10
62.98857199999996
 20
125.0509449999997
 30
0.0053618274
 11
61.40868899999996
 21
125.9990419999996
 31
0.0053618274
 11
61.46319800000001
 21
125.9663409999999
 31
0.0053618274
 11
61.51770399999996
 21
125.9336409999997
 31
0.0053618274
 11
61.57220800000001
 21
125.9009419999996
 31
0.0053618274
 11
61.62670999999998
 21
125.8682419999997
 31
0.0053618274
 11
61.68120899999993
 21
125.8355439999996
 31
0.0053618274
 11
61.73570699999991
 21
125.8028459999998
 31
0.0053618274
 11
61.79020300000001
 21
125.7701489999996
 31
0.0053618274
 11
61.84469599999998
 21
125.7374519999997
 31
0.0053618274
 11
61.89918799999996
 21
125.7047559999996
 31
0.0053618274
 11
61.95367699999994
 21
125.6720599999996
 31
0.0053618274
 11
62.00816399999993
 21
125.6393649999999
 31
0.0053618274
 11
62.06264899999993
 21
125.6066699999996
 31
0.0053618274
 11
62.11713199999993
 21
125.5739759999996
 31
0.0053618274
 11
62.17161299999997
 21
125.5412819999998
 31
0.0053618274
 11
62.22609199999997
 21
125.5085889999996
 31
0.0053618274
 11
62.280568
 21
125.4758969999997
 31
0.0053618274
 11
62.33504300000002
 21
125.4432049999997
 31
0.0053618274
 11
62.38951499999993
 21
125.4105139999998
 31
0.0053618274
 11
62.44398499999999
 21
125.3778229999996
 31
0.0053618274
 11
62.49845400000001
 21
125.3451329999996
 31
0.0053618274
 11
62.55291999999995
 21
125.3124429999996
 31
0.0053618274
 11
62.60738400000001
 21
125.2797539999997
 31
0.0053618274
 11
62.66184499999995
 21
125.2470649999998
 31
0.0053618274
 11
62.71630500000001
 21
125.2143769999997
 31
0.0053618274
 11
62.77076299999997
 21
125.1816899999997
 31
0.0053618274
 11
62.82521799999994
 21
125.1490029999998
 31
0.0053618274
 11
62.879672
 21
125.1163159999997
 31
0.0053618274
 11
62.93412299999998
 21
125.0836299999997
 31
0.0053618274
 11
62.98857199999996
 21
125.0509449999997
 31
0.0053618274
  0
SPLINE
  5
10809
330
1E
100
AcDbEntity
  8
CUT
100
AcDbSpline
210
0.0
220
0.0
230
1.0
 70
     8
 71
     3
 72
    36
 73
    32
 74
    30
 42
0.0000000001
 43
0.0000000001
 44
0.0000000001
 12
0.2335107208978621
 22
-0.9723542272370499
 32
0.0
 13
-0.2408791647663623
 23
-0.9705551133147769
 33
0.0
 40
0.0
 40
0.0
 40
0.0
 40
0.0
 40
0.6488895410606343
 40
1.294405071780753
 40
1.936710148866592
 40
2.575951474665981
 40
3.212152249341022
 40
3.845701861817524
 40
4.477071842307575
 40
5.106534234718737
 40
5.734071851316148
 40
6.36009717391999
 40
6.985037134449002
 40
7.608939631614135
 40
8.231999264050703
 40
8.854650089618383
 40
9.477248340635043
 40
10.09975651162157
 40
10.72252520694323
 40
11.34598521506895
 40
11.97032771507766
 40
12.59560301778049
 40
13.22223611708174
 40
13.8506373953555
 40
14.48079120930405
 40
15.1129677281096
 40
15.74763068224649
 40
16.38516509315317
 40
17.025598464142
 40
17.66907136525973
 40
18.31574767957144
 40
18.31574767957144
 40
18.31574767957144
 40
18.31574767957144
 10
61.40868899999996
 20
125.9990419999996
 30
0.0053618274
 10
61.45919655483868
 20
125.7887251705795
 30
0.0053618274
 10
61.55665599372937
 20
125.3683860676146
 30
0.0053618274
 10
61.69245003745611
 20
124.7372326971461
 30
0.0053618274
 10
61.81745385700897
 20
124.107130458321
 30
0.0053618274
 10
61.93167498956565
 20
123.4781396921287
 30
0.0053618274
 10
62.0350004353134
 20
122.8502244608222
 30
0.0053618274
 10
62.12756459108057
 20
122.2232854777862
 30
0.0053618274
 10
62.20952213792791
 20
121.5971376833928
 30
0.0053618274
 10
62.28098422852396
 20
120.9717217237792
 30
0.0053618274
 10
62.34178947299981
 20
120.3469692282397
 30
0.0053618274
 10
62.39205415071076
 20
119.7227934639209
 30
0.0053618274
 10
62.43187310624183
 20
119.0990785145773
 30
0.0053618274
 10
62.46123707942283
 20
118.4757732639369
 30
0.0053618274
 10
62.48010613127947
 20
117.8528253332719
 30
0.0053618274
 10
62.48851677152615
 20
117.2300834316839
 30
0.0053618274
 10
62.48650440923395
 20
116.6074719045792
 30
0.0053618274
 10
62.47407435230784
 20
115.9849418224317
 30
0.0053618274
 10
62.45118307557927
 20
115.3624208821456
 30
0.0053618274
 10
62.41778956923956
 20
114.7397626693852
 30
0.0053618274
 10
62.373929002106
 20
114.1169169190168
 30
0.0053618274
 10
62.31961950881839
 20
113.4938334519777
 30
0.0053618274
 10
62.25475347566981
 20
112.8703993910563
 30
0.0053618274
 10
62.17921407440941
 20
112.2465309130905
 30
0.0053618274
 10
62.09316439503176
 20
111.6221603917294
 30
0.0053618274
 10
61.99649092395248
 20
110.9972336544567
 30
0.0053618274
 10
61.88903631252178
 20
110.3715732708806
 30
0.0053618274
 10
61.77065704148936
 20
109.745087025127
 30
0.0053618274
 10
61.64147131962006
 20
109.1177414444113
 30
0.0053618274
 10
61.50147181255551
 20
108.4895996742566
 30
0.0053618274
 10
61.40118861682179
 20
108.0713836678381
 30
0.0053618274
 10
61.34926499999992
 20
107.8621719999999
 30
0.0053618274
 11
61.40868899999996
 21
125.9990419999996
 31
0.0053618274
 11
61.55522599999994
 21
125.3669149999997
 31
0.0053618274
 11
61.69097699999995
 21
124.7358349999998
 31
0.0053618274
 11
61.81594399999992
 21
124.1058039999996
 31
0.0053618274
 11
61.93011499999998
 21
123.4768409999998
 31
0.0053618274
 11
62.03341099999998
 21
122.8490819999997
 31
0.0053618274
 11
62.12594899999997
 21
122.2223269999996
 31
0.0053618274
 11
62.20789100000001
 21
121.5962969999996
 31
0.0053618274
 11
62.27930699999999
 21
120.9708989999996
 31
0.0053618274
 11
62.34009999999997
 21
120.3463129999998
 31
0.0053618274
 11
62.39035399999998
 21
119.7223079999996
 31
0.0053618274
 11
62.43015899999998
 21
119.0986369999996
 31
0.0053618274
 11
62.45950400000001
 21
118.4754249999997
 31
0.0053618274
 11
62.47836800000001
 21
117.8526509999997
 31
0.0053618274
 11
62.48677999999993
 21
117.2300569999996
 31
0.0053618274
 11
62.48476800000001
 21
116.6074619999996
 31
0.0053618274
 11
62.47233500000002
 21
115.9850779999996
 31
0.0053618274
 11
62.44944799999993
 21
115.3627299999999
 31
0.0053618274
 11
62.41607199999997
 21
114.7401639999998
 31
0.0053618274
 11
62.37222599999993
 21
114.1173629999997
 31
0.0053618274
 11
62.31792499999992
 21
113.4944499999996
 31
0.0053618274
 11
62.25307099999995
 21
112.8711819999997
 31
0.0053618274
 11
62.17757700000002
 21
112.2473319999996
 31
0.0053618274
 11
62.09154199999998
 21
111.6230789999997
 31
0.0053618274
 11
61.994894
 21
110.9983339999996
 31
0.0053618274
 11
61.88746699999999
 21
110.3728289999998
 31
0.0053618274
 11
61.76913799999997
 21
109.7463719999997
 31
0.0053618274
 11
61.63998799999999
 21
109.1190959999996
 31
0.0053618274
 11
61.50003100000001
 21
108.4910279999997
 31
0.0053618274
 11
61.34926499999992
 21
107.8621719999999
 31
0.0053618274
  0
SPLINE
  5
1080A
330
1E
100
AcDbEntity
  8
CUT
100
AcDbSpline
210
0.0
220
0.0
230
1.0
 70
     8
 71
     3
 72
    36
 73
    32
 74
    30
 42
0.0000000001
 43
0.0000000001
 44
0.0000000001
 12
-0.8303960489563062
 22
-0.5571735832554842
 32
0.0
 13
-0.8304051103662621
 23
-0.5571600781441509
 33
0.0
 40
0.0
 40
0.0
 40
0.0
 40
0.0
 40
0.068092806741966
 40
0.1361825651496117
 40
0.2042712091661023
 40
0.2723568048379725
 40
0.3404424005099391
 40
0.4085243906467294
 40
0.4766044360199023
 40
0.5446836510049985
 40
0.6127606480304734
 40
0.680834869906153
 40
0.7489082613965401
 40
0.8169788777373925
 40
0.8850472761172305
 40
0.9531151173125532
 40
1.021179352972675
 40
1.089242758243147
 40
1.157303388368075
 40
1.225362630921898
 40
1.29341965551146
 40
1.361475292530106
 40
1.429528711584549
 40
1.497580185896285
 40
1.565629999415463
 40
1.633677037793393
 40
1.701722688602273
 40
1.769766121444686
 40
1.837808166718147
 40
1.905847436856916
 40
1.973885319429654
 40
1.973885319429654
 40
1.973885319429654
 40
1.973885319429654
 10
62.98835999999992
 20
108.9619859999998
 30
0.0053618274
 10
62.96951200077296
 20
108.9493394956243
 30
0.0053618274
 10
62.93181776563123
 20
108.9240456825974
 30
0.0053618274
 10
62.87527761196189
 20
108.8861047546691
 30
0.0053618274
 10
62.81873763324393
 20
108.8481678799098
 30
0.0053618274
 10
62.76220006989944
 20
108.8102298958283
 30
0.0053618274
 10
62.70566392890848
 20
108.7722937726145
 30
0.0053618274
 10
62.64912973868051
 20
108.7343580625721
 30
0.0053618274
 10
62.59259611231456
 20
108.6964253293891
 30
0.0053618274
 10
62.53606457322767
 20
108.6584924725852
 30
0.0053618274
 10
62.47953489019447
 20
108.6205603335405
 30
0.0053618274
 10
62.42300608680071
 20
108.5826303674101
 30
0.0053618274
 10
62.36647990782436
 20
108.5447003072662
 30
0.0053618274
 10
62.30995450270579
 20
108.5067725776869
 30
0.0053618274
 10
62.25343130118186
 20
108.4688448844729
 30
0.0053618274
 10
62.19690898407522
 20
108.4309196903993
 30
0.0053618274
 10
62.1403881326283
 20
108.3929952991175
 30
0.0053618274
 10
62.08386986050345
 20
108.3550713777847
 30
0.0053618274
 10
62.0273524163306
 20
108.3171492096369
 30
0.0053618274
 10
61.97083654479602
 20
108.2792285149636
 30
0.0053618274
 10
61.91432247012693
 20
108.2413081294616
 30
0.0053618274
 10
61.85780949108717
 20
108.2033895950097
 30
0.0053618274
 10
61.80129878538318
 20
108.1654709929434
 30
0.0053618274
 10
61.7447882091351
 20
108.127555681892
 30
0.0053618274
 10
61.68828090247273
 20
108.0896393152298
 30
0.0053618274
 10
61.63177440181307
 20
108.0517252312716
 30
0.0053618274
 10
61.57526956091398
 20
108.0138124909445
 30
0.0053618274
 10
61.51876642020269
 20
107.9759002038649
 30
0.0053618274
 10
61.4622648289017
 20
107.9379894248714
 30
0.0053618274
 10
61.40576440945343
 20
107.900080219882
 30
0.0053618274
 10
61.36809800179555
 20
107.8748079973236
 30
0.0053618274
 10
61.34926499999992
 20
107.8621719999999
 30
0.0053618274
 11
62.98835999999992
 21
108.9619859999998
 31
0.0053618274
 11
62.931817
 21
108.9240449999997
 31
0.0053618274
 11
62.87527699999996
 21
108.8861049999996
 31
0.0053618274
 11
62.81873699999992
 21
108.8481669999996
 31
0.0053618274
 11
62.76219999999998
 21
108.8102299999996
 31
0.0053618274
 11
62.70566299999993
 21
108.7722929999996
 31
0.0053618274
 11
62.64912899999998
 21
108.7343579999997
 31
0.0053618274
 11
62.59259599999993
 21
108.6964249999996
 31
0.0053618274
 11
62.53606399999998
 21
108.6584919999997
 31
0.0053618274
 11
62.47953399999992
 21
108.6205599999997
 31
0.0053618274
 11
62.42300599999996
 21
108.5826299999999
 31
0.0053618274
 11
62.36647900000001
 21
108.5446999999998
 31
0.0053618274
 11
62.30995399999994
 21
108.5067719999996
 31
0.0053618274
 11
62.25343099999996
 21
108.4688449999996
 31
0.0053618274
 11
62.19690799999998
 21
108.4309189999997
 31
0.0053618274
 11
62.140388
 21
108.3929949999997
 31
0.0053618274
 11
62.0838689999999
 21
108.3550709999997
 31
0.0053618274
 11
62.02735199999994
 21
108.3171489999996
 31
0.0053618274
 11
61.97083599999993
 21
108.2792279999996
 31
0.0053618274
 11
61.91432199999995
 21
108.2413079999998
 31
0.0053618274
 11
61.85780899999995
 21
108.2033889999996
 31
0.0053618274
 11
61.80129799999996
 21
108.1654709999996
 31
0.0053618274
 11
61.74478799999995
 21
108.1275549999996
 31
0.0053618274
 11
61.68827999999994
 21
108.0896389999997
 31
0.0053618274
 11
61.63177399999994
 21
108.0517249999996
 31
0.0053618274
 11
61.57526899999989
 21
108.0138119999996
 31
0.0053618274
 11
61.51876600000001
 21
107.9758999999997
 31
0.0053618274
 11
61.46226399999998
 21
107.9379889999998
 31
0.0053618274
 11
61.40576399999996
 21
107.9000799999996
 31
0.0053618274
 11
61.34926499999992
 21
107.8621719999999
 31
0.0053618274
  0
SPLINE
  5
1080B
330
1E
100
AcDbEntity
  8
CUT
100
AcDbSpline
210
0.0
220
0.0
230
1.0
 70
     8
 71
     3
 72
    36
 73
    32
 74
    30
 42
0.0000000001
 43
0.0000000001
 44
0.0000000001
 12
0.002840614836815
 22
-0.9999959654455356
 32
0.0
 13
-0.0028733320888211
 23
-0.9999958719728333
 33
0.0
 40
0.0
 40
0.0
 40
0.0
 40
0.0
 40
0.5556240873225347
 40
1.111198884175317
 40
1.66672441463463
 40
2.222200700041929
 40
2.777627759790648
 40
3.333003617387103
 40
3.88832829418888
 40
4.443600811560123
 40
4.9988221897014
 40
5.553990451352675
 40
6.109119617890612
 40
6.664205710128666
 40
7.219242750615954
 40
7.774222759989365
 40
8.329138760047023
 40
8.883982772172956
 40
9.438748818206679
 40
9.993428919973359
 40
10.54801509770591
 40
11.10250537446116
 40
11.65691077089421
 40
12.21123130847514
 40
12.76546500868643
 40
13.31961189480688
 40
13.87366998675132
 40
14.42763730822064
 40
14.98151187637945
 40
15.53529471752268
 40
16.08898085083749
 40
16.08898085083749
 40
16.08898085083749
 40
16.08898085083749
 10
62.98857199999996
 20
125.0509449999997
 30
0.0053618274
 10
62.98909810467534
 20
124.865737718124
 30
0.0053618274
 10
62.99011326821663
 20
124.4953394783205
 30
0.0053618274
 10
62.99152608114089
 20
123.939766466416
 30
0.0053618274
 10
62.99283004582935
 20
123.3842424556639
 30
0.0053618274
 10
62.99402540319267
 20
122.8287674463576
 30
0.0053618274
 10
62.99511003701145
 20
122.2733421008633
 30
0.0053618274
 10
62.99608616509049
 20
121.7179670904304
 30
0.0053618274
 10
62.99695304732956
 20
121.1626434129161
 30
0.0053618274
 10
62.9977114175749
 20
120.6073710697486
 30
0.0053618274
 10
62.99835908689035
 20
120.0521507248081
 30
0.0053618274
 10
62.99889806987751
 20
119.4969780475202
 30
0.0053618274
 10
62.99932852562843
 20
118.9418503705904
 30
0.0053618274
 10
62.99964774023429
 20
118.3867663590746
 30
0.0053618274
 10
62.99986044305179
 20
117.8317320156485
 30
0.0053618274
 10
62.99996243964439
 20
117.2767543379442
 30
0.0053618274
 10
62.99995378269191
 20
116.7218409939904
 30
0.0053618274
 10
62.99983845409006
 20
116.1669989830673
 30
0.0053618274
 10
62.99961247356494
 20
115.6122356386751
 30
0.0053618274
 10
62.99927578294814
 20
115.0575582955294
 30
0.0053618274
 10
62.99883259166071
 20
114.5029729502984
 30
0.0053618274
 10
62.99827810501683
 20
113.9484792735611
 30
0.0053618274
 10
62.99761527147713
 20
113.394074262662
 30
0.0053618274
 10
62.99684313948974
 20
112.8397549187937
 30
0.0053618274
 10
62.99596255802581
 20
112.2855219067156
 30
0.0053618274
 10
62.99497106949377
 20
111.7313765640301
 30
0.0053618274
 10
62.99387166672242
 20
111.1773202179543
 30
0.0053618274
 10
62.99266083152773
 20
110.6233548771624
 30
0.0053618274
 10
62.99134363988367
 20
110.0694815295607
 30
0.0053618274
 10
62.98991529612444
 20
109.5157021871569
 30
0.0053618274
 10
62.98889030804458
 20
109.1465472825609
 30
0.0053618274
 10
62.98835999999992
 20
108.9619859999998
 30
0.0053618274
 11
62.98857199999996
 21
125.0509449999997
 31
0.0053618274
 11
62.99009499999996
 21
124.4953229999997
 31
0.0053618274
 11
62.99150799999993
 21
123.9397499999997
 31
0.0053618274
 11
62.99281199999994
 21
123.3842259999996
 31
0.0053618274
 11
62.99400699999999
 21
122.8287509999997
 31
0.0053618274
 11
62.99509199999998
 21
122.2733249999996
 31
0.0053618274
 11
62.99606800000002
 21
121.7179499999996
 31
0.0053618274
 11
62.996935
 21
121.1626259999996
 31
0.0053618274
 11
62.99769300000001
 21
120.6073539999998
 31
0.0053618274
 11
62.99834099999996
 21
120.0521329999997
 31
0.0053618274
 11
62.99887999999996
 21
119.4969649999998
 31
0.0053618274
 11
62.99930999999999
 21
118.9418359999997
 31
0.0053618274
 11
62.99963
 21
118.3867499999996
 31
0.0053618274
 11
62.99984199999992
 21
117.8317129999997
 31
0.0053618274
 11
62.99994399999999
 21
117.2767329999996
 31
0.0053618274
 11
62.99993599999989
 21
116.7218169999996
 31
0.0053618274
 11
62.99981999999998
 21
116.1669729999996
 31
0.0053618274
 11
62.99959399999998
 21
115.6122069999997
 31
0.0053618274
 11
62.99925799999993
 21
115.0575269999998
 31
0.0053618274
 11
62.99881400000002
 21
114.5029409999998
 31
0.0053618274
 11
62.99825999999993
 21
113.9484509999997
 31
0.0053618274
 11
62.99759700000002
 21
113.3940459999996
 31
0.0053618274
 11
62.99682499999992
 21
112.8397259999996
 31
0.0053618274
 11
62.99594399999999
 21
112.2854929999997
 31
0.0053618274
 11
62.99495299999999
 21
111.7313469999997
 31
0.0053618274
 11
62.99385299999992
 21
111.1772899999996
 31
0.0053618274
 11
62.99264300000002
 21
110.6233239999997
 31
0.0053618274
 11
62.99132499999993
 21
110.0694509999996
 31
0.0053618274
 11
62.98989700000002
 21
109.5156699999999
 31
0.0053618274
 11
62.98835999999992
 21
108.9619859999998
 31
0.0053618274
  0
LINE
  5
10C5D
330
1E
100
AcDbEntity
  8
NOCUT
100
AcDbLine
 10
0.0
 20
0.0
 30
0.0
 11
61.79999999999996
 21
-0.0000000000000018
 31
0.0
  0
TEXT
  5
10ED5
330
1E
100
AcDbEntity
  8
6
100
AcDbText
 10
93.42247481791444
 20
-7.473485164999829
 30
0.0
 40
3.5
  1
Z=29/3
 50
90.0
100
AcDbText
  0
TEXT
  5
10ED7
330
1E
100
AcDbEntity
  8
6
100
AcDbText
 10
72.29306420912962
 20
139.3107387891857
 30
0.0
 40
2.5
  1
SPE-33R101
100
AcDbText
  0
TEXT
  5
10F3D
330
1E
100
AcDbEntity
  8
6
100
AcDbText
 10
72.45299237172503
 20
134.9946660901034
 30
0.0
 40
2.5
  1
YDA334L102
100
AcDbText
  0
LWPOLYLINE
  5
110BC
330
1E
100
AcDbEntity
  8
1
100
AcDbPolyline
 90
        3
 70
     1
 43
0.0
 10
0.000000000000087
 20
0.0000000000000568
 10
-2.950972054112495
 20
0.0000000000000568
 42
0.4142135623730966
 10
0.000000000000087
 20
-2.950972054112468
  0
LINE
  5
110BD
330
1E
100
AcDbEntity
  8
1
100
AcDbLine
 10
-2.950972054112751
 20
0.0000000000000568
 30
0.0
 11
2.950972054112669
 21
0.0000000000000568
 31
0.0
  0
HATCH
  5
110BE
330
1E
100
AcDbEntity
  8
1
100
AcDbHatch
 10
0.0
 20
0.0
 30
0.0
210
0.0
220
0.0
230
1.0
  2
SOLID
 70
     1
 71
     0
 91
        2
 92
        7
 72
     1
 73
     1
 93
        3
 10
0.000000000000087
 20
0.0000000000000568
 42
0.0
 10
2.950972054112669
 20
0.0000000000000568
 42
0.4142135623730966
 10
0.000000000000087
 20
2.950972054112696
 42
0.0
 97
        0
 92
        7
 72
     1
 73
     1
 93
        3
 10
0.000000000000087
 20
-2.950972054112412
 42
0.0
 10
0.000000000000087
 20
0.0000000000000568
 42
0.0
 10
-2.950972054112495
 20
0.0000000000000568
 42
0.4142135623730953
 97
        0
 75
     0
 76
     1
 47
0.1190009775223266
 98
        2
 10
0.7445530588119899
 20
0.9212244733765826
 10
-1.279464601852849
 20
-1.696796923046178
  0
CIRCLE
  5
110BF
330
1E
100
AcDbEntity
  8
1
100
AcDbCircle
 10
0.000000000000087
 20
0.0000000000000568
 30
0.0
 40
2.950972054112601
  0
LINE
  5
110C0
330
1E
100
AcDbEntity
  8
1
100
AcDbLine
 10
0.000000000000087
 20
2.950972054112696
 30
0.0
 11
0.000000000000087
 21
-2.950972054112468
 31
0.0
  0
LWPOLYLINE
  5
110C1
330
1E
100
AcDbEntity
  8
1
100
AcDbPolyline
 90
        3
 70
     1
 43
0.0
 10
0.000000000000087
 20
2.950972054112696
 10
0.000000000000087
 20
0.0000000000000568
 10
2.950972054112669
 20
0.0000000000000568
 42
0.4142135623730966
  0
CIRCLE
  5
110DC
330
1E
100
AcDbEntity
  8
1
100
AcDbCircle
 10
63.0
 20
124.9999999999998
 30
0.0
 40
0.463769369848821
  0
LINE
  5
110DD
330
1E
100
AcDbEntity
  8
1
100
AcDbLine
 10
62.53623063015112
 20
124.9999999999998
 30
0.0
 11
63.46376936984885
 21
124.9999999999998
 31
0.0
  0
LINE
  5
110DE
330
1E
100
AcDbEntity
  8
1
100
AcDbLine
 10
63.0
 20
125.4637693698488
 30
0.0
 11
63.0
 21
124.5362306301511
 31
0.0
  0
ENDSEC
  0
SECTION
  2
OBJECTS
  0
DICTIONARY
  5
C
330
0
100
AcDbDictionary
281
     1
  3
ACAD_COLOR
350
112A9
  3
ACAD_GROUP
350
D
  3
ACAD_LAYOUT
350
19
  3
ACAD_MATERIAL
350
112A8
  3
ACAD_MLINESTYLE
350
16
  3
ACAD_PLOTSETTINGS
350
18
  3
ACAD_PLOTSTYLENAME
350
9FDD
  3
ACAD_TABLESTYLE
350
112AA
  3
ACDBHEADERROUNDTRIPXREC
350
112BC
  3
AcDbVariableDictionary
350
112B7
1001
ACAD
1000
TREAT_AS_HARD
1070
     0
  0
DICTIONARY
  5
72C9
330
1E
100
AcDbDictionary
281
     1
  3
ACAD_LAYOUTSELFREF
350
72CA
  0
DICTIONARY
  5
72C7
330
1A
100
AcDbDictionary
281
     1
  3
ACAD_LAYOUTSELFREF
350
72C8
  0
DICTIONARY
  5
112A9
102
{ACAD_REACTORS
330
C
102
}
330
C
100
AcDbDictionary
281
     1
  0
DICTIONARY
  5
D
102
{ACAD_REACTORS
330
C
102
}
330
C
100
AcDbDictionary
281
     1
1001
ACAD
1000
TREAT_AS_HARD
1070
     0
  0
DICTIONARY
  5
19
102
{ACAD_REACTORS
330
C
102
}
330
C
100
AcDbDictionary
281
     1
  3
Layout1
350
9FE0
  3
Model
350
9FDF
1001
ACAD
1000
TREAT_AS_HARD
1070
     0
  0
DICTIONARY
  5
112A8
102
{ACAD_REACTORS
330
C
102
}
330
C
100
AcDbDictionary
281
     1
  0
DICTIONARY
  5
16
102
{ACAD_REACTORS
330
C
102
}
330
C
100
AcDbDictionary
281
     1
  3
STANDARD
350
17
1001
ACAD
1000
TREAT_AS_HARD
1070
     0
  0
DICTIONARY
  5
18
102
{ACAD_REACTORS
330
C
102
}
330
C
100
AcDbDictionary
281
     1
1001
ACAD
1000
TREAT_AS_HARD
1070
     0
  0
ACDBDICTIONARYWDFLT
  5
9FDD
102
{ACAD_REACTORS
330
C
102
}
330
C
100
AcDbDictionary
281
     1
  3
Normal
350
9FDE
100
AcDbDictionaryWithDefault
340
9FDE
  0
DICTIONARY
  5
112AA
102
{ACAD_REACTORS
330
C
102
}
330
C
100
AcDbDictionary
281
     1
  3
Standard
350
112AB
  0
DICTIONARY
  5
112BC
102
{ACAD_REACTORS
330
C
102
}
330
C
100
AcDbDictionary
281
     1
  0
DICTIONARY
  5
112B7
102
{ACAD_REACTORS
330
C
102
}
330
C
100
AcDbDictionary
281
     1
  3
CTABLESTYLE
350
112B8
  3
DIMASSOC
350
112B9
  3
PROJECTNAME
350
112BA
  0
XRECORD
  5
72CA
102
{ACAD_REACTORS
330
72C9
102
}
330
72C9
100
AcDbXrecord
280
     1
340
1E
  0
XRECORD
  5
72C8
102
{ACAD_REACTORS
330
72C7
102
}
330
72C7
100
AcDbXrecord
280
     1
340
1A
  0
LAYOUT
  5
9FE0
102
{ACAD_XDICTIONARY
360
112BF
102
}
102
{ACAD_REACTORS
330
19
102
}
330
19
100
AcDbPlotSettings
  1

  2
\\ingdom02\ITB3
  4

  6

 40
0.0
 41
0.0
 42
0.0
 43
0.0
 44
0.0
 45
0.0
 46
0.0
 47
0.0
 48
0.0
 49
0.0
140
0.0
141
0.0
142
1.0
143
1.0
 70
   688
 72
     0
 73
     0
 74
     5
  7

 75
    16
147
1.0
148
0.0
149
0.0
100
AcDbLayout
  1
Layout1
 70
     1
 71
     1
 10
0.0
 20
0.0
 11
12.0
 21
9.0
 12
0.0
 22
0.0
 32
0.0
 14
100.0
 24
100.0
 34
100.0
 15
-100.0
 25
-100.0
 35
-100.0
146
0.0
 13
0.0
 23
0.0
 33
0.0
 16
1.0
 26
0.0
 36
0.0
 17
0.0
 27
1.0
 37
0.0
 76
     0
330
1A
  0
LAYOUT
  5
9FDF
102
{ACAD_XDICTIONARY
360
112BD
102
}
102
{ACAD_REACTORS
330
19
102
}
330
19
100
AcDbPlotSettings
  1

  2
\\ingdom02\ITB3
  4

  6

 40
0.0
 41
0.0
 42
0.0
 43
0.0
 44
0.0
 45
0.0
 46
0.0
 47
0.0
 48
0.0
 49
0.0
140
0.0
141
0.0
142
1.0
143
1.0
 70
  1712
 72
     0
 73
     0
 74
     0
  7

 75
     0
147
1.0
148
0.0
149
0.0
100
AcDbLayout
  1
Model
 70
     1
 71
     0
 10
0.0
 20
0.0
 11
12.0
 21
9.0
 12
0.0
 22
0.0
 32
0.0
 14
0.0
 24
0.0
 34
0.0
 15
0.0
 25
0.0
 35
0.0
146
0.0
 13
0.0
 23
0.0
 33
0.0
 16
1.0
 26
0.0
 36
0.0
 17
0.0
 27
1.0
 37
0.0
 76
     0
330
1E
  0
MLINESTYLE
  5
17
102
{ACAD_REACTORS
330
16
102
}
330
16
100
AcDbMlineStyle
  2
STANDARD
 70
     0
  3

 62
   256
 51
90.0
 52
90.0
 71
     2
 49
0.5
 62
   256
  6
BYLAYER
 49
-0.5
 62
   256
  6
BYLAYER
  0
ACDBPLACEHOLDER
  5
9FDE
102
{ACAD_REACTORS
330
9FDD
102
}
330
9FDD
  0
TABLESTYLE
  5
112AB
102
{ACAD_REACTORS
330
112AA
102
}
330
112AA
100
AcDbTableStyle
  3
Standard
 70
     0
 71
     0
 40
0.06
 41
0.06
280
     0
281
     0
  7
STANDARD
140
0.18
170
     2
 62
     0
 63
     7
283
     0
274
    -2
284
     1
 64
     0
275
    -2
285
     1
 65
     0
276
    -2
286
     1
 66
     0
277
    -2
287
     1
 67
     0
278
    -2
288
     1
 68
     0
279
    -2
289
     1
 69
     0
  7
STANDARD
140
0.25
170
     5
 62
     0
 63
     7
283
     0
274
    -2
284
     1
 64
     0
275
    -2
285
     1
 65
     0
276
    -2
286
     1
 66
     0
277
    -2
287
     1
 67
     0
278
    -2
288
     1
 68
     0
279
    -2
289
     1
 69
     0
  7
STANDARD
140
0.18
170
     5
 62
     0
 63
     7
283
     0
274
    -2
284
     1
 64
     0
275
    -2
285
     1
 65
     0
276
    -2
286
     1
 66
     0
277
    -2
287
     1
 67
     0
278
    -2
288
     1
 68
     0
279
    -2
289
     1
 69
     0
  0
DICTIONARYVAR
  5
112B8
102
{ACAD_REACTORS
330
112B7
102
}
330
112B7
100
DictionaryVariables
280
     0
  1
STANDARD
  0
DICTIONARYVAR
  5
112B9
102
{ACAD_REACTORS
330
112B7
102
}
330
112B7
100
DictionaryVariables
280
     0
  1
1
  0
DICTIONARYVAR
  5
112BA
102
{ACAD_REACTORS
330
112B7
102
}
330
112B7
100
DictionaryVariables
280
     0
  1

  0
DICTIONARY
  5
112BF
330
9FE0
100
AcDbDictionary
280
     1
281
     1
  3
ACAD_XREC_ROUNDTRIP
360
112C0
  0
DICTIONARY
  5
112BD
330
9FDF
100
AcDbDictionary
280
     1
281
     1
  3
ACAD_XREC_ROUNDTRIP
360
112BE
  0
XRECORD
  5
112C0
102
{ACAD_REACTORS
330
112BF
102
}
330
112BF
100
AcDbXrecord
280
     1
102
SHADEPLOT
 70
     0
102
SHADEPLOTRESLEVEL
 70
     2
102
SHADEPLOTCUSTOMDPI
 70
   300
  0
XRECORD
  5
112BE
102
{ACAD_REACTORS
330
112BD
102
}
330
112BD
100
AcDbXrecord
280
     1
102
SHADEPLOT
 70
     0
102
SHADEPLOTRESLEVEL
 70
     2
102
SHADEPLOTCUSTOMDPI
 70
   300
  0
ENDSEC
  0
EOF
