  0
SECTION
  2
HEADER
  9
$ACADVER
  1
AC1015
  9
$ACADMAINTVER
 70
    20
  9
$DWGCODEPAGE
  3
ANSI_1252
  9
$INSBASE
 10
0.0
 20
0.0
 30
0.0
  9
$EXTMIN
 10
-49.21777337389244
 20
-137.2955294375283
 30
-0.0008960341765518
  9
$EXTMAX
 10
128.12483270348
 20
116.5567897820472
 30
0.0000000677677341
  9
$LIMMIN
 10
0.0
 20
0.0
  9
$LIMMAX
 10
841.0
 20
594.0
  9
$ORTHOMODE
 70
     0
  9
$REGENMODE
 70
     1
  9
$FILLMODE
 70
     1
  9
$QTEXTMODE
 70
     0
  9
$MIRRTEXT
 70
     1
  9
$LTSCALE
 40
10.0
  9
$ATTMODE
 70
     1
  9
$TEXTSIZE
 40
0.2
  9
$TRACEWID
 40
0.05
  9
$TEXTSTYLE
  7
STANDARD
  9
$CLAYER
  8
0
  9
$CELTYPE
  6
BYLAYER
  9
$CECOLOR
 62
   256
  9
$CELTSCALE
 40
1.0
  9
$DISPSILH
 70
     0
  9
$DIMSCALE
 40
1.0
  9
$DIMASZ
 40
2.5
  9
$DIMEXO
 40
5.256249999999996
  9
$DIMDLI
 40
31.958
  9
$DIMRND
 40
0.0
  9
$DIMDLE
 40
0.0
  9
$DIMEXE
 40
15.13799999999999
  9
$DIMTP
 40
0.01
  9
$DIMTM
 40
0.01
  9
$DIMTXT
 40
3.5
  9
$DIMCEN
 40
7.568999999999999
  9
$DIMTSZ
 40
0.0
  9
$DIMTOL
 70
     1
  9
$DIMLIM
 70
     0
  9
$DIMTIH
 70
     1
  9
$DIMTOH
 70
     1
  9
$DIMSE1
 70
     0
  9
$DIMSE2
 70
     0
  9
$DIMTAD
 70
     0
  9
$DIMZIN
 70
     0
  9
$DIMBLK
  1
_FILLED
  9
$DIMASO
 70
     1
  9
$DIMSHO
 70
     1
  9
$DIMPOST
  1

  9
$DIMAPOST
  1

  9
$DIMALT
 70
     0
  9
$DIMALTD
 70
     2
  9
$DIMALTF
 40
25.4
  9
$DIMLFAC
 40
1.0
  9
$DIMTOFL
 70
     0
  9
$DIMTVP
 40
0.0
  9
$DIMTIX
 70
     0
  9
$DIMSOXD
 70
     0
  9
$DIMSAH
 70
     0
  9
$DIMBLK1
  1

  9
$DIMBLK2
  1

  9
$DIMSTYLE
  2
STANDARD
  9
$DIMCLRD
 70
     0
  9
$DIMCLRE
 70
     0
  9
$DIMCLRT
 70
     0
  9
$DIMTFAC
 40
1.0
  9
$DIMGAP
 40
0.09
  9
$DIMJUST
 70
     0
  9
$DIMSD1
 70
     0
  9
$DIMSD2
 70
     0
  9
$DIMTOLJ
 70
     1
  9
$DIMTZIN
 70
     0
  9
$DIMALTZ
 70
     0
  9
$DIMALTTZ
 70
     0
  9
$DIMUPT
 70
     0
  9
$DIMDEC
 70
     4
  9
$DIMTDEC
 70
     4
  9
$DIMALTU
 70
     2
  9
$DIMALTTD
 70
     2
  9
$DIMTXSTY
  7
STANDARD
  9
$DIMAUNIT
 70
     0
  9
$DIMADEC
 70
     0
  9
$DIMALTRND
 40
0.0
  9
$DIMAZIN
 70
     0
  9
$DIMDSEP
 70
    46
  9
$DIMATFIT
 70
     3
  9
$DIMFRAC
 70
     0
  9
$DIMLDRBLK
  1
_FILLED
  9
$DIMLUNIT
 70
     2
  9
$DIMLWD
 70
    -2
  9
$DIMLWE
 70
    -2
  9
$DIMTMOVE
 70
     0
  9
$LUNITS
 70
     2
  9
$LUPREC
 70
     4
  9
$SKETCHINC
 40
0.1
  9
$FILLETRAD
 40
0.0
  9
$AUNITS
 70
     0
  9
$AUPREC
 70
     0
  9
$MENU
  1

  9
$ELEVATION
 40
0.0
  9
$PELEVATION
 40
0.0
  9
$THICKNESS
 40
0.0
  9
$LIMCHECK
 70
     0
  9
$CHAMFERA
 40
0.0
  9
$CHAMFERB
 40
0.0
  9
$CHAMFERC
 40
0.0
  9
$CHAMFERD
 40
0.0
  9
$SKPOLY
 70
     0
  9
$TDCREATE
 40
2453446.382186366
  9
$TDUCREATE
 40
2453446.298853033
  9
$TDUPDATE
 40
2453908.563928878
  9
$TDUUPDATE
 40
2453908.480595544
  9
$TDINDWG
 40
0.1375577083
  9
$TDUSRTIMER
 40
0.0385741667
  9
$USRTIMER
 70
     1
  9
$ANGBASE
 50
0.0
  9
$ANGDIR
 70
     0
  9
$PDMODE
 70
     0
  9
$PDSIZE
 40
0.3125
  9
$PLINEWID
 40
0.0
  9
$SPLFRAME
 70
     0
  9
$SPLINETYPE
 70
     6
  9
$SPLINESEGS
 70
     8
  9
$HANDSEED
  5
104F5
  9
$SURFTAB1
 70
     6
  9
$SURFTAB2
 70
     6
  9
$SURFTYPE
 70
     6
  9
$SURFU
 70
     6
  9
$SURFV
 70
     6
  9
$UCSBASE
  2

  9
$UCSNAME
  2

  9
$UCSORG
 10
0.0
 20
0.0
 30
0.0
  9
$UCSXDIR
 10
1.0
 20
0.0
 30
0.0
  9
$UCSYDIR
 10
0.0
 20
1.0
 30
0.0
  9
$UCSORTHOREF
  2

  9
$UCSORTHOVIEW
 70
     0
  9
$UCSORGTOP
 10
0.0
 20
0.0
 30
0.0
  9
$UCSORGBOTTOM
 10
0.0
 20
0.0
 30
0.0
  9
$UCSORGLEFT
 10
0.0
 20
0.0
 30
0.0
  9
$UCSORGRIGHT
 10
0.0
 20
0.0
 30
0.0
  9
$UCSORGFRONT
 10
0.0
 20
0.0
 30
0.0
  9
$UCSORGBACK
 10
0.0
 20
0.0
 30
0.0
  9
$PUCSBASE
  2

  9
$PUCSNAME
  2

  9
$PUCSORG
 10
0.0
 20
0.0
 30
0.0
  9
$PUCSXDIR
 10
1.0
 20
0.0
 30
0.0
  9
$PUCSYDIR
 10
0.0
 20
1.0
 30
0.0
  9
$PUCSORTHOREF
  2

  9
$PUCSORTHOVIEW
 70
     0
  9
$PUCSORGTOP
 10
0.0
 20
0.0
 30
0.0
  9
$PUCSORGBOTTOM
 10
0.0
 20
0.0
 30
0.0
  9
$PUCSORGLEFT
 10
0.0
 20
0.0
 30
0.0
  9
$PUCSORGRIGHT
 10
0.0
 20
0.0
 30
0.0
  9
$PUCSORGFRONT
 10
0.0
 20
0.0
 30
0.0
  9
$PUCSORGBACK
 10
0.0
 20
0.0
 30
0.0
  9
$USERI1
 70
     0
  9
$USERI2
 70
     0
  9
$USERI3
 70
     0
  9
$USERI4
 70
     0
  9
$USERI5
 70
     0
  9
$USERR1
 40
0.0
  9
$USERR2
 40
0.0
  9
$USERR3
 40
0.0
  9
$USERR4
 40
0.0
  9
$USERR5
 40
0.0
  9
$WORLDVIEW
 70
     1
  9
$SHADEDGE
 70
     3
  9
$SHADEDIF
 70
    70
  9
$TILEMODE
 70
     1
  9
$MAXACTVP
 70
    64
  9
$PINSBASE
 10
0.0
 20
0.0
 30
0.0
  9
$PLIMCHECK
 70
     0
  9
$PEXTMIN
 10
100.0
 20
100.0
 30
100.0
  9
$PEXTMAX
 10
-100.0
 20
-100.0
 30
-100.0
  9
$PLIMMIN
 10
0.0
 20
0.0
  9
$PLIMMAX
 10
12.0
 20
9.0
  9
$UNITMODE
 70
     0
  9
$VISRETAIN
 70
     1
  9
$PLINEGEN
 70
     1
  9
$PSLTSCALE
 70
     1
  9
$TREEDEPTH
 70
  3020
  9
$CMLSTYLE
  2
STANDARD
  9
$CMLJUST
 70
     0
  9
$CMLSCALE
 40
1.0
  9
$PROXYGRAPHICS
 70
     1
  9
$MEASUREMENT
 70
     0
  9
$CELWEIGHT
370
    -1
  9
$ENDCAPS
280
     0
  9
$JOINSTYLE
280
     0
  9
$LWDISPLAY
290
     0
  9
$INSUNITS
 70
     0
  9
$HYPERLINKBASE
  1

  9
$STYLESHEET
  1

  9
$XEDIT
290
     1
  9
$CEPSNTYPE
380
     0
  9
$PSTYLEMODE
290
     1
  9
$FINGERPRINTGUID
  2
{1373A138-933A-4124-A8EC-8A138FB5D9E5}
  9
$VERSIONGUID
  2
{7FEF4D1C-B19A-4A58-9169-59E01E7AE17C}
  9
$EXTNAMES
290
     1
  9
$PSVPSCALE
 40
0.0
  9
$OLESTARTUP
290
     0
  0
ENDSEC
  0
SECTION
  2
CLASSES
  0
CLASS
  1
ACDBDICTIONARYWDFLT
  2
AcDbDictionaryWithDefault
  3
ObjectDBX Classes
 90
        0
280
     0
281
     0
  0
CLASS
  1
ACDBPLACEHOLDER
  2
AcDbPlaceHolder
  3
ObjectDBX Classes
 90
        0
280
     0
281
     0
  0
CLASS
  1
LAYOUT
  2
AcDbLayout
  3
ObjectDBX Classes
 90
        0
280
     0
281
     0
  0
CLASS
  1
TABLESTYLE
  2
AcDbTableStyle
  3
ObjectDBX Classes
 90
     2047
280
     0
281
     0
  0
CLASS
  1
DICTIONARYVAR
  2
AcDbDictionaryVar
  3
ObjectDBX Classes
 90
        0
280
     0
281
     0
  0
ENDSEC
  0
SECTION
  2
TABLES
  0
TABLE
  2
VPORT
  5
8
330
0
100
AcDbSymbolTable
 70
     2
  0
VPORT
  5
104EF
330
8
100
AcDbSymbolTableRecord
100
AcDbViewportTableRecord
  2
*Active
 70
     0
 10
0.0
 20
0.0
 11
1.0
 21
1.0
 12
39.45352966479379
 22
-10.36936982774057
 13
0.0
 23
0.0
 14
1.0
 24
1.0
 15
0.0
 25
0.0
 16
0.0
 26
0.0
 36
1.0
 17
0.0
 27
0.0
 37
0.0
 40
255.7852048989124
 41
1.532401524777636
 42
50.0
 43
0.0
 44
0.0
 50
0.0
 51
0.0
 71
     0
 72
  1000
 73
     1
 74
     1
 75
     0
 76
     0
 77
     0
 78
     0
281
     0
 65
     1
110
0.0
120
0.0
130
0.0
111
1.0
121
0.0
131
0.0
112
0.0
122
1.0
132
0.0
 79
     0
146
0.0
  0
ENDTAB
  0
TABLE
  2
LTYPE
  5
5
330
0
100
AcDbSymbolTable
 70
     3
  0
LTYPE
  5
13
330
5
100
AcDbSymbolTableRecord
100
AcDbLinetypeTableRecord
  2
BYBLOCK
 70
     0
  3

 72
    65
 73
     0
 40
0.0
  0
LTYPE
  5
14
330
5
100
AcDbSymbolTableRecord
100
AcDbLinetypeTableRecord
  2
BYLAYER
 70
     0
  3

 72
    65
 73
     0
 40
0.0
  0
LTYPE
  5
15
330
5
100
AcDbSymbolTableRecord
100
AcDbLinetypeTableRecord
  2
CONTINUOUS
 70
     0
  3
Solid line
 72
    65
 73
     0
 40
0.0
  0
LTYPE
  5
23
330
5
100
AcDbSymbolTableRecord
100
AcDbLinetypeTableRecord
  2
CENTER
 70
     0
  3
____ _ ____ _ ____ _ ____ _ ____ _ ____ _ ____
 72
    65
 73
     4
 40
0.6
 49
0.375
 74
     0
 49
-0.075
 74
     0
 49
0.075
 74
     0
 49
-0.075
 74
     0
  0
LTYPE
  5
24
330
5
100
AcDbSymbolTableRecord
100
AcDbLinetypeTableRecord
  2
HIDDEN
 70
     0
  3
- - - - - - - - - - - - - - - - - - - -
 72
    65
 73
     2
 40
0.2
 49
0.1
 74
     0
 49
-0.1
 74
     0
  0
ENDTAB
  0
TABLE
  2
LAYER
  5
2
330
0
100
AcDbSymbolTable
 70
    12
  0
LAYER
  5
10
330
2
100
AcDbSymbolTableRecord
100
AcDbLayerTableRecord
  2
0
 70
     0
 62
     7
  6
CONTINUOUS
370
    -3
390
A31E
  0
LAYER
  5
25
330
2
100
AcDbSymbolTableRecord
100
AcDbLayerTableRecord
  2
1
 70
     0
 62
     4
  6
CONTINUOUS
370
    -3
390
A31E
  0
LAYER
  5
26
330
2
100
AcDbSymbolTableRecord
100
AcDbLayerTableRecord
  2
2
 70
     0
 62
     7
  6
CONTINUOUS
370
    -3
390
A31E
  0
LAYER
  5
27
330
2
100
AcDbSymbolTableRecord
100
AcDbLayerTableRecord
  2
3
 70
     0
 62
     1
  6
HIDDEN
370
    -3
390
A31E
  0
LAYER
  5
28
330
2
100
AcDbSymbolTableRecord
100
AcDbLayerTableRecord
  2
4
 70
     0
 62
     2
  6
CENTER
370
    -3
390
A31E
  0
LAYER
  5
3D
330
2
100
AcDbSymbolTableRecord
100
AcDbLayerTableRecord
  2
DEFPOINTS
 70
     0
 62
     7
  6
CONTINUOUS
290
     0
370
    -3
390
A31E
  0
LAYER
  5
FEC5
330
2
100
AcDbSymbolTableRecord
100
AcDbLayerTableRecord
  2
6
 70
     0
 62
     5
  6
CONTINUOUS
370
    -3
390
A31E
  0
LAYER
  5
FEC6
330
2
100
AcDbSymbolTableRecord
100
AcDbLayerTableRecord
  2
CUT
 70
     0
 62
     1
  6
CONTINUOUS
370
    -3
390
A31E
  0
LAYER
  5
FEC7
330
2
100
AcDbSymbolTableRecord
100
AcDbLayerTableRecord
  2
NOCUT
 70
     0
 62
     7
  6
CONTINUOUS
370
    -3
390
A31E
  0
LAYER
  5
101AF
330
2
100
AcDbSymbolTableRecord
100
AcDbLayerTableRecord
  2
SK2
 70
     0
 62
     7
  6
CONTINUOUS
370
    -3
390
A31E
  0
LAYER
  5
104E0
330
2
100
AcDbSymbolTableRecord
100
AcDbLayerTableRecord
  2
SK4
 70
     0
 62
     2
  6
CENTER
370
    -3
390
A31E
  0
LAYER
  5
104E1
330
2
100
AcDbSymbolTableRecord
100
AcDbLayerTableRecord
  2
SK3
 70
     0
 62
     1
  6
HIDDEN
370
    -3
390
A31E
  0
ENDTAB
  0
TABLE
  2
STYLE
  5
3
330
0
100
AcDbSymbolTable
 70
     1
  0
STYLE
  5
11
330
3
100
AcDbSymbolTableRecord
100
AcDbTextStyleTableRecord
  2
STANDARD
 70
     0
 40
0.0
 41
0.8
 50
0.0
 71
     0
 42
0.2
  3
isocp.shx
  4

  0
ENDTAB
  0
TABLE
  2
VIEW
  5
6
330
0
100
AcDbSymbolTable
 70
     0
  0
ENDTAB
  0
TABLE
  2
UCS
  5
7
330
0
100
AcDbSymbolTable
 70
     0
  0
ENDTAB
  0
TABLE
  2
APPID
  5
9
330
0
100
AcDbSymbolTable
 70
     4
  0
APPID
  5
12
330
9
100
AcDbSymbolTableRecord
100
AcDbRegAppTableRecord
  2
ACAD
 70
     0
  0
APPID
  5
FECB
330
9
100
AcDbSymbolTableRecord
100
AcDbRegAppTableRecord
  2
GENIUS_GENODEF_13
 70
     0
  0
APPID
  5
FECC
330
9
100
AcDbSymbolTableRecord
100
AcDbRegAppTableRecord
  2
GENIUS_GENOBJ-N-CEN_13
 70
     0
  0
APPID
  5
FECD
330
9
100
AcDbSymbolTableRecord
100
AcDbRegAppTableRecord
  2
GENIUS_GENOBJ-N-FIL_13
 70
     0
  0
ENDTAB
  0
TABLE
  2
DIMSTYLE
  5
A
330
0
100
AcDbSymbolTable
 70
     2
100
AcDbDimStyleTable
 71
     0
  0
DIMSTYLE
105
2B
330
A
100
AcDbSymbolTableRecord
100
AcDbDimStyleTableRecord
  2
STANDARD
 70
     0
340
11
  0
DIMSTYLE
105
1331
102
{ACAD_REACTORS
330
CD
330
CC
330
CF
330
CE
330
C9
330
12CB
330
12CC
330
CB
330
CA
102
}
330
A
100
AcDbSymbolTableRecord
100
AcDbDimStyleTableRecord
  2
ISO-25
 70
     0
 41
3.5
 42
0.625
 43
3.75
 44
1.25
 73
     0
 74
     0
 77
     1
 78
     8
140
3.5
141
2.5
143
0.03937007874016
147
0.625
171
     3
172
     1
176
   256
177
   256
178
   256
271
     2
272
     2
274
     3
283
     0
284
     8
340
11
  0
ENDTAB
  0
TABLE
  2
BLOCK_RECORD
  5
1
330
0
100
AcDbSymbolTable
 70
    11
  0
BLOCK_RECORD
  5
1E
102
{ACAD_XDICTIONARY
360
7537
102
}
330
1
100
AcDbSymbolTableRecord
100
AcDbBlockTableRecord
  2
*MODEL_SPACE
340
A31F
  0
BLOCK_RECORD
  5
1A
102
{ACAD_XDICTIONARY
360
7535
102
}
330
1
100
AcDbSymbolTableRecord
100
AcDbBlockTableRecord
  2
*PAPER_SPACE
340
A320
  0
BLOCK_RECORD
  5
30
330
1
100
AcDbSymbolTableRecord
100
AcDbBlockTableRecord
  2
_FILLED
340
0
  0
BLOCK_RECORD
  5
1860
330
1
100
AcDbSymbolTableRecord
100
AcDbBlockTableRecord
  2
*D1
340
0
  0
BLOCK_RECORD
  5
186C
330
1
100
AcDbSymbolTableRecord
100
AcDbBlockTableRecord
  2
*D2
340
0
  0
BLOCK_RECORD
  5
1878
330
1
100
AcDbSymbolTableRecord
100
AcDbBlockTableRecord
  2
*D3
340
0
  0
BLOCK_RECORD
  5
1884
330
1
100
AcDbSymbolTableRecord
100
AcDbBlockTableRecord
  2
*D4
340
0
  0
BLOCK_RECORD
  5
1890
330
1
100
AcDbSymbolTableRecord
100
AcDbBlockTableRecord
  2
*D5
340
0
  0
BLOCK_RECORD
  5
189C
330
1
100
AcDbSymbolTableRecord
100
AcDbBlockTableRecord
  2
*D6
340
0
  0
BLOCK_RECORD
  5
18A8
330
1
100
AcDbSymbolTableRecord
100
AcDbBlockTableRecord
  2
*D7
340
0
  0
BLOCK_RECORD
  5
18B6
330
1
100
AcDbSymbolTableRecord
100
AcDbBlockTableRecord
  2
*D8
340
0
  0
BLOCK_RECORD
  5
18C4
330
1
100
AcDbSymbolTableRecord
100
AcDbBlockTableRecord
  2
*D9
340
0
  0
ENDTAB
  0
ENDSEC
  0
SECTION
  2
BLOCKS
  0
BLOCK
  5
1F
330
1E
100
AcDbEntity
  8
0
100
AcDbBlockBegin
  2
*MODEL_SPACE
 70
     0
 10
0.0
 20
0.0
 30
0.0
  3
*MODEL_SPACE
  1

  0
ENDBLK
  5
20
330
1E
100
AcDbEntity
  8
0
100
AcDbBlockEnd
  0
BLOCK
  5
1B
330
1A
100
AcDbEntity
 67
     1
  8
0
100
AcDbBlockBegin
  2
*PAPER_SPACE
 70
     0
 10
0.0
 20
0.0
 30
0.0
  3
*PAPER_SPACE
  1

  0
ENDBLK
  5
1C
330
1A
100
AcDbEntity
 67
     1
  8
0
100
AcDbBlockEnd
  0
BLOCK
  5
31
330
30
100
AcDbEntity
  8
0
100
AcDbBlockBegin
  2
_FILLED
 70
     0
 10
0.0
 20
0.0
 30
0.0
  3
_FILLED
  1

  0
SOLID
  5
32
330
30
100
AcDbEntity
  8
0
  6
ByBlock
 62
     0
100
AcDbTrace
 10
0.0
 20
0.0
 30
0.0
 11
-1.0
 21
0.132
 31
0.0
 12
-1.0
 22
-0.132
 32
0.0
 13
-1.0
 23
-0.132
 33
0.0
  0
ENDBLK
  5
33
330
30
100
AcDbEntity
  8
0
100
AcDbBlockEnd
  0
BLOCK
  5
186A
330
1860
100
AcDbEntity
  8
0
100
AcDbBlockBegin
  2
*D1
 70
     1
 10
0.0
 20
0.0
 30
0.0
  3
*D1
  1

  0
LINE
  5
10494
330
1860
100
AcDbEntity
  8
SK2
370
    -2
100
AcDbLine
 10
31.69492321959998
 20
108.4999999999999
 30
0.0
 11
-46.33358274906906
 21
108.4999999999999
 31
0.0
  0
LINE
  5
10495
330
1860
100
AcDbEntity
  8
SK2
370
    -2
100
AcDbLine
 10
30.52293380719998
 20
-108.4999999999999
 30
0.0
 11
-46.3335827490691
 21
-108.4999999999998
 31
0.0
  0
LINE
  5
10496
330
1860
100
AcDbEntity
  8
SK2
370
    -2
100
AcDbLine
 10
-45.08358274906906
 20
104.9999999999999
 30
0.0
 11
-45.08358274906909
 21
-104.9999999999998
 31
0.0
  0
SOLID
  5
10497
330
1860
100
AcDbEntity
  8
SK2
100
AcDbTrace
 10
-45.6669160824024
 20
104.9999999999999
 30
0.0
 11
-44.50024941573572
 21
104.9999999999999
 31
0.0
 12
-45.08358274906906
 22
108.4999999999999
 32
0.0
 13
-45.08358274906906
 23
108.4999999999999
 33
0.0
  0
SOLID
  5
10498
330
1860
100
AcDbEntity
  8
SK2
100
AcDbTrace
 10
-45.66691608240243
 20
-104.9999999999998
 30
0.0
 11
-44.50024941573576
 21
-104.9999999999998
 31
0.0
 12
-45.08358274906909
 22
-108.4999999999998
 32
0.0
 13
-45.08358274906909
 23
-108.4999999999998
 33
0.0
  0
MTEXT
  5
10499
330
1860
100
AcDbEntity
  8
SK2
100
AcDbMText
 10
-47.45858274906908
 20
-0.9265054759894091
 30
0.0
 40
3.5
 41
0.0
 71
     5
 72
     1
  1
%%c217
 11
0.0000000000000001
 21
1.0
 31
0.0
 73
     1
 44
1.0
1001
ACAD
1000
MTEXTBEGIN
1070
    73
1070
     1
1070
    44
1040
1.0
1070
    74
1070
     0
1000
MTEXTEND
  0
POINT
  5
1049A
330
1860
100
AcDbEntity
  8
DEFPOINTS
 62
     0
100
AcDbPoint
 10
32.31992321959998
 20
108.4999999999999
 30
0.0
  0
POINT
  5
1049B
330
1860
100
AcDbEntity
  8
DEFPOINTS
 62
     0
100
AcDbPoint
 10
31.14793380719998
 20
-108.4999999999999
 30
0.0
  0
POINT
  5
1049C
330
1860
100
AcDbEntity
  8
DEFPOINTS
 62
     0
100
AcDbPoint
 10
-45.08358274906909
 20
-108.4999999999998
 30
0.0
  0
ENDBLK
  5
186B
330
1860
100
AcDbEntity
  8
0
100
AcDbBlockEnd
  0
BLOCK
  5
1876
330
186C
100
AcDbEntity
  8
0
100
AcDbBlockBegin
  2
*D2
 70
     1
 10
0.0
 20
0.0
 30
0.0
  3
*D2
  1

  0
LINE
  5
1049D
330
186C
100
AcDbEntity
  8
SK2
370
    -2
100
AcDbLine
 10
-1.12499999999999
 20
80.0
 30
0.0
 11
-36.30123359406385
 21
80.00000000000001
 31
0.0
  0
LINE
  5
1049E
330
186C
100
AcDbEntity
  8
SK2
370
    -2
100
AcDbLine
 10
-1.125000000000009
 20
-80.0
 30
0.0
 11
-36.30123359406387
 21
-79.99999999999999
 31
0.0
  0
LINE
  5
1049F
330
186C
100
AcDbEntity
  8
SK2
370
    -2
100
AcDbLine
 10
-35.05123359406384
 20
76.50000000000002
 30
0.0
 11
-35.05123359406387
 21
-76.49999999999998
 31
0.0
  0
SOLID
  5
104A0
330
186C
100
AcDbEntity
  8
SK2
100
AcDbTrace
 10
-35.63456692739718
 20
76.50000000000002
 30
0.0
 11
-34.46790026073051
 21
76.50000000000002
 31
0.0
 12
-35.05123359406384
 22
80.00000000000001
 32
0.0
 13
-35.05123359406384
 23
80.00000000000001
 33
0.0
  0
SOLID
  5
104A1
330
186C
100
AcDbEntity
  8
SK2
100
AcDbTrace
 10
-35.63456692739722
 20
-76.49999999999998
 30
0.0
 11
-34.46790026073053
 21
-76.49999999999998
 31
0.0
 12
-35.05123359406387
 22
-79.99999999999999
 32
0.0
 13
-35.05123359406387
 23
-79.99999999999999
 33
0.0
  0
MTEXT
  5
104A2
330
186C
100
AcDbEntity
  8
SK2
100
AcDbMText
 10
-37.42623359406386
 20
-0.3952171856217273
 30
0.0
 40
3.5
 41
0.0
 71
     5
 72
     1
  1
%%c160
 11
0.0000000000000001
 21
1.0
 31
0.0
 73
     1
 44
1.0
1001
ACAD
1000
MTEXTBEGIN
1070
    73
1070
     1
1070
    44
1040
1.0
1070
    74
1070
     0
1000
MTEXTEND
  0
POINT
  5
104A3
330
186C
100
AcDbEntity
  8
DEFPOINTS
 62
     0
100
AcDbPoint
 10
-0.4999999999999904
 20
80.0
 30
0.0
  0
POINT
  5
104A4
330
186C
100
AcDbEntity
  8
DEFPOINTS
 62
     0
100
AcDbPoint
 10
-0.5000000000000098
 20
-80.0
 30
0.0
  0
POINT
  5
104A5
330
186C
100
AcDbEntity
  8
DEFPOINTS
 62
     0
100
AcDbPoint
 10
-35.05123359406387
 20
-79.99999999999999
 30
0.0
  0
ENDBLK
  5
1877
330
186C
100
AcDbEntity
  8
0
100
AcDbBlockEnd
  0
BLOCK
  5
1882
330
1878
100
AcDbEntity
  8
0
100
AcDbBlockBegin
  2
*D3
 70
     1
 10
0.0
 20
0.0
 30
0.0
  3
*D3
  1

  0
LINE
  5
10482
330
1878
100
AcDbEntity
  8
SK2
370
    -2
100
AcDbLine
 10
-3.772274881800006
 20
-50.8
 30
0.0
 11
-26.26437937564377
 21
-50.79999999999999
 31
0.0
  0
LINE
  5
10483
330
1878
100
AcDbEntity
  8
SK2
370
    -2
100
AcDbLine
 10
-5.262577230499992
 20
50.7999999999999
 30
0.0
 11
-26.26437937564375
 21
50.79999999999991
 31
0.0
  0
LINE
  5
10484
330
1878
100
AcDbEntity
  8
SK2
370
    -2
100
AcDbLine
 10
-25.01437937564377
 20
-47.29999999999999
 30
0.0
 11
-25.01437937564375
 21
47.29999999999989
 31
0.0
  0
SOLID
  5
10485
330
1878
100
AcDbEntity
  8
SK2
100
AcDbTrace
 10
-25.5977127089771
 20
-47.29999999999999
 30
0.0
 11
-24.43104604231044
 21
-47.29999999999999
 31
0.0
 12
-25.01437937564377
 22
-50.79999999999999
 32
0.0
 13
-25.01437937564377
 23
-50.79999999999999
 33
0.0
  0
SOLID
  5
10486
330
1878
100
AcDbEntity
  8
SK2
100
AcDbTrace
 10
-25.59771270897708
 20
47.29999999999989
 30
0.0
 11
-24.43104604231042
 21
47.29999999999989
 31
0.0
 12
-25.01437937564375
 22
50.79999999999991
 32
0.0
 13
-25.01437937564375
 23
50.79999999999991
 33
0.0
  0
MTEXT
  5
10487
330
1878
100
AcDbEntity
  8
SK2
100
AcDbMText
 10
-27.38937937564376
 20
-0.4711145767482745
 30
0.0
 40
3.5
 41
0.0
 71
     5
 72
     1
  1
%%c101.6
 11
0.0000000000000001
 21
1.0
 31
0.0
 73
     1
 44
1.0
1001
ACAD
1000
MTEXTBEGIN
1070
    73
1070
     1
1070
    44
1040
1.0
1070
    74
1070
     0
1000
MTEXTEND
  0
POINT
  5
10488
330
1878
100
AcDbEntity
  8
DEFPOINTS
 62
     0
100
AcDbPoint
 10
-3.147274881800006
 20
-50.8
 30
0.0
  0
POINT
  5
10489
330
1878
100
AcDbEntity
  8
DEFPOINTS
 62
     0
100
AcDbPoint
 10
-4.637577230499992
 20
50.7999999999999
 30
0.0
  0
POINT
  5
1048A
330
1878
100
AcDbEntity
  8
DEFPOINTS
 62
     0
100
AcDbPoint
 10
-25.01437937564375
 20
50.79999999999991
 30
0.0
  0
ENDBLK
  5
1883
330
1878
100
AcDbEntity
  8
0
100
AcDbBlockEnd
  0
BLOCK
  5
188E
330
1884
100
AcDbEntity
  8
0
100
AcDbBlockBegin
  2
*D4
 70
     1
 10
0.0
 20
0.0
 30
0.0
  3
*D4
  1

  0
LINE
  5
1048B
330
1884
100
AcDbEntity
  8
SK2
370
    -2
100
AcDbLine
 10
-2.139071134300015
 20
30.0
 30
0.0
 11
-16.2453995822402
 21
30.0
 31
0.0
  0
LINE
  5
1048C
330
1884
100
AcDbEntity
  8
SK2
370
    -2
100
AcDbLine
 10
-2.891986750900002
 20
-30.0
 30
0.0
 11
-16.24539958224021
 21
-30.0
 31
0.0
  0
LINE
  5
1048D
330
1884
100
AcDbEntity
  8
SK2
370
    -2
100
AcDbLine
 10
-14.9953995822402
 20
26.5
 30
0.0
 11
-14.99539958224021
 21
-26.49999999999999
 31
0.0
  0
SOLID
  5
1048E
330
1884
100
AcDbEntity
  8
SK2
100
AcDbTrace
 10
-15.57873291557354
 20
26.5
 30
0.0
 11
-14.41206624890687
 21
26.5
 31
0.0
 12
-14.9953995822402
 22
30.0
 32
0.0
 13
-14.9953995822402
 23
30.0
 33
0.0
  0
SOLID
  5
1048F
330
1884
100
AcDbEntity
  8
SK2
100
AcDbTrace
 10
-15.57873291557355
 20
-26.49999999999999
 30
0.0
 11
-14.41206624890688
 21
-26.49999999999999
 31
0.0
 12
-14.99539958224022
 22
-30.0
 32
0.0
 13
-14.99539958224022
 23
-30.0
 33
0.0
  0
MTEXT
  5
10490
330
1884
100
AcDbEntity
  8
SK2
100
AcDbMText
 10
-17.37039958224021
 20
0.1360711047461812
 30
0.0
 40
3.5
 41
0.0
 71
     5
 72
     1
  1
%%c60
 11
0.0000000000000001
 21
1.0
 31
0.0
 73
     1
 44
1.0
1001
ACAD
1000
MTEXTBEGIN
1070
    73
1070
     1
1070
    44
1040
1.0
1070
    74
1070
     0
1000
MTEXTEND
  0
POINT
  5
10491
330
1884
100
AcDbEntity
  8
DEFPOINTS
 62
     0
100
AcDbPoint
 10
-1.514071134300015
 20
30.0
 30
0.0
  0
POINT
  5
10492
330
1884
100
AcDbEntity
  8
DEFPOINTS
 62
     0
100
AcDbPoint
 10
-2.266986750900003
 20
-30.0
 30
0.0
  0
POINT
  5
10493
330
1884
100
AcDbEntity
  8
DEFPOINTS
 62
     0
100
AcDbPoint
 10
-14.99539958224022
 20
-30.0
 30
0.0
  0
ENDBLK
  5
188F
330
1884
100
AcDbEntity
  8
0
100
AcDbBlockEnd
  0
BLOCK
  5
189A
330
1890
100
AcDbEntity
  8
0
100
AcDbBlockBegin
  2
*D5
 70
     1
 10
0.0
 20
0.0
 30
0.0
  3
*D5
  1

  0
LINE
  5
104A6
330
1890
100
AcDbEntity
  8
2
370
    -2
100
AcDbLine
 10
64.12500000000001
 20
100.0
 30
0.0
 11
89.22790516628456
 21
100.0
 31
0.0
  0
LINE
  5
104A7
330
1890
100
AcDbEntity
  8
2
370
    -2
100
AcDbLine
 10
64.12499999999997
 20
-100.0
 30
0.0
 11
89.22790516628452
 21
-100.0
 31
0.0
  0
LINE
  5
104A8
330
1890
100
AcDbEntity
  8
2
370
    -2
100
AcDbLine
 10
87.97790516628456
 20
96.5
 30
0.0
 11
87.97790516628452
 21
-96.5
 31
0.0
  0
SOLID
  5
104A9
330
1890
100
AcDbEntity
  8
2
100
AcDbTrace
 10
87.39457183295121
 20
96.5
 30
0.0
 11
88.56123849961788
 21
96.5
 31
0.0
 12
87.97790516628456
 22
100.0
 32
0.0
 13
87.97790516628456
 23
100.0
 33
0.0
  0
SOLID
  5
104AA
330
1890
100
AcDbEntity
  8
2
100
AcDbTrace
 10
87.39457183295115
 20
-96.5
 30
0.0
 11
88.56123849961781
 21
-96.5
 31
0.0
 12
87.97790516628452
 22
-100.0
 32
0.0
 13
87.97790516628452
 23
-100.0
 33
0.0
  0
MTEXT
  5
104AB
330
1890
100
AcDbEntity
  8
2
100
AcDbMText
 10
85.60290516628453
 20
0.0394788258999378
 30
0.0
 40
3.5
 41
0.0
 71
     5
 72
     1
  1
%%c200
 11
0.0000000000000001
 21
1.0
 31
0.0
 73
     1
 44
1.0
1001
ACAD
1000
MTEXTBEGIN
1070
    73
1070
     1
1070
    44
1040
1.0
1070
    74
1070
     0
1000
MTEXTEND
  0
POINT
  5
104AC
330
1890
100
AcDbEntity
  8
DEFPOINTS
 62
     0
100
AcDbPoint
 10
63.50000000000001
 20
100.0
 30
0.0
  0
POINT
  5
104AD
330
1890
100
AcDbEntity
  8
DEFPOINTS
 62
     0
100
AcDbPoint
 10
63.49999999999997
 20
-100.0
 30
0.0
  0
POINT
  5
104AE
330
1890
100
AcDbEntity
  8
DEFPOINTS
 62
     0
100
AcDbPoint
 10
87.97790516628452
 20
-100.0
 30
0.0
  0
ENDBLK
  5
189B
330
1890
100
AcDbEntity
  8
0
100
AcDbBlockEnd
  0
BLOCK
  5
18A6
330
189C
100
AcDbEntity
  8
0
100
AcDbBlockBegin
  2
*D6
 70
     1
 10
0.0
 20
0.0
 30
0.0
  3
*D6
  1

  0
LINE
  5
104CE
330
189C
100
AcDbEntity
  8
2
370
    -2
100
AcDbLine
 10
64.18749999999999
 20
-100.0
 30
0.0
 11
79.24254408310296
 21
-100.0
 31
0.0
  0
LINE
  5
104CF
330
189C
100
AcDbEntity
  8
2
370
    -2
100
AcDbLine
 10
64.1875
 20
-84.54565596434141
 30
0.0
 11
79.24254408310297
 21
-84.54565596434141
 31
0.0
  0
LINE
  5
104D0
330
189C
100
AcDbEntity
  8
2
370
    -2
100
AcDbLine
 10
77.99254408310296
 20
-96.5
 30
0.0
 11
77.99254408310297
 21
-88.04565596434141
 31
0.0
  0
SOLID
  5
104D1
330
189C
100
AcDbEntity
  8
2
100
AcDbTrace
 10
77.40921074976963
 20
-96.5
 30
0.0
 11
78.57587741643628
 21
-96.5
 31
0.0
 12
77.99254408310296
 22
-100.0
 32
0.0
 13
77.99254408310296
 23
-100.0
 33
0.0
  0
SOLID
  5
104D2
330
189C
100
AcDbEntity
  8
2
100
AcDbTrace
 10
77.40921074976964
 20
-88.04565596434141
 30
0.0
 11
78.5758774164363
 21
-88.04565596434141
 31
0.0
 12
77.99254408310297
 22
-84.54565596434141
 32
0.0
 13
77.99254408310297
 23
-84.54565596434141
 33
0.0
  0
MTEXT
  5
104D3
330
189C
100
AcDbEntity
  8
2
100
AcDbMText
 10
75.61754408310298
 20
-92.27282798217069
 30
0.0
 40
3.5
 41
0.0
 71
     5
 72
     1
  1
15
 11
0.0000000000000001
 21
1.0
 31
0.0
 73
     1
 44
1.0
1001
ACAD
1000
MTEXTBEGIN
1070
    73
1070
     1
1070
    44
1040
1.0
1070
    74
1070
     0
1000
MTEXTEND
  0
POINT
  5
104D4
330
189C
100
AcDbEntity
  8
DEFPOINTS
 62
     0
100
AcDbPoint
 10
63.56249999999999
 20
-100.0
 30
0.0
  0
POINT
  5
104D5
330
189C
100
AcDbEntity
  8
DEFPOINTS
 62
     0
100
AcDbPoint
 10
63.56249999999999
 20
-84.54565596434141
 30
0.0
  0
POINT
  5
104D6
330
189C
100
AcDbEntity
  8
DEFPOINTS
 62
     0
100
AcDbPoint
 10
77.99254408310297
 20
-84.54565596434141
 30
0.0
  0
ENDBLK
  5
18A7
330
189C
100
AcDbEntity
  8
0
100
AcDbBlockEnd
  0
BLOCK
  5
18B4
330
18A8
100
AcDbEntity
  8
0
100
AcDbBlockBegin
  2
*D7
 70
     1
 10
0.0
 20
0.0
 30
0.0
  3
*D7
  1

  0
LINE
  5
104AF
330
18A8
100
AcDbEntity
  8
2
370
    -2
100
AcDbLine
 10
62.99999999999998
 20
-101.1874999999998
 30
0.0
 11
62.99999999999998
 21
-116.2579507424815
 31
0.0
  0
LINE
  5
104B0
330
18A8
100
AcDbEntity
  8
2
370
    -2
100
AcDbLine
 10
60.99985817764438
 20
-101.1874999999998
 30
0.0
 11
60.99985817764438
 21
-116.2579507424815
 31
0.0
  0
LINE
  5
104B1
330
18A8
100
AcDbEntity
  8
2
370
    -2
100
AcDbLine
 10
66.49999999999997
 20
-115.0079507424816
 30
0.0
 11
69.99999999999997
 21
-115.0079507424816
 31
0.0
  0
LINE
  5
104B2
330
18A8
100
AcDbEntity
  8
2
370
    -2
100
AcDbLine
 10
57.49985817764438
 20
-115.0079507424816
 30
0.0
 11
50.8831915109777
 21
-115.0079507424816
 31
0.0
  0
LINE
  5
104B3
330
18A8
100
AcDbEntity
  8
2
370
    -2
100
AcDbLine
 10
62.99999999999998
 20
-115.0079507424816
 30
0.0
 11
60.99985817764438
 21
-115.0079507424816
 31
0.0
  0
SOLID
  5
104B4
330
18A8
100
AcDbEntity
  8
2
100
AcDbTrace
 10
66.49999999999997
 20
-114.4246174091482
 30
0.0
 11
66.49999999999997
 21
-115.5912840758149
 31
0.0
 12
62.99999999999998
 22
-115.0079507424816
 32
0.0
 13
62.99999999999998
 23
-115.0079507424816
 33
0.0
  0
SOLID
  5
104B5
330
18A8
100
AcDbEntity
  8
2
100
AcDbTrace
 10
57.49985817764438
 20
-114.4246174091482
 30
0.0
 11
57.49985817764438
 21
-115.5912840758149
 31
0.0
 12
60.99985817764438
 22
-115.0079507424816
 32
0.0
 13
60.99985817764438
 23
-115.0079507424816
 33
0.0
  0
MTEXT
  5
104B6
330
18A8
100
AcDbEntity
  8
2
100
AcDbMText
 10
52.44152484431104
 20
-112.6329507424816
 30
0.0
 40
3.5
 41
0.0
 71
     5
 72
     1
  1
2
 73
     1
 44
1.0
1001
ACAD
1000
MTEXTBEGIN
1070
    73
1070
     1
1070
    44
1040
1.0
1070
    74
1070
     0
1000
MTEXTEND
  0
POINT
  5
104B7
330
18A8
100
AcDbEntity
  8
DEFPOINTS
 62
     0
100
AcDbPoint
 10
62.99999999999998
 20
-100.5624999999999
 30
0.0
  0
POINT
  5
104B8
330
18A8
100
AcDbEntity
  8
DEFPOINTS
 62
     0
100
AcDbPoint
 10
60.99985817764438
 20
-100.5624999999999
 30
0.0
  0
POINT
  5
104B9
330
18A8
100
AcDbEntity
  8
DEFPOINTS
 62
     0
100
AcDbPoint
 10
60.99985817764438
 20
-115.0079507424816
 30
0.0
  0
ENDBLK
  5
18B5
330
18A8
100
AcDbEntity
  8
0
100
AcDbBlockEnd
  0
BLOCK
  5
18C2
330
18B6
100
AcDbEntity
  8
0
100
AcDbBlockBegin
  2
*D8
 70
     1
 10
0.0
 20
0.0
 30
0.0
  3
*D8
  1

  0
LINE
  5
104BA
330
18B6
100
AcDbEntity
  8
2
370
    -2
100
AcDbLine
 10
41.81607061003436
 20
-112.2305473357993
 30
0.0
 11
39.37880794370246
 21
-113.6377015922887
 31
0.0
  0
LINE
  5
104BB
330
18B6
100
AcDbEntity
  8
2
370
    -2
100
AcDbLine
 10
62.94999999999999
 20
-124.4322271580999
 30
0.0
 11
62.94999999999998
 21
-127.246535671128
 31
0.0
  0
ARC
  5
104BC
330
18B6
100
AcDbEntity
  8
2
370
    -2
100
AcDbCircle
 10
62.94999999999998
 20
-100.028867513496
 30
0.0
 40
25.96766815763193
100
AcDbArc
 50
217.7283539821941
 51
262.2716460177491
  0
SOLID
  5
104BD
330
18B6
100
AcDbEntity
  8
2
100
AcDbTrace
 10
41.92725372243446
 20
-116.2440130678388
 30
0.0
 11
42.89600803753143
 21
-115.5939160073224
 31
0.0
 12
40.46133969843362
 22
-113.0127015922897
 32
0.0
 13
40.46133969843362
 23
-113.0127015922897
 33
0.0
  0
SOLID
  5
104BE
330
18B6
100
AcDbEntity
  8
2
100
AcDbTrace
 10
59.49726857441897
 20
-125.1786582471925
 30
0.0
 11
59.4186451626335
 21
-126.3426726243504
 31
0.0
 12
62.94999999999998
 22
-125.996535671128
 32
0.0
 13
62.94999999999998
 23
-125.996535671128
 33
0.0
  0
MTEXT
  5
104BF
330
18B6
100
AcDbEntity
  8
2
100
AcDbMText
 10
50.01125230356788
 20
-119.7570909217052
 30
0.0
 40
3.5
 41
0.0
 71
     5
 72
     1
  1
60° EFF.
 11
0.8362014536209782
 21
-0.5484224001280063
 31
0.0
 73
     1
 44
1.0
1001
ACAD
1000
MTEXTBEGIN
1070
    73
1070
     1
1070
    44
1040
1.0
1070
    74
1070
     0
1000
MTEXTEND
  0
POINT
  5
104C0
330
18B6
100
AcDbEntity
  8
DEFPOINTS
 62
     0
100
AcDbPoint
 10
54.06853441488522
 20
-124.430493660237
 30
0.0
  0
POINT
  5
104C1
330
18B6
100
AcDbEntity
  8
DEFPOINTS
 62
     0
100
AcDbPoint
 10
62.94999999999999
 20
-123.8072271580999
 30
0.0
  0
POINT
  5
104C2
330
18B6
100
AcDbEntity
  8
DEFPOINTS
 62
     0
100
AcDbPoint
 10
62.51698729809999
 20
-100.2788675135
 30
0.0
  0
POINT
  5
104C3
330
18B6
100
AcDbEntity
  8
DEFPOINTS
 62
     0
100
AcDbPoint
 10
42.35733648739996
 20
-111.9180473357999
 30
0.0
  0
POINT
  5
104C4
330
18B6
100
AcDbEntity
  8
DEFPOINTS
 62
     0
100
AcDbPoint
 10
62.94999999999999
 20
-100.5288675135
 30
0.0
  0
ENDBLK
  5
18C3
330
18B6
100
AcDbEntity
  8
0
100
AcDbBlockEnd
  0
BLOCK
  5
18CE
330
18C4
100
AcDbEntity
  8
0
100
AcDbBlockBegin
  2
*D9
 70
     1
 10
0.0
 20
0.0
 30
0.0
  3
*D9
  1

  0
LINE
  5
104C5
330
18C4
100
AcDbEntity
  8
2
370
    -2
100
AcDbLine
 10
-0.0000000000000097
 20
-79.525
 30
0.0
 11
-0.0000000000000133
 21
-137.2509001487535
 31
0.0
  0
LINE
  5
104C6
330
18C4
100
AcDbEntity
  8
2
370
    -2
100
AcDbLine
 10
62.99999999999998
 20
-101.1249999999999
 30
0.0
 11
62.99999999999998
 21
-137.2509001487535
 31
0.0
  0
LINE
  5
104C7
330
18C4
100
AcDbEntity
  8
2
370
    -2
100
AcDbLine
 10
3.499999999999986
 20
-136.0009001487535
 30
0.0
 11
59.49999999999998
 21
-136.0009001487535
 31
0.0
  0
SOLID
  5
104C8
330
18C4
100
AcDbEntity
  8
2
100
AcDbTrace
 10
3.499999999999986
 20
-135.4175668154201
 30
0.0
 11
3.499999999999986
 21
-136.5842334820868
 31
0.0
 12
-0.0000000000000132
 22
-136.0009001487535
 32
0.0
 13
-0.0000000000000132
 23
-136.0009001487535
 33
0.0
  0
SOLID
  5
104C9
330
18C4
100
AcDbEntity
  8
2
100
AcDbTrace
 10
59.49999999999998
 20
-135.4175668154201
 30
0.0
 11
59.49999999999998
 21
-136.5842334820868
 31
0.0
 12
62.99999999999998
 22
-136.0009001487535
 32
0.0
 13
62.99999999999998
 23
-136.0009001487535
 33
0.0
  0
MTEXT
  5
104CA
330
18C4
100
AcDbEntity
  8
2
100
AcDbMText
 10
31.86835225239998
 20
-133.6259001487535
 30
0.0
 40
3.5
 41
0.0
 71
     5
 72
     1
  1
63
 73
     1
 44
1.0
1001
ACAD
1000
MTEXTBEGIN
1070
    73
1070
     1
1070
    44
1040
1.0
1070
    74
1070
     0
1000
MTEXTEND
  0
POINT
  5
104CB
330
18C4
100
AcDbEntity
  8
DEFPOINTS
 62
     0
100
AcDbPoint
 10
-0.0000000000000097
 20
-78.9
 30
0.0
  0
POINT
  5
104CC
330
18C4
100
AcDbEntity
  8
DEFPOINTS
 62
     0
100
AcDbPoint
 10
62.99999999999998
 20
-100.5
 30
0.0
  0
POINT
  5
104CD
330
18C4
100
AcDbEntity
  8
DEFPOINTS
 62
     0
100
AcDbPoint
 10
62.99999999999998
 20
-136.0009001487535
 30
0.0
  0
ENDBLK
  5
18CF
330
18C4
100
AcDbEntity
  8
0
100
AcDbBlockEnd
  0
ENDSEC
  0
SECTION
  2
ENTITIES
  0
DIMENSION
  5
C9
330
1E
100
AcDbEntity
  8
2
100
AcDbDimension
  2
*D5
 10
87.97790516628452
 20
-100.0
 30
0.0
 11
87.97790516628452
 21
0.0394788258999375
 31
0.0
 70
   160
  1
%%c<>
 71
     5
 42
200.0
  3
ISO-25
100
AcDbAlignedDimension
 13
63.50000000000001
 23
100.0
 33
0.0
 14
63.49999999999997
 24
-100.0
 34
0.0
 50
270.0
100
AcDbRotatedDimension
  0
DIMENSION
  5
CA
330
1E
100
AcDbEntity
  8
2
100
AcDbDimension
  2
*D9
 10
62.99999999999998
 20
-136.0009001487535
 30
0.0
 11
31.86835225239998
 21
-136.0009001487535
 31
0.0
 70
   160
 71
     5
 42
62.99999999999998
  3
ISO-25
100
AcDbAlignedDimension
 13
-0.0000000000000097
 23
-78.9
 33
0.0
 14
62.99999999999998
 24
-100.5
 34
0.0
100
AcDbRotatedDimension
  0
DIMENSION
  5
CB
330
1E
100
AcDbEntity
  8
2
100
AcDbDimension
  2
*D8
 10
62.94999999999999
 20
-100.5288675135
 30
0.0
 11
48.70874910326389
 21
-121.7430693740551
 31
0.0
 70
   162
  1
<> EFF.
 71
     5
 42
1.047197551197587
  3
ISO-25
100
AcDb2LineAngularDimension
 13
62.51698729809999
 23
-100.2788675135
 33
0.0
 14
42.35733648739997
 24
-111.9180473357999
 34
0.0
 15
62.94999999999999
 25
-123.8072271580999
 35
0.0
 16
54.06853441488522
 26
-124.430493660237
 36
0.0
1001
ACAD
1000
DSTYLE
1002
{
1070
   271
1070
     0
1002
}
  0
DIMENSION
  5
CC
330
1E
100
AcDbEntity
  8
SK2
100
AcDbDimension
  2
*D2
 10
-35.05123359406387
 20
-79.99999999999999
 30
0.0
 11
-35.05123359406386
 21
-0.3952171856217276
 31
0.0
 70
   160
  1
%%c<>
 71
     5
 42
160.0
  3
ISO-25
100
AcDbAlignedDimension
 13
-0.4999999999999904
 23
80.0
 33
0.0
 14
-0.5000000000000098
 24
-80.0
 34
0.0
 50
270.0
100
AcDbRotatedDimension
  0
DIMENSION
  5
CD
330
1E
100
AcDbEntity
  8
SK2
100
AcDbDimension
  2
*D1
 10
-45.08358274906909
 20
-108.4999999999998
 30
0.0
 11
-45.08358274906909
 21
-0.9265054759894095
 31
0.0
 70
   160
  1
%%c<>
 71
     5
 42
216.9999999999998
  3
ISO-25
100
AcDbAlignedDimension
 13
32.31992321959998
 23
108.4999999999999
 33
0.0
 14
31.14793380719998
 24
-108.4999999999999
 34
0.0
 50
270.0
100
AcDbRotatedDimension
  0
DIMENSION
  5
CE
330
1E
100
AcDbEntity
  8
SK2
100
AcDbDimension
  2
*D4
 10
-14.99539958224022
 20
-30.0
 30
0.0
 11
-14.99539958224021
 21
0.1360711047461809
 31
0.0
 70
   160
  1
%%c<>
 71
     5
 42
60.0
  3
ISO-25
100
AcDbAlignedDimension
 13
-1.514071134300015
 23
30.0
 33
0.0
 14
-2.266986750900003
 24
-30.0
 34
0.0
 50
270.0
100
AcDbRotatedDimension
  0
DIMENSION
  5
CF
330
1E
100
AcDbEntity
  8
SK2
100
AcDbDimension
  2
*D3
 10
-25.01437937564375
 20
50.79999999999991
 30
0.0
 11
-25.01437937564376
 21
-0.4711145767482748
 31
0.0
 70
   160
  1
%%c<>
 71
     5
 42
101.5999999999998
  3
ISO-25
100
AcDbAlignedDimension
 13
-3.147274881800006
 23
-50.8
 33
0.0
 14
-4.637577230499992
 24
50.7999999999999
 34
0.0
 50
89.99999999999998
100
AcDbRotatedDimension
  0
LINE
  5
D0
330
1E
100
AcDbEntity
  8
1
100
AcDbLine
 10
37.74337061010001
 20
108.4999999999999
 30
0.0
 11
35.57106781179999
 21
108.4999999999999
 31
0.0
  0
LINE
  5
D1
330
1E
100
AcDbEntity
  8
1
100
AcDbLine
 10
62.91161431979997
 20
-100.1039174018
 30
0.0
 11
56.17146801399997
 21
-103.9444934854
 31
0.0
  0
LINE
  5
D2
330
1E
100
AcDbEntity
  8
1
100
AcDbLine
 10
55.47694767899997
 20
-103.4930454639999
 30
0.0
 11
47.17397787779995
 21
-108.2241278167
 31
0.0
  0
LINE
  5
D3
330
1E
100
AcDbEntity
  8
1
100
AcDbLine
 10
62.30467595059999
 20
-98.76698894120012
 30
0.0
 11
55.56452964479998
 21
-102.6075650249
 31
0.0
  0
LINE
  5
D4
330
1E
100
AcDbEntity
  8
1
100
AcDbLine
 10
47.57703787299997
 20
-106.5436973487
 30
0.0
 11
48.90733916399998
 21
-105.7856836365
 31
0.0
  0
LINE
  5
D5
330
1E
100
AcDbEntity
  8
1
100
AcDbLine
 10
62.91161431979999
 20
100.1039174018
 30
0.0
 11
56.171468014
 21
103.9444934854
 31
0.0
  0
LINE
  5
D6
330
1E
100
AcDbEntity
  8
1
100
AcDbLine
 10
55.43702951070001
 20
103.5157910774999
 30
0.0
 11
47.1739778778
 21
108.2241278167
 31
0.0
  0
LINE
  5
D7
330
1E
100
AcDbEntity
  8
1
100
AcDbLine
 10
62.04423054490001
 20
95.86988448929991
 30
0.0
 11
61.60000000000001
 21
96.1230097375
 31
0.0
  0
LINE
  5
D8
330
1E
100
AcDbEntity
  8
1
100
AcDbLine
 10
61.82700338460001
 20
95.0362399661
 30
0.0
 11
61.60000000000001
 21
95.165587866
 31
0.0
  0
LINE
  5
D9
330
1E
100
AcDbEntity
  8
1
100
AcDbLine
 10
10.0
 20
80.0
 30
0.0
 11
1.599999999999995
 21
80.0
 31
0.0
  0
LINE
  5
DA
330
1E
100
AcDbEntity
  8
SK3
100
AcDbLine
 10
61.60000000000001
 20
67.58966444039988
 30
0.0
 11
32.73027540580002
 21
65.0638908193
 31
0.0
  0
LINE
  5
DB
330
1E
100
AcDbEntity
  8
SK3
100
AcDbLine
 10
0.0000000000000073
 20
59.79999999999989
 30
0.0
 11
32.00000000000001
 21
59.79999999999989
 31
0.0
  0
LINE
  5
DC
330
1E
100
AcDbEntity
  8
SK4
100
AcDbLine
 10
35.0
 20
50.7999999999999
 30
0.0
 11
-2.999999999999993
 21
50.7999999999999
 31
0.0
  0
LINE
  5
DD
330
1E
100
AcDbEntity
  8
1
100
AcDbLine
 10
62.0296065542
 20
-78.02373942630002
 30
0.0
 11
62.98857247549999
 21
-72.75879502740011
 31
0.0
  0
LINE
  5
DE
330
1E
100
AcDbEntity
  8
1
100
AcDbLine
 10
62.02939391179999
 20
-66.91546194870011
 30
0.0
 11
62.9883598331
 21
-61.65051754970002
 31
0.0
  0
LINE
  5
DF
330
1E
100
AcDbEntity
  8
1
100
AcDbLine
 10
60.456840298
 20
-24.82082825079999
 30
0.0
 11
59.508499111
 21
-25.4602001438001
 31
0.0
  0
LINE
  5
E0
330
1E
100
AcDbEntity
  8
SK3
100
AcDbLine
 10
0.0000000000000051
 20
41.79999999999989
 30
0.0
 11
32.00000000000001
 21
41.79999999999988
 31
0.0
  0
LINE
  5
E1
330
1E
100
AcDbEntity
  8
1
100
AcDbLine
 10
62.30467595060001
 20
-1.407058246600064
 30
0.0
 11
62.91161431979999
 21
-12.6733372049001
 31
0.0
  0
LINE
  5
E2
330
1E
100
AcDbEntity
  8
1
100
AcDbLine
 10
61.6
 20
-1.306441506100047
 30
0.0
 11
61.60000000000001
 21
98.66520988010002
 31
0.0
  0
LINE
  5
E3
330
1E
100
AcDbEntity
  8
1
100
AcDbLine
 10
61.6
 20
-12.4860591270001
 30
0.0
 11
61.6
 21
-23.86685185749999
 31
0.0
  0
LINE
  5
E4
330
1E
100
AcDbEntity
  8
1
100
AcDbLine
 10
61.6
 20
-33.33190183630009
 30
0.0
 11
61.59999999999999
 21
-98.29594017680001
 31
0.0
  0
LINE
  5
E5
330
1E
100
AcDbEntity
  8
1
100
AcDbLine
 10
62.30467595059999
 20
-98.76698894120012
 30
0.0
 11
62.30852911799999
 21
-97.91160446740008
 31
0.0
  0
LINE
  5
E6
330
1E
100
AcDbEntity
  8
1
100
AcDbLine
 10
62.5797570943
 20
-6.513245395000017
 30
0.0
 11
62.91161431979999
 21
-0.3962358122000257
 31
0.0
  0
LINE
  5
E7
330
1E
100
AcDbEntity
  8
1
100
AcDbLine
 10
62.57015963699998
 20
-6.335092824800034
 30
0.0
 11
62.8894362673
 21
-0.449977009000016
 31
0.0
  0
LINE
  5
E8
330
1E
100
AcDbEntity
  8
1
100
AcDbLine
 10
61.8164636592
 20
-1.337349142200037
 30
0.0
 11
61.8270033846
 21
-1.143074026699997
 31
0.0
  0
LINE
  5
E9
330
1E
100
AcDbEntity
  8
1
100
AcDbLine
 10
62.91161431979999
 20
-0.3962358122000257
 30
0.0
 11
62.8894362673
 21
-0.449977009000016
 31
0.0
  0
LINE
  5
EA
330
1E
100
AcDbEntity
  8
1
100
AcDbLine
 10
57.0428411584
 20
-26.49119595390001
 30
0.0
 11
59.508499111
 21
-25.4602001438001
 31
0.0
  0
LINE
  5
EB
330
1E
100
AcDbEntity
  8
1
100
AcDbLine
 10
60.2044988731
 20
-24.46331040010001
 30
0.0
 11
61.2359494966
 21
-24.05947678159999
 31
0.0
  0
LINE
  5
EC
330
1E
100
AcDbEntity
  8
SK3
100
AcDbLine
 10
1.599999999999988
 20
30.0
 30
0.0
 11
30.4
 21
30.0
 31
0.0
  0
LINE
  5
ED
330
1E
100
AcDbEntity
  8
1
100
AcDbLine
 10
62.0293939118
 20
-17.8017833105001
 30
0.0
 11
62.9883598331
 21
-26.97987172770011
 31
0.0
  0
LINE
  5
EE
330
1E
100
AcDbEntity
  8
1
100
AcDbLine
 10
62.0296065542
 20
-23.94938865039998
 30
0.0
 11
62.98857247549999
 21
-33.12747706760001
 31
0.0
  0
LINE
  5
EF
330
1E
100
AcDbEntity
  8
1
100
AcDbLine
 10
59.508499111
 20
-25.4602001438001
 30
0.0
 11
60.33795342039999
 21
-33.39875647880011
 31
0.0
  0
LINE
  5
F0
330
1E
100
AcDbEntity
  8
1
100
AcDbLine
 10
56.3815683672
 20
-26.7817200836
 30
0.0
 11
57.00189519600001
 21
-32.71875533680002
 31
0.0
  0
LINE
  5
F1
330
1E
100
AcDbEntity
  8
1
100
AcDbLine
 10
55.5645296448
 20
-0.4446704275000072
 30
0.0
 11
56.171468014
 21
-11.7109493859001
 31
0.0
  0
LINE
  5
F2
330
1E
100
AcDbEntity
  8
1
100
AcDbLine
 10
54.9536872779
 20
-0.5811475141999908
 30
0.0
 11
55.476947679
 21
-10.29415619139999
 31
0.0
  0
LINE
  5
F3
330
1E
100
AcDbEntity
  8
1
100
AcDbLine
 10
55.30798398299999
 20
-10.2896954563001
 30
0.0
 11
55.3692614832
 21
-11.42715758859998
 31
0.0
  0
LINE
  5
F4
330
1E
100
AcDbEntity
  8
1
100
AcDbLine
 10
62.91161431979997
 20
-100.1039174018
 30
0.0
 11
62.8894362673
 21
-99.191192874
 31
0.0
  0
LINE
  5
F5
330
1E
100
AcDbEntity
  8
1
100
AcDbLine
 10
56.44999863159998
 20
-32.66277171300001
 30
0.0
 11
56.44999863159998
 21
-32.04922189519999
 31
0.0
  0
LINE
  5
F6
330
1E
100
AcDbEntity
  8
1
100
AcDbLine
 10
62.91161431979999
 20
100.1039174018
 30
0.0
 11
62.8894362673
 21
99.191192874
 31
0.0
  0
LINE
  5
F7
330
1E
100
AcDbEntity
  8
1
100
AcDbLine
 10
62.0442305449
 20
-0.8359987659999964
 30
0.0
 11
61.8270033846
 21
-1.143074026699997
 31
0.0
  0
LINE
  5
F8
330
1E
100
AcDbEntity
  8
1
100
AcDbLine
 10
55.922874862
 20
-27.00421617010011
 30
0.0
 11
56.48865546909998
 21
-32.4191994567
 31
0.0
  0
LINE
  5
F9
330
1E
100
AcDbEntity
  8
1
100
AcDbLine
 10
47.1739778778
 20
-9.108621540400015
 30
0.0
 11
46.6507174767
 21
0.6043871367999656
 31
0.0
  0
LINE
  5
FA
330
1E
100
AcDbEntity
  8
1
100
AcDbLine
 10
62.0293939118
 20
73.28649444619997
 30
0.0
 11
62.9883598331
 21
77.97209862549997
 31
0.0
  0
LINE
  5
FB
330
1E
100
AcDbEntity
  8
1
100
AcDbLine
 10
45.27904536869999
 20
-9.172698423800063
 30
0.0
 11
45.26041883479999
 21
-8.826943833400044
 31
0.0
  0
LINE
  5
FC
330
1E
100
AcDbEntity
  8
1
100
AcDbLine
 10
46.6507174767
 20
0.6043871367999656
 30
0.0
 11
45.9153608034
 21
0.1186066151999454
 31
0.0
  0
LINE
  5
FD
330
1E
100
AcDbEntity
  8
1
100
AcDbLine
 10
62.8894362673
 20
-0.449977009000016
 30
0.0
 11
62.0442305449
 21
-0.8359987659999964
 31
0.0
  0
LINE
  5
FE
330
1E
100
AcDbEntity
  8
1
100
AcDbLine
 10
12.4
 20
12.84999999999999
 30
0.0
 11
1.599999999999988
 21
12.85
 31
0.0
  0
LINE
  5
FF
330
1E
100
AcDbEntity
  8
1
100
AcDbLine
 10
61.59999999999999
 20
-94.95007375969999
 30
0.0
 11
62.30852911799999
 21
-97.91160446740008
 31
0.0
  0
LINE
  5
100
330
1E
100
AcDbEntity
  8
SK3
100
AcDbLine
 10
31.99999999999999
 20
-64.2669350608001
 30
0.0
 11
32.00000000000001
 21
64.26693506079989
 31
0.0
  0
LINE
  5
101
330
1E
100
AcDbEntity
  8
1
100
AcDbLine
 10
62.8894362673
 20
99.191192874
 30
0.0
 11
62.04423054490001
 21
95.86988448929991
 31
0.0
  0
LINE
  5
102
330
1E
100
AcDbEntity
  8
1
100
AcDbLine
 10
62.04423054490001
 20
95.86988448929991
 30
0.0
 11
61.82700338460001
 21
95.0362399661
 31
0.0
  0
LINE
  5
103
330
1E
100
AcDbEntity
  8
SK3
100
AcDbLine
 10
-0.0000000000000039
 20
-31.6
 30
0.0
 11
1.599999999999984
 21
-30.0
 31
0.0
  0
LINE
  5
104
330
1E
100
AcDbEntity
  8
4
100
AcDbLine
 10
66.0829359503
 20
-0.0000000000000081
 30
0.0
 11
-3.0
 21
0.0000000000000004
 31
0.0
  0
LINE
  5
105
330
1E
100
AcDbEntity
  8
1
100
AcDbLine
 10
62.30467595060001
 20
-1.407058246600064
 30
0.0
 11
55.5645296448
 21
-0.4446704275000072
 31
0.0
  0
LINE
  5
106
330
1E
100
AcDbEntity
  8
1
100
AcDbLine
 10
46.6507174767
 20
0.6043871367999656
 30
0.0
 11
54.9536872779
 21
-0.5811475141999908
 31
0.0
  0
LINE
  5
107
330
1E
100
AcDbEntity
  8
1
100
AcDbLine
 10
52.826536052
 20
-10.36854121310009
 30
0.0
 11
52.6268293088
 21
-10.21891148829997
 31
0.0
  0
LINE
  5
108
330
1E
100
AcDbEntity
  8
SK3
100
AcDbLine
 10
0.0000000000000039
 20
31.6
 30
0.0
 11
1.599999999999988
 21
30.0
 31
0.0
  0
LINE
  5
109
330
1E
100
AcDbEntity
  8
1
100
AcDbLine
 10
62.04423054489998
 20
-95.86988448930002
 30
0.0
 11
61.82700338459998
 21
-95.0362399661
 31
0.0
  0
LINE
  5
10A
330
1E
100
AcDbEntity
  8
1
100
AcDbLine
 10
62.8894362673
 20
-99.191192874
 30
0.0
 11
62.04423054489998
 21
-95.86988448930002
 31
0.0
  0
LINE
  5
10B
330
1E
100
AcDbEntity
  8
SK3
100
AcDbLine
 10
30.39999999999999
 20
-30.0
 30
0.0
 11
30.4
 21
30.0
 31
0.0
  0
LINE
  5
10C
330
1E
100
AcDbEntity
  8
1
100
AcDbLine
 10
54.95477436319999
 20
-0.6013265073000368
 30
0.0
 11
55.5645296448
 21
-0.4446704275000072
 31
0.0
  0
LINE
  5
10D
330
1E
100
AcDbEntity
  8
1
100
AcDbLine
 10
62.91161431979999
 20
-0.3962358122000257
 30
0.0
 11
61.6
 21
-0.6835224745000874
 31
0.0
  0
LINE
  5
10E
330
1E
100
AcDbEntity
  8
1
100
AcDbLine
 10
62.0442305449
 20
-0.8359987659999964
 30
0.0
 11
61.6
 21
-0.9332998618000443
 31
0.0
  0
LINE
  5
10F
330
1E
100
AcDbEntity
  8
1
100
AcDbLine
 10
61.8270033846
 20
-1.143074026699997
 30
0.0
 11
61.6
 21
-1.192795231900057
 31
0.0
  0
LINE
  5
110
330
1E
100
AcDbEntity
  8
1
100
AcDbLine
 10
55.476947679
 20
-10.29415619139999
 30
0.0
 11
47.1739778778
 21
-9.108621540400015
 31
0.0
  0
LINE
  5
111
330
1E
100
AcDbEntity
  8
1
100
AcDbLine
 10
45.2575243654
 20
-8.872959197099991
 30
0.0
 11
45.26293943339999
 21
-8.873732384400064
 31
0.0
  0
LINE
  5
112
330
1E
100
AcDbEntity
  8
1
100
AcDbLine
 10
52.60160299069999
 20
-10.2182454995001
 30
0.0
 11
45.27904536869999
 21
-9.172698423800063
 31
0.0
  0
LINE
  5
113
330
1E
100
AcDbEntity
  8
1
100
AcDbLine
 10
62.91161431979999
 20
-12.6733372049001
 30
0.0
 11
56.171468014
 21
-11.7109493859001
 31
0.0
  0
LINE
  5
114
330
1E
100
AcDbEntity
  8
1
100
AcDbLine
 10
55.3692614832
 20
-11.42715758859998
 30
0.0
 11
56.171468014
 21
-11.7109493859001
 31
0.0
  0
LINE
  5
115
330
1E
100
AcDbEntity
  8
1
100
AcDbLine
 10
55.3692614832
 20
-11.42715758859998
 30
0.0
 11
52.826536052
 21
-10.36854121310009
 31
0.0
  0
LINE
  5
116
330
1E
100
AcDbEntity
  8
1
100
AcDbLine
 10
61.60000000000001
 20
94.53621014280001
 30
0.0
 11
61.82700338460001
 21
95.0362399661
 31
0.0
  0
LINE
  5
117
330
1E
100
AcDbEntity
  8
1
100
AcDbLine
 10
-0.0000000000000018
 20
-14.45
 30
0.0
 11
1.599999999999987
 21
-12.85
 31
0.0
  0
LINE
  5
118
330
1E
100
AcDbEntity
  8
1
100
AcDbLine
 10
45.15115804909997
 20
-8.830638471900043
 30
0.0
 11
46.9707937231
 21
-8.769107740600086
 31
0.0
  0
LINE
  5
119
330
1E
100
AcDbEntity
  8
1
100
AcDbLine
 10
47.1739778778
 20
-9.108621540400015
 30
0.0
 11
45.27904536869999
 21
-9.172698423800063
 31
0.0
  0
LINE
  5
11A
330
1E
100
AcDbEntity
  8
1
100
AcDbLine
 10
12.39999999999999
 20
-12.85
 30
0.0
 11
1.599999999999987
 21
-12.85
 31
0.0
  0
LINE
  5
11B
330
1E
100
AcDbEntity
  8
1
100
AcDbLine
 10
55.476947679
 20
-10.29415619139999
 30
0.0
 11
52.60160299069999
 21
-10.2182454995001
 31
0.0
  0
LINE
  5
11C
330
1E
100
AcDbEntity
  8
1
100
AcDbLine
 10
57.00189519600001
 20
-32.71875533680002
 30
0.0
 11
56.48865546909998
 21
-32.4191994567
 31
0.0
  0
LINE
  5
11D
330
1E
100
AcDbEntity
  8
1
100
AcDbLine
 10
0.0000000000000018
 20
14.45
 30
0.0
 11
1.599999999999988
 21
12.85
 31
0.0
  0
LINE
  5
11E
330
1E
100
AcDbEntity
  8
1
100
AcDbLine
 10
61.59999999999999
 20
-94.53621014280001
 30
0.0
 11
61.82700338459998
 21
-95.0362399661
 31
0.0
  0
LINE
  5
11F
330
1E
100
AcDbEntity
  8
1
100
AcDbLine
 10
62.30852911799999
 20
-97.91160446740008
 30
0.0
 11
62.8894362673
 21
-99.191192874
 31
0.0
  0
LINE
  5
120
330
1E
100
AcDbEntity
  8
1
100
AcDbLine
 10
62.30467595059999
 20
-98.76698894120012
 30
0.0
 11
62.91161431979997
 21
-100.1039174018
 31
0.0
  0
LINE
  5
121
330
1E
100
AcDbEntity
  8
1
100
AcDbLine
 10
15.0
 20
87.92893218809998
 30
0.0
 11
14.99999999999999
 21
-87.92893218810009
 31
0.0
  0
LINE
  5
122
330
1E
100
AcDbEntity
  8
1
100
AcDbLine
 10
13.99999999999999
 20
-11.25
 30
0.0
 11
14.0
 21
11.24999999999999
 31
0.0
  0
LINE
  5
123
330
1E
100
AcDbEntity
  8
SK3
100
AcDbLine
 10
30.4
 20
30.0
 30
0.0
 11
32.00000000000001
 21
31.6
 31
0.0
  0
LINE
  5
124
330
1E
100
AcDbEntity
  8
SK3
100
AcDbLine
 10
30.39999999999999
 20
-30.0
 30
0.0
 11
31.99999999999999
 21
-31.6
 31
0.0
  0
LINE
  5
125
330
1E
100
AcDbEntity
  8
1
100
AcDbLine
 10
55.56452964479998
 20
-102.6075650249
 30
0.0
 11
56.17146801399997
 21
-103.9444934854
 31
0.0
  0
LINE
  5
126
330
1E
100
AcDbEntity
  8
1
100
AcDbLine
 10
55.01592228239998
 20
-102.477525594
 30
0.0
 11
55.47694767899997
 21
-103.4930454639999
 31
0.0
  0
LINE
  5
127
330
1E
100
AcDbEntity
  8
SK3
100
AcDbLine
 10
1.599999999999984
 20
-30.0
 30
0.0
 11
1.599999999999987
 21
-12.85
 31
0.0
  0
LINE
  5
128
330
1E
100
AcDbEntity
  8
SK3
100
AcDbLine
 10
1.599999999999988
 20
12.85
 30
0.0
 11
1.599999999999988
 21
30.0
 31
0.0
  0
LINE
  5
129
330
1E
100
AcDbEntity
  8
SK3
100
AcDbLine
 10
1.599999999999984
 20
-30.0
 30
0.0
 11
30.39999999999999
 21
-30.0
 31
0.0
  0
LINE
  5
12A
330
1E
100
AcDbEntity
  8
1
100
AcDbLine
 10
57.00189519600001
 20
-32.71875533680002
 30
0.0
 11
60.33795342039999
 21
-33.39875647880011
 31
0.0
  0
LINE
  5
12B
330
1E
100
AcDbEntity
  8
1
100
AcDbLine
 10
47.17397787779995
 20
-108.2241278167
 30
0.0
 11
46.65431185769999
 21
-107.0794377996999
 31
0.0
  0
LINE
  5
12C
330
1E
100
AcDbEntity
  8
1
100
AcDbLine
 10
-0.0000000000000096
 20
-78.3999939330001
 30
0.0
 11
-0.0000000000000018
 21
-14.44961394770009
 31
0.0
  0
LINE
  5
12D
330
1E
100
AcDbEntity
  8
1
100
AcDbLine
 10
0.0000000000000018
 20
14.4496046086999
 30
0.0
 11
0.0000000000000096
 21
78.39999393300001
 31
0.0
  0
LINE
  5
12E
330
1E
100
AcDbEntity
  8
1
100
AcDbLine
 10
61.40868933100001
 20
-33.35990964389999
 30
0.0
 11
60.33795342039999
 21
-33.39875647880011
 31
0.0
  0
LINE
  5
12F
330
1E
100
AcDbEntity
  8
1
100
AcDbLine
 10
47.1739778778
 20
108.2241278167
 30
0.0
 11
46.98614138510001
 21
107.9127009853
 31
0.0
  0
LINE
  5
130
330
1E
100
AcDbEntity
  8
SK3
100
AcDbLine
 10
-0.0000000000000051
 20
-41.79999999999997
 30
0.0
 11
31.99999999999999
 21
-41.79999999999997
 31
0.0
  0
LINE
  5
131
330
1E
100
AcDbEntity
  8
1
100
AcDbLine
 10
46.83780961739989
 20
-107.4995833929998
 30
0.0
 11
46.60064328829998
 21
-107.1063692879
 31
0.0
  0
LINE
  5
132
330
1E
100
AcDbEntity
  8
1
100
AcDbLine
 10
47.17397787779995
 20
-108.2241278167
 30
0.0
 11
46.97311757959997
 21
-107.8911079368999
 31
0.0
  0
LINE
  5
133
330
1E
100
AcDbEntity
  8
SK4
100
AcDbLine
 10
35.0
 20
-50.8
 30
0.0
 11
-3.000000000000006
 21
-50.8
 31
0.0
  0
LINE
  5
134
330
1E
100
AcDbEntity
  8
1
100
AcDbLine
 10
55.3692614832
 20
103.4762338968
 30
0.0
 11
54.9817567882
 21
103.11748263
 31
0.0
  0
LINE
  5
135
330
1E
100
AcDbEntity
  8
SK3
100
AcDbLine
 10
-0.0000000000000073
 20
-59.8
 30
0.0
 11
31.99999999999999
 21
-59.8
 31
0.0
  0
LINE
  5
136
330
1E
100
AcDbEntity
  8
SK3
100
AcDbLine
 10
61.6
 20
-67.58966444040002
 30
0.0
 11
32.73027540579998
 21
-65.0638908193
 31
0.0
  0
LINE
  5
137
330
1E
100
AcDbEntity
  8
1
100
AcDbLine
 10
32.03553390590001
 20
107.0355339058999
 30
0.0
 11
16.464466094
 21
91.4644660941
 31
0.0
  0
LINE
  5
138
330
1E
100
AcDbEntity
  8
1
100
AcDbLine
 10
32.03553390589998
 20
-107.0355339058999
 30
0.0
 11
16.46446609399999
 21
-91.4644660941
 31
0.0
  0
LINE
  5
139
330
1E
100
AcDbEntity
  8
1
100
AcDbLine
 10
55.3692614832
 20
103.4762338968
 30
0.0
 11
56.171468014
 21
103.9444934854
 31
0.0
  0
LINE
  5
13A
330
1E
100
AcDbEntity
  8
1
100
AcDbLine
 10
9.999999999999987
 20
-80.0
 30
0.0
 11
1.599999999999979
 21
-80.0
 31
0.0
  0
LINE
  5
13B
330
1E
100
AcDbEntity
  8
1
100
AcDbLine
 10
55.16202514279997
 20
-102.3944727499999
 30
0.0
 11
55.56452964479998
 21
-102.6075650249
 31
0.0
  0
LINE
  5
13C
330
1E
100
AcDbEntity
  8
1
100
AcDbLine
 10
55.4370295107
 20
-103.5157910774999
 30
0.0
 11
56.17146801399997
 21
-103.9444934854
 31
0.0
  0
ARC
  5
13D
330
1E
100
AcDbEntity
  8
SK3
100
AcDbCircle
 10
32.79999999999998
 20
-64.2669350608001
 30
0.0
 40
0.8
100
AcDbArc
 50
180.0
 51
265.0
  0
ARC
  5
13E
330
1E
100
AcDbEntity
  8
SK3
100
AcDbCircle
 10
32.79999999999999
 20
64.26693506079989
 30
0.0
 40
0.8
100
AcDbArc
 50
94.99999999999998
 51
180.0
  0
ARC
  5
13F
330
1E
100
AcDbEntity
  8
1
100
AcDbCircle
 10
12.4
 20
11.24999999999999
 30
0.0
 40
1.6
100
AcDbArc
 50
0.0
 51
90.0
  0
ARC
  5
140
330
1E
100
AcDbEntity
  8
1
100
AcDbCircle
 10
12.39999999999999
 20
-11.25
 30
0.0
 40
1.6
100
AcDbArc
 50
270.0
 51
0.0
  0
ARC
  5
141
330
1E
100
AcDbEntity
  8
1
100
AcDbCircle
 10
9.999999999999987
 20
-85.0
 30
0.0
 40
5.0
100
AcDbArc
 50
0.0
 51
90.0
  0
ARC
  5
142
330
1E
100
AcDbEntity
  8
1
100
AcDbCircle
 10
10.0
 20
85.0
 30
0.0
 40
5.0
100
AcDbArc
 50
270.0
 51
0.0
  0
ARC
  5
143
330
1E
100
AcDbEntity
  8
1
100
AcDbCircle
 10
19.99999999999999
 20
-87.92893218810009
 30
0.0
 40
5.0
100
AcDbArc
 50
180.0
 51
225.0
  0
ARC
  5
144
330
1E
100
AcDbEntity
  8
1
100
AcDbCircle
 10
20.00000000000001
 20
87.92893218809998
 30
0.0
 40
5.0
100
AcDbArc
 50
134.9999999999999
 51
180.0
  0
ARC
  5
145
330
1E
100
AcDbEntity
  8
1
100
AcDbCircle
 10
35.57106781179998
 20
-103.4999999999999
 30
0.0
 40
5.0
100
AcDbArc
 50
225.0
 51
270.0
  0
ARC
  5
146
330
1E
100
AcDbEntity
  8
1
100
AcDbCircle
 10
35.57106781179999
 20
103.4999999999999
 30
0.0
 40
5.0
100
AcDbArc
 50
90.0
 51
134.9999999999999
  0
ARC
  5
147
330
1E
100
AcDbEntity
  8
1
100
AcDbCircle
 10
1.599999999999979
 20
-78.4
 30
0.0
 40
1.6
100
AcDbArc
 50
180.0
 51
270.0
  0
ARC
  5
148
330
1E
100
AcDbEntity
  8
1
100
AcDbCircle
 10
1.599999999999995
 20
78.4
 30
0.0
 40
1.6
100
AcDbArc
 50
90.0
 51
180.0
  0
LWPOLYLINE
  5
149
330
1E
100
AcDbEntity
  8
1
100
AcDbPolyline
 90
       67
 70
     0
 43
0.0
 10
62.75491920109999
 20
-66.62825708680002
 10
62.75288402977828
 20
-66.62862265285482
 10
62.7508555494689
 20
-66.6290583513714
 10
62.7488363987592
 20
-66.62956203022878
 10
62.74682921623679
 20
-66.63013153730581
 10
62.74483664048889
 20
-66.63076472048131
 10
62.7428613101031
 20
-66.63145942763421
 10
62.7409058636667
 20
-66.63221350664321
 10
62.73897293976729
 20
-66.63302480538749
 10
62.7370651769921
 20
-66.63389117174562
 10
62.73518521392859
 20
-66.63481045359661
 10
62.73333568916427
 20
-66.63578049881931
 10
62.73151924128661
 20
-66.63679915529252
 10
62.72973850888289
 20
-66.63786427089521
 10
62.72799613054059
 20
-66.63897369350621
 10
62.7262947448472
 20
-66.64012527100428
 10
62.7246368488361
 20
-66.64131690766362
 10
62.72302302584259
 20
-66.64254727017588
 10
62.72145248402589
 20
-66.64381557310328
 10
62.71992440139619
 20
-66.64512104301953
 10
62.71771009032439
 20
-66.64714724412738
 10
62.71558668873041
 20
-66.64925272043672
 10
62.71355142239839
 20
-66.65143486163322
 10
62.71160151711271
 20
-66.65369105740302
 10
62.7097341986574
 20
-66.65601869743182
 10
62.70794669281689
 20
-66.65841517140581
 10
62.70623622537538
 20
-66.66087786901091
 10
62.70460002211708
 20
-66.66340417993303
 10
62.70303530882618
 20
-66.66599149385802
 10
62.7015393112871
 20
-66.66863720047202
 10
62.70010925528378
 20
-66.67133868946081
 10
62.69874236660078
 20
-66.67409335051043
 10
62.69743587102209
 20
-66.67689857330682
 10
62.6961869943322
 20
-66.67975174753593
 10
62.69499296231511
 20
-66.68265026288371
 10
62.6938510007552
 20
-66.68559150903622
 10
62.69275833543659
 20
-66.68857287567909
 10
62.6913733364465
 20
-66.69260592920122
 10
62.69006446736089
 20
-66.69669948007051
 10
62.68882515226088
 20
-66.70084734087589
 10
62.68764881522779
 20
-66.70504332420631
 10
62.6862569388415
 20
-66.71034654953611
 10
62.68494034721989
 20
-66.7157032136941
 10
62.68344172938661
 20
-66.72218473455671
 10
62.68131384502859
 20
-66.73197299126542
 10
62.67721563068589
 20
-66.75152864260879
 10
62.67511580362729
 20
-66.76117472961201
 10
62.67271787534669
 20
-66.77176848016511
 10
62.67025787703859
 20
-66.78224013584652
 10
62.66748775265678
 20
-66.79362850846391
 10
62.66439880180159
 20
-66.80590977205181
 10
62.66098590648418
 20
-66.81906404604451
 10
62.65697971762778
 20
-66.8340724548119
 10
62.65183233671249
 20
-66.85286706530852
 10
62.64418445627609
 20
-66.88024472324781
 10
62.63100477057309
 20
-66.92777382980961
 10
62.62483111702271
 20
-66.95113731851019
 10
62.6196659238669
 20
-66.97174512062812
 10
62.61426440718078
 20
-66.99450246148329
 10
62.60867129236438
 20
-67.01943746909711
 10
62.60271686321149
 20
-67.04757933995003
 10
62.59626341771719
 20
-67.07997413833192
 10
62.58882260111689
 20
-67.119715133466
 10
62.57874956918328
 20
-67.17709175177032
 10
62.54310809551068
 20
-67.39286312907189
 10
62.51881571347841
 20
-67.54754679132521
 10
62.50898462960639
 20
-67.61382937743022
  0
LWPOLYLINE
  5
18E
330
1E
100
AcDbEntity
  8
1
100
AcDbPolyline
 90
       49
 70
     0
 43
0.0
 10
62.50898319369999
 20
-67.61383927380014
 10
62.48100907530851
 20
-67.81422898800181
 10
62.44954905916129
 20
-68.05829453877201
 10
62.4141758275187
 20
-68.35697348807278
 10
62.37602958952609
 20
-68.71037037180172
 10
62.33673615830189
 20
-69.1131237534462
 10
62.2982337020581
 20
-69.55439103557853
 10
62.2633786855702
 20
-70.00693633388038
 10
62.23384310316899
 20
-70.44887859185419
 10
62.21034213236909
 20
-70.86385195323749
 10
62.19386809826689
 20
-71.21891587636089
 10
62.18266357702109
 20
-71.53024330639303
 10
62.17533875401521
 20
-71.81483649477481
 10
62.17246701987769
 20
-72.00105579822298
 10
62.17183443982559
 20
-72.13742723315251
 10
62.1726787903896
 20
-72.26766762512892
 10
62.17469723939238
 20
-72.39842842564079
 10
62.17612216761999
 20
-72.47009407013251
 10
62.17744481335317
 20
-72.5314548915612
 10
62.1794198074496
 20
-72.60444495868842
 10
62.18095824551078
 20
-72.64346987476208
 10
62.18268474260809
 20
-72.67652236593574
 10
62.18448097423749
 20
-72.7036673038249
 10
62.18619008043688
 20
-72.72505754877151
 10
62.18817044712899
 20
-72.74610845835292
 10
62.1904491899312
 20
-72.76677404535148
 10
62.1923703635716
 20
-72.78199271610344
 10
62.1952119697616
 20
-72.80194189393029
 10
62.20070896713899
 20
-72.83668200605122
 10
62.20316358704439
 20
-72.8518312135447
 10
62.20561870641219
 20
-72.86731906628062
 10
62.20723564163421
 20
-72.87789475988353
 10
62.20882266608589
 20
-72.88871444578292
 10
62.21036772666579
 20
-72.89981551729859
 10
62.21185877027259
 20
-72.9112353677505
 10
62.21328374380489
 20
-72.92301139045861
 10
62.21463059416119
 20
-72.9351809787428
 10
62.21588726823999
 20
-72.94778152592302
 10
62.21704171293989
 20
-72.96085042531922
 10
62.21813233286169
 20
-72.9743439146803
 10
62.2193996932647
 20
-72.98789307894442
 10
62.22113498217069
 20
-73.00104758199821
 10
62.22362938760129
 20
-73.01335708772821
 10
62.22717409757799
 20
-73.02437126002101
 10
62.23206030012248
 20
-73.03363976276331
 10
62.23857918325649
 20
-73.0407122598417
 10
62.24702193500148
 20
-73.04513841514278
 10
62.25752841084418
 20
-73.04649689465056
 10
62.26303731400979
 20
-73.04600148572451
  0
LWPOLYLINE
  5
1C1
330
1E
100
AcDbEntity
  8
1
100
AcDbPolyline
 90
        2
 70
     0
 43
0.0
 10
62.98857247549999
 20
-72.75879502740011
 10
62.98835987588419
 20
-61.6505275496085
  0
LWPOLYLINE
  5
1C5
330
1E
100
AcDbEntity
  8
1
100
AcDbPolyline
 90
        2
 70
     0
 43
0.0
 10
62.9883598331
 20
-61.65051754970002
 10
61.6000159346647
 20
-61.09160722902621
  0
LWPOLYLINE
  5
1C9
330
1E
100
AcDbEntity
  8
1
100
AcDbPolyline
 90
        2
 70
     0
 43
0.0
 10
62.0296065542
 20
-78.02373942630002
 10
61.6000111539861
 20
-78.13735571588309
  0
LWPOLYLINE
  5
1CD
330
1E
100
AcDbEntity
  8
1
100
AcDbPolyline
 90
       67
 70
     0
 43
0.0
 10
62.26304718619998
 20
-73.0459998893
 10
62.26508235752149
 20
-73.0456343232447
 10
62.26711083783029
 20
-73.04519862472648
 10
62.26912998853888
 20
-73.0446949458664
 10
62.27113717105999
 20
-73.04412543878592
 10
62.27312974680621
 20
-73.04349225560611
 10
62.27510507718998
 20
-73.04279754844832
 10
62.27706052362419
 20
-73.04204346943369
 10
62.27899344752128
 20
-73.0412321706834
 10
62.28090121029398
 20
-73.04036580431892
 10
62.28278117335477
 20
-73.0394465224613
 10
62.28463069811649
 20
-73.0384764772317
 10
62.28644714599159
 20
-73.03745782075158
 10
62.2882278783927
 20
-73.036392705142
 10
62.28997025673249
 20
-73.03528328252422
 10
62.29167164242359
 20
-73.03413170501953
 10
62.2933295384326
 20
-73.03294006835398
 10
62.29494336142421
 20
-73.03170970583581
 10
62.29651390323899
 20
-73.03044140290293
 10
62.29804198586709
 20
-73.02913593298161
 10
62.3002562969366
 20
-73.02710973186663
 10
62.30237969852868
 20
-73.02500425555101
 10
62.30441496485899
 20
-73.02282211434892
 10
62.3063648701434
 20
-73.02056591857422
 10
62.30823218859759
 20
-73.0182382785412
 10
62.31001969443719
 20
-73.01584180456361
 10
62.3117301618782
 20
-73.01337910695569
 10
62.31336636513621
 20
-73.01085279603128
 10
62.31493107842688
 20
-73.00826548210451
 10
62.3164270759662
 20
-73.00561977548942
 10
62.3178571319697
 20
-73.00291828649992
 10
62.31922402065329
 20
-73.00016362545012
 10
62.3205305162326
 20
-72.9973584026539
 10
62.32177939292339
 20
-72.99450522842551
 10
62.32297342494138
 20
-72.9916067130788
 10
62.3241153865025
 20
-72.98866546692791
 10
62.32520805182229
 20
-72.9856841002867
 10
62.32659305081429
 20
-72.98165104676761
 10
62.32790191990199
 20
-72.97755749590179
 10
62.32914123500421
 20
-72.97340963510042
 10
62.33031757203969
 20
-72.96921365177431
 10
62.3317094484291
 20
-72.96391042645042
 10
62.33302604005389
 20
-72.95855376229852
 10
62.3345246578911
 20
-72.9520722414437
 10
62.33665254225488
 20
-72.94228398474672
 10
62.3407507566079
 20
-72.9227283334249
 10
62.3428505836706
 20
-72.91308224643042
 10
62.34524851195509
 20
-72.90248849588519
 10
62.34770851026627
 20
-72.89201684021008
 10
62.35047863465069
 20
-72.8806284675978
 10
62.353567585508
 20
-72.86834720401351
 10
62.3569804808266
 20
-72.85519293002261
 10
62.3609866696835
 20
-72.84018452125501
 10
62.36613405059819
 20
-72.82138991075509
 10
62.3737819310315
 20
-72.79401225280611
 10
62.38696161672629
 20
-72.74648314622092
 10
62.39313527027277
 20
-72.7231196575093
 10
62.39830046342599
 20
-72.70251185538342
 10
62.40370198010978
 20
-72.67975451452159
 10
62.40929509492488
 20
-72.65481950690258
 10
62.41524952407739
 20
-72.62667763604619
 10
62.42170296957259
 20
-72.59428283766259
 10
62.42914378617609
 20
-72.55454184252932
 10
62.43921681811779
 20
-72.49716522422949
 10
62.474858291848
 20
-72.28139384693858
 10
62.49915067391659
 20
-72.12671018467855
 10
62.5089817577936
 20
-72.0604275985699
  0
LWPOLYLINE
  5
212
330
1E
100
AcDbEntity
  8
1
100
AcDbPolyline
 90
        2
 70
     0
 43
0.0
 10
61.59999685679999
 20
-66.63691402280001
 10
62.02938552168048
 20
-66.91545650757021
  0
LWPOLYLINE
  5
216
330
1E
100
AcDbEntity
  8
1
100
AcDbPolyline
 90
        2
 70
     0
 43
0.0
 10
62.02939391179999
 20
-66.91546194870011
 10
62.02960651141578
 20
-78.02372942639161
  0
LWPOLYLINE
  5
21A
330
1E
100
AcDbEntity
  8
1
100
AcDbPolyline
 90
       49
 70
     0
 43
0.0
 10
62.50898319369999
 20
-72.06041770220001
 10
62.53695731206209
 20
-71.86002798799609
 10
62.5684173281509
 20
-71.61596243722022
 10
62.6037905597817
 20
-71.31728348792053
 10
62.64193679779109
 20
-70.96388660419681
 10
62.68123022900461
 20
-70.5611332225547
 10
62.71973268523349
 20
-70.119865940425
 10
62.75458770181469
 20
-69.6673206421338
 10
62.78412328419999
 20
-69.22537838416339
 10
62.80762425492299
 20
-68.81040502277871
 10
62.8240982890307
 20
-68.45534109965878
 10
62.83530281028119
 20
-68.14401366962989
 10
62.8426276332868
 20
-67.8594204812499
 10
62.84549936742459
 20
-67.67320117780322
 10
62.84613194747478
 20
-67.53682974287563
 10
62.84528759690648
 20
-67.40658935090151
 10
62.8432691479022
 20
-67.27582855039101
 10
62.84184421967728
 20
-67.20416290589941
 10
62.8405215739496
 20
-67.14280208447039
 10
62.838546579862
 20
-67.0698120173419
 10
62.83700814180459
 20
-67.03078710126762
 10
62.83528164470909
 20
-66.99773461009353
 10
62.83348541307939
 20
-66.97058967220431
 10
62.83177630687859
 20
-66.94919942725771
 10
62.82979594018359
 20
-66.9281485176767
 10
62.82751719737678
 20
-66.90748293067871
 10
62.82559602373201
 20
-66.89226425992742
 10
62.8227544175345
 20
-66.87231508210181
 10
62.81725742014271
 20
-66.83757496998381
 10
62.81480280023199
 20
-66.82242576249122
 10
62.8123476808602
 20
-66.80693790975579
 10
62.81073074563649
 20
-66.79636221615272
 10
62.80914372118399
 20
-66.78554253025291
 10
62.80759866060428
 20
-66.77444145873642
 10
62.806107616999
 20
-66.76302160828304
 10
62.80468264346978
 20
-66.75124558557303
 10
62.803335793118
 20
-66.73907599728622
 10
62.8020791190454
 20
-66.72647545010281
 10
62.80092467435359
 20
-66.71340655070281
 10
62.79983405444088
 20
-66.69991306133841
 10
62.79856669404639
 20
-66.68636389707329
 10
62.79683140514769
 20
-66.67320939402131
 10
62.79433699972249
 20
-66.66089988829579
 10
62.7907922897484
 20
-66.64988571601061
 10
62.78590608720299
 20
-66.64061721327931
 10
62.77938720406399
 20
-66.63354471621561
 10
62.7709444523089
 20
-66.62911856093311
 10
62.76043797645599
 20
-66.6277600814455
 10
62.75492907329009
 20
-66.6282554903756
  0
LWPOLYLINE
  5
24D
330
1E
100
AcDbEntity
  8
1
100
AcDbPolyline
 90
       91
 70
     0
 43
0.0
 10
56.48543381609997
 20
-102.9242110697
 10
56.48455247766626
 20
-102.926113374017
 10
56.48358574320338
 20
-102.9282213785309
 10
56.48257827949998
 20
-102.9304469210849
 10
56.48153362080589
 20
-102.932791634048
 10
56.48041494546447
 20
-102.9353522039069
 10
56.47922948177248
 20
-102.938132662836
 10
56.47794726669818
 20
-102.941233818952
 10
56.47685331415678
 20
-102.943972952091
 10
56.47590294345668
 20
-102.9464366788789
 10
56.47509015912635
 20
-102.948617391312
 10
56.47437253828877
 20
-102.9506090528177
 10
56.47371129122369
 20
-102.952508386163
 10
56.47310471479578
 20
-102.9543135554829
 10
56.47255081403677
 20
-102.956023010939
 10
56.47204736400568
 20
-102.957635458005
 10
56.47159196821228
 20
-102.9591498284559
 10
56.47118211360418
 20
-102.9605652530749
 10
56.47078756061547
 20
-102.96198230093
 10
56.47040893792969
 20
-102.96340065988
 10
56.47007217337038
 20
-102.964718608602
 10
56.46975019007218
 20
-102.966037168748
 10
56.46946652949569
 20
-102.967254627742
 10
56.46919628840697
 20
-102.968472198196
 10
56.46893986271178
 20
-102.969689683545
 10
56.46871728039545
 20
-102.9708054691349
 10
56.46850694446638
 20
-102.971920866634
 10
56.4683091598729
 20
-102.973035724635
 10
56.46812423156308
 20
-102.9741498917309
 10
56.46795246448538
 20
-102.975263216515
 10
56.4678079901061
 20
-102.9762744716169
 10
56.46767487391348
 20
-102.9772847917099
 10
56.46755334501989
 20
-102.9782940630389
 10
56.46744363253728
 20
-102.97930217185
 10
56.46734596557799
 20
-102.980309004388
 10
56.46726057325388
 20
-102.9813144468979
 10
56.46719440433669
 20
-102.982218062667
 10
56.46713853047771
 20
-102.9831203774459
 10
56.46709311869969
 20
-102.9840213083079
 10
56.46705833602529
 20
-102.9849207723269
 10
56.46703434947736
 20
-102.9858186865749
 10
56.46702132607869
 20
-102.9867149681249
 10
56.46701943285197
 20
-102.9876095340519
 10
56.46702883681997
 20
-102.9885023014269
 10
56.4670468149907
 20
-102.9892942954929
 10
56.46707396861398
 20
-102.990084744717
 10
56.46711041499528
 20
-102.9908735908569
 10
56.46715627143988
 20
-102.9916607756699
 10
56.46721165525327
 20
-102.992446240914
 10
56.46727668374088
 20
-102.9932299283469
 10
56.46735147420808
 20
-102.994011779727
 10
56.46743614396037
 20
-102.994791736812
 10
56.46753081030309
 20
-102.995569741359
 10
56.46763559054161
 20
-102.9963457351259
 10
56.46775060198148
 20
-102.9971196598709
 10
56.46787596192798
 20
-102.997891457352
 10
56.46801178768669
 20
-102.9986610693269
 10
56.4681393126796
 20
-102.9993326412199
 10
56.46827501895735
 20
-103.000002456226
 10
56.46841898510539
 20
-103.0006704753249
 10
56.46857128970919
 20
-103.0013366595019
 10
56.46873201135417
 20
-103.002000969738
 10
56.46890122862588
 20
-103.002663367015
 10
56.46907902010969
 20
-103.003323812315
 10
56.46926546439107
 20
-103.0039822666209
 10
56.46946064005549
 20
-103.004638690916
 10
56.46966462568848
 20
-103.00529304618
 10
56.46987749987548
 20
-103.0059452933979
 10
56.47009934120188
 20
-103.0065953935499
 10
56.47033022825326
 20
-103.0072433076189
 10
56.47057023961497
 20
-103.007888996588
 10
56.4708194538726
 20
-103.0085324214389
 10
56.47107794535799
 20
-103.0091735402639
 10
56.47134568307928
 20
-103.0098122396108
 10
56.47162252638128
 20
-103.010448331533
 10
56.47190832948718
 20
-103.011081624605
 10
56.47220294662009
 20
-103.011711927401
 10
56.47250623200296
 20
-103.012339048497
 10
56.47281803985919
 20
-103.0129627964649
 10
56.47313822441159
 20
-103.0135829798809
 10
56.47346663988336
 20
-103.01419940732
 10
56.47385186352567
 20
-103.0148990511039
 10
56.47424742975122
 20
-103.015593253353
 10
56.47465312095718
 20
-103.0162817283239
 10
56.47506871954078
 20
-103.0169641902739
 10
56.47549400789927
 20
-103.0176403534589
 10
56.47592876842978
 20
-103.0183099321368
 10
56.47637278352938
 20
-103.0189726405648
 10
56.47688309167758
 20
-103.019709619666
 10
56.47740452740737
 20
-103.0204371351149
 10
56.47751596200728
 20
-103.0205894195859
  0
LWPOLYLINE
  5
2AA
330
1E
100
AcDbEntity
  8
1
100
AcDbPolyline
 90
       74
 70
     0
 43
0.0
 10
61.99862208259999
 20
-99.69088494760001
 10
61.99803102968107
 20
-99.69009260004192
 10
61.99736119729048
 20
-99.68922267530061
 10
61.99667779993839
 20
-99.68836371509112
 10
61.99598107741937
 20
-99.68751567027062
 10
61.99527126952858
 20
-99.68667849169651
 10
61.99454861606058
 20
-99.68585213022612
 10
61.99381335681039
 20
-99.68503653671689
 10
61.99306573157269
 20
-99.68423166202619
 10
61.992229347291
 20
-99.68335862144995
 10
61.99137860948296
 20
-99.68249842577259
 10
61.99051383731589
 20
-99.68165100958531
 10
61.98963534995646
 20
-99.68081630747921
 10
61.98866173302889
 20
-99.67992014686148
 10
61.98767258808949
 20
-99.67903895429062
 10
61.98666832950369
 20
-99.67817264484819
 10
61.98564937163697
 20
-99.67732113361572
 10
61.98461612885489
 20
-99.67648433567473
 10
61.98356901552291
 20
-99.67566216610659
 10
61.98250844600639
 20
-99.67485453999309
 10
61.98143483467088
 20
-99.6740613724156
 10
61.98025751898248
 20
-99.67321832510613
 10
61.97906591040347
 20
-99.67239203886741
 10
61.97786053576328
 20
-99.67158240573322
 10
61.97664192189098
 20
-99.67078931773713
 10
61.97541059561597
 20
-99.67001266691262
 10
61.97416708376739
 20
-99.66925234529341
 10
61.97291191317458
 20
-99.66850824491309
 10
61.97164561066671
 20
-99.66778025780531
 10
61.97036870307297
 20
-99.6670682760036
 10
61.96908171722277
 20
-99.6663721915416
 10
61.96778517994528
 20
-99.665691896453
 10
61.96647961806966
 20
-99.66502728277143
 10
61.96516555842528
 20
-99.66437824253031
 10
61.96374151813088
 20
-99.66369656872863
 10
61.96230889143019
 20
-99.66303269636924
 10
61.96086833632029
 20
-99.66238649060443
 10
61.95942051079819
 20
-99.66175781658709
 10
61.95796607286087
 20
-99.66114653946959
 10
61.95650568050538
 20
-99.66055252440469
 10
61.95503999172869
 20
-99.65997563654491
 10
61.95356966452798
 20
-99.6594157410427
 10
61.95209535690008
 20
-99.65887270305092
 10
61.95061770337179
 20
-99.65834638849294
 10
61.94903114062307
 20
-99.65780089777602
 10
61.9474411969178
 20
-99.65727432051309
 10
61.94584796612858
 20
-99.65676651435119
 10
61.94425154212838
 20
-99.65627733693745
 10
61.94265201878988
 20
-99.65580664591861
 10
61.94104948998598
 20
-99.65535429894192
 10
61.93944404958938
 20
-99.65492015365429
 10
61.93783579147289
 20
-99.65450406770262
 10
61.93622480950939
 20
-99.65410589873402
 10
61.93461119757169
 20
-99.65372550439553
 10
61.93288721845657
 20
-99.65333918163523
 10
61.93116046774846
 20
-99.6529727477241
 10
61.92943105937418
 20
-99.65262602989831
 10
61.92769910726038
 20
-99.65229885539407
 10
61.92596472533399
 20
-99.65199105144757
 10
61.92422802752171
 20
-99.65170244529494
 10
61.92248912775037
 20
-99.65143286417244
 10
61.92074813994689
 20
-99.6511821353161
 10
61.91889617997289
 20
-99.6509361991518
 10
61.91704212806985
 20
-99.65071114317069
 10
61.91518612088898
 20
-99.65050676014923
 10
61.91332829508109
 20
-99.6503228428633
 10
61.91146878729719
 20
-99.65015918408932
 10
61.90960773418828
 20
-99.65001557660343
 10
61.90763567488168
 20
-99.64988514653299
 10
61.90566219851259
 20
-99.6497767178014
 10
61.90368746729319
 20
-99.64969004442252
 10
61.90171164343571
 20
-99.64962488041031
 10
61.89973488915228
 20
-99.64958097977891
 10
61.89952519816018
 20
-99.64957756091951
  0
LWPOLYLINE
  5
2F6
330
1E
100
AcDbEntity
  8
1
100
AcDbPolyline
 90
       66
 70
     0
 43
0.0
 10
61.89951519939998
 20
-99.64957740380008
 10
61.88673889855459
 20
-99.64975259502821
 10
61.87398680543578
 20
-99.65058917298541
 10
61.86125821248939
 20
-99.65195179649931
 10
61.84855241216109
 20
-99.65370512439712
 10
61.8295349003089
 20
-99.65677166888839
 10
61.79794557013938
 20
-99.66232975359702
 10
61.76649068609769
 20
-99.66834390663212
 10
61.73517264333567
 20
-99.67483917564095
 10
61.70399383700498
 20
-99.68184060827049
 10
61.67915265171288
 20
-99.68782302420008
 10
61.65440333695157
 20
-99.69415823973664
 10
61.62974678302838
 20
-99.70085689357901
 10
61.59905216837611
 20
-99.70972027287979
 10
61.56848874024571
 20
-99.71907910961993
 10
61.53804691784608
 20
-99.72888054978351
 10
61.50166376077748
 20
-99.74115209604494
 10
61.45939854267077
 20
-99.75605639781479
 10
61.40530475980128
 20
-99.77592548300272
 10
61.33353814517177
 20
-99.80326061004269
 10
61.25620960329268
 20
-99.83381852803674
 10
61.17338043629811
 20
-99.86776037835371
 10
61.08510164285448
 20
-99.90523440571422
 10
60.99141760644549
 20
-99.94636147928208
 10
60.88656273094088
 20
-99.99388668579658
 10
60.75909941674568
 20
-100.0535015331059
 10
60.61506720858638
 20
-100.1229224730719
 10
60.45468527582521
 20
-100.202555164503
 10
60.27816476156427
 20
-100.292792957405
 10
60.08007706853819
 20
-100.39701774042
 10
59.86074768910397
 20
-100.5157721493449
 10
59.62608927996996
 20
-100.646463296234
 10
59.37636510743979
 20
-100.789490678249
 10
59.12286150111847
 20
-100.9387453217049
 10
58.86568852358238
 20
-101.094329700529
 10
58.61042332848029
 20
-101.2530243643
 10
58.36789390817659
 20
-101.407939353108
 10
58.13798324971608
 20
-101.558813269641
 10
57.92589270529777
 20
-101.7018356343539
 10
57.73665256259072
 20
-101.832955769451
 10
57.56993307767061
 20
-101.9516376288019
 10
57.42023256795338
 20
-102.061131871231
 10
57.29243644281321
 20
-102.1572140843449
 10
57.17608487881569
 20
-102.247192606125
 10
57.08099992799787
 20
-102.322830423781
 10
56.99687266357621
 20
-102.3916992168729
 10
56.92350150463008
 20
-102.453541018955
 10
56.86067690375757
 20
-102.5080671592329
 10
56.80824205195758
 20
-102.5550099503329
 10
56.76128798703199
 20
-102.5984280183098
 10
56.71970967445028
 20
-102.638182587126
 10
56.6833743651316
 20
-102.67412767546
 10
56.65216863682747
 20
-102.706165333441
 10
56.62593998460867
 20
-102.7341555246437
 10
56.60449872525938
 20
-102.757910910715
 10
56.58347593295108
 20
-102.78210345088
 10
56.56291027993769
 20
-102.806776576222
 10
56.54688400956509
 20
-102.8269125066179
 10
56.53524613345968
 20
-102.842298434248
 10
56.52404062412058
 20
-102.857968131588
 10
56.51336205963128
 20
-102.87395792122
 10
56.50658246900369
 20
-102.884813547105
 10
56.50010713392708
 20
-102.8958383418469
 10
56.49396407753717
 20
-102.9070430676939
 10
56.48818132297011
 20
-102.9184384868919
 10
56.48543803475849
 20
-102.9242020031229
  0
LWPOLYLINE
  5
33A
330
1E
100
AcDbEntity
  8
1
100
AcDbPolyline
 90
       91
 70
     0
 43
0.0
 10
61.99071014849999
 20
-99.78727135700014
 10
61.99159148693368
 20
-99.78536905268274
 10
61.99255822139658
 20
-99.78326104816959
 10
61.99356568509998
 20
-99.78103550561458
 10
61.99461034379408
 20
-99.77869079265239
 10
61.99572901913538
 20
-99.77613022279292
 10
61.99691448282749
 20
-99.77334976386401
 10
61.99819669790177
 20
-99.77024860774799
 10
61.99929065044319
 20
-99.76750947460907
 10
62.00024102114328
 20
-99.76504574782145
 10
62.00105380547359
 20
-99.76286503538759
 10
62.00177142631108
 20
-99.760873373882
 10
62.00243267337627
 20
-99.75897404053707
 10
62.00303924980421
 20
-99.75716887121702
 10
62.00359315056306
 20
-99.75545941576072
 10
62.00409660059428
 20
-99.75384696869543
 10
62.00455199638771
 20
-99.7523325982438
 10
62.00496185099568
 20
-99.75091717362552
 10
62.00535640398449
 20
-99.74950012577039
 10
62.00573502667019
 20
-99.74808176682024
 10
62.00607179122958
 20
-99.74676381809809
 10
62.00639377452779
 20
-99.74544525795195
 10
62.00667743510429
 20
-99.74422779895839
 10
62.00694767619299
 20
-99.74301022850376
 10
62.00720410188811
 20
-99.74179274315524
 10
62.00742668420449
 20
-99.74067695756502
 10
62.00763702013357
 20
-99.73956156006593
 10
62.00783480472709
 20
-99.73844670206499
 10
62.00801973303688
 20
-99.73733253496922
 10
62.00819150011447
 20
-99.73621921018551
 10
62.00833597449388
 20
-99.73520795508274
 10
62.00846909068637
 20
-99.73419763498959
 10
62.00859061958007
 20
-99.73318836366072
 10
62.00870033206258
 20
-99.73218025485012
 10
62.00879799902199
 20
-99.73117342231233
 10
62.00888339134596
 20
-99.73016797980159
 10
62.00894956026321
 20
-99.72926436403302
 10
62.00900543412227
 20
-99.72836204925407
 10
62.00905084590027
 20
-99.727461118392
 10
62.00908562857469
 20
-99.72656165437351
 10
62.0091096151226
 20
-99.72566374012544
 10
62.00912263852121
 20
-99.72476745857479
 10
62.00912453174797
 20
-99.72387289264844
 10
62.00911512777999
 20
-99.72298012527316
 10
62.00909714960918
 20
-99.72218813120704
 10
62.00906999598588
 20
-99.72139768198289
 10
62.00903354960468
 20
-99.72060883584333
 10
62.00898769316009
 20
-99.71982165103021
 10
62.00893230934671
 20
-99.71903618578593
 10
62.00886728085908
 20
-99.71825249835269
 10
62.00879249039178
 20
-99.71747064697261
 10
62.00870782063958
 20
-99.71669068988797
 10
62.00861315429688
 20
-99.71591268534094
 10
62.00850837405827
 20
-99.71513669157372
 10
62.00839336261849
 20
-99.71436276682851
 10
62.00826800267188
 20
-99.71359096934765
 10
62.00813217691328
 20
-99.71282135737322
 10
62.00800465192038
 20
-99.71214978547992
 10
62.00786894564259
 20
-99.71147997047452
 10
62.00772497949458
 20
-99.71081195137459
 10
62.00757267489079
 20
-99.71014576719792
 10
62.00741195324578
 20
-99.70948145696233
 10
62.00724273597407
 20
-99.70881905968539
 10
62.00706494449029
 20
-99.70815861438492
 10
62.00687850020889
 20
-99.70750016007862
 10
62.00668332454448
 20
-99.70684373578432
 10
62.00647933891151
 20
-99.70618938051963
 10
62.00626646472449
 20
-99.70553713330223
 10
62.00604462339798
 20
-99.70488703315005
 10
62.00581373634668
 20
-99.70423911908063
 10
62.00557372498487
 20
-99.70359343011182
 10
62.00532451072737
 20
-99.70295000526123
 10
62.005066019242
 20
-99.70230888643612
 10
62.00479828152069
 20
-99.7016701870892
 10
62.00452143821868
 20
-99.70103409516712
 10
62.00423563511279
 20
-99.700400802095
 10
62.00394101797988
 20
-99.69977049929859
 10
62.00363773259699
 20
-99.69914337820343
 10
62.00332592474078
 20
-99.69851963023494
 10
62.00300574018838
 20
-99.6978994468187
 10
62.00267732471647
 20
-99.69728301938033
 10
62.00229210107428
 20
-99.696583375596
 10
62.00189653484878
 20
-99.69588917334689
 10
62.00149084364277
 20
-99.69520069837605
 10
62.00107524505917
 20
-99.69451823642629
 10
62.00064995670068
 20
-99.69384207324086
 10
62.00021519617019
 20
-99.69317249456272
 10
61.99977118107059
 20
-99.69250978613501
 10
61.99926087292228
 20
-99.69177280703362
 10
61.99873943719261
 20
-99.69104529158544
 10
61.99862800259269
 20
-99.69089300711399
  0
LWPOLYLINE
  5
397
330
1E
100
AcDbEntity
  8
1
100
AcDbPolyline
 90
        3
 70
     0
 43
0.0
 10
61.91629901069997
 20
-99.65459564440005
 10
61.91492996831499
 20
-99.65764265354351
 10
61.91389277869749
 20
-99.65989458099512
  0
LWPOLYLINE
  5
39C
330
1E
100
AcDbEntity
  8
1
100
AcDbPolyline
 90
       75
 70
     0
 43
0.0
 10
56.47752188199998
 20
-103.0205974790999
 10
56.48614224268937
 20
-103.0303374000199
 10
56.49633216727618
 20
-103.038623969108
 10
56.50768918207377
 20
-103.045505674426
 10
56.51981081339569
 20
-103.051031004036
 10
56.53230896963129
 20
-103.0552515477029
 10
56.54499902763878
 20
-103.05826277611
 10
56.55784720416177
 20
-103.060192690741
 10
56.57082327585236
 20
-103.061170060828
 10
56.58389701936259
 20
-103.061323655603
 10
56.5970382113446
 20
-103.060782244295
 10
56.61021662845048
 20
-103.0596745961357
 10
56.62340204733247
 20
-103.0581294803569
 10
56.64312719041198
 20
-103.055273237595
 10
56.66920619269021
 20
-103.0509998831069
 10
56.69502396128039
 20
-103.0463441343119
 10
56.7206138807229
 20
-103.0413097100518
 10
56.74600935432287
 20
-103.0359002591727
 10
56.77124378538579
 20
-103.030119430519
 10
56.79635057721679
 20
-103.0239708729359
 10
56.82136313312119
 20
-103.0174582352669
 10
56.84631308113169
 20
-103.0105863080019
 10
56.87742909338989
 20
-103.0015187439569
 10
56.90846474844171
 20
-102.9919669039879
 10
56.93941869547071
 20
-102.9819807385338
 10
56.97645367536619
 20
-102.969494360568
 10
57.01950687074198
 20
-102.9543425094399
 10
57.07461113613437
 20
-102.934147766641
 10
57.1476474395606
 20
-102.9063307814469
 10
57.22023220478257
 20
-102.877615670683
 10
57.29842506300169
 20
-102.8455678698319
 10
57.38220470279088
 20
-102.810052239456
 10
57.47750083648348
 20
-102.768313580527
 10
57.58417811270447
 20
-102.7200595044319
 10
57.70797678939609
 20
-102.6622807519609
 10
57.85451349299428
 20
-102.5917766771559
 10
58.01183871117588
 20
-102.513773226095
 10
58.19140344022297
 20
-102.42209442286
 10
58.38715210009461
 20
-102.319217507129
 10
58.60455701852679
 20
-102.201658316176
 10
58.83760008333347
 20
-102.072047681494
 10
59.08601617146588
 20
-101.929977746895
 10
59.33832617871161
 20
-101.781655765713
 10
59.59441981193076
 20
-101.626978496601
 10
59.84862712347389
 20
-101.4692209467287
 10
60.0899367282674
 20
-101.3153883214209
 10
60.31847248796688
 20
-101.165751620026
 10
60.52895033066469
 20
-101.0241907435968
 10
60.72158120667449
 20
-100.891091122457
 10
60.89128541123288
 20
-100.770602860319
 10
61.04366146509072
 20
-100.6594261593229
 10
61.17374255211387
 20
-100.5618580108329
 10
61.28704831304069
 20
-100.474482351744
 10
61.38388172784418
 20
-100.397724487519
 10
61.46956108532999
 20
-100.3278372582699
 10
61.54428612610928
 20
-100.265076815615
 10
61.60827890723819
 20
-100.2097407621429
 10
61.66170117469768
 20
-100.1621027110079
 10
61.70954493184698
 20
-100.1180393813529
 10
61.75191235263998
 20
-100.07768951166
 10
61.78893974797919
 20
-100.0412059127069
 10
61.82074479711998
 20
-100.008692799764
 10
61.84747833915888
 20
-99.98028718384993
 10
61.86933153578618
 20
-99.95617708976631
 10
61.89075616906509
 20
-99.93161970679729
 10
61.91171219506728
 20
-99.90656954884549
 10
61.92805205250778
 20
-99.88612510532805
 10
61.93992388252798
 20
-99.87050260774422
 10
61.95135683376307
 20
-99.85458980213479
 10
61.96225142109527
 20
-99.83834848137782
 10
61.96916625980659
 20
-99.82731955807651
 10
61.97576813299258
 20
-99.81611632647094
 10
61.98202756358128
 20
-99.80472746593251
 10
61.98791507450096
 20
-99.7931416558324
 10
61.99070592984146
 20
-99.78728042357673
  0
LWPOLYLINE
  5
3E9
330
1E
100
AcDbEntity
  8
1
100
AcDbPolyline
 90
        2
 70
     0
 43
0.0
 10
62.98857247549999
 20
93.29212288729998
 10
62.98835986297302
 20
77.97210862545539
  0
LWPOLYLINE
  5
3ED
330
1E
100
AcDbEntity
  8
1
100
AcDbPolyline
 90
        2
 70
     0
 43
0.0
 10
61.6000019593
 20
73.07348555509998
 10
62.02938495395031
 20
73.2864900013233
  0
LWPOLYLINE
  5
3F1
330
1E
100
AcDbEntity
  8
1
100
AcDbPolyline
 90
        2
 70
     0
 43
0.0
 10
61.60000553229999
 20
94.04190522779998
 10
62.988563678066
 20
93.29212764178793
  0
LWPOLYLINE
  5
3F5
330
1E
100
AcDbEntity
  8
1
100
AcDbPolyline
 90
       44
 70
     0
 43
0.0
 10
61.60333340640002
 20
93.35000410489993
 10
61.6859823758349
 20
92.98561346681628
 10
61.76470995726149
 20
92.62034164759668
 10
61.83948543971061
 20
92.25422797685041
 10
61.91027816579239
 20
91.88731181266678
 10
61.97706122807528
 20
91.519634506431
 10
62.03981386217462
 20
91.15124067487361
 10
62.09851587276371
 20
90.78217523720878
 10
62.1509523030917
 20
90.42789887772491
 10
62.1996323074579
 20
90.07308650227491
 10
62.24453822596331
 20
89.71777765092308
 10
62.28565669195241
 20
89.36201205258869
 10
62.32297982107212
 20
89.00582967735077
 10
62.35650008598032
 20
88.6492705109932
 10
62.38620995933479
 20
88.2923745392993
 10
62.41210191379372
 20
87.93518174805296
 10
62.43416853350172
 20
87.57773213578429
 10
62.45240668015952
 20
87.22006619008649
 10
62.46681873970139
 20
86.86222503015169
 10
62.47740746400779
 20
86.50424981701117
 10
62.4841756049593
 20
86.14618171169647
 10
62.48712591443629
 20
85.7880618752392
 10
62.4862612594353
 20
85.42993145208498
 10
62.4815887676414
 20
85.07183097281247
 10
62.47312098056649
 20
84.7138001879915
 10
62.4608707896219
 20
84.35587879777967
 10
62.4448510862188
 20
83.99810650233458
 10
62.42507476176839
 20
83.6405230018139
 10
62.4004474909141
 20
83.26763656208738
 10
62.37176299904691
 20
82.89504188617078
 10
62.33904559276162
 20
82.52277946876569
 10
62.3023199121485
 20
82.15088964533974
 10
62.2616105972977
 20
81.77941275136047
 10
62.2169422882995
 20
81.40838912229526
 10
62.16833992628981
 20
81.03785901983258
 10
62.1135611360834
 20
80.65245711474418
 10
62.0545835178034
 20
80.26767632628438
 10
61.99144490721638
 20
79.88355979763108
 10
61.924183140089
 20
79.5001506719623
 10
61.8528360521878
 20
79.11749209245598
 10
61.77434292527021
 20
78.7203681604326
 10
61.69152128635661
 20
78.32413933749598
 10
61.6044212113881
 20
77.9288408077693
 10
61.6009886541558
 20
77.91366582703306
  0
LWPOLYLINE
  5
423
330
1E
100
AcDbEntity
  8
1
100
AcDbPolyline
 90
        2
 70
     0
 43
0.0
 10
62.9883598331
 20
77.97209862549997
 10
61.6000019274815
 20
77.0390162655851
  0
LWPOLYLINE
  5
427
330
1E
100
AcDbEntity
  8
1
100
AcDbPolyline
 90
       81
 70
     0
 43
0.0
 10
47.83206825859998
 20
-107.2131094241999
 10
47.83063430618377
 20
-107.2162388568949
 10
47.82935981106609
 20
-107.219107982141
 10
47.82819806280588
 20
-107.2218058734659
 10
47.82710615958047
 20
-107.224423638135
 10
47.82608255532527
 20
-107.2269600786569
 10
47.82516175051019
 20
-107.2293194204249
 10
47.82430332024818
 20
-107.2315942606959
 10
47.82350512847329
 20
-107.233783490984
 10
47.82273183012287
 20
-107.235981796576
 10
47.82201630455749
 20
-107.238093102476
 10
47.82135609089897
 20
-107.240116341685
 10
47.82071885551347
 20
-107.242147371354
 10
47.82013416634598
 20
-107.2440889370189
 10
47.81959988842976
 20
-107.245939872209
 10
47.81911376146378
 20
-107.247699081306
 10
47.81867338156628
 20
-107.24936555363
 10
47.81825199614657
 20
-107.2510367981839
 10
47.81787344327137
 20
-107.2526140215628
 10
47.81751304806936
 20
-107.2541953338508
 10
47.81719224278737
 20
-107.25568146801
 10
47.81688849624427
 20
-107.257171081675
 10
47.81662085972206
 20
-107.2585644782729
 10
47.81636897953317
 20
-107.259960812792
 10
47.81613328836257
 20
-107.2613600402789
 10
47.81592930625995
 20
-107.262661874041
 10
47.81574000256838
 20
-107.2639661274999
 10
47.81556572371947
 20
-107.2652727646629
 10
47.81540681614528
 20
-107.266581749542
 10
47.81527408309549
 20
-107.267792087515
 10
47.81515514473198
 20
-107.2690042328199
 10
47.81505047828839
 20
-107.270217945272
 10
47.81496748076761
 20
-107.2713316848818
 10
47.81489724732208
 20
-107.2724463512999
 10
47.81484014702471
 20
-107.273561757992
 10
47.81479994476184
 20
-107.2745762494969
 10
47.81477117864947
 20
-107.27559105849
 10
47.81475412597757
 20
-107.276606044822
 10
47.81474906403607
 20
-107.277621068348
 10
47.81475627011507
 20
-107.278635988919
 10
47.81477347392377
 20
-107.2795492135758
 10
47.81480104157828
 20
-107.280462139153
 10
47.81483917522307
 20
-107.2813746634839
 10
47.81488807700248
 20
-107.282286684401
 10
47.81494794906087
 20
-107.2831980997369
 10
47.81501899354277
 20
-107.2841088073239
 10
47.81510141259246
 20
-107.285018704996
 10
47.81519540835437
 20
-107.285927690585
 10
47.81528884228028
 20
-107.286734829482
 10
47.81539172492967
 20
-107.2875410952409
 10
47.81550419827488
 20
-107.288346416106
 10
47.81562640417869
 20
-107.2891507201489
 10
47.81575845978978
 20
-107.289953896302
 10
47.81590042638927
 20
-107.290755745025
 10
47.81605235758528
 20
-107.291556054624
 10
47.81621430698577
 20
-107.292354613409
 10
47.81638632819879
 20
-107.293151209687
 10
47.81656847483218
 20
-107.2939456317649
 10
47.816760800494
 20
-107.2947376679509
 10
47.81696335879227
 20
-107.2955271065539
 10
47.81717620333497
 20
-107.2963137358809
 10
47.81739938773019
 20
-107.297097344239
 10
47.81763296558577
 20
-107.297877719937
 10
47.81787699050968
 20
-107.298654651282
 10
47.81813151611009
 20
-107.299427926582
 10
47.81839659599489
 20
-107.3001973341439
 10
47.81867228377209
 20
-107.300962662278
 10
47.81895863304959
 20
-107.301723699289
 10
47.81925569743546
 20
-107.3024802334868
 10
47.81956353053778
 20
-107.3032320531789
 10
47.81984176035788
 20
-107.303885861622
 10
47.82012831193328
 20
-107.3045357566279
 10
47.82042322117708
 20
-107.305181596379
 10
47.82072652400247
 20
-107.305823239057
 10
47.82103825632257
 20
-107.306460542845
 10
47.82135845405067
 20
-107.3070933659269
 10
47.82168715243519
 20
-107.3077215670009
 10
47.82202433430759
 20
-107.308345045529
 10
47.82236989307728
 20
-107.308963770506
 10
47.82277492687287
 20
-107.309665033032
 10
47.82313286716568
 20
-107.310264936881
  0
LWPOLYLINE
  5
47A
330
1E
100
AcDbEntity
  8
1
100
AcDbPolyline
 90
       76
 70
     0
 43
0.0
 10
53.34627480179996
 20
-103.9790056455
 10
53.33826442744229
 20
-103.968734118171
 10
53.32819678778172
 20
-103.9604572589039
 10
53.31678446666836
 20
-103.954127624845
 10
53.30462528648009
 20
-103.949446529382
 10
53.29203491993268
 20
-103.9460842752299
 10
53.27922237229659
 20
-103.9437561683569
 10
53.26628322887739
 20
-103.9422657914119
 10
53.25328961458581
 20
-103.941443804401
 10
53.240272944251
 20
-103.941183078201
 10
53.22725562436261
 20
-103.9413904911699
 10
53.21425272639558
 20
-103.9419927649789
 10
53.20127014719668
 20
-103.9429414412839
 10
53.18831316896968
 20
-103.944189792823
 10
53.16893235425318
 20
-103.9465446103
 10
53.14961895700098
 20
-103.9494026122059
 10
53.13037411602437
 20
-103.9526853729979
 10
53.11119636799028
 20
-103.956338905328
 10
53.09208337909486
 20
-103.96031744497
 10
53.06669574808029
 20
-103.96606150717
 10
53.04141209271111
 20
-103.9722479052799
 10
53.0162258076599
 20
-103.9788176936287
 10
52.98487073786509
 20
-103.987504814848
 10
52.95364722206328
 20
-103.99665248819
 10
52.91633912240778
 20
-104.008161822651
 10
52.87919142770529
 20
-104.0201780482939
 10
52.83603825781888
 20
-104.034758736858
 10
52.78694371773499
 20
-104.0520686014559
 10
52.73197088489627
 20
-104.072260113843
 10
52.6711803014601
 20
-104.0954700701689
 10
52.60462926157577
 20
-104.121820027895
 10
52.5263654122294
 20
-104.15392154327
 10
52.43652893313418
 20
-104.1920823903589
 10
52.33525646732759
 20
-104.2365859382169
 10
52.22267947194449
 20
-104.2876903705949
 10
52.09304731315858
 20
-104.3484250296289
 10
51.9465799730159
 20
-104.4192106934969
 10
51.78349451877608
 20
-104.500442868052
 10
51.60400679733658
 20
-104.5924975646969
 10
51.40259794921078
 20
-104.698810391259
 10
51.18530348630978
 20
-104.816809376939
 10
50.95236696232947
 20
-104.946871088914
 10
50.70405834738059
 20
-105.089402660366
 10
50.44627177968759
 20
-105.241520600805
 10
50.19033472206109
 20
-105.396730197192
 10
49.93629415430788
 20
-105.555024711319
 10
49.69516427763488
 20
-105.709390397789
 10
49.46682759873499
 20
-105.8595638181619
 10
49.25656658670988
 20
-106.001659270715
 10
49.06949788356658
 20
-106.1315560734169
 10
48.90000375496008
 20
-106.2525066712759
 10
48.75309498993889
 20
-106.360271616086
 10
48.62322007306488
 20
-106.458229478957
 10
48.51012443869228
 20
-106.5459935237119
 10
48.41352269448299
 20
-106.623151208986
 10
48.33309336561688
 20
-106.689261175656
 10
48.26354071112338
 20
-106.748094580728
 10
48.19977926535656
 20
-106.803684198676
 10
48.14657025691118
 20
-106.8515607464429
 10
48.09891115539478
 20
-106.895864358267
 10
48.06137046347359
 20
-106.9319283196839
 10
48.02445741363158
 20
-106.9686345617659
 10
47.99277923281668
 20
-107.001365425534
 10
47.96618704387166
 20
-107.0299526561379
 10
47.94450289214478
 20
-107.054209966588
 10
47.92752723721918
 20
-107.073942136991
 10
47.91094266502727
 20
-107.094004463375
 10
47.89482471328038
 20
-107.1144444095279
 10
47.88310095496147
 20
-107.130056028539
 10
47.87175435789889
 20
-107.145942970755
 10
47.86085385774938
 20
-107.1621400546439
 10
47.85388624100008
 20
-107.173134571626
 10
47.84719807929335
 20
-107.184304658563
 10
47.84083712161907
 20
-107.195666834926
 10
47.83487571037297
 20
-107.207238980428
 10
47.83207247728667
 20
-107.21310035763
  0
LWPOLYLINE
  5
4C8
330
1E
100
AcDbEntity
  8
1
100
AcDbPolyline
 90
       81
 70
     0
 43
0.0
 10
53.337344591
 20
-104.0761697114999
 10
53.33877854341896
 20
-104.073040278808
 10
53.34005303854507
 20
-104.070171153568
 10
53.34121478681677
 20
-104.06747326225
 10
53.34230669005559
 20
-104.0648554975889
 10
53.34333029432498
 20
-104.0623190570739
 10
53.34425109915351
 20
-104.059959715313
 10
53.34510952942798
 20
-104.057684875049
 10
53.34590772121385
 20
-104.0554956447669
 10
53.3466810195738
 20
-104.05329733918
 10
53.34739654514649
 20
-104.051186033285
 10
53.34805675880961
 20
-104.0491627940789
 10
53.34869399419718
 20
-104.047131764412
 10
53.34927868336411
 20
-104.045190198749
 10
53.34981296127757
 20
-104.0433392635589
 10
53.35029908823928
 20
-104.0415800544619
 10
53.35073946813139
 20
-104.039913582137
 10
53.35116085354446
 20
-104.0382423375818
 10
53.35153940641268
 20
-104.0366651142029
 10
53.35189980160689
 20
-104.0350838019129
 10
53.35222060688098
 20
-104.0335976677529
 10
53.35252435341589
 20
-104.032108054087
 10
53.35279198993021
 20
-104.030714657488
 10
53.35304387011099
 20
-104.029318322968
 10
53.3532795612734
 20
-104.0279190954809
 10
53.35348354336838
 20
-104.026617261718
 10
53.3536728470526
 20
-104.02531300826
 10
53.35384712589418
 20
-104.0240063710968
 10
53.35400603346128
 20
-104.022697386219
 10
53.35413876650488
 20
-104.021487048247
 10
53.3542577048626
 20
-104.020274902943
 10
53.3543623713006
 20
-104.019061190493
 10
53.35444536881668
 20
-104.0179474508849
 10
53.35451560225809
 20
-104.0168327844689
 10
53.35457270255157
 20
-104.0157173777779
 10
53.35461290481148
 20
-104.014702886275
 10
53.35464167092127
 20
-104.013688077285
 10
53.35465872359121
 20
-104.0126730909537
 10
53.3546637855311
 20
-104.01165806743
 10
53.35465657945118
 20
-104.0106431468599
 10
53.35463937564209
 20
-104.009729922204
 10
53.35461180798769
 20
-104.008816996628
 10
53.35457367434361
 20
-104.0079044722979
 10
53.35452477256539
 20
-104.0069924513808
 10
53.35446490050879
 20
-104.006081036046
 10
53.35439385602928
 20
-104.005170328458
 10
53.35431143698268
 20
-104.004260430786
 10
53.35421744122438
 20
-104.0033514451969
 10
53.35412400730228
 20
-104.002544306299
 10
53.35402112465728
 20
-104.001738040539
 10
53.35390865131699
 20
-104.0009327196709
 10
53.35378644541869
 20
-104.000128415627
 10
53.35365438981378
 20
-103.999325239472
 10
53.35351242322078
 20
-103.9985233907467
 10
53.35336049203169
 20
-103.997723081144
 10
53.35319854263838
 20
-103.996924522357
 10
53.35302652143269
 20
-103.9961279260759
 10
53.35284437480648
 20
-103.9953335039949
 10
53.35265204915177
 20
-103.994541467805
 10
53.3524494908605
 20
-103.9937520292
 10
53.3522366463243
 20
-103.992965399871
 10
53.35201346193528
 20
-103.9921817915099
 10
53.35177988408519
 20
-103.9914014158099
 10
53.35153585916607
 20
-103.9906244844629
 10
53.3512813335697
 20
-103.989851209162
 10
53.35101625368808
 20
-103.9890818015979
 10
53.35074056591299
 20
-103.988316473465
 10
53.3504542166364
 20
-103.9875554364529
 10
53.35015715225008
 20
-103.986798902257
 10
53.349849319146
 20
-103.986047082567
 10
53.34957108932308
 20
-103.9853932741259
 10
53.34928453774377
 20
-103.984743379123
 10
53.34898962849468
 20
-103.9840975393759
 10
53.34868632566259
 20
-103.9834558967019
 10
53.34837459333439
 20
-103.982818592919
 10
53.34805439559668
 20
-103.9821857698429
 10
53.34772569720079
 20
-103.981557568776
 10
53.34738851531618
 20
-103.9809340902559
 10
53.34704295653509
 20
-103.980315365286
 10
53.34663792272998
 20
-103.9796141027659
 10
53.34627998243429
 20
-103.9790141989189
  0
LWPOLYLINE
  5
51B
330
1E
100
AcDbEntity
  8
1
100
AcDbPolyline
 90
       76
 70
     0
 43
0.0
 10
47.82313804779998
 20
-107.3102734903
 10
47.83114842219887
 20
-107.320545017597
 10
47.84121606189057
 20
-107.3288218768259
 10
47.85262838299689
 20
-107.3351515108939
 10
47.86478756316818
 20
-107.3398326064099
 10
47.87737792970788
 20
-107.3431948605739
 10
47.89019047735211
 20
-107.345522967388
 10
47.90312962078238
 20
-107.347013344284
 10
47.91612323507677
 20
-107.3478353313199
 10
47.92913990540818
 20
-107.348096057577
 10
47.94215722529147
 20
-107.34788864463
 10
47.95516012325517
 20
-107.347286370791
 10
47.96814270245296
 20
-107.3463376944399
 10
47.98109968068168
 20
-107.34508934288
 10
48.00048049540436
 20
-107.34273452544
 10
48.01979389266069
 20
-107.339876523581
 10
48.03903873363347
 20
-107.3365937627809
 10
48.05821648165899
 20
-107.332940230399
 10
48.07732947054669
 20
-107.328961690711
 10
48.10271710155848
 20
-107.323217628497
 10
48.12800075693187
 20
-107.31703123041
 10
48.15318704199238
 20
-107.310461442098
 10
48.184542111801
 20
-107.301774320927
 10
48.21576562761348
 20
-107.29262664762
 10
48.25307372726872
 20
-107.281117313157
 10
48.29022142195348
 20
-107.2691010874609
 10
48.33337459182867
 20
-107.254520398862
 10
48.38246913193559
 20
-107.2372105343289
 10
48.43744196478568
 20
-107.217019021974
 10
48.49823254819559
 20
-107.193809065578
 10
48.56478358805657
 20
-107.1674591077919
 10
48.64304743744888
 20
-107.1353575925279
 10
48.7328839165351
 20
-107.0971967454179
 10
48.83415638233969
 20
-107.0526931975549
 10
48.94673337768217
 20
-107.0015887650868
 10
49.07636553649147
 20
-106.940854106101
 10
49.22283287663129
 20
-106.8700684422279
 10
49.38591833089859
 20
-106.7888362677259
 10
49.56540605233598
 20
-106.696781571077
 10
49.76681490043799
 20
-106.5904687444699
 10
49.98410936338657
 20
-106.472469758875
 10
50.21704588729718
 20
-106.342408046774
 10
50.46535450226969
 20
-106.199876475363
 10
50.72314106993577
 20
-106.0477585348789
 10
50.97907812760669
 20
-105.8925489385639
 10
51.23311869535838
 20
-105.734254424434
 10
51.47424857203528
 20
-105.5798887379679
 10
51.70258525093298
 20
-105.42971531759
 10
51.91284626299239
 20
-105.2876198650869
 10
52.09991496607049
 20
-105.157723062289
 10
52.26940909470378
 20
-105.0367724644669
 10
52.416317859727
 20
-104.929007519659
 10
52.54619277659958
 20
-104.831049656787
 10
52.65928841097148
 20
-104.74328561203
 10
52.75589015517937
 20
-104.666127926754
 10
52.83631948408729
 20
-104.600017960134
 10
52.90587213855328
 20
-104.5411845550289
 10
52.96963358429596
 20
-104.485594937054
 10
53.02284259279799
 20
-104.437718389349
 10
53.07050169426521
 20
-104.3934147774729
 10
53.10804238614298
 20
-104.357350816009
 10
53.14495543606978
 20
-104.320644574012
 10
53.17663361687998
 20
-104.2879137102409
 10
53.20322580577368
 20
-104.2593264795879
 10
53.22490995747109
 20
-104.235069169112
 10
53.24188561238417
 20
-104.215336998698
 10
53.25847018457378
 20
-104.1952746723117
 10
53.27458813633061
 20
-104.1748347261667
 10
53.28631189466569
 20
-104.159223107169
 10
53.29765849175259
 20
-104.14333616497
 10
53.30855899192918
 20
-104.127139081097
 10
53.31552660868435
 20
-104.1161445641189
 10
53.32221477037588
 20
-104.1049744771739
 10
53.32857572801568
 20
-104.093612300792
 10
53.33453713923198
 20
-104.082040155275
 10
53.33734037231327
 20
-104.0761787780699
  0
LWPOLYLINE
  5
569
330
1E
100
AcDbEntity
  8
1
100
AcDbPolyline
 90
       48
 70
     0
 43
0.0
 10
62.1949780058
 20
-22.2589080732
 10
62.1871848195887
 20
-22.2571905156981
 10
62.1814842675727
 20
-22.2594136045381
 10
62.1776938405577
 20
-22.2649561788997
 10
62.17549534304128
 20
-22.27322221076689
 10
62.17457057952099
 20
-22.283615672124
 10
62.17460135449471
 20
-22.29554053495501
 10
62.17526947245989
 20
-22.30840077124389
 10
62.1767706148552
 20
-22.3281411396264
 10
62.17766501208028
 20
-22.3407801057546
 10
62.17833992970209
 20
-22.352760153823
 10
62.1788109930332
 20
-22.36412441409679
 10
62.17909454486179
 20
-22.37491739057369
 10
62.1792069279763
 20
-22.3851835872515
 10
62.1791644851651
 20
-22.3949675081282
 10
62.1789835592165
 20
-22.40431365720149
 10
62.1786804929189
 20
-22.4132665384693
 10
62.1782716290606
 20
-22.42187065592939
 10
62.17777331043
 20
-22.43017051357969
 10
62.1772018798154
 20
-22.43821061541801
 10
62.1765736800051
 20
-22.4460354654422
 10
62.1755606878974
 20
-22.45746649582231
 10
62.1741638722602
 20
-22.47236985895939
 10
62.1722353059147
 20
-22.4947237849808
 10
62.1714635715613
 20
-22.5062205327277
 10
62.1708574182409
 20
-22.51803501905019
 10
62.1704078585135
 20
-22.5301484306594
 10
62.1701050117946
 20
-22.54253960091519
 10
62.16993899749951
 20
-22.5551873631772
 10
62.16989993504347
 20
-22.5680705508051
 10
62.1699779438421
 20
-22.5811679971586
 10
62.17024698886029
 20
-22.5989279659976
 10
62.17068317442429
 20
-22.61698103687769
 10
62.1714277678832
 20
-22.63988311513331
 10
62.1727603679416
 20
-22.67239713399479
 10
62.1776071605084
 20
-22.7705645145783
 10
62.1791473104365
 20
-22.8027324434225
 10
62.18080934483478
 20
-22.8390623088859
 10
62.1827764771692
 20
-22.8839287041962
 10
62.18522613385
 20
-22.9415629632014
 10
62.19489825083961
 20
-23.1523580340673
 10
62.2051738243303
 20
-23.3300643231536
 10
62.2395671919531
 20
-23.8334035667267
 10
62.28325793534359
 20
-24.39292685182151
 10
62.35051858273489
 20
-25.1564367037076
 10
62.4297883251005
 20
-25.9635551465393
 10
62.50847995352788
 20
-26.69009129184139
 10
62.50898206401179
 20
-26.69450887251469
  0
LWPOLYLINE
  5
59B
330
1E
100
AcDbEntity
  8
1
100
AcDbPolyline
 90
       39
 70
     0
 43
0.0
 10
62.5089831937
 20
-26.6945188085
 10
62.5785995040082
 20
-27.28074057093631
 10
62.6203557269445
 20
-27.6053567763796
 10
62.68507774365851
 20
-28.0647166119524
 10
62.6993091212549
 20
-28.1601662030415
 10
62.708228589426
 20
-28.21568728949269
 10
62.7157126429592
 20
-28.25917772412601
 10
62.7225912172458
 20
-28.29661749011139
 10
62.72951243186859
 20
-28.3319679253719
 10
62.7570111675842
 20
-28.4674680030643
 10
62.76171637850488
 20
-28.49324823887489
 10
62.7651040545582
 20
-28.51318382415881
 10
62.76825326245621
 20
-28.5332249754664
 10
62.77196681650799
 20
-28.55732857620369
 10
62.77366690371231
 20
-28.5673289337352
 10
62.7751521467344
 20
-28.57529011732349
 10
62.77678192903859
 20
-28.5832050033837
 10
62.7781175964296
 20
-28.5891043772548
 10
62.7795648018632
 20
-28.59496722307689
 10
62.7811365030665
 20
-28.60078904698299
 10
62.78284565776671
 20
-28.60656535510639
 10
62.78470522369061
 20
-28.61229165357999
 10
62.78672815856559
 20
-28.61796344853701
 10
62.7889274201184
 20
-28.62357624611051
 10
62.79049795263009
 20
-28.62728311564179
 10
62.79215645087059
 20
-28.6309604353233
 10
62.7939067541664
 20
-28.63460687363919
 10
62.7957527018441
 20
-28.6382210990731
 10
62.7976981332301
 20
-28.64180178010898
 10
62.7997468876511
 20
-28.64534758523078
 10
62.80190300337229
 20
-28.64885655039989
 10
62.8041764490394
 20
-28.65230785602719
 10
62.80658399106728
 20
-28.65565906912511
 10
62.8091427693012
 20
-28.65886656939039
 10
62.8118699235862
 20
-28.66188673651969
 10
62.8147825937674
 20
-28.6646759502101
 10
62.81789791968989
 20
-28.6671905901581
 10
62.8212330411989
 20
-28.66938703606061
 10
62.8229794891385
 20
-28.6703477307063
  0
LWPOLYLINE
  5
5C4
330
1E
100
AcDbEntity
  8
1
100
AcDbPolyline
 90
        3
 70
     0
 43
0.0
 10
62.98857247549999
 20
-33.12747706760001
 10
62.99904716373568
 20
-29.2975131667743
 10
62.98835990356879
 20
-26.9798817274518
  0
LWPOLYLINE
  5
5C9
330
1E
100
AcDbEntity
  8
1
100
AcDbPolyline
 90
        2
 70
     0
 43
0.0
 10
61.59999951899999
 20
-17.8208549492
 10
62.0293839215251
 20
-17.80178375141761
  0
LWPOLYLINE
  5
5CD
330
1E
100
AcDbEntity
  8
1
100
AcDbPolyline
 90
        2
 70
     0
 43
0.0
 10
61.40868933100001
 20
-33.35990964389999
 10
62.98856258336988
 20
-33.12747853244189
  0
LWPOLYLINE
  5
5D1
330
1E
100
AcDbEntity
  8
1
100
AcDbPolyline
 90
       39
 70
     0
 43
0.0
 10
62.5089831937
 20
-24.23474156960001
 10
62.4393668832819
 20
-23.6485198071711
 10
62.3976106603534
 20
-23.32390360172369
 10
62.3328886436305
 20
-22.8645437661483
 10
62.3186572660164
 20
-22.76909417506221
 10
62.3097377978438
 20
-22.71357308861089
 10
62.3022537443177
 20
-22.67008265397551
 10
62.2953751700449
 20
-22.6326428879866
 10
62.28845395544301
 20
-22.59729245272107
 10
62.2609552198165
 20
-22.4617923750082
 10
62.2562500088994
 20
-22.43601213919709
 10
62.2528623328431
 20
-22.4160765539144
 10
62.2497131249362
 20
-22.3960354026093
 10
62.24599957086589
 20
-22.3719318018771
 10
62.2442994836523
 20
-22.36193144434819
 10
62.24281424062239
 20
-22.35397026076201
 10
62.2411844583103
 20
-22.3460553747038
 10
62.2398487909135
 20
-22.34015600083437
 10
62.238401585474
 20
-22.3342931550138
 10
62.236829884265
 20
-22.3284713311092
 10
62.23512072955941
 20
-22.3226950229872
 10
62.23326116363029
 20
-22.3169687245149
 10
62.2312382287507
 20
-22.31129692955919
 10
62.22903896719349
 20
-22.3056841319868
 10
62.2274684346792
 20
-22.3019772624562
 10
62.2258099364364
 20
-22.29829994277519
 10
62.2240596331385
 20
-22.29465350446
 10
62.22221368545909
 20
-22.2910392790265
 10
62.2202682540716
 20
-22.2874585979909
 10
62.21821949964949
 20
-22.2839127928694
 10
62.2160633839276
 20
-22.28040382770041
 10
62.21378993826
 20
-22.2769525220732
 10
62.2113823962319
 20
-22.27360130897531
 10
62.20882361799811
 20
-22.27039380871001
 10
62.20609646371321
 20
-22.26737364158061
 10
62.20318379353219
 20
-22.2645844278902
 10
62.2000684676099
 20
-22.262069787942
 10
62.19673334610099
 20
-22.25987334203949
 10
62.19498689816148
 20
-22.2589126473938
  0
LWPOLYLINE
  5
5FA
330
1E
100
AcDbEntity
  8
1
100
AcDbPolyline
 90
        5
 70
     0
 43
0.0
 10
60.7159043486
 20
-24.2635836320001
 10
60.6562231396562
 20
-24.397787601568
 10
60.5925072503393
 20
-24.5369229673062
 10
60.52410740181789
 20
-24.6820156777988
 10
60.45684470486278
 20
-24.82081927418811
  0
LWPOLYLINE
  5
601
330
1E
100
AcDbEntity
  8
1
100
AcDbPolyline
 90
        3
 70
     0
 43
0.0
 10
62.0293939118
 20
-17.8017833105001
 10
62.0189192236463
 20
-21.63174721132461
 10
62.0296064837312
 20
-23.9493786506483
  0
LWPOLYLINE
  5
606
330
1E
100
AcDbEntity
  8
1
100
AcDbPolyline
 90
       48
 70
     0
 43
0.0
 10
62.8229883815
 20
-28.6703523049001
 10
62.83078156771111
 20
-28.67206986240219
 10
62.836482119727
 20
-28.66984677356239
 10
62.84027254674199
 20
-28.6643041992009
 10
62.8424710442585
 20
-28.65603816733369
 10
62.8433958077787
 20
-28.6456447059766
 10
62.8433650328051
 20
-28.6337198431457
 10
62.84269691484009
 20
-28.62085960685661
 10
62.8411957724448
 20
-28.6011192384741
 10
62.84030137521971
 20
-28.5884802723458
 10
62.839626457598
 20
-28.5765002242773
 10
62.839155394267
 20
-28.5651359640035
 10
62.8388718424384
 20
-28.5543429875266
 10
62.83875945932379
 20
-28.5440767908487
 10
62.8388019021351
 20
-28.53429286997199
 10
62.8389828280836
 20
-28.5249467208987
 10
62.8392858943812
 20
-28.51599383963089
 10
62.83969475823949
 20
-28.50738972217078
 10
62.8401930768702
 20
-28.49908986452051
 10
62.8407645074848
 20
-28.4910497626822
 10
62.841392707295
 20
-28.483224912658
 10
62.8424056994027
 20
-28.471793882278
 10
62.84380251503979
 20
-28.45689051914101
 10
62.8457310813853
 20
-28.4345365931197
 10
62.8465028157386
 20
-28.42303984537289
 10
62.8471089690591
 20
-28.41122535905061
 10
62.8475585287864
 20
-28.39911194744139
 10
62.84786137550528
 20
-28.38672077718561
 10
62.8480273898005
 20
-28.37407301492361
 10
62.8480664522564
 20
-28.3611898272958
 10
62.84798844345779
 20
-28.3480923809423
 10
62.8477193984397
 20
-28.3303324121034
 10
62.8472832128756
 20
-28.3122793412233
 10
62.8465386194168
 20
-28.2893772629677
 10
62.84520601935838
 20
-28.25686324410619
 10
62.8403592267917
 20
-28.15869586352311
 10
62.8388190768636
 20
-28.1265279346791
 10
62.8371570424652
 20
-28.09019806921611
 10
62.8351899101307
 20
-28.0453316739061
 10
62.8327402534494
 20
-27.9876974149014
 10
62.8230681364532
 20
-27.7769023440361
 10
62.8127925629567
 20
-27.59919605494991
 10
62.7783991954262
 20
-27.0958568113712
 10
62.73470845197989
 20
-26.5363335262824
 10
62.66744780457059
 20
-25.7728236743994
 10
62.5881780621854
 20
-24.9657052315714
 10
62.5094864338721
 20
-24.23916908625851
 10
62.5089843233881
 20
-24.23475150558541
  0
LWPOLYLINE
  5
638
330
1E
100
AcDbEntity
  8
1
100
AcDbPolyline
 90
        8
 70
     0
 43
0.0
 10
62.6893537251
 20
-28.07593993119999
 10
62.6752158695811
 20
-27.84204347083621
 10
62.654372687543
 20
-27.46616224286039
 10
62.6332430306025
 20
-27.1634221766233
 10
62.57625750997348
 20
-26.4396341101919
 10
62.5083871651946
 20
-25.68206698096791
 10
62.4285106284975
 20
-24.8793351370055
 10
62.3598060389882
 20
-24.2492458341854
  0
LWPOLYLINE
  5
642
330
1E
100
AcDbEntity
  8
1
100
AcDbPolyline
 90
        4
 70
     0
 43
0.0
 10
62.1814099577
 20
-22.86577964170001
 10
62.2754548782638
 20
-23.54421525675229
 10
62.34772023366339
 20
-24.14390892491419
 10
62.35980377960999
 20
-24.2492259622149
  0
LWPOLYLINE
  5
648
330
1E
100
AcDbEntity
  8
1
100
AcDbPolyline
 90
        2
 70
     0
 43
0.0
 10
62.0296065542
 20
-23.94938865039998
 10
60.4568490397861
 20
-24.8208233947548
  0
LWPOLYLINE
  5
64C
330
1E
100
AcDbEntity
  8
1
100
AcDbPolyline
 90
      126
 70
     0
 43
0.0
 10
56.4854338161
 20
-6.165969997500047
 10
56.48122824487138
 20
-6.212557500304773
 10
56.4776073003963
 20
-6.259204049769666
 10
56.4745708356972
 20
-6.305901007114885
 10
56.4721187037965
 20
-6.352639733560657
 10
56.4702507577167
 20
-6.399411590327167
 10
56.46896685048039
 20
-6.446207938634603
 10
56.46826683510999
 20
-6.493020139703177
 10
56.4681505646281
 20
-6.539839554753076
 10
56.4686178920571
 20
-6.586657545004485
 10
56.4696686704195
 20
-6.633465471677627
 10
56.4713027526299
 20
-6.680254697863447
 10
56.47351996470909
 20
-6.727017053010617
 10
56.4763200705667
 20
-6.773745443613472
 10
56.47970282537158
 20
-6.820432927734266
 10
56.483667984293
 20
-6.867072563435247
 10
56.4882153024998
 20
-6.913657408778678
 10
56.49334453516111
 20
-6.960180521826815
 10
56.4990554374459
 20
-7.006634960641918
 10
56.5053477645231
 20
-7.053013783286237
 10
56.5122212715619
 20
-7.099310047822027
 10
56.5196757137312
 20
-7.145516812311557
 10
56.5277108463849
 20
-7.191627126636377
 10
56.53632643308739
 20
-7.237633677169456
 10
56.5455222487051
 20
-7.283528649933176
 10
56.555298068927
 20
-7.329304194522014
 10
56.56565366944221
 20
-7.374952460530437
 10
56.5765888259398
 20
-7.420465597552907
 10
56.58810331410879
 20
-7.465835755183907
 10
56.60019690963821
 20
-7.511055083017917
 10
56.6128693882172
 20
-7.556115730649386
 10
56.62612052553488
 20
-7.601009847672797
 10
56.6399500972801
 20
-7.645729583682617
 10
56.65435786615461
 20
-7.690267056606716
 10
56.6693434281608
 20
-7.734613977924785
 10
56.6849062637869
 20
-7.778761777467066
 10
56.7010458512042
 20
-7.822701879414355
 10
56.71776166858371
 20
-7.866425707947467
 10
56.7350531940965
 20
-7.909924687247197
 10
56.75291990591389
 20
-7.953190241494342
 10
56.771361282207
 20
-7.996213794869722
 10
56.7903768011469
 20
-8.038986771554137
 10
56.8099659409047
 20
-8.081500595728375
 10
56.8301281796457
 20
-8.123746691563715
 10
56.8508628568582
 20
-8.165716258771967
 10
56.87216881426889
 20
-8.207399691399716
 10
56.8940447819662
 20
-8.248787202798125
 10
56.9164894900385
 20
-8.289869006318367
 10
56.9395016685742
 20
-8.330635315311598
 10
56.9630800476616
 20
-8.371076343128976
 10
56.9872233573891
 20
-8.411182303121657
 10
57.01193032784511
 20
-8.450943408640803
 10
57.0371996891179
 20
-8.490349873037587
 10
57.0630301712959
 20
-8.529391909663157
 10
57.0894204469985
 20
-8.568059680345186
 10
57.1163683909096
 20
-8.606342631526457
 10
57.14387129368819
 20
-8.644229686045566
 10
57.17192643261721
 20
-8.681709754748684
 10
57.2005310849794
 20
-8.718771748481977
 10
57.22968252805778
 20
-8.755404578091605
 10
57.2593780391352
 20
-8.791597154423747
 10
57.2896148954944
 20
-8.827338388324555
 10
57.3203903744184
 20
-8.862617190640202
 10
57.3517017531899
 20
-8.897422472216854
 10
57.3835462785156
 20
-8.931743130290467
 10
57.4159201660329
 20
-8.965567603141117
 10
57.4525058767861
 20
-9.002553662065842
 10
57.48598066951299
 20
-9.035290790888847
 10
57.51996898702319
 20
-9.067493955774926
 10
57.55446571433878
 20
-9.099151002712908
 10
57.5894657364823
 20
-9.130249777691595
 10
57.624963938476
 20
-9.160778126699815
 10
57.66095520534221
 20
-9.190723895726382
 10
57.6974344221032
 20
-9.220074930760135
 10
57.73026583799779
 20
-9.245655627918347
 10
57.76347390377599
 20
-9.270748195995418
 10
57.7970527629096
 20
-9.295343961068015
 10
57.8309965184462
 20
-9.319434246752935
 10
57.86529927343298
 20
-9.343010376666967
 10
57.8999551309173
 20
-9.366063674426914
 10
57.9349581939466
 20
-9.388585463649576
 10
57.97030256556819
 20
-9.410567067951733
 10
58.0059823488294
 20
-9.431999810950195
 10
58.03747266575561
 20
-9.450296402496123
 10
58.0692113168665
 20
-9.468160316751614
 10
58.1011943469462
 20
-9.485585742822156
 10
58.1334171922117
 20
-9.502567076755717
 10
58.16587408612519
 20
-9.519099123595292
 10
58.1985591210083
 20
-9.535176736378495
 10
58.2314663891828
 20
-9.550794768142882
 10
58.2645899829705
 20
-9.565948071926078
 10
58.297923994693
 20
-9.580631500765647
 10
58.3314625166722
 20
-9.594839907699187
 10
58.3651996412297
 20
-9.608568145764307
 10
58.3991294606872
 20
-9.621811067998573
 10
58.4332460673666
 20
-9.634563527439595
 10
58.4675435535896
 20
-9.646820377124956
 10
58.50201601167778
 20
-9.658576470092267
 10
58.5366573171916
 20
-9.669826928560512
 10
58.5664789598141
 20
-9.679064846248069
 10
58.5964149725288
 20
-9.687926267021444
 10
58.62646081312171
 20
-9.696408970340376
 10
58.6566119393788
 20
-9.704510735664594
 10
58.68686380908591
 20
-9.712229342453827
 10
58.7172118800291
 20
-9.719562570167806
 10
58.7476516099942
 20
-9.726508198266264
 10
58.7781784567673
 20
-9.733064006208914
 10
58.8087878781342
 20
-9.739227773455516
 10
58.83947533188099
 20
-9.744997279465767
 10
58.8702362757934
 20
-9.750370303699416
 10
58.9010661676576
 20
-9.755344625616187
 10
58.93196046496822
 20
-9.759918024949918
 10
58.9629142425767
 20
-9.764088641693604
 10
58.9939214395328
 20
-9.767855685198524
 10
59.02497578511971
 20
-9.771218562311318
 10
59.0560710086207
 20
-9.774176679878655
 10
59.08720083931889
 20
-9.776729444747219
 10
59.1183590064975
 20
-9.778876263763658
 10
59.14953923943979
 20
-9.780616543774666
 10
59.18073526742889
 20
-9.781949691626898
 10
59.2119408197481
 20
-9.782875114167016
 10
59.2431496256806
 20
-9.783392218241706
 10
59.2743554145096
 20
-9.783500410697623
 10
59.30555191551821
 20
-9.783199098381457
 10
59.3367328579897
 20
-9.782487688139847
 10
59.34711196990889
 20
-9.782159653870008
  0
LWPOLYLINE
  5
6CC
330
1E
100
AcDbEntity
  8
1
100
AcDbPolyline
 90
      110
 70
     0
 43
0.0
 10
59.1290220003
 20
-3.335848316400026
 10
59.09948286616611
 20
-3.337031829078136
 10
59.06995267696239
 20
-3.338585130154016
 10
59.0404360366748
 20
-3.340507372738383
 10
59.0109382340642
 20
-3.342797567872567
 10
58.9814645578911
 20
-3.345454726597915
 10
58.9520202969162
 20
-3.348477859955753
 10
58.9226107399001
 20
-3.351865978987416
 10
58.8932411756037
 20
-3.355618094734252
 10
58.86391689278751
 20
-3.359733218237596
 10
58.8346431802122
 20
-3.364210360538763
 10
58.8054253266385
 20
-3.369048532679126
 10
58.77626862082699
 20
-3.374246745699997
 10
58.74717835153849
 20
-3.379804010642716
 10
58.7181598075336
 20
-3.385719338548626
 10
58.68921827757301
 20
-3.391991740459066
 10
58.6603589410849
 20
-3.398620145934736
 10
58.6315859741834
 20
-3.405602736811522
 10
58.6029030136096
 20
-3.412937292954966
 10
58.57431369092109
 20
-3.420621590367156
 10
58.5458216376748
 20
-3.428653405050205
 10
58.5133830551048
 20
-3.438255300241035
 10
58.48108168246231
 20
-3.448304870940265
 10
58.44892294061409
 20
-3.458798797360956
 10
58.41691225042719
 20
-3.469733759716185
 10
58.3850550327684
 20
-3.481106438219025
 10
58.3533567085043
 20
-3.492913513082546
 10
58.3218226985019
 20
-3.505151664519825
 10
58.29045842362799
 20
-3.517817572743917
 10
58.2592693041514
 20
-3.530907917317997
 10
58.22826048964029
 20
-3.544419083628286
 10
58.1974364322357
 20
-3.558346699148936
 10
58.1668014732886
 20
-3.572686270956305
 10
58.1363599541502
 20
-3.587433306126756
 10
58.1061162161718
 20
-3.602583311736646
 10
58.0760746007045
 20
-3.618131794862325
 10
58.04623944909959
 20
-3.634074262580165
 10
58.01661510270821
 20
-3.650406221966527
 10
57.9835450966156
 20
-3.669239646319746
 10
57.950753566732
 20
-3.688553937558403
 10
57.9182466943951
 20
-3.708342698531457
 10
57.8860306609431
 20
-3.728599532087866
 10
57.854111597857
 20
-3.749318029615146
 10
57.8224945291
 20
-3.770491527896466
 10
57.79118339245929
 20
-3.792113114016983
 10
57.76018208013461
 20
-3.814175864581845
 10
57.7294944843256
 20
-3.836672856196146
 10
57.69576982876898
 20
-3.862170387830455
 10
57.6624426218316
 20
-3.888185975012405
 10
57.6295182026075
 20
-3.914710120629705
 10
57.59700191019089
 20
-3.941733327570027
 10
57.5648990836759
 20
-3.969246098721066
 10
57.5332150621566
 20
-3.997238936970496
 10
57.4988527109526
 20
-4.028574204783016
 10
57.465009485619
 20
-4.060466407963857
 10
57.4316895342418
 20
-4.092903367221575
 10
57.3988968525274
 20
-4.125872927029706
 10
57.36663543618239
 20
-4.159362931861757
 10
57.3349092809131
 20
-4.193361226191256
 10
57.3037223824261
 20
-4.227855654491726
 10
57.2730787364276
 20
-4.262834061236687
 10
57.24298233862429
 20
-4.298284290899656
 10
57.2134371847225
 20
-4.334194187954157
 10
57.1844472611725
 20
-4.370551602190806
 10
57.1560157979739
 20
-4.407344817937477
 10
57.1281447195335
 20
-4.444562869509423
 10
57.1008358208109
 20
-4.482194865581976
 10
57.07409089676539
 20
-4.520229914830466
 10
57.0479117423565
 20
-4.558657125930213
 10
57.0246049786076
 20
-4.593922095190366
 10
57.0017686250879
 20
-4.629493981245855
 10
56.9794040303772
 20
-4.665364601283237
 10
56.9575125430548
 20
-4.701525772489095
 10
56.9360955117006
 20
-4.737969312049995
 10
56.915154263629
 20
-4.774687058189657
 10
56.89468966529329
 20
-4.811671305050917
 10
56.8747021374487
 20
-4.848914787696035
 10
56.85519208261819
 20
-4.886410259223374
 10
56.8361599033253
 20
-4.924150472731334
 10
56.81760600209311
 20
-4.962128181318297
 10
56.799530781445
 20
-5.000336138082633
 10
56.7819346439042
 20
-5.038767096122747
 10
56.7648179919939
 20
-5.077413808537006
 10
56.7481812282375
 20
-5.116269028423806
 10
56.7320247551583
 20
-5.155325508881515
 10
56.7163489752794
 20
-5.194576003008525
 10
56.7011542180607
 20
-5.234013445457707
 10
56.6864404820012
 20
-5.273631593283027
 10
56.6722076719343
 20
-5.313424436286235
 10
56.6584556926877
 20
-5.353385964283756
 10
56.6451844490891
 20
-5.393510167092006
 10
56.63239384596622
 20
-5.433791034527396
 10
56.6200837881466
 20
-5.474222556406368
 10
56.6082541804581
 20
-5.514798722545304
 10
56.59690492772821
 20
-5.555513522760646
 10
56.5860359347847
 20
-5.596360946868796
 10
56.5756471064552
 20
-5.637334984686177
 10
56.5657383475359
 20
-5.678429625118247
 10
56.556309556241
 20
-5.719638667301936
 10
56.5473606161569
 20
-5.760955488610594
 10
56.53889140889948
 20
-5.802373409602775
 10
56.5309018160846
 20
-5.843885750837025
 10
56.523391719328
 20
-5.885485832871906
 10
56.5163610002457
 20
-5.927166976265947
 10
56.5098095404535
 20
-5.968922501577707
 10
56.5037372215673
 20
-6.010745729365723
 10
56.4981439252028
 20
-6.052629980188552
 10
56.49302953297599
 20
-6.094568574604754
 10
56.4883939265027
 20
-6.136554833172866
 10
56.48543477778811
 20
-6.165960043849393
  0
LWPOLYLINE
  5
73C
330
1E
100
AcDbEntity
  8
1
100
AcDbPolyline
 90
      110
 70
     0
 43
0.0
 10
59.3471219642
 20
-9.782159315999995
 10
59.37666109833489
 20
-9.780975803322172
 10
59.40619128753979
 20
-9.779422502248316
 10
59.4357079278289
 20
-9.777500259667775
 10
59.46520573044129
 20
-9.775210064538935
 10
59.4946794066163
 20
-9.772552905820187
 10
59.5241236675932
 20
-9.769529772469935
 10
59.5535332246113
 20
-9.766141653446569
 10
59.58290278890991
 20
-9.762389537708466
 10
59.61222707172828
 20
-9.758274414214023
 10
59.64150078430559
 20
-9.753797271921637
 10
59.6707186378813
 20
-9.748959099789695
 10
59.6998753436946
 20
-9.743760886776595
 10
59.7289656129848
 20
-9.738203621840726
 10
59.75798415699109
 20
-9.732288293940476
 10
59.78692568695279
 20
-9.726015892034233
 10
59.8157850234419
 20
-9.719387486561055
 10
59.844557990344
 20
-9.712404895685066
 10
59.873240950918
 20
-9.705070339540942
 10
59.90183027360661
 20
-9.697386042126737
 10
59.9303223268527
 20
-9.689354227440515
 10
59.9627609094224
 20
-9.679752332244872
 10
59.99506228206428
 20
-9.669702761539832
 10
60.02722102391171
 20
-9.659208835112568
 10
60.05923171409778
 20
-9.648273872750266
 10
60.09108893175572
 20
-9.636901194240126
 10
60.12278725601889
 20
-9.625094119369347
 10
60.15432126602028
 20
-9.612855967925096
 10
60.1856855408934
 20
-9.600190059694586
 10
60.21687466036929
 20
-9.587099715114906
 10
60.2478834748798
 20
-9.573588548800016
 10
60.278707532284
 20
-9.559660933275756
 10
60.309342491231
 20
-9.545321361465738
 10
60.33978401036939
 20
-9.530574326293532
 10
60.37002774834829
 20
-9.515424320682786
 10
60.40006936381629
 20
-9.499875837557068
 10
60.42990451542229
 20
-9.483933369839988
 10
60.4595288618153
 20
-9.467601410455158
 10
60.49259886791009
 20
-9.448767986104506
 10
60.5253903977967
 20
-9.429453694869275
 10
60.55789727013721
 20
-9.409664933900446
 10
60.5901133035936
 20
-9.389408100349026
 10
60.62203236668489
 20
-9.368689602827393
 10
60.65364943544778
 20
-9.347516104552292
 10
60.6849605720949
 20
-9.325894518438355
 10
60.71596188442629
 20
-9.303831767880247
 10
60.74664948024221
 20
-9.281334776272666
 10
60.78037413580629
 20
-9.255837244645546
 10
60.81370134275079
 20
-9.229821657470235
 10
60.84662576198129
 20
-9.203297511858746
 10
60.8791420544034
 20
-9.176274304923147
 10
60.9112448809226
 20
-9.148761533775475
 10
60.94292890244449
 20
-9.120768695527763
 10
60.9772912536493
 20
-9.089433427714944
 10
61.0111344789815
 20
-9.057541224531423
 10
61.0444544303553
 20
-9.025104265269046
 10
61.0772471120649
 20
-8.992134705454695
 10
61.10950852840399
 20
-8.958644700615275
 10
61.1412346836667
 20
-8.924646406277663
 10
61.172421582147
 20
-8.890151977968786
 10
61.2030652281388
 20
-8.855173571215532
 10
61.2331616259361
 20
-8.819723341544792
 10
61.26270677983288
 20
-8.783813444483467
 10
61.2916967033792
 20
-8.747456030241357
 10
61.3201281665759
 20
-8.710662814490797
 10
61.34799924501571
 20
-8.673444762916377
 10
61.37530814373921
 20
-8.635812766842573
 10
61.4020530677867
 20
-8.597777717593894
 10
61.4282322221987
 20
-8.559350506494808
 10
61.45153898595109
 20
-8.524085537235837
 10
61.47437533947488
 20
-8.488513651181945
 10
61.49673993419039
 20
-8.452643031146427
 10
61.51863142151761
 20
-8.416481859942575
 10
61.5400484528771
 20
-8.380038320383668
 10
61.5609897009541
 20
-8.343320574245847
 10
61.5814542992951
 20
-8.306336327386217
 10
61.6014418271451
 20
-8.269092844742495
 10
61.62095188198072
 20
-8.231597373216306
 10
61.6399840612786
 20
-8.193857159709255
 10
61.65853796251528
 20
-8.155879451122947
 10
61.6766131831676
 20
-8.117671494358987
 10
61.69420932071201
 20
-8.079240536318987
 10
61.7113259726253
 20
-8.040593823904556
 10
61.727962736384
 20
-8.001738604017306
 10
61.7441192094649
 20
-7.962682123558827
 10
61.7597949893444
 20
-7.923431629430747
 10
61.7749897465628
 20
-7.883994186980177
 10
61.7897034826212
 20
-7.844376039153218
 10
61.80393629268639
 20
-7.804583196148117
 10
61.8176882719306
 20
-7.764621668148525
 10
61.8309595155264
 20
-7.724497465338067
 10
61.8437501186463
 20
-7.684216597900356
 10
61.85606017646261
 20
-7.643785076019035
 10
61.86788978414799
 20
-7.603208909877738
 10
61.8792390368748
 20
-7.562494109660074
 10
61.8901080298156
 20
-7.521646685549696
 10
61.9004968581427
 20
-7.480672647730218
 10
61.9104056170603
 20
-7.439578007296222
 10
61.919834408354
 20
-7.398368965110816
 10
61.9287833484375
 20
-7.357052143800617
 10
61.93725255569479
 20
-7.315634222807047
 10
61.94524214851
 20
-7.274121881571525
 10
61.95275224526699
 20
-7.232521799535497
 10
61.9597829643501
 20
-7.190840656140355
 10
61.9663344241432
 20
-7.149085130827558
 10
61.97240674303039
 20
-7.107261903038507
 10
61.9780000393958
 20
-7.065377652214626
 10
61.9831144316233
 20
-7.023439057797347
 10
61.98775003809711
 20
-6.981452799228097
 10
61.99070918681179
 20
-6.952047588550737
  0
LWPOLYLINE
  5
7AC
330
1E
100
AcDbEntity
  8
1
100
AcDbPolyline
 90
      126
 70
     0
 43
0.0
 10
61.99071014850001
 20
-6.952037634900086
 10
61.99491571972849
 20
-6.905450132095087
 10
61.99853666420338
 20
-6.858803582629947
 10
62.00157312890221
 20
-6.812106625284457
 10
62.00402526080249
 20
-6.765367898838436
 10
62.0058932068817
 20
-6.718596042071667
 10
62.00717711411749
 20
-6.671799693763968
 10
62.0078771294874
 20
-6.624987492695137
 10
62.0079933999688
 20
-6.578168077644964
 10
62.0075260725394
 20
-6.531350087393267
 10
62.0064752941767
 20
-6.484542160719834
 10
62.004841211966
 20
-6.437752934533697
 10
62.0026239998868
 20
-6.390990579386186
 10
61.99982389402929
 20
-6.344262188782987
 10
61.9964411392245
 20
-6.297574704661838
 10
61.9924759803034
 20
-6.250935068960503
 10
61.98792866209689
 20
-6.204350223616727
 10
61.98279942943599
 20
-6.157827110568247
 10
61.9770885271516
 20
-6.111372671752816
 10
61.97079620007478
 20
-6.064993849108207
 10
61.9639226930364
 20
-6.018697584572137
 10
61.9564682508675
 20
-5.972490820082372
 10
61.94843311821411
 20
-5.926380505757356
 10
61.93981753151179
 20
-5.880373955224127
 10
61.93062171589421
 20
-5.834478982460277
 10
61.9208458956724
 20
-5.788703437871316
 10
61.91049029515721
 20
-5.743055171862766
 10
61.8995551386595
 20
-5.697542034840147
 10
61.8880406504904
 20
-5.652171877208956
 10
61.8759470549606
 20
-5.606952549374716
 10
61.86327457638121
 20
-5.561891901742923
 10
61.8500234390631
 20
-5.516997784719118
 10
61.8361938673172
 20
-5.472278048708798
 10
61.82178609844211
 20
-5.427740575784094
 10
61.8068005364349
 20
-5.383393654465375
 10
61.7912377008075
 20
-5.339245854922556
 10
61.7750981133885
 20
-5.295305752974976
 10
61.7583822960065
 20
-5.251581924441948
 10
61.7410907704904
 20
-5.208082945142828
 10
61.72322405866889
 20
-5.164817390896936
 10
61.7047826823705
 20
-5.121793837523624
 10
61.68576716342411
 20
-5.079020860842208
 10
61.6661780236584
 20
-5.036507036672038
 10
61.646015784908
 20
-4.994260940841976
 10
61.6252811076845
 20
-4.952291373640247
 10
61.60397515026179
 20
-4.910607941019886
 10
61.58209918255201
 20
-4.869220429629256
 10
61.5596544744672
 20
-4.828138626116722
 10
61.5366422959198
 20
-4.787372317130683
 10
61.51306391682201
 20
-4.746931289319497
 10
61.4889206070859
 20
-4.706825329331536
 10
61.4642136366237
 20
-4.667064223815176
 10
61.43894427534778
 20
-4.627657759418795
 10
61.4131137931702
 20
-4.588615722790756
 10
61.3867235174722
 20
-4.549947952102987
 10
61.3597755735695
 20
-4.511665000913006
 10
61.3322726708022
 20
-4.473777946383084
 10
61.30421753188638
 20
-4.436297877667893
 10
61.2756128795382
 20
-4.399235883922146
 10
61.24646143647389
 20
-4.362603054300524
 10
61.21676592540969
 20
-4.326410477957727
 10
61.1865290690616
 20
-4.290669244048435
 10
61.1557535901461
 20
-4.255390441727357
 10
61.12444221137909
 20
-4.220585160149176
 10
61.0925976860531
 20
-4.186264502078786
 10
61.0602237985307
 20
-4.152440029236056
 10
61.0236380877674
 20
-4.115453970324336
 10
60.9901632950283
 20
-4.082716841515543
 10
60.95617497750438
 20
-4.050513676644877
 10
60.9216782501743
 20
-4.018856629722345
 10
60.8866782280166
 20
-3.987757854757996
 10
60.8511800260102
 20
-3.957229505761846
 10
60.8151887591336
 20
-3.927283736743936
 10
60.7787095423657
 20
-3.897932701714275
 10
60.7458781264685
 20
-3.872352004554976
 10
60.71267006069139
 20
-3.847259436472415
 10
60.6790912015616
 20
-3.822663671390796
 10
60.6451474460313
 20
-3.798573385694205
 10
60.6108446910524
 20
-3.774997255766748
 10
60.57618883357701
 20
-3.751943957992516
 10
60.54118577055721
 20
-3.729422168755596
 10
60.5058413989449
 20
-3.707440564440096
 10
60.4701616156923
 20
-3.686007821430095
 10
60.43867129877249
 20
-3.667711229876256
 10
60.4069326476666
 20
-3.649847315615526
 10
60.37494961759
 20
-3.632421889543007
 10
60.3427267723255
 20
-3.615440555610957
 10
60.31026987841129
 20
-3.598908508775926
 10
60.27758484352588
 20
-3.582830895999767
 10
60.24467757534779
 20
-3.567212864244356
 10
60.2115539815556
 20
-3.552059560471546
 10
60.17821996982778
 20
-3.537376131643196
 10
60.144681447843
 20
-3.523167724721186
 10
60.1109443232797
 20
-3.509439486667365
 10
60.0770145038165
 20
-3.496196564443596
 10
60.0428978971318
 20
-3.483444105011746
 10
60.0086004109043
 20
-3.471187255333676
 10
59.9741279528125
 20
-3.459431162371246
 10
59.93948664729629
 20
-3.448180703905037
 10
59.90966500467269
 20
-3.438942786217165
 10
59.8797289919576
 20
-3.430081365441806
 10
59.8496831513649
 20
-3.421598662119456
 10
59.81953202510862
 20
-3.413496896790636
 10
59.7892801554026
 20
-3.405778289995856
 10
59.75893208446088
 20
-3.398445062275615
 10
59.7284923544975
 20
-3.391499434170446
 10
59.6979655077264
 20
-3.384943626220836
 10
59.6673560863615
 20
-3.378779858967316
 10
59.6366686326167
 20
-3.373010352950376
 10
59.6059076887061
 20
-3.367637328710535
 10
59.5750777968435
 20
-3.362663006788315
 10
59.54418349953421
 20
-3.358089607450096
 10
59.5132297219266
 20
-3.353918990703045
 10
59.4822225249711
 20
-3.350151947195826
 10
59.45116817938449
 20
-3.346789070081636
 10
59.4200729558835
 20
-3.343830952513666
 10
59.3889431251851
 20
-3.341278187645136
 10
59.35778495800611
 20
-3.339131368629227
 10
59.3266047250634
 20
-3.337391088619146
 10
59.2954086970736
 20
-3.336057940768095
 10
59.2642031447538
 20
-3.335132518229265
 10
59.2329943388207
 20
-3.334615414155855
 10
59.20178854999121
 20
-3.334507221701067
 10
59.17059204898211
 20
-3.334808534018095
 10
59.1394111065103
 20
-3.335519944260143
 10
59.1290319945911
 20
-3.335847978530017
  0
LWPOLYLINE
  5
82C
330
1E
100
AcDbEntity
  8
1
100
AcDbPolyline
 90
        2
 70
     0
 43
0.0
 10
61.40868899999999
 20
-100.9861619999999
 10
62.26393876996222
 20
-100.472967166443
  0
LWPOLYLINE
  5
830
330
1E
100
AcDbEntity
  8
1
100
AcDbPolyline
 90
        2
 70
     0
 43
0.0
 10
62.91114245529998
 20
-100.0844954029998
 10
62.98856342633198
 20
-100.038018147059
  0
LWPOLYLINE
  5
834
330
1E
100
AcDbEntity
  8
1
100
AcDbPolyline
 90
        2
 70
     0
 43
0.0
 10
62.98835999999999
 20
-83.95060100000002
 10
61.60000828783918
 20
-83.01962090528402
  0
LWPOLYLINE
  5
838
330
1E
100
AcDbEntity
  8
1
100
AcDbPolyline
 90
        2
 70
     0
 43
0.0
 10
62.98857199999998
 20
-100.038013
 10
62.98836002874079
 20
-83.95061099995874
  0
LWPOLYLINE
  5
83C
330
1E
100
AcDbEntity
  8
1
100
AcDbPolyline
 90
        2
 70
     0
 43
0.0
 10
61.40868899999999
 20
-100.9861619999999
 10
60.33796166384011
 20
-101.6031370062159
  0
LWPOLYLINE
  5
840
330
1E
100
AcDbEntity
  8
1
100
AcDbPolyline
 90
        2
 70
     0
 43
0.0
 10
60.28532500429999
 20
-101.60039251
 10
60.33794301362227
 20
-101.603141478213
  0
LWPOLYLINE
  5
844
330
1E
100
AcDbEntity
  8
1
100
AcDbPolyline
 90
      126
 70
     0
 43
0.0
 10
47.83206825859999
 20
-4.977029171600066
 10
47.82785915776979
 20
-5.023654733182555
 10
47.82423572262939
 20
-5.070331454228494
 10
47.82119779090279
 20
-5.117050574806913
 10
47.8187451835367
 20
-5.163803531979914
 10
47.8168776221241
 20
-5.210582929364643
 10
47.8155947918216
 20
-5.257381798392346
 10
47.8148963818789
 20
-5.304193143826624
 10
47.8147821192586
 20
-5.351009722076477
 10
47.81525175104571
 20
-5.397824157038825
 10
47.81630502480077
 20
-5.44462907620147
 10
47.8179416923623
 20
-5.491417178989863
 10
47.8201615088503
 20
-5.538181220020603
 10
47.82296422982049
 20
-5.584913954345601
 10
47.8263496204213
 20
-5.631608110464522
 10
47.8303174563106
 20
-5.678256387786446
 10
47.83486751375099
 20
-5.724851483922312
 10
47.8399995732597
 20
-5.771386077078022
 10
47.8457134220094
 20
-5.817852815104756
 10
47.8520088477563
 20
-5.864244343081575
 10
47.8588856392131
 20
-5.910553278038236
 10
47.8663435872392
 20
-5.956772174009244
 10
47.87438248298649
 20
-6.002893576433402
 10
47.88300211559771
 20
-6.048910003781924
 10
47.89220226769439
 20
-6.094813886980722
 10
47.901982720577
 20
-6.140597639221955
 10
47.9123432517405
 20
-6.186253649819196
 10
47.92328362090477
 20
-6.231774196553536
 10
47.9348035826042
 20
-6.277151524668625
 10
47.946902886713
 20
-6.322377859850056
 10
47.95958125225928
 20
-6.367445298326415
 10
47.9728383857347
 20
-6.412345883713835
 10
47.9866739888032
 20
-6.457071644241384
 10
48.00108771856179
 20
-6.501614466429826
 10
48.01607920788629
 20
-6.545966159785963
 10
48.031648084916
 20
-6.590118521606853
 10
48.04779391941529
 20
-6.634063200600022
 10
48.0645162403622
 20
-6.677791741653772
 10
48.08181457189361
 20
-6.721295679104563
 10
48.0996883661886
 20
-6.764566395920352
 10
48.11813701315839
 20
-6.807595144085585
 10
48.13715989714971
 20
-6.850373165049965
 10
48.1567563169106
 20
-6.892891548762463
 10
48.1769254827947
 20
-6.935141228722445
 10
48.1976665979543
 20
-6.977113126516175
 10
48.21897876551361
 20
-7.018798013279222
 10
48.2408609699921
 20
-7.060186481755104
 10
48.2633121860727
 20
-7.101269110541242
 10
48.2863312720645
 20
-7.142036328752286
 10
48.3099169342373
 20
-7.182478370207716
 10
48.3340678655494
 20
-7.222585452203642
 10
48.358782622687
 20
-7.262347642592214
 10
48.3840595746659
 20
-7.301754803415496
 10
48.40989707324279
 20
-7.340796778377081
 10
48.4362933084939
 20
-7.379463260434994
 10
48.46324624657761
 20
-7.417743733772986
 10
48.4907538324148
 20
-7.455627663479223
 10
48.51881381589461
 20
-7.493104361521236
 10
48.54742368829359
 20
-7.530162936829053
 10
48.5765809158599
 20
-7.566792479649956
 10
48.60628272590449
 20
-7.602981924719586
 10
48.63652605727878
 20
-7.638720019030213
 10
48.6673078197328
 20
-7.673995492116642
 10
48.6986246270889
 20
-7.708796917849172
 10
48.7304727840679
 20
-7.743112707503875
 10
48.7664782650968
 20
-7.780657670518245
 10
48.803129464062
 20
-7.817572614188787
 10
48.83666262563529
 20
-7.850243923131236
 10
48.8707093992115
 20
-7.882379797639962
 10
48.9052647522687
 20
-7.913968170913655
 10
48.94032346499578
 20
-7.944996921014116
 10
48.9758801744308
 20
-7.975453899732602
 10
49.01192893244001
 20
-8.005326851585046
 10
49.0484636407914
 20
-8.034603493607784
 10
49.08134179949609
 20
-8.060116627872705
 10
49.1145940515651
 20
-8.085140216432616
 10
49.14821544383579
 20
-8.109665583976346
 10
49.1822009225719
 20
-8.133684059207064
 10
49.21654495720749
 20
-8.157186989860193
 10
49.251241876008
 20
-8.180165729305794
 10
49.2862859507189
 20
-8.202611639763926
 10
49.32167098449609
 20
-8.224516156847641
 10
49.357390548698
 20
-8.245870752475402
 10
49.3889145171697
 20
-8.264098216306175
 10
49.4206850813876
 20
-8.281892488024785
 10
49.4526974141465
 20
-8.299248000295701
 10
49.4849466802351
 20
-8.316159188028276
 10
49.5174279644263
 20
-8.332620519353422
 10
49.5501359940106
 20
-8.348626610823911
 10
49.5830653964851
 20
-8.364172120425562
 10
49.6162107937335
 20
-8.379251709322165
 10
49.6495665862966
 20
-8.393860164023045
 10
49.68312688525371
 20
-8.407992434957796
 10
49.71688578214401
 20
-8.421643483621613
 10
49.750837314829
 20
-8.434808311316956
 10
49.7849751839508
 20
-8.447482169427162
 10
49.8192929595072
 20
-8.459660406221061
 10
49.85378420842879
 20
-8.471338372831493
 10
49.8884423180457
 20
-8.482511591648092
 10
49.9182768483374
 20
-8.491683709957621
 10
49.9482245414194
 20
-8.500479271095166
 10
49.97828103270159
 20
-8.508895647514021
 10
50.00844183111389
 20
-8.516930366395815
 10
50.0387023001464
 20
-8.524581132845073
 10
50.0690577952576
 20
-8.531845661791113
 10
50.0995036698838
 20
-8.538721671378182
 10
50.1300351800719
 20
-8.545207034548031
 10
50.1606474432881
 20
-8.551299844513255
 10
50.19133556641478
 20
-8.556998211308822
 10
50.2220946554339
 20
-8.562300246898324
 10
50.2529197456677
 20
-8.567204214571615
 10
50.2838057521042
 20
-8.571708635329455
 10
50.3147475780042
 20
-8.575812055287473
 10
50.3457401262624
 20
-8.579513021677165
 10
50.3767782517844
 20
-8.582810227881795
 10
50.4078567142411
 20
-8.585702657325814
 10
50.4389702620725
 20
-8.588189327638454
 10
50.47011364361179
 20
-8.590269257046664
 10
50.5012815828625
 20
-8.591941600138815
 10
50.5324687486753
 20
-8.593205820620605
 10
50.56366980230159
 20
-8.594061424789735
 10
50.5948794045721
 20
-8.594507919267933
 10
50.6260920345637
 20
-8.594544950649135
 10
50.6573017066567
 20
-8.594172523399493
 10
50.68850236202479
 20
-8.593390698363142
 10
50.69369117491139
 20
-8.593220933830762
  0
LWPOLYLINE
  5
8C4
330
1E
100
AcDbEntity
  8
1
100
AcDbPolyline
 90
      110
 70
     0
 43
0.0
 10
50.47571168050001
 20
-2.146905384700014
 10
50.44614488104119
 20
-2.148089407469615
 10
50.4165932991339
 20
-2.149641414214825
 10
50.3870618435808
 20
-2.151560986697464
 10
50.35755576472779
 20
-2.153847649236233
 10
50.32808031292089
 20
-2.156500926149834
 10
50.2986405905191
 20
-2.159520280849595
 10
50.26924106627561
 20
-2.162904915972744
 10
50.23988603940569
 20
-2.166653964379435
 10
50.2105798091228
 20
-2.170766558929081
 10
50.1813266810729
 20
-2.175241807436194
 10
50.1521310245803
 20
-2.180078569782275
 10
50.1229972453309
 20
-2.185275564275845
 10
50.0939297494354
 20
-2.190831507569514
 10
50.06493293966821
 20
-2.196745110948103
 10
50.03601111518261
 20
-2.203014919010815
 10
50.00716845393539
 20
-2.209639281397805
 10
49.9784091270041
 20
-2.216616536683231
 10
49.94973730533729
 20
-2.223945023212541
 10
49.9211571097884
 20
-2.231622990370535
 10
49.89267253538208
 20
-2.239648464093315
 10
49.86024092304759
 20
-2.249243375689246
 10
49.8279453304927
 20
-2.259286551534062
 10
49.7957916029294
 20
-2.269774883621265
 10
49.7637853434745
 20
-2.280704965993654
 10
49.7319321144922
 20
-2.292073342539246
 10
49.7002374752516
 20
-2.303876554109415
 10
49.6687068296821
 20
-2.316110989144384
 10
49.63734535693699
 20
-2.328772815546336
 10
49.6061582185905
 20
-2.341858183969654
 10
49.5751505628629
 20
-2.355363234932095
 10
49.54432731409099
 20
-2.369283939004374
 10
49.51369321105929
 20
-2.383616125907074
 10
49.48325298694978
 20
-2.398355621107874
 10
49.4530113417938
 20
-2.413498230800104
 10
49.42297270248277
 20
-2.429039602368076
 10
49.3931413615388
 20
-2.444975305070806
 10
49.3635216105471
 20
-2.461300907622895
 10
49.3304575604716
 20
-2.480127706777274
 10
49.2976722457262
 20
-2.499435798604356
 10
49.26517114350129
 20
-2.519218602989212
 10
49.2329597156602
 20
-2.539469535361015
 10
49.2010431142897
 20
-2.560181921136001
 10
49.16942620357899
 20
-2.581349002074654
 10
49.13811383672
 20
-2.602964016750404
 10
49.1071107378585
 20
-2.625020182466522
 10
49.07642123355289
 20
-2.647510650993464
 10
49.0426947498738
 20
-2.673001083309805
 10
49.00936643928609
 20
-2.699009807854396
 10
48.9764415891255
 20
-2.725527388290944
 10
48.9439252457335
 20
-2.752544377152354
 10
48.91182242367779
 20
-2.780051328940654
 10
48.8801377314352
 20
-2.808038825881995
 10
48.8457726614915
 20
-2.839368885857302
 10
48.8119244549389
 20
-2.871256532213254
 10
48.77859832649949
 20
-2.903689351670825
 10
48.74579912183669
 20
-2.936654997869403
 10
48.713531627434
 20
-2.970141140870705
 10
48.681800141098
 20
-3.004135594881673
 10
48.6506086847474
 20
-3.038626255487803
 10
48.6199612134171
 20
-3.073601045442313
 10
48.58986121861771
 20
-3.109048078295883
 10
48.56031198711178
 20
-3.144955551878156
 10
48.5313167326451
 20
-3.181311702861102
 10
48.5028782463178
 20
-3.218104993385864
 10
48.4749991657295
 20
-3.255323967481634
 10
48.4476820542157
 20
-3.292957218382885
 10
48.4209291007621
 20
-3.330993587499706
 10
48.3947423763278
 20
-3.369421994487646
 10
48.3714293098755
 20
-3.404687825837103
 10
48.3485871217064
 20
-3.440260452053836
 10
48.326217000792
 20
-3.476131843069694
 10
48.30432012146751
 20
-3.512293982836564
 10
48.28289748070972
 20
-3.548739025217546
 10
48.2619499574915
 20
-3.585459237124323
 10
48.241478426883
 20
-3.622446889515721
 10
48.221483665255
 20
-3.659694365109673
 10
48.20196630011721
 20
-3.697194215182233
 10
48.1829269466437
 20
-3.734939004976975
 10
48.1643661827578
 20
-3.772921349392873
 10
48.1462844425194
 20
-3.811134055098523
 10
48.1286821252632
 20
-3.849569975050533
 10
48.1115596219358
 20
-3.888221975389971
 10
48.09491722371539
 20
-3.927083079068294
 10
48.07875515632719
 20
-3.966146411912205
 10
48.0630736437891
 20
-4.005405102593782
 10
48.0478728628055
 20
-4.044852367699146
 10
48.0331529078361
 20
-4.084481576632976
 10
48.0189138651116
 20
-4.124286114090634
 10
48.00515580773851
 20
-4.164259394233495
 10
47.99187873864329
 20
-4.204394988788433
 10
47.9790826373915
 20
-4.244686521932035
 10
47.96676748189079
 20
-4.285127622253406
 10
47.95493321243628
 20
-4.325712018601846
 10
47.9435797317957
 20
-4.366433539860683
 10
47.93270694110609
 20
-4.407286019265866
 10
47.9223147292379
 20
-4.448263335885924
 10
47.9124029467989
 20
-4.489359511751962
 10
47.90297143695759
 20
-4.530568596691496
 10
47.89402004162329
 20
-4.571884644039236
 10
47.8855485873187
 20
-4.613301749986987
 10
47.87755689027229
 20
-4.654814039399946
 10
47.8700447664409
 20
-4.696415638425063
 10
47.863012016473
 20
-4.738100812750206
 10
47.8564584079135
 20
-4.779864129811736
 10
47.8503837039871
 20
-4.821700196429116
 10
47.8447876763331
 20
-4.863603535480795
 10
47.83967016753161
 20
-4.905567962162523
 10
47.83503105573909
 20
-4.947586936779083
 10
47.8320692202881
 20
-4.977019217949615
  0
LWPOLYLINE
  5
934
330
1E
100
AcDbEntity
  8
1
100
AcDbPolyline
 90
      110
 70
     0
 43
0.0
 10
50.6937011692
 20
-8.593220595900055
 10
50.7232679686526
 20
-8.592036572987424
 10
50.7528195505554
 20
-8.590484566153183
 10
50.78235100610759
 20
-8.588564993671955
 10
50.81185708496199
 20
-8.586278331186596
 10
50.84133253677141
 20
-8.583625054339936
 10
50.8707722591761
 20
-8.580605699689076
 10
50.9001717834222
 20
-8.577221064594407
 10
50.92952681029419
 20
-8.573472016201236
 10
50.9588330405783
 20
-8.569359421655635
 10
50.98808616862821
 20
-8.564884173148307
 10
51.0172818251199
 20
-8.560047410800464
 10
51.0464156043682
 20
-8.554850416304887
 10
51.07548310026249
 20
-8.549294473010247
 10
51.1044799100294
 20
-8.543380869632926
 10
51.13340173451518
 20
-8.537111061573096
 10
51.1622443957623
 20
-8.530486699187797
 10
51.19100372269239
 20
-8.523509443899918
 10
51.2196755443557
 20
-8.516180957361097
 10
51.2482557398989
 20
-8.508502990185814
 10
51.27674031429849
 20
-8.500477516442757
 10
51.3091719266267
 20
-8.490882604827307
 10
51.34146751917899
 20
-8.480839428974947
 10
51.37362124674488
 20
-8.470351096896635
 10
51.4056275062055
 20
-8.459421014543007
 10
51.43748073519379
 20
-8.448052638017676
 10
51.469175374438
 20
-8.436249426460966
 10
51.5007060200077
 20
-8.424014991429297
 10
51.5320674927509
 20
-8.411353165024195
 10
51.5632546310948
 20
-8.398267796595566
 10
51.5942622868206
 20
-8.384762745629744
 10
51.6250855355917
 20
-8.370842041556867
 10
51.6557196386226
 20
-8.356509854654508
 10
51.68615986273071
 20
-8.341770359453057
 10
51.7164015078838
 20
-8.326627749757687
 10
51.74644014719149
 20
-8.311086378185825
 10
51.7762714881341
 20
-8.295150675481787
 10
51.805891239128
 20
-8.278825072934347
 10
51.83895528921159
 20
-8.259998273794497
 10
51.87174060396689
 20
-8.240690181985067
 10
51.90424170619721
 20
-8.220907377611592
 10
51.93645313403401
 20
-8.200656445236027
 10
51.9683697353918
 20
-8.179944059444117
 10
51.99998664608971
 20
-8.158776978487457
 10
52.0312990129442
 20
-8.137161963805052
 10
52.0623021118142
 20
-8.115105798100586
 10
52.0929916161336
 20
-8.092615329593526
 10
52.1267180998221
 20
-8.067124897292707
 10
52.1600464104021
 20
-8.041116172741745
 10
52.192971260544
 20
-8.014598592283947
 10
52.22548760392101
 20
-7.987581603404642
 10
52.2575904259791
 20
-7.960074651618726
 10
52.2892751182386
 20
-7.932087154697295
 10
52.3236401882001
 20
-7.900757094744115
 10
52.3574883947516
 20
-7.868869448389922
 10
52.39081452317122
 20
-7.836436628913745
 10
52.4236137278107
 20
-7.803470982692256
 10
52.45588122220009
 20
-7.769984839678826
 10
52.4876127085347
 20
-7.735990385667946
 10
52.51880416488971
 20
-7.701499725067812
 10
52.549451636225
 20
-7.666524935119356
 10
52.5795516310277
 20
-7.631077902269795
 10
52.6091008625342
 20
-7.595170428689054
 10
52.63809611699799
 20
-7.558814277704912
 10
52.6665346033198
 20
-7.522020987177094
 10
52.6944136839013
 20
-7.484802013077616
 10
52.7217307954088
 20
-7.447168762173355
 10
52.74848374885969
 20
-7.409132393056066
 10
52.7746704732984
 20
-7.370703986072147
 10
52.7979835397623
 20
-7.335438154730956
 10
52.8208257279436
 20
-7.299865528522887
 10
52.8431958488619
 20
-7.263994137510713
 10
52.86509272817379
 20
-7.227831997737813
 10
52.8865153689065
 20
-7.191386955343284
 10
52.9074628920986
 20
-7.154666743422303
 10
52.9279344226912
 20
-7.117679091022947
 10
52.9479291843199
 20
-7.080431615430684
 10
52.9674465494732
 20
-7.042931765367574
 10
52.9864859029743
 20
-7.005186975587776
 10
53.0050466668953
 20
-6.967204631189463
 10
53.0231284071652
 20
-6.928991925499205
 10
53.0407307244357
 20
-6.890556005555023
 10
53.0578532277487
 20
-6.851904005211236
 10
53.07449562593511
 20
-6.813042901520005
 10
53.09065769329198
 20
-6.773979568663705
 10
53.10633920582371
 20
-6.734720877979366
 10
53.1215399868326
 20
-6.695273612883761
 10
53.1362599418377
 20
-6.655644403964354
 10
53.150498984585
 20
-6.615839866516844
 10
53.1642570419492
 20
-6.575866586372836
 10
53.17753411101278
 20
-6.535730991808454
 10
53.1903302122284
 20
-6.495439458653555
 10
53.20264536770579
 20
-6.454998358325274
 10
53.21447963715489
 20
-6.414413961976094
 10
53.22583311780089
 20
-6.373692440720065
 10
53.2367059084986
 20
-6.332839961318452
 10
53.2470981203717
 20
-6.291862644700572
 10
53.257009902811
 20
-6.250766468835336
 10
53.2664414126479
 20
-6.209557383895655
 10
53.2753928079733
 20
-6.168241336547254
 10
53.28386426226971
 20
-6.126824230599173
 10
53.2918559593169
 20
-6.085311941187347
 10
53.2993680831665
 20
-6.043710342165915
 10
53.3064008331706
 20
-6.002025167847062
 10
53.31295444176699
 20
-5.960261850792082
 10
53.3190291457121
 20
-5.918425784178874
 10
53.3246251733506
 20
-5.876522445126786
 10
53.3297426821138
 20
-5.834558018441494
 10
53.3343817938707
 20
-5.792539043821505
 10
53.3373436293118
 20
-5.763106762650512
  0
LWPOLYLINE
  5
9A4
330
1E
100
AcDbEntity
  8
1
100
AcDbPolyline
 90
      126
 70
     0
 43
0.0
 10
53.337344591
 20
-5.763096809000058
 10
53.3415536918528
 20
-5.716471247419284
 10
53.34517712703779
 20
-5.669794526376715
 10
53.34821505879539
 20
-5.623075405801124
 10
53.3506676661508
 20
-5.576322448628586
 10
53.35253522752349
 20
-5.529543051242471
 10
53.3538180577843
 20
-5.482744182212953
 10
53.3545164677084
 20
-5.435932836777687
 10
53.35463073033179
 20
-5.389116258527866
 10
53.3541610985543
 20
-5.342301823566196
 10
53.3531078248011
 20
-5.295496904404526
 10
53.3514711572347
 20
-5.248708801616847
 10
53.3492513407481
 20
-5.201944760585866
 10
53.34644861979828
 20
-5.155212026259045
 10
53.3430632292344
 20
-5.108517870137172
 10
53.3390953933787
 20
-5.061869592812803
 10
53.3345453359484
 20
-5.015274496676672
 10
53.3294132764196
 20
-4.968739903523486
 10
53.3236994276344
 20
-4.922273165500903
 10
53.31740400185289
 20
-4.875881637528626
 10
53.31052721037529
 20
-4.829572702575512
 10
53.3030692623464
 20
-4.783353806605472
 10
53.2950303666177
 20
-4.737232404178135
 10
53.28641073404419
 20
-4.691215976822005
 10
53.27721058198619
 20
-4.645312093615353
 10
53.2674301291215
 20
-4.599528341371115
 10
53.2570695979407
 20
-4.553872330778964
 10
53.24612922874329
 20
-4.508351784052924
 10
53.2346092670246
 20
-4.462974455941994
 10
53.22250996293369
 20
-4.417748120754795
 10
53.20983159742829
 20
-4.372680682266926
 10
53.1965744639868
 20
-4.327780096870545
 10
53.1827388609184
 20
-4.283054336343951
 10
53.1683251311301
 20
-4.238511514165286
 10
53.1533336417659
 20
-4.194159820821997
 10
53.13776476470589
 20
-4.150007459011516
 10
53.12161893019201
 20
-4.106062780024026
 10
53.1048966092441
 20
-4.062334238971232
 10
53.0875982777222
 20
-4.018830301516846
 10
53.06972448344239
 20
-3.975559584694785
 10
53.0512758364859
 20
-3.932530836524035
 10
53.03225295249911
 20
-3.889752815558173
 10
53.0126565327356
 20
-3.847234431847376
 10
52.99248736685211
 20
-3.804984751887121
 10
52.9717462517069
 20
-3.763012854085983
 10
52.9504340841761
 20
-3.721327967308316
 10
52.9285518797285
 20
-3.679939498816546
 10
52.9061006636689
 20
-3.638856870019486
 10
52.8830815776833
 20
-3.598089651805135
 10
52.8594959155064
 20
-3.557647610352035
 10
52.8353449841846
 20
-3.517540528361756
 10
52.8106302270346
 20
-3.477778337980996
 10
52.78535327504001
 20
-3.438371177167996
 10
52.7595157764435
 20
-3.399329202219566
 10
52.7331195411695
 20
-3.360662720177236
 10
52.70616660306281
 20
-3.322382246855586
 10
52.6786590172056
 20
-3.284498317164675
 10
52.65059903371451
 20
-3.247021619132345
 10
52.6219891613214
 20
-3.209963043820235
 10
52.59283193378688
 20
-3.173333500972955
 10
52.5631301237916
 20
-3.137144055861776
 10
52.53288679245549
 20
-3.101405961519482
 10
52.5021050300001
 20
-3.066130488436364
 10
52.4707882226047
 20
-3.031329062740274
 10
52.4389400655817
 20
-2.997013273125283
 10
52.4029345845382
 20
-2.959468310123416
 10
52.36628338559619
 20
-2.922553366430424
 10
52.3327502240526
 20
-2.889882057459033
 10
52.29870345049469
 20
-2.857746182931106
 10
52.26414809743978
 20
-2.826157809654194
 10
52.2290893846997
 20
-2.795129059568765
 10
52.1935326752397
 20
-2.764672080881265
 10
52.1574839172095
 20
-2.734799129055035
 10
52.1209492088602
 20
-2.705522487028275
 10
52.08807105018349
 20
-2.680009352725416
 10
52.05481879814961
 20
-2.654985764119135
 10
52.02119740589928
 20
-2.630460396549495
 10
51.9872119271536
 20
-2.606441921334665
 10
51.9528678924885
 20
-2.582938990724673
 10
51.9181709736568
 20
-2.559960251324314
 10
51.88312689892939
 20
-2.537514340890845
 10
51.8477418651517
 20
-2.515609823808913
 10
51.8120223009587
 20
-2.494255228167895
 10
51.7804983324975
 20
-2.476027764319384
 10
51.7487277682895
 20
-2.458233492582833
 10
51.7167154355375
 20
-2.440877980299084
 10
51.6844661694504
 20
-2.423966792564073
 10
51.6519848852544
 20
-2.407505461249813
 10
51.6192768556625
 20
-2.391499369795746
 10
51.5863474531826
 20
-2.375953860205345
 10
51.5532020559356
 20
-2.360874271304325
 10
51.5198462633821
 20
-2.346265816581392
 10
51.4862859644382
 20
-2.332133545616195
 10
51.4525270675601
 20
-2.318482496923544
 10
51.4185755348824
 20
-2.305317669209884
 10
51.3844376657626
 20
-2.292643811093711
 10
51.3501198902041
 20
-2.280465574305384
 10
51.3156286412772
 20
-2.268787607711165
 10
51.2809705316533
 20
-2.257614388917535
 10
51.2511360013562
 20
-2.248442270626604
 10
51.2211883082708
 20
-2.239646709500654
 10
51.19113181698871
 20
-2.231230333080874
 10
51.1609710185799
 20
-2.223195614185272
 10
51.1307105495531
 20
-2.215544847714792
 10
51.1003550544477
 20
-2.208280318745925
 10
51.069909179826
 20
-2.201404309140206
 10
51.03937766964021
 20
-2.194918945959392
 10
51.0087654064245
 20
-2.188826135991333
 10
50.97807728329669
 20
-2.183127769201143
 10
50.94731819427529
 20
-2.177825733625383
 10
50.91649310403849
 20
-2.172921765972686
 10
50.88560709759889
 20
-2.168417345237925
 10
50.85466527169599
 20
-2.164313925300866
 10
50.8236727234361
 20
-2.160612958925415
 10
50.7926345979135
 20
-2.157315752726153
 10
50.761556135457
 20
-2.154423323281254
 10
50.7304425876262
 20
-2.151936652964725
 10
50.6992992060875
 20
-2.149856723552795
 10
50.6681312668371
 20
-2.148184380459165
 10
50.63694410102428
 20
-2.146920159977605
 10
50.60574304739801
 20
-2.146064555809505
 10
50.5745334451275
 20
-2.145618061332225
 10
50.543320815136
 20
-2.145581029951275
 10
50.5121111430431
 20
-2.145953457200755
 10
50.4809104876751
 20
-2.146735282236925
 10
50.4757216747886
 20
-2.146905046769302
  0
LWPOLYLINE
  5
A24
330
1E
100
AcDbEntity
  8
1
100
AcDbPolyline
 90
        3
 70
     0
 43
0.0
 10
50.47571951270001
 20
-2.148147083800044
 10
50.4518817731208
 20
-2.148302113213103
 10
50.43955788380579
 20
-2.148475959315204
  0
LWPOLYLINE
  5
A29
330
1E
100
AcDbEntity
  8
1
100
AcDbPolyline
 90
        3
 70
     0
 43
0.0
 10
50.69362845770001
 20
-8.591980769800056
 10
50.6697741044403
 20
-8.593439809244014
 10
50.6528535100266
 20
-8.594329025790074
  0
LWPOLYLINE
  5
A2E
330
1E
100
AcDbEntity
  8
1
100
AcDbPolyline
 90
       24
 70
     0
 43
0.0
 10
39.96412086439999
 20
-31.35226500679999
 10
40.07114263256467
 20
-31.3531897027611
 10
40.18076250543049
 20
-31.3552789961675
 10
40.29035995001048
 20
-31.3585087251572
 10
40.40253091858749
 20
-31.3629832114208
 10
40.51465251670657
 20
-31.3686254647068
 10
40.62931681142589
 20
-31.37559321064419
 10
40.74390165048888
 20
-31.3837541588273
 10
40.85839414816059
 20
-31.39309532440389
 10
40.97538201456147
 20
-31.40385972477738
 10
41.09225075700159
 20
-31.4158390643155
 10
41.21158171877048
 20
-31.4293302755037
 10
41.33076437874247
 20
-31.4440705808235
 10
41.44978673753199
 20
-31.4600506000168
 10
41.56863697640758
 20
-31.4772648821498
 10
41.68730332318059
 20
-31.4957089886231
 10
41.80834719415378
 20
-31.5158196542378
 10
41.92917424447268
 20
-31.53720482792961
 10
42.04977156603749
 20
-31.559860206943
 10
42.17012378593189
 20
-31.5837845167148
 10
42.29021447607129
 20
-31.60897777902679
 10
42.41002720436829
 20
-31.635440020578
 10
42.5295455387356
 20
-31.6631712680677
 10
42.54984885684199
 20
-31.668015536278
  0
LWPOLYLINE
  5
A48
330
1E
100
AcDbEntity
  8
1
100
AcDbPolyline
 90
        3
 70
     0
 43
0.0
 10
35.57106781179998
 20
-108.3241428736
 10
37.04826127156398
 20
-108.314645194689
 10
38.43386404655948
 20
-108.3175234258209
  0
LWPOLYLINE
  5
A4D
330
1E
100
AcDbEntity
  8
1
100
AcDbPolyline
 90
       32
 70
     0
 43
0.0
 10
47.39010219569999
 20
1.593515752399974
 10
47.41047500218099
 20
1.600926515423114
 10
47.43036403903979
 20
1.607911863187954
 10
47.450331287425
 20
1.614679290061163
 10
47.47037400028129
 20
1.621227357179824
 10
47.49048943055329
 20
1.627554625680994
 10
47.5106748311857
 20
1.633659656701754
 10
47.5303479008821
 20
1.639376089875723
 10
47.5500818891712
 20
1.644880126596744
 10
47.5698742777963
 20
1.650170447842803
 10
47.58972254850029
 20
1.655245734591904
 10
47.609624197559
 20
1.660104701509473
 10
47.62898932318829
 20
1.664613003392493
 10
47.6484004519248
 20
1.668915986149463
 10
47.6678555183613
 20
1.673012993426004
 10
47.6873524570908
 20
1.676903368867713
 10
47.7068892027062
 20
1.680586456120203
 10
47.7264636898004
 20
1.684061598829064
 10
47.74607385296628
 20
1.687328140639903
 10
47.76571762679689
 20
1.690385425198321
 10
47.785392945885
 20
1.693232796149944
 10
47.8050977448236
 20
1.695869597140344
 10
47.8248298809131
 20
1.698295231467564
 10
47.8439878150961
 20
1.700445394801494
 10
47.86316672250779
 20
1.702396479754914
 10
47.8823642247844
 20
1.704148269949524
 10
47.90157794356178
 20
1.705700549007014
 10
47.92080550047598
 20
1.7070531005491
 10
47.9400445171631
 20
1.708205708197483
 10
47.95929261525897
 20
1.709158155573854
 10
47.97854741640001
 20
1.709910226299933
 10
47.97853742212378
 20
1.709909887993303
  0
LWPOLYLINE
  5
A6F
330
1E
100
AcDbEntity
  8
1
100
AcDbPolyline
 90
       31
 70
     0
 43
0.0
 10
47.39010219569998
 20
-106.6617616372999
 10
47.58373972347746
 20
-106.539450769079
 10
47.78389237870737
 20
-106.416346257638
 10
47.9854910832256
 20
-106.295624501289
 10
48.18593155053618
 20
-106.1787895396129
 10
48.37997277070149
 20
-106.068726253658
 10
48.56487628862428
 20
-105.966697569098
 10
48.73523085256047
 20
-105.875269094276
 10
48.89344951614847
 20
-105.792702882332
 10
49.03670106096459
 20
-105.720054315052
 10
49.16477580416835
 20
-105.6569575402879
 10
49.27746986816558
 20
-105.603042210753
 10
49.37728681391499
 20
-105.5566880612405
 10
49.46406747021619
 20
-105.5175855444419
 10
49.54038633415659
 20
-105.4842405930149
 10
49.60886728765418
 20
-105.4552556939559
 10
49.66667004616708
 20
-105.431577304616
 10
49.7192129406156
 20
-105.4107591524199
 10
49.76366084820637
 20
-105.3937427693069
 10
49.80272206146477
 20
-105.3793060839369
 10
49.83914853277678
 20
-105.366329518358
 10
49.87010028755388
 20
-105.3557185311259
 10
49.89835473770519
 20
-105.3464173248559
 10
49.92388876056818
 20
-105.3383658095039
 10
49.94667648898477
 20
-105.331491020232
 10
49.96669171928157
 20
-105.3257261085279
 10
49.98390877348029
 20
-105.321006692814
 10
50.00118626696949
 20
-105.316523143738
 10
50.01563308106199
 20
-105.3129882176699
 10
50.03012669149988
 20
-105.3096544801
 10
50.03011692982749
 20
-105.3096566502949
  0
LWPOLYLINE
  5
A90
330
1E
100
AcDbEntity
  8
1
100
AcDbPolyline
 90
       82
 70
     0
 43
0.0
 10
61.2072331326
 20
-98.95403195490008
 10
61.21626668638988
 20
-98.94880815316151
 10
61.22523420662807
 20
-98.94346828106757
 10
61.23413385166479
 20
-98.93801323308045
 10
61.24296377985078
 20
-98.93244390366243
 10
61.25239285350968
 20
-98.92631938439393
 10
61.26173663606929
 20
-98.92006448024112
 10
61.27099282735389
 20
-98.91368030836602
 10
61.28015912718769
 20
-98.90716798593039
 10
61.28923328438549
 20
-98.9005286282363
 10
61.2982133443694
 20
-98.89376333932522
 10
61.30709746360798
 20
-98.88687321902253
 10
61.31588379876447
 20
-98.87985936714628
 10
61.32457050650188
 20
-98.87272288351482
 10
61.33376504318359
 20
-98.86494181686451
 10
61.34284082835538
 20
-98.85702258923879
 10
61.35179559476448
 20
-98.84896655359131
 10
61.36062706273418
 20
-98.84077515872428
 10
61.36933292090219
 20
-98.83245009789744
 10
61.37791085292788
 20
-98.82399310277799
 10
61.38635854247068
 20
-98.81540590503369
 10
61.39467367318989
 20
-98.80669023633181
 10
61.40285392874499
 20
-98.79784782833985
 10
61.41089699279518
 20
-98.78888041272499
 10
61.41827804240367
 20
-98.78039958522812
 10
61.42553579184919
 20
-98.77181296174992
 10
61.43266850230329
 20
-98.76312219084082
 10
61.43967443528389
 20
-98.75432892162841
 10
61.44655185230909
 20
-98.74543480324042
 10
61.45329901489677
 20
-98.73644148480451
 10
61.45944608682539
 20
-98.72800316320853
 10
61.4654779566066
 20
-98.71948204921322
 10
61.47139323904659
 20
-98.71087947497983
 10
61.47719062353068
 20
-98.70219690313959
 10
61.48286884586659
 20
-98.69343587753643
 10
61.48842664256369
 20
-98.68459794324095
 10
61.49386275013078
 20
-98.67568464532382
 10
61.4987715947872
 20
-98.66739143112072
 10
61.50357468131049
 20
-98.65903653351031
 10
61.50827101593089
 20
-98.65062116773259
 10
61.51285960487839
 20
-98.64214654902719
 10
61.51733946675419
 20
-98.6336139050406
 10
61.52170971521536
 20
-98.62502455874851
 10
61.52596950798621
 20
-98.61637987732052
 10
61.53011800303175
 20
-98.607681228168
 10
61.53415435831789
 20
-98.59892997870261
 10
61.53807773180957
 20
-98.59012749633563
 10
61.54188728147237
 20
-98.58127514847851
 10
61.54558216527178
 20
-98.57237430254279
 10
61.54886769215519
 20
-98.56417375741902
 10
61.55205551320285
 20
-98.55593466401693
 10
61.55514504098369
 20
-98.54765813063579
 10
61.55813576720571
 20
-98.53934533681252
 10
61.56102718903166
 20
-98.53099746699362
 10
61.56381880362387
 20
-98.52261570562552
 10
61.56651010814488
 20
-98.5142012371546
 10
61.56910059975707
 20
-98.50575524602762
 10
61.57158977562289
 20
-98.49727891669079
 10
61.573977132905
 20
-98.48877343359063
 10
61.57626216876558
 20
-98.48023998117373
 10
61.57844438106538
 20
-98.47167974390849
 10
61.58052332732069
 20
-98.46309390815001
 10
61.58249866950619
 20
-98.45448366355642
 10
61.58437008014638
 20
-98.44585020011983
 10
61.586137231766
 20
-98.43719470783192
 10
61.58779979688947
 20
-98.42851837668474
 10
61.58935744804136
 20
-98.41982239666979
 10
61.59080985774618
 20
-98.41110795777945
 10
61.59215669852859
 20
-98.40237625000524
 10
61.59339764291297
 20
-98.39362846333905
 10
61.59453236347029
 20
-98.38486578785484
 10
61.59556057821518
 20
-98.3760894941818
 10
61.59648213569398
 20
-98.36730108433359
 10
61.59729690774419
 20
-98.35850210161119
 10
61.59800476620377
 20
-98.34969408931549
 10
61.59860558291029
 20
-98.34087859074758
 10
61.59909922970159
 20
-98.33205714920829
 10
61.59948557841538
 20
-98.32323130799863
 10
61.59976450088938
 20
-98.31440261041954
 10
61.59993586896138
 20
-98.30557259977192
 10
61.59999955446899
 20
-98.2967428193568
 10
61.59999999993079
 20
-98.29595017680119
  0
LWPOLYLINE
  5
AE4
330
1E
100
AcDbEntity
  8
1
100
AcDbPolyline
 90
       48
 70
     0
 43
0.0
 10
47.39010219569999
 20
107.6945845515
 10
47.33478363291179
 20
107.727367723764
 10
47.27905730582381
 20
107.7594651953178
 10
47.22293336656629
 20
107.790871265247
 10
47.16642196726961
 20
107.821580232639
 10
47.11191102360991
 20
107.850350245715
 10
47.05706248697421
 20
107.8784697917819
 10
47.00188476654648
 20
107.905934352441
 10
46.94638542972088
 20
107.9327402080549
 10
46.8905719668283
 20
107.958883712112
 10
46.8344518681999
 20
107.984361218096
 10
46.77803262416651
 20
108.009169079496
 10
46.72379338116232
 20
108.03226837085
 10
46.66929404183902
 20
108.0547484942339
 10
46.61454171098092
 20
108.076606372231
 10
46.55954353293042
 20
108.0978389356179
 10
46.50430665203002
 20
108.118443115172
 10
46.44883821262211
 20
108.138415841671
 10
46.39314535904921
 20
108.157754045891
 10
46.33723524246462
 20
108.176454701161
 10
46.28111505870622
 20
108.1945150599818
 10
46.22479202162379
 20
108.211932487383
 10
46.16827334511678
 20
108.228704348708
 10
46.11414782441332
 20
108.244109215078
 10
46.05985689269171
 20
108.258921177324
 10
46.00540682463932
 20
108.2731379444249
 10
45.95080399390869
 20
108.2867573211709
 10
45.89605499517079
 20
108.2997773263159
 10
45.84116645303502
 20
108.3121960076009
 10
45.78614499211069
 20
108.3240114127629
 10
45.7309972370072
 20
108.335221589543
 10
45.67572981233372
 20
108.34582458568
 10
45.62034934192562
 20
108.355818450212
 10
45.56486236893211
 20
108.365201367584
 10
45.50927528633922
 20
108.3739717742449
 10
45.45359447075941
 20
108.382128134122
 10
45.39782629880501
 20
108.389668911141
 10
45.34197714708861
 20
108.396592569228
 10
45.2860533922225
 20
108.402897572311
 10
45.23006141474311
 20
108.408582385231
 10
45.17667863051989
 20
108.413418610209
 10
45.12324723759959
 20
108.4176900457579
 10
45.06977433623752
 20
108.42139573618
 10
45.01626702668931
 20
108.4245347257789
 10
44.96273240921039
 20
108.427106058857
 10
44.90917758405632
 20
108.429108779717
 10
44.85560965148262
 20
108.4305419326619
 10
44.8449051150381
 20
108.430759938033
  0
LWPOLYLINE
  5
B16
330
1E
100
AcDbEntity
  8
1
100
AcDbPolyline
 90
       84
 70
     0
 43
0.0
 10
45.7544216084
 20
-0.4898939747000158
 10
45.75818523174371
 20
-0.4623974936258647
 10
45.7622619677368
 20
-0.4349420051959677
 10
45.7666504251293
 20
-0.4075315201522677
 10
45.771349212671
 20
-0.3801700492367045
 10
45.7768746498324
 20
-0.3501338293680925
 10
45.7827720513081
 20
-0.3201671078898016
 10
45.7890395653442
 20
-0.2902752230993555
 10
45.7956753401869
 20
-0.2604635132942795
 10
45.8026774629515
 20
-0.2307371151208056
 10
45.8100437155579
 20
-0.2011001584855426
 10
45.8177717848746
 20
-0.1715564597503176
 10
45.8258593577391
 20
-0.1421098351756216
 10
45.83430412098898
 20
-0.1127641010219446
 10
45.843103761462
 20
-0.0835230735497774
 10
45.8522559659957
 20
-0.0543905690196093
 10
45.8617584213156
 20
-0.0253704036338216
 10
45.8716087256571
 20
0.0035336522471076
 10
45.8818042300214
 20
0.0323179563416258
 10
45.8923422425651
 20
0.0609788885636885
 10
45.9032200714447
 20
0.0895128288272508
 10
45.9154711899181
 20
0.1204916760512284
 10
45.92812001965421
 20
0.1513103842915513
 10
45.9411630659081
 20
0.1819642536919554
 10
45.9545968300751
 20
0.2124486026525214
 10
45.96841774619199
 20
0.2427590681701143
 10
45.98262219104451
 20
0.2728915580295844
 10
45.9972065395974
 20
0.3028419886310524
 10
46.0121671668149
 20
0.3326062763746443
 10
46.0275004476617
 20
0.3621803376604814
 10
46.0432027571023
 20
0.3915600888886864
 10
46.05927047042018
 20
0.4207414475315593
 10
46.077085341513
 20
0.4521260966930435
 10
46.09532033994629
 20
0.4832684247308544
 10
46.1139709757344
 20
0.5141636391989525
 10
46.13303275889149
 20
0.5448069476513016
 10
46.1525011994318
 20
0.5751935576418623
 10
46.17237180736978
 20
0.6053186767245978
 10
46.19264009893228
 20
0.6351775147727004
 10
46.2133017338182
 20
0.6647653352172683
 10
46.23598780477
 20
0.6963206798610533
 10
46.2591199604246
 20
0.7275504312946215
 10
46.2826929672849
 20
0.7584487436267997
 10
46.3067015918535
 20
0.7890097709664154
 10
46.3311406008627
 20
0.8192276672571592
 10
46.3560048722519
 20
0.8490965064109234
 10
46.38311158515899
 20
0.8807045170672614
 10
46.4106950481671
 20
0.9118971957196333
 10
46.43874937491429
 20
0.9426669559230411
 10
46.46726867903889
 20
0.9730062112324834
 10
46.49624707668229
 20
1.002907369380554
 10
46.5256788409061
 20
1.032362473103174
 10
46.55555849194878
 20
1.061362990202763
 10
46.58588057177978
 20
1.089900337935372
 10
46.61663962236879
 20
1.117965933557031
 10
46.6457374993871
 20
1.143727292769114
 10
46.67520684119399
 20
1.169063197084031
 10
46.70504331092089
 20
1.193965905815344
 10
46.7352426398737
 20
1.218427162055534
 10
46.7636060511359
 20
1.240738678125874
 10
46.79227524004828
 20
1.262655804317883
 10
46.8212467900826
 20
1.284171920395942
 10
46.8505172764735
 20
1.305280370045714
 10
46.8800831060792
 20
1.325973759467214
 10
46.9076335366257
 20
1.344699963026024
 10
46.9354294701147
 20
1.363059239571273
 10
46.96346795185838
 20
1.381045210482684
 10
46.99174602716911
 20
1.398651497139973
 10
47.0202607413545
 20
1.415871720869783
 10
47.0490091184796
 20
1.432699247260623
 10
47.0755644624739
 20
1.447773120138454
 10
47.1023112307807
 20
1.462504832934313
 10
47.1292470657148
 20
1.476888487440513
 10
47.15636960959098
 20
1.490918185449354
 10
47.183676504724
 20
1.504588028753133
 10
47.21116538878839
 20
1.5178921153435
 10
47.2363107019467
 20
1.529663956776581
 10
47.2616006781206
 20
1.541122558540283
 10
47.28703193706659
 20
1.552262171494094
 10
47.31260109854109
 20
1.563077046497484
 10
47.3383047823006
 20
1.573561434409943
 10
47.36413960810138
 20
1.583709586090943
 10
47.39010219569999
 20
1.593515752399963
 10
47.39009281754478
 20
1.593512281058563
  0
LWPOLYLINE
  5
B6C
330
1E
100
AcDbEntity
  8
1
100
AcDbPolyline
 90
       86
 70
     0
 43
0.0
 10
46.8378096173999
 20
-2.887132921300063
 10
46.808632539685
 20
-2.866192578812285
 10
46.7797484540985
 20
-2.844841859480073
 10
46.75116214479909
 20
-2.823087909806273
 10
46.7228783959451
 20
-2.800937876293755
 10
46.6927628280366
 20
-2.776649233555815
 10
46.66300968242288
 20
-2.751918441374064
 10
46.63362468530089
 20
-2.726754046895896
 10
46.6046125477342
 20
-2.701163054151645
 10
46.5759777222335
 20
-2.675152074142153
 10
46.54572131150838
 20
-2.646824620550404
 10
46.5159086273282
 20
-2.618030759121332
 10
46.4865451502282
 20
-2.588778618785434
 10
46.45763667328409
 20
-2.559076154075043
 10
46.42918951491529
 20
-2.528931026379095
 10
46.4012100438764
 20
-2.498350868999462
 10
46.373704628922
 20
-2.467343315238004
 10
46.34846623057438
 20
-2.438024059105504
 10
46.3236515241767
 20
-2.408345336542094
 10
46.2992658447911
 20
-2.378313169702475
 10
46.2753146350891
 20
-2.347933454646923
 10
46.2518033402266
 20
-2.317212084524645
 10
46.22873740535971
 20
-2.286154952484824
 10
46.207722575795
 20
-2.257020694193814
 10
46.1871008138532
 20
-2.227606728792224
 10
46.166876591926
 20
-2.197917844743423
 10
46.14705451071929
 20
-2.167958910301774
 10
46.1276391782752
 20
-2.137734798283694
 10
46.108635202636
 20
-2.107250381505596
 10
46.09004719184389
 20
-2.076510532783871
 10
46.0718797539411
 20
-2.045520124934954
 10
46.05548708976409
 20
-2.016695458806085
 10
46.03946036401729
 20
-1.987665591100664
 10
46.02380323476949
 20
-1.958434703677833
 10
46.0085193600991
 20
-1.929006978493974
 10
45.9936123980844
 20
-1.899386597505444
 10
45.9790860068037
 20
-1.869577742668614
 10
45.9649438443352
 20
-1.839584595939864
 10
45.9511895523123
 20
-1.809411381717604
 10
45.9378266478326
 20
-1.779062645806065
 10
45.9248585909821
 20
-1.748543081146974
 10
45.91332102311429
 20
-1.720420753986504
 10
45.90212080903979
 20
-1.692162442588774
 10
45.89126061367839
 20
-1.663771762301363
 10
45.88074310194977
 20
-1.635252328471874
 10
45.87057093546129
 20
-1.606607760387884
 10
45.860746625321
 20
-1.577841856352494
 10
45.851272473542
 20
-1.548958663382775
 10
45.84215076670711
 20
-1.519962246849804
 10
45.8333837913991
 20
-1.490856672124643
 10
45.8249738342007
 20
-1.461646004578355
 10
45.81692318169479
 20
-1.432334309582004
 10
45.8092341204641
 20
-1.402925652506644
 10
45.80190888837889
 20
-1.373424130795445
 10
45.7949493449193
 20
-1.343834091021374
 10
45.78835717250377
 20
-1.314159996333924
 10
45.7821340525423
 20
-1.284406310546424
 10
45.77679833774939
 20
-1.257292194804504
 10
45.771770277848
 20
-1.230119344124884
 10
45.7670511361065
 20
-1.202891112236615
 10
45.76264217579328
 20
-1.175610852868684
 10
45.75854459452539
 20
-1.148281948716644
 10
45.75475919346677
 20
-1.120907957398572
 10
45.7512866257086
 20
-1.093492501865044
 10
45.74812754408671
 20
-1.066039205179185
 10
45.745282601437
 20
-1.038551690404122
 10
45.74275245059559
 20
-1.011033580602974
 10
45.7405377443985
 20
-0.9834884988388743
 10
45.73863913568149
 20
-0.9559200681749475
 10
45.73705725161679
 20
-0.9283319059932304
 10
45.73579236094929
 20
-0.9007275503328862
 10
45.73484446903171
 20
-0.8731104809274585
 10
45.7342135751272
 20
-0.8454841761624397
 10
45.73389967849871
 20
-0.8178521144233174
 10
45.7339027784092
 20
-0.7902177740955856
 10
45.73422287412159
 20
-0.7625846335647318
 10
45.73485996489909
 20
-0.7349561712162485
 10
45.735814043542
 20
-0.7073358714310885
 10
45.7370847957774
 20
-0.6797275034737415
 10
45.73867147273348
 20
-0.6521352398018696
 10
45.7405732926026
 20
-0.6245632834290335
 10
45.7427894735771
 20
-0.5970158373687906
 10
45.74531923384919
 20
-0.5694971046347025
 10
45.7481617916113
 20
-0.5420112882403269
 10
45.7513163650557
 20
-0.5145625911992228
 10
45.75442030879029
 20
-0.4899038898914176
  0
LWPOLYLINE
  5
BC4
330
1E
100
AcDbEntity
  8
1
100
AcDbPolyline
 90
        4
 70
     0
 43
0.0
 10
46.9707937231
 20
-8.769107740600086
 10
46.93726946887188
 20
-6.480627417272162
 10
46.8815088467554
 20
-4.221999100572153
 10
46.83780997477549
 20
-2.887142914912163
  0
LWPOLYLINE
  5
BCA
330
1E
100
AcDbEntity
  8
1
100
AcDbPolyline
 90
       23
 70
     0
 43
0.0
 10
44.84489511689999
 20
-32.2172195513
 10
44.99022343372568
 20
-32.2511487279781
 10
45.13339222953039
 20
-32.28298503393949
 10
45.2743688995867
 20
-32.3127882756691
 10
45.41312479438659
 20
-32.34061487970761
 10
45.55216453995377
 20
-32.36698614389151
 10
45.68640705510897
 20
-32.39099636770399
 10
45.81835372568089
 20
-32.41318796062311
 10
45.94798169075398
 20
-32.43361121932689
 10
46.07526898501388
 20
-32.4523129021129
 10
46.20019480785479
 20
-32.4693399393719
 10
46.32273917587369
 20
-32.4847383163983
 10
46.44032490039709
 20
-32.4982708309578
 10
46.5554858028626
 20
-32.5103171677434
 10
46.66820439014289
 20
-32.5209206696154
 10
46.77589850082799
 20
-32.52992369840191
 10
46.88111377018318
 20
-32.537626037803
 10
46.98383573762528
 20
-32.5440706401482
 10
47.08405098503628
 20
-32.5493016796556
 10
47.17917526628919
 20
-32.55327194745969
 10
47.27176332428578
 20
-32.55617292839399
 10
47.36180160340989
 20
-32.558050370596
 10
47.39009219644318
 20
-32.558443144079
  0
LWPOLYLINE
  5
BE3
330
1E
100
AcDbEntity
  8
1
100
AcDbPolyline
 90
       33
 70
     0
 43
0.0
 10
45.75442160839997
 20
-107.5519080320999
 10
45.75816692455497
 20
-107.547752753376
 10
45.76203444748276
 20
-107.543711657979
 10
45.76601407921717
 20
-107.53977762469
 10
45.77009572179218
 20
-107.5359435322859
 10
45.77426927724178
 20
-107.532202259549
 10
45.77995954014927
 20
-107.5273459737649
 10
45.78577131586349
 20
-107.522625160844
 10
45.79168066846499
 20
-107.518022940855
 10
45.79916853719999
 20
-107.5124114649627
 10
45.80674232071878
 20
-107.506936014249
 10
45.81439432769207
 20
-107.501585960845
 10
45.82367123855898
 20
-107.495317645134
 10
45.83304109816307
 20
-107.4891989053819
 10
45.84407574741338
 20
-107.482226867352
 10
45.85680190577636
 20
-107.474445498634
 10
45.87284741807217
 20
-107.4649440961189
 10
45.8906457958676
 20
-107.454738985797
 10
45.91021332459017
 20
-107.443863576381
 10
45.93485055787499
 20
-107.430584821892
 10
45.96625978462109
 20
-107.41415192717
 10
46.00783458395649
 20
-107.3930295381609
 10
46.07308386474739
 20
-107.3608740778879
 10
46.60063421739688
 20
-107.106479095205
 10
46.71208710671147
 20
-107.04994094621
 10
46.81295456246417
 20
-106.9972899815909
 10
46.90662589535718
 20
-106.9469913392979
 10
46.99480333881097
 20
-106.898304328353
 10
47.07915957937967
 20
-106.85042826671
 10
47.16133303204086
 20
-106.802497911189
 10
47.24132842049589
 20
-106.7545466416
 10
47.31915249715329
 20
-106.706613525869
 10
47.3900937735264
 20
-106.6617670286809
  0
LWPOLYLINE
  5
C06
330
1E
100
AcDbEntity
  8
1
100
AcDbPolyline
 90
       18
 70
     0
 43
0.0
 10
46.97079372309999
 20
-107.8925095663999
 10
46.96857833799269
 20
-107.8823712070529
 10
46.96616011800787
 20
-107.87185383759
 10
46.96353149114709
 20
-107.8609596131719
 10
46.96058191721219
 20
-107.84928864713
 10
46.95729284979488
 20
-107.836846019509
 10
46.95364739574436
 20
-107.8236366781119
 10
46.94951400471999
 20
-107.8092667228959
 10
46.94474719214688
 20
-107.7933464815787
 10
46.93918972265499
 20
-107.775490558173
 10
46.93241739750748
 20
-107.7545278490209
 10
46.92317276691848
 20
-107.72694080235
 10
46.91091506074487
 20
-107.691615535345
 10
46.8971537442271
 20
-107.6533162465129
 10
46.88138850688178
 20
-107.6109008183369
 10
46.86278292654799
 20
-107.562466440468
 10
46.83951697752767
 20
-107.5038186452019
 10
46.83781335947275
 20
-107.4995926664509
  0
LWPOLYLINE
  5
C1A
330
1E
100
AcDbEntity
  8
1
100
AcDbPolyline
 90
       41
 70
     0
 43
0.0
 10
44.84489511689996
 20
-108.3519524571999
 10
44.89969456145108
 20
-108.351933769503
 10
44.95449558622786
 20
-108.3513196746709
 10
45.0092905408244
 20
-108.350110239618
 10
45.06407177483508
 20
-108.348305531257
 10
45.11883163785408
 20
-108.3459056165019
 10
45.17356247947566
 20
-108.342910562266
 10
45.22825666034067
 20
-108.3393204388769
 10
45.28290711084788
 20
-108.3351354927519
 10
45.33750759481658
 20
-108.330356227883
 10
45.39205194224787
 20
-108.324983168719
 10
45.44653398314298
 20
-108.3190168397079
 10
45.50094754750309
 20
-108.312457765296
 10
45.55528646532915
 20
-108.3053064699309
 10
45.60954454814078
 20
-108.297563501758
 10
45.66371540739738
 20
-108.289229665427
 10
45.71779253218077
 20
-108.280305922496
 10
45.77176940981359
 20
-108.2707932367769
 10
45.82563952761858
 20
-108.260692572082
 10
45.87939637291859
 20
-108.250004892226
 10
45.93303343303626
 20
-108.238731161021
 10
45.98654420777822
 20
-108.226872430203
 10
46.03992224439099
 20
-108.214430085635
 10
46.09316110138837
 20
-108.2014055925339
 10
46.14625433728408
 20
-108.1878004161159
 10
46.19919551059179
 20
-108.173616021599
 10
46.25197817982536
 20
-108.1588538742
 10
46.30459590687046
 20
-108.143515441385
 10
46.35704242102106
 20
-108.1276023023199
 10
46.40931169275146
 20
-108.1111161970879
 10
46.46347725533939
 20
-108.093364729075
 10
46.51743784995547
 20
-108.0749974078878
 10
46.57118671528928
 20
-108.0560162049529
 10
46.62471709003077
 20
-108.036423091698
 10
46.67802206614657
 20
-108.0162201680179
 10
46.73109381792928
 20
-107.995410337302
 10
46.78392416560027
 20
-107.973996812954
 10
46.83650492862738
 20
-107.9519828090399
 10
46.88882792647818
 20
-107.929371539624
 10
46.94288175088067
 20
-107.9052618865919
 10
46.97078464026827
 20
-107.89251374996
  0
LWPOLYLINE
  5
C45
330
1E
100
AcDbEntity
  8
1
100
AcDbPolyline
 90
        2
 70
     0
 43
0.0
 10
46.98650325859996
 20
-107.9134451779
 10
46.98206207972307
 20
-107.915602124378
  0
LWPOLYLINE
  5
C49
330
1E
100
AcDbEntity
  8
1
100
AcDbPolyline
 90
        3
 70
     0
 43
0.0
 10
46.98205308239997
 20
-107.9156064887999
 10
46.93011787365338
 20
-107.940443757442
 10
46.90862762349707
 20
-107.950514787092
  0
LWPOLYLINE
  5
C4E
330
1E
100
AcDbEntity
  8
1
100
AcDbPolyline
 90
       40
 70
     0
 43
0.0
 10
46.90861855879997
 20
-107.9505190097999
 10
46.85431598428118
 20
-107.97543529422
 10
46.79972776208496
 20
-107.9997244114629
 10
46.74486048555528
 20
-108.0233830086388
 10
46.68972089724118
 20
-108.046407726446
 10
46.63431660987998
 20
-108.068795168206
 10
46.57865555079957
 20
-108.090541923725
 10
46.52474662556769
 20
-108.110902045792
 10
46.47061342187018
 20
-108.130660199019
 10
46.416263048037
 20
-108.14981332568
 10
46.36170260682038
 20
-108.168358375479
 10
46.30693899615756
 20
-108.1862925708559
 10
46.25197885467739
 20
-108.203613479556
 10
46.19682880434107
 20
-108.22031869152
 10
46.14149546711028
 20
-108.23640579669
 10
46.08598546494627
 20
-108.2518723850049
 10
46.03237059875396
 20
-108.2661774177259
 10
45.97860399189019
 20
-108.2799026751059
 10
45.92469185879457
 20
-108.293046179066
 10
45.8706405756031
 20
-108.3056060448909
 10
45.81645652052817
 20
-108.317580389066
 10
45.76214607178278
 20
-108.3289673280759
 10
45.70771560757939
 20
-108.339764978406
 10
45.65317150613078
 20
-108.3499714565389
 10
45.59852013211098
 20
-108.3595848995829
 10
45.54376769392288
 20
-108.368603682676
 10
45.4889202996761
 20
-108.377026333721
 10
45.43398405583206
 20
-108.384851383135
 10
45.37896506885259
 20
-108.392077361332
 10
45.32598985091617
 20
-108.3984590966538
 10
45.27294920668888
 20
-108.40428429179
 10
45.2198485870431
 20
-108.409551645394
 10
45.1666941379339
 20
-108.4142600156979
 10
45.11349282067338
 20
-108.4184084481297
 10
45.06025164307199
 20
-108.421995998794
 10
45.00697761293977
 20
-108.425021723794
 10
44.95367773808708
 20
-108.427484679232
 10
44.90035902632419
 20
-108.4293839212129
 10
44.84702848546127
 20
-108.4307185058378
 10
44.84490511503809
 20
-108.430759938033
  0
LWPOLYLINE
  5
C78
330
1E
100
AcDbEntity
  8
1
100
AcDbPolyline
 90
       95
 70
     0
 43
0.0
 10
55.84142031449999
 20
-27.22258567010002
 10
55.84144210348298
 20
-27.21882662042389
 10
55.8415132428394
 20
-27.21506798435298
 10
55.84163335591928
 20
-27.21131029787549
 10
55.84180206607329
 20
-27.2075540969797
 10
55.8420189957825
 20
-27.2037999178198
 10
55.84228373054578
 20
-27.20004830360689
 10
55.8425958058887
 20
-27.1962998070885
 10
55.84295475379509
 20
-27.19255498168779
 10
55.843360106249
 20
-27.1888143808281
 10
55.84381139523429
 20
-27.1850785579325
 10
55.8443081527348
 20
-27.1813480664244
 10
55.8448499107346
 20
-27.1776234597268
 10
55.84543620121739
 20
-27.1739052912632
 10
55.8460665561674
 20
-27.17019411445661
 10
55.84674050756829
 20
-27.1664904827303
 10
55.84755023154222
 20
-27.1623336048438
 10
55.84841387356711
 20
-27.15818776460549
 10
55.8493307673477
 20
-27.15405374970361
 10
55.8503002713817
 20
-27.14993225674339
 10
55.8513218040431
 20
-27.14582376235811
 10
55.85239479256479
 20
-27.1417287106351
 10
55.85351866418
 20
-27.1376475456616
 10
55.8546928461215
 20
-27.1335807115249
 10
55.8559167656225
 20
-27.129528652312
 10
55.857189849916
 20
-27.1254918121104
 10
55.85851152623489
 20
-27.1214706350072
 10
55.8598812218122
 20
-27.1174655650897
 10
55.8614587280266
 20
-27.1130349186807
 10
55.8630940244679
 20
-27.10862531511519
 10
55.86478632544739
 20
-27.10423736356629
 10
55.8665348649697
 20
-27.0998716553196
 10
55.8683389673215
 20
-27.0955286996563
 10
55.87019798264599
 20
-27.09120898237189
 10
55.87211126108879
 20
-27.08691298925961
 10
55.8740781527952
 20
-27.082641206113
 10
55.8760980079106
 20
-27.07839411872539
 10
55.8783802456735
 20
-27.0737514259952
 10
55.88072491788079
 20
-27.0691398495347
 10
55.883131159576
 20
-27.06456003593471
 10
55.88559810580271
 20
-27.0600126317864
 10
55.8881248916043
 20
-27.05549828368071
 10
55.8907106621524
 20
-27.05101763137081
 10
55.8933546604848
 20
-27.046571248532
 10
55.8960561844684
 20
-27.0421596718203
 10
55.8990680849725
 20
-27.0373873690467
 10
55.90214670010221
 20
-27.0326578228173
 10
55.90529111908161
 20
-27.02797172932819
 10
55.90850043113499
 20
-27.02332978477589
 10
55.9117737254866
 20
-27.01873268535649
 10
55.9151100913605
 20
-27.01418112726639
 10
55.91850861798089
 20
-27.0096758067018
 10
55.9222594466094
 20
-27.0048480279631
 10
55.92608107529922
 20
-27.000076215092
 10
55.92997253430899
 20
-26.99536125014791
 10
55.9339328641602
 20
-26.9907040150216
 10
55.937961105374
 20
-26.9861053916041
 10
55.9420562984719
 20
-26.98156626178628
 10
55.9465402810675
 20
-26.97674551394389
 10
55.9510996008682
 20
-26.97199588884091
 10
55.95573305950811
 20
-26.96731848793779
 10
55.9604394586217
 20
-26.9627144126948
 10
55.965217613815
 20
-26.95818478966048
 10
55.97006639494099
 20
-26.9537308427904
 10
55.97463109725221
 20
-26.9496638865446
 10
55.9792548389814
 20
-26.94566425630831
 10
55.9839367258094
 20
-26.94173295097401
 10
55.98867586341679
 20
-26.9378709694343
 10
55.9934713574846
 20
-26.93407931058179
 10
55.99832231369351
 20
-26.9303589733091
 10
56.002848572756
 20
-26.9269889828617
 10
56.00742062496649
 20
-26.92368140274689
 10
56.0120377916866
 20
-26.9204370877407
 10
56.0166994201269
 20
-26.91725696475689
 10
56.0214048587897
 20
-26.9141419643138
 10
56.02615345617721
 20
-26.91109301692931
 10
56.0309445607915
 20
-26.9081110531216
 10
56.03537319168109
 20
-26.9054372242374
 10
56.03983649119061
 20
-26.9028211787938
 10
56.0443339575008
 20
-26.9002636335269
 10
56.0488650887924
 20
-26.89776530517251
 10
56.05342938324628
 20
-26.89532691046649
 10
56.0580263290894
 20
-26.8929491729001
 10
56.0626552217711
 20
-26.89063294679562
 10
56.0673151821399
 20
-26.88837920497038
 10
56.0715777242215
 20
-26.8863853928619
 10
56.07586454503479
 20
-26.88444476228081
 10
56.08017497932149
 20
-26.8825580473352
 10
56.08450836182299
 20
-26.88072598213319
 10
56.08886402728099
 20
-26.878949300783
 10
56.0932413104371
 20
-26.8772287373928
 10
56.0976395460328
 20
-26.8755650260708
 10
56.10205806880969
 20
-26.87395890092501
 10
56.1064962135094
 20
-26.87241109606361
 10
56.1100509126381
 20
-26.8712184666222
  0
LWPOLYLINE
  5
CD9
330
1E
100
AcDbEntity
  8
1
100
AcDbPolyline
 90
       73
 70
     0
 43
0.0
 10
61.41219831459999
 20
-23.99047171519999
 10
61.4318276379146
 20
-23.98266957223341
 10
61.4477193057622
 20
-23.97614870817351
 10
61.4614000411041
 20
-23.97035671594851
 10
61.4735266642203
 20
-23.9650626481794
 10
61.4838998112862
 20
-23.96039461744889
 10
61.4929553320354
 20
-23.95619462105968
 10
61.5011240903374
 20
-23.9522910357413
 10
61.50862241747371
 20
-23.94860008541261
 10
61.51545686699879
 20
-23.94513660037739
 10
61.5216339329592
 20
-23.9419155931584
 10
61.52715797914001
 20
-23.9389495960465
 10
61.53203526831199
 20
-23.9362532129763
 10
61.5364752110168
 20
-23.93372706434421
 10
61.5406827779314
 20
-23.9312631257885
 10
61.54465968593239
 20
-23.9288653089993
 10
61.5482116397379
 20
-23.92666187898869
 10
61.5517359757131
 20
-23.9244130339747
 10
61.55503715255338
 20
-23.922244995251
 10
61.5579246292491
 20
-23.9202932802968
 10
61.5605952034295
 20
-23.91843613228469
 10
61.5630515701581
 20
-23.916678711278
 10
61.5654831944108
 20
-23.9148875706885
 10
61.56770398947471
 20
-23.9132025844589
 10
61.5699002530285
 20
-23.911485651265
 10
61.571890530372
 20
-23.9098824131164
 10
61.5738575280375
 20
-23.9082498448946
 10
61.5757999707927
 20
-23.9065867577633
 10
61.57754344678959
 20
-23.9050473766467
 10
61.5792645470411
 20
-23.9034808615835
 10
61.5807919612037
 20
-23.9020462150872
 10
61.582294956124
 20
-23.90058575067349
 10
61.5836072709943
 20
-23.899264021823
 10
61.5847349970255
 20
-23.89808800776969
 10
61.5858416042942
 20
-23.89689265598538
 10
61.5867719128332
 20
-23.89585185515139
 10
61.5876841798477
 20
-23.8947953668018
 10
61.58857723963048
 20
-23.89372250776589
 10
61.5894499264744
 20
-23.89263259487309
 10
61.59016076184901
 20
-23.89171081400339
 10
61.5908559652314
 20
-23.8907763204
 10
61.5915348620224
 20
-23.88982871870961
 10
61.59219677762299
 20
-23.8888676135788
 10
61.592841037434
 20
-23.8878926096541
 10
61.5934669668563
 20
-23.88690331158239
 10
61.594073891291
 20
-23.88589932401
 10
61.5945452939169
 20
-23.8850852918343
 10
61.5950036925889
 20
-23.88426147052228
 10
61.5954482812886
 20
-23.8834281470021
 10
61.5958781011512
 20
-23.8825857705796
 10
61.59629219299089
 20
-23.8817347909016
 10
61.5966895976221
 20
-23.88087565761511
 10
61.59706935585901
 20
-23.8800088203671
 10
61.5973420170802
 20
-23.879353907197
 10
61.59760380800619
 20
-23.8786951031698
 10
61.5978543239805
 20
-23.87803259798018
 10
61.5980931603465
 20
-23.877366581323
 10
61.5983199124478
 20
-23.87669724289299
 10
61.598534175628
 20
-23.8760247723851
 10
61.5987355452305
 20
-23.87534935949398
 10
61.5989236165989
 20
-23.8746711939145
 10
61.59909798507658
 20
-23.8739904653415
 10
61.59925824600708
 20
-23.8733073634697
 10
61.5994039947341
 20
-23.872622077994
 10
61.599534826601
 20
-23.8719347986091
 10
61.5996503369514
 20
-23.87124571500979
 10
61.5997501211287
 20
-23.87055501689097
 10
61.59983377447639
 20
-23.86986289394739
 10
61.59990089233819
 20
-23.86916953587391
 10
61.5999510700574
 20
-23.86847513236519
 10
61.5999839029777
 20
-23.86777987311619
 10
61.5999989864425
 20
-23.8670839478216
 10
61.5999999981143
 20
-23.86686185745729
  0
LWPOLYLINE
  5
D24
330
1E
100
AcDbEntity
  8
1
100
AcDbPolyline
 90
       46
 70
     0
 43
0.0
 10
33.65344253589999
 20
-108.0424057391
 10
33.65668982293207
 20
-108.0406040255899
 10
33.66045853802997
 20
-108.040067563242
 10
33.66456323267387
 20
-108.0404037707589
 10
33.66881845834418
 20
-108.041220066839
 10
33.67304384073818
 20
-108.0421342399179
 10
33.67715844114359
 20
-108.04296728624
 10
33.68117201385988
 20
-108.0437255434199
 10
33.68509763424468
 20
-108.044422136029
 10
33.69084975654478
 20
-108.0453801138689
 10
33.69647753498517
 20
-108.046273172134
 10
33.70753657761358
 20
-108.0480417116399
 10
33.71305606322887
 20
-108.0490057425199
 10
33.71861478202557
 20
-108.050067713536
 10
33.72421231276669
 20
-108.051222612631
 10
33.73172707372008
 20
-108.0528892287229
 10
33.73928926367688
 20
-108.0546783203109
 10
33.74878992069609
 20
-108.0570497179879
 10
33.76595247935579
 20
-108.0615521130628
 10
33.80009609974448
 20
-108.070615358985
 10
34.03523928389478
 20
-108.1318754163369
 10
34.12209298136817
 20
-108.1532722660849
 10
34.19972940438828
 20
-108.1715244032819
 10
34.26996811085688
 20
-108.187252226261
 10
34.33846271053328
 20
-108.201823891546
 10
34.40520038664709
 20
-108.215277216044
 10
34.47016827890537
 20
-108.2276543931699
 10
34.53334993186437
 20
-108.239001235998
 10
34.59664862658817
 20
-108.249678590945
 10
34.65813551359218
 20
-108.2593815349589
 10
34.71972130445768
 20
-108.268435601665
 10
34.78140014064509
 20
-108.276833631738
 10
34.84123466883287
 20
-108.2843369340839
 10
34.90114498257936
 20
-108.2912124712849
 10
34.96112463757969
 20
-108.297455523533
 10
35.02116717929409
 20
-108.3030613873979
 10
35.08126615958458
 20
-108.3080254590359
 10
35.13947417616029
 20
-108.3122147612528
 10
35.19772328690939
 20
-108.3157964065289
 10
35.25600771942947
 20
-108.318767336645
 10
35.31432167666919
 20
-108.321124503221
 10
35.3726584505891
 20
-108.322865221395
 10
35.43101017636836
 20
-108.323987267915
 10
35.48936891449756
 20
-108.324488449329
 10
35.54772672546699
 20
-108.324366572186
 10
35.57105781248758
 20
-108.324142990876
  0
LWPOLYLINE
  5
D54
330
1E
100
AcDbEntity
  8
1
100
AcDbPolyline
 90
       98
 70
     0
 43
0.0
 10
45.73905266129997
 20
-107.6133833849
 10
45.73882507819909
 20
-107.612972709311
 10
45.73860301930134
 20
-107.6125590491588
 10
45.73838652038728
 20
-107.6121423736699
 10
45.73817561723759
 20
-107.6117226520699
 10
45.73797034561478
 20
-107.611299853625
 10
45.73777072970427
 20
-107.610873974768
 10
45.73757676222785
 20
-107.6104450857539
 10
45.73738843061287
 20
-107.610013269263
 10
45.73720572228678
 20
-107.6095786079739
 10
45.73702862467706
 20
-107.6091411845669
 10
45.73685712521109
 20
-107.6087010817199
 10
45.73669121131618
 20
-107.6082583821129
 10
45.73653087041978
 20
-107.607813168424
 10
45.73637608994935
 20
-107.607365523334
 10
45.73622685733226
 20
-107.6069155295199
 10
45.73608315999599
 20
-107.6064632696629
 10
45.73594498536787
 20
-107.606008826441
 10
45.73581232087539
 20
-107.605552282534
 10
45.73568515394589
 20
-107.60509372062
 10
45.73556347200677
 20
-107.604633223379
 10
45.73543110712027
 20
-107.6041046770899
 10
45.73530587111418
 20
-107.6035738344319
 10
45.73518774522148
 20
-107.6030408188209
 10
45.73507671067479
 20
-107.602505753674
 10
45.73497274870677
 20
-107.6019687624048
 10
45.73487584055047
 20
-107.601429968432
 10
45.73478596743838
 20
-107.60088949517
 10
45.73470311060328
 20
-107.6003474660359
 10
45.7346272512781
 20
-107.5998040044449
 10
45.73455837069539
 20
-107.599259233815
 10
45.73449645008795
 20
-107.59871327756
 10
45.73444147068872
 20
-107.5981662590969
 10
45.7343934137302
 20
-107.597618301842
 10
45.73435226044519
 20
-107.597069529211
 10
45.73431799206657
 20
-107.5965200646209
 10
45.73429058982708
 20
-107.595970031487
 10
45.73427003495939
 20
-107.595419553226
 10
45.73425630869618
 20
-107.5948687532529
 10
45.73424939227048
 20
-107.594317754985
 10
45.73424926691468
 20
-107.593766681837
 10
45.73425591386189
 20
-107.593215657227
 10
45.73426931434467
 20
-107.5926648045699
 10
45.73428944959568
 20
-107.592114247282
 10
45.73431630084788
 20
-107.5915641087789
 10
45.73434984933397
 20
-107.591014512477
 10
45.73439007628667
 20
-107.5904655817929
 10
45.73443696293868
 20
-107.5899174401429
 10
45.73449049052288
 20
-107.589370210942
 10
45.73455064027188
 20
-107.5888240176069
 10
45.73461739341849
 20
-107.588278983554
 10
45.73469073119559
 20
-107.5877352321989
 10
45.73477063483568
 20
-107.587192886958
 10
45.73485708557178
 20
-107.586652071247
 10
45.73495006463647
 20
-107.586112908483
 10
45.73504955326259
 20
-107.5855755220809
 10
45.73515553268278
 20
-107.5850400354569
 10
45.73526798412988
 20
-107.584506572028
 10
45.73538688883668
 20
-107.5839752552099
 10
45.73551222432389
 20
-107.583446201259
 10
45.73564392668699
 20
-107.582919446525
 10
45.73578190609397
 20
-107.582394977348
 10
45.73592607231494
 20
-107.5818727793
 10
45.73609554214299
 20
-107.581288003239
 10
45.73627259948858
 20
-107.580706062772
 10
45.73645711587999
 20
-107.580126937355
 10
45.73664896284538
 20
-107.579550606445
 10
45.73684801191308
 20
-107.578977049499
 10
45.73705413461138
 20
-107.578406245974
 10
45.73726720246829
 20
-107.577838175326
 10
45.73751193383077
 20
-107.577210165958
 10
45.73776490462607
 20
-107.5765854769709
 10
45.73802593862397
 20
-107.575964080186
 10
45.73829485959445
 20
-107.5753459474209
 10
45.73857149130739
 20
-107.5747310504989
 10
45.73888448176838
 20
-107.5740583676469
 10
45.73920635442699
 20
-107.573389528559
 10
45.73953687472077
 20
-107.5727244957259
 10
45.73987580808749
 20
-107.572063231642
 10
45.74025487302948
 20
-107.5713461068078
 10
45.74064336654938
 20
-107.570633373765
 10
45.74104098412147
 20
-107.5699249838159
 10
45.74148167953627
 20
-107.569162405956
 10
45.74193233846776
 20
-107.56840480614
 10
45.74242836200219
 20
-107.567594425564
 10
45.74293500824786
 20
-107.566789669212
 10
45.7434890820715
 20
-107.5659335835819
 10
45.74409225311629
 20
-107.5650273369429
 10
45.74470726855168
 20
-107.564128111597
 10
45.74537289298937
 20
-107.5631802488149
 10
45.74613062043627
 20
-107.562129928311
 10
45.74694267560707
 20
-107.56103444913
 10
45.74789305651616
 20
-107.5597871934359
 10
45.74898609550277
 20
-107.558392999913
 10
45.75026804933187
 20
-107.5568044579318
 10
45.75161126454069
 20
-107.55518486457
 10
45.75301205687208
 20
-107.5535354933639
 10
45.75441503052927
 20
-107.551915564339
  0
LWPOLYLINE
  5
DB8
330
1E
100
AcDbEntity
  8
1
100
AcDbPolyline
 90
       89
 70
     0
 43
0.0
 10
45.10920538229999
 20
-8.838532769300002
 10
45.1091925946347
 20
-8.838446052619087
 10
45.10918498443309
 20
-8.838358415560056
 10
45.10918196030288
 20
-8.838270493294086
 10
45.10918293085199
 20
-8.838182920992336
 10
45.1091873059117
 20
-8.838096332363996
 10
45.1091946630846
 20
-8.838011160637014
 10
45.109204917003
 20
-8.837927436299816
 10
45.109218022631
 20
-8.837845141645605
 10
45.10923393493277
 20
-8.837764258967595
 10
45.1092526088725
 20
-8.837684770559002
 10
45.10927399941421
 20
-8.837606658713035
 10
45.10929806152221
 20
-8.837529905722906
 10
45.1093247501604
 20
-8.837454493881823
 10
45.10935402029299
 20
-8.837380405483001
 10
45.1093858268842
 20
-8.837307622819661
 10
45.1094201248981
 20
-8.837236128184994
 10
45.1094568692988
 20
-8.837165903872234
 10
45.10949601505049
 20
-8.837096932174585
 10
45.1095375171172
 20
-8.837029195385255
 10
45.1095813304632
 20
-8.836962675797442
 10
45.1096274100526
 20
-8.836897355704396
 10
45.1096757108494
 20
-8.836833217399293
 10
45.1097261878179
 20
-8.836770243175363
 10
45.109778795922
 20
-8.836708415325816
 10
45.10983349012611
 20
-8.836647716143851
 10
45.1098902253942
 20
-8.836588127922702
 10
45.1099489566905
 20
-8.836529632955572
 10
45.11000963897899
 20
-8.836472213535666
 10
45.1100722272239
 20
-8.836415851956202
 10
45.1101366763894
 20
-8.836360530510383
 10
45.1102029414395
 20
-8.836306231491445
 10
45.1103056452826
 20
-8.836226661279782
 10
45.1104121815393
 20
-8.836149291927902
 10
45.11052239821379
 20
-8.836074063675365
 10
45.11063614330988
 20
-8.836000916761765
 10
45.11075326483171
 20
-8.835929791426702
 10
45.110873610783
 20
-8.835860627909765
 10
45.11099702916768
 20
-8.835793366450543
 10
45.1111233679899
 20
-8.835727947288615
 10
45.11125247525349
 20
-8.835664310663595
 10
45.1113841989624
 20
-8.835602396815042
 10
45.1115183871205
 20
-8.835542145982586
 10
45.1116548877319
 20
-8.835483498405775
 10
45.1117935488004
 20
-8.835426394324226
 10
45.11198152822699
 20
-8.835352553251855
 10
45.1121727179642
 20
-8.835281208276002
 10
45.11236675772511
 20
-8.835212217742386
 10
45.1126127663972
 20
-8.835129074708264
 10
45.1128619615974
 20
-8.835049112486716
 10
45.11311363964039
 20
-8.834972054409162
 10
45.1134179398552
 20
-8.834883028636845
 10
45.1137745726092
 20
-8.834783309427852
 10
45.1141819192901
 20
-8.834673879879812
 10
45.114586271114
 20
-8.834568207762922
 10
45.11493617429759
 20
-8.834478224815324
 10
45.1152824100768
 20
-8.834390467361242
 10
45.11567374843589
 20
-8.834292845076411
 10
45.1160605825887
 20
-8.834198013604396
 10
45.1164430650006
 20
-8.834105911102952
 10
45.1168213481372
 20
-8.834016475729814
 10
45.1172420870571
 20
-8.833918971985982
 10
45.11765792131797
 20
-8.833824677504585
 10
45.1180690680046
 20
-8.833733504232872
 10
45.11852066391949
 20
-8.833635754179063
 10
45.1189670384956
 20
-8.833541627977814
 10
45.11945237528871
 20
-8.833442130548482
 10
45.1199321509316
 20
-8.833346711064413
 10
45.1204496658078
 20
-8.833247079052755
 10
45.1210039675354
 20
-8.833144162973921
 10
45.12163618780737
 20
-8.833031561028363
 10
45.1223443878787
 20
-8.832911415000406
 10
45.123127180478
 20
-8.832785823708675
 10
45.12398403354729
 20
-8.832656719804685
 10
45.1249560034209
 20
-8.832520262137085
 10
45.1261257360594
 20
-8.832368868352356
 10
45.12766215120229
 20
-8.832188176308351
 10
45.1287645225399
 20
-8.832068661398386
 10
45.12975598583047
 20
-8.831966842168716
 10
45.1308420815453
 20
-8.831860922414954
 10
45.1320245583716
 20
-8.831751853007835
 10
45.13339067178399
 20
-8.831633406997394
 10
45.1349440469619
 20
-8.831507864246493
 10
45.1368625484505
 20
-8.831365169035656
 10
45.1396383968706
 20
-8.831180605796591
 10
45.1433252895507
 20
-8.830970976044984
 10
45.14737043524269
 20
-8.830781720377363
 10
45.15032613406201
 20
-8.83066731482773
 10
45.1511480545589
 20
-8.830638809966076
  0
LWPOLYLINE
  5
E13
330
1E
100
AcDbEntity
  8
1
100
AcDbPolyline
 90
        2
 70
     0
 43
0.0
 10
61.2072331326
 20
-98.95403195490008
 10
50.03013538835568
 20
-105.309649544039
  0
LWPOLYLINE
  5
E17
330
1E
100
AcDbEntity
  8
1
100
AcDbPolyline
 90
       80
 70
     0
 43
0.0
 10
61.60000000000001
 20
98.66520988010002
 10
61.59994514027721
 20
98.67420348905138
 10
61.59978072528311
 20
98.68319732867313
 10
61.59950700127939
 20
98.69218984275246
 10
61.59912421452772
 20
98.70117947507738
 10
61.59863261128961
 20
98.71016466943508
 10
61.59803243782679
 20
98.71914386961307
 10
61.59732394040081
 20
98.72811551939912
 10
61.59650736527328
 20
98.73707806258057
 10
61.59558295870592
 20
98.74602994294512
 10
61.59455097032662
 20
98.75496961248268
 10
61.59341172803801
 20
98.76389571391621
 10
61.59216563849279
 20
98.77280708185812
 10
61.5908131118048
 20
98.78170255935508
 10
61.589354558088
 20
98.79058098945392
 10
61.58779038745631
 20
98.79944121520139
 10
61.58612101002361
 20
98.8082820796442
 10
61.58434683590371
 20
98.8171024258291
 10
61.58246827521061
 20
98.82590109680293
 10
61.58048573819359
 20
98.8346769356235
 10
61.5783996703877
 20
98.8434287883078
 10
61.57621059956428
 20
98.85215550776727
 10
61.57391906518679
 20
98.8608559478942
 10
61.57152560671871
 20
98.86952896258042
 10
61.56903076362342
 20
98.878173405718
 10
61.56643507536441
 20
98.886788131199
 10
61.56373908140522
 20
98.89537199291538
 10
61.56094332120922
 20
98.90392384475941
 10
61.55804833424522
 20
98.91244254062971
 10
61.5547776585188
 20
98.92169653566758
 10
61.55139037367241
 20
98.93090839724656
 10
61.54788730857739
 20
98.94007680378791
 10
61.54426929210501
 20
98.94920043371241
 10
61.54053715312651
 20
98.95827796544121
 10
61.53669172051341
 20
98.9673080773953
 10
61.53273382313702
 20
98.97628944799578
 10
61.52866428986849
 20
98.9852207556636
 10
61.52448395827351
 20
98.99410068976649
 10
61.52019372785479
 20
99.0029280176572
 10
61.5157945249938
 20
99.01170154053112
 10
61.51128727618091
 20
99.02042005972088
 10
61.50628357100591
 20
99.02980166181032
 10
61.5011553271919
 20
99.03911578019553
 10
61.49590372269011
 20
99.04836089087659
 10
61.49052993545172
 20
99.05753546985348
 10
61.48503515464099
 20
99.06663801375792
 10
61.47942062910829
 20
99.07566712903978
 10
61.47368762748381
 20
99.08462145854301
 10
61.46783741841073
 20
99.09349964513522
 10
61.46187127053202
 20
99.1023003316836
 10
61.45531798398411
 20
99.1116897658177
 10
61.44863329169311
 20
99.12098604926598
 10
61.44181877974848
 20
99.13018749172261
 10
61.4348760666482
 20
99.1392924993989
 10
61.42780680120182
 20
99.14829956877801
 10
61.42061263338329
 20
99.15720719981148
 10
61.41276786759799
 20
99.1666390398533
 10
61.4047836424864
 20
99.17595316174473
 10
61.39666198744471
 20
99.18514772049178
 10
61.38840494051411
 20
99.19422088524653
 10
61.38001460794288
 20
99.20317093676572
 10
61.37092041906241
 20
99.21258008277948
 10
61.36167960967842
 20
99.22184523547741
 10
61.35229477548572
 20
99.23096437294953
 10
61.34276851217872
 20
99.2399354732862
 10
61.33371150072561
 20
99.24820963901908
 10
61.32453456459021
 20
99.25635038673028
 10
61.31523976144721
 20
99.2643563132788
 10
61.3058291470412
 20
99.27222602177861
 10
61.29630477711651
 20
99.2799581153438
 10
61.28666870741781
 20
99.28755119708831
 10
61.27692299368931
 20
99.29500387012621
 10
61.26772992650911
 20
99.30183177533002
 10
61.25844518275092
 20
99.30853492037599
 10
61.24907088679202
 20
99.31511205306408
 10
61.23960916343211
 20
99.32156192108578
 10
61.23006213747052
 20
99.32788327213241
 10
61.2204319337068
 20
99.33407485389521
 10
61.21072067694042
 20
99.34013541406557
 10
61.20724167657342
 20
99.34226271249606
  0
LWPOLYLINE
  5
E69
330
1E
100
AcDbEntity
  8
1
100
AcDbPolyline
 90
        3
 70
     0
 43
0.0
 10
44.84489511689996
 20
-108.4307601309999
 10
41.10048707251727
 20
-108.484347774233
 10
37.73946034099997
 20
-108.5000000702289
  0
LWPOLYLINE
  5
E6E
330
1E
100
AcDbEntity
  8
1
100
AcDbPolyline
 90
        2
 70
     0
 43
0.0
 10
44.84489511689996
 20
-108.3519524571999
 10
38.43388404624048
 20
-108.3175235387789
  0
LWPOLYLINE
  5
E72
330
1E
100
AcDbEntity
  8
1
100
AcDbPolyline
 90
        2
 70
     0
 43
0.0
 10
61.2072331326
 20
99.34226790870001
 10
47.3901107666922
 20
107.6945793999859
  0
LWPOLYLINE
  5
E76
330
1E
100
AcDbEntity
  8
1
100
AcDbPolyline
 90
        3
 70
     0
 43
0.0
 10
44.84489511689999
 20
108.4307601309999
 10
41.10048707251729
 20
108.484347774233
 10
37.73946034100001
 20
108.5000000702289
  0
LWPOLYLINE
  5
E7B
330
1E
100
AcDbEntity
  8
1
100
AcDbPolyline
 90
        2
 70
     0
 43
0.0
 10
47.39010219569999
 20
-32.558443266
 10
56.44998863218359
 20
-32.6627716049667
  0
LWPOLYLINE
  5
E7F
330
1E
100
AcDbEntity
  8
1
100
AcDbPolyline
 90
        2
 70
     0
 43
0.0
 10
42.54985858169999
 20
-31.6680178659001
 10
44.84488539092498
 20
-32.2172172263461
  0
LWPOLYLINE
  5
E83
330
1E
100
AcDbEntity
  8
1
100
AcDbPolyline
 90
        2
 70
     0
 43
0.0
 10
56.8090889912
 20
-26.6407822204
 10
60.2045116941578
 20
-24.46334883046439
  0
LWPOLYLINE
  5
E87
330
1E
100
AcDbEntity
  8
1
100
AcDbPolyline
 90
        2
 70
     0
 43
0.0
 10
60.2045201055
 20
-24.4633434222
 10
60.52074099559179
 20
-24.25997105058311
  0
LWPOLYLINE
  5
E8B
330
1E
100
AcDbEntity
  8
1
100
AcDbPolyline
 90
        2
 70
     0
 43
0.0
 10
56.11006041
 20
-26.8712153361
 10
56.8090794940403
 20
-26.6407853515273
  0
LWPOLYLINE
  5
E8F
330
1E
100
AcDbEntity
  8
1
100
AcDbPolyline
 90
      161
 70
     0
 43
0.0
 10
35.25954562639999
 20
-12.7931859469
 10
35.2104602427626
 20
-12.76349359845599
 10
35.16176507035079
 20
-12.7331511671145
 10
35.11347989997229
 20
-12.70215165640369
 10
35.0656245224353
 20
-12.67048806985169
 10
35.01821872854769
 20
-12.63815341098649
 10
34.97128230912469
 20
-12.6051406833813
 10
34.9248351328248
 20
-12.57144338591209
 10
34.87889733871829
 20
-12.5370567380314
 10
34.83348912455471
 20
-12.5019763325548
 10
34.7886306880835
 20
-12.4661977622983
 10
34.74434222705419
 20
-12.4297166200778
 10
34.70064394968989
 20
-12.3925285344754
 10
34.6575566643578
 20
-12.3546311834638
 10
34.61510209373861
 20
-12.3160253672438
 10
34.5733020373334
 20
-12.276712148344
 10
34.532178294643
 20
-12.2366925892931
 10
34.49175266516849
 20
-12.19596775262
 10
34.4520468569431
 20
-12.1545393348836
 10
34.41737423473298
 20
-12.117127654597
 10
34.3833018554405
 20
-12.0791688498626
 10
34.34984447223039
 20
-12.04066753013619
 10
34.3170168382675
 20
-12.0016283048736
 10
34.2848337062736
 20
-11.9620557847039
 10
34.25330950078969
 20
-11.9219554495156
 10
34.2224577370064
 20
-11.8813351878133
 10
34.1960245579641
 20
-11.8453724832788
 10
34.17012539454619
 20
-11.8090236282804
 10
34.14476919622829
 20
-11.77229418467899
 10
34.1199649124857
 20
-11.73518971433556
 10
34.09572129349049
 20
-11.6977160823914
 10
34.0720462167358
 20
-11.6598804819437
 10
34.04894732092631
 20
-11.62169046945457
 10
34.0264322447609
 20
-11.5831536013949
 10
34.00450862693841
 20
-11.54427743423569
 10
33.9831841061576
 20
-11.5050695244478
 10
33.9624662477952
 20
-11.4655375097203
 10
33.94236185991289
 20
-11.4256898666099
 10
33.9228773036307
 20
-11.38553556674479
 10
33.9066744082007
 20
-11.3508803271953
 10
33.8909355706742
 20
-11.31601203871789
 10
33.87566479324588
 20
-11.2809363551185
 10
33.86086607810749
 20
-11.24565893020567
 10
33.84654331937269
 20
-11.21018552330496
 10
33.83270001777978
 20
-11.1745222777946
 10
33.81933958459519
 20
-11.1386754244045
 10
33.8064654310855
 20
-11.10265119386466
 10
33.7940809685169
 20
-11.06645581690518
 10
33.78218960815589
 20
-11.030095524256
 10
33.7707947612113
 20
-10.9935765467483
 10
33.75989978142639
 20
-10.9569052164903
 10
33.74950785716769
 20
-10.9200881570474
 10
33.73962214723349
 20
-10.8831320440956
 10
33.73024581042211
 20
-10.84604355331109
 10
33.7213820055318
 20
-10.8088293603701
 10
33.7130338913607
 20
-10.77149614094867
 10
33.705204627233
 20
-10.734050574014
 10
33.6978974004721
 20
-10.69649951379018
 10
33.6911154398758
 20
-10.6588500741018
 10
33.68486197759379
 20
-10.6211093897532
 10
33.6791402457756
 20
-10.583284595549
 10
33.67395347657089
 20
-10.5453828262937
 10
33.66930490212939
 20
-10.5074112167919
 10
33.66519777810101
 20
-10.4693769530698
 10
33.661635551856
 20
-10.43128763903107
 10
33.65862176429789
 20
-10.39315108244617
 10
33.6561599569613
 20
-10.3549750924608
 10
33.6542536713807
 20
-10.3167674782206
 10
33.6529064490906
 20
-10.2785360488714
 10
33.6521218342178
 20
-10.24028862101159
 10
33.6519035044197
 20
-10.2020333951644
 10
33.6522553325811
 20
-10.16377913316466
 10
33.6529868653176
 20
-10.1319076711374
 10
33.6541192915614
 20
-10.1000480902723
 10
33.6556548615306
 20
-10.0682054868528
 10
33.6575958254433
 20
-10.03638495716218
 10
33.6599444339318
 20
-10.0045916022404
 10
33.66270296255169
 20
-9.972830809391671
 10
33.6658737255348
 20
-9.941108410142511
 10
33.669459040445
 20
-9.909430274292152
 10
33.6734612248464
 20
-9.877802271639762
 10
33.6778825963028
 20
-9.846230271984532
 10
33.6827254723781
 20
-9.814720145125637
 10
33.68799217063129
 20
-9.783277760879814
 10
33.6936849571828
 20
-9.751909168777672
 10
33.6998059200725
 20
-9.720621040518674
 10
33.70635710883
 20
-9.689420182349092
 10
33.7133405729847
 20
-9.658313400515234
 10
33.72075836206589
 20
-9.627307501263382
 10
33.72861252560328
 20
-9.596409290839831
 10
33.736905113126
 20
-9.565625575490862
 10
33.7456380671141
 20
-9.534963281979367
 10
33.754812803529
 20
-9.504429929823267
 10
33.7644305767271
 20
-9.474033220475453
 10
33.774492641022
 20
-9.443780855437244
 10
33.7850002507274
 20
-9.413680536209943
 10
33.7959546601567
 20
-9.383739964294862
 10
33.8073571236235
 20
-9.353966841193324
 10
33.8192086610858
 20
-9.324368964537054
 10
33.8315093234158
 20
-9.294954529467663
 10
33.8442589110327
 20
-9.265731833860122
 10
33.8574572243557
 20
-9.236709175589536
 10
33.8711040638037
 20
-9.207894852531063
 10
33.8851992297958
 20
-9.179297162559763
 10
33.8997425214038
 20
-9.150924403512254
 10
33.91473320363989
 20
-9.122784857950453
 10
33.930169195672
 20
-9.094886769943784
 10
33.9460482079718
 20
-9.067238377592724
 10
33.9623679510111
 20
-9.039847918997754
 10
33.9791261352618
 20
-9.012723632259351
 10
33.9963204711955
 20
-8.985873755478023
 10
34.013948649237
 20
-8.959306518128427
 10
34.0320074099912
 20
-8.933029741001792
 10
34.0504921513839
 20
-8.907050667168324
 10
34.06939816975889
 20
-8.881376495989952
 10
34.0887207614597
 20
-8.856014426828592
 10
34.1084552228299
 20
-8.830971659046193
 10
34.12859685021329
 20
-8.806255392004681
 10
34.14914085358459
 20
-8.781872744490174
 10
34.17431628497951
 20
-8.753062322255861
 10
34.2000506430941
 20
-8.724749901370381
 10
34.2263320283393
 20
-8.696944403635264
 10
34.2531485411257
 20
-8.669654750851991
 10
34.2804882818643
 20
-8.642889864822091
 10
34.30833903181631
 20
-8.616658066682314
 10
34.3366869491891
 20
-8.590964622851704
 10
34.36551767751719
 20
-8.565813831093551
 10
34.3948168601272
 20
-8.541209988780302
 10
34.4245701403459
 20
-8.517157393284382
 10
34.45476315873829
 20
-8.493660322962092
 10
34.4853813196948
 20
-8.470721430041843
 10
34.51640961397389
 20
-8.448340518775834
 10
34.54783299054749
 20
-8.426517105704892
 10
34.57963639838769
 20
-8.405250707369862
 10
34.6118047864663
 20
-8.384540840311581
 10
34.6443231255723
 20
-8.364386935498592
 10
34.6771768825158
 20
-8.344786478365232
 10
34.7103520169436
 20
-8.325735021300534
 10
34.743834509683
 20
-8.307228033619034
 10
34.77761034156088
 20
-8.289260984635307
 10
34.81166549340461
 20
-8.271829343663902
 10
34.84598597796561
 20
-8.254928540019834
 10
34.8805587636997
 20
-8.238552805578494
 10
34.9153719168563
 20
-8.222694996746524
 10
34.9504135641981
 20
-8.207347894110592
 10
34.98567183248798
 20
-8.192504278257361
 10
35.02113484848889
 20
-8.178156929773502
 10
35.05679073905788
 20
-8.164298629205243
 10
35.0926282194079
 20
-8.150921905026422
 10
35.1286379868261
 20
-8.138018436519931
 10
35.16481115554638
 20
-8.125579724333784
 10
35.2072078522662
 20
-8.111643954771802
 10
35.2498007515323
 20
-8.098315704982784
 10
35.2925757430775
 20
-8.085581478310553
 10
35.335518945288
 20
-8.073427806262452
 10
35.3786181776727
 20
-8.061841429875101
 10
35.42186202660499
 20
-8.050809184640822
 10
35.4652390821714
 20
-8.040317906509232
 10
35.5087379344584
 20
-8.030354431429971
 10
35.5585854107184
 20
-8.019597005391322
 10
35.57105801655628
 20
-8.017012387757143
  0
LWPOLYLINE
  5
F32
330
1E
100
AcDbEntity
  8
1
100
AcDbPolyline
 90
        4
 70
     0
 43
0.0
 10
35.57106781179999
 20
-12.9718155053
 10
35.46696901992739
 20
-12.9136902162306
 10
35.36105487784571
 20
-12.8529397589914
 10
35.2595542093692
 20
-12.7931910659752
  0
LWPOLYLINE
  5
F38
330
1E
100
AcDbEntity
  8
1
100
AcDbPolyline
 90
       12
 70
     0
 43
0.0
 10
60.52074940569999
 20
-24.2599656404
 10
60.57716322772679
 20
-24.24714755748389
 10
60.63483124968229
 20
-24.2334063173906
 10
60.6937393331209
 20
-24.2187148207445
 10
60.75456274985988
 20
-24.20286366992211
 10
60.81659255089128
 20
-24.1859967796903
 10
60.8798151380266
 20
-24.1680879289896
 10
60.944900726187
 20
-24.14890652097291
 10
61.0118283533626
 20
-24.1284072099527
 10
61.0798958386781
 20
-24.1067646473596
 10
61.1497632050523
 20
-24.0837283729719
 10
61.20722367999061
 20
-24.06416756015451
  0
LWPOLYLINE
  5
F46
330
1E
100
AcDbEntity
  8
1
100
AcDbPolyline
 90
       12
 70
     0
 43
0.0
 10
55.84306238039999
 20
-27.25246103990011
 10
55.8427792390078
 20
-27.2497828176032
 10
55.8425206859656
 20
-27.24707147012451
 10
55.842289849243
 20
-27.24435715205791
 10
55.8420844753207
 20
-27.24161041173049
 10
55.8419070768786
 20
-27.23886149166189
 10
55.8417560022529
 20
-27.2360809158361
 10
55.8416331495697
 20
-27.2332989974045
 10
55.8415374675293
 20
-27.23048625513341
 10
55.84146967779529
 20
-27.2276431264395
 10
55.8414307563287
 20
-27.2248000040942
 10
55.84142032268839
 20
-27.2225956701021
  0
LWPOLYLINE
  5
F54
330
1E
100
AcDbEntity
  8
1
100
AcDbPolyline
 90
       30
 70
     0
 43
0.0
 10
35.57106781179999
 20
-8.017010374500053
 10
35.6471927131019
 20
-8.001794102893532
 10
35.7263098892946
 20
-7.986873657847652
 10
35.8055893523165
 20
-7.972810715734142
 10
35.8878565294243
 20
-7.959130604233182
 10
35.97026753762011
 20
-7.946331631953892
 10
36.0556552766271
 20
-7.933997593142406
 10
36.14401690090921
 20
-7.922198744180771
 10
36.23249640978221
 20
-7.911343002645652
 10
36.3239424903575
 20
-7.901107303630552
 10
36.41549119262771
 20
-7.891837721123972
 10
36.509995915545
 20
-7.883269473094282
 10
36.6074520494367
 20
-7.875471431450455
 10
36.7049841891407
 20
-7.868697202823795
 10
36.80545265058379
 20
-7.862774890944732
 10
36.90597815716279
 20
-7.857900864257294
 10
37.0094229296635
 20
-7.853961964746414
 10
37.11577759344169
 20
-7.851028254833581
 10
37.22215552349679
 20
-7.849203219337614
 10
37.3314206199056
 20
-7.848464102112932
 10
37.4406875293101
 20
-7.848859253425272
 10
37.5528207879897
 20
-7.850427286273075
 10
37.6649336126004
 20
-7.853155577402485
 10
37.7798880418837
 20
-7.857140785866723
 10
37.89766878320579
 20
-7.862454683959735
 10
38.01538782312888
 20
-7.868998416090523
 10
38.1330313874737
 20
-7.876758530737612
 10
38.25345164939171
 20
-7.885955101545665
 10
38.3737634479844
 20
-7.896399538533052
 10
38.4338640932752
 20
-7.902084220986784
  0
LWPOLYLINE
  5
F74
330
1E
100
AcDbEntity
  8
1
100
AcDbPolyline
 90
      155
 70
     0
 43
0.0
 10
36.69634342059997
 20
-35.3110770205
 10
36.641031437269
 20
-35.2625692692885
 10
36.58647689873399
 20
-35.2131937258281
 10
36.53272978706517
 20
-35.16293209498751
 10
36.47984008433259
 20
-35.11176608163511
 10
36.43301374669439
 20
-35.0649283016442
 10
36.3869596788407
 20
-35.01732964137669
 10
36.3417230977217
 20
-34.96895495572459
 10
36.30223914942117
 20
-34.92529079140981
 10
36.26347510867169
 20
-34.88098952776461
 10
36.22546581172297
 20
-34.83603989388889
 10
36.19285421330828
 20
-34.79616824302279
 10
36.16087361048728
 20
-34.7557846892513
 10
36.12955649782229
 20
-34.7148836835875
 10
36.0989360717906
 20
-34.67345983047691
 10
36.0732696615331
 20
-34.6375334368566
 10
36.04816039699849
 20
-34.60121554855357
 10
36.02362919835159
 20
-34.56450277505339
 10
35.99969901038248
 20
-34.5273927008748
 10
35.97639682139339
 20
-34.48988485783861
 10
35.95747786940079
 20
-34.45832429994401
 10
35.9390299996735
 20
-34.4264872122283
 10
35.92106910851259
 20
-34.3943734576697
 10
35.90361109221909
 20
-34.36198289924639
 10
35.88667209511799
 20
-34.3293156484392
 10
35.87027040554418
 20
-34.29637396487471
 10
35.85442540956228
 20
-34.26316120802761
 10
35.83915650212559
 20
-34.2296807462783
 10
35.82448307818747
 20
-34.19593594800689
 10
35.81318612056449
 20
-34.1687520506457
 10
35.80229261695289
 20
-34.14140286257961
 10
35.7918127903072
 20
-34.11389090116871
 10
35.78175749231888
 20
-34.0862203864218
 10
35.77213765660989
 20
-34.05839576021831
 10
35.76296421680189
 20
-34.03042146443752
 10
35.75424810651671
 20
-34.00230194095881
 10
35.74600025937609
 20
-33.9740416316616
 10
35.7382316086856
 20
-33.9456449805134
 10
35.73095295848867
 20
-33.91711728540311
 10
35.72417478535678
 20
-33.8884660075368
 10
35.71790751478649
 20
-33.85969894552652
 10
35.7121615722745
 20
-33.83082389798409
 10
35.70694738331739
 20
-33.8018486635218
 10
35.70227537341189
 20
-33.77278104075151
 10
35.69815586547377
 20
-33.74362895970129
 10
35.69459779143548
 20
-33.7144021323884
 10
35.69160908159239
 20
-33.68511155402689
 10
35.68919764417039
 20
-33.65576824810421
 10
35.68737138739539
 20
-33.62638323810759
 10
35.68639047690589
 20
-33.60432374362829
 10
35.6857465151901
 20
-33.5822516418528
 10
35.68544252606959
 20
-33.5601717358209
 10
35.68548029922647
 20
-33.5380894309301
 10
35.68586131968539
 20
-33.51601028127511
 10
35.68658707247109
 20
-33.49393984095061
 10
35.687659042608
 20
-33.4718836640512
 10
35.68907871512099
 20
-33.4498473046717
 10
35.6908475750345
 20
-33.4278363169066
 10
35.69296710608438
 20
-33.4058562549192
 10
35.69543821353969
 20
-33.3839127036078
 10
35.6982603143876
 20
-33.3620113269464
 10
35.70143258955159
 20
-33.34015780145151
 10
35.70495421995547
 20
-33.31835780363981
 10
35.70882438652267
 20
-33.2966170100278
 10
35.7130422701769
 20
-33.2749410971321
 10
35.71760705184178
 20
-33.2533357414692
 10
35.72251789259599
 20
-33.23180661251809
 10
35.72777307690859
 20
-33.21035906888111
 10
35.73336968563998
 20
-33.18899804231939
 10
35.73930471233927
 20
-33.16772843362989
 10
35.74557515055519
 20
-33.14655514360991
 10
35.754452289756
 20
-33.11848238980489
 10
35.76391324489296
 20
-33.09060119842278
 10
35.7739508400631
 20
-33.06292314071831
 10
35.78455630985819
 20
-33.0354583285149
 10
35.79571899922298
 20
-33.0082151386244
 10
35.80742814300998
 20
-32.9812018467752
 10
35.8196729760715
 20
-32.9544267286959
 10
35.8324427332599
 20
-32.927898060115
 10
35.8457266273395
 20
-32.9016240636403
 10
35.85951317604449
 20
-32.8756112903705
 10
35.87379007892379
 20
-32.84986432371331
 10
35.88854498860117
 20
-32.8243876342246
 10
35.90376555770069
 20
-32.79918569246049
 10
35.91943943884628
 20
-32.77426296897699
 10
35.93555428470239
 20
-32.7496239339419
 10
35.95209782377178
 20
-32.7252723277534
 10
35.96905801789689
 20
-32.70120964546261
 10
35.98642287365149
 20
-32.67743695168638
 10
36.00867972752549
 20
-32.6481305026917
 10
36.03152670080599
 20
-32.6192809035444
 10
36.05494036883218
 20
-32.5908902335742
 10
36.0788978428056
 20
-32.56295980113719
 10
36.1033784038931
 20
-32.53548779254581
 10
36.12836188246338
 20
-32.50847160394661
 10
36.15382810888561
 20
-32.481908631486
 10
36.18499640891599
 20
-32.45062764361009
 10
36.21679602636999
 20
-32.41999100442299
 10
36.24919504512419
 20
-32.3899925132502
 10
36.28216569930739
 20
-32.36062356544199
 10
36.31568054589529
 20
-32.3318753693444
 10
36.34971214186327
 20
-32.30373913330352
 10
36.38423304418697
 20
-32.2762060656653
 10
36.41921654189419
 20
-32.24926724127961
 10
36.45464064468777
 20
-32.22291287413929
 10
36.49048523546039
 20
-32.19713283664489
 10
36.52673020182849
 20
-32.17191700033508
 10
36.5633554314086
 20
-32.14725523674901
 10
36.60034081181728
 20
-32.1231374174253
 10
36.6439193923466
 20
-32.09567398866261
 10
36.68793593617671
 20
-32.06892168839511
 10
36.7323682147301
 20
-32.04286529737149
 10
36.77719403428628
 20
-32.0174895994437
 10
36.82239120112486
 20
-31.9927793784633
 10
36.86793752152559
 20
-31.9687194182822
 10
36.91381140435118
 20
-31.9452946939595
 10
36.95999586928749
 20
-31.92249164362618
 10
37.00647606582569
 20
-31.90029738122738
 10
37.05993937527829
 20
-31.8756614389837
 10
37.11374741443349
 20
-31.8517845925949
 10
37.16787803290129
 20
-31.8286476123368
 10
37.22230922971748
 20
-31.8062313467106
 10
37.27702269467779
 20
-31.78451857635439
 10
37.33200395519689
 20
-31.7634940909247
 10
37.39416017523709
 20
-31.7406454382871
 10
37.4566168815981
 20
-31.7186272405118
 10
37.5193537224035
 20
-31.6974179739674
 10
37.58235034627549
 20
-31.6769961153878
 10
37.64558794269428
 20
-31.65734126968009
 10
37.71611774188619
 20
-31.6363817659901
 10
37.78691026429528
 20
-31.6163264709684
 10
37.85794785172049
 20
-31.5971533713354
 10
37.92921284596061
 20
-31.578840453812
 10
38.00068758881459
 20
-31.5613657051187
 10
38.0795315753409
 20
-31.5430858424987
 10
38.15859084909129
 20
-31.52577019764938
 10
38.23785039963139
 20
-31.5093974406078
 10
38.31729524031128
 20
-31.49394626373061
 10
38.40415605171538
 20
-31.47811645509779
 10
38.49120008159919
 20
-31.46333038205189
 10
38.57840859928128
 20
-31.4495612402792
 10
38.66576710579819
 20
-31.4367872308085
 10
38.75326263108309
 20
-31.4249883630718
 10
38.8481890315024
 20
-31.41328349413599
 10
38.9432445316431
 20
-31.4026741909883
 10
39.03841266327717
 20
-31.39313507044088
 10
39.13367855970928
 20
-31.384643217004
 10
39.23636807170971
 20
-31.3766479749916
 10
39.33914217934418
 20
-31.36982293664789
 10
39.44198612118088
 20
-31.3641453465971
 10
39.54488513578768
 20
-31.35959244946339
 10
39.65517893138919
 20
-31.3559378194841
 10
39.76550406375589
 20
-31.353528169798
 10
39.87584568129899
 20
-31.35234371847559
 10
39.9641108644591
 20
-31.35226497240669
  0
LWPOLYLINE
  5
1011
330
1E
100
AcDbEntity
  8
1
100
AcDbPolyline
 90
      115
 70
     0
 43
0.0
 10
61.6
 20
-42.44537796950001
 10
61.59992182598549
 20
-42.4594362382764
 10
61.59970164120849
 20
-42.47271425988071
 10
61.59933525250199
 20
-42.4859906568469
 10
61.59885331825389
 20
-42.49848252306721
 10
61.59823507537028
 20
-42.51096895249149
 10
61.59747722723439
 20
-42.52344800685539
 10
61.5966370230577
 20
-42.5351386986046
 10
61.59566850520649
 20
-42.54681960773377
 10
61.5945689573521
 20
-42.55848913716238
 10
61.59333564329629
 20
-42.5701456728124
 10
61.59206099430869
 20
-42.58101156948877
 10
61.59066385829508
 20
-42.5918622708265
 10
61.58914109267261
 20
-42.60269567925971
 10
61.58761185934871
 20
-42.61273795513779
 10
61.58596907673128
 20
-42.62276183225311
 10
61.58421022869239
 20
-42.63276563117689
 10
61.5823327991043
 20
-42.6427476724807
 10
61.5804923612941
 20
-42.6519411005601
 10
61.57854676066149
 20
-42.66111323769368
 10
61.57649401457138
 20
-42.67026275574139
 10
61.57433192121529
 20
-42.6793878906751
 10
61.57225177323649
 20
-42.68772909439021
 10
61.57007562620249
 20
-42.69604583310861
 10
61.56780149932188
 20
-42.70433618159859
 10
61.5654274118037
 20
-42.71259821462821
 10
61.56295138285639
 20
-42.72083000696571
 10
61.56037143168898
 20
-42.72902963337929
 10
61.5579341743162
 20
-42.7364543066014
 10
61.5554079055957
 20
-42.7438493588595
 10
61.5527911373296
 20
-42.75121334369829
 10
61.55008237610601
 20
-42.75854477704629
 10
61.54728005422111
 20
-42.7658416388684
 10
61.54438254862928
 20
-42.77310150987811
 10
61.5413882349641
 20
-42.78032196126029
 10
61.5386092392239
 20
-42.78678465630711
 10
61.53574932904451
 20
-42.79321168350949
 10
61.53280732026278
 20
-42.79960127226099
 10
61.52978202871559
 20
-42.8059516519557
 10
61.52667227023989
 20
-42.81226105198739
 10
61.52347686067258
 20
-42.81852770174977
 10
61.52019461585059
 20
-42.82474983063688
 10
61.51682436391589
 20
-42.8309256357245
 10
61.51336511321598
 20
-42.83705284079899
 10
61.50981600884589
 20
-42.843128810495
 10
61.50658512833128
 20
-42.84848452233577
 10
61.50328198149878
 20
-42.85379580538871
 10
61.49990597031309
 20
-42.85906080247101
 10
61.4964564967386
 20
-42.86427765639991
 10
61.49293296273999
 20
-42.86944450999238
 10
61.48933477028172
 20
-42.87455950606591
 10
61.48566132132839
 20
-42.8796207874375
 10
61.48191201784459
 20
-42.8846264969244
 10
61.47808626894719
 20
-42.8895747732229
 10
61.47418377655728
 20
-42.8944635863328
 10
61.47020463172239
 20
-42.8992906820618
 10
61.46614895239659
 20
-42.9040537907156
 10
61.46201685653409
 20
-42.9087506426
 10
61.45780846208879
 20
-42.91337896802061
 10
61.453523887015
 20
-42.91793649728329
 10
61.4491632492666
 20
-42.92242096069371
 10
61.44472666679789
 20
-42.92683008855751
 10
61.44021425756289
 20
-42.93116161118039
 10
61.43562613951559
 20
-42.9354132588683
 10
61.43096256646568
 20
-42.93958278908899
 10
61.42682078903838
 20
-42.943162112313
 10
61.4226227698075
 20
-42.9466755778312
 10
61.41836930349329
 20
-42.95012180821939
 10
61.41406118481628
 20
-42.9534994260534
 10
61.40969920849679
 20
-42.95680705390878
 10
61.40528416925518
 20
-42.9600433143615
 10
61.40081686181209
 20
-42.96320682998721
 10
61.39629808088759
 20
-42.96629622336159
 10
61.3917286212024
 20
-42.96931011706039
 10
61.38777220772759
 20
-42.9718323188264
 10
61.38377966127499
 20
-42.9742971885686
 10
61.37975172141249
 20
-42.97670410498221
 10
61.37568929101888
 20
-42.97905261486028
 10
61.37159327671649
 20
-42.9813422688491
 10
61.36746458512771
 20
-42.98357261759499
 10
61.3633041228746
 20
-42.9857432117441
 10
61.3591127965796
 20
-42.98785360194271
 10
61.35489151286488
 20
-42.98990333883721
 10
61.35064117835299
 20
-42.99189197307368
 10
61.34636269966599
 20
-42.9938190552986
 10
61.34205698342627
 20
-42.99568413615811
 10
61.3377249362561
 20
-42.99748676629841
 10
61.3333674647777
 20
-42.99922649636599
 10
61.3289854788691
 20
-43.00090291032381
 10
61.32457992161679
 20
-43.00251593199371
 10
61.32015175551869
 20
-43.00406568384899
 10
61.3157019433164
 20
-43.00555229086031
 10
61.31123144775179
 20
-43.00697587799759
 10
61.3067412315665
 20
-43.0083365702315
 10
61.30223225750238
 20
-43.00963449253221
 10
61.29770548830099
 20
-43.01086976987021
 10
61.29316188670428
 20
-43.01204252721549
 10
61.28860241545378
 20
-43.01315288953879
 10
61.28402803729139
 20
-43.0142009818102
 10
61.27943971495879
 20
-43.01518692900009
 10
61.27483841119769
 20
-43.0161108560788
 10
61.27022508802779
 20
-43.01697289389688
 10
61.26560068531649
 20
-43.01777335370529
 10
61.26096611717438
 20
-43.0185127565053
 10
61.25632229626459
 20
-43.01919163509039
 10
61.25167013524968
 20
-43.01981052225399
 10
61.2470105467927
 20
-43.0203699507895
 10
61.24234444355649
 20
-43.02087045349028
 10
61.23767273820378
 20
-43.0213125631498
 10
61.23299634339739
 20
-43.02169681256152
 10
61.22831617180029
 20
-43.02202373451861
 10
61.22363313607529
 20
-43.02229386181479
 10
61.2181671920446
 20
-43.02253793898811
 10
61.2127000411279
 20
-43.02270628356451
 10
61.2072431320725
 20
-43.02279963849289
  0
LWPOLYLINE
  5
1086
330
1E
100
AcDbEntity
  8
1
100
AcDbPolyline
 90
        5
 70
     0
 43
0.0
 10
44.84489511689999
 20
-8.525167459500043
 10
45.4899349571421
 20
-8.591154681384205
 10
46.1045061194295
 20
-8.660284612476392
 10
46.6673718497957
 20
-8.729358042822996
 10
46.97078381185519
 20
-8.769106411229364
  0
LWPOLYLINE
  5
108D
330
1E
100
AcDbEntity
  8
1
100
AcDbPolyline
 90
       35
 70
     0
 43
0.0
 10
47.39010219569999
 20
-18.86484575929999
 10
47.33912821636629
 20
-18.85841590927189
 10
47.2855447343019
 20
-18.85106156738011
 10
47.2320414829045
 20
-18.84312093976819
 10
47.1759549941123
 20
-18.8341687821892
 10
47.11996847916938
 20
-18.8246043088477
 10
47.0614295890297
 20
-18.8139466393825
 10
47.0030124163197
 20
-18.80265471689869
 10
46.94207321354968
 20
-18.79018834264939
 10
46.8786328981123
 20
-18.7764779550055
 10
46.8153474629801
 20
-18.7620701763199
 10
46.74959344246709
 20
-18.74634185607519
 10
46.68139533089401
 20
-18.72922801140429
 10
46.6133901221381
 20
-18.7113635553157
 10
46.54297657955839
 20
-18.6920383237315
 10
46.4701815590172
 20
-18.67118766469189
 10
46.3976206269091
 20
-18.64953653424031
 10
46.32271864933271
 20
-18.6262935361084
 10
46.2455046153802
 20
-18.6013958845106
 10
46.1660083595351
 20
-18.5747807404895
 10
46.0842610914589
 20
-18.5463871502678
 10
46.0028348052464
 20
-18.5170864026814
 10
45.9192026600873
 20
-18.4859473183194
 10
45.8333979381686
 20
-18.4529097896836
 10
45.7454551215761
 20
-18.41791494801539
 10
45.65541001367678
 20
-18.3809061106093
 10
45.5632996533417
 20
-18.34182849516
 10
45.4691615052141
 20
-18.30062490855951
 10
45.37303380479428
 20
-18.25723787128287
 10
45.27495596199599
 20
-18.2116120728283
 10
45.1749687122816
 20
-18.1636943342377
 10
45.0731155693747
 20
-18.1134302908522
 10
44.96944251564349
 20
-18.0607655074886
 10
44.8639971884175
 20
-18.00564786727781
 10
44.8449039423314
 20
-17.99550035041448
  0
LWPOLYLINE
  5
10B2
330
1E
100
AcDbEntity
  8
1
100
AcDbPolyline
 90
       57
 70
     0
 43
0.0
 10
47.39010219569999
 20
-43.08029927370011
 10
47.36201773969478
 20
-43.0800909358853
 10
47.33393392573527
 20
-43.07956420821001
 10
47.3058544864035
 20
-43.0787229611733
 10
47.27497661067038
 20
-43.07743893901148
 10
47.24411351272817
 20
-43.0757841833613
 10
47.21327016064349
 20
-43.07376384585711
 10
47.18245152248338
 20
-43.07138307813359
 10
47.15166256631468
 20
-43.06864703182529
 10
47.1209082554975
 20
-43.06556085851089
 10
47.09019281634649
 20
-43.06212970101561
 10
47.05673255712649
 20
-43.05799918873311
 10
47.02332501551468
 20
-43.0534708657256
 10
46.98997344193259
 20
-43.0485513822177
 10
46.95668108680195
 20
-43.0432473884339
 10
46.92345120054449
 20
-43.0375655345989
 10
46.89028703358188
 20
-43.03151247093722
 10
46.85443711833747
 20
-43.02454379838039
 10
46.81867210108179
 20
-43.01715562917961
 10
46.78299496260177
 20
-43.00935576835651
 10
46.74740835297368
 20
-43.0011518342637
 10
46.70918859353709
 20
-42.99187367394278
 10
46.67108020883079
 20
-42.982145234523
 10
46.63308650839719
 20
-42.97197603095129
 10
46.5952108017787
 20
-42.96137557817501
 10
46.55476438429839
 20
-42.94955020544501
 10
46.51446080820718
 20
-42.93725201133788
 10
46.47430220096628
 20
-42.92449111913671
 10
46.43162822525068
 20
-42.91038065633779
 10
46.38912354133829
 20
-42.89576701898071
 10
46.34679039411559
 20
-42.88066221896289
 10
46.30200188945128
 20
-42.86408863615259
 10
46.25741226055168
 20
-42.84698854487589
 10
46.21041925365346
 20
-42.82832438226889
 10
46.16365352986439
 20
-42.8091004381033
 10
46.11711601723539
 20
-42.78933050256171
 10
46.06824169169677
 20
-42.76788513888971
 10
46.0196237599556
 20
-42.7458630106816
 10
45.96872517780549
 20
-42.7220765512258
 10
45.91811316573899
 20
-42.69768789677518
 10
45.86527989203438
 20
-42.67145130190599
 10
45.8102702300007
 20
-42.6432937203232
 10
45.75560728074669
 20
-42.61446831235478
 10
45.69882963064559
 20
-42.5836400093492
 10
45.63998578882538
 20
-42.550740477951
 10
45.58155204735809
 20
-42.51711977076721
 10
45.52111836356978
 20
-42.4813577682129
 10
45.45873501470177
 20
-42.443388127441
 10
45.39445328039029
 20
-42.40314533166871
 10
45.32832569298599
 20
-42.3605663276165
 10
45.26273842099945
 20
-42.31715642684888
 10
45.19306092327967
 20
-42.26975844056929
 10
45.1217018748744
 20
-42.21985171887849
 10
45.04871926853946
 20
-42.16737982051251
 10
44.97417220114289
 20
-42.1122897677625
 10
44.89812075576809
 20
-42.05453286511128
 10
44.84490298584637
 20
-42.01318332757379
  0
LWPOLYLINE
  5
10ED
330
1E
100
AcDbEntity
  8
1
100
AcDbPolyline
 90
        2
 70
     0
 43
0.0
 10
37.73945034099997
 20
-108.5000000701999
 10
35.57107781161178
 20
-108.4933675188439
  0
LWPOLYLINE
  5
10F1
330
1E
100
AcDbEntity
  8
1
100
AcDbPolyline
 90
        2
 70
     0
 43
0.0
 10
61.2072331326
 20
-20.4981840178
 10
47.39011212369709
 20
-18.86484695716237
  0
LWPOLYLINE
  5
10F5
330
1E
100
AcDbEntity
  8
1
100
AcDbPolyline
 90
        3
 70
     0
 43
0.0
 10
44.84489511689999
 20
-17.99549564810011
 10
37.2166439924411
 20
-13.8755299495702
 10
35.571076570871
 20
-12.971820330098
  0
LWPOLYLINE
  5
10FA
330
1E
100
AcDbEntity
  8
1
100
AcDbPolyline
 90
        2
 70
     0
 43
0.0
 10
44.84489511689999
 20
-8.525167459500043
 10
38.43388399952429
 20
-7.902086155217514
  0
LWPOLYLINE
  5
10FE
330
1E
100
AcDbEntity
  8
1
100
AcDbPolyline
 90
       49
 70
     0
 43
0.0
 10
45.2575243654
 20
-8.872959197099991
 10
45.2336793391905
 20
-8.869436467295566
 10
45.21487066478178
 20
-8.866460222129095
 10
45.1985083903284
 20
-8.863698737210091
 10
45.18354765218108
 20
-8.861012620464244
 10
45.1710504259137
 20
-8.858634625319334
 10
45.16338936716588
 20
-8.857091953687422
 10
45.1575341224575
 20
-8.855849975798921
 10
45.15242860523229
 20
-8.854712449749467
 10
45.1479209395399
 20
-8.853659481848355
 10
45.1437118664515
 20
-8.852630703939205
 10
45.1392132662236
 20
-8.851480240177872
 10
45.13444793804871
 20
-8.850201625668312
 10
45.130616564005
 20
-8.849126250905792
 10
45.12755742347169
 20
-8.848235321515586
 10
45.124965619573
 20
-8.847456271933024
 10
45.12325272683059
 20
-8.846920825926785
 10
45.12211548239238
 20
-8.846548315910792
 10
45.1211224442455
 20
-8.846207920560122
 10
45.12027220092727
 20
-8.845902965677693
 10
45.11956396487529
 20
-8.845638054688723
 10
45.11885571286611
 20
-8.845362143501425
 10
45.1181471742184
 20
-8.845074108566466
 10
45.1175799550226
 20
-8.844834196495055
 10
45.1170122405531
 20
-8.844585230896312
 10
45.1164438922211
 20
-8.844326636513011
 10
45.1158747714378
 20
-8.844057838087886
 10
45.1153047396142
 20
-8.843778260363674
 10
45.11473365816139
 20
-8.843487328083146
 10
45.1141613884908
 20
-8.843184465989011
 10
45.11373132309978
 20
-8.842949144425066
 10
45.1133004529129
 20
-8.842706546072115
 10
45.1128687454102
 20
-8.842456421684195
 10
45.1124379819772
 20
-8.842198063475091
 10
45.1120129142555
 20
-8.841930012802354
 10
45.11159856888579
 20
-8.841650741505953
 10
45.1113307777934
 20
-8.841457572314942
 10
45.11107147562849
 20
-8.841258284209702
 10
45.1108221517662
 20
-8.841052424402075
 10
45.1105842955815
 20
-8.840839540103896
 10
45.11035939644949
 20
-8.840619178527015
 10
45.1101489437453
 20
-8.840390886883261
 10
45.10995442684399
 20
-8.840154212384504
 10
45.1097773351206
 20
-8.839908702242581
 10
45.1096191579502
 20
-8.839653903669331
 10
45.10948138470778
 20
-8.839389363876613
 10
45.10936550476858
 20
-8.839114630076252
 10
45.1092730075077
 20
-8.838829249480102
 10
45.1092071772649
 20
-8.838542603302105
  0
LWPOLYLINE
  5
1131
330
1E
100
AcDbEntity
  8
1
100
AcDbPolyline
 90
       80
 70
     0
 43
0.0
 10
46.83780961739989
 20
-107.4995833929998
 10
46.80041389956236
 20
-107.512715869604
 10
46.76394452979717
 20
-107.525068728948
 10
46.72841724852346
 20
-107.536670066535
 10
46.69276464352337
 20
-107.5478821678738
 10
46.65807579396736
 20
-107.558376394842
 10
46.62327493457307
 20
-107.568491518743
 10
46.58945702498821
 20
-107.5779212115439
 10
46.55553831195269
 20
-107.58697958601
 10
46.52261974228978
 20
-107.595384897644
 10
46.49071236452917
 20
-107.603165949953
 10
46.45872219796769
 20
-107.610601322941
 10
46.42775857414837
 20
-107.617442975048
 10
46.39783140147996
 20
-107.623717583384
 10
46.36783786988771
 20
-107.6296668957579
 10
46.33889412588198
 20
-107.6350806115299
 10
46.31100866642618
 20
-107.639986521678
 10
46.28418976132009
 20
-107.6444096572839
 10
46.25732481376989
 20
-107.64854155486
 10
46.23153769929396
 20
-107.652218375198
 10
46.20683520273969
 20
-107.655467667412
 10
46.18322350538618
 20
-107.6583174513469
 10
46.16070844184507
 20
-107.6607929122249
 10
46.13816781582918
 20
-107.663023235041
 10
46.11673188877498
 20
-107.664903834094
 10
46.09640526423048
 20
-107.6664616762687
 10
46.07719199613529
 20
-107.667724856628
 10
46.05796431963336
 20
-107.6687778361669
 10
46.03985680887435
 20
-107.669565333038
 10
46.02287424799528
 20
-107.67011177654
 10
46.00702026226818
 20
-107.670443943583
 10
45.99229746360097
 20
-107.670590276756
 10
45.97757518353929
 20
-107.670572845369
 10
45.96398729138278
 20
-107.670404942066
 10
45.95040266518938
 20
-107.6700841011499
 10
45.93795460956117
 20
-107.6696436086119
 10
45.92664337667268
 20
-107.669110367378
 10
45.91533835879798
 20
-107.668440556033
 10
45.90517018068037
 20
-107.667712879895
 10
45.89500894372978
 20
-107.6668595392779
 10
45.88598329051445
 20
-107.66598975784
 10
45.87696446984099
 20
-107.665010051481
 10
45.86795356167796
 20
-107.663914824267
 10
45.86007977576548
 20
-107.662852799201
 10
45.85334312875986
 20
-107.6618575022509
 10
45.84662147179435
 20
-107.660777087625
 10
45.83991823888608
 20
-107.659605240547
 10
45.83323686405227
 20
-107.65833564624
 10
45.82768822630469
 20
-107.6571984271629
 10
45.82215913978798
 20
-107.6559852884189
 10
45.81665159178068
 20
-107.654692575625
 10
45.81116756956117
 20
-107.653316634395
 10
45.80570908926421
 20
-107.6518537076599
 10
45.80136297174059
 20
-107.650614932098
 10
45.79703840730837
 20
-107.649305896005
 10
45.79273845259158
 20
-107.647917471993
 10
45.78953147542978
 20
-107.646818564965
 10
45.78634135009695
 20
-107.6456660174569
 10
45.78316936610628
 20
-107.64445597885
 10
45.78001681297076
 20
-107.643184598528
 10
45.77688498020367
 20
-107.641848025872
 10
45.77377515731828
 20
-107.640442410264
 10
45.77068863382758
 20
-107.638963901086
 10
45.76762669924477
 20
-107.637408647721
 10
45.76459064308306
 20
-107.6357727995509
 10
45.76158177207076
 20
-107.6340525018069
 10
45.75860767973138
 20
-107.632242384141
 10
45.75665558843097
 20
-107.6309812631949
 10
45.75473685466918
 20
-107.629673284943
 10
45.75285906244436
 20
-107.6283155722689
 10
45.75102979575475
 20
-107.626905248056
 10
45.74925663859867
 20
-107.625439435186
 10
45.74754717497437
 20
-107.623915256543
 10
45.74590898888017
 20
-107.622329835011
 10
45.74434966431428
 20
-107.620680293471
 10
45.74287678527507
 20
-107.6189637548069
 10
45.74149793576069
 20
-107.617177341902
 10
45.74022069976957
 20
-107.615318177638
 10
45.73905266129997
 20
-107.6133833849
 10
45.73905756766944
 20
-107.613392098417
  0
LWPOLYLINE
  5
1183
330
1E
100
AcDbEntity
  8
1
100
AcDbPolyline
 90
        5
 70
     0
 43
0.0
 10
61.2072331326
 20
-24.06416429700011
 10
61.3186822121115
 20
-24.02521332584671
 10
61.3633214533177
 20
-24.0090190483629
 10
61.39330222474431
 20
-23.99777281559469
 10
61.4121890025856
 20
-23.99047536024979
  0
LWPOLYLINE
  5
118A
330
1E
100
AcDbEntity
  8
1
100
AcDbPolyline
 90
        2
 70
     0
 43
0.0
 10
56.44999863159998
 20
-32.66277171300001
 10
55.8430634827157
 20
-27.25247097895937
  0
LWPOLYLINE
  5
118E
330
1E
100
AcDbEntity
  8
1
100
AcDbPolyline
 90
      126
 70
     0
 43
0.0
 10
61.6
 20
-20.2331353826
 10
61.5999739640213
 20
-20.23751496656088
 10
61.59989518488188
 20
-20.24189557203099
 10
61.5997626557765
 20
-20.2462761994338
 10
61.5995753699002
 20
-20.2506558491931
 10
61.59933232044759
 20
-20.25503352173219
 10
61.5990325006136
 20
-20.25940821747481
 10
61.59867490359321
 20
-20.26377893684438
 10
61.5983138193694
 20
-20.26759926862438
 10
61.5979070541713
 20
-20.27141512105488
 10
61.597453933518
 20
-20.2752258244979
 10
61.5969537829287
 20
-20.2790307093152
 10
61.59640592792271
 20
-20.28282910586848
 10
61.59580969401909
 20
-20.28662034452
 10
61.59516440673709
 20
-20.2904037556313
 10
61.59446941101211
 20
-20.29417863811219
 10
61.5937241666494
 20
-20.29794410479581
 10
61.5929281755432
 20
-20.3016992003348
 10
61.5920809396514
 20
-20.30544296927931
 10
61.59118196093199
 20
-20.30917445617919
 10
61.5902307413429
 20
-20.31289270558461
 10
61.5892267828418
 20
-20.31659676204559
 10
61.5881695873867
 20
-20.32028567011211
 10
61.5872206700596
 20
-20.3234348101788
 10
61.586231960324
 20
-20.3265715171668
 10
61.585203144544
 20
-20.32969518939331
 10
61.5841339090837
 20
-20.3328052251756
 10
61.58302394030729
 20
-20.3359010228309
 10
61.5818729245791
 20
-20.33898198067638
 10
61.5806805484534
 20
-20.34204749696061
 10
61.5794465917198
 20
-20.3450969363442
 10
61.57817107741148
 20
-20.3481295758587
 10
61.57685406773151
 20
-20.35114467842461
 10
61.5754956248832
 20
-20.35414150696229
 10
61.57409581106989
 20
-20.3571193243923
 10
61.5726546884947
 20
-20.3600773936349
 10
61.571172319361
 20
-20.36301497761061
 10
61.569648765872
 20
-20.36593133923989
 10
61.56808409023099
 20
-20.36882574144311
 10
61.5664783546413
 20
-20.3716974471408
 10
61.564831621306
 20
-20.3745457192533
 10
61.5631439524285
 20
-20.37736982070101
 10
61.561415410212
 20
-20.38016901440451
 10
61.5596460568599
 20
-20.3829425632841
 10
61.557835955402
 20
-20.38568973065749
 10
61.5559853026286
 20
-20.3884098441162
 10
61.5540945755736
 20
-20.3911023659127
 10
61.5518387613452
 20
-20.394208073733
 10
61.54952991233249
 20
-20.39727469033139
 10
61.54716884202471
 20
-20.4003013886826
 10
61.54475636391089
 20
-20.4032873417614
 10
61.54229329148029
 20
-20.40623172254238
 10
61.5397804382221
 20
-20.40913370400061
 10
61.53721861762551
 20
-20.41199245911049
 10
61.5346086431795
 20
-20.41480716084711
 10
61.53195132837328
 20
-20.41757698218499
 10
61.5292474866961
 20
-20.42030109609898
 10
61.5264979385267
 20
-20.42297868911011
 10
61.523703663716
 20
-20.42560926129469
 10
61.520865802152
 20
-20.42819262739488
 10
61.5179855007255
 20
-20.43072861592138
 10
61.5150639063269
 20
-20.43321705538461
 10
61.5121021658469
 20
-20.43565777429511
 10
61.509101426176
 20
-20.43805060116346
 10
61.50606283420479
 20
-20.44039536450019
 10
61.50298753682399
 20
-20.4426918928158
 10
61.499876680924
 20
-20.4449400146208
 10
61.49673141339561
 20
-20.4471395584259
 10
61.4935528811292
 20
-20.4492903527414
 10
61.4903422310154
 20
-20.451392226078
 10
61.4871005922323
 20
-20.45344506841519
 10
61.4838289968015
 20
-20.455449106901
 10
61.480528443605
 20
-20.45740468368931
 10
61.4771999314966
 20
-20.45931214103239
 10
61.4738444593301
 20
-20.4611718211823
 10
61.4704630259595
 20
-20.462984066391
 10
61.4670566302384
 20
-20.4647492189108
 10
61.4636262710207
 20
-20.4664676209936
 10
61.4601729471603
 20
-20.4681396148916
 10
61.4566976575109
 20
-20.4697655428568
 10
61.45320140092628
 20
-20.4713457471414
 10
61.4496851762605
 20
-20.4728805699975
 10
61.4461499823672
 20
-20.4743703536771
 10
61.4420877693852
 20
-20.476018276905
 10
61.4380031700759
 20
-20.477608549871
 10
61.43389717985971
 20
-20.4791419503004
 10
61.42977079365071
 20
-20.4806192561914
 10
61.42562500636288
 20
-20.48204124554219
 10
61.42146081291009
 20
-20.48340869635079
 10
61.4172792082065
 20
-20.4847223866154
 10
61.41308118716601
 20
-20.48598309433419
 10
61.4088677447026
 20
-20.4871915975052
 10
61.4046398757304
 20
-20.4883486741265
 10
61.4003985751632
 20
-20.4894551021964
 10
61.3956122958563
 20
-20.49064026162711
 10
61.3908116340035
 20
-20.49176340423799
 10
61.38599756404978
 20
-20.49282558424728
 10
61.3811709073022
 20
-20.49382783733729
 10
61.3763324846649
 20
-20.49477119914119
 10
61.3714831170421
 20
-20.4956567052928
 10
61.36662362533829
 20
-20.4964853914253
 10
61.3612133146374
 20
-20.4973407726501
 10
61.3557926446019
 20
-20.4981287048851
 10
61.35036274130101
 20
-20.4988506087525
 10
61.3449247308036
 20
-20.49950790487439
 10
61.3394797391787
 20
-20.50010201387269
 10
61.33402885443469
 20
-20.50063433504451
 10
61.3280269609153
 20
-20.5011499624548
 10
61.32201960031277
 20
-20.5015937653078
 10
61.3160075288505
 20
-20.50196721839389
 10
61.3099915027513
 20
-20.50227179650359
 10
61.3039722782383
 20
-20.5025089744272
 10
61.29740309232389
 20
-20.5026925773086
 10
61.29083198178388
 20
-20.5027996381999
 10
61.2842599284016
 20
-20.50283207178031
 10
61.2776879139601
 20
-20.5027917927289
 10
61.2705693905881
 20
-20.5026682916733
 10
61.26345298689649
 20
-20.50246369596198
 10
61.25633946649649
 20
-20.5021797872243
 10
61.2486828490379
 20
-20.5017873789272
 10
61.24103140736361
 20
-20.5013072676822
 10
61.2333860913208
 20
-20.5007416734697
 10
61.2252025579867
 20
-20.500043341898
 10
61.2170283152842
 20
-20.49925215829389
 10
61.2088645314839
 20
-20.4983708531359
 10
61.207243066445
 20
-20.49818516616869
  0
LWPOLYLINE
  5
120E
330
1E
100
AcDbEntity
  8
1
100
AcDbPolyline
 90
        5
 70
     0
 43
0.0
 10
36.69634332619999
 20
-35.31107693960001
 10
38.86484613636778
 20
-37.1587771807371
 10
41.08993793924208
 20
-39.00476008071751
 10
43.37164937244959
 20
-40.8482165454152
 10
44.84488724795778
 20
-42.0131709858209
  0
LWPOLYLINE
  5
1215
330
1E
100
AcDbEntity
  8
1
100
AcDbPolyline
 90
        3
 70
     0
 43
0.0
 10
47.39010219569999
 20
-43.08029927370011
 10
59.05182321174288
 20
-43.04285351103827
 10
61.20722313313028
 20
-43.02279984458331
  0
LWPOLYLINE
  5
121A
330
1E
100
AcDbEntity
  8
1
100
AcDbPolyline
 90
       97
 70
     0
 43
0.0
 10
47.97854741640001
 20
1.709910226299933
 10
48.0004144853799
 20
1.710521053206683
 10
48.02228866263
 20
1.710873167490369
 10
48.0441685921003
 20
1.710966273612553
 10
48.0660510606394
 20
1.710800596769744
 10
48.0879325721484
 20
1.710376441497389
 10
48.1098096305286
 20
1.709694112330984
 10
48.13167873968129
 20
1.708753913805974
 10
48.1535364035076
 20
1.70755615045784
 10
48.17537912590879
 20
1.706101126822054
 10
48.1972034107862
 20
1.704389147434073
 10
48.2190057620409
 20
1.702420516829383
 10
48.2407826917203
 20
1.700195546078683
 10
48.2625310209238
 20
1.697714794191774
 10
48.2842479678634
 20
1.694979138764483
 10
48.3059307768566
 20
1.691989478336273
 10
48.3275766922214
 20
1.688746711446593
 10
48.3491829582755
 20
1.685251736634893
 10
48.3707468193367
 20
1.681505452440623
 10
48.39495204466509
 20
1.676991608262639
 10
48.4190961898961
 20
1.672162117227103
 10
48.4431753314118
 20
1.667018258699743
 10
48.467185578477
 20
1.661561428870133
 10
48.49112317055229
 20
1.6557934864837
 10
48.5149843793174
 20
1.649716404751981
 10
48.53876547645199
 20
1.64333215688651
 10
48.56246273363559
 20
1.636642716098833
 10
48.586072422548
 20
1.629650055600484
 10
48.60959081486879
 20
1.62235614860298
 10
48.6330141822776
 20
1.614762968317883
 10
48.6563387979366
 20
1.60687248922068
 10
48.6795611219351
 20
1.598686845156341
 10
48.7026779815321
 20
1.590208483009784
 10
48.7256862467542
 20
1.581439886128443
 10
48.74858278762809
 20
1.572383537859773
 10
48.7713644741802
 20
1.563041921551223
 10
48.79402817643721
 20
1.553417520550254
 10
48.81657076442571
 20
1.543512818204303
 10
48.8414722298961
 20
1.53218186532534
 10
48.86621604004449
 20
1.520511348652583
 10
48.8907983353538
 20
1.508504921615104
 10
48.9152155789916
 20
1.496166421227993
 10
48.93946424294568
 20
1.483499689524433
 10
48.9635407992038
 20
1.47050856853762
 10
48.9874417197538
 20
1.457196900300773
 10
49.0111634765833
 20
1.443568526847063
 10
49.0347025416802
 20
1.42962729020969
 10
49.0580554106235
 20
1.415377038201409
 10
49.0835248237222
 20
1.399349562200534
 10
49.1087615187381
 20
1.382958318450264
 10
49.13376183804339
 20
1.366208675029882
 10
49.15852212401049
 20
1.349106000018672
 10
49.1830387190116
 20
1.331655661495892
 10
49.2073079654191
 20
1.313863027540834
 10
49.23132620606871
 20
1.295733466235172
 10
49.2572376395224
 20
1.275577808024172
 10
49.2828425941191
 20
1.255034543090172
 10
49.30813750469489
 20
1.234110646827563
 10
49.333118806086
 20
1.212813094630714
 10
49.3577829331287
 20
1.191148861894024
 10
49.38414034670611
 20
1.167273577818283
 10
49.4101168195399
 20
1.142985005032403
 10
49.435708377037
 20
1.118291891341422
 10
49.4609117167011
 20
1.093202839107243
 10
49.48572357779199
 20
1.067726441655703
 10
49.5101406995697
 20
1.041871292312632
 10
49.53415982129389
 20
1.015645984403872
 10
49.5577776822249
 20
0.989059111255073
 10
49.5809911992325
 20
0.9621191823285219
 10
49.60379797194221
 20
0.9348343847045958
 10
49.62619576401479
 20
0.9072128280096809
 10
49.6481823391113
 20
0.8792626218701579
 10
49.66975546089272
 20
0.8509918759124129
 10
49.6909128930199
 20
0.8224086997628267
 10
49.7116524166074
 20
0.7935211929327651
 10
49.7304240532682
 20
0.7665925140174581
 10
49.7488368245589
 20
0.7394172982102462
 10
49.76688954710688
 20
0.71200159038596
 10
49.78458103753951
 20
0.68435143541943
 10
49.8019101124839
 20
0.6564728781854898
 10
49.81887558856749
 20
0.6283719635589711
 10
49.8354762899586
 20
0.600054726610904
 10
49.8517112816697
 20
0.5715268892998369
 10
49.8675799142882
 20
0.5427938023189969
 10
49.8830815549705
 20
0.5138607948213441
 10
49.8982155708725
 20
0.4847331959598311
 10
49.9129813291504
 20
0.4554163348874169
 10
49.92737819696049
 20
0.4259155407570561
 10
49.9414055413086
 20
0.3962361439431309
 10
49.95506270431071
 20
0.36638367722275
 10
49.96834897562839
 20
0.3363640999251799
 10
49.9812636382799
 20
0.3061834254042689
 10
49.9938059752832
 20
0.2758476670138619
 10
50.0059752696564
 20
0.2453628381078079
 10
50.0177708044176
 20
0.2147349520399519
 10
50.02919186258488
 20
0.1839700221641419
 10
50.03012327757438
 20
0.1814096797082578
  0
LWPOLYLINE
  5
127D
330
1E
100
AcDbEntity
  8
1
100
AcDbPolyline
 90
       58
 70
     0
 43
0.0
 10
35.25954546109999
 20
-108.4815305501
 10
35.20917082718828
 20
-108.4777415968269
 10
35.15883480851488
 20
-108.473424326689
 10
35.10854425039537
 20
-108.468578118868
 10
35.05830599814547
 20
-108.463202352545
 10
35.00812689708098
 20
-108.457296406905
 10
34.95801379240718
 20
-108.450859661066
 10
34.90797328090847
 20
-108.443891354057
 10
34.85801118245527
 20
-108.436390286782
 10
34.80813316545328
 20
-108.4283551747299
 10
34.75834489830837
 20
-108.41978473339
 10
34.70865204942597
 20
-108.410677678251
 10
34.65906038152368
 20
-108.401032675587
 10
34.60957653656787
 20
-108.3908479328499
 10
34.56185133816429
 20
-108.3804877088349
 10
34.51423998463138
 20
-108.3696193721169
 10
34.46674891239839
 20
-108.358241075576
 10
34.41938456101787
 20
-108.3463505136688
 10
34.37215338845668
 20
-108.333942677915
 10
34.32668331010447
 20
-108.3214662489909
 10
34.28134922945757
 20
-108.308496617958
 10
34.23615712328926
 20
-108.295028420212
 10
34.19111666900358
 20
-108.2810570710589
 10
34.14784097849429
 20
-108.2671046273139
 10
34.10473095154769
 20
-108.25267742587
 10
34.06179824383058
 20
-108.237770596863
 10
34.02220720348617
 20
-108.2235166364889
 10
33.98591884619998
 20
-108.2099878637249
 10
33.95132811232068
 20
-108.1966480805589
 10
33.91842332596949
 20
-108.1835323013579
 10
33.88256403447459
 20
-108.1687599670159
 10
33.84234884284818
 20
-108.1515992484499
 10
33.81017688485577
 20
-108.137394467985
 10
33.79188688590257
 20
-108.1290456432258
 10
33.77666680881807
 20
-108.121885934922
 10
33.76449073279399
 20
-108.1159918068759
 10
33.75382806066248
 20
-108.110692533826
 10
33.74315136341886
 20
-108.105244974549
 10
33.72642617568588
 20
-108.0964450967639
 10
33.71591878969977
 20
-108.090783248782
 10
33.70852411303467
 20
-108.0867501874509
 10
33.70124986009678
 20
-108.0827513991539
 10
33.69553391807939
 20
-108.0795918744809
 10
33.68992376920349
 20
-108.0764797032349
 10
33.68305177507266
 20
-108.072608906023
 10
33.67896370533987
 20
-108.0701895168699
 10
33.67623657927758
 20
-108.068493059799
 10
33.67349888208738
 20
-108.066705613135
 10
33.67074275022478
 20
-108.06480646418
 10
33.66796032014507
 20
-108.0627749002319
 10
33.66514372830367
 20
-108.060590208593
 10
33.66228511115599
 20
-108.0582316765609
 10
33.65937660515736
 20
-108.055678591438
 10
33.65646365599967
 20
-108.052917346816
 10
33.65396888061968
 20
-108.049984614436
 10
33.65247758171077
 20
-108.046938752572
 10
33.65257570243959
 20
-108.04383820488
 10
33.65343503477647
 20
-108.0424123519319
  0
LWPOLYLINE
  5
12B9
330
1E
100
AcDbEntity
  8
1
100
AcDbPolyline
 90
        8
 70
     0
 43
0.0
 10
35.57106781179998
 20
-108.4933674574999
 10
35.52149525801289
 20
-108.492812440551
 10
35.47193029034296
 20
-108.4917555976049
 10
35.42237880829047
 20
-108.4901969075658
 10
35.37284571221096
 20
-108.488136408289
 10
35.32333572238409
 20
-108.485574175687
 10
35.27385453315158
 20
-108.4825104185479
 10
35.25955543672369
 20
-108.481531247905
  0
LWPOLYLINE
  5
12C3
330
1E
100
AcDbEntity
  8
1
100
AcDbPolyline
 90
        2
 70
     0
 43
0.0
 10
50.03012669149999
 20
0.1814002804999229
 10
49.9706667184351
 20
0.1300305655370669
  0
LWPOLYLINE
  5
12C7
330
1E
100
AcDbEntity
  8
1
100
AcDbPolyline
 90
        2
 70
     0
 43
0.0
 10
55.1620288942
 20
-0.5480540407000448
 10
50.0301365922197
 20
0.1813988748869728
  0
DIMENSION
  5
12CB
330
1E
100
AcDbEntity
  8
2
100
AcDbDimension
  2
*D6
 10
77.99254408310297
 20
-84.54565596434141
 30
0.0
 11
75.61754408310298
 21
-92.27282798217069
 31
0.0
 70
    32
 71
     5
 42
15.45434403565859
  3
ISO-25
100
AcDbAlignedDimension
 13
63.56249999999999
 23
-100.0
 33
0.0
 14
63.56249999999999
 24
-84.54565596434141
 34
0.0
 50
270.0
100
AcDbRotatedDimension
1001
ACAD
1000
DSTYLE
1002
{
1070
   271
1070
     0
1002
}
  0
DIMENSION
  5
12CC
330
1E
100
AcDbEntity
  8
2
100
AcDbDimension
  2
*D7
 10
60.99985817764438
 20
-115.0079507424816
 30
0.0
 11
52.44152484431104
 21
-112.6329507424816
 31
0.0
 70
    32
 71
     5
 42
2.000141822355594
  3
ISO-25
100
AcDbAlignedDimension
 13
62.99999999999998
 23
-100.5624999999999
 33
0.0
 14
60.99985817764438
 24
-100.5624999999999
 34
0.0
 50
180.0
100
AcDbRotatedDimension
  0
TEXT
  5
1586
330
1E
100
AcDbEntity
  8
6
100
AcDbText
 10
91.33094331041979
 20
-128.6509122957596
 30
0.0
 40
5.0
  1
6MDK200R00
100
AcDbText
  0
LINE
  5
DCBE
330
1E
100
AcDbEntity
  8
NOCUT
100
AcDbLine
 10
32.03553390599984
 20
107.035533906
 30
0.0
 11
16.46446609409986
 21
91.46446609409997
 31
0.0
  0
LINE
  5
DCCA
330
1E
100
AcDbEntity
  8
NOCUT
100
AcDbLine
 10
0.0
 20
78.40000000000003
 30
0.0
 11
0.0
 21
0.0
 31
0.0
  0
LINE
  5
DCD2
330
1E
100
AcDbEntity
  8
NOCUT
100
AcDbLine
 10
15.0
 20
85.0
 30
0.0
 11
15.0
 21
87.92893218820003
 31
0.0
  0
LINE
  5
DCE1
330
1E
100
AcDbEntity
  8
NOCUT
100
AcDbLine
 10
61.60000000000001
 20
0.0
 30
0.0
 11
61.60000000000001
 21
98.9436880563
 31
0.0
  0
LINE
  5
DCE6
330
1E
100
AcDbEntity
  8
NOCUT
100
AcDbLine
 10
10.0
 20
80.0
 30
0.0
 11
1.600000000000022
 21
80.0
 31
0.0
  0
LINE
  5
DCE8
330
1E
100
AcDbEntity
  8
NOCUT
100
AcDbLine
 10
44.84489511699996
 20
108.4999999999999
 30
0.0
 11
35.57106781189975
 21
108.4999999999999
 31
0.0
  0
LINE
  5
DCEF
330
1E
100
AcDbEntity
  8
NOCUT
100
AcDbLine
 10
61.20723313259997
 20
99.63228167790006
 30
0.0
 11
47.39010219569979
 21
107.8037101351
 31
0.0
  0
ARC
  5
E50D
330
1E
100
AcDbEntity
  8
NOCUT
100
AcDbCircle
 10
10.0
 20
85.0
 30
0.0
 40
5.0
100
AcDbArc
 50
270.0
 51
0.0
  0
ARC
  5
E517
330
1E
100
AcDbEntity
  8
NOCUT
100
AcDbCircle
 10
1.600000000000022
 20
78.40000000000003
 30
0.0
 40
1.6
100
AcDbArc
 50
90.0
 51
180.0
  0
ARC
  5
E518
330
1E
100
AcDbEntity
  8
NOCUT
100
AcDbCircle
 10
20.0
 20
87.92893218820003
 30
0.0
 40
5.0
100
AcDbArc
 50
135.0000000004005
 51
179.9999999995998
  0
ARC
  5
E519
330
1E
100
AcDbEntity
  8
NOCUT
100
AcDbCircle
 10
35.57106781189975
 20
103.4999999999999
 30
0.0
 40
5.0
100
AcDbArc
 50
90.0
 51
134.9999999997005
  0
ARC
  5
E51A
330
1E
100
AcDbEntity
  8
NOCUT
100
AcDbCircle
 10
44.84489511699996
 20
103.4999999999999
 30
0.0
 40
5.0
100
AcDbArc
 50
59.40000000019884
 51
90.0
  0
ARC
  5
E51B
330
1E
100
AcDbEntity
  8
NOCUT
100
AcDbCircle
 10
60.80000000000007
 20
98.9436880563
 30
0.0
 40
0.8
100
AcDbArc
 50
0.0000000104997998
 51
59.39999999309992
  0
SPLINE
  5
F9A3
330
1E
100
AcDbEntity
  8
CUT
100
AcDbSpline
210
0.0
220
0.0
230
1.0
 70
     8
 71
     3
 72
    36
 73
    32
 74
    30
 42
0.0000000001
 43
0.0000000001
 44
0.0000000001
 12
-0.7360924720718737
 22
-0.676880988475166
 32
0.0
 13
-0.7370254803809847
 23
-0.6758649578644976
 33
0.0
 40
0.0
 40
0.0
 40
0.0
 40
0.0
 40
0.1191134407864772
 40
0.2382221436128477
 40
0.3573254319008243
 40
0.4764239827064372
 40
0.5955177962527403
 40
0.7146062556306797
 40
0.8336892419931155
 40
0.9527674918290138
 40
1.071840328765115
 40
1.190908429652877
 40
1.309971178088222
 40
1.429029131052366
 40
1.548080995754253
 40
1.66712812539623
 40
1.786169843814692
 40
1.905206887884979
 40
2.02423846104519
 40
2.143264623820432
 40
2.262285376502395
 40
2.381300719383193
 40
2.500311328926955
 40
2.619316589861129
 40
2.738316381188659
 40
2.857310763845984
 40
2.976299738125186
 40
3.095283304318144
 40
3.214262875615059
 40
3.333235626512182
 40
3.452202970199218
 40
3.452202970199218
 40
3.452202970199218
 40
3.452202970199218
 10
55.36926099999989
 20
103.4974829999999
 30
-0.0008959873
 10
55.34003483097139
 20
103.4706077921531
 30
-0.0008959873
 10
55.28158274385551
 20
103.4168594367833
 30
-0.0008959873
 10
55.19390303535149
 20
103.3362424528859
 30
-0.0008959873
 10
55.10622274033259
 20
103.2556334402448
 30
-0.0008959873
 10
55.01854263237332
 20
103.175031557557
 30
-0.0008959873
 10
54.9308633444726
 20
103.0944360866079
 30
-0.0008959873
 10
54.84318169349013
 20
103.0138508533504
 30
-0.0008959873
 10
54.75550176069588
 20
102.9332714174126
 30
-0.0008959873
 10
54.66782207309442
 20
102.8526994105589
 30
-0.0008959873
 10
54.58014157198686
 20
102.772135622442
 30
-0.0008959873
 10
54.49246241883539
 20
102.6915780042825
 30
-0.0008959873
 10
54.40478028939685
 20
102.6110309592328
 30
-0.0008959873
 10
54.31710147235967
 20
102.5304883083939
 30
-0.0008959873
 10
54.22942062298702
 20
102.4499555662166
 30
-0.0008959873
 10
54.14174099603872
 20
102.3694294932112
 30
-0.0008959873
 10
54.05406100252969
 20
102.288911122875
 30
-0.0008959873
 10
53.9663796992687
 20
102.2084018456758
 30
-0.0008959873
 10
53.87870007955476
 20
102.127898401612
 30
-0.0008959873
 10
53.79101995360686
 20
102.0474035385743
 30
-0.0008959873
 10
53.70334006224118
 20
101.9669164200045
 30
-0.0008959873
 10
53.61565958751383
 20
101.8864376037137
 30
-0.0008959873
 10
53.52798036642473
 20
101.8059650582346
 30
-0.0008959873
 10
53.44029864736727
 20
101.7255029013556
 30
-0.0008959873
 10
53.35261908938465
 20
101.6450463895815
 30
-0.0008959873
 10
53.264938965692
 20
101.5645985241525
 30
-0.0008959873
 10
53.17725900347735
 20
101.4841584827595
 30
-0.0008959873
 10
53.08957862886057
 20
101.4037261942137
 30
-0.0008959873
 10
53.00189835410453
 20
101.3233017968027
 30
-0.0008959873
 10
52.91421799253659
 20
101.242885494037
 30
-0.0008959873
 10
52.85576332121018
 20
101.1892789529094
 30
-0.0008959873
 10
52.82653599999999
 20
101.162477
 30
-0.0008959873
 11
55.36926099999989
 21
103.4974829999999
 31
-0.0008959873
 11
55.28158099999993
 21
103.4168589999999
 31
-0.0008959873
 11
55.19390099999995
 21
103.336242
 31
-0.0008959873
 11
55.10622099999999
 21
103.2556329999999
 31
-0.0008959873
 11
55.018541
 21
103.1750309999999
 31
-0.0008959873
 11
54.93086099999991
 21
103.094436
 31
-0.0008959873
 11
54.84317999999993
 21
103.0138499999999
 31
-0.0008959873
 11
54.75549999999995
 21
102.9332709999999
 31
-0.0008959873
 11
54.66781999999998
 21
102.852699
 31
-0.0008959873
 11
54.58014
 21
102.7721349999999
 31
-0.0008959873
 11
54.49245999999989
 21
102.6915779999999
 31
-0.0008959873
 11
54.40477899999994
 21
102.61103
 31
-0.0008959873
 11
54.31709899999995
 21
102.5304879999999
 31
-0.0008959873
 11
54.22941899999997
 21
102.4499549999999
 31
-0.0008959873
 11
54.141739
 21
102.3694289999999
 31
-0.0008959873
 11
54.0540589999999
 21
102.2889109999999
 31
-0.0008959873
 11
53.96637799999993
 21
102.2084009999999
 31
-0.0008959873
 11
53.87869799999997
 21
102.1278979999999
 31
-0.0008959873
 11
53.79101799999998
 21
102.0474029999999
 31
-0.0008959873
 11
53.703338
 21
101.966916
 31
-0.0008959873
 11
53.6156579999999
 21
101.8864369999999
 31
-0.0008959873
 11
53.52797799999994
 21
101.805965
 31
-0.0008959873
 11
53.44029699999996
 21
101.7255019999999
 31
-0.0008959873
 11
53.35261699999998
 21
101.6450459999999
 31
-0.0008959873
 11
53.264937
 21
101.5645979999999
 31
-0.0008959873
 11
53.17725699999989
 21
101.4841579999999
 31
-0.0008959873
 11
53.08957699999993
 21
101.4037259999999
 31
-0.0008959873
 11
53.00189599999995
 21
101.3233009999999
 31
-0.0008959873
 11
52.91421599999998
 21
101.2428849999997
 31
-0.0008959873
 11
52.82653599999999
 21
101.162477
 31
-0.0008959873
  0
SPLINE
  5
F9A4
330
1E
100
AcDbEntity
  8
CUT
100
AcDbSpline
210
0.0
220
0.0
230
1.0
 70
     8
 71
     3
 72
    36
 73
    32
 74
    30
 42
0.0000000001
 43
0.0000000001
 44
0.0000000001
 12
-0.868143275435116
 22
0.4963136642454936
 32
0.0
 13
-0.8666231350051177
 23
0.4989632670587102
 33
0.0
 40
0.0
 40
0.0
 40
0.0
 40
0.0
 40
0.3661401296607684
 40
0.7323040870623827
 40
1.098491008943711
 40
1.464702139393123
 40
1.830936243815392
 40
2.197194069027398
 40
2.563474380653635
 40
2.929778918797804
 40
3.296104958272216
 40
3.662455233043438
 40
4.028827017760815
 40
4.395222051713266
 40
4.761639101548578
 40
5.128079408922116
 40
5.494540745487105
 40
5.861024849922669
 40
6.227531356725793
 40
6.594058904888278
 40
6.960608734717725
 40
7.327179115717092
 40
7.693772284100002
 40
8.060386011427562
 40
8.42702153706554
 40
8.793677629241994
 40
9.16035552694648
 40
9.527053500109754
 40
9.89377328593115
 40
10.26051315453845
 40
10.62727434400643
 40
10.62727434400643
 40
10.62727434400643
 40
10.62727434400643
 10
62.04423099999993
 20
95.873529
 30
-0.0008959873
 10
61.93827696952261
 20
95.93410244979308
 30
-0.0008959873
 10
61.72636865771391
 20
96.05526491418206
 30
-0.0008959873
 10
61.40851678241245
 20
96.23705055426562
 30
-0.0008959873
 10
61.09066580129963
 20
96.41888542390322
 30
-0.0008959873
 10
60.77281369224959
 20
96.60076540632736
 30
-0.0008959873
 10
60.4549630378411
 20
96.78269551279049
 30
-0.0008959873
 10
60.13711097030782
 20
96.96466956809949
 30
-0.0008959873
 10
59.81925967876524
 20
97.14669222784394
 30
-0.0008959873
 10
59.50140853830941
 20
97.32876090218894
 30
-0.0008959873
 10
59.18355661895911
 20
97.51087513221342
 30
-0.0008959873
 10
58.86570548185672
 20
97.69303581239796
 30
-0.0008959873
 10
58.54785417696787
 20
97.8752424475866
 30
-0.0008959873
 10
58.23000216110682
 20
98.05749259488854
 30
-0.0008959873
 10
57.91215116762694
 20
98.23979043962864
 30
-0.0008959873
 10
57.59429964881355
 20
98.42213178702516
 30
-0.0008959873
 10
57.276448369354
 20
98.60451846582312
 30
-0.0008959873
 10
56.95859624058568
 20
98.7869479980038
 30
-0.0008959873
 10
56.64074466906128
 20
98.96942283464346
 30
-0.0008959873
 10
56.3228935886559
 20
99.15194252610525
 30
-0.0008959873
 10
56.00504186904152
 20
99.33450385735534
 30
-0.0008959873
 10
55.68719032765972
 20
99.51710941266799
 30
-0.0008959873
 10
55.36933883603722
 20
99.69975780782437
 30
-0.0008959873
 10
55.05148785111042
 20
99.88245066425291
 30
-0.0008959873
 10
54.73363577839155
 20
100.0651837152119
 30
-0.0008959873
 10
54.41578483289209
 20
100.2479616397386
 30
-0.0008959873
 10
54.09793304049817
 20
100.4307798452021
 30
-0.0008959873
 10
53.78008179800879
 20
100.6136415861518
 30
-0.0008959873
 10
53.46223004964457
 20
100.7965438685181
 30
-0.0008959873
 10
53.14437892758707
 20
100.9794894849764
 30
-0.0008959873
 10
52.93248391060497
 20
101.1014768795575
 30
-0.0008959873
 10
52.82653599999999
 20
101.162477
 30
-0.0008959873
 11
62.04423099999993
 21
95.873529
 31
-0.0008959873
 11
61.72637899999992
 21
96.055267
 31
-0.0008959873
 11
61.40852699999991
 21
96.23705300000001
 31
-0.0008959873
 11
61.090676
 21
96.41888699999995
 31
-0.0008959873
 11
60.77282399999997
 21
96.600768
 31
-0.0008959873
 11
60.45497299999997
 21
96.78269699999995
 31
-0.0008959873
 11
60.13712099999995
 21
96.964672
 31
-0.0008959873
 11
59.81926999999993
 21
97.146694
 31
-0.0008959873
 11
59.5014179999999
 21
97.32876299999997
 31
-0.0008959873
 11
59.18356699999989
 21
97.51087699999999
 31
-0.0008959873
 11
58.86571499999998
 21
97.69303800000001
 31
-0.0008959873
 11
58.54786399999998
 21
97.875244
 31
-0.0008959873
 11
58.23001199999996
 21
98.05749500000001
 31
-0.0008959873
 11
57.91216099999993
 21
98.239792
 31
-0.0008959873
 11
57.59430899999992
 21
98.42213400000002
 31
-0.0008959873
 11
57.2764579999999
 21
98.60451999999996
 31
-0.0008959873
 11
56.958606
 21
98.78694999999998
 31
-0.0008959873
 11
56.64075399999997
 21
98.96942500000001
 31
-0.0008959873
 11
56.32290299999997
 21
99.151944
 31
-0.0008959873
 11
56.00505099999995
 21
99.33450599999996
 31
-0.0008959873
 11
55.68719999999993
 21
99.51711099999998
 31
-0.0008959873
 11
55.36934799999992
 21
99.69976000000002
 31
-0.0008959873
 11
55.05149699999989
 21
99.88245200000001
 31
-0.0008959873
 11
54.73364499999998
 21
100.0651859999997
 31
-0.0008959873
 11
54.41579399999998
 21
100.247963
 31
-0.0008959873
 11
54.09794199999996
 21
100.4307819999999
 31
-0.0008959873
 11
53.78009099999993
 21
100.613643
 31
-0.0008959873
 11
53.46223899999992
 21
100.7965459999997
 31
-0.0008959873
 11
53.14438799999989
 21
100.9794909999999
 31
-0.0008959873
 11
52.82653599999999
 21
101.162477
 31
-0.0008959873
  0
SPLINE
  5
F9A5
330
1E
100
AcDbEntity
  8
CUT
100
AcDbSpline
210
0.0
220
0.0
230
1.0
 70
     8
 71
     3
 72
    36
 73
    32
 74
    30
 42
0.0000000001
 43
0.0000000001
 44
0.0000000001
 12
-0.2467391059137511
 22
-0.9690819437038761
 32
0.0
 13
-0.2468633240110874
 23
-0.9690503079088294
 33
0.0
 40
0.0
 40
0.0
 40
0.0
 40
0.0
 40
0.1181181450116496
 40
0.2362333827839412
 40
0.3543476514774221
 40
0.4724590129376745
 40
0.5905694053212466
 40
0.7086768904778037
 40
0.826783406559633
 40
0.9448879844938019
 40
1.062989655210181
 40
1.181090356855022
 40
1.299189120358267
 40
1.417284976653063
 40
1.535379863879382
 40
1.65347281297035
 40
1.771562854862134
 40
1.889651927688563
 40
2.00773906238575
 40
2.125823289893057
 40
2.243906548338097
 40
2.361986899599489
 40
2.480065312740887
 40
2.59814275682311
 40
2.716217293730953
 40
2.834289892525159
 40
2.952360553207589
 40
3.070429275780501
 40
3.188495091192921
 40
3.306559937552945
 40
3.424622845809463
 40
3.424622845809463
 40
3.424622845809463
 40
3.424622845809463
 10
62.88943599999989
 20
99.19221399999997
 30
-0.0008959873
 10
62.87972121150244
 20
99.15405861281511
 30
-0.0008959873
 10
62.86029135867669
 20
99.07774890867287
 30
-0.0008959873
 10
62.83114606136083
 20
98.9632853177096
 30
-0.0008959873
 10
62.80200143207249
 20
98.84882388998157
 30
-0.0008959873
 10
62.77285604364426
 20
98.73436432222
 30
-0.0008959873
 10
62.74371142957576
 20
98.61990689061364
 30
-0.0008959873
 10
62.71456607140213
 20
98.50545131515104
 30
-0.0008959873
 10
62.68542124136299
 20
98.39099760520486
 30
-0.0008959873
 10
62.65627639797758
 20
98.27654589865419
 30
-0.0008959873
 10
62.6271310798774
 20
98.16209631299191
 30
-0.0008959873
 10
62.59798623910344
 20
98.047648605777
 30
-0.0008959873
 10
62.56884139860661
 20
97.93320289848868
 30
-0.0008959873
 10
62.53969607970933
 20
97.81875931303368
 30
-0.0008959873
 10
62.51055123919048
 20
97.70431760575164
 30
-0.0008959873
 10
62.48140639849241
 20
97.58987789851246
 30
-0.0008959873
 10
62.45226108016702
 20
97.47544031291601
 30
-0.0008959873
 10
62.42311623751862
 20
97.36100460617429
 30
-0.0008959873
 10
62.39397140478786
 20
97.24657089690367
 30
-0.0008959873
 10
62.36482605674568
 20
97.13213931888043
 30
-0.0008959873
 10
62.33568140467767
 20
97.01770989692859
 30
-0.0008959873
 10
62.30653623801419
 20
96.90328260604262
 30
-0.0008959873
 10
62.27739107840015
 20
96.78885731336421
 30
-0.0008959873
 10
62.24824640514895
 20
96.674433896803
 30
-0.0008959873
 10
62.21910121456414
 20
96.5600126120128
 30
-0.0008959873
 10
62.18995625152727
 20
96.44559360259664
 30
-0.0008959873
 10
62.16081121454641
 20
96.33117661201572
 30
-0.0008959873
 10
62.13166640526292
 20
96.21676189676572
 30
-0.0008959873
 10
62.10252107809541
 20
96.10234931343923
 30
-0.0008959873
 10
62.0733762392181
 20
95.9879386057281
 30
-0.0008959873
 10
62.05394613399147
 20
95.91166529919954
 30
-0.0008959873
 10
62.04423099999993
 20
95.873529
 30
-0.0008959873
 11
62.88943599999989
 21
99.19221399999997
 31
-0.0008959873
 11
62.86029099999993
 21
99.07774799999998
 31
-0.0008959873
 11
62.83114599999996
 21
98.96328499999995
 31
-0.0008959873
 11
62.80200099999999
 21
98.84882299999997
 31
-0.0008959873
 11
62.77285599999991
 21
98.73436400000002
 31
-0.0008959873
 11
62.74371099999993
 21
98.619906
 31
-0.0008959873
 11
62.71456599999996
 21
98.50545099999997
 31
-0.0008959873
 11
62.68542099999999
 21
98.39099700000002
 31
-0.0008959873
 11
62.65627599999991
 21
98.27654500000001
 31
-0.0008959873
 11
62.62713099999993
 21
98.162096
 31
-0.0008959873
 11
62.59798599999996
 21
98.04764799999997
 31
-0.0008959873
 11
62.56884099999999
 21
97.93320199999998
 31
-0.0008959873
 11
62.53969599999989
 21
97.81875900000001
 31
-0.0008959873
 11
62.51055099999994
 21
97.70431700000001
 31
-0.0008959873
 11
62.48140599999996
 21
97.58987699999998
 31
-0.0008959873
 11
62.452261
 21
97.47543999999997
 31
-0.0008959873
 11
62.4231159999999
 21
97.36100399999997
 31
-0.0008959873
 11
62.39397099999994
 21
97.24657
 31
-0.0008959873
 11
62.36482599999996
 21
97.13213899999999
 31
-0.0008959873
 11
62.33568099999999
 21
97.01770899999999
 31
-0.0008959873
 11
62.30653599999989
 21
96.90328199999996
 31
-0.0008959873
 11
62.27739099999993
 21
96.788857
 31
-0.0008959873
 11
62.24824599999998
 21
96.67443300000002
 31
-0.0008959873
 11
62.21910099999998
 21
96.56001200000002
 31
-0.0008959873
 11
62.18995599999989
 21
96.44559299999997
 31
-0.0008959873
 11
62.16081099999993
 21
96.33117600000002
 31
-0.0008959873
 11
62.13166599999997
 21
96.21676100000001
 31
-0.0008959873
 11
62.10252099999999
 21
96.10234900000001
 31
-0.0008959873
 11
62.0733759999999
 21
95.98793799999995
 31
-0.0008959873
 11
62.04423099999993
 21
95.873529
 31
-0.0008959873
  0
SPLINE
  5
F9A6
330
1E
100
AcDbEntity
  8
CUT
100
AcDbSpline
210
0.0
220
0.0
230
1.0
 70
     8
 71
     3
 72
    36
 73
    32
 74
    30
 42
0.0000000001
 43
0.0000000001
 44
0.0000000001
 12
-0.0242427435631921
 22
-0.9997061015041017
 32
0.0
 13
-0.0243133557688523
 23
-0.9997043866720087
 33
0.0
 40
0.0
 40
0.0
 40
0.0
 40
0.0
 40
0.0314752736604415
 40
0.0629505716099936
 40
0.0944248698544509
 40
0.1259001678038325
 40
0.1573744417588908
 40
0.1888497397082293
 40
0.2203240379530279
 40
0.2517993359023385
 40
0.2832736341471367
 40
0.3147479081021804
 40
0.3462222063469785
 40
0.3776975042962465
 40
0.409171802541059
 40
0.440646076496117
 40
0.4721203747408865
 40
0.5035946729856847
 40
0.5350689712304121
 40
0.5665432451855127
 40
0.5980175434302541
 40
0.6294918416750379
 40
0.660966139919765
 40
0.6924404138748657
 40
0.7239147121196219
 40
0.7553880106598125
 40
0.7868623089045683
 40
0.8183365828596684
 40
0.8498098813998881
 40
0.8812841796446006
 40
0.9127574781848345
 40
0.9127574781848345
 40
0.9127574781848345
 40
0.9127574781848345
 10
62.91161399999996
 20
100.1047019999999
 30
-0.0008959873
 10
62.91135965100398
 20
100.0942133256249
 30
-0.0008959873
 10
62.91085016637143
 20
100.0732359878544
 30
-0.0008959873
 10
62.9100849480167
 20
100.0417703345971
 30
-0.0008959873
 10
62.90932008996467
 20
100.0103046644807
 30
-0.0008959873
 10
62.90855465181675
 20
99.97883934989182
 30
-0.0008959873
 10
62.90779134441149
 20
99.94737365019988
 30
-0.0008959873
 10
62.90702592889399
 20
99.91590833506066
 30
-0.0008959873
 10
62.90626098032165
 20
99.88444266714509
 30
-0.0008959873
 10
62.90549610932719
 20
99.85297733067671
 30
-0.0008959873
 10
62.90473063117659
 20
99.82151201706022
 30
-0.0008959873
 10
62.90396737525049
 20
99.79004698278359
 30
-0.0008959873
 10
62.90320185853608
 20
99.75858167010407
 30
-0.0008959873
 10
62.90243714180004
 20
99.72711632988776
 30
-0.0008959873
 10
62.90167162306824
 20
99.69565101725725
 30
-0.0008959873
 10
62.90090837521153
 20
99.66418598278458
 30
-0.0008959873
 10
62.90014287490514
 20
99.63272100303941
 30
-0.0008959873
 10
62.89937812497059
 20
99.60125599696359
 30
-0.0008959873
 10
62.89861262540902
 20
99.5697910172003
 30
-0.0008959873
 10
62.89784937457297
 20
99.53832598280012
 30
-0.0008959873
 10
62.89708387511852
 20
99.50686100303419
 30
-0.0008959873
 10
62.89631912475545
 20
99.47539599696884
 30
-0.0008959873
 10
62.89555362605615
 20
99.44393101718457
 30
-0.0008959873
 10
62.89479037219954
 20
99.41246598285784
 30
-0.0008959873
 10
62.89402489206986
 20
99.38100133595538
 30
-0.0008959873
 10
62.89326010793272
 20
99.34953666404453
 30
-0.0008959873
 10
62.89249462778631
 20
99.31807201714255
 30
-0.0008959873
 10
62.89173138207783
 20
99.28660731595087
 30
-0.0008959873
 10
62.89096589126693
 20
99.25514266930864
 30
-0.0008959873
 10
62.89020101214916
 20
99.22367833303853
 30
-0.0008959873
 10
62.88969107383477
 20
99.20270199820453
 30
-0.0008959873
 10
62.88943599999989
 20
99.19221399999997
 30
-0.0008959873
 11
62.91161399999996
 21
100.1047019999999
 31
-0.0008959873
 11
62.91084999999995
 21
100.0732359999999
 31
-0.0008959873
 11
62.91008499999995
 21
100.0417699999997
 31
-0.0008959873
 11
62.90931999999995
 21
100.010305
 31
-0.0008959873
 11
62.90855499999995
 21
99.97883899999997
 31
-0.0008959873
 11
62.90779099999993
 21
99.94737399999999
 31
-0.0008959873
 11
62.90702599999995
 21
99.915908
 31
-0.0008959873
 11
62.90626099999993
 21
99.88444299999997
 31
-0.0008959873
 11
62.90549599999994
 21
99.852977
 31
-0.0008959873
 11
62.90473099999993
 21
99.82151199999997
 31
-0.0008959873
 11
62.90396699999993
 21
99.790047
 31
-0.0008959873
 11
62.90320199999993
 21
99.75858199999997
 31
-0.0008959873
 11
62.90243699999994
 21
99.72711600000003
 31
-0.0008959873
 11
62.90167199999993
 21
99.69565099999998
 31
-0.0008959873
 11
62.90090799999993
 21
99.66418600000002
 31
-0.0008959873
 11
62.90014299999993
 21
99.63272100000001
 31
-0.0008959873
 11
62.89937799999993
 21
99.60125599999997
 31
-0.0008959873
 11
62.89861299999992
 21
99.56979099999999
 31
-0.0008959873
 11
62.89784899999992
 21
99.53832599999998
 31
-0.0008959873
 11
62.89708399999992
 21
99.506861
 31
-0.0008959873
 11
62.89631899999992
 21
99.47539599999998
 31
-0.0008959873
 11
62.89555399999994
 21
99.443931
 31
-0.0008959873
 11
62.89478999999992
 21
99.41246599999999
 31
-0.0008959873
 11
62.89402499999989
 21
99.38100099999999
 31
-0.0008959873
 11
62.89325999999991
 21
99.34953700000001
 31
-0.0008959873
 11
62.89249499999989
 21
99.31807200000001
 31
-0.0008959873
 11
62.89173099999991
 21
99.286607
 31
-0.0008959873
 11
62.89096599999989
 21
99.25514299999996
 31
-0.0008959873
 11
62.89020099999991
 21
99.22367800000001
 31
-0.0008959873
 11
62.88943599999989
 21
99.19221399999997
 31
-0.0008959873
  0
SPLINE
  5
F9A7
330
1E
100
AcDbEntity
  8
CUT
100
AcDbSpline
210
0.0
220
0.0
230
1.0
 70
     8
 71
     3
 72
    36
 73
    32
 74
    30
 42
0.0000000001
 43
0.0000000001
 44
0.0000000001
 12
-0.8685302296950608
 22
0.4956361973321212
 32
0.0
 13
-0.8674082001305503
 23
0.4975972410959284
 33
0.0
 40
0.0
 40
0.0
 40
0.0
 40
0.0
 40
0.2676070867466546
 40
0.5352261935159058
 40
0.8028590591453729
 40
1.070503825290626
 40
1.338160989532588
 40
1.605830553631592
 40
1.873512519348404
 40
2.141206020218382
 40
2.40891229821146
 40
2.676630486725275
 40
2.944361083755086
 40
3.212103594615739
 40
3.47985851744074
 40
3.747623992834885
 40
4.015402751561098
 40
4.283192933954006
 40
4.550995038280986
 40
4.818809066162224
 40
5.086635019217712
 40
5.354471534323417
 40
5.622320348489214
 40
5.890181092552174
 40
6.158053270952574
 40
6.425936885177158
 40
6.693832434020398
 40
6.961738056815117
 40
7.229655987430019
 40
7.497585359813808
 40
7.765526175452362
 40
7.765526175452362
 40
7.765526175452362
 40
7.765526175452362
 10
62.91161399999996
 20
100.1047019999999
 30
-0.0008959873
 10
62.83413905182659
 20
100.1489139196179
 30
-0.0008959873
 10
62.67918961370106
 20
100.2373466459091
 30
-0.0008959873
 10
62.4467711729838
 20
100.3700190436415
 30
-0.0008959873
 10
62.2143528892513
 20
100.5027170493951
 30
-0.0008959873
 10
61.98193358461972
 20
100.6354388509489
 30
-0.0008959873
 10
61.74951461752502
 20
100.7681859103722
 30
-0.0008959873
 10
61.51709564393718
 20
100.9009579583444
 30
-0.0008959873
 10
61.28467675356485
 20
101.033754568675
 30
-0.0008959873
 10
61.05225868559064
 20
101.1665772846785
 30
-0.0008959873
 10
60.81983983480886
 20
101.2994229640901
 30
-0.0008959873
 10
60.58742055928298
 20
101.4322928172271
 30
-0.0008959873
 10
60.35500189878608
 20
101.565188079326
 30
-0.0008959873
 10
60.12258253151038
 20
101.698106772167
 30
-0.0008959873
 10
59.89016433473641
 20
101.831050928661
 30
-0.0008959873
 10
59.65774532224789
 20
101.9640179924819
 30
-0.0008959873
 10
59.42532711574865
 20
102.0970101316183
 30
-0.0008959873
 10
59.19290778764356
 20
102.2300248931786
 30
-0.0008959873
 10
58.96048883638051
 20
102.3630639799848
 30
-0.0008959873
 10
58.72806982303018
 20
102.4961269582777
 30
-0.0008959873
 10
58.49565121963069
 20
102.6292137370692
 30
-0.0008959873
 10
58.26323290511872
 20
102.7623243534107
 30
-0.0008959873
 10
58.03081375184607
 20
102.8954568387678
 30
-0.0008959873
 10
57.7983950691399
 20
103.0286140608601
 30
-0.0008959873
 10
57.56597606423915
 20
103.1617940537477
 30
-0.0008959873
 10
57.33355676386405
 20
103.2949968645661
 30
-0.0008959873
 10
57.10113849949067
 20
103.4282239012656
 30
-0.0008959873
 10
56.86871983498554
 20
103.5614732397605
 30
-0.0008959873
 10
56.63630102518664
 20
103.6947449916178
 30
-0.0008959873
 10
56.40388203680876
 20
103.8280400133593
 30
-0.0008959873
 10
56.24893935354482
 20
103.9169167964537
 30
-0.0008959873
 10
56.17146799999996
 20
103.961359
 30
-0.0008959873
 11
62.91161399999996
 21
100.1047019999999
 31
-0.0008959873
 11
62.67919499999989
 21
100.2373479999999
 31
-0.0008959873
 11
62.44677699999996
 21
100.3700199999999
 31
-0.0008959873
 11
62.21435799999992
 21
100.502718
 31
-0.0008959873
 11
61.98193899999998
 21
100.6354399999999
 31
-0.0008959873
 11
61.74951999999994
 21
100.768187
 31
-0.0008959873
 11
61.51710099999998
 21
100.9009589999999
 31
-0.0008959873
 11
61.28468199999995
 21
101.0337559999999
 31
-0.0008959873
 11
61.05226399999989
 21
101.1665779999999
 31
-0.0008959873
 11
60.81984499999997
 21
101.2994239999997
 31
-0.0008959873
 11
60.58742599999989
 21
101.432294
 31
-0.0008959873
 11
60.35500699999997
 21
101.5651889999999
 31
-0.0008959873
 11
60.12258799999992
 21
101.6981079999997
 31
-0.0008959873
 11
59.89016899999999
 21
101.8310519999999
 31
-0.0008959873
 11
59.65775099999993
 21
101.964019
 31
-0.0008959873
 11
59.42533199999999
 21
102.0970109999999
 31
-0.0008959873
 11
59.19291299999994
 21
102.2300259999999
 31
-0.0008959873
 11
58.9604939999999
 21
102.3630649999997
 31
-0.0008959873
 11
58.72807499999996
 21
102.4961279999997
 31
-0.0008959873
 11
58.49565599999991
 21
102.6292149999999
 31
-0.0008959873
 11
58.26323799999997
 21
102.7623249999999
 31
-0.0008959873
 11
58.03081899999992
 21
102.8954579999999
 31
-0.0008959873
 11
57.7984
 21
103.0286149999999
 31
-0.0008959873
 11
57.56598099999994
 21
103.1617949999997
 31
-0.0008959873
 11
57.333562
 21
103.2949979999999
 31
-0.0008959873
 11
57.10114299999995
 21
103.4282249999999
 31
-0.0008959873
 11
56.8687249999999
 21
103.5614739999999
 31
-0.0008959873
 11
56.63630599999996
 21
103.6947459999999
 31
-0.0008959873
 11
56.40388699999991
 21
103.8280409999997
 31
-0.0008959873
 11
56.17146799999996
 21
103.961359
 31
-0.0008959873
  0
SPLINE
  5
F9A8
330
1E
100
AcDbEntity
  8
CUT
100
AcDbSpline
210
0.0
220
0.0
230
1.0
 70
     8
 71
     3
 72
    36
 73
    32
 74
    30
 42
0.0000000001
 43
0.0000000001
 44
0.0000000001
 12
0.8658321297769834
 22
0.5003346110812771
 32
0.0
 13
0.8655694494711799
 23
0.5007889057698451
 33
0.0
 40
0.0
 40
0.0
 40
0.0
 40
0.0
 40
0.0319503636599773
 40
0.0639003619072232
 40
0.0958503601544251
 40
0.1278017246011631
 40
0.1597522232669894
 40
0.1917032223749499
 40
0.2236555877021885
 40
0.2556070872757721
 40
0.2875590873383281
 40
0.3195115879134152
 40
0.3514649542149688
 40
0.3834179553259038
 40
0.4153709564369748
 40
0.4473258243759649
 40
0.4792793260463305
 40
0.5112338289058196
 40
0.543188331765435
 40
0.5751437002971578
 40
0.6070987037865047
 40
0.6390542079289494
 40
0.6710110783796242
 40
0.7029670831986655
 40
0.734923588717948
 40
0.7668809598551541
 40
0.7988379660978861
 40
0.8307954730875538
 40
0.8627529800773732
 40
0.8947118534148065
 40
0.9266698611750932
 40
0.9266698611750932
 40
0.9266698611750932
 40
0.9266698611750932
 10
55.36926099999989
 20
103.4974829999999
 30
-0.0008959873
 10
55.37848221713819
 20
103.5028116242584
 30
-0.0008959873
 10
55.39692400848685
 20
103.5134697419131
 30
-0.0008959873
 10
55.42458595911456
 20
103.5294580707365
 30
-0.0008959873
 10
55.45224844388037
 20
103.5454461420706
 30
-0.0008959873
 10
55.47991077546331
 20
103.5614348117696
 30
-0.0008959873
 10
55.50757324395509
 20
103.5774239112887
 30
-0.0008959873
 10
55.53523540408844
 20
103.5934142109329
 30
-0.0008959873
 10
55.56289779417401
 20
103.6094047794268
 30
-0.0008959873
 10
55.59056020901677
 20
103.6253959717737
 30
-0.0008959873
 10
55.61822227537674
 20
103.6413878570224
 30
-0.0008959873
 10
55.64588409477902
 20
103.6573814126144
 30
-0.0008959873
 10
55.67354713334895
 20
103.6733735261566
 30
-0.0008959873
 10
55.70120888396687
 20
103.6893682006822
 30
-0.0008959873
 10
55.72887176411835
 20
103.7053619216471
 30
-0.0008959873
 10
55.75653343623409
 20
103.7213580651731
 30
-0.0008959873
 10
55.78419655875254
 20
103.7373527004075
 30
-0.0008959873
 10
55.81185795682245
 20
103.7533500746706
 30
-0.0008959873
 10
55.83952015264824
 20
103.7693473124427
 30
-0.0008959873
 10
55.8671830758269
 20
103.7853436258187
 30
-0.0008959873
 10
55.89484520096103
 20
103.8013419858709
 30
-0.0008959873
 10
55.92250742047864
 20
103.8173411826623
 30
-0.0008959873
 10
55.95016977151098
 20
103.8333408187307
 30
-0.0008959873
 10
55.97783228378027
 20
103.8493408427301
 30
-0.0008959873
 10
56.00549410465809
 20
103.8653423953324
 30
-0.0008959873
 10
56.03315708512387
 20
103.8813426099213
 30
-0.0008959873
 10
56.06081921209469
 20
103.8973449667142
 30
-0.0008959873
 10
56.08848097257695
 20
103.9133480474003
 30
-0.0008959873
 10
56.11614343630901
 20
103.9293511553364
 30
-0.0008959873
 10
56.14380579205466
 20
103.9453547832698
 30
-0.0008959873
 10
56.16224737493887
 20
103.956024261421
 30
-0.0008959873
 10
56.17146799999996
 20
103.961359
 30
-0.0008959873
 11
55.36926099999989
 21
103.4974829999999
 31
-0.0008959873
 11
55.39692399999998
 21
103.5134699999999
 31
-0.0008959873
 11
55.42458599999996
 21
103.5294579999999
 31
-0.0008959873
 11
55.45224799999989
 21
103.5454459999999
 31
-0.0008959873
 11
55.47991099999999
 21
103.561435
 31
-0.0008959873
 11
55.50757299999995
 21
103.5774239999999
 31
-0.0008959873
 11
55.5352349999999
 21
103.5934139999999
 31
-0.0008959873
 11
55.56289799999999
 21
103.6094049999999
 31
-0.0008959873
 11
55.59055999999995
 21
103.625396
 31
-0.0008959873
 11
55.61822199999991
 21
103.641388
 31
-0.0008959873
 11
55.64588399999998
 21
103.6573809999999
 31
-0.0008959873
 11
55.67354699999995
 21
103.673374
 31
-0.0008959873
 11
55.70120899999992
 21
103.6893679999999
 31
-0.0008959873
 11
55.72887099999999
 21
103.7053619999999
 31
-0.0008959873
 11
55.75653399999996
 21
103.7213579999999
 31
-0.0008959873
 11
55.78419599999993
 21
103.7373529999999
 31
-0.0008959873
 11
55.811858
 21
103.7533499999997
 31
-0.0008959873
 11
55.83951999999996
 21
103.7693469999999
 31
-0.0008959873
 11
55.86718299999994
 21
103.7853439999999
 31
-0.0008959873
 11
55.89484500000001
 21
103.8013419999999
 31
-0.0008959873
 11
55.92250699999997
 21
103.8173409999999
 31
-0.0008959873
 11
55.95016999999994
 21
103.833341
 31
-0.0008959873
 11
55.97783199999989
 21
103.8493409999999
 31
-0.0008959873
 11
56.00549399999997
 21
103.8653419999999
 31
-0.0008959873
 11
56.03315699999993
 21
103.881343
 31
-0.0008959873
 11
56.06081899999989
 21
103.897345
 31
-0.0008959873
 11
56.08848099999997
 21
103.9133479999997
 31
-0.0008959873
 11
56.11614299999993
 21
103.9293509999999
 31
-0.0008959873
 11
56.14380599999989
 21
103.9453549999999
 31
-0.0008959873
 11
56.17146799999996
 21
103.961359
 31
-0.0008959873
  0
SPLINE
  5
F9A9
330
1E
100
AcDbEntity
  8
CUT
100
AcDbSpline
210
0.0
220
0.0
230
1.0
 70
     8
 71
     3
 72
    36
 73
    32
 74
    30
 42
0.0000000001
 43
0.0000000001
 44
0.0000000001
 12
0.8575146538516353
 22
-0.5144595401289689
 32
0.0
 13
0.8573667953168396
 23
-0.5147059143706554
 33
0.0
 40
0.0
 40
0.0
 40
0.0
 40
0.0
 40
0.063566636610672
 40
0.1271301862284097
 40
0.1906915063609727
 40
0.2542511114966927
 40
0.3178081441681094
 40
0.3813638048443237
 40
0.4449172360421462
 40
0.5084680948090527
 40
0.5720175815731351
 40
0.6355644959357094
 40
0.6991091808275247
 40
0.7626516362490266
 40
0.8261923767624942
 40
0.8897308878090058
 40
0.9532676839668436
 40
1.016801393224332
 40
1.080334245049006
 40
1.143864009986435
 40
1.207392060082465
 40
1.270918738139682
 40
1.33444232932441
 40
1.397964205690119
 40
1.46148299520146
 40
1.525000927315068
 40
1.588516629979947
 40
1.652029760480625
 40
1.715541518919688
 40
1.779050190532183
 40
1.842557147395181
 40
1.842557147395181
 40
1.842557147395181
 40
1.842557147395181
 10
61.40868899999995
 20
100.9861619999999
 30
-0.0008959873
 10
61.42685877412985
 20
100.9752611791205
 30
-0.0008959873
 10
61.46319717644198
 20
100.9534596274195
 30
-0.0008959873
 10
61.51770334858227
 20
100.9207573587491
 30
-0.0008959873
 10
61.57220759580776
 20
100.8880564374729
 30
-0.0008959873
 10
61.62670946420554
 20
100.8553557736562
 30
-0.0008959873
 10
61.6812085180249
 20
100.8226540856057
 30
-0.0008959873
 10
61.73570634609471
 20
100.7899543546056
 30
-0.0008959873
 10
61.79020250941999
 20
100.7572558489711
 30
-0.0008959873
 10
61.84469543996765
 20
100.7245559555363
 30
-0.0008959873
 10
61.89918751513267
 20
100.6918588584593
 30
-0.0008959873
 10
61.95367632336559
 20
100.6591603167184
 30
-0.0008959873
 10
62.00816335835414
 20
100.6264633750312
 30
-0.0008959873
 10
62.06264865524241
 20
100.5937675364223
 30
-0.0008959873
 10
62.11713131517182
 20
100.5610713030698
 30
-0.0008959873
 10
62.17161264325098
 20
100.5283765164203
 30
-0.0008959873
 10
62.22609116134168
 20
100.4956816021686
 30
-0.0008959873
 10
62.2805678002636
 20
100.4629872226021
 30
-0.0008959873
 10
62.33504215762351
 20
100.4302935959654
 30
-0.0008959873
 10
62.38951465823034
 20
100.3976005413214
 30
-0.0008959873
 10
62.44398450427061
 20
100.364907062762
 30
-0.0008959873
 10
62.49845320737031
 20
100.3322156788362
 30
-0.0008959873
 10
62.55291960827782
 20
100.2995244580715
 30
-0.0008959873
 10
62.60738316434409
 20
100.2668336071312
 30
-0.0008959873
 10
62.66184482362556
 20
100.234143261487
 30
-0.0008959873
 10
62.71630430645455
 20
100.201453288558
 30
-0.0008959873
 10
62.77076251017319
 20
100.1687648498952
 30
-0.0008959873
 10
62.82521747775629
 20
100.1360750186325
 30
-0.0008959873
 10
62.8796712166056
 20
100.103387694168
 30
-0.0008959873
 10
62.93412259824196
 20
100.0707004412841
 30
-0.0008959873
 10
62.97042241463798
 20
100.0489088021002
 30
-0.0008959873
 10
62.98857199999996
 20
100.0380129999999
 30
-0.0008959873
 11
61.40868899999995
 21
100.9861619999999
 31
-0.0008959873
 11
61.46319799999989
 21
100.9534589999999
 31
-0.0008959873
 11
61.51770399999995
 21
100.9207569999999
 31
-0.0008959873
 11
61.5722079999999
 21
100.8880559999999
 31
-0.0008959873
 11
61.62670999999997
 21
100.8553549999999
 31
-0.0008959873
 11
61.68120899999993
 21
100.8226539999999
 31
-0.0008959873
 11
61.73570699999991
 21
100.789954
 31
-0.0008959873
 11
61.79020299999999
 21
100.7572549999999
 31
-0.0008959873
 11
61.84469599999997
 21
100.7245559999997
 31
-0.0008959873
 11
61.89918799999995
 21
100.691858
 31
-0.0008959873
 11
61.95367699999994
 21
100.6591599999999
 31
-0.0008959873
 11
62.00816399999993
 21
100.6264629999999
 31
-0.0008959873
 11
62.06264899999993
 21
100.593767
 31
-0.0008959873
 11
62.11713199999993
 21
100.561071
 31
-0.0008959873
 11
62.17161299999995
 21
100.5283759999999
 31
-0.0008959873
 11
62.22609199999997
 21
100.4956809999999
 31
-0.0008959873
 11
62.28056799999999
 21
100.4629869999997
 31
-0.0008959873
 11
62.33504299999989
 21
100.4302929999999
 31
-0.0008959873
 11
62.38951499999993
 21
100.3975999999999
 31
-0.0008959873
 11
62.44398499999997
 21
100.3649069999999
 31
-0.0008959873
 11
62.4984539999999
 21
100.332215
 31
-0.0008959873
 11
62.55291999999993
 21
100.299524
 31
-0.0008959873
 11
62.607384
 21
100.2668329999998
 31
-0.0008959873
 11
62.66184499999994
 21
100.2341429999999
 31
-0.0008959873
 11
62.71630499999989
 21
100.201453
 31
-0.0008959873
 11
62.77076299999996
 21
100.1687639999999
 31
-0.0008959873
 11
62.82521799999992
 21
100.1360749999999
 31
-0.0008959873
 11
62.879672
 21
100.1033869999997
 31
-0.0008959873
 11
62.93412299999997
 21
100.0706999999999
 31
-0.0008959873
 11
62.98857199999996
 21
100.0380129999999
 31
-0.0008959873
  0
SPLINE
  5
F9AA
330
1E
100
AcDbEntity
  8
CUT
100
AcDbSpline
210
0.0
220
0.0
230
1.0
 70
     8
 71
     3
 72
    36
 73
    32
 74
    30
 42
0.0000000001
 43
0.0000000001
 44
0.0000000001
 12
0.2335115609864139
 22
-0.9723540254895274
 32
0.0
 13
-0.2409725198322435
 23
-0.9705319390343108
 33
0.0
 40
0.0
 40
0.0
 40
0.0
 40
0.0
 40
0.6488856443919864
 40
1.294395309290111
 40
1.936693520143137
 40
2.575925006734635
 40
3.2121149273716
 40
3.845651679271561
 40
4.477004803547527
 40
5.106449312186713
 40
5.733964036968496
 40
6.359964440255895
 40
6.984874461703804
 40
7.608742996500219
 40
8.231763646816848
 40
8.854370476400353
 40
9.476917727683314
 40
10.09936891004066
 40
10.72207264927624
 40
11.3454597620922
 40
11.96971946705479
 40
12.59490212116552
 40
13.22143078442451
 40
13.84971591024314
 40
14.47974094177288
 40
15.11177317726805
 40
15.74627646959831
 40
16.38363499156616
 40
17.02387149327859
 40
17.66712868698729
 40
18.31356675523284
 40
18.31356675523284
 40
18.31356675523284
 40
18.31356675523284
 10
61.40868899999995
 20
100.9861619999999
 30
-0.0008959873
 10
61.45919643324116
 20
100.7758464771976
 30
-0.0008959873
 10
61.55665577603605
 20
100.3555106955633
 30
-0.0008959873
 10
61.69244996848153
 20
99.72436302647116
 30
-0.0008959873
 10
61.81745352822374
 20
99.09426840894496
 30
-0.0008959873
 10
61.93167493128386
 20
98.46528703116312
 30
-0.0008959873
 10
62.03500028212879
 20
97.8373831179803
 30
-0.0008959873
 10
62.12756426862711
 20
97.21045778410713
 30
-0.0008959873
 10
62.20952213119382
 20
96.5843260334317
 30
-0.0008959873
 10
62.2809839042486
 20
95.95892937404332
 30
-0.0008959873
 10
62.34178942420361
 20
95.33419890888636
 30
-0.0008959873
 10
62.39205393942352
 20
94.71004913146146
 30
-0.0008959873
 10
62.43187300668793
 20
94.08636385765554
 30
-0.0008959873
 10
62.46123697475923
 20
93.4630929383681
 30
-0.0008959873
 10
62.48010607724014
 20
92.84018400665537
 30
-0.0008959873
 10
62.48851675204962
 20
92.2174867670664
 30
-0.0008959873
 10
62.48650444093126
 20
91.59492589931973
 30
-0.0008959873
 10
62.47407446771386
 20
90.97245347149675
 30
-0.0008959873
 10
62.45118324409411
 20
90.34999751543434
 30
-0.0008959873
 10
62.41778988054443
 20
89.7274129432791
 30
-0.0008959873
 10
62.37392937081948
 20
89.1046501660273
 30
-0.0008959873
 10
62.31962006947546
 20
88.48166031981532
 30
-0.0008959873
 10
62.25475411027393
 20
87.85833121502266
 30
-0.0008959873
 10
62.17921484482001
 20
87.23458001570383
 30
-0.0008959873
 10
62.09316550442828
 20
86.61034039699883
 30
-0.0008959873
 10
61.99649211747034
 20
85.9855595840502
 30
-0.0008959873
 10
61.88903762792161
 20
85.36006144675685
 30
-0.0008959873
 10
61.77065907857095
 20
84.73375565024364
 30
-0.0008959873
 10
61.64147311881878
 20
84.10661035820679
 30
-0.0008959873
 10
61.50147422662123
 20
83.4786906877011
 30
-0.0008959873
 10
61.40118960340677
 20
83.06063059727994
 30
-0.0008959873
 10
61.34926499999989
 20
82.85150099999997
 30
-0.0008959873
 11
61.40868899999995
 21
100.9861619999999
 31
-0.0008959873
 11
61.55522599999994
 21
100.3540389999999
 31
-0.0008959873
 11
61.69097699999993
 21
99.72296499999998
 31
-0.0008959873
 11
61.8159439999999
 21
99.09294099999998
 31
-0.0008959873
 11
61.93011499999997
 21
98.46398800000002
 31
-0.0008959873
 11
62.03341099999997
 21
97.83623999999996
 31
-0.0008959873
 11
62.12594899999996
 21
97.20949799999999
 31
-0.0008959873
 11
62.20789099999999
 21
96.58348499999998
 31
-0.0008959873
 11
62.27930699999999
 21
95.95810499999997
 31
-0.0008959873
 11
62.34009999999997
 21
95.33354199999999
 31
-0.0008959873
 11
62.39035399999997
 21
94.70956200000001
 31
-0.0008959873
 11
62.43015899999997
 21
94.08592099999998
 31
-0.0008959873
 11
62.4595039999999
 21
93.46274299999995
 31
-0.0008959873
 11
62.47836799999991
 21
92.84000799999999
 31
-0.0008959873
 11
62.48677999999992
 21
92.21745799999998
 31
-0.0008959873
 11
62.484768
 21
91.594914
 31
-0.0008959873
 11
62.47233499999989
 21
90.97258699999995
 31
-0.0008959873
 11
62.44944799999993
 21
90.35030399999998
 31
-0.0008959873
 11
62.41607199999997
 21
89.72781099999997
 31
-0.0008959873
 11
62.37222599999992
 21
89.10509299999999
 31
-0.0008959873
 11
62.31792499999992
 21
88.48227300000003
 31
-0.0008959873
 11
62.25307099999993
 21
87.85910999999996
 31
-0.0008959873
 11
62.17757699999989
 21
87.23537700000001
 31
-0.0008959873
 11
62.09154199999996
 21
86.61125399999995
 31
-0.0008959873
 11
61.9948939999999
 21
85.98665499999995
 31
-0.0008959873
 11
61.88746699999999
 21
85.36131199999998
 31
-0.0008959873
 11
61.76913799999997
 21
84.73503399999996
 31
-0.0008959873
 11
61.63998799999999
 21
84.10795899999998
 31
-0.0008959873
 11
61.50003099999989
 21
83.480112
 31
-0.0008959873
 11
61.34926499999989
 21
82.85150099999997
 31
-0.0008959873
  0
SPLINE
  5
F9AB
330
1E
100
AcDbEntity
  8
CUT
100
AcDbSpline
210
0.0
220
0.0
230
1.0
 70
     8
 71
     3
 72
    36
 73
    32
 74
    30
 42
0.0000000001
 43
0.0000000001
 44
0.0000000001
 12
-0.8305445207596743
 22
-0.5569522412524101
 32
0.0
 13
-0.8305883594309442
 23
-0.5568868620984091
 33
0.0
 40
0.0
 40
0.0
 40
0.0
 40
0.0
 40
0.0680805508937203
 40
0.1361580532274586
 40
0.2042344416158747
 40
0.2723072244662398
 40
0.3403800073166814
 40
0.4084491846290989
 40
0.4765169744419636
 40
0.5445828198050774
 40
0.6126464471254517
 40
0.6807078564040672
 40
0.7487678781863031
 40
0.8168251249790566
 40
0.8848795967865374
 40
0.9529340685940617
 40
1.020984934863307
 40
1.089034413641707
 40
1.157081117441346
 40
1.22512643375336
 40
1.29316953201467
 40
1.36121068587026
 40
1.429249621671732
 40
1.49728661308084
 40
1.565321943343884
 40
1.633353941734326
 40
1.701385109547345
 40
1.769413502399076
 40
1.837440507771984
 40
1.905464738190257
 40
1.973487581132975
 40
1.973487581132975
 40
1.973487581132975
 40
1.973487581132975
 10
62.98835999999989
 20
83.950601
 30
-0.0008959873
 10
62.9695120238282
 20
83.9379617948647
 30
-0.0008959873
 10
62.93181776595314
 20
83.91268268232105
 30
-0.0008959873
 10
62.8752775775813
 20
83.87476380540748
 30
-0.0008959873
 10
62.81873792458831
 20
83.83684877911635
 30
-0.0008959873
 10
62.76220001972114
 20
83.79893397059289
 30
-0.0008959873
 10
62.70566399288204
 20
83.76102067728012
 30
-0.0008959873
 10
62.64912938012222
 20
83.72310826356356
 30
-0.0008959873
 10
62.59259671198303
 20
83.68519710201246
 30
-0.0008959873
 10
62.53606453835777
 20
83.64728852467317
 30
-0.0008959873
 10
62.47953458542086
 20
83.60938045448971
 30
-0.0008959873
 10
62.42300641657072
 20
83.57147320920697
 30
-0.0008959873
 10
62.3664798194892
 20
83.5335674387697
 30
-0.0008959873
 10
62.30995483563411
 20
83.49566341468829
 30
-0.0008959873
 10
62.25343098403579
 20
83.45776102380712
 30
-0.0008959873
 10
62.1969089946824
 20
83.41985967459665
 30
-0.0008959873
 10
62.1403884087578
 20
83.38195922085303
 30
-0.0008959873
 10
62.08386982565161
 20
83.3440604295696
 30
-0.0008959873
 10
62.02735243472815
 20
83.3061631821185
 30
-0.0008959873
 10
61.97083650670653
 20
83.2682675718893
 30
-0.0008959873
 10
61.91432275942427
 20
83.23037203121193
 30
-0.0008959873
 10
61.8578094519934
 20
83.19247965349223
 30
-0.0008959873
 10
61.80129880781866
 20
83.15458695902149
 30
-0.0008959873
 10
61.74478815896166
 20
83.11669775718957
 30
-0.0008959873
 10
61.68828123640807
 20
83.07880715028606
 30
-0.0008959873
 10
61.63177404243828
 20
83.04092043384548
 30
-0.0008959873
 10
61.57526989424898
 20
83.00303332724585
 30
-0.0008959873
 10
61.51876637255984
 20
82.9651482748288
 30
-0.0008959873
 10
61.46226484102925
 20
82.92726440661212
 30
-0.0008959873
 10
61.40576440954314
 20
82.88938221966732
 30
-0.0008959873
 10
61.3680979938411
 20
82.86412800918576
 30
-0.0008959873
 10
61.34926499999989
 20
82.85150099999997
 30
-0.0008959873
 11
62.98835999999989
 21
83.950601
 31
-0.0008959873
 11
62.93181699999998
 21
83.91268199999997
 31
-0.0008959873
 11
62.87527699999995
 21
83.87476400000002
 31
-0.0008959873
 11
62.81873699999991
 21
83.83684799999995
 31
-0.0008959873
 11
62.76219999999998
 21
83.79893399999993
 31
-0.0008959873
 11
62.70566299999993
 21
83.76101999999995
 31
-0.0008959873
 11
62.64912899999998
 21
83.72310800000002
 31
-0.0008959873
 11
62.59259599999992
 21
83.685197
 31
-0.0008959873
 11
62.53606399999998
 21
83.64728799999998
 31
-0.0008959873
 11
62.47953399999992
 21
83.60937999999997
 31
-0.0008959873
 11
62.42300599999996
 21
83.57147300000002
 31
-0.0008959873
 11
62.36647900000001
 21
83.53356699999997
 31
-0.0008959873
 11
62.30995399999994
 21
83.49566299999997
 31
-0.0008959873
 11
62.25343099999995
 21
83.457761
 31
-0.0008959873
 11
62.19690799999998
 21
83.41985899999995
 31
-0.0008959873
 11
62.140388
 21
83.38195899999998
 31
-0.0008959873
 11
62.0838689999999
 21
83.34405999999999
 31
-0.0008959873
 11
62.02735199999992
 21
83.306163
 31
-0.0008959873
 11
61.97083599999993
 21
83.26826699999996
 31
-0.0008959873
 11
61.91432199999994
 21
83.23037199999998
 31
-0.0008959873
 11
61.85780899999993
 21
83.19247899999998
 31
-0.0008959873
 11
61.80129799999996
 21
83.15458699999998
 31
-0.0008959873
 11
61.74478799999993
 21
83.11669699999997
 31
-0.0008959873
 11
61.68827999999994
 21
83.07880699999996
 31
-0.0008959873
 11
61.63177399999992
 21
83.04092000000002
 31
-0.0008959873
 11
61.57526899999989
 21
83.00303300000001
 31
-0.0008959873
 11
61.51876600000001
 21
82.96514799999998
 31
-0.0008959873
 11
61.46226399999997
 21
82.92726399999997
 31
-0.0008959873
 11
61.40576399999996
 21
82.889382
 31
-0.0008959873
 11
61.34926499999989
 21
82.85150099999997
 31
-0.0008959873
  0
SPLINE
  5
F9AC
330
1E
100
AcDbEntity
  8
CUT
100
AcDbSpline
210
0.0
220
0.0
230
1.0
 70
     8
 71
     3
 72
    36
 73
    32
 74
    30
 42
0.0000000001
 43
0.0000000001
 44
0.0000000001
 12
0.002840662422045
 22
-0.9999959653103626
 32
0.0
 13
-0.0028740831245577
 23
-0.9999958698145674
 33
0.0
 40
0.0
 40
0.0
 40
0.0
 40
0.0
 40
0.5556150873562689
 40
1.111180884238154
 40
1.666696414724914
 40
2.222160700160112
 40
2.777572759937334
 40
3.332933617556961
 40
3.888240294380651
 40
4.443493811769788
 40
4.998693189925948
 40
5.553837451588639
 40
6.108938618134918
 40
6.663994710377835
 40
7.218997750867675
 40
7.77393976024161
 40
8.328814760299348
 40
8.883613772426265
 40
9.438328818464277
 40
9.992953920241145
 40
10.54747909799326
 40
11.10190237478188
 40
11.6562357712663
 40
12.21047630892485
 40
12.7646240092449
 40
13.31867589551725
 40
13.87262998766663
 40
14.42648530940327
 40
14.9802398779018
 40
15.53388971948761
 40
16.08743385334956
 40
16.08743385334956
 40
16.08743385334956
 40
16.08743385334956
 10
62.98857199999996
 20
100.0380129999999
 30
-0.0008959873
 10
62.98909810496655
 20
99.85280871812596
 30
-0.0008959873
 10
62.99011326821521
 20
99.48241647832299
 30
-0.0008959873
 10
62.99152607985618
 20
98.92685279974884
 30
-0.0008959873
 10
62.99283004369313
 20
98.37133912232841
 30
-0.0008959873
 10
62.99402539958304
 20
97.81587644635338
 30
-0.0008959873
 10
62.99511003777697
 20
97.26046510086774
 30
-0.0008959873
 10
62.99608616191976
 20
96.70510609042821
 30
-0.0008959873
 10
62.99695304710268
 20
96.14979974625226
 30
-0.0008959873
 10
62.99771141530379
 20
95.59454706974857
 30
-0.0008959873
 10
62.99835908609836
 20
95.03934839147659
 30
-0.0008959873
 10
62.99889806786126
 20
94.48420038085425
 30
-0.0008959873
 10
62.99932852516644
 20
93.9291000372591
 30
-0.0008959873
 10
62.99964773914125
 20
93.37404669240919
 30
-0.0008959873
 10
62.99986044251503
 20
92.81904634898314
 30
-0.0008959873
 10
62.99996243954015
 20
92.2641063379449
 30
-0.0008959873
 10
62.99995378283147
 20
91.7092343273237
 30
-0.0008959873
 10
62.9998384551121
 20
91.15443798306587
 30
-0.0008959873
 10
62.99961247447064
 20
90.59972497200559
 30
-0.0008959873
 10
62.99927578507871
 20
90.04510329552422
 30
-0.0008959873
 10
62.9988325945049
 20
89.49057895029024
 30
-0.0008959873
 10
62.99827810739883
 20
88.93615194021807
 30
-0.0008959873
 10
62.997615277138
 20
88.38181992931206
 30
-0.0008959873
 10
62.99684314345061
 20
87.82757991877605
 30
-0.0008959873
 10
62.99596256593686
 20
87.27343390668748
 30
-0.0008959873
 10
62.99497107798202
 20
86.71938356399596
 30
-0.0008959873
 10
62.99387167523809
 20
86.16543088458099
 30
-0.0008959873
 10
62.99266083979897
 20
85.61157754378511
 30
-0.0008959873
 10
62.99134365715599
 20
85.05782586282027
 30
-0.0008959873
 10
62.98991530820694
 20
84.50417818708819
 30
-0.0008959873
 10
62.98889031061784
 20
84.13511494920735
 30
-0.0008959873
 10
62.98835999999989
 20
83.950601
 30
-0.0008959873
 11
62.98857199999996
 21
100.0380129999999
 31
-0.0008959873
 11
62.99009499999996
 21
99.48239999999998
 31
-0.0008959873
 11
62.99150799999992
 21
98.92683599999998
 31
-0.0008959873
 11
62.99281199999994
 21
98.37132199999999
 31
-0.0008959873
 11
62.99400699999998
 21
97.81585899999996
 31
-0.0008959873
 11
62.99509199999997
 21
97.26044799999998
 31
-0.0008959873
 11
62.99606799999989
 21
96.70508799999998
 31
-0.0008959873
 11
62.99693499999998
 21
96.14978200000001
 31
-0.0008959873
 11
62.99769300000001
 21
95.594529
 31
-0.0008959873
 11
62.99834099999995
 21
95.03933000000001
 31
-0.0008959873
 11
62.99887999999995
 21
94.484186
 31
-0.0008959873
 11
62.9993099999999
 21
93.92908499999995
 31
-0.0008959873
 11
62.99962999999999
 21
93.37402899999998
 31
-0.0008959873
 11
62.9998419999999
 21
92.819026
 31
-0.0008959873
 11
62.99994399999999
 21
92.26408400000002
 31
-0.0008959873
 11
62.99993599999989
 21
91.70920899999996
 31
-0.0008959873
 11
62.99981999999997
 21
91.15440999999995
 31
-0.0008959873
 11
62.99959399999997
 21
90.59969499999999
 31
-0.0008959873
 11
62.99925799999989
 21
90.04507
 31
-0.0008959873
 11
62.99881399999989
 21
89.49054499999999
 31
-0.0008959873
 11
62.99825999999993
 21
88.93612199999996
 31
-0.0008959873
 11
62.99759699999989
 21
88.381789
 31
-0.0008959873
 11
62.99682499999992
 21
87.82754899999996
 31
-0.0008959873
 11
62.99594399999998
 21
87.27340199999996
 31
-0.0008959873
 11
62.99495299999998
 21
86.719351
 31
-0.0008959873
 11
62.9938529999999
 21
86.16539799999996
 31
-0.0008959873
 11
62.9926429999999
 21
85.61154399999997
 31
-0.0008959873
 11
62.99132499999993
 21
85.05779099999998
 31
-0.0008959873
 11
62.98989699999989
 21
84.50414299999998
 31
-0.0008959873
 11
62.98835999999989
 21
83.950601
 31
-0.0008959873
  0
SPLINE
  5
F9AD
330
1E
100
AcDbEntity
  8
CUT
100
AcDbSpline
210
0.0
220
0.0
230
1.0
 70
     8
 71
     3
 72
    36
 73
    32
 74
    30
 42
0.0000000001
 43
0.0000000001
 44
0.0000000001
 12
0.2335115609864139
 22
-0.9723540254895274
 32
0.0
 13
-0.2409725198322435
 23
-0.9705319390343108
 33
0.0
 40
0.0
 40
0.0
 40
0.0
 40
0.0
 40
0.6488856443919864
 40
1.294395309290111
 40
1.936693520143137
 40
2.575925006734635
 40
3.2121149273716
 40
3.845651679271561
 40
4.477004803547527
 40
5.106449312186713
 40
5.733964036968496
 40
6.359964440255895
 40
6.984874461703804
 40
7.608742996500219
 40
8.231763646816848
 40
8.854370476400353
 40
9.476917727683314
 40
10.09936891004066
 40
10.72207264927624
 40
11.3454597620922
 40
11.96971946705479
 40
12.59490212116552
 40
13.22143078442451
 40
13.84971591024314
 40
14.47974094177288
 40
15.11177317726805
 40
15.74627646959831
 40
16.38363499156616
 40
17.02387149327859
 40
17.66712868698729
 40
18.31356675523284
 40
18.31356675523284
 40
18.31356675523284
 40
18.31356675523284
 10
61.40868899999995
 20
100.9861619999999
 30
-0.0008959873
 10
61.45919643324116
 20
100.7758464771976
 30
-0.0008959873
 10
61.55665577603605
 20
100.3555106955633
 30
-0.0008959873
 10
61.69244996848153
 20
99.72436302647116
 30
-0.0008959873
 10
61.81745352822374
 20
99.09426840894496
 30
-0.0008959873
 10
61.93167493128386
 20
98.46528703116312
 30
-0.0008959873
 10
62.03500028212879
 20
97.8373831179803
 30
-0.0008959873
 10
62.12756426862711
 20
97.21045778410713
 30
-0.0008959873
 10
62.20952213119382
 20
96.5843260334317
 30
-0.0008959873
 10
62.2809839042486
 20
95.95892937404332
 30
-0.0008959873
 10
62.34178942420361
 20
95.33419890888636
 30
-0.0008959873
 10
62.39205393942352
 20
94.71004913146146
 30
-0.0008959873
 10
62.43187300668793
 20
94.08636385765554
 30
-0.0008959873
 10
62.46123697475923
 20
93.4630929383681
 30
-0.0008959873
 10
62.48010607724014
 20
92.84018400665537
 30
-0.0008959873
 10
62.48851675204962
 20
92.2174867670664
 30
-0.0008959873
 10
62.48650444093126
 20
91.59492589931973
 30
-0.0008959873
 10
62.47407446771386
 20
90.97245347149675
 30
-0.0008959873
 10
62.45118324409411
 20
90.34999751543434
 30
-0.0008959873
 10
62.41778988054443
 20
89.7274129432791
 30
-0.0008959873
 10
62.37392937081948
 20
89.1046501660273
 30
-0.0008959873
 10
62.31962006947546
 20
88.48166031981532
 30
-0.0008959873
 10
62.25475411027393
 20
87.85833121502266
 30
-0.0008959873
 10
62.17921484482001
 20
87.23458001570383
 30
-0.0008959873
 10
62.09316550442828
 20
86.61034039699883
 30
-0.0008959873
 10
61.99649211747034
 20
85.9855595840502
 30
-0.0008959873
 10
61.88903762792161
 20
85.36006144675685
 30
-0.0008959873
 10
61.77065907857095
 20
84.73375565024364
 30
-0.0008959873
 10
61.64147311881878
 20
84.10661035820679
 30
-0.0008959873
 10
61.50147422662123
 20
83.4786906877011
 30
-0.0008959873
 10
61.40118960340677
 20
83.06063059727994
 30
-0.0008959873
 10
61.34926499999989
 20
82.85150099999997
 30
-0.0008959873
 11
61.40868899999995
 21
100.9861619999999
 31
-0.0008959873
 11
61.55522599999994
 21
100.3540389999999
 31
-0.0008959873
 11
61.69097699999993
 21
99.72296499999998
 31
-0.0008959873
 11
61.8159439999999
 21
99.09294099999998
 31
-0.0008959873
 11
61.93011499999997
 21
98.46398800000002
 31
-0.0008959873
 11
62.03341099999997
 21
97.83623999999996
 31
-0.0008959873
 11
62.12594899999996
 21
97.20949799999999
 31
-0.0008959873
 11
62.20789099999999
 21
96.58348499999998
 31
-0.0008959873
 11
62.27930699999999
 21
95.95810499999997
 31
-0.0008959873
 11
62.34009999999997
 21
95.33354199999999
 31
-0.0008959873
 11
62.39035399999997
 21
94.70956200000001
 31
-0.0008959873
 11
62.43015899999997
 21
94.08592099999998
 31
-0.0008959873
 11
62.4595039999999
 21
93.46274299999995
 31
-0.0008959873
 11
62.47836799999991
 21
92.84000799999999
 31
-0.0008959873
 11
62.48677999999992
 21
92.21745799999998
 31
-0.0008959873
 11
62.484768
 21
91.594914
 31
-0.0008959873
 11
62.47233499999989
 21
90.97258699999995
 31
-0.0008959873
 11
62.44944799999993
 21
90.35030399999998
 31
-0.0008959873
 11
62.41607199999997
 21
89.72781099999997
 31
-0.0008959873
 11
62.37222599999992
 21
89.10509299999999
 31
-0.0008959873
 11
62.31792499999992
 21
88.48227300000003
 31
-0.0008959873
 11
62.25307099999993
 21
87.85910999999996
 31
-0.0008959873
 11
62.17757699999989
 21
87.23537700000001
 31
-0.0008959873
 11
62.09154199999996
 21
86.61125399999995
 31
-0.0008959873
 11
61.9948939999999
 21
85.98665499999995
 31
-0.0008959873
 11
61.88746699999999
 21
85.36131199999998
 31
-0.0008959873
 11
61.76913799999997
 21
84.73503399999996
 31
-0.0008959873
 11
61.63998799999999
 21
84.10795899999998
 31
-0.0008959873
 11
61.50003099999989
 21
83.480112
 31
-0.0008959873
 11
61.34926499999989
 21
82.85150099999997
 31
-0.0008959873
  0
SPLINE
  5
F9AE
330
1E
100
AcDbEntity
  8
CUT
100
AcDbSpline
210
0.0
220
0.0
230
1.0
 70
     8
 71
     3
 72
    36
 73
    32
 74
    30
 42
0.0000000001
 43
0.0000000001
 44
0.0000000001
 12
-0.8665068934309704
 22
0.4991651065896024
 32
0.0
 13
-0.8663840008251794
 23
0.4993783766986267
 33
0.0
 40
0.0
 40
0.0
 40
0.0
 40
0.0
 40
0.0426104093385623
 40
0.0852213178597593
 40
0.1278313598921243
 40
0.1704422684132967
 40
0.2130536761347117
 40
0.2556650838560089
 40
0.2982764915775728
 40
0.3408883985167827
 40
0.3835003054561156
 40
0.4261122123953255
 40
0.4687246185700474
 40
0.5113370247447807
 40
0.5539499301725957
 40
0.59656233634733
 40
0.6391757410457693
 40
0.6817886464735842
 40
0.7244011847340537
 40
0.7670145894325854
 40
0.809628493419426
 40
0.852242397406273
 40
0.8948563013931137
 40
0.9374707046858052
 40
0.9800851079787086
 40
1.022699511271374
 40
1.065314413887869
 40
1.107929316504214
 40
1.150544718461678
 40
1.193159621078029
 40
1.235775023035537
 40
1.235775023035537
 40
1.235775023035537
 40
1.235775023035537
 10
61.40868899999995
 20
100.9861619999999
 30
-0.0008959873
 10
61.39638159552536
 20
100.9932518765063
 30
-0.0008959873
 10
61.3717667837299
 20
101.007431957925
 30
-0.0008959873
 10
61.33484517675555
 20
101.0287027282187
 30
-0.0008959873
 10
61.29792386667169
 20
101.0499743471613
 30
-0.0008959873
 10
61.26100171076242
 20
101.0712448312888
 30
-0.0008959873
 10
61.22408003072272
 20
101.0925170533276
 30
-0.0008959873
 10
61.18715802216451
 20
101.1137890384694
 30
-0.0008959873
 10
61.15023573643016
 20
101.1350608758635
 30
-0.0008959873
 10
61.11331402280677
 20
101.1563340395859
 30
-0.0008959873
 10
61.07639202815675
 20
101.1776070488676
 30
-0.0008959873
 10
61.03946972037411
 20
101.1988798480198
 30
-0.0008959873
 10
61.00254808101512
 20
101.2201541406046
 30
-0.0008959873
 10
60.96562566718061
 20
101.2414277557241
 30
-0.0008959873
 10
60.92870438509957
 20
101.2627033350052
 30
-0.0008959873
 10
60.89178136918842
 20
101.2839765719165
 30
-0.0008959873
 10
60.85486040780266
 20
101.3052533743788
 30
-0.0008959873
 10
60.81793782664231
 20
101.3265274540207
 30
-0.0008959873
 10
60.78101692189704
 20
101.3478044429191
 30
-0.0008959873
 10
60.74409469594254
 20
101.3690798056879
 30
-0.0008959873
 10
60.7071730346864
 20
101.3903570601938
 30
-0.0008959873
 10
60.67025102111287
 20
101.4116340366353
 30
-0.0008959873
 10
60.63332873665673
 20
101.4329108763641
 30
-0.0008959873
 10
60.59640702283328
 20
101.4541890396223
 30
-0.0008959873
 10
60.55948502780721
 20
101.4754670482494
 30
-0.0008959873
 10
60.52256272172922
 20
101.4967448504848
 30
-0.0008959873
 10
60.48564107582525
 20
101.518024131567
 30
-0.0008959873
 10
60.44871868655176
 20
101.5393027894687
 30
-0.0008959873
 10
60.41179731270279
 20
101.5605832092397
 30
-0.0008959873
 10
60.37487478368894
 20
101.5818619580011
 30
-0.0008959873
 10
60.35026010081484
 20
101.5960482632493
 30
-0.0008959873
 10
60.33795299999994
 20
101.6031419999999
 30
-0.0008959873
 11
61.40868899999995
 21
100.9861619999999
 31
-0.0008959873
 11
61.37176699999995
 21
101.0074319999999
 31
-0.0008959873
 11
61.33484499999993
 21
101.0287029999999
 31
-0.0008959873
 11
61.29792399999993
 21
101.0499739999999
 31
-0.0008959873
 11
61.26100199999993
 21
101.0712449999999
 31
-0.0008959873
 11
61.22407999999992
 21
101.0925169999999
 31
-0.0008959873
 11
61.18715799999993
 21
101.1137889999997
 31
-0.0008959873
 11
61.15023599999992
 21
101.135061
 31
-0.0008959873
 11
61.11331399999992
 21
101.1563339999999
 31
-0.0008959873
 11
61.07639199999989
 21
101.177607
 31
-0.0008959873
 11
61.0394699999999
 21
101.1988799999999
 31
-0.0008959873
 11
61.00254799999991
 21
101.2201539999999
 31
-0.0008959873
 11
60.96562599999989
 21
101.2414279999999
 31
-0.0008959873
 11
60.9287039999999
 21
101.2627029999999
 31
-0.0008959873
 11
60.89178199999989
 21
101.2839769999999
 31
-0.0008959873
 11
60.85485999999999
 21
101.3052529999999
 31
-0.0008959873
 11
60.81793799999999
 21
101.3265279999999
 31
-0.0008959873
 11
60.78101699999999
 21
101.3478039999999
 31
-0.0008959873
 11
60.74409499999998
 21
101.3690799999999
 31
-0.0008959873
 11
60.70717299999998
 21
101.3903569999999
 31
-0.0008959873
 11
60.67025099999998
 21
101.4116339999999
 31
-0.0008959873
 11
60.63332899999998
 21
101.4329109999999
 31
-0.0008959873
 11
60.59640699999997
 21
101.4541889999997
 31
-0.0008959873
 11
60.55948499999995
 21
101.4754669999999
 31
-0.0008959873
 11
60.52256299999996
 21
101.4967449999997
 31
-0.0008959873
 11
60.48564099999996
 21
101.518024
 31
-0.0008959873
 11
60.44871899999995
 21
101.539303
 31
-0.0008959873
 11
60.41179699999995
 21
101.5605829999999
 31
-0.0008959873
 11
60.37487499999993
 21
101.5818619999999
 31
-0.0008959873
 11
60.33795299999994
 21
101.6031419999999
 31
-0.0008959873
  0
SPLINE
  5
F9AF
330
1E
100
AcDbEntity
  8
CUT
100
AcDbSpline
210
0.0
220
0.0
230
1.0
 70
     8
 71
     3
 72
    36
 73
    32
 74
    30
 42
0.0000000001
 43
0.0000000001
 44
0.0000000001
 12
0.9987032075977138
 22
0.0509107369229519
 32
0.0
 13
0.998637766327003
 23
0.0521786514334593
 33
0.0
 40
0.0
 40
0.0
 40
0.0
 40
0.0
 40
0.1151865142193486
 40
0.2303722845209706
 40
0.3455593085211195
 40
0.4607456401104518
 40
0.5759331747572533
 40
0.6911200175171094
 40
0.8063081148753031
 40
0.9214954696717741
 40
1.036684079494895
 40
1.151871947193742
 40
1.267061070347834
 40
1.382249503239353
 40
1.49743914059002
 40
1.612628088202243
 40
1.727818240615588
 40
1.843007703814294
 40
1.958198423796305
 40
2.073388403447353
 40
2.188579640310277
 40
2.303770137279346
 40
2.418960893232275
 40
2.53415295890525
 40
2.649344233475009
 40
2.764536818279677
 40
2.879728612332075
 40
2.994921717134426
 40
3.110114083617649
 40
3.225307709283219
 40
3.340500544898152
 40
3.340500544898152
 40
3.340500544898152
 40
3.340500544898152
 10
57.00189499999996
 20
101.4309229999999
 30
-0.0008959873
 10
57.04024071374091
 20
101.4328777434407
 30
-0.0008959873
 10
57.11693179519824
 20
101.4367891477129
 30
-0.0008959873
 10
57.23196845382327
 20
101.4426613070084
 30
-0.0008959873
 10
57.34700483284481
 20
101.4485377490198
 30
-0.0008959873
 10
57.4620414191293
 20
101.4544216562402
 30
-0.0008959873
 10
57.57707783327593
 20
101.4603077458621
 30
-0.0008959873
 10
57.69211445362284
 20
101.4662013196515
 30
-0.0008959873
 10
57.80715079826856
 20
101.4720991008921
 30
-0.0008959873
 10
57.92218745837664
 20
101.4780022308769
 30
-0.0008959873
 10
58.03722379852472
 20
101.48391010036
 30
-0.0008959873
 10
58.15226045390661
 20
101.4898233217686
 30
-0.0008959873
 10
58.26729683454646
 20
101.4957407384801
 30
-0.0008959873
 10
58.38233341831146
 20
101.5016656836675
 30
-0.0008959873
 10
58.49736983949954
 20
101.5075926477667
 30
-0.0008959873
 10
58.61240641845637
 20
101.5135276837478
 30
-0.0008959873
 10
58.72744283510168
 20
101.5194647384235
 30
-0.0008959873
 10
58.84247945454563
 20
101.5254093219369
 30
-0.0008959873
 10
58.95751579942006
 20
101.5313581006176
 30
-0.0008959873
 10
59.07255245952093
 20
101.5373122296379
 30
-0.0008959873
 10
59.1875887993174
 20
101.5432711070069
 30
-0.0008959873
 10
59.30262512382558
 20
101.5492352791339
 30
-0.0008959873
 10
59.41766149855065
 20
101.5552038176078
 30
-0.0008959873
 10
59.53269775674076
 20
101.5611795996682
 30
-0.0008959873
 10
59.64773450320691
 20
101.5671577332539
 30
-0.0008959873
 10
59.76277075694738
 20
101.5731435986963
 30
-0.0008959873
 10
59.87780749888885
 20
101.5791318214709
 30
-0.0008959873
 10
59.99284379277252
 20
101.5851272479943
 30
-0.0008959873
 10
60.10788046509505
 20
101.591127141456
 30
-0.0008959873
 10
60.2229167721833
 20
101.5971323127337
 30
-0.0008959873
 10
60.29960769464814
 20
101.6011384643942
 30
-0.0008959873
 10
60.33795299999994
 20
101.6031419999999
 30
-0.0008959873
 11
57.00189499999996
 21
101.4309229999999
 31
-0.0008959873
 11
57.11693199999999
 21
101.4367899999997
 31
-0.0008959873
 11
57.23196799999989
 21
101.4426619999997
 31
-0.0008959873
 11
57.34700499999993
 21
101.4485389999999
 31
-0.0008959873
 11
57.46204099999997
 21
101.4544219999998
 31
-0.0008959873
 11
57.577078
 21
101.4603089999999
 31
-0.0008959873
 11
57.69211399999992
 21
101.466202
 31
-0.0008959873
 11
57.80715099999993
 21
101.4720999999999
 31
-0.0008959873
 11
57.92218699999998
 21
101.4780029999997
 31
-0.0008959873
 11
58.0372239999999
 21
101.4839109999999
 31
-0.0008959873
 11
58.15225999999992
 21
101.4898239999999
 31
-0.0008959873
 11
58.26729699999996
 21
101.4957419999999
 31
-0.0008959873
 11
58.38233299999998
 21
101.5016659999999
 31
-0.0008959873
 11
58.4973699999999
 21
101.5075939999997
 31
-0.0008959873
 11
58.61240599999994
 21
101.5135279999999
 31
-0.0008959873
 11
58.72744299999997
 21
101.519466
 31
-0.0008959873
 11
58.842479
 21
101.5254099999999
 31
-0.0008959873
 11
58.95751599999989
 21
101.5313589999999
 31
-0.0008959873
 11
59.07255199999993
 21
101.5373129999999
 31
-0.0008959873
 11
59.18758899999997
 21
101.5432719999999
 31
-0.0008959873
 11
59.30262499999989
 21
101.5492359999999
 31
-0.0008959873
 11
59.41766099999992
 21
101.5552049999999
 31
-0.0008959873
 11
59.53269799999995
 21
101.5611799999999
 31
-0.0008959873
 11
59.64773399999998
 21
101.5671589999999
 31
-0.0008959873
 11
59.7627709999999
 21
101.5731439999999
 31
-0.0008959873
 11
59.87780699999993
 21
101.579133
 31
-0.0008959873
 11
59.99284399999996
 21
101.5851279999999
 31
-0.0008959873
 11
60.10787999999998
 21
101.591128
 31
-0.0008959873
 11
60.22291699999989
 21
101.5971329999999
 31
-0.0008959873
 11
60.33795299999994
 21
101.6031419999999
 31
-0.0008959873
  0
SPLINE
  5
F9B0
330
1E
100
AcDbEntity
  8
CUT
100
AcDbSpline
210
0.0
220
0.0
230
1.0
 70
     8
 71
     3
 72
    36
 73
    32
 74
    30
 42
0.0000000001
 43
0.0000000001
 44
0.0000000001
 12
-0.6913885031689988
 22
-0.7224831746731072
 32
0.0
 13
-0.6914906171016279
 23
-0.7223854417555839
 33
0.0
 40
0.0
 40
0.0
 40
0.0
 40
0.0
 40
0.025597797561514
 40
0.0511955951231618
 40
0.0767933926844401
 40
0.1023897763744042
 40
0.1279868514611429
 40
0.1535839265480356
 40
0.1791810016349903
 40
0.2047773542656348
 40
0.2303737068964181
 40
0.2559700595272216
 40
0.2815664121580884
 40
0.3071627647888766
 40
0.3327583949824837
 40
0.3583540251757113
 40
0.3839496553693951
 40
0.4095452855626746
 40
0.4351402243201779
 40
0.4607351320948782
 40
0.4863300398697467
 40
0.5119249476445287
 40
0.5375198554193205
 40
0.5631140407940548
 40
0.5887089485689183
 40
0.6143031339437294
 40
0.6398973193186797
 40
0.6654907823120229
 40
0.6910849676867724
 40
0.7166784306804904
 40
0.7422718936738537
 40
0.7422718936738537
 40
0.7422718936738537
 40
0.7422718936738537
 10
57.00189499999996
 20
101.4309229999999
 30
-0.0008959873
 10
56.9959956590198
 20
101.4247583406509
 30
-0.0008959873
 10
56.98419699999971
 20
101.4124290000001
 30
-0.0008959873
 10
56.9664990114709
 20
101.3939349890224
 30
-0.0008959873
 10
56.94880127996249
 20
101.3754413844078
 30
-0.0008959873
 10
56.93110399024023
 20
101.3569476903455
 30
-0.0008959873
 10
56.9134059695149
 20
101.3384550291731
 30
-0.0008959873
 10
56.8957079723527
 20
101.3199620264599
 30
-0.0008959873
 10
56.87801030757622
 20
101.3014690389713
 30
-0.0008959873
 10
56.8603119628857
 20
101.2829770355196
 30
-0.0008959873
 10
56.84261400739091
 20
101.2644849929266
 30
-0.0008959873
 10
56.82491600755059
 20
101.2459929927732
 30
-0.0008959873
 10
56.80721796240665
 20
101.22750103598
 30
-0.0008959873
 10
56.78952030932467
 20
101.209009037282
 30
-0.0008959873
 10
56.77182196583918
 20
101.1905180326946
 30
-0.0008959873
 10
56.75412399382891
 20
101.1720270059061
 30
-0.0008959873
 10
56.73642605884402
 20
101.1535359436804
 30
-0.0008959873
 10
56.7187279301611
 20
101.1350453858728
 30
-0.0008959873
 10
56.70103134317134
 20
101.1165536858426
 30
-0.0008959873
 10
56.68333290649337
 20
101.0980640894963
 30
-0.0008959873
 10
56.66563503799593
 20
101.0795739636324
 30
-0.0008959873
 10
56.6479369415226
 20
101.0610840559734
 30
-0.0008959873
 10
56.63023936241584
 20
101.0425939864317
 30
-0.0008959873
 10
56.61254060785656
 20
101.0241050420232
 30
-0.0008959873
 10
56.59484337362126
 20
101.0056149757053
 30
-0.0008959873
 10
56.57714489670411
 20
100.9871260988764
 30
-0.0008959873
 10
56.55944737257669
 20
100.9686369766871
 30
-0.0008959873
 10
56.54174861203276
 20
100.9501490380455
 30
-0.0008959873
 10
56.5240513467529
 20
100.9316600014063
 30
-0.0008959873
 10
56.5063529999999
 20
100.9131719999995
 30
-0.0008959873
 10
56.49455421317297
 20
100.9008467816901
 30
-0.0008959873
 10
56.48865499999995
 20
100.8946839999999
 30
-0.0008959873
 11
57.00189499999996
 21
101.4309229999999
 31
-0.0008959873
 11
56.98419699999996
 21
101.4124289999999
 31
-0.0008959873
 11
56.96649899999997
 21
101.3939349999997
 31
-0.0008959873
 11
56.94880099999998
 21
101.375441
 31
-0.0008959873
 11
56.93110399999998
 21
101.3569479999999
 31
-0.0008959873
 11
56.91340599999998
 21
101.338455
 31
-0.0008959873
 11
56.89570799999998
 21
101.3199619999999
 31
-0.0008959873
 11
56.87800999999999
 21
101.3014689999997
 31
-0.0008959873
 11
56.86031199999999
 21
101.2829769999999
 31
-0.0008959873
 11
56.842614
 21
101.2644849999999
 31
-0.0008959873
 11
56.824916
 21
101.2459929999999
 31
-0.0008959873
 11
56.80721799999989
 21
101.2275009999999
 31
-0.0008959873
 11
56.7895199999999
 21
101.2090089999999
 31
-0.0008959873
 11
56.7718219999999
 21
101.1905179999997
 31
-0.0008959873
 11
56.75412399999991
 21
101.172027
 31
-0.0008959873
 11
56.7364259999999
 21
101.1535359999997
 31
-0.0008959873
 11
56.71872799999992
 21
101.1350449999999
 31
-0.0008959873
 11
56.70103099999991
 21
101.1165539999999
 31
-0.0008959873
 11
56.68333299999993
 21
101.098064
 31
-0.0008959873
 11
56.66563499999992
 21
101.0795739999999
 31
-0.0008959873
 11
56.64793699999993
 21
101.0610839999999
 31
-0.0008959873
 11
56.63023899999993
 21
101.0425939999999
 31
-0.0008959873
 11
56.61254099999993
 21
101.024105
 31
-0.0008959873
 11
56.59484299999993
 21
101.0056149999999
 31
-0.0008959873
 11
56.57714499999993
 21
100.9871259999999
 31
-0.0008959873
 11
56.55944699999995
 21
100.9686369999997
 31
-0.0008959873
 11
56.54174899999995
 21
100.9501489999999
 31
-0.0008959873
 11
56.52405099999995
 21
100.93166
 31
-0.0008959873
 11
56.50635299999996
 21
100.9131719999997
 31
-0.0008959873
 11
56.48865499999995
 21
100.8946839999999
 31
-0.0008959873
  0
SPLINE
  5
F9B1
330
1E
100
AcDbEntity
  8
CUT
100
AcDbSpline
210
0.0
220
0.0
230
1.0
 70
    24
 71
     3
 72
    36
 73
    32
 74
    30
 42
0.0000000001
 43
0.0000000001
 44
0.0000000001
 12
0.0
 22
-1.0
 32
0.0
 13
0.0
 23
-1.0
 33
0.0
 40
0.0
 40
0.0
 40
0.0
 40
0.0
 40
0.6350020000000001
 40
1.2699869999999
 40
1.904954999999901
 40
2.53990499999989
 40
3.174837999999894
 40
3.809751999999932
 40
4.444647999999901
 40
5.079524999999932
 40
5.714382999999941
 40
6.349220999999943
 40
6.984038999999938
 40
7.618836999999899
 40
8.253613999999899
 40
8.888368999999897
 40
9.52310299999992
 40
10.1578149999999
 40
10.79250399999994
 40
11.42716899999993
 40
12.06181199999992
 40
12.69642899999989
 40
13.33102299999987
 40
13.96559099999987
 40
14.60013299999991
 40
15.23464899999992
 40
15.86913799999988
 40
16.50359899999996
 40
17.13803199999996
 40
17.77243699999991
 40
18.40681099999996
 40
18.40681099999996
 40
18.40681099999996
 40
18.40681099999996
 10
56.48865499999995
 20
100.8946839999999
 30
-0.0008959873
 10
56.48865499999995
 20
100.6830166666665
 30
-0.0008959873
 10
56.48865499999995
 20
100.2596876666666
 30
-0.0008959873
 10
56.48865499999995
 20
99.62470266666663
 30
-0.0008959873
 10
56.48865499999995
 20
98.989735
 30
-0.0008959873
 10
56.48865499999995
 20
98.35478466666666
 30
-0.0008959873
 10
56.48865499999995
 20
97.71985233333332
 30
-0.0008959873
 10
56.48865499999995
 20
97.08493800000001
 30
-0.0008959873
 10
56.48865499999995
 20
96.45004233333331
 30
-0.0008959873
 10
56.48865499999996
 20
95.81516533333331
 30
-0.0008959873
 10
56.48865499999994
 20
95.1803076666666
 30
-0.0008959873
 10
56.48865499999995
 20
94.54546966666661
 30
-0.0008959873
 10
56.48865499999994
 20
93.91065166666662
 30
-0.0008959873
 10
56.48865499999994
 20
93.27585399999998
 30
-0.0008959873
 10
56.48865499999995
 20
92.64107733333332
 30
-0.0008959873
 10
56.48865499999995
 20
92.00632200000001
 30
-0.0008959873
 10
56.48865499999993
 20
91.37158833333328
 30
-0.0008959873
 10
56.48865499999996
 20
90.73687666666669
 30
-0.0008959873
 10
56.48865499999994
 20
90.10218799999995
 30
-0.0008959873
 10
56.48865499999994
 20
89.46752233333333
 30
-0.0008959873
 10
56.48865499999995
 20
88.83288066666665
 30
-0.0008959873
 10
56.48865499999994
 20
88.19826266666664
 30
-0.0008959873
 10
56.48865499999994
 20
87.5636696666667
 30
-0.0008959873
 10
56.48865499999996
 20
86.92910166666667
 30
-0.0008959873
 10
56.48865499999995
 20
86.29455966666666
 30
-0.0008959873
 10
56.48865499999995
 20
85.660044
 30
-0.0008959873
 10
56.48865499999996
 20
85.02555533333334
 30
-0.0008959873
 10
56.48865499999994
 20
84.39109433333326
 30
-0.0008959873
 10
56.48865499999995
 20
83.7566613333333
 30
-0.0008959873
 10
56.48865499999995
 20
83.12225733333328
 30
-0.0008959873
 10
56.48865499999995
 20
82.69933099999995
 30
-0.0008959873
 10
56.48865499999995
 20
82.48787299999994
 30
-0.0008959873
 11
56.48865499999995
 21
100.8946839999999
 31
-0.0008959873
 11
56.48865499999995
 21
100.2596819999999
 31
-0.0008959873
 11
56.48865499999995
 21
99.62469699999999
 31
-0.0008959873
 11
56.48865499999995
 21
98.989729
 31
-0.0008959873
 11
56.48865499999995
 21
98.354779
 31
-0.0008959873
 11
56.48865499999995
 21
97.71984600000001
 31
-0.0008959873
 11
56.48865499999995
 21
97.08493199999997
 31
-0.0008959873
 11
56.48865499999995
 21
96.450036
 31
-0.0008959873
 11
56.48865499999995
 21
95.81515899999997
 31
-0.0008959873
 11
56.48865499999995
 21
95.18030099999995
 31
-0.0008959873
 11
56.48865499999995
 21
94.54546299999995
 31
-0.0008959873
 11
56.48865499999995
 21
93.91064499999997
 31
-0.0008959873
 11
56.48865499999995
 21
93.275847
 31
-0.0008959873
 11
56.48865499999995
 21
92.64107
 31
-0.0008959873
 11
56.48865499999995
 21
92.006315
 31
-0.0008959873
 11
56.48865499999995
 21
91.37158099999998
 31
-0.0008959873
 11
56.48865499999995
 21
90.736869
 31
-0.0008959873
 11
56.48865499999995
 21
90.10217999999996
 31
-0.0008959873
 11
56.48865499999995
 21
89.46751499999995
 31
-0.0008959873
 11
56.48865499999995
 21
88.83287199999998
 31
-0.0008959873
 11
56.48865499999995
 21
88.198255
 31
-0.0008959873
 11
56.48865499999995
 21
87.56366100000002
 31
-0.0008959873
 11
56.48865499999995
 21
86.92909300000001
 31
-0.0008959873
 11
56.48865499999995
 21
86.29455099999999
 31
-0.0008959873
 11
56.48865499999995
 21
85.66003499999998
 31
-0.0008959873
 11
56.48865499999995
 21
85.02554600000001
 31
-0.0008959873
 11
56.48865499999995
 21
84.39108499999994
 31
-0.0008959873
 11
56.48865499999995
 21
83.75665199999993
 31
-0.0008959873
 11
56.48865499999995
 21
83.12224699999999
 31
-0.0008959873
 11
56.48865499999995
 21
82.48787299999994
 31
-0.0008959873
  0
SPLINE
  5
F9B2
330
1E
100
AcDbEntity
  8
CUT
100
AcDbSpline
210
0.0
220
0.0
230
1.0
 70
     8
 71
     3
 72
    36
 73
    32
 74
    30
 42
0.0000000001
 43
0.0000000001
 44
0.0000000001
 12
0.7268036335225334
 22
-0.6868453088566909
 32
0.0
 13
0.7268806689694701
 23
-0.6867637825908525
 33
0.0
 40
0.0
 40
0.0
 40
0.0
 40
0.0
 40
0.0243504584966643
 40
0.0487009169933913
 40
0.0730513754900895
 40
0.0974018339868118
 40
0.121752292483514
 40
0.1461027509802122
 40
0.1704525226424149
 40
0.1948029811390689
 40
0.2191534396358159
 40
0.243503211297979
 40
0.267853669794692
 40
0.2922034414568545
 40
0.3165524863046575
 40
0.3409029448013253
 40
0.3652527164635137
 40
0.3896024881256962
 40
0.4139522597878697
 40
0.4383020314500378
 40
0.4626518031122692
 40
0.4870015747744719
 40
0.5113513464366251
 40
0.5357011180988031
 40
0.5600508897609661
 40
0.5843999746103098
 40
0.6087497462724638
 40
0.6330987911202759
 40
0.6574478759695995
 40
0.6817976476317821
 40
0.7061467324810771
 40
0.7061467324810771
 40
0.7061467324810771
 40
0.7061467324810771
 10
56.48865499999995
 20
82.48787299999994
 30
-0.0008959873
 10
56.49455433390439
 20
82.48229800060428
 30
-0.0008959873
 10
56.50635299999987
 20
82.47114799999991
 30
-0.0008959873
 10
56.52405099914368
 20
82.45442299909388
 30
-0.0008959873
 10
56.54174900342511
 20
82.43769800362453
 30
-0.0008959873
 10
56.55944698715563
 20
82.42097298640802
 30
-0.0008959873
 10
56.57714504795205
 20
82.40424805074329
 30
-0.0008959873
 10
56.59484265463993
 20
82.38752296787057
 30
-0.0008959873
 10
56.61254133508787
 20
82.37079902125939
 30
-0.0008959873
 10
56.63023900341015
 20
82.35407400360871
 30
-0.0008959873
 10
56.64793665127142
 20
82.337348964306
 30
-0.0008959873
 10
56.66563539310094
 20
82.32062508264931
 30
-0.0008959873
 10
56.68333260832469
 20
82.30389991885934
 30
-0.0008959873
 10
56.70103099910067
 20
82.28717635178496
 30
-0.0008959873
 10
56.71872833873211
 20
82.27045167237923
 30
-0.0008959873
 10
56.73642570084423
 20
82.25372701676446
 30
-0.0008959873
 10
56.75412403556645
 20
82.23700303763679
 30
-0.0008959873
 10
56.7718219904852
 20
82.22027898993147
 30
-0.0008959873
 10
56.78952000249205
 20
82.20355500263721
 30
-0.0008959873
 10
56.80721799954594
 20
82.18683099951958
 30
-0.0008959873
 10
56.82491599932367
 20
82.17010699928428
 30
-0.0008959873
 10
56.84261400315932
 20
82.15338300334346
 30
-0.0008959873
 10
56.86031198803893
 20
82.13665898734186
 30
-0.0008959873
 10
56.878010044685
 20
82.11993504728907
 30
-0.0008959873
 10
56.89570766682563
 20
82.10321098074368
 30
-0.0008959873
 10
56.91340628961657
 20
82.08648797316248
 30
-0.0008959873
 10
56.93110399702308
 20
82.06976434958617
 30
-0.0008959873
 10
56.94880066579133
 20
82.05303962691399
 30
-0.0008959873
 10
56.96649939797969
 20
82.0363170878311
 30
-0.0008959873
 10
56.98419675039394
 20
82.01959306919512
 30
-0.0008959873
 10
56.99599537363861
 20
82.00844402320459
 30
-0.0008959873
 10
57.00189499999996
 20
82.00287000000001
 30
-0.0008959873
 11
56.48865499999995
 21
82.48787299999994
 31
-0.0008959873
 11
56.50635299999996
 21
82.47114800000002
 31
-0.0008959873
 11
56.52405099999995
 21
82.45442299999998
 31
-0.0008959873
 11
56.54174899999995
 21
82.437698
 31
-0.0008959873
 11
56.55944699999995
 21
82.42097299999997
 31
-0.0008959873
 11
56.57714499999993
 21
82.40424799999997
 31
-0.0008959873
 11
56.59484299999993
 21
82.38752299999999
 31
-0.0008959873
 11
56.61254099999993
 21
82.37079899999995
 31
-0.0008959873
 11
56.63023899999993
 21
82.35407400000003
 31
-0.0008959873
 11
56.64793699999993
 21
82.33734899999998
 31
-0.0008959873
 11
56.66563499999992
 21
82.32062499999997
 31
-0.0008959873
 11
56.68333299999993
 21
82.30389999999998
 31
-0.0008959873
 11
56.70103099999991
 21
82.28717599999997
 31
-0.0008959873
 11
56.71872799999992
 21
82.27045199999997
 31
-0.0008959873
 11
56.7364259999999
 21
82.25372700000001
 31
-0.0008959873
 11
56.75412399999991
 21
82.237003
 31
-0.0008959873
 11
56.7718219999999
 21
82.22027899999998
 31
-0.0008959873
 11
56.7895199999999
 21
82.20355499999998
 31
-0.0008959873
 11
56.80721799999989
 21
82.18683099999998
 31
-0.0008959873
 11
56.824916
 21
82.17010700000001
 31
-0.0008959873
 11
56.842614
 21
82.15338299999997
 31
-0.0008959873
 11
56.86031199999999
 21
82.136659
 31
-0.0008959873
 11
56.87800999999999
 21
82.11993499999998
 31
-0.0008959873
 11
56.89570799999998
 21
82.10321099999999
 31
-0.0008959873
 11
56.91340599999998
 21
82.08648799999997
 31
-0.0008959873
 11
56.93110399999998
 21
82.069764
 31
-0.0008959873
 11
56.94880099999998
 21
82.05303999999998
 31
-0.0008959873
 11
56.96649899999997
 21
82.03631699999998
 31
-0.0008959873
 11
56.98419699999996
 21
82.01959299999996
 31
-0.0008959873
 11
57.00189499999996
 21
82.00287000000001
 31
-0.0008959873
  0
SPLINE
  5
F9B3
330
1E
100
AcDbEntity
  8
CUT
100
AcDbSpline
210
0.0
220
0.0
230
1.0
 70
     8
 71
     3
 72
    36
 73
    32
 74
    30
 42
0.0000000001
 43
0.0000000001
 44
0.0000000001
 12
0.9988495441568961
 22
0.0479540210781199
 32
0.0
 13
0.9987703113909084
 23
0.0495768603696112
 33
0.0
 40
0.0
 40
0.0
 40
0.0
 40
0.0
 40
0.1151696969606435
 40
0.2303387312188938
 40
0.3455090527822557
 40
0.4606787124370836
 40
0.5758496600671478
 40
0.691019946582304
 40
0.8061914734194585
 40
0.9213623398745216
 40
1.036534544029783
 40
1.151706040160583
 40
1.266878826225732
 40
1.382050953496196
 40
1.497224371371071
 40
1.61239708253135
 40
1.727571084914738
 40
1.842744430029863
 40
1.957919115916016
 40
2.073093047519521
 40
2.188268320616701
 40
2.303442938032954
 40
2.418617849888827
 40
2.533794055287367
 40
2.64896955695767
 40
2.764146402048081
 40
2.879322544091513
 40
2.994499980966133
 40
3.109676764846405
 40
3.224854844227778
 40
3.340032271408665
 40
3.340032271408665
 40
3.340032271408665
 40
3.340032271408665
 10
57.00189499999996
 20
82.00287000000001
 30
-0.0008959873
 10
57.04024073310324
 20
82.00471095002521
 30
-0.0008959873
 10
57.11693183571497
 20
82.00839581742242
 30
-0.0008959873
 10
57.23196846975028
 20
82.01393016564571
 30
-0.0008959873
 10
57.34700484449543
 20
82.01946964317418
 30
-0.0008959873
 10
57.4620414670363
 20
82.0250172286367
 30
-0.0008959873
 10
57.57707784864781
 20
82.03056956584886
 30
-0.0008959873
 10
57.69211443935173
 20
82.03613047420233
 30
-0.0008959873
 10
57.80715084466701
 20
82.04169465584556
 30
-0.0008959873
 10
57.92218750122597
 20
82.0472668694655
 30
-0.0008959873
 10
58.03722381246895
 20
82.05284599531713
 30
-0.0008959873
 10
58.15226047363096
 20
82.05843111164588
 30
-0.0008959873
 10
58.26729684423916
 20
82.06402168202435
 30
-0.0008959873
 10
58.38233347320329
 20
82.06962012737092
 30
-0.0008959873
 10
58.49736981616344
 20
82.07522393280738
 30
-0.0008959873
 10
58.61240647468568
 20
82.0808341030181
 30
-0.0008959873
 10
58.72744284024662
 20
82.08644977979284
 30
-0.0008959873
 10
58.84247950881474
 20
82.09207274579046
 30
-0.0008959873
 10
58.95751577926944
 20
82.0977033668978
 30
-0.0008959873
 10
59.07255250923828
 20
82.1033377442721
 30
-0.0008959873
 10
59.18758884075161
 20
82.10897978623945
 30
-0.0008959873
 10
59.30262514432825
 20
82.1146290624954
 30
-0.0008959873
 10
59.41766148049638
 20
82.12028400794386
 30
-0.0008959873
 10
59.53269781204346
 20
82.12594504729054
 30
-0.0008959873
 10
59.64773450920772
 20
82.1316117653709
 30
-0.0008959873
 10
59.76277081361473
 20
82.1372860224679
 30
-0.0008959873
 10
59.87780747623192
 20
82.14296610724529
 30
-0.0008959873
 10
59.9928438475869
 20
82.14865167531845
 30
-0.0008959873
 10
60.10788047401693
 20
82.15434515886791
 30
-0.0008959873
 10
60.2229168409498
 20
82.16004381718702
 30
-0.0008959873
 10
60.29960773506305
 20
82.16384762159163
 30
-0.0008959873
 10
60.33795299999994
 20
82.16575099999998
 30
-0.0008959873
 11
57.00189499999996
 21
82.00287000000001
 31
-0.0008959873
 11
57.11693199999999
 21
82.00839699999999
 31
-0.0008959873
 11
57.23196799999989
 21
82.013931
 31
-0.0008959873
 11
57.34700499999993
 21
82.01947099999998
 31
-0.0008959873
 11
57.46204099999997
 21
82.02501799999998
 31
-0.0008959873
 11
57.577078
 21
82.030571
 31
-0.0008959873
 11
57.69211399999992
 21
82.03613100000003
 31
-0.0008959873
 11
57.80715099999993
 21
82.04169599999998
 31
-0.0008959873
 11
57.92218699999998
 21
82.04726799999994
 31
-0.0008959873
 11
58.0372239999999
 21
82.05284699999998
 31
-0.0008959873
 11
58.15225999999992
 21
82.05843199999995
 31
-0.0008959873
 11
58.26729699999996
 21
82.06402299999998
 31
-0.0008959873
 11
58.38233299999998
 21
82.06962099999996
 31
-0.0008959873
 11
58.4973699999999
 21
82.07522499999997
 31
-0.0008959873
 11
58.61240599999994
 21
82.08083499999997
 31
-0.0008959873
 11
58.72744299999997
 21
82.086451
 31
-0.0008959873
 11
58.842479
 21
82.09207400000002
 31
-0.0008959873
 11
58.95751599999989
 21
82.09770400000001
 31
-0.0008959873
 11
59.07255199999993
 21
82.103339
 31
-0.0008959873
 11
59.18758899999997
 21
82.10898100000001
 31
-0.0008959873
 11
59.30262499999989
 21
82.11462999999993
 31
-0.0008959873
 11
59.41766099999992
 21
82.120285
 31
-0.0008959873
 11
59.53269799999995
 21
82.12594599999999
 31
-0.0008959873
 11
59.64773399999998
 21
82.13161300000001
 31
-0.0008959873
 11
59.7627709999999
 21
82.137287
 31
-0.0008959873
 11
59.87780699999993
 21
82.14296699999998
 31
-0.0008959873
 11
59.99284399999996
 21
82.14865300000003
 31
-0.0008959873
 11
60.10787999999998
 21
82.15434599999992
 31
-0.0008959873
 11
60.22291699999989
 21
82.16004500000002
 31
-0.0008959873
 11
60.33795299999994
 21
82.16575099999998
 31
-0.0008959873
  0
SPLINE
  5
F9B4
330
1E
100
AcDbEntity
  8
CUT
100
AcDbSpline
210
0.0
220
0.0
230
1.0
 70
     8
 71
     3
 72
    36
 73
    32
 74
    30
 42
0.0000000001
 43
0.0000000001
 44
0.0000000001
 12
-0.8275181782545047
 22
-0.5614389233552889
 32
0.0
 13
-0.827826215607441
 23
-0.5609846314767122
 33
0.0
 40
0.0
 40
0.0
 40
0.0
 40
0.0
 40
0.0421411249256273
 40
0.0842802994903984
 40
0.1264203016023689
 40
0.1685597423319838
 40
0.2106986216952759
 40
0.2528369397086854
 40
0.2949744301418533
 40
0.3371116255040957
 40
0.3792488208664361
 40
0.4213854549274988
 40
0.4635215277037493
 40
0.5056570392112051
 40
0.54779116181988
 40
0.5899261120749684
 40
0.632059939874061
 40
0.6741937676730514
 40
0.7163270342684206
 40
0.7584597396765356
 40
0.8005910562118124
 40
0.8427226392939084
 40
0.8848542223759224
 40
0.9269846831970824
 40
0.969115144018172
 40
1.0112442159876
 40
1.053373554612782
 40
1.095502332164552
 40
1.137630548658888
 40
1.179758765153248
 40
1.221885859581965
 40
1.221885859581965
 40
1.221885859581965
 40
1.221885859581965
 10
61.34926499999989
 20
82.85150099999997
 30
-0.0008959873
 10
61.33764081769054
 20
82.84361444406423
 30
-0.0008959873
 10
61.31439264032849
 20
82.82784221414347
 30
-0.0008959873
 10
61.27951980103397
 20
82.80418480193146
 30
-0.0008959873
 10
61.24464725044909
 20
82.78052796413589
 30
-0.0008959873
 10
61.20977420775552
 20
82.75687202706141
 30
-0.0008959873
 10
61.17490131223249
 20
82.73321687301642
 30
-0.0008959873
 10
61.14002801045102
 20
82.70956347602361
 30
-0.0008959873
 10
61.10515648028539
 20
82.68590846711939
 30
-0.0008959873
 10
61.07028286649327
 20
82.66225719683626
 30
-0.0008959873
 10
61.03541028998757
 20
82.63860490576506
 30
-0.0008959873
 10
61.00053721232166
 20
82.61495402026014
 30
-0.0008959873
 10
60.96566425432258
 20
82.59130395831538
 30
-0.0008959873
 10
60.93079139229471
 20
82.5676552463851
 30
-0.0008959873
 10
60.8959187852018
 20
82.54400682520865
 30
-0.0008959873
 10
60.86104656140847
 20
82.52035883873677
 30
-0.0008959873
 10
60.82617290853272
 20
82.49671313489185
 30
-0.0008959873
 10
60.79130026896846
 20
82.47306693665583
 30
-0.0008959873
 10
60.75642725424216
 20
82.44942195834999
 30
-0.0008959873
 10
60.72155433589363
 20
82.42577832956142
 30
-0.0008959873
 10
60.68668216578654
 20
82.40213459713295
 30
-0.0008959873
 10
60.65180886935916
 20
82.37849319270237
 30
-0.0008959873
 10
60.61693659286831
 20
82.35485079212455
 30
-0.0008959873
 10
60.58206292665978
 20
82.33121110818311
 30
-0.0008959873
 10
60.54719039334258
 20
82.30757124481332
 30
-0.0008959873
 10
60.51231810880553
 20
82.28393168107158
 30
-0.0008959873
 10
60.47744519442463
 20
82.26029404649173
 30
-0.0008959873
 10
60.44257227841678
 20
82.23665692256062
 30
-0.0008959873
 10
60.40769893039345
 20
82.2130211026956
 30
-0.0008959873
 10
60.37282646442791
 20
82.18938498143018
 30
-0.0008959873
 10
60.34957763771842
 20
82.17362855084775
 30
-0.0008959873
 10
60.33795299999994
 20
82.16575099999998
 30
-0.0008959873
 11
61.34926499999989
 21
82.85150099999997
 31
-0.0008959873
 11
61.31439199999997
 21
82.82784199999992
 31
-0.0008959873
 11
61.27951999999989
 21
82.80418500000001
 31
-0.0008959873
 11
61.24464699999997
 21
82.78052799999997
 31
-0.0008959873
 11
61.2097739999999
 21
82.75687199999998
 31
-0.0008959873
 11
61.17490099999995
 21
82.73321700000002
 31
-0.0008959873
 11
61.140028
 21
82.70956299999998
 31
-0.0008959873
 11
61.10515599999993
 21
82.68590899999997
 31
-0.0008959873
 11
61.07028299999999
 21
82.66225699999997
 31
-0.0008959873
 11
61.03540999999992
 21
82.63860499999998
 31
-0.0008959873
 11
61.00053699999998
 21
82.61495399999999
 31
-0.0008959873
 11
60.96566399999993
 21
82.59130399999994
 31
-0.0008959873
 11
60.93079099999997
 21
82.56765499999998
 31
-0.0008959873
 11
60.89591899999991
 21
82.54400700000003
 31
-0.0008959873
 11
60.86104599999996
 21
82.52035899999997
 31
-0.0008959873
 11
60.8261729999999
 21
82.49671299999999
 31
-0.0008959873
 11
60.79129999999995
 21
82.47306700000001
 31
-0.0008959873
 11
60.756427
 21
82.44942200000002
 31
-0.0008959873
 11
60.72155399999993
 21
82.42577799999997
 31
-0.0008959873
 11
60.68668199999999
 21
82.40213499999997
 31
-0.0008959873
 11
60.65180899999994
 21
82.37849299999998
 31
-0.0008959873
 11
60.61693599999998
 21
82.35485099999998
 31
-0.0008959873
 11
60.58206299999993
 21
82.33121099999998
 31
-0.0008959873
 11
60.54718999999997
 21
82.30757099999998
 31
-0.0008959873
 11
60.51231799999991
 21
82.28393199999997
 31
-0.0008959873
 11
60.47744499999996
 21
82.26029399999999
 31
-0.0008959873
 11
60.44257199999989
 21
82.23665699999996
 31
-0.0008959873
 11
60.40769899999995
 21
82.213021
 31
-0.0008959873
 11
60.37282600000001
 21
82.189385
 31
-0.0008959873
 11
60.33795299999994
 21
82.16575099999998
 31
-0.0008959873
  0
LINE
  5
FE8F
330
1E
100
AcDbEntity
  8
NOCUT
100
AcDbLine
 10
0.0
 20
0.0
 30
0.0
 11
61.60000000000001
 21
0.0
 31
0.0
  0
TEXT
  5
10107
330
1E
100
AcDbEntity
  8
6
100
AcDbText
 10
96.31392177877977
 20
-10.18863327761573
 30
0.0
 40
3.5
  1
Z=22/3
 50
90.0
100
AcDbText
  0
TEXT
  5
10109
330
1E
100
AcDbEntity
  8
6
100
AcDbText
 10
70.26297280829976
 20
109.8587569461819
 30
0.0
 40
2.5
  1
YDA334L102
100
AcDbText
  0
TEXT
  5
10170
330
1E
100
AcDbEntity
  8
6
100
AcDbText
 10
70.05531141423261
 20
114.0487144311689
 30
0.0
 40
2.5
  1
SPE-33R101
100
AcDbText
  0
LWPOLYLINE
  5
102EF
330
1E
100
AcDbEntity
  8
1
100
AcDbPolyline
 90
        3
 70
     1
 43
0.0
 10
0.0
 20
-0.0000000000000568
 10
-2.950972054112583
 20
-0.0000000000000568
 42
0.4142135623730966
 10
0.0
 20
-2.950972054112583
  0
LINE
  5
102F0
330
1E
100
AcDbEntity
  8
1
100
AcDbLine
 10
-2.950972054112837
 20
-0.0000000000000568
 30
0.0
 11
2.950972054112583
 21
-0.0000000000000568
 31
0.0
  0
HATCH
  5
102F1
330
1E
100
AcDbEntity
  8
1
100
AcDbHatch
 10
0.0
 20
0.0
 30
0.0
210
0.0
220
0.0
230
1.0
  2
SOLID
 70
     1
 71
     0
 91
        2
 92
        7
 72
     1
 73
     1
 93
        3
 10
0.0
 20
-0.0000000000000568
 42
0.0
 10
2.950972054112583
 20
-0.0000000000000568
 42
0.4142135623730966
 10
0.0
 20
2.950972054112583
 42
0.0
 97
        0
 92
        7
 72
     1
 73
     1
 93
        3
 10
0.0
 20
-2.950972054112526
 42
0.0
 10
0.0
 20
-0.0000000000000568
 42
0.0
 10
-2.950972054112583
 20
-0.0000000000000568
 42
0.4142135623730953
 97
        0
 75
     0
 76
     1
 47
0.1190009775223266
 98
        2
 10
0.7445530588119027
 20
0.9212244733764691
 10
-1.279464601852936
 20
-1.696796923046291
  0
CIRCLE
  5
102F2
330
1E
100
AcDbEntity
  8
1
100
AcDbCircle
 10
0.0
 20
-0.0000000000000568
 30
0.0
 40
2.950972054112601
  0
LINE
  5
102F3
330
1E
100
AcDbEntity
  8
1
100
AcDbLine
 10
0.0
 20
2.950972054112583
 30
0.0
 11
0.0
 21
-2.950972054112583
 31
0.0
  0
LWPOLYLINE
  5
102F4
330
1E
100
AcDbEntity
  8
1
100
AcDbPolyline
 90
        3
 70
     1
 43
0.0
 10
0.0
 20
2.950972054112583
 10
0.0
 20
-0.0000000000000568
 10
2.950972054112583
 20
-0.0000000000000568
 42
0.4142135623730966
  0
CIRCLE
  5
1030F
330
1E
100
AcDbEntity
  8
1
100
AcDbCircle
 10
63.0
 20
100.0
 30
0.0
 40
0.463769369848821
  0
LINE
  5
10310
330
1E
100
AcDbEntity
  8
1
100
AcDbLine
 10
62.53623063015114
 20
100.0
 30
0.0
 11
63.46376936984886
 21
100.0
 31
0.0
  0
LINE
  5
10311
330
1E
100
AcDbEntity
  8
1
100
AcDbLine
 10
63.0
 20
100.4637693698489
 30
0.0
 11
63.0
 21
99.53623063015124
 31
0.0
  0
ENDSEC
  0
SECTION
  2
OBJECTS
  0
DICTIONARY
  5
C
330
0
100
AcDbDictionary
281
     1
  3
ACAD_COLOR
350
104DD
  3
ACAD_GROUP
350
D
  3
ACAD_LAYOUT
350
19
  3
ACAD_MATERIAL
350
104DC
  3
ACAD_MLINESTYLE
350
16
  3
ACAD_PLOTSETTINGS
350
18
  3
ACAD_PLOTSTYLENAME
350
A31D
  3
ACAD_TABLESTYLE
350
104DE
  3
ACDBHEADERROUNDTRIPXREC
350
104F0
  3
AcDbVariableDictionary
350
104EB
1001
ACAD
1000
TREAT_AS_HARD
1070
     0
  0
DICTIONARY
  5
7537
330
1E
100
AcDbDictionary
280
     1
281
     1
  3
ACAD_LAYOUTSELFREF
360
7538
  0
DICTIONARY
  5
7535
330
1A
100
AcDbDictionary
280
     1
281
     1
  3
ACAD_LAYOUTSELFREF
360
7536
  0
DICTIONARY
  5
104DD
102
{ACAD_REACTORS
330
C
102
}
330
C
100
AcDbDictionary
281
     1
  0
DICTIONARY
  5
D
102
{ACAD_REACTORS
330
C
102
}
330
C
100
AcDbDictionary
281
     1
1001
ACAD
1000
TREAT_AS_HARD
1070
     0
  0
DICTIONARY
  5
19
102
{ACAD_REACTORS
330
C
102
}
330
C
100
AcDbDictionary
281
     1
  3
Layout1
350
A320
  3
Model
350
A31F
1001
ACAD
1000
TREAT_AS_HARD
1070
     0
  0
DICTIONARY
  5
104DC
102
{ACAD_REACTORS
330
C
102
}
330
C
100
AcDbDictionary
281
     1
  0
DICTIONARY
  5
16
102
{ACAD_REACTORS
330
C
102
}
330
C
100
AcDbDictionary
281
     1
  3
STANDARD
350
17
1001
ACAD
1000
TREAT_AS_HARD
1070
     0
  0
DICTIONARY
  5
18
102
{ACAD_REACTORS
330
C
102
}
330
C
100
AcDbDictionary
281
     1
1001
ACAD
1000
TREAT_AS_HARD
1070
     0
  0
ACDBDICTIONARYWDFLT
  5
A31D
102
{ACAD_REACTORS
330
C
102
}
330
C
100
AcDbDictionary
281
     1
  3
Normal
350
A31E
100
AcDbDictionaryWithDefault
340
A31E
  0
DICTIONARY
  5
104DE
102
{ACAD_REACTORS
330
C
102
}
330
C
100
AcDbDictionary
281
     1
  3
Standard
350
104DF
  0
DICTIONARY
  5
104F0
102
{ACAD_REACTORS
330
C
102
}
330
C
100
AcDbDictionary
281
     1
  0
DICTIONARY
  5
104EB
102
{ACAD_REACTORS
330
C
102
}
330
C
100
AcDbDictionary
281
     1
  3
CTABLESTYLE
350
104EC
  3
DIMASSOC
350
104ED
  3
PROJECTNAME
350
104EE
  0
XRECORD
  5
7538
102
{ACAD_REACTORS
330
7537
102
}
330
7537
100
AcDbXrecord
280
     1
340
1E
  0
XRECORD
  5
7536
102
{ACAD_REACTORS
330
7535
102
}
330
7535
100
AcDbXrecord
280
     1
340
1A
  0
LAYOUT
  5
A320
102
{ACAD_XDICTIONARY
360
104F3
102
}
102
{ACAD_REACTORS
330
19
102
}
330
19
100
AcDbPlotSettings
  1

  2
\\ingdom02\ITB3
  4

  6

 40
0.0
 41
0.0
 42
0.0
 43
0.0
 44
0.0
 45
0.0
 46
0.0
 47
0.0
 48
0.0
 49
0.0
140
0.0
141
0.0
142
1.0
143
1.0
 70
   688
 72
     0
 73
     0
 74
     5
  7

 75
    16
147
1.0
148
0.0
149
0.0
100
AcDbLayout
  1
Layout1
 70
     1
 71
     1
 10
0.0
 20
0.0
 11
12.0
 21
9.0
 12
0.0
 22
0.0
 32
0.0
 14
100.0
 24
100.0
 34
100.0
 15
-100.0
 25
-100.0
 35
-100.0
146
0.0
 13
0.0
 23
0.0
 33
0.0
 16
1.0
 26
0.0
 36
0.0
 17
0.0
 27
1.0
 37
0.0
 76
     0
330
1A
  0
LAYOUT
  5
A31F
102
{ACAD_XDICTIONARY
360
104F1
102
}
102
{ACAD_REACTORS
330
19
102
}
330
19
100
AcDbPlotSettings
  1

  2
\\ingdom02\ITB3
  4

  6

 40
0.0
 41
0.0
 42
0.0
 43
0.0
 44
0.0
 45
0.0
 46
0.0
 47
0.0
 48
0.0
 49
0.0
140
0.0
141
0.0
142
1.0
143
1.0
 70
  1712
 72
     0
 73
     0
 74
     0
  7

 75
     0
147
1.0
148
0.0
149
0.0
100
AcDbLayout
  1
Model
 70
     1
 71
     0
 10
0.0
 20
0.0
 11
12.0
 21
9.0
 12
0.0
 22
0.0
 32
0.0
 14
0.0
 24
0.0
 34
0.0
 15
0.0
 25
0.0
 35
0.0
146
0.0
 13
0.0
 23
0.0
 33
0.0
 16
1.0
 26
0.0
 36
0.0
 17
0.0
 27
1.0
 37
0.0
 76
     0
330
1E
  0
MLINESTYLE
  5
17
102
{ACAD_REACTORS
330
16
102
}
330
16
100
AcDbMlineStyle
  2
STANDARD
 70
     0
  3

 62
   256
 51
90.0
 52
90.0
 71
     2
 49
0.5
 62
   256
  6
BYLAYER
 49
-0.5
 62
   256
  6
BYLAYER
  0
ACDBPLACEHOLDER
  5
A31E
102
{ACAD_REACTORS
330
A31D
102
}
330
A31D
  0
TABLESTYLE
  5
104DF
102
{ACAD_REACTORS
330
104DE
102
}
330
104DE
100
AcDbTableStyle
  3
Standard
 70
     0
 71
     0
 40
0.06
 41
0.06
280
     0
281
     0
  7
STANDARD
140
0.18
170
     2
 62
     0
 63
     7
283
     0
274
    -2
284
     1
 64
     0
275
    -2
285
     1
 65
     0
276
    -2
286
     1
 66
     0
277
    -2
287
     1
 67
     0
278
    -2
288
     1
 68
     0
279
    -2
289
     1
 69
     0
  7
STANDARD
140
0.25
170
     5
 62
     0
 63
     7
283
     0
274
    -2
284
     1
 64
     0
275
    -2
285
     1
 65
     0
276
    -2
286
     1
 66
     0
277
    -2
287
     1
 67
     0
278
    -2
288
     1
 68
     0
279
    -2
289
     1
 69
     0
  7
STANDARD
140
0.18
170
     5
 62
     0
 63
     7
283
     0
274
    -2
284
     1
 64
     0
275
    -2
285
     1
 65
     0
276
    -2
286
     1
 66
     0
277
    -2
287
     1
 67
     0
278
    -2
288
     1
 68
     0
279
    -2
289
     1
 69
     0
  0
DICTIONARYVAR
  5
104EC
102
{ACAD_REACTORS
330
104EB
102
}
330
104EB
100
DictionaryVariables
280
     0
  1
STANDARD
  0
DICTIONARYVAR
  5
104ED
102
{ACAD_REACTORS
330
104EB
102
}
330
104EB
100
DictionaryVariables
280
     0
  1
1
  0
DICTIONARYVAR
  5
104EE
102
{ACAD_REACTORS
330
104EB
102
}
330
104EB
100
DictionaryVariables
280
     0
  1

  0
DICTIONARY
  5
104F3
330
A320
100
AcDbDictionary
280
     1
281
     1
  3
ACAD_XREC_ROUNDTRIP
360
104F4
  0
DICTIONARY
  5
104F1
330
A31F
100
AcDbDictionary
280
     1
281
     1
  3
ACAD_XREC_ROUNDTRIP
360
104F2
  0
XRECORD
  5
104F4
102
{ACAD_REACTORS
330
104F3
102
}
330
104F3
100
AcDbXrecord
280
     1
102
SHADEPLOT
 70
     0
102
SHADEPLOTRESLEVEL
 70
     2
102
SHADEPLOTCUSTOMDPI
 70
   300
  0
XRECORD
  5
104F2
102
{ACAD_REACTORS
330
104F1
102
}
330
104F1
100
AcDbXrecord
280
     1
102
SHADEPLOT
 70
     0
102
SHADEPLOTRESLEVEL
 70
     2
102
SHADEPLOTCUSTOMDPI
 70
   300
  0
ENDSEC
  0
EOF
