  0
SECTION
  2
HEADER
  9
$ACADVER
  1
AC1015
  9
$ACADMAINTVER
 70
    20
  9
$DWGCODEPAGE
  3
ANSI_1252
  9
$INSBASE
 10
0.0
 20
0.0
 30
0.0
  9
$EXTMIN
 10
-49.00489600962555
 20
-116.6964925510726
 30
-0.000377736926385
  9
$EXTMAX
 10
116.4245326828272
 20
97.90699828604056
 30
0.0000000115281439
  9
$LIMMIN
 10
0.0
 20
0.0
  9
$LIMMAX
 10
841.0
 20
594.0
  9
$ORTHOMODE
 70
     0
  9
$REGENMODE
 70
     1
  9
$FILLMODE
 70
     1
  9
$QTEXTMODE
 70
     0
  9
$MIRRTEXT
 70
     1
  9
$LTSCALE
 40
10.0
  9
$ATTMODE
 70
     1
  9
$TEXTSIZE
 40
0.2
  9
$TRACEWID
 40
0.05
  9
$TEXTSTYLE
  7
STANDARD
  9
$CLAYER
  8
0
  9
$CELTYPE
  6
BYLAYER
  9
$CECOLOR
 62
   256
  9
$CELTSCALE
 40
1.0
  9
$DISPSILH
 70
     0
  9
$DIMSCALE
 40
1.0
  9
$DIMASZ
 40
2.5
  9
$DIMEXO
 40
5.256249999999996
  9
$DIMDLI
 40
31.958
  9
$DIMRND
 40
0.0
  9
$DIMDLE
 40
0.0
  9
$DIMEXE
 40
15.13799999999999
  9
$DIMTP
 40
0.01
  9
$DIMTM
 40
0.01
  9
$DIMTXT
 40
3.5
  9
$DIMCEN
 40
7.568999999999999
  9
$DIMTSZ
 40
0.0
  9
$DIMTOL
 70
     1
  9
$DIMLIM
 70
     0
  9
$DIMTIH
 70
     1
  9
$DIMTOH
 70
     1
  9
$DIMSE1
 70
     0
  9
$DIMSE2
 70
     0
  9
$DIMTAD
 70
     0
  9
$DIMZIN
 70
     0
  9
$DIMBLK
  1
_FILLED
  9
$DIMASO
 70
     1
  9
$DIMSHO
 70
     1
  9
$DIMPOST
  1

  9
$DIMAPOST
  1

  9
$DIMALT
 70
     0
  9
$DIMALTD
 70
     2
  9
$DIMALTF
 40
25.4
  9
$DIMLFAC
 40
1.0
  9
$DIMTOFL
 70
     0
  9
$DIMTVP
 40
0.0
  9
$DIMTIX
 70
     0
  9
$DIMSOXD
 70
     0
  9
$DIMSAH
 70
     0
  9
$DIMBLK1
  1

  9
$DIMBLK2
  1

  9
$DIMSTYLE
  2
STANDARD
  9
$DIMCLRD
 70
     0
  9
$DIMCLRE
 70
     0
  9
$DIMCLRT
 70
     0
  9
$DIMTFAC
 40
1.0
  9
$DIMGAP
 40
0.09
  9
$DIMJUST
 70
     0
  9
$DIMSD1
 70
     0
  9
$DIMSD2
 70
     0
  9
$DIMTOLJ
 70
     1
  9
$DIMTZIN
 70
     0
  9
$DIMALTZ
 70
     0
  9
$DIMALTTZ
 70
     0
  9
$DIMUPT
 70
     0
  9
$DIMDEC
 70
     4
  9
$DIMTDEC
 70
     4
  9
$DIMALTU
 70
     2
  9
$DIMALTTD
 70
     2
  9
$DIMTXSTY
  7
STANDARD
  9
$DIMAUNIT
 70
     0
  9
$DIMADEC
 70
     0
  9
$DIMALTRND
 40
0.0
  9
$DIMAZIN
 70
     0
  9
$DIMDSEP
 70
    46
  9
$DIMATFIT
 70
     3
  9
$DIMFRAC
 70
     0
  9
$DIMLDRBLK
  1
_FILLED
  9
$DIMLUNIT
 70
     2
  9
$DIMLWD
 70
    -2
  9
$DIMLWE
 70
    -2
  9
$DIMTMOVE
 70
     0
  9
$LUNITS
 70
     2
  9
$LUPREC
 70
     4
  9
$SKETCHINC
 40
0.1
  9
$FILLETRAD
 40
0.0
  9
$AUNITS
 70
     0
  9
$AUPREC
 70
     0
  9
$MENU
  1

  9
$ELEVATION
 40
0.0
  9
$PELEVATION
 40
0.0
  9
$THICKNESS
 40
0.0
  9
$LIMCHECK
 70
     0
  9
$CHAMFERA
 40
0.0
  9
$CHAMFERB
 40
0.0
  9
$CHAMFERC
 40
0.0
  9
$CHAMFERD
 40
0.0
  9
$SKPOLY
 70
     0
  9
$TDCREATE
 40
2453446.362157292
  9
$TDUCREATE
 40
2453446.278823958
  9
$TDUPDATE
 40
2453908.564856331
  9
$TDUUPDATE
 40
2453908.481522998
  9
$TDINDWG
 40
0.1609406481
  9
$TDUSRTIMER
 40
0.0421041667
  9
$USRTIMER
 70
     1
  9
$ANGBASE
 50
0.0
  9
$ANGDIR
 70
     0
  9
$PDMODE
 70
     0
  9
$PDSIZE
 40
0.3125
  9
$PLINEWID
 40
0.0
  9
$SPLFRAME
 70
     0
  9
$SPLINETYPE
 70
     6
  9
$SPLINESEGS
 70
     8
  9
$HANDSEED
  5
FDDD
  9
$SURFTAB1
 70
     6
  9
$SURFTAB2
 70
     6
  9
$SURFTYPE
 70
     6
  9
$SURFU
 70
     6
  9
$SURFV
 70
     6
  9
$UCSBASE
  2

  9
$UCSNAME
  2

  9
$UCSORG
 10
0.0
 20
0.0
 30
0.0
  9
$UCSXDIR
 10
1.0
 20
0.0
 30
0.0
  9
$UCSYDIR
 10
0.0
 20
1.0
 30
0.0
  9
$UCSORTHOREF
  2

  9
$UCSORTHOVIEW
 70
     0
  9
$UCSORGTOP
 10
0.0
 20
0.0
 30
0.0
  9
$UCSORGBOTTOM
 10
0.0
 20
0.0
 30
0.0
  9
$UCSORGLEFT
 10
0.0
 20
0.0
 30
0.0
  9
$UCSORGRIGHT
 10
0.0
 20
0.0
 30
0.0
  9
$UCSORGFRONT
 10
0.0
 20
0.0
 30
0.0
  9
$UCSORGBACK
 10
0.0
 20
0.0
 30
0.0
  9
$PUCSBASE
  2

  9
$PUCSNAME
  2

  9
$PUCSORG
 10
0.0
 20
0.0
 30
0.0
  9
$PUCSXDIR
 10
1.0
 20
0.0
 30
0.0
  9
$PUCSYDIR
 10
0.0
 20
1.0
 30
0.0
  9
$PUCSORTHOREF
  2

  9
$PUCSORTHOVIEW
 70
     0
  9
$PUCSORGTOP
 10
0.0
 20
0.0
 30
0.0
  9
$PUCSORGBOTTOM
 10
0.0
 20
0.0
 30
0.0
  9
$PUCSORGLEFT
 10
0.0
 20
0.0
 30
0.0
  9
$PUCSORGRIGHT
 10
0.0
 20
0.0
 30
0.0
  9
$PUCSORGFRONT
 10
0.0
 20
0.0
 30
0.0
  9
$PUCSORGBACK
 10
0.0
 20
0.0
 30
0.0
  9
$USERI1
 70
     0
  9
$USERI2
 70
     0
  9
$USERI3
 70
     0
  9
$USERI4
 70
     0
  9
$USERI5
 70
     0
  9
$USERR1
 40
0.0
  9
$USERR2
 40
0.0
  9
$USERR3
 40
0.0
  9
$USERR4
 40
0.0
  9
$USERR5
 40
0.0
  9
$WORLDVIEW
 70
     1
  9
$SHADEDGE
 70
     3
  9
$SHADEDIF
 70
    70
  9
$TILEMODE
 70
     1
  9
$MAXACTVP
 70
    64
  9
$PINSBASE
 10
0.0
 20
0.0
 30
0.0
  9
$PLIMCHECK
 70
     0
  9
$PEXTMIN
 10
100.0
 20
100.0
 30
100.0
  9
$PEXTMAX
 10
-100.0
 20
-100.0
 30
-100.0
  9
$PLIMMIN
 10
0.0
 20
0.0
  9
$PLIMMAX
 10
12.0
 20
9.0
  9
$UNITMODE
 70
     0
  9
$VISRETAIN
 70
     1
  9
$PLINEGEN
 70
     1
  9
$PSLTSCALE
 70
     1
  9
$TREEDEPTH
 70
  3020
  9
$CMLSTYLE
  2
STANDARD
  9
$CMLJUST
 70
     0
  9
$CMLSCALE
 40
1.0
  9
$PROXYGRAPHICS
 70
     1
  9
$MEASUREMENT
 70
     0
  9
$CELWEIGHT
370
    -1
  9
$ENDCAPS
280
     0
  9
$JOINSTYLE
280
     0
  9
$LWDISPLAY
290
     0
  9
$INSUNITS
 70
     0
  9
$HYPERLINKBASE
  1

  9
$STYLESHEET
  1

  9
$XEDIT
290
     1
  9
$CEPSNTYPE
380
     0
  9
$PSTYLEMODE
290
     1
  9
$FINGERPRINTGUID
  2
{5154F425-E8C3-408B-9AD3-968FC0E06AEB}
  9
$VERSIONGUID
  2
{E92C4F25-6AA4-4C51-B992-4281E05169B1}
  9
$EXTNAMES
290
     1
  9
$PSVPSCALE
 40
0.0
  9
$OLESTARTUP
290
     0
  0
ENDSEC
  0
SECTION
  2
CLASSES
  0
CLASS
  1
ACDBDICTIONARYWDFLT
  2
AcDbDictionaryWithDefault
  3
ObjectDBX Classes
 90
        0
280
     0
281
     0
  0
CLASS
  1
ACDBPLACEHOLDER
  2
AcDbPlaceHolder
  3
ObjectDBX Classes
 90
        0
280
     0
281
     0
  0
CLASS
  1
LAYOUT
  2
AcDbLayout
  3
ObjectDBX Classes
 90
        0
280
     0
281
     0
  0
CLASS
  1
TABLESTYLE
  2
AcDbTableStyle
  3
ObjectDBX Classes
 90
     2047
280
     0
281
     0
  0
CLASS
  1
DICTIONARYVAR
  2
AcDbDictionaryVar
  3
ObjectDBX Classes
 90
        0
280
     0
281
     0
  0
ENDSEC
  0
SECTION
  2
TABLES
  0
TABLE
  2
VPORT
  5
8
330
0
100
AcDbSymbolTable
 70
     3
  0
VPORT
  5
FDD7
330
8
100
AcDbSymbolTableRecord
100
AcDbViewportTableRecord
  2
*Active
 70
     0
 10
0.0
 20
0.0
 11
1.0
 21
1.0
 12
33.70981833660084
 22
-9.394747132516044
 13
0.0
 23
0.0
 14
1.0
 24
1.0
 15
0.0
 25
0.0
 16
0.0
 26
0.0
 36
1.0
 17
0.0
 27
0.0
 37
0.0
 40
216.2375275693755
 41
1.532401524777636
 42
50.0
 43
0.0
 44
0.0
 50
0.0
 51
0.0
 71
     0
 72
  1000
 73
     1
 74
     1
 75
     0
 76
     0
 77
     0
 78
     0
281
     0
 65
     1
110
0.0
120
0.0
130
0.0
111
1.0
121
0.0
131
0.0
112
0.0
122
1.0
132
0.0
 79
     0
146
0.0
  0
ENDTAB
  0
TABLE
  2
LTYPE
  5
5
330
0
100
AcDbSymbolTable
 70
     3
  0
LTYPE
  5
13
330
5
100
AcDbSymbolTableRecord
100
AcDbLinetypeTableRecord
  2
BYBLOCK
 70
     0
  3

 72
    65
 73
     0
 40
0.0
  0
LTYPE
  5
14
330
5
100
AcDbSymbolTableRecord
100
AcDbLinetypeTableRecord
  2
BYLAYER
 70
     0
  3

 72
    65
 73
     0
 40
0.0
  0
LTYPE
  5
15
330
5
100
AcDbSymbolTableRecord
100
AcDbLinetypeTableRecord
  2
CONTINUOUS
 70
     0
  3
Solid line
 72
    65
 73
     0
 40
0.0
  0
LTYPE
  5
23
330
5
100
AcDbSymbolTableRecord
100
AcDbLinetypeTableRecord
  2
CENTER
 70
     0
  3
____ _ ____ _ ____ _ ____ _ ____ _ ____ _ ____
 72
    65
 73
     4
 40
0.6
 49
0.375
 74
     0
 49
-0.075
 74
     0
 49
0.075
 74
     0
 49
-0.075
 74
     0
  0
LTYPE
  5
24
330
5
100
AcDbSymbolTableRecord
100
AcDbLinetypeTableRecord
  2
HIDDEN
 70
     0
  3
- - - - - - - - - - - - - - - - - - - -
 72
    65
 73
     2
 40
0.2
 49
0.1
 74
     0
 49
-0.1
 74
     0
  0
ENDTAB
  0
TABLE
  2
LAYER
  5
2
330
0
100
AcDbSymbolTable
 70
    12
  0
LAYER
  5
10
330
2
100
AcDbSymbolTableRecord
100
AcDbLayerTableRecord
  2
0
 70
     0
 62
     7
  6
CONTINUOUS
370
    -3
390
A3FA
  0
LAYER
  5
25
330
2
100
AcDbSymbolTableRecord
100
AcDbLayerTableRecord
  2
1
 70
     0
 62
     4
  6
CONTINUOUS
370
    -3
390
A3FA
  0
LAYER
  5
26
330
2
100
AcDbSymbolTableRecord
100
AcDbLayerTableRecord
  2
2
 70
     0
 62
     7
  6
CONTINUOUS
370
    -3
390
A3FA
  0
LAYER
  5
27
330
2
100
AcDbSymbolTableRecord
100
AcDbLayerTableRecord
  2
3
 70
     0
 62
     1
  6
HIDDEN
370
    -3
390
A3FA
  0
LAYER
  5
28
330
2
100
AcDbSymbolTableRecord
100
AcDbLayerTableRecord
  2
4
 70
     0
 62
     2
  6
CENTER
370
    -3
390
A3FA
  0
LAYER
  5
3D
330
2
100
AcDbSymbolTableRecord
100
AcDbLayerTableRecord
  2
DEFPOINTS
 70
     0
 62
     7
  6
CONTINUOUS
290
     0
370
    -3
390
A3FA
  0
LAYER
  5
F7A8
330
2
100
AcDbSymbolTableRecord
100
AcDbLayerTableRecord
  2
6
 70
     0
 62
     5
  6
CONTINUOUS
370
    -3
390
A3FA
  0
LAYER
  5
F7A9
330
2
100
AcDbSymbolTableRecord
100
AcDbLayerTableRecord
  2
CUT
 70
     0
 62
     1
  6
CONTINUOUS
370
    -3
390
A3FA
  0
LAYER
  5
F7AA
330
2
100
AcDbSymbolTableRecord
100
AcDbLayerTableRecord
  2
NOCUT
 70
     0
 62
     7
  6
CONTINUOUS
370
    -3
390
A3FA
  0
LAYER
  5
FA92
330
2
100
AcDbSymbolTableRecord
100
AcDbLayerTableRecord
  2
SK2
 70
     0
 62
     7
  6
CONTINUOUS
370
    -3
390
A3FA
  0
LAYER
  5
FDC2
330
2
100
AcDbSymbolTableRecord
100
AcDbLayerTableRecord
  2
SK4
 70
     0
 62
     2
  6
CENTER
370
    -3
390
A3FA
  0
LAYER
  5
FDC3
330
2
100
AcDbSymbolTableRecord
100
AcDbLayerTableRecord
  2
SK3
 70
     0
 62
     1
  6
HIDDEN
370
    -3
390
A3FA
  0
ENDTAB
  0
TABLE
  2
STYLE
  5
3
330
0
100
AcDbSymbolTable
 70
     1
  0
STYLE
  5
11
330
3
100
AcDbSymbolTableRecord
100
AcDbTextStyleTableRecord
  2
STANDARD
 70
     0
 40
0.0
 41
0.8
 50
0.0
 71
     0
 42
0.2
  3
isocp.shx
  4

  0
ENDTAB
  0
TABLE
  2
VIEW
  5
6
330
0
100
AcDbSymbolTable
 70
     0
  0
ENDTAB
  0
TABLE
  2
UCS
  5
7
330
0
100
AcDbSymbolTable
 70
     0
  0
ENDTAB
  0
TABLE
  2
APPID
  5
9
330
0
100
AcDbSymbolTable
 70
     4
  0
APPID
  5
12
330
9
100
AcDbSymbolTableRecord
100
AcDbRegAppTableRecord
  2
ACAD
 70
     0
  0
APPID
  5
F7AE
330
9
100
AcDbSymbolTableRecord
100
AcDbRegAppTableRecord
  2
GENIUS_GENODEF_13
 70
     0
  0
APPID
  5
F7AF
330
9
100
AcDbSymbolTableRecord
100
AcDbRegAppTableRecord
  2
GENIUS_GENOBJ-N-CEN_13
 70
     0
  0
APPID
  5
F7B0
330
9
100
AcDbSymbolTableRecord
100
AcDbRegAppTableRecord
  2
GENIUS_GENOBJ-N-FIL_13
 70
     0
  0
ENDTAB
  0
TABLE
  2
DIMSTYLE
  5
A
330
0
100
AcDbSymbolTable
 70
     2
100
AcDbDimStyleTable
 71
     0
  0
DIMSTYLE
105
2B
330
A
100
AcDbSymbolTableRecord
100
AcDbDimStyleTableRecord
  2
STANDARD
 70
     0
340
11
  0
DIMSTYLE
105
1363
102
{ACAD_REACTORS
330
CD
330
CF
330
CC
330
CE
330
CB
330
CA
330
12FE
330
C9
330
12FD
102
}
330
A
100
AcDbSymbolTableRecord
100
AcDbDimStyleTableRecord
  2
ISO-25
 70
     0
 41
3.5
 42
0.625
 43
3.75
 44
1.25
 73
     0
 74
     0
 77
     1
 78
     8
140
3.5
141
2.5
143
0.03937007874016
147
0.625
171
     3
172
     1
176
   256
177
   256
178
   256
271
     2
272
     2
274
     3
283
     0
284
     8
340
11
  0
ENDTAB
  0
TABLE
  2
BLOCK_RECORD
  5
1
330
0
100
AcDbSymbolTable
 70
    11
  0
BLOCK_RECORD
  5
1E
102
{ACAD_XDICTIONARY
360
75E1
102
}
330
1
100
AcDbSymbolTableRecord
100
AcDbBlockTableRecord
  2
*MODEL_SPACE
340
A3FB
  0
BLOCK_RECORD
  5
1A
102
{ACAD_XDICTIONARY
360
75DF
102
}
330
1
100
AcDbSymbolTableRecord
100
AcDbBlockTableRecord
  2
*PAPER_SPACE
340
A3FC
  0
BLOCK_RECORD
  5
30
330
1
100
AcDbSymbolTableRecord
100
AcDbBlockTableRecord
  2
_FILLED
340
0
  0
BLOCK_RECORD
  5
1892
330
1
100
AcDbSymbolTableRecord
100
AcDbBlockTableRecord
  2
*D1
340
0
  0
BLOCK_RECORD
  5
189E
330
1
100
AcDbSymbolTableRecord
100
AcDbBlockTableRecord
  2
*D2
340
0
  0
BLOCK_RECORD
  5
18AA
330
1
100
AcDbSymbolTableRecord
100
AcDbBlockTableRecord
  2
*D3
340
0
  0
BLOCK_RECORD
  5
18B6
330
1
100
AcDbSymbolTableRecord
100
AcDbBlockTableRecord
  2
*D4
340
0
  0
BLOCK_RECORD
  5
18C2
330
1
100
AcDbSymbolTableRecord
100
AcDbBlockTableRecord
  2
*D5
340
0
  0
BLOCK_RECORD
  5
18D0
330
1
100
AcDbSymbolTableRecord
100
AcDbBlockTableRecord
  2
*D6
340
0
  0
BLOCK_RECORD
  5
18DC
330
1
100
AcDbSymbolTableRecord
100
AcDbBlockTableRecord
  2
*D7
340
0
  0
BLOCK_RECORD
  5
18EA
330
1
100
AcDbSymbolTableRecord
100
AcDbBlockTableRecord
  2
*D8
340
0
  0
BLOCK_RECORD
  5
18F6
330
1
100
AcDbSymbolTableRecord
100
AcDbBlockTableRecord
  2
*D9
340
0
  0
ENDTAB
  0
ENDSEC
  0
SECTION
  2
BLOCKS
  0
BLOCK
  5
1F
330
1E
100
AcDbEntity
  8
0
100
AcDbBlockBegin
  2
*MODEL_SPACE
 70
     0
 10
0.0
 20
0.0
 30
0.0
  3
*MODEL_SPACE
  1

  0
ENDBLK
  5
20
330
1E
100
AcDbEntity
  8
0
100
AcDbBlockEnd
  0
BLOCK
  5
1B
330
1A
100
AcDbEntity
 67
     1
  8
0
100
AcDbBlockBegin
  2
*PAPER_SPACE
 70
     0
 10
0.0
 20
0.0
 30
0.0
  3
*PAPER_SPACE
  1

  0
ENDBLK
  5
1C
330
1A
100
AcDbEntity
 67
     1
  8
0
100
AcDbBlockEnd
  0
BLOCK
  5
31
330
30
100
AcDbEntity
  8
0
100
AcDbBlockBegin
  2
_FILLED
 70
     0
 10
0.0
 20
0.0
 30
0.0
  3
_FILLED
  1

  0
SOLID
  5
32
330
30
100
AcDbEntity
  8
0
  6
ByBlock
 62
     0
100
AcDbTrace
 10
0.0
 20
0.0
 30
0.0
 11
-1.0
 21
0.132
 31
0.0
 12
-1.0
 22
-0.132
 32
0.0
 13
-1.0
 23
-0.132
 33
0.0
  0
ENDBLK
  5
33
330
30
100
AcDbEntity
  8
0
100
AcDbBlockEnd
  0
BLOCK
  5
189C
330
1892
100
AcDbEntity
  8
0
100
AcDbBlockBegin
  2
*D1
 70
     1
 10
0.0
 20
0.0
 30
0.0
  3
*D1
  1

  0
LINE
  5
FD77
330
1892
100
AcDbEntity
  8
SK2
370
    -2
100
AcDbLine
 10
31.69492321959998
 20
88.49999999999999
 30
0.0
 11
-46.23855452196988
 21
88.50000000000001
 31
0.0
  0
LINE
  5
FD78
330
1892
100
AcDbEntity
  8
SK2
370
    -2
100
AcDbLine
 10
30.52293380719998
 20
-88.49999999999999
 30
0.0
 11
-46.23855452196991
 21
-88.49999999999996
 31
0.0
  0
LINE
  5
FD79
330
1892
100
AcDbEntity
  8
SK2
370
    -2
100
AcDbLine
 10
-44.98855452196988
 20
85.00000000000001
 30
0.0
 11
-44.98855452196991
 21
-84.99999999999998
 31
0.0
  0
SOLID
  5
FD7A
330
1892
100
AcDbEntity
  8
SK2
100
AcDbTrace
 10
-45.5718878553032
 20
85.00000000000001
 30
0.0
 11
-44.40522118863653
 21
85.00000000000001
 31
0.0
 12
-44.98855452196988
 22
88.50000000000001
 32
0.0
 13
-44.98855452196988
 23
88.50000000000001
 33
0.0
  0
SOLID
  5
FD7B
330
1892
100
AcDbEntity
  8
SK2
100
AcDbTrace
 10
-45.57188785530326
 20
-84.99999999999998
 30
0.0
 11
-44.40522118863658
 21
-84.99999999999998
 31
0.0
 12
-44.98855452196991
 22
-88.49999999999996
 32
0.0
 13
-44.98855452196991
 23
-88.49999999999996
 33
0.0
  0
MTEXT
  5
FD7C
330
1892
100
AcDbEntity
  8
SK2
100
AcDbMText
 10
-47.3635545219699
 20
-0.1526271442553422
 30
0.0
 40
3.5
 41
0.0
 71
     5
 72
     1
  1
%%c177
 11
0.0000000000000001
 21
1.0
 31
0.0
 73
     1
 44
1.0
1001
ACAD
1000
MTEXTBEGIN
1070
    73
1070
     1
1070
    44
1040
1.0
1070
    74
1070
     0
1000
MTEXTEND
  0
POINT
  5
FD7D
330
1892
100
AcDbEntity
  8
DEFPOINTS
 62
     0
100
AcDbPoint
 10
32.31992321959998
 20
88.49999999999999
 30
0.0
  0
POINT
  5
FD7E
330
1892
100
AcDbEntity
  8
DEFPOINTS
 62
     0
100
AcDbPoint
 10
31.14793380719998
 20
-88.49999999999999
 30
0.0
  0
POINT
  5
FD7F
330
1892
100
AcDbEntity
  8
DEFPOINTS
 62
     0
100
AcDbPoint
 10
-44.98855452196991
 20
-88.49999999999996
 30
0.0
  0
ENDBLK
  5
189D
330
1892
100
AcDbEntity
  8
0
100
AcDbBlockEnd
  0
BLOCK
  5
18A8
330
189E
100
AcDbEntity
  8
0
100
AcDbBlockBegin
  2
*D2
 70
     1
 10
0.0
 20
0.0
 30
0.0
  3
*D2
  1

  0
LINE
  5
FD65
330
189E
100
AcDbEntity
  8
SK2
370
    -2
100
AcDbLine
 10
-1.125000000000002
 20
-33.35
 30
0.0
 11
-26.23035757088929
 21
-33.34999999999999
 31
0.0
  0
LINE
  5
FD66
330
189E
100
AcDbEntity
  8
SK2
370
    -2
100
AcDbLine
 10
-1.124999999999995
 20
33.35
 30
0.0
 11
-26.23035757088927
 21
33.35
 31
0.0
  0
LINE
  5
FD67
330
189E
100
AcDbEntity
  8
SK2
370
    -2
100
AcDbLine
 10
-24.98035757088929
 20
-29.84999999999999
 30
0.0
 11
-24.98035757088927
 21
29.85000000000001
 31
0.0
  0
SOLID
  5
FD68
330
189E
100
AcDbEntity
  8
SK2
100
AcDbTrace
 10
-25.56369090422262
 20
-29.84999999999999
 30
0.0
 11
-24.39702423755595
 21
-29.84999999999999
 31
0.0
 12
-24.98035757088929
 22
-33.34999999999999
 32
0.0
 13
-24.98035757088929
 23
-33.34999999999999
 33
0.0
  0
SOLID
  5
FD69
330
189E
100
AcDbEntity
  8
SK2
100
AcDbTrace
 10
-25.5636909042226
 20
29.85000000000001
 30
0.0
 11
-24.39702423755595
 21
29.85000000000001
 31
0.0
 12
-24.98035757088927
 22
33.35
 32
0.0
 13
-24.98035757088927
 23
33.35
 33
0.0
  0
MTEXT
  5
FD6A
330
189E
100
AcDbEntity
  8
SK2
100
AcDbMText
 10
-27.35535757088928
 20
0.3352085615083556
 30
0.0
 40
3.5
 41
0.0
 71
     5
 72
     1
  1
%%c66.7
 11
0.0000000000000001
 21
1.0
 31
0.0
 73
     1
 44
1.0
1001
ACAD
1000
MTEXTBEGIN
1070
    73
1070
     1
1070
    44
1040
1.0
1070
    74
1070
     0
1000
MTEXTEND
  0
POINT
  5
FD6B
330
189E
100
AcDbEntity
  8
DEFPOINTS
 62
     0
100
AcDbPoint
 10
-0.5000000000000041
 20
-33.35
 30
0.0
  0
POINT
  5
FD6C
330
189E
100
AcDbEntity
  8
DEFPOINTS
 62
     0
100
AcDbPoint
 10
-0.4999999999999963
 20
33.35
 30
0.0
  0
POINT
  5
FD6D
330
189E
100
AcDbEntity
  8
DEFPOINTS
 62
     0
100
AcDbPoint
 10
-24.98035757088927
 20
33.35
 30
0.0
  0
ENDBLK
  5
18A9
330
189E
100
AcDbEntity
  8
0
100
AcDbBlockEnd
  0
BLOCK
  5
18B4
330
18AA
100
AcDbEntity
  8
0
100
AcDbBlockBegin
  2
*D3
 70
     1
 10
0.0
 20
0.0
 30
0.0
  3
*D3
  1

  0
LINE
  5
FD80
330
18AA
100
AcDbEntity
  8
SK2
370
    -2
100
AcDbLine
 10
-1.124999999999992
 20
50.0
 30
0.0
 11
-36.24374439771552
 21
50.0
 31
0.0
  0
LINE
  5
FD81
330
18AA
100
AcDbEntity
  8
SK2
370
    -2
100
AcDbLine
 10
-1.125000000000005
 20
-50.0
 30
0.0
 11
-36.24374439771554
 21
-50.0
 31
0.0
  0
LINE
  5
FD82
330
18AA
100
AcDbEntity
  8
SK2
370
    -2
100
AcDbLine
 10
-34.99374439771552
 20
46.50000000000001
 30
0.0
 11
-34.99374439771553
 21
-46.49999999999999
 31
0.0
  0
SOLID
  5
FD83
330
18AA
100
AcDbEntity
  8
SK2
100
AcDbTrace
 10
-35.57707773104886
 20
46.50000000000001
 30
0.0
 11
-34.41041106438218
 21
46.50000000000001
 31
0.0
 12
-34.99374439771552
 22
50.0
 32
0.0
 13
-34.99374439771552
 23
50.0
 33
0.0
  0
SOLID
  5
FD84
330
18AA
100
AcDbEntity
  8
SK2
100
AcDbTrace
 10
-35.57707773104887
 20
-46.49999999999999
 30
0.0
 11
-34.4104110643822
 21
-46.49999999999999
 31
0.0
 12
-34.99374439771554
 22
-50.0
 32
0.0
 13
-34.99374439771554
 23
-50.0
 33
0.0
  0
MTEXT
  5
FD85
330
18AA
100
AcDbEntity
  8
SK2
100
AcDbMText
 10
-37.36874439771553
 20
-0.0948475530683436
 30
0.0
 40
3.5
 41
0.0
 71
     5
 72
     1
  1
%%c100
 11
0.0000000000000001
 21
1.0
 31
0.0
 73
     1
 44
1.0
1001
ACAD
1000
MTEXTBEGIN
1070
    73
1070
     1
1070
    44
1040
1.0
1070
    74
1070
     0
1000
MTEXTEND
  0
POINT
  5
FD86
330
18AA
100
AcDbEntity
  8
DEFPOINTS
 62
     0
100
AcDbPoint
 10
-0.4999999999999939
 20
50.0
 30
0.0
  0
POINT
  5
FD87
330
18AA
100
AcDbEntity
  8
DEFPOINTS
 62
     0
100
AcDbPoint
 10
-0.5000000000000063
 20
-50.0
 30
0.0
  0
POINT
  5
FD88
330
18AA
100
AcDbEntity
  8
DEFPOINTS
 62
     0
100
AcDbPoint
 10
-34.99374439771554
 20
-50.0
 30
0.0
  0
ENDBLK
  5
18B5
330
18AA
100
AcDbEntity
  8
0
100
AcDbBlockEnd
  0
BLOCK
  5
18C0
330
18B6
100
AcDbEntity
  8
0
100
AcDbBlockBegin
  2
*D4
 70
     1
 10
0.0
 20
0.0
 30
0.0
  3
*D4
  1

  0
LINE
  5
FD6E
330
18B6
100
AcDbEntity
  8
SK2
370
    -2
100
AcDbLine
 10
-1.105435420401132
 20
20.0
 30
0.0
 11
-16.23980439673367
 21
20.0
 31
0.0
  0
LINE
  5
FD6F
330
18B6
100
AcDbEntity
  8
SK2
370
    -2
100
AcDbLine
 10
-1.377844794330487
 20
-20.0
 30
0.0
 11
-16.23980439673368
 21
-19.99999999999999
 31
0.0
  0
LINE
  5
FD70
330
18B6
100
AcDbEntity
  8
SK2
370
    -2
100
AcDbLine
 10
-14.98980439673367
 20
16.5
 30
0.0
 11
-14.98980439673368
 21
-16.49999999999999
 31
0.0
  0
SOLID
  5
FD71
330
18B6
100
AcDbEntity
  8
SK2
100
AcDbTrace
 10
-15.57313773006701
 20
16.5
 30
0.0
 11
-14.40647106340034
 21
16.5
 31
0.0
 12
-14.98980439673367
 22
20.0
 32
0.0
 13
-14.98980439673367
 23
20.0
 33
0.0
  0
SOLID
  5
FD72
330
18B6
100
AcDbEntity
  8
SK2
100
AcDbTrace
 10
-15.57313773006701
 20
-16.49999999999999
 30
0.0
 11
-14.40647106340034
 21
-16.49999999999999
 31
0.0
 12
-14.98980439673368
 22
-19.99999999999999
 32
0.0
 13
-14.98980439673368
 23
-19.99999999999999
 33
0.0
  0
MTEXT
  5
FD73
330
18B6
100
AcDbEntity
  8
SK2
100
AcDbMText
 10
-17.36480439673368
 20
0.88232298830002
 30
0.0
 40
3.5
 41
0.0
 71
     5
 72
     1
  1
%%c40
 11
0.0000000000000001
 21
1.0
 31
0.0
 73
     1
 44
1.0
1001
ACAD
1000
MTEXTBEGIN
1070
    73
1070
     1
1070
    44
1040
1.0
1070
    74
1070
     0
1000
MTEXTEND
  0
POINT
  5
FD74
330
18B6
100
AcDbEntity
  8
DEFPOINTS
 62
     0
100
AcDbPoint
 10
-0.4804354204011337
 20
20.0
 30
0.0
  0
POINT
  5
FD75
330
18B6
100
AcDbEntity
  8
DEFPOINTS
 62
     0
100
AcDbPoint
 10
-0.752844794330488
 20
-20.0
 30
0.0
  0
POINT
  5
FD76
330
18B6
100
AcDbEntity
  8
DEFPOINTS
 62
     0
100
AcDbPoint
 10
-14.98980439673368
 20
-19.99999999999999
 30
0.0
  0
ENDBLK
  5
18C1
330
18B6
100
AcDbEntity
  8
0
100
AcDbBlockEnd
  0
BLOCK
  5
18CE
330
18C2
100
AcDbEntity
  8
0
100
AcDbBlockBegin
  2
*D5
 70
     1
 10
0.0
 20
0.0
 30
0.0
  3
*D5
  1

  0
LINE
  5
FD9D
330
18C2
100
AcDbEntity
  8
2
370
    -2
100
AcDbLine
 10
46.41426267214542
 20
-89.50961869132296
 30
0.0
 11
39.8328308772708
 21
-93.28236899932859
 31
0.0
  0
LINE
  5
FD9E
330
18C2
100
AcDbEntity
  8
2
370
    -2
100
AcDbLine
 10
62.94999999999998
 20
-104.7441624929998
 30
0.0
 11
62.94999999999998
 21
-106.6766905023045
 31
0.0
  0
ARC
  5
FD9F
330
18C2
100
AcDbEntity
  8
2
370
    -2
100
AcDbCircle
 10
62.94999999999998
 20
-80.03064663157344
 30
0.0
 40
25.39604387073109
100
AcDbArc
 50
217.7257077199086
 51
262.0974199072549
  0
SOLID
  5
FDA0
330
18C2
100
AcDbEntity
  8
2
100
AcDbTrace
 10
42.37813691799277
 20
-95.894317757172
 30
0.0
 11
43.3479084831154
 21
-95.24573914004781
 31
0.0
 12
40.91728684918159
 22
-92.66071375324198
 32
0.0
 13
40.91728684918159
 23
-92.66071375324198
 33
0.0
  0
SOLID
  5
FDA1
330
18C2
100
AcDbEntity
  8
2
100
AcDbTrace
 10
59.49851607340062
 20
-104.6035644595843
 30
0.0
 11
59.41812297449676
 21
-105.7674579516014
 31
0.0
 12
62.94999999999998
 22
-105.4266905023045
 32
0.0
 13
62.94999999999998
 23
-105.4266905023045
 33
0.0
  0
MTEXT
  5
FDA2
330
18C2
100
AcDbEntity
  8
2
100
AcDbMText
 10
51.40871927133055
 20
-99.94966518270112
 30
0.0
 40
3.5
 41
0.0
 71
     5
 72
     1
  1
60° EFF.
 11
0.8652526211660063
 21
-0.5013361163584326
 31
0.0
 73
     1
 44
1.0
1001
ACAD
1000
MTEXTBEGIN
1070
    73
1070
     1
1070
    44
1040
1.0
1070
    74
1070
     0
1000
MTEXTEND
  0
POINT
  5
FDA3
330
18C2
100
AcDbEntity
  8
DEFPOINTS
 62
     0
100
AcDbPoint
 10
46.58573483708953
 20
-99.45150835195169
 30
0.0
  0
POINT
  5
FDA4
330
18C2
100
AcDbEntity
  8
DEFPOINTS
 62
     0
100
AcDbPoint
 10
62.94999999999998
 20
-104.1191624929998
 30
0.0
  0
POINT
  5
FDA5
330
18C2
100
AcDbEntity
  8
DEFPOINTS
 62
     0
100
AcDbPoint
 10
62.51698729809999
 20
-80.27886751350003
 30
0.0
  0
POINT
  5
FDA6
330
18C2
100
AcDbEntity
  8
DEFPOINTS
 62
     0
100
AcDbPoint
 10
46.95649065810083
 20
-89.19879106827965
 30
0.0
  0
POINT
  5
FDA7
330
18C2
100
AcDbEntity
  8
DEFPOINTS
 62
     0
100
AcDbPoint
 10
62.94999999999999
 20
-80.52886751349999
 30
0.0
  0
ENDBLK
  5
18CF
330
18C2
100
AcDbEntity
  8
0
100
AcDbBlockEnd
  0
BLOCK
  5
18DA
330
18D0
100
AcDbEntity
  8
0
100
AcDbBlockBegin
  2
*D6
 70
     1
 10
0.0
 20
0.0
 30
0.0
  3
*D6
  1

  0
LINE
  5
FDA8
330
18D0
100
AcDbEntity
  8
2
370
    -2
100
AcDbLine
 10
-0.000000000000006
 20
-49.525
 30
0.0
 11
-0.0000000000000101
 21
-116.6748061317984
 31
0.0
  0
LINE
  5
FDA9
330
18D0
100
AcDbEntity
  8
2
370
    -2
100
AcDbLine
 10
62.99999999999999
 20
-81.12500000000002
 30
0.0
 11
62.99999999999999
 21
-116.6748061317984
 31
0.0
  0
LINE
  5
FDAA
330
18D0
100
AcDbEntity
  8
2
370
    -2
100
AcDbLine
 10
3.499999999999988
 20
-115.4248061317984
 30
0.0
 11
59.49999999999999
 21
-115.4248061317984
 31
0.0
  0
SOLID
  5
FDAB
330
18D0
100
AcDbEntity
  8
2
100
AcDbTrace
 10
3.499999999999988
 20
-114.841472798465
 30
0.0
 11
3.499999999999988
 21
-116.0081394651317
 31
0.0
 12
-0.0000000000000101
 22
-115.4248061317984
 32
0.0
 13
-0.0000000000000101
 23
-115.4248061317984
 33
0.0
  0
SOLID
  5
FDAC
330
18D0
100
AcDbEntity
  8
2
100
AcDbTrace
 10
59.49999999999999
 20
-114.841472798465
 30
0.0
 11
59.49999999999999
 21
-116.0081394651317
 31
0.0
 12
62.99999999999999
 22
-115.4248061317984
 32
0.0
 13
62.99999999999999
 23
-115.4248061317984
 33
0.0
  0
MTEXT
  5
FDAD
330
18D0
100
AcDbEntity
  8
2
100
AcDbMText
 10
31.86835225239998
 20
-113.0498061317984
 30
0.0
 40
3.5
 41
0.0
 71
     5
 72
     1
  1
63
 73
     1
 44
1.0
1001
ACAD
1000
MTEXTBEGIN
1070
    73
1070
     1
1070
    44
1040
1.0
1070
    74
1070
     0
1000
MTEXTEND
  0
POINT
  5
FDAE
330
18D0
100
AcDbEntity
  8
DEFPOINTS
 62
     0
100
AcDbPoint
 10
-0.000000000000006
 20
-48.9
 30
0.0
  0
POINT
  5
FDAF
330
18D0
100
AcDbEntity
  8
DEFPOINTS
 62
     0
100
AcDbPoint
 10
62.99999999999999
 20
-80.50000000000002
 30
0.0
  0
POINT
  5
FDB0
330
18D0
100
AcDbEntity
  8
DEFPOINTS
 62
     0
100
AcDbPoint
 10
62.99999999999999
 20
-115.4248061317984
 30
0.0
  0
ENDBLK
  5
18DB
330
18D0
100
AcDbEntity
  8
0
100
AcDbBlockEnd
  0
BLOCK
  5
18E8
330
18DC
100
AcDbEntity
  8
0
100
AcDbBlockBegin
  2
*D7
 70
     1
 10
0.0
 20
0.0
 30
0.0
  3
*D7
  1

  0
LINE
  5
FD92
330
18DC
100
AcDbEntity
  8
2
370
    -2
100
AcDbLine
 10
62.99999999999999
 20
-81.18750000000002
 30
0.0
 11
62.99999999999999
 21
-96.25070295754929
 31
0.0
  0
LINE
  5
FD93
330
18DC
100
AcDbEntity
  8
2
370
    -2
100
AcDbLine
 10
60.99992010766872
 20
-81.18750000000002
 30
0.0
 11
60.99992010766872
 21
-96.25070295754929
 31
0.0
  0
LINE
  5
FD94
330
18DC
100
AcDbEntity
  8
2
370
    -2
100
AcDbLine
 10
66.5
 20
-95.00070295754929
 30
0.0
 11
70.0
 21
-95.00070295754929
 31
0.0
  0
LINE
  5
FD95
330
18DC
100
AcDbEntity
  8
2
370
    -2
100
AcDbLine
 10
57.49992010766871
 20
-95.00070295754929
 30
0.0
 11
50.88325344100205
 21
-95.00070295754929
 31
0.0
  0
LINE
  5
FD96
330
18DC
100
AcDbEntity
  8
2
370
    -2
100
AcDbLine
 10
62.99999999999999
 20
-95.00070295754929
 30
0.0
 11
60.99992010766872
 21
-95.00070295754929
 31
0.0
  0
SOLID
  5
FD97
330
18DC
100
AcDbEntity
  8
2
100
AcDbTrace
 10
66.5
 20
-94.41736962421595
 30
0.0
 11
66.5
 21
-95.58403629088259
 31
0.0
 12
62.99999999999999
 22
-95.00070295754929
 32
0.0
 13
62.99999999999999
 23
-95.00070295754929
 33
0.0
  0
SOLID
  5
FD98
330
18DC
100
AcDbEntity
  8
2
100
AcDbTrace
 10
57.49992010766871
 20
-94.41736962421595
 30
0.0
 11
57.49992010766871
 21
-95.58403629088259
 31
0.0
 12
60.99992010766872
 22
-95.00070295754929
 32
0.0
 13
60.99992010766872
 23
-95.00070295754929
 33
0.0
  0
MTEXT
  5
FD99
330
18DC
100
AcDbEntity
  8
2
100
AcDbMText
 10
52.44158677433539
 20
-92.62570295754928
 30
0.0
 40
3.5
 41
0.0
 71
     5
 72
     1
  1
2
 73
     1
 44
1.0
1001
ACAD
1000
MTEXTBEGIN
1070
    73
1070
     1
1070
    44
1040
1.0
1070
    74
1070
     0
1000
MTEXTEND
  0
POINT
  5
FD9A
330
18DC
100
AcDbEntity
  8
DEFPOINTS
 62
     0
100
AcDbPoint
 10
62.99999999999999
 20
-80.56250000000002
 30
0.0
  0
POINT
  5
FD9B
330
18DC
100
AcDbEntity
  8
DEFPOINTS
 62
     0
100
AcDbPoint
 10
60.99992010766872
 20
-80.56250000000002
 30
0.0
  0
POINT
  5
FD9C
330
18DC
100
AcDbEntity
  8
DEFPOINTS
 62
     0
100
AcDbPoint
 10
60.99992010766872
 20
-95.00070295754929
 30
0.0
  0
ENDBLK
  5
18E9
330
18DC
100
AcDbEntity
  8
0
100
AcDbBlockEnd
  0
BLOCK
  5
18F4
330
18EA
100
AcDbEntity
  8
0
100
AcDbBlockBegin
  2
*D8
 70
     1
 10
0.0
 20
0.0
 30
0.0
  3
*D8
  1

  0
LINE
  5
FD89
330
18EA
100
AcDbEntity
  8
2
370
    -2
100
AcDbLine
 10
64.12500000000001
 20
79.99999999999999
 30
0.0
 11
89.23554263017335
 21
79.99999999999999
 31
0.0
  0
LINE
  5
FD8A
330
18EA
100
AcDbEntity
  8
2
370
    -2
100
AcDbLine
 10
64.125
 20
-80.00000000000001
 30
0.0
 11
89.23554263017333
 21
-80.00000000000001
 31
0.0
  0
LINE
  5
FD8B
330
18EA
100
AcDbEntity
  8
2
370
    -2
100
AcDbLine
 10
87.98554263017335
 20
76.49999999999998
 30
0.0
 11
87.98554263017333
 21
-76.50000000000002
 31
0.0
  0
SOLID
  5
FD8C
330
18EA
100
AcDbEntity
  8
2
100
AcDbTrace
 10
87.40220929684001
 20
76.49999999999998
 30
0.0
 11
88.56887596350668
 21
76.49999999999998
 31
0.0
 12
87.98554263017335
 22
79.99999999999999
 32
0.0
 13
87.98554263017335
 23
79.99999999999999
 33
0.0
  0
SOLID
  5
FD8D
330
18EA
100
AcDbEntity
  8
2
100
AcDbTrace
 10
87.40220929683998
 20
-76.50000000000002
 30
0.0
 11
88.56887596350665
 21
-76.50000000000002
 31
0.0
 12
87.98554263017333
 22
-80.00000000000001
 32
0.0
 13
87.98554263017333
 23
-80.00000000000001
 33
0.0
  0
MTEXT
  5
FD8E
330
18EA
100
AcDbEntity
  8
2
100
AcDbMText
 10
85.6105426301733
 20
0.031583060699962
 30
0.0
 40
3.5
 41
0.0
 71
     5
 72
     1
  1
%%c160
 11
0.0000000000000001
 21
1.0
 31
0.0
 73
     1
 44
1.0
1001
ACAD
1000
MTEXTBEGIN
1070
    73
1070
     1
1070
    44
1040
1.0
1070
    74
1070
     0
1000
MTEXTEND
  0
POINT
  5
FD8F
330
18EA
100
AcDbEntity
  8
DEFPOINTS
 62
     0
100
AcDbPoint
 10
63.50000000000001
 20
79.99999999999999
 30
0.0
  0
POINT
  5
FD90
330
18EA
100
AcDbEntity
  8
DEFPOINTS
 62
     0
100
AcDbPoint
 10
63.5
 20
-80.00000000000001
 30
0.0
  0
POINT
  5
FD91
330
18EA
100
AcDbEntity
  8
DEFPOINTS
 62
     0
100
AcDbPoint
 10
87.98554263017333
 20
-80.00000000000001
 30
0.0
  0
ENDBLK
  5
18F5
330
18EA
100
AcDbEntity
  8
0
100
AcDbBlockEnd
  0
BLOCK
  5
1900
330
18F6
100
AcDbEntity
  8
0
100
AcDbBlockBegin
  2
*D9
 70
     1
 10
0.0
 20
0.0
 30
0.0
  3
*D9
  1

  0
LINE
  5
FDB1
330
18F6
100
AcDbEntity
  8
2
370
    -2
100
AcDbLine
 10
64.1875
 20
-80.00000000000001
 30
0.0
 11
79.24168411902062
 21
-80.00000000000001
 31
0.0
  0
LINE
  5
FDB2
330
18F6
100
AcDbEntity
  8
2
370
    -2
100
AcDbLine
 10
64.18749999999999
 20
-64.56401188683071
 30
0.0
 11
79.24168411902062
 21
-64.56401188683071
 31
0.0
  0
LINE
  5
FDB3
330
18F6
100
AcDbEntity
  8
2
370
    -2
100
AcDbLine
 10
77.99168411902062
 20
-76.50000000000002
 30
0.0
 11
77.99168411902062
 21
-68.06401188683071
 31
0.0
  0
SOLID
  5
FDB4
330
18F6
100
AcDbEntity
  8
2
100
AcDbTrace
 10
77.40835078568728
 20
-76.50000000000002
 30
0.0
 11
78.57501745235396
 21
-76.50000000000002
 31
0.0
 12
77.99168411902062
 22
-80.00000000000001
 32
0.0
 13
77.99168411902062
 23
-80.00000000000001
 33
0.0
  0
SOLID
  5
FDB5
330
18F6
100
AcDbEntity
  8
2
100
AcDbTrace
 10
77.40835078568728
 20
-68.06401188683071
 30
0.0
 11
78.57501745235396
 21
-68.06401188683071
 31
0.0
 12
77.99168411902062
 22
-64.56401188683071
 32
0.0
 13
77.99168411902062
 23
-64.56401188683071
 33
0.0
  0
MTEXT
  5
FDB6
330
18F6
100
AcDbEntity
  8
2
100
AcDbMText
 10
75.61668411902061
 20
-72.28200594341536
 30
0.0
 40
3.5
 41
0.0
 71
     5
 72
     1
  1
15
 11
0.0000000000000001
 21
1.0
 31
0.0
 73
     1
 44
1.0
1001
ACAD
1000
MTEXTBEGIN
1070
    73
1070
     1
1070
    44
1040
1.0
1070
    74
1070
     0
1000
MTEXTEND
  0
POINT
  5
FDB7
330
18F6
100
AcDbEntity
  8
DEFPOINTS
 62
     0
100
AcDbPoint
 10
63.5625
 20
-80.00000000000001
 30
0.0
  0
POINT
  5
FDB8
330
18F6
100
AcDbEntity
  8
DEFPOINTS
 62
     0
100
AcDbPoint
 10
63.56249999999999
 20
-64.56401188683071
 30
0.0
  0
POINT
  5
FDB9
330
18F6
100
AcDbEntity
  8
DEFPOINTS
 62
     0
100
AcDbPoint
 10
77.99168411902062
 20
-64.56401188683071
 30
0.0
  0
ENDBLK
  5
1901
330
18F6
100
AcDbEntity
  8
0
100
AcDbBlockEnd
  0
ENDSEC
  0
SECTION
  2
ENTITIES
  0
DIMENSION
  5
C9
330
1E
100
AcDbEntity
  8
2
100
AcDbDimension
  2
*D8
 10
87.98554263017333
 20
-80.00000000000001
 30
0.0
 11
87.98554263017333
 21
0.0315830606999617
 31
0.0
 70
   160
  1
%%c<>
 71
     5
 42
160.0
  3
ISO-25
100
AcDbAlignedDimension
 13
63.50000000000001
 23
79.99999999999999
 33
0.0
 14
63.49999999999999
 24
-80.00000000000001
 34
0.0
 50
270.0
100
AcDbRotatedDimension
  0
DIMENSION
  5
CA
330
1E
100
AcDbEntity
  8
2
100
AcDbDimension
  2
*D6
 10
62.99999999999999
 20
-115.4248061317984
 30
0.0
 11
31.86835225239998
 21
-115.4248061317984
 31
0.0
 70
   160
 71
     5
 42
63.0
  3
ISO-25
100
AcDbAlignedDimension
 13
-0.000000000000006
 23
-48.9
 33
0.0
 14
62.99999999999999
 24
-80.50000000000002
 34
0.0
100
AcDbRotatedDimension
  0
DIMENSION
  5
CB
330
1E
100
AcDbEntity
  8
2
100
AcDbDimension
  2
*D5
 10
62.94999999999999
 20
-80.52886751349999
 30
0.0
 11
51.40871927133055
 21
-99.94966518270112
 31
0.0
 70
    34
  1
<> EFF.
 71
     5
 42
1.050284556458405
  3
ISO-25
100
AcDb2LineAngularDimension
 13
62.51698729810001
 23
-80.27886751350003
 33
0.0
 14
46.95649065810083
 24
-89.19879106827965
 34
0.0
 15
62.94999999999999
 25
-104.1191624929998
 35
0.0
 16
46.58573483708953
 26
-99.45150835195169
 36
0.0
1001
ACAD
1000
DSTYLE
1002
{
1070
   271
1070
     0
1002
}
  0
DIMENSION
  5
CC
330
1E
100
AcDbEntity
  8
SK2
100
AcDbDimension
  2
*D3
 10
-34.99374439771554
 20
-50.0
 30
0.0
 11
-34.99374439771553
 21
-0.0948475530683439
 31
0.0
 70
   160
  1
%%c<>
 71
     5
 42
100.0
  3
ISO-25
100
AcDbAlignedDimension
 13
-0.4999999999999939
 23
50.0
 33
0.0
 14
-0.5000000000000063
 24
-50.0
 34
0.0
 50
270.0
100
AcDbRotatedDimension
  0
DIMENSION
  5
CD
330
1E
100
AcDbEntity
  8
SK2
100
AcDbDimension
  2
*D1
 10
-44.98855452196991
 20
-88.49999999999996
 30
0.0
 11
-44.9885545219699
 21
-0.1526271442553425
 31
0.0
 70
   160
  1
%%c<>
 71
     5
 42
177.0
  3
ISO-25
100
AcDbAlignedDimension
 13
32.31992321959998
 23
88.49999999999999
 33
0.0
 14
31.14793380719998
 24
-88.49999999999999
 34
0.0
 50
270.0
100
AcDbRotatedDimension
  0
DIMENSION
  5
CE
330
1E
100
AcDbEntity
  8
SK2
100
AcDbDimension
  2
*D4
 10
-14.98980439673368
 20
-19.99999999999999
 30
0.0
 11
-14.98980439673368
 21
0.8823229883000196
 31
0.0
 70
   160
  1
%%c<>
 71
     5
 42
40.0
  3
ISO-25
100
AcDbAlignedDimension
 13
-0.4804354204011337
 23
20.0
 33
0.0
 14
-0.752844794330488
 24
-20.0
 34
0.0
 50
270.0
100
AcDbRotatedDimension
  0
DIMENSION
  5
CF
330
1E
100
AcDbEntity
  8
SK2
100
AcDbDimension
  2
*D2
 10
-24.98035757088927
 20
33.35
 30
0.0
 11
-24.98035757088928
 21
0.3352085615083554
 31
0.0
 70
   160
  1
%%c<>
 71
     5
 42
66.7
  3
ISO-25
100
AcDbAlignedDimension
 13
-0.5000000000000041
 23
-33.35
 33
0.0
 14
-0.4999999999999961
 24
33.35
 34
0.0
 50
89.99999999999998
100
AcDbRotatedDimension
  0
LINE
  5
D0
330
1E
100
AcDbEntity
  8
1
100
AcDbLine
 10
37.0446111591
 20
88.49999999999999
 30
0.0
 11
35.57106781179999
 21
88.49999999999999
 31
0.0
  0
LINE
  5
D1
330
1E
100
AcDbEntity
  8
1
100
AcDbLine
 10
62.91161431979999
 20
-80.1036373968
 30
0.0
 11
56.171468014
 21
-83.91786331609997
 31
0.0
  0
LINE
  5
D2
330
1E
100
AcDbEntity
  8
1
100
AcDbLine
 10
55.476947679
 20
-83.442581509
 30
0.0
 11
47.17397787779995
 21
-88.14120394040001
 31
0.0
  0
LINE
  5
D3
330
1E
100
AcDbEntity
  8
1
100
AcDbLine
 10
62.30467595060001
 20
-78.57166401710002
 30
0.0
 11
55.5645296448
 21
-82.3858899364
 31
0.0
  0
LINE
  5
D4
330
1E
100
AcDbEntity
  8
1
100
AcDbLine
 10
62.91161431979999
 20
80.10363739679998
 30
0.0
 11
56.171468014
 21
83.91786331609997
 31
0.0
  0
LINE
  5
D5
330
1E
100
AcDbEntity
  8
1
100
AcDbLine
 10
55.4193004543
 20
83.47520387779999
 30
0.0
 11
47.1739778778
 21
88.14120394040001
 31
0.0
  0
LINE
  5
D6
330
1E
100
AcDbEntity
  8
1
100
AcDbLine
 10
62.0442305449
 20
75.86257442619999
 30
0.0
 11
61.60000000000001
 21
76.11396298389998
 31
0.0
  0
LINE
  5
D7
330
1E
100
AcDbEntity
  8
1
100
AcDbLine
 10
61.8270033846
 20
75.02369766889998
 30
0.0
 11
61.60000000000001
 21
75.15215811379987
 31
0.0
  0
LINE
  5
D8
330
1E
100
AcDbEntity
  8
1
100
AcDbLine
 10
10.0
 20
50.0
 30
0.0
 11
1.599999999999995
 21
50.0
 31
0.0
  0
LINE
  5
D9
330
1E
100
AcDbEntity
  8
SK3
100
AcDbLine
 10
57.7699885752
 20
47.42955918659998
 30
0.0
 11
30.7302754058
 21
45.06389081929987
 31
0.0
  0
LINE
  5
DC
330
1E
100
AcDbEntity
  8
SK3
100
AcDbLine
 10
0.0000000000000049
 20
40.35
 30
0.0
 11
30.0
 21
40.34999999999999
 31
0.0
  0
LINE
  5
DD
330
1E
100
AcDbEntity
  8
1
100
AcDbLine
 10
62.30467595060001
 20
-0.7076235302000749
 30
0.0
 11
62.91161431979999
 21
-11.97390248849998
 31
0.0
  0
LINE
  5
DE
330
1E
100
AcDbEntity
  8
1
100
AcDbLine
 10
62.30467595060001
 20
-78.57166401710002
 30
0.0
 11
62.30852911799999
 21
-77.72384600110001
 31
0.0
  0
LINE
  5
DF
330
1E
100
AcDbEntity
  8
1
100
AcDbLine
 10
62.58392965369999
 20
-5.891263712400085
 30
0.0
 11
62.91161431979999
 21
0.1353173598999353
 31
0.0
  0
LINE
  5
E0
330
1E
100
AcDbEntity
  8
1
100
AcDbLine
 10
62.57391496100001
 20
-5.705366219400056
 30
0.0
 11
62.8894362673
 21
0.0975135874999674
 31
0.0
  0
LINE
  5
E1
330
1E
100
AcDbEntity
  8
1
100
AcDbLine
 10
60.456840298
 20
-23.28199629959998
 30
0.0
 11
59.508499111
 21
-23.95272145439998
 31
0.0
  0
LINE
  5
E2
330
1E
100
AcDbEntity
  8
1
100
AcDbLine
 10
57.27888253119999
 20
-24.86827080820001
 30
0.0
 11
59.508499111
 21
-23.95272145439998
 31
0.0
  0
LINE
  5
E3
330
1E
100
AcDbEntity
  8
1
100
AcDbLine
 10
60.2120293958
 20
-22.88985731599999
 30
0.0
 11
61.0391238838
 21
-22.57559867289999
 31
0.0
  0
LINE
  5
E4
330
1E
100
AcDbEntity
  8
SK4
100
AcDbLine
 10
33.0
 20
33.34999999999999
 30
0.0
 11
-2.999999999999996
 21
33.35
 31
0.0
  0
LINE
  5
E5
330
1E
100
AcDbEntity
  8
1
100
AcDbLine
 10
62.0293939118
 20
-15.2352975563001
 30
0.0
 11
62.9883598331
 21
-24.28207620530001
 31
0.0
  0
LINE
  5
E6
330
1E
100
AcDbEntity
  8
1
100
AcDbLine
 10
62.0296065542
 20
-22.3566438877
 30
0.0
 11
62.98857247549999
 21
-31.4034225368
 31
0.0
  0
LINE
  5
E7
330
1E
100
AcDbEntity
  8
1
100
AcDbLine
 10
59.508499111
 20
-23.95272145439998
 30
0.0
 11
60.33795342039999
 21
-31.7777018523
 31
0.0
  0
LINE
  5
E8
330
1E
100
AcDbEntity
  8
1
100
AcDbLine
 10
62.91161431979999
 20
-80.1036373968
 30
0.0
 11
62.8894362673
 21
-79.19011396810009
 31
0.0
  0
LINE
  5
E9
330
1E
100
AcDbEntity
  8
1
100
AcDbLine
 10
61.6
 20
-22.23925515609998
 30
0.0
 11
61.6
 21
-11.78662441060009
 31
0.0
  0
LINE
  5
EA
330
1E
100
AcDbEntity
  8
1
100
AcDbLine
 10
61.60000000000001
 20
78.55391581399989
 30
0.0
 11
61.6
 21
-0.6070067898000465
 31
0.0
  0
LINE
  5
EB
330
1E
100
AcDbEntity
  8
1
100
AcDbLine
 10
61.6
 20
-31.6611738577001
 30
0.0
 11
61.6
 21
-78.20295319860001
 31
0.0
  0
LINE
  5
EC
330
1E
100
AcDbEntity
  8
1
100
AcDbLine
 10
56.44999863159998
 20
-31.11769999179998
 30
0.0
 11
56.44999863159998
 21
-30.40827797440011
 31
0.0
  0
LINE
  5
ED
330
1E
100
AcDbEntity
  8
1
100
AcDbLine
 10
62.91161431979999
 20
80.10363739679998
 30
0.0
 11
62.8894362673
 21
79.19011396809998
 31
0.0
  0
LINE
  5
EE
330
1E
100
AcDbEntity
  8
1
100
AcDbLine
 10
61.8207201101
 20
-0.6385221806000986
 30
0.0
 11
61.8270033846
 21
-0.5229639412000405
 31
0.0
  0
LINE
  5
EF
330
1E
100
AcDbEntity
  8
1
100
AcDbLine
 10
62.91161431979999
 20
0.1353173598999353
 30
0.0
 11
62.8894362673
 21
0.0975135874999674
 31
0.0
  0
LINE
  5
F0
330
1E
100
AcDbEntity
  8
1
100
AcDbLine
 10
62.0442305449
 20
-0.2304845527000416
 30
0.0
 11
61.8270033846
 21
-0.5229639412000405
 31
0.0
  0
LINE
  5
F1
330
1E
100
AcDbEntity
  8
SK3
100
AcDbLine
 10
0.0000000000000032
 20
26.35
 30
0.0
 11
30.0
 21
26.34999999999999
 31
0.0
  0
LINE
  5
F2
330
1E
100
AcDbEntity
  8
1
100
AcDbLine
 10
56.3907097276
 20
-25.3367895968
 30
0.0
 11
57.00189519600001
 21
-31.10264584070001
 31
0.0
  0
LINE
  5
F3
330
1E
100
AcDbEntity
  8
1
100
AcDbLine
 10
55.9362602811
 20
-25.5617270843
 30
0.0
 11
56.48865546909998
 21
-30.77296231310009
 31
0.0
  0
LINE
  5
F4
330
1E
100
AcDbEntity
  8
1
100
AcDbLine
 10
55.5645296448
 20
0.2547642888999851
 30
0.0
 11
56.171468014
 21
-11.01151466950007
 31
0.0
  0
LINE
  5
F5
330
1E
100
AcDbEntity
  8
1
100
AcDbLine
 10
54.9536872779
 20
0.1182872022000013
 30
0.0
 11
55.476947679
 21
-9.594721475000037
 31
0.0
  0
LINE
  5
F6
330
1E
100
AcDbEntity
  8
1
100
AcDbLine
 10
55.30798398299999
 20
-9.590260739900095
 30
0.0
 11
55.3692614832
 21
-10.7277228722
 31
0.0
  0
LINE
  5
F7
330
1E
100
AcDbEntity
  8
SK3
100
AcDbLine
 10
1.599999999999988
 20
20.0
 30
0.0
 11
30.0
 21
19.99999999999999
 31
0.0
  0
LINE
  5
F8
330
1E
100
AcDbEntity
  8
1
100
AcDbLine
 10
47.1739778778
 20
-8.409186824000025
 30
0.0
 11
46.9527982793
 21
-4.303545818700063
 31
0.0
  0
LINE
  5
F9
330
1E
100
AcDbEntity
  8
1
100
AcDbLine
 10
46.83665284199999
 20
-2.147598917900042
 30
0.0
 11
46.6507174767
 21
1.303821853199952
 31
0.0
  0
LINE
  5
FA
330
1E
100
AcDbEntity
  8
1
100
AcDbLine
 10
45.27904536869999
 20
-8.473263707400061
 30
0.0
 11
45.26041883479999
 21
-8.127509117000052
 31
0.0
  0
LINE
  5
FB
330
1E
100
AcDbEntity
  8
1
100
AcDbLine
 10
62.0293939118
 20
56.36847192869999
 30
0.0
 11
62.9883598331
 21
60.58187414889999
 31
0.0
  0
LINE
  5
FC
330
1E
100
AcDbEntity
  8
1
100
AcDbLine
 10
61.6
 20
-74.78933050220001
 30
0.0
 11
62.30852911799999
 21
-77.72384600110001
 31
0.0
  0
LINE
  5
FD
330
1E
100
AcDbEntity
  8
1
100
AcDbLine
 10
62.8894362673
 20
79.19011396809998
 30
0.0
 11
62.0442305449
 21
75.86257442619999
 31
0.0
  0
LINE
  5
FE
330
1E
100
AcDbEntity
  8
1
100
AcDbLine
 10
62.0442305449
 20
75.86257442619999
 30
0.0
 11
61.8270033846
 21
75.02369766889998
 31
0.0
  0
LINE
  5
FF
330
1E
100
AcDbEntity
  8
1
100
AcDbLine
 10
46.6507174767
 20
1.303821853199952
 30
0.0
 11
45.9801956952
 21
0.8608716052999573
 31
0.0
  0
LINE
  5
100
330
1E
100
AcDbEntity
  8
1
100
AcDbLine
 10
62.8894362673
 20
0.0975135874999674
 30
0.0
 11
62.0442305449
 21
-0.2304845527000416
 31
0.0
  0
LINE
  5
101
330
1E
100
AcDbEntity
  8
1
100
AcDbLine
 10
7.39999999999998
 20
8.199999999999986
 30
0.0
 11
1.599999999999988
 21
8.19999999999999
 31
0.0
  0
LINE
  5
102
330
1E
100
AcDbEntity
  8
1
100
AcDbLine
 10
62.04423054489999
 20
-75.86257442620011
 30
0.0
 11
61.82700338459999
 21
-75.02369766890002
 31
0.0
  0
LINE
  5
103
330
1E
100
AcDbEntity
  8
1
100
AcDbLine
 10
62.8894362673
 20
-79.19011396810009
 30
0.0
 11
62.04423054489999
 21
-75.86257442620011
 31
0.0
  0
LINE
  5
104
330
1E
100
AcDbEntity
  8
1
100
AcDbLine
 10
61.60000000000001
 20
74.45071833529998
 30
0.0
 11
61.8270033846
 21
75.02369766889998
 31
0.0
  0
LINE
  5
105
330
1E
100
AcDbEntity
  8
4
100
AcDbLine
 10
66.0829359503
 20
-0.0000000000000081
 30
0.0
 11
-3.0
 21
0.0000000000000004
 31
0.0
  0
LINE
  5
106
330
1E
100
AcDbEntity
  8
1
100
AcDbLine
 10
62.30467595060001
 20
-0.7076235302000749
 30
0.0
 11
55.5645296448
 21
0.2547642888999851
 31
0.0
  0
LINE
  5
107
330
1E
100
AcDbEntity
  8
1
100
AcDbLine
 10
46.6507174767
 20
1.303821853199952
 30
0.0
 11
54.9536872779
 21
0.1182872022000013
 31
0.0
  0
LINE
  5
108
330
1E
100
AcDbEntity
  8
1
100
AcDbLine
 10
55.3692614832
 20
-10.7277228722
 30
0.0
 11
52.826536052
 21
-9.669106496700015
 31
0.0
  0
LINE
  5
109
330
1E
100
AcDbEntity
  8
1
100
AcDbLine
 10
52.826536052
 20
-9.669106496700015
 30
0.0
 11
52.6268293088
 21
-9.519476771900032
 31
0.0
  0
LINE
  5
10A
330
1E
100
AcDbEntity
  8
1
100
AcDbLine
 10
61.6
 20
-74.45071833530001
 30
0.0
 11
61.82700338459999
 21
-75.02369766890002
 31
0.0
  0
LINE
  5
10B
330
1E
100
AcDbEntity
  8
1
100
AcDbLine
 10
62.30852911799999
 20
-77.72384600110001
 30
0.0
 11
62.8894362673
 21
-79.19011396810009
 31
0.0
  0
LINE
  5
10C
330
1E
100
AcDbEntity
  8
1
100
AcDbLine
 10
62.30467595060001
 20
-78.57166401710002
 30
0.0
 11
62.91161431979999
 21
-80.1036373968
 31
0.0
  0
LINE
  5
10D
330
1E
100
AcDbEntity
  8
SK3
100
AcDbLine
 10
29.99999999999999
 20
-44.2669350608001
 30
0.0
 11
30.0
 21
44.26693506079988
 31
0.0
  0
LINE
  5
10E
330
1E
100
AcDbEntity
  8
SK3
100
AcDbLine
 10
-0.0000000000000026
 20
-21.6
 30
0.0
 11
1.599999999999984
 21
-20.0
 31
0.0
  0
LINE
  5
10F
330
1E
100
AcDbEntity
  8
1
100
AcDbLine
 10
54.95477436319999
 20
0.0981082090999554
 30
0.0
 11
55.5645296448
 21
0.2547642888999851
 31
0.0
  0
LINE
  5
110
330
1E
100
AcDbEntity
  8
1
100
AcDbLine
 10
62.91161431979999
 20
0.1353173598999353
 30
0.0
 11
61.6
 21
-0.1649688783000516
 31
0.0
  0
LINE
  5
111
330
1E
100
AcDbEntity
  8
1
100
AcDbLine
 10
62.0442305449
 20
-0.2304845527000416
 30
0.0
 11
61.6
 21
-0.3321884737000645
 31
0.0
  0
LINE
  5
112
330
1E
100
AcDbEntity
  8
1
100
AcDbLine
 10
55.476947679
 20
-9.594721475000037
 30
0.0
 11
47.1739778778
 21
-8.409186824000025
 31
0.0
  0
LINE
  5
113
330
1E
100
AcDbEntity
  8
1
100
AcDbLine
 10
45.2575243654
 20
-8.173524480700004
 30
0.0
 11
45.26293943339999
 21
-8.174297668000074
 31
0.0
  0
LINE
  5
114
330
1E
100
AcDbEntity
  8
1
100
AcDbLine
 10
52.60160299069999
 20
-9.518810783100095
 30
0.0
 11
45.27904536869999
 21
-8.473263707400061
 31
0.0
  0
LINE
  5
115
330
1E
100
AcDbEntity
  8
1
100
AcDbLine
 10
55.3692614832
 20
-10.7277228722
 30
0.0
 11
56.171468014
 21
-11.01151466950007
 31
0.0
  0
LINE
  5
116
330
1E
100
AcDbEntity
  8
SK3
100
AcDbLine
 10
0.0000000000000026
 20
21.6
 30
0.0
 11
1.599999999999988
 21
20.0
 31
0.0
  0
LINE
  5
117
330
1E
100
AcDbEntity
  8
1
100
AcDbLine
 10
61.8270033846
 20
-0.5229639412000405
 30
0.0
 11
61.6
 21
-0.5749350058000645
 31
0.0
  0
LINE
  5
118
330
1E
100
AcDbEntity
  8
1
100
AcDbLine
 10
45.15115804909997
 20
-8.131203755500052
 30
0.0
 11
47.00860161869999
 21
-8.068394555400004
 31
0.0
  0
LINE
  5
119
330
1E
100
AcDbEntity
  8
1
100
AcDbLine
 10
47.1739778778
 20
-8.409186824000025
 30
0.0
 11
45.27904536869999
 21
-8.473263707400061
 31
0.0
  0
LINE
  5
11A
330
1E
100
AcDbEntity
  8
1
100
AcDbLine
 10
7.399999999999977
 20
-8.200000000000052
 30
0.0
 11
1.599999999999987
 21
-8.20000000000005
 31
0.0
  0
LINE
  5
11B
330
1E
100
AcDbEntity
  8
1
100
AcDbLine
 10
55.476947679
 20
-9.594721475000037
 30
0.0
 11
52.60160299069999
 21
-9.518810783100095
 31
0.0
  0
LINE
  5
11C
330
1E
100
AcDbEntity
  8
1
100
AcDbLine
 10
62.91161431979999
 20
-11.97390248849998
 30
0.0
 11
56.171468014
 21
-11.01151466950007
 31
0.0
  0
LINE
  5
11D
330
1E
100
AcDbEntity
  8
1
100
AcDbLine
 10
57.00189519600001
 20
-31.10264584070001
 30
0.0
 11
56.48865546909998
 21
-30.77296231310009
 31
0.0
  0
LINE
  5
11E
330
1E
100
AcDbEntity
  8
1
100
AcDbLine
 10
55.5645296448
 20
-82.3858899364
 30
0.0
 11
56.171468014
 21
-83.91786331609997
 31
0.0
  0
LINE
  5
11F
330
1E
100
AcDbEntity
  8
1
100
AcDbLine
 10
55.0383628369
 20
-82.3355493342
 30
0.0
 11
55.476947679
 21
-83.442581509
 31
0.0
  0
LINE
  5
120
330
1E
100
AcDbEntity
  8
1
100
AcDbLine
 10
14.99999999999999
 20
-67.92893218810011
 30
0.0
 11
15.0
 21
67.9289321881
 31
0.0
  0
LINE
  5
121
330
1E
100
AcDbEntity
  8
1
100
AcDbLine
 10
-0.0000000000000012
 20
-9.800000000000007
 30
0.0
 11
1.599999999999987
 21
-8.20000000000005
 31
0.0
  0
LINE
  5
122
330
1E
100
AcDbEntity
  8
1
100
AcDbLine
 10
0.0000000000000012
 20
9.799999999999947
 30
0.0
 11
1.599999999999988
 21
8.19999999999999
 31
0.0
  0
LINE
  5
123
330
1E
100
AcDbEntity
  8
1
100
AcDbLine
 10
47.17397787779995
 20
-88.14120394040001
 30
0.0
 11
46.93617175689996
 21
-87.54095741589997
 31
0.0
  0
LINE
  5
124
330
1E
100
AcDbEntity
  8
1
100
AcDbLine
 10
46.85645503229998
 20
-87.3397443994
 30
0.0
 11
46.67918917759999
 21
-86.8923075849001
 31
0.0
  0
LINE
  5
125
330
1E
100
AcDbEntity
  8
1
100
AcDbLine
 10
9.0
 20
-6.600000000000019
 30
0.0
 11
9.0
 21
6.599999999999969
 31
0.0
  0
LINE
  5
126
330
1E
100
AcDbEntity
  8
SK3
100
AcDbLine
 10
1.599999999999984
 20
-20.0
 30
0.0
 11
30.0
 21
-20.0
 31
0.0
  0
LINE
  5
127
330
1E
100
AcDbEntity
  8
1
100
AcDbLine
 10
57.00189519600001
 20
-31.10264584070001
 30
0.0
 11
60.33795342039999
 21
-31.7777018523
 31
0.0
  0
LINE
  5
128
330
1E
100
AcDbEntity
  8
SK3
100
AcDbLine
 10
1.599999999999984
 20
-20.0
 30
0.0
 11
1.599999999999987
 21
-8.20000000000005
 31
0.0
  0
LINE
  5
129
330
1E
100
AcDbEntity
  8
SK3
100
AcDbLine
 10
1.599999999999988
 20
8.19999999999999
 30
0.0
 11
1.599999999999988
 21
20.0
 31
0.0
  0
LINE
  5
12A
330
1E
100
AcDbEntity
  8
1
100
AcDbLine
 10
-0.0000000000000059
 20
-48.39999999999999
 30
0.0
 11
-0.0000000000000012
 21
-9.79980512840007
 31
0.0
  0
LINE
  5
12B
330
1E
100
AcDbEntity
  8
1
100
AcDbLine
 10
0.0000000000000012
 20
9.799792492399939
 30
0.0
 11
0.0000000000000059
 21
48.39999999999999
 31
0.0
  0
LINE
  5
12C
330
1E
100
AcDbEntity
  8
SK3
100
AcDbLine
 10
-0.0000000000000032
 20
-26.35
 30
0.0
 11
30.0
 21
-26.35
 31
0.0
  0
LINE
  5
12D
330
1E
100
AcDbEntity
  8
1
100
AcDbLine
 10
46.88828323539999
 20
-87.392366301
 30
0.0
 11
46.60866319619999
 21
-86.93006756189999
 31
0.0
  0
LINE
  5
12E
330
1E
100
AcDbEntity
  8
1
100
AcDbLine
 10
47.1739778778
 20
88.14120394040001
 30
0.0
 11
47.00490646539999
 21
87.86167640369992
 31
0.0
  0
LINE
  5
12F
330
1E
100
AcDbEntity
  8
1
100
AcDbLine
 10
61.40868933100001
 20
-31.6965303247
 30
0.0
 11
60.33795342039999
 21
-31.7777018523
 31
0.0
  0
LINE
  5
130
330
1E
100
AcDbEntity
  8
SK4
100
AcDbLine
 10
32.99999999999999
 20
-33.35
 30
0.0
 11
-3.000000000000003
 21
-33.35
 31
0.0
  0
LINE
  5
131
330
1E
100
AcDbEntity
  8
1
100
AcDbLine
 10
47.17397787779995
 20
-88.14120394040001
 30
0.0
 11
47.00822264989997
 21
-87.86715908630009
 31
0.0
  0
LINE
  5
132
330
1E
100
AcDbEntity
  8
SK3
100
AcDbLine
 10
-0.0000000000000049
 20
-40.35
 30
0.0
 11
30.0
 21
-40.35000000000001
 31
0.0
  0
LINE
  5
133
330
1E
100
AcDbEntity
  8
1
100
AcDbLine
 10
55.3692614832
 20
83.44575535590001
 30
0.0
 11
54.9531924519
 21
83.0584537458
 31
0.0
  0
LINE
  5
134
330
1E
100
AcDbEntity
  8
1
100
AcDbLine
 10
9.999999999999994
 20
-50.0
 30
0.0
 11
1.59999999999998
 21
-50.0
 31
0.0
  0
LINE
  5
135
330
1E
100
AcDbEntity
  8
SK3
100
AcDbLine
 10
61.6
 20
-47.7646417674001
 30
0.0
 11
30.73027540579999
 21
-45.0638908193
 31
0.0
  0
LINE
  5
136
330
1E
100
AcDbEntity
  8
1
100
AcDbLine
 10
32.03553390590001
 20
87.0355339059
 30
0.0
 11
16.464466094
 21
71.4644660941
 31
0.0
  0
LINE
  5
137
330
1E
100
AcDbEntity
  8
1
100
AcDbLine
 10
55.3692614832
 20
83.44575535590001
 30
0.0
 11
56.171468014
 21
83.91786331609997
 31
0.0
  0
LINE
  5
138
330
1E
100
AcDbEntity
  8
1
100
AcDbLine
 10
55.24547299239991
 20
-82.2188330428
 30
0.0
 11
55.5645296448
 21
-82.3858899364
 31
0.0
  0
LINE
  5
139
330
1E
100
AcDbEntity
  8
1
100
AcDbLine
 10
55.4193004543
 20
-83.47520387779999
 30
0.0
 11
56.171468014
 21
-83.91786331609997
 31
0.0
  0
LINE
  5
13A
330
1E
100
AcDbEntity
  8
1
100
AcDbLine
 10
32.03553390589998
 20
-87.03553390590009
 30
0.0
 11
16.46446609399999
 21
-71.4644660941
 31
0.0
  0
LINE
  5
13B
330
1E
100
AcDbEntity
  8
1
100
AcDbLine
 10
37.03913779359996
 20
-88.50002334740009
 30
0.0
 11
35.57106781179998
 21
-88.4963476325
 31
0.0
  0
ARC
  5
13C
330
1E
100
AcDbEntity
  8
SK3
100
AcDbCircle
 10
30.79999999999999
 20
-44.2669350608001
 30
0.0
 40
0.8
100
AcDbArc
 50
180.0
 51
265.0
  0
ARC
  5
13D
330
1E
100
AcDbEntity
  8
SK3
100
AcDbCircle
 10
30.8
 20
44.26693506079988
 30
0.0
 40
0.8
100
AcDbArc
 50
94.99999999999998
 51
180.0
  0
ARC
  5
13E
330
1E
100
AcDbEntity
  8
1
100
AcDbCircle
 10
9.999999999999991
 20
-55.0
 30
0.0
 40
5.0
100
AcDbArc
 50
0.0
 51
90.0
  0
ARC
  5
13F
330
1E
100
AcDbEntity
  8
1
100
AcDbCircle
 10
10.0
 20
55.0
 30
0.0
 40
5.0
100
AcDbArc
 50
270.0
 51
0.0
  0
ARC
  5
140
330
1E
100
AcDbEntity
  8
1
100
AcDbCircle
 10
19.99999999999999
 20
-67.92893218810011
 30
0.0
 40
5.0
100
AcDbArc
 50
180.0
 51
225.0
  0
ARC
  5
141
330
1E
100
AcDbEntity
  8
1
100
AcDbCircle
 10
20.0
 20
67.9289321881
 30
0.0
 40
5.0
100
AcDbArc
 50
134.9999999999999
 51
180.0
  0
ARC
  5
142
330
1E
100
AcDbEntity
  8
1
100
AcDbCircle
 10
35.57106781179998
 20
-83.49999999999999
 30
0.0
 40
5.0
100
AcDbArc
 50
225.0
 51
270.0
  0
ARC
  5
143
330
1E
100
AcDbEntity
  8
1
100
AcDbCircle
 10
35.57106781179999
 20
83.49999999999999
 30
0.0
 40
5.0
100
AcDbArc
 50
90.0
 51
134.9999999999999
  0
ARC
  5
144
330
1E
100
AcDbEntity
  8
1
100
AcDbCircle
 10
1.59999999999998
 20
-48.39999999999999
 30
0.0
 40
1.6
100
AcDbArc
 50
180.0
 51
270.0
  0
ARC
  5
145
330
1E
100
AcDbEntity
  8
1
100
AcDbCircle
 10
1.599999999999995
 20
48.39999999999999
 30
0.0
 40
1.6
100
AcDbArc
 50
90.0
 51
180.0
  0
ARC
  5
146
330
1E
100
AcDbEntity
  8
1
100
AcDbCircle
 10
7.399999999999977
 20
-6.600000000000019
 30
0.0
 40
1.6
100
AcDbArc
 50
270.0
 51
0.0
  0
ARC
  5
147
330
1E
100
AcDbEntity
  8
1
100
AcDbCircle
 10
7.39999999999998
 20
6.599999999999969
 30
0.0
 40
1.6
100
AcDbArc
 50
0.0
 51
90.0
  0
LWPOLYLINE
  5
148
330
1E
100
AcDbEntity
  8
SK3
100
AcDbPolyline
 90
        7
 70
     0
 43
0.0
 10
61.60000000000001
 20
47.65767407989989
 10
60.9365809165502
 20
47.63379843756168
 10
60.26193164977339
 20
47.60268562312718
 10
59.57997211285571
 20
47.5643308694537
 10
58.88694638814047
 20
47.51833786769078
 10
58.18294085638941
 20
47.46447067660461
 10
57.76999853714698
 20
47.4295600581567
  0
LWPOLYLINE
  5
235
330
1E
100
AcDbEntity
  8
1
100
AcDbPolyline
 90
       87
 70
     0
 43
0.0
 10
56.4854338161
 20
-82.8024722628
 10
56.48435624013688
 20
-82.80499438463229
 10
56.48323696687689
 20
-82.8076515374815
 10
56.48203611264339
 20
-82.81055347750159
 10
56.48076080490728
 20
-82.81370504640532
 10
56.47937790411337
 20
-82.8172209270227
 10
56.47798663811589
 20
-82.82088477805759
 10
56.47684030864999
 20
-82.8240207068308
 10
56.47588695118859
 20
-82.8267264344822
 10
56.47503973881739
 20
-82.82921963372981
 10
56.47429393632159
 20
-82.83149583397291
 10
56.47360875777829
 20
-82.8336658508765
 10
56.47298214009639
 20
-82.83572776294079
 10
56.47241172699811
 20
-82.83767994668359
 10
56.47189493417037
 20
-82.839521044712
 10
56.47142901079789
 20
-82.84124993556959
 10
56.47098189079759
 20
-82.84298118761691
 10
56.4705822620591
 20
-82.8445988011102
 10
56.47020038471739
 20
-82.84621779933122
 10
56.46986225784122
 20
-82.84772211109679
 10
56.46954053808529
 20
-82.84922707726378
 10
56.46923575559378
 20
-82.85073243803759
 10
56.46896990946139
 20
-82.85212212739729
 10
56.46871936377428
 20
-82.85351172729141
 10
56.4684845355055
 20
-82.85490103338458
 10
56.4682658416277
 20
-82.8562898413414
 10
56.46807990197809
 20
-82.85756230318622
 10
56.46790819124709
 20
-82.8588340173694
 10
56.46775103060979
 20
-82.8601048265007
 10
56.46760874124151
 20
-82.86137457319
 10
56.46749256235068
 20
-82.8625278339685
 10
56.46738918050269
 20
-82.86367996837148
 10
56.46729883700118
 20
-82.8648308581493
 10
56.46722177314998
 20
-82.8659803850523
 10
56.46715823025259
 20
-82.86712843083078
 10
56.46710844961297
 20
-82.86827487723529
 10
56.46707267253479
 20
-82.86941960601609
 10
56.46705264564689
 20
-82.8704482956172
 10
56.46704433301009
 20
-82.87147541195691
 10
56.46704791053499
 20
-82.8725008688313
 10
56.46706355413178
 20
-82.87352458003629
 10
56.46709143971099
 20
-82.8745464593681
 10
56.4671317431831
 20
-82.8755664206225
 10
56.46718464045829
 20
-82.87658437759558
 10
56.46725030744717
 20
-82.87760024408347
 10
56.46732892006022
 20
-82.87861393388221
 10
56.46740980807799
 20
-82.87951309444848
 10
56.46750118727549
 20
-82.8804104065059
 10
56.46760318120018
 20
-82.88130580951079
 10
56.46771591339946
 20
-82.88219924291921
 10
56.4678395074211
 20
-82.88309064618742
 10
56.46797408681227
 20
-82.8839799587714
 10
56.46811977512078
 20
-82.8848671201276
 10
56.46827669589399
 20
-82.8857520697122
 10
56.46844497267938
 20
-82.8866347469812
 10
56.4686247290245
 20
-82.88751509139091
 10
56.46881608847689
 20
-82.88839304239759
 10
56.46901917458389
 20
-82.88926853945721
 10
56.46923411089328
 20
-82.8901415220262
 10
56.46946102095229
 20
-82.89101192956058
 10
56.46966948659539
 20
-82.8917713762247
 10
56.46988729699877
 20
-82.8925287644645
 10
56.47011453492979
 20
-82.89328405372041
 10
56.47035128315549
 20
-82.89403720343271
 10
56.47059762444309
 20
-82.8947881730418
 10
56.47085364155979
 20
-82.8955369219882
 10
56.4711194079287
 20
-82.89628340556291
 10
56.47139487125009
 20
-82.89702752323059
 10
56.471679889179
 20
-82.8977691344717
 10
56.47197431741209
 20
-82.8985080978969
 10
56.47232214453059
 20
-82.89934920392841
 10
56.4726818587775
 20
-82.90018645586329
 10
56.47305324474949
 20
-82.90101964264829
 10
56.47343608704319
 20
-82.9018485532301
 10
56.47383017025549
 20
-82.9026729765555
 10
56.47423527898289
 20
-82.90349270157109
 10
56.47465119782228
 20
-82.90430751722359
 10
56.47507771137028
 20
-82.9051172124598
 10
56.47556993489708
 20
-82.90602173631681
 10
56.47607498803489
 20
-82.90691921202897
 10
56.47659256408649
 20
-82.90780933909271
 10
56.47712235635458
 20
-82.90869181700429
 10
56.47766405814199
 20
-82.90956634526031
 10
56.47827954394238
 20
-82.9105283541563
 10
56.47890893350479
 20
-82.9114797654571
 10
56.47955180611959
 20
-82.91242016694909
 10
56.47987239964899
 20
-82.91287794085979
  0
LWPOLYLINE
  5
28E
330
1E
100
AcDbEntity
  8
1
100
AcDbPolyline
 90
       70
 70
     0
 43
0.0
 10
61.99626579749999
 20
-79.57664122299998
 10
61.99555667879678
 20
-79.57565169043042
 10
61.99483371014019
 20
-79.57467187400452
 10
61.99409710987739
 20
-79.57370179664789
 10
61.9932782557343
 20
-79.57265466474813
 10
61.99244372217901
 20
-79.57161918019321
 10
61.99159379268561
 20
-79.57059537274671
 10
61.9907287507286
 20
-79.56958327217261
 10
61.98984887978198
 20
-79.56858290823472
 10
61.9888792809326
 20
-79.56751245962381
 10
61.98789297171749
 20
-79.56645585803268
 10
61.98689031254919
 20
-79.56541314130342
 10
61.98587166384029
 20
-79.564384347278
 10
61.98475718914459
 20
-79.5632920290174
 10
61.9836250385061
 20
-79.56221594894969
 10
61.98247566207159
 20
-79.56115615433863
 10
61.98122558337839
 20
-79.56003878568122
 10
61.9799568005849
 20
-79.55894022445258
 10
61.97866986735188
 20
-79.55786052878551
 10
61.97736533734
 20
-79.55679975681198
 10
61.97604376420989
 20
-79.55575796666481
 10
61.97470570162219
 20
-79.55473521647622
 10
61.97335170323759
 20
-79.55373156437861
 10
61.97207408220609
 20
-79.55281210442581
 10
61.97078351177149
 20
-79.55190937893601
 10
61.96948044208021
 20
-79.551023435173
 10
61.9681653232789
 20
-79.55015432040048
 10
61.9668386055142
 20
-79.54930208188232
 10
61.9655007389327
 20
-79.54846676688244
 10
61.9641521736811
 20
-79.54764842266448
 10
61.96279335990589
 20
-79.5468470964924
 10
61.96142474775379
 20
-79.54606283563001
 10
61.96004678737129
 20
-79.54529568734101
 10
61.9586599289051
 20
-79.54454569888929
 10
61.95726462250179
 20
-79.54381291753872
 10
61.955861318308
 20
-79.54309739055301
 10
61.95445046647029
 20
-79.54239916519601
 10
61.95303251713529
 20
-79.54171828873151
 10
61.95160792044969
 20
-79.54105480842352
 10
61.9501770853945
 20
-79.54040874568811
 10
61.94874023060211
 20
-79.53978000242381
 10
61.94729751972509
 20
-79.53916844600742
 10
61.94584911641059
 20
-79.53857394381251
 10
61.9443951843057
 20
-79.5379963632127
 10
61.94293588705759
 20
-79.53743557158161
 10
61.9413665865472
 20
-79.53685320334209
 10
61.93979151621049
 20
-79.5362897927789
 10
61.93821087732628
 20
-79.53574517676731
 10
61.9366248711734
 20
-79.53521919218251
 10
61.93503369903059
 20
-79.53471167589981
 10
61.93343756217679
 20
-79.53422246479461
 10
61.93183666189089
 20
-79.53375139574202
 10
61.93023119945158
 20
-79.53329830561731
 10
61.92851390446029
 20
-79.53283464246306
 10
61.92679189204079
 20
-79.53239105176081
 10
61.92506540647109
 20
-79.5319673355376
 10
61.92333469202919
 20
-79.53156329582052
 10
61.92159999299299
 20
-79.53117873463639
 10
61.91986155364038
 20
-79.5308134540123
 10
61.91811961824949
 20
-79.53046725597531
 10
61.91626525450871
 20
-79.53012010797252
 10
61.91440751283759
 20
-79.52979404146731
 10
61.91254668623849
 20
-79.52948881899842
 10
61.91068306771369
 20
-79.52920420310474
 10
61.90881695026568
 20
-79.52893995632472
 10
61.90694862689671
 20
-79.5286958411973
 10
61.90496832339988
 20
-79.52845904526174
 10
61.90298622312599
 20
-79.52824427096898
 10
61.90100267388469
 20
-79.52805123643971
 10
61.89968963885169
 20
-79.52793532895859
  0
LWPOLYLINE
  5
2D6
330
1E
100
AcDbEntity
  8
1
100
AcDbPolyline
 90
       72
 70
     0
 43
0.0
 10
61.89967967449998
 20
-79.52793448520004
 10
61.88688800434569
 20
-79.52722892662818
 10
61.8740739927604
 20
-79.52719094601994
 10
61.86124794101779
 20
-79.52769382247971
 10
61.84842015039139
 20
-79.52861083511222
 10
61.82919773270739
 20
-79.5304857229886
 10
61.80364095487099
 20
-79.53345908973203
 10
61.77817429008829
 20
-79.53688604195142
 10
61.75279781766539
 20
-79.54075733684381
 10
61.72751161690829
 20
-79.54506373160602
 10
61.7023157671231
 20
-79.549795983435
 10
61.67721034761578
 20
-79.55494484952781
 10
61.65219543769261
 20
-79.56050108708122
 10
61.62727077980388
 20
-79.56645398336222
 10
61.60243347794749
 20
-79.57278131227609
 10
61.57150338801159
 20
-79.5811748893817
 10
61.5406952249036
 20
-79.59005624100552
 10
61.51000088952828
 20
-79.59937129703192
 10
61.47330653615981
 20
-79.61104572335251
 10
61.43067021223769
 20
-79.62523217215672
 10
61.37004479209198
 20
-79.64628509032731
 10
61.30971889866799
 20
-79.66807983224629
 10
61.24368266917199
 20
-79.69285102385142
 10
61.17199907491179
 20
-79.72075914942961
 10
61.09472359454759
 20
-79.75194873528848
 10
61.0119065560422
 20
-79.78654506535381
 10
60.91773108819861
 20
-79.82723277732081
 10
60.81233480944429
 20
-79.87428901992981
 10
60.69003308622479
 20
-79.93063294422753
 10
60.55682675857979
 20
-79.99390054465052
 10
60.40710962203888
 20
-80.06719947635493
 10
60.24110591575228
 20
-80.15094684546061
 10
60.06472629372638
 20
-80.24257300574573
 10
59.86683032236171
 20
-80.34837827144
 10
59.65897997153579
 20
-80.46272006658751
 10
59.44133991551638
 20
-80.58583274668782
 10
59.21409695937689
 20
-80.7179755013073
 10
58.98295404651769
 20
-80.85612762793322
 10
58.75349332750809
 20
-80.99705524649698
 10
58.5257661985761
 20
-81.14076776541642
 10
58.31058322138559
 20
-81.28029467214892
 10
58.10780233356599
 20
-81.41534809887323
 10
57.91731564305399
 20
-81.5456937981164
 10
57.74423443607808
 20
-81.66738540518258
 10
57.588327036668
 20
-81.78003543044379
 10
57.44933407476779
 20
-81.8832387945263
 10
57.32700221188849
 20
-81.97659466019819
 10
57.21604946988579
 20
-82.0636885512876
 10
57.12127129504228
 20
-82.14020896696458
 10
57.03744008484019
 20
-82.20986368532029
 10
56.96435895343169
 20
-82.27239974518692
 10
56.89700045440829
 20
-82.3317882065478
 10
56.84006002113959
 20
-82.383595343686
 10
56.79332057934408
 20
-82.42751260901771
 10
56.75191103699949
 20
-82.46769096704971
 10
56.71569585961299
 20
-82.50397553953641
 10
56.68452665820421
 20
-82.5362142885066
 10
56.65827286168449
 20
-82.5642878525889
 10
56.6325200891692
 20
-82.59284322690991
 10
56.61149271644429
 20
-82.61705891001591
 10
56.59090247299899
 20
-82.6417000453606
 10
56.57078990244372
 20
-82.6668079337603
 10
56.55508656911218
 20
-82.68726200176809
 10
56.5436241310372
 20
-82.7028501741938
 10
56.53252524521369
 20
-82.71868173126959
 10
56.52187418924828
 20
-82.73478472946409
 10
56.51175524074768
 20
-82.7511872252459
 10
56.50534650890989
 20
-82.7623024650283
 10
56.49923669713539
 20
-82.77357159741891
 10
56.49345077656689
 20
-82.78500293544521
 10
56.488013718347
 20
-82.79660479213509
 10
56.48543776565118
 20
-82.802463075801
  0
LWPOLYLINE
  5
320
330
1E
100
AcDbEntity
  8
1
100
AcDbPolyline
 90
       87
 70
     0
 43
0.0
 10
61.99071014850001
 20
-79.68705507040003
 10
61.99178772446309
 20
-79.6845329485678
 10
61.99290699772308
 20
-79.68187579571861
 10
61.99410785195649
 20
-79.67897385569852
 10
61.9953831596927
 20
-79.6758222867947
 10
61.99676606048659
 20
-79.67230640617742
 10
61.9981573264841
 20
-79.66864255514249
 10
61.99930365594999
 20
-79.66550662636919
 10
62.00025701341138
 20
-79.66280089871792
 10
62.00110422578259
 20
-79.66030769947031
 10
62.00185002827839
 20
-79.65803149922722
 10
62.00253520682169
 20
-79.65586148232356
 10
62.00316182450359
 20
-79.6537995702592
 10
62.00373223760188
 20
-79.6518473865165
 10
62.00424903042959
 20
-79.65000628848802
 10
62.0047149538021
 20
-79.64827739763042
 10
62.00516207380239
 20
-79.6465461455832
 10
62.00556170254089
 20
-79.64492853208992
 10
62.0059435798826
 20
-79.6433095338688
 10
62.00628170675869
 20
-79.6418052221032
 10
62.00660342651468
 20
-79.64030025593631
 10
62.00690820900621
 20
-79.63879489516242
 10
62.00717405513859
 20
-79.63740520580272
 10
62.00742460082561
 20
-79.63601560590861
 10
62.00765942909447
 20
-79.63462629981551
 10
62.00787812297228
 20
-79.63323749185859
 10
62.00806406262178
 20
-79.6319650300138
 10
62.00823577335288
 20
-79.63069331583071
 10
62.00839293399018
 20
-79.62942250669931
 10
62.00853522335847
 20
-79.62815276001011
 10
62.00865140224929
 20
-79.62699949923162
 10
62.00875478409729
 20
-79.6258473648286
 10
62.00884512759881
 20
-79.62469647505081
 10
62.00892219145
 20
-79.62354694814781
 10
62.00898573434727
 20
-79.6223989023692
 10
62.00903551498701
 20
-79.62125245596481
 10
62.0090712920652
 20
-79.62010772718402
 10
62.0090913189531
 20
-79.61907903758292
 10
62.00909963158977
 20
-79.61805192124311
 10
62.00909605406499
 20
-79.6170264643688
 10
62.00908041046821
 20
-79.6160027531637
 10
62.00905252488899
 20
-79.61498087383198
 10
62.00901222141689
 20
-79.61396091257761
 10
62.00895932414169
 20
-79.61294295560442
 10
62.00889365715279
 20
-79.61192708911649
 10
62.00881504453978
 20
-79.61091339931792
 10
62.00873415652199
 20
-79.61001423875159
 10
62.00864277732449
 20
-79.60911692669411
 10
62.00854078339979
 20
-79.60822152368931
 10
62.0084280512005
 20
-79.6073280902809
 10
62.00830445717888
 20
-79.60643668701272
 10
62.00816987778758
 20
-79.60554737442861
 10
62.00802418947919
 20
-79.60466021307242
 10
62.007867268706
 20
-79.60377526348792
 10
62.0076989919206
 20
-79.60289258621894
 10
62.0075192355755
 20
-79.60201224180909
 10
62.00732787612309
 20
-79.60113429080251
 10
62.00712479001599
 20
-79.60025879374292
 10
62.0069098537067
 20
-79.5993858111739
 10
62.0066829436476
 20
-79.59851540363948
 10
62.00647447800458
 20
-79.59775595697542
 10
62.00625666760121
 20
-79.59699856873559
 10
62.00602942967019
 20
-79.59624327947981
 10
62.0057926814445
 20
-79.59549012976744
 10
62.00554634015689
 20
-79.59473916015831
 10
62.00529032304019
 20
-79.59399041121192
 10
62.00502455667129
 20
-79.59324392763722
 10
62.00474909334989
 20
-79.59249980996951
 10
62.00446407542099
 20
-79.59175819872844
 10
62.00416964718789
 20
-79.59101923530322
 10
62.00382182006939
 20
-79.59017812927172
 10
62.00346210582249
 20
-79.5893408773368
 10
62.00309071985049
 20
-79.58850769055182
 10
62.0027078775567
 20
-79.58767877997002
 10
62.00231379434449
 20
-79.5868543566446
 10
62.00190868561698
 20
-79.58603463162903
 10
62.00149276677771
 20
-79.58521981597652
 10
62.0010662532297
 20
-79.58441012074032
 10
62.00057402970291
 20
-79.58350559688331
 10
62.00006897656511
 20
-79.58260812117109
 10
61.9995514005134
 20
-79.58171799410742
 10
61.99902160824528
 20
-79.58083551619579
 10
61.998479906458
 20
-79.57996098793981
 10
61.99786442065761
 20
-79.5789989790438
 10
61.99723503109519
 20
-79.57804756774301
 10
61.99659215848039
 20
-79.57710716625111
 10
61.99627156495099
 20
-79.57664939234032
  0
LWPOLYLINE
  5
379
330
1E
100
AcDbEntity
  8
1
100
AcDbPolyline
 90
       80
 70
     0
 43
0.0
 10
56.47987816709998
 20
-82.91288611020009
 10
56.48817458820721
 20
-82.92299303574779
 10
56.49782662423489
 20
-82.93197083592152
 10
56.50854560235549
 20
-82.93976593326929
 10
56.52004284974109
 20
-82.94632475033948
 10
56.53203897022219
 20
-82.9516007144668
 10
56.54438500019359
 20
-82.95564574236159
 10
56.55702826582029
 20
-82.958584458953
 10
56.5699183435888
 20
-82.96054318838342
 10
56.58300480998589
 20
-82.9616482547952
 10
56.59623724149788
 20
-82.96202598233071
 10
56.60956521461137
 20
-82.96180269513229
 10
56.62293830581309
 20
-82.96110471734229
 10
56.63630609158929
 20
-82.96005837310309
 10
56.6562430985919
 20
-82.95809971267642
 10
56.67599336367299
 20
-82.95582797742181
 10
56.70206513766819
 20
-82.9523377215626
 10
56.7278787044486
 20
-82.94834118206159
 10
56.75347892402489
 20
-82.94386114624341
 10
56.77891065640761
 20
-82.93892040143271
 10
56.80421876160711
 20
-82.93354173495391
 10
56.82944809963379
 20
-82.92774793413171
 10
56.85463546015789
 20
-82.92156248012791
 10
56.8797855772296
 20
-82.91501161004541
 10
56.91116593868649
 20
-82.90635016895409
 10
56.94247677353068
 20
-82.89721241033001
 10
56.9799491347284
 20
-82.88569239433071
 10
57.01730143025939
 20
-82.87365305644291
 10
57.0668989165751
 20
-82.85694981261949
 10
57.12854050021089
 20
-82.83528290320743
 10
57.18981179510059
 20
-82.81285184538509
 10
57.25683380013339
 20
-82.78735867399921
 10
57.3295641913921
 20
-82.7586501710587
 10
57.4079849062549
 20
-82.7265952643876
 10
57.49206629853468
 20
-82.69107632665479
 10
57.58771136812748
 20
-82.6493467594018
 10
57.70070327782799
 20
-82.598423767632
 10
57.83079374701149
 20
-82.53789439507398
 10
57.97187533728311
 20
-82.4701552064098
 10
58.12382507305809
 20
-82.39496257982798
 10
58.29232053913628
 20
-82.30911012099658
 10
58.47711352391209
 20
-82.21216936911693
 10
58.6779532732368
 20
-82.10374785073701
 10
58.88888637064099
 20
-81.98661178111171
 10
59.10974416369228
 20
-81.86052081914031
 10
59.34032271046921
 20
-81.72518901921892
 10
59.57482471037399
 20
-81.58369977377192
 10
59.80756961116497
 20
-81.43933913351672
 10
60.03301510905011
 20
-81.29561962891722
 10
60.2457492219835
 20
-81.15625730965861
 10
60.4459076610242
 20
-81.02153076374731
 10
60.62825636426478
 20
-80.89541325429321
 10
60.79304963791759
 20
-80.7783318293117
 10
60.94052928707299
 20
-80.67067961024909
 10
61.07616430313619
 20
-80.56893399909492
 10
61.1949105476923
 20
-80.47730625536161
 10
61.30214812578849
 20
-80.39214878083502
 10
61.39302580206729
 20
-80.31787014867459
 10
61.47284666606479
 20
-80.25067533039218
 10
61.54183947851368
 20
-80.19085259197941
 10
61.60508972560819
 20
-80.13433903776947
 10
61.65783150694789
 20
-80.08567058935289
 10
61.70501354628829
 20
-80.04064610911953
 10
61.74674916997648
 20
-79.99941321194542
 10
61.78318842006238
 20
-79.96213698794479
 10
61.81446130712338
 20
-79.9289403717067
 10
61.84071988301328
 20
-79.89996117994292
 10
61.8621601905566
 20
-79.87538433930239
 10
61.88315332642162
 20
-79.85037249981498
 10
61.90365663451601
 20
-79.82488220872972
 10
61.91966702649558
 20
-79.80411352514551
 10
61.9313608136089
 20
-79.78828486157631
 10
61.9426874588288
 20
-79.7722074042673
 10
61.95355829335468
 20
-79.75585163489792
 10
61.96388464838559
 20
-79.73918803514719
 10
61.97042260940238
 20
-79.72789337481981
 10
61.97665289893929
 20
-79.71644003556672
 10
61.98254924475909
 20
-79.70481927121911
 10
61.9880853746244
 20
-79.69302233560769
 10
61.99070619894871
 20
-79.68706425739902
  0
LWPOLYLINE
  5
3CB
330
1E
100
AcDbEntity
  8
1
100
AcDbPolyline
 90
        2
 70
     0
 43
0.0
 10
62.98857247549999
 20
76.16430943469989
 10
62.9883598625194
 20
60.58188414885671
  0
LWPOLYLINE
  5
3CF
330
1E
100
AcDbEntity
  8
1
100
AcDbPolyline
 90
        2
 70
     0
 43
0.0
 10
61.60000178210001
 20
56.14389996739998
 10
62.02938505094789
 20
56.36846729347619
  0
LWPOLYLINE
  5
3D3
330
1E
100
AcDbEntity
  8
1
100
AcDbPolyline
 90
        2
 70
     0
 43
0.0
 10
62.22802474339999
 20
76.58616150119998
 10
62.98856373151161
 20
76.16431428677849
  0
LWPOLYLINE
  5
3D7
330
1E
100
AcDbEntity
  8
1
100
AcDbPolyline
 90
        2
 70
     0
 43
0.0
 10
61.84507796260001
 20
75.08309395829998
 10
61.85543615190361
 20
75.02946805896391
  0
LWPOLYLINE
  5
3DB
330
1E
100
AcDbEntity
  8
1
100
AcDbPolyline
 90
       40
 70
     0
 43
0.0
 10
61.85543804090001
 20
75.02945823899999
 10
61.9251799283581
 20
74.65618921034018
 10
61.99093344088111
 20
74.28216770303627
 10
62.05267721008311
 20
73.90744052469647
 10
62.110389760565
 20
73.53205649475441
 10
62.16404961692751
 20
73.15606443264369
 10
62.21363530377139
 20
72.77951315779778
 10
62.25912610976071
 20
72.40245111258208
 10
62.30050865833251
 20
72.02492311962156
 10
62.33641664130581
 20
71.66151587340228
 10
62.36850950320379
 20
71.29775544242908
 10
62.3967790257782
 20
70.93367986098141
 10
62.4212169907803
 20
70.56932716333879
 10
62.44181598848332
 20
70.20473563140678
 10
62.45857468175429
 20
69.83994540694618
 10
62.47149449368601
 20
69.47499747709258
 10
62.48057686123729
 20
69.10993283322868
 10
62.4858232213671
 20
68.74479246673701
 10
62.48723501103401
 20
68.37961736899979
 10
62.48481456668471
 20
68.01444838732057
 10
62.47857057749159
 20
67.64932535142746
 10
62.46851446844711
 20
67.28428765282696
 10
62.4540245110183
 20
66.90478131390587
 10
62.435436597175
 20
66.52545418796427
 10
62.41276359050221
 20
66.14635058316419
 10
62.38601969348989
 20
65.76751423018929
 10
62.3552256110194
 20
65.38898605520159
 10
62.32040401911921
 20
65.01080613419469
 10
62.2815775942573
 20
64.63301454297289
 10
62.23876901290172
 20
64.25565135734048
 10
62.1901234202475
 20
63.86427060150099
 10
62.13723578742451
 20
63.4734394384532
 10
62.08014041438981
 20
63.08320095572311
 10
62.0188726361211
 20
62.69359803249258
 10
61.95346778759621
 20
62.30467354794339
 10
61.88130857532071
 20
61.9021068978094
 10
61.80477774709511
 20
61.50036352783449
 10
61.7239186054293
 20
61.09948483202528
 10
61.63877807937701
 20
60.6995062180702
 10
61.60099249975472
 20
60.52838082027728
  0
LWPOLYLINE
  5
405
330
1E
100
AcDbEntity
  8
1
100
AcDbPolyline
 90
        2
 70
     0
 43
0.0
 10
62.9883598331
 20
60.58187414889999
 10
61.600002639024
 20
59.64031290621122
  0
LWPOLYLINE
  5
409
330
1E
100
AcDbEntity
  8
1
100
AcDbPolyline
 90
       80
 70
     0
 43
0.0
 10
47.83206825859998
 20
-87.05993406919999
 10
47.83062666334258
 20
-87.06334129773269
 10
47.82931191025897
 20
-87.06655184634229
 10
47.82811899723607
 20
-87.0695626764825
 10
47.82700177339378
 20
-87.07247916530398
 10
47.82595824027778
 20
-87.07529995872979
 10
47.82498617514787
 20
-87.07802373715789
 10
47.82408316474827
 20
-87.080649217236
 10
47.82324663777858
 20
-87.08317515356821
 10
47.82247389606657
 20
-87.08560034035247
 10
47.82176214444159
 20
-87.0879236129512
 10
47.82107647139688
 20
-87.0902550564117
 10
47.82044845523227
 20
-87.09248310413547
 10
47.81987541199108
 20
-87.0946065529881
 10
47.81935474350608
 20
-87.096624210981
 10
47.81885665846647
 20
-87.09864753944151
 10
47.81840783877636
 20
-87.10056354551829
 10
47.81798081346789
 20
-87.1024843748612
 10
47.81759953431568
 20
-87.1042965181987
 10
47.81723893940788
 20
-87.1061127380695
 10
47.81692026153899
 20
-87.10781906201871
 10
47.81662090132097
 20
-87.1095288070501
 10
47.81635941308858
 20
-87.1111275865868
 10
47.81611568015799
 20
-87.11272921440709
 10
47.81589015027917
 20
-87.1143336268547
 10
47.81568327120157
 20
-87.11594076027347
 10
47.81550826065378
 20
-87.11743547918679
 10
47.81535007622847
 20
-87.1189324383886
 10
47.81520911581888
 20
-87.1204315419709
 10
47.81509475425117
 20
-87.1218170087573
 10
47.81499598318219
 20
-87.12320384621309
 10
47.81491325503868
 20
-87.12459181981261
 10
47.81485190057606
 20
-87.1258649267148
 10
47.81480475527547
 20
-87.12713861058208
 10
47.81477216762108
 20
-87.1284126907699
 10
47.81475448609659
 20
-87.12968698663393
 10
47.81475205918609
 20
-87.13096131752951
 10
47.81476338361839
 20
-87.13211967855379
 10
47.81478786499419
 20
-87.1332777835159
 10
47.81482576513448
 20
-87.134435496695
 10
47.81487734586049
 20
-87.1355926823703
 10
47.81494286899338
 20
-87.1367492048207
 10
47.81502259635428
 20
-87.13790492832549
 10
47.81510671198929
 20
-87.1389442842079
 10
47.81520273599169
 20
-87.1399827840699
 10
47.81531085922908
 20
-87.14102032897091
 10
47.81543127256925
 20
-87.14205681997048
 10
47.81556416687978
 20
-87.143092158128
 10
47.81570972730397
 20
-87.14412623309129
 10
47.81586808626307
 20
-87.14515882940229
 10
47.81603934775119
 20
-87.146189674931
 10
47.81622361548627
 20
-87.14721849699706
 10
47.81642099318657
 20
-87.1482450229208
 10
47.8166315845701
 20
-87.14926898002191
 10
47.81685549335498
 20
-87.15029009562028
 10
47.81706578727368
 20
-87.1511951480328
 10
47.81728675837828
 20
-87.1520975483444
 10
47.81751847951317
 20
-87.1529971050433
 10
47.81776102352297
 20
-87.15389362661751
 10
47.81801446325219
 20
-87.1547869215551
 10
47.81827887154527
 20
-87.15567679834421
 10
47.81855432124696
 20
-87.15656306547279
 10
47.81884088520158
 20
-87.1574455314289
 10
47.81913863625389
 20
-87.15832400470059
 10
47.81944764724818
 20
-87.159198293776
 10
47.81976799102909
 20
-87.1600682071431
 10
47.82009974044117
 20
-87.16093355329011
 10
47.82044296832887
 20
-87.1617941407049
 10
47.82079774753689
 20
-87.1626497778756
 10
47.82116415090968
 20
-87.16350027329019
 10
47.82154225129167
 20
-87.164345435437
 10
47.82193209790127
 20
-87.16518508015679
 10
47.82233360407349
 20
-87.16601906558087
 10
47.82274663466057
 20
-87.16684726492918
 10
47.82317105445438
 20
-87.1676695514407
 10
47.82360672824728
 20
-87.16848579835398
 10
47.82405352083118
 20
-87.1692958789079
 10
47.82451129699828
 20
-87.1700996663413
 10
47.82497992154057
 20
-87.17089703389289
 10
47.82521307687228
 20
-87.1712847184977
  0
LWPOLYLINE
  5
45B
330
1E
100
AcDbEntity
  8
1
100
AcDbPolyline
 90
       81
 70
     0
 43
0.0
 10
53.34419458989989
 20
-83.8331576754
 10
53.33640150852589
 20
-83.8226910830342
 10
53.32680546574779
 20
-83.8138221693608
 10
53.31591048574527
 20
-83.80657683584251
 10
53.30417565028271
 20
-83.8008333187664
 10
53.29189806139909
 20
-83.79636073622041
 10
53.27929581198119
 20
-83.79294128616221
 10
53.2664845292157
 20
-83.79040096290019
 10
53.2535567779301
 20
-83.78858362143009
 10
53.24055763341441
 20
-83.78738241299457
 10
53.2275211771806
 20
-83.78670210334979
 10
53.2144717080316
 20
-83.7864658134139
 10
53.2014205850546
 20
-83.78662094271621
 10
53.18837822455559
 20
-83.78711671936699
 10
53.17535207936368
 20
-83.7879111875471
 10
53.15584976070971
 20
-83.7896003348818
 10
53.13639942471749
 20
-83.7918046901367
 10
53.11700544017639
 20
-83.79445373188051
 10
53.09766869461038
 20
-83.79749428922071
 10
53.07838961583819
 20
-83.80087707851041
 10
53.0527718958837
 20
-83.8058602636328
 10
53.02725110383409
 20
-83.81131726015601
 10
53.00182313577622
 20
-83.81719011205271
 10
52.97016183682049
 20
-83.82504694031071
 10
52.938629994588
 20
-83.8334067544047
 10
52.90721954322719
 20
-83.84221193592308
 10
52.86967663255289
 20
-83.85329657083101
 10
52.83228602503807
 20
-83.86488470113029
 10
52.7888421137915
 20
-83.8789661687379
 10
52.7394095122491
 20
-83.8957152745157
 10
52.6840527924496
 20
-83.91529399094149
 10
52.62283496429301
 20
-83.93784975138629
 10
52.55581693800991
 20
-83.96351675310709
 10
52.48305692441469
 20
-83.99241563096541
 10
52.3985912314561
 20
-84.0271717819119
 10
52.30855035337409
 20
-84.0655047120463
 10
52.20702532355939
 20
-84.11015305358159
 10
52.09415352169539
 20
-84.16139072996779
 10
51.96417781709969
 20
-84.22227504006
 10
51.82318913552429
 20
-84.29038213755619
 10
51.66549548787128
 20
-84.36887560983128
 10
51.49133327884499
 20
-84.45817450698561
 10
51.30094572600889
 20
-84.55869185664591
 10
51.1003015278483
 20
-84.6676947706719
 10
50.88388269005579
 20
-84.7886239769102
 10
50.65762203861479
 20
-84.9186505508142
 10
50.4273271214619
 20
-85.05471171753971
 10
50.19312334572928
 20
-85.19694278213249
 10
49.96620211804899
 20
-85.3385589441765
 10
49.74651173734129
 20
-85.47940251811859
 10
49.53403145406361
 20
-85.61936822982341
 10
49.33952932977978
 20
-85.75101381738248
 10
49.15742323021127
 20
-85.87766362182891
 10
48.9928950791517
 20
-85.99527965339991
 10
48.84569607497669
 20
-86.10345479554471
 10
48.71556458234529
 20
-86.2017793036925
 10
48.602219660509
 20
-86.28983315933641
 10
48.50028726791077
 20
-86.37128895013892
 10
48.40960670484451
 20
-86.44590469439258
 10
48.33494069845261
 20
-86.50916406078899
 10
48.2661246573001
 20
-86.5692205557203
 10
48.20793010350509
 20
-86.621589988881
 10
48.15534469996309
 20
-86.67042636474141
 10
48.10828866691239
 20
-86.71561621563421
 10
48.06666626071759
 20
-86.75703203962047
 10
48.03485954098999
 20
-86.7898042416265
 10
48.0036421880855
 20
-86.8231384370558
 10
47.97743979351658
 20
-86.85222099009429
 10
47.95606647738551
 20
-86.8768657107862
 10
47.93519195467449
 20
-86.90193406132358
 10
47.9189119471196
 20
-86.92233181123731
 10
47.90307563054199
 20
-86.94307582948459
 10
47.89153516351449
 20
-86.9588868311453
 10
47.88033418150149
 20
-86.9749398933942
 10
47.86952815197288
 20
-86.99126098277149
 10
47.85918558405071
 20
-87.0078804354342
 10
47.85259611014089
 20
-87.0191455867533
 10
47.8462867720311
 20
-87.0305735032868
 10
47.84030217757158
 20
-87.0421762627717
 10
47.83470348269394
 20
-87.05396567844621
 10
47.83207220817446
 20
-87.05992488220541
  0
LWPOLYLINE
  5
4AE
330
1E
100
AcDbEntity
  8
1
100
AcDbPolyline
 90
       80
 70
     0
 43
0.0
 10
53.337344591
 20
-83.94451687680001
 10
53.33878618626068
 20
-83.94110964826792
 10
53.34010093935239
 20
-83.93789909966043
 10
53.3412938523859
 20
-83.93488826952319
 10
53.3424110762402
 20
-83.93197178070529
 10
53.34345460936859
 20
-83.92915098728328
 10
53.34442667451039
 20
-83.92642720885891
 10
53.34532968492077
 20
-83.9238017287842
 10
53.34616621189949
 20
-83.92127579245499
 10
53.34693895361841
 20
-83.91885060567309
 10
53.34765070524788
 20
-83.91652733307621
 10
53.34833637829489
 20
-83.9141958896168
 10
53.34896439445879
 20
-83.91196784189331
 10
53.3495374376972
 20
-83.90984439304041
 10
53.35005810617778
 20
-83.9078267350467
 10
53.35055619121138
 20
-83.90580340658491
 10
53.35100501089478
 20
-83.90388740050671
 10
53.3514320361958
 20
-83.90196657116209
 10
53.35181331534038
 20
-83.90015442782269
 10
53.3521739102402
 20
-83.89833820795002
 10
53.3524925881016
 20
-83.89663188399891
 10
53.35279194831199
 20
-83.89492213896559
 10
53.3530534365375
 20
-83.8933233594272
 10
53.35329716946141
 20
-83.8917217316052
 10
53.35352269933419
 20
-83.890117319156
 10
53.35372957840609
 20
-83.8885101857357
 10
53.35390458894929
 20
-83.88701546682119
 10
53.35406277337071
 20
-83.88551850761819
 10
53.35420373377711
 20
-83.884019404035
 10
53.35431809534249
 20
-83.88263393724789
 10
53.35441686640978
 20
-83.8812470997915
 10
53.3544995945521
 20
-83.8798591261915
 10
53.3545609490141
 20
-83.878586019289
 10
53.35460809431427
 20
-83.87731233542146
 10
53.35464068196878
 20
-83.8760382552334
 10
53.35465836349349
 20
-83.8747639593693
 10
53.3546607904045
 20
-83.8734896284737
 10
53.35464946597278
 20
-83.87233126744941
 10
53.3546249845979
 20
-83.8711731624873
 10
53.35458708445838
 20
-83.8700154493082
 10
53.35453550373339
 20
-83.86885826363309
 10
53.35446998060149
 20
-83.8677017411827
 10
53.3543902532417
 20
-83.866546017678
 10
53.35430613760768
 20
-83.86550666179559
 10
53.35421011360621
 20
-83.8644681619337
 10
53.3541019903696
 20
-83.8634306170327
 10
53.35398157703028
 20
-83.86239412603329
 10
53.35384868272049
 20
-83.8613587878758
 10
53.35370312229688
 20
-83.8603247129124
 10
53.35354476333828
 20
-83.8592921166014
 10
53.35337350185069
 20
-83.8582612710727
 10
53.35318923411588
 20
-83.85723244900651
 10
53.35299185641577
 20
-83.85620592308269
 10
53.35278126503238
 20
-83.8551819659815
 10
53.3525573562477
 20
-83.85416085038299
 10
53.35234706232888
 20
-83.8532557979704
 10
53.35212609122438
 20
-83.8523533976587
 10
53.35189437008938
 20
-83.85145384095959
 10
53.3516518260795
 20
-83.8505573193853
 10
53.35139838635019
 20
-83.84966402444749
 10
53.35113397805688
 20
-83.8487741476583
 10
53.3508585283551
 20
-83.8478878805296
 10
53.35057196440017
 20
-83.84700541457332
 10
53.35027421334778
 20
-83.8461269413014
 10
53.34996520235327
 20
-83.8452526522259
 10
53.34964485857208
 20
-83.8443827388586
 10
53.34931310915989
 20
-83.84351739271149
 10
53.34896988127188
 20
-83.8426568052966
 10
53.34861510206367
 20
-83.8418011681257
 10
53.34824869869088
 20
-83.8409506727109
 10
53.34787059830871
 20
-83.840105510564
 10
53.34748075169899
 20
-83.83926586584399
 10
53.3470792455267
 20
-83.83843188041991
 10
53.34666621493959
 20
-83.83760368107138
 10
53.3462417951457
 20
-83.83678139455991
 10
53.34580612135279
 20
-83.8359651476464
 10
53.34535932876889
 20
-83.83515506709242
 10
53.34490155260178
 20
-83.8343512796589
 10
53.34443292805939
 20
-83.83355391210729
 10
53.3441997727276
 20
-83.83316622750241
  0
LWPOLYLINE
  5
500
330
1E
100
AcDbEntity
  8
1
100
AcDbPolyline
 90
       81
 70
     0
 43
0.0
 10
47.82521825969996
 20
-87.17129327060009
 10
47.83301134113188
 20
-87.18175986292255
 10
47.84260738390218
 20
-87.19062877661258
 10
47.85350236386284
 20
-87.1978741101744
 10
47.86523719932428
 20
-87.20361762725321
 10
47.87751478822097
 20
-87.20809020977851
 10
47.89011703764287
 20
-87.21150965981831
 10
47.90292832040598
 20
-87.21404998308759
 10
47.91585607168687
 20
-87.21586732460242
 10
47.92885521619777
 20
-87.21706853308909
 10
47.94189167242858
 20
-87.2177488427515
 10
47.95494114157707
 20
-87.21798513266021
 10
47.96799226455488
 20
-87.2178300033128
 10
47.98103462505497
 20
-87.21733422662799
 10
47.99406077024726
 20
-87.21653975843858
 10
48.01356308890088
 20
-87.2148506111133
 10
48.03301342489135
 20
-87.21264625586179
 10
48.05240740943117
 20
-87.20999721411109
 10
48.07174415499957
 20
-87.20695665677721
 10
48.09102323377928
 20
-87.2035738675226
 10
48.11664095374379
 20
-87.198590682453
 10
48.14216174579097
 20
-87.19313368592578
 10
48.16758971383639
 20
-87.18726083397569
 10
48.19925101278737
 20
-87.17940400569071
 10
48.23078285503648
 20
-87.17104419165847
 10
48.26219330641468
 20
-87.16223901020651
 10
48.29973621709239
 20
-87.1511543753092
 10
48.33712682459696
 20
-87.1395662449745
 10
48.38057073582611
 20
-87.12548477731251
 10
48.43000333735549
 20
-87.10873567149571
 10
48.48536005715068
 20
-87.0891569550576
 10
48.54657788530628
 20
-87.0666011946097
 10
48.61359591160018
 20
-87.04093419291558
 10
48.68635592519679
 20
-87.0120353150609
 10
48.770821618143
 20
-86.97727916408279
 10
48.86086249622788
 20
-86.9389462339547
 10
48.96238752604118
 20
-86.89429789241541
 10
49.07525932791237
 20
-86.84306021604358
 10
49.20523503251409
 20
-86.7821759059635
 10
49.34622371407488
 20
-86.7140688084356
 10
49.50391736175088
 20
-86.63557533620529
 10
49.67807957075709
 20
-86.54627643900992
 10
49.8684671235997
 20
-86.4457590893604
 10
50.06911132176128
 20
-86.33675617533491
 10
50.28553015959428
 20
-86.21582696916631
 10
50.51179081100769
 20
-86.08580039521291
 10
50.74208572819039
 20
-85.94973922853609
 10
50.97628950387428
 20
-85.80750816386169
 10
51.20321073155519
 20
-85.66589200181722
 10
51.42290111227628
 20
-85.5250484278944
 10
51.63538139557338
 20
-85.38508271621656
 10
51.82988351982722
 20
-85.25343712861241
 10
52.01198961944239
 20
-85.12678732423209
 10
52.17651777046508
 20
-85.0091712926088
 10
52.32371677471038
 20
-84.9009961505572
 10
52.45384826724949
 20
-84.80267164228648
 10
52.56719318912299
 20
-84.7146177866896
 10
52.66912558171139
 20
-84.6331619958747
 10
52.75980614475571
 20
-84.5585462515933
 10
52.8344721511937
 20
-84.4952868852506
 10
52.90328819231989
 20
-84.43523039028901
 10
52.96148274608949
 20
-84.3828609570998
 10
53.01406814967421
 20
-84.3340245812841
 10
53.0611241827303
 20
-84.288834730398
 10
53.10274658888849
 20
-84.2474189063739
 10
53.13455330865448
 20
-84.214646704404
 10
53.16577066156391
 20
-84.1813125089806
 10
53.19197305609311
 20
-84.15222995590571
 10
53.21334637221127
 20
-84.12758523520221
 10
53.23422089492909
 20
-84.10251688467049
 10
53.25050090248989
 20
-84.0821191347608
 10
53.2663372190646
 20
-84.0613751165114
 10
53.27787768608089
 20
-84.04556411484398
 10
53.2890786680883
 20
-84.0295110525917
 10
53.29988469763828
 20
-84.01318996322659
 10
53.31022726560799
 20
-83.9965705105912
 10
53.31681673953809
 20
-83.98530535928481
 10
53.32312607763938
 20
-83.97387744274841
 10
53.32911067206488
 20
-83.9622746832468
 10
53.33470936691129
 20
-83.95048526755649
 10
53.3373406414255
 20
-83.94452606379459
  0
LWPOLYLINE
  5
553
330
1E
100
AcDbEntity
  8
1
100
AcDbPolyline
 90
       39
 70
     0
 43
0.0
 10
62.2095708986
 20
-20.1170680066001
 10
62.20119525320811
 20
-20.1213020852341
 10
62.193685780035
 20
-20.12687552549369
 10
62.1874601708021
 20
-20.133381572984
 10
62.18256111933229
 20
-20.14063513131448
 10
62.1788545330203
 20
-20.1485556010186
 10
62.1762052807037
 20
-20.1570629965116
 10
62.17447823122029
 20
-20.16607733220911
 10
62.1735382534077
 20
-20.17551862252639
 10
62.17325021610349
 20
-20.18530688187901
 10
62.17347898814528
 20
-20.19536212468239
 10
62.1740894383708
 20
-20.20560436535201
 10
62.1754251608858
 20
-20.2211433788893
 10
62.17728172341139
 20
-20.24177059655269
 10
62.1782888116329
 20
-20.2569123978467
 10
62.1789352806987
 20
-20.27175979095911
 10
62.17925841820179
 20
-20.2863402460003
 10
62.17929551173511
 20
-20.30068123308089
 10
62.17908384889179
 20
-20.31481022231111
 10
62.1784791250949
 20
-20.3333665793875
 10
62.17732919803069
 20
-20.35619990400419
 10
62.17529314073289
 20
-20.3877184980828
 10
62.17238285900479
 20
-20.43247245867771
 10
62.1713002063543
 20
-20.45500426542429
 10
62.17057899111679
 20
-20.47772524590511
 10
62.1701882262453
 20
-20.500617138557
 10
62.1701081885901
 20
-20.52828466973779
 10
62.1703975423037
 20
-20.5561345402936
 10
62.1712575924003
 20
-20.59349121628299
 10
62.1730910294218
 20
-20.6451334971043
 10
62.18177137666571
 20
-20.84667678098939
 10
62.1957183905048
 20
-21.1759078981055
 10
62.2079262908293
 20
-21.39423562251019
 10
62.24166822736901
 20
-21.9050693489848
 10
62.28261756437049
 20
-22.4431337714265
 10
62.3413376147407
 20
-23.12450703244861
 10
62.4087115338432
 20
-23.82376759076
 10
62.4761976340822
 20
-24.4575508761029
 10
62.5089820300852
 20
-24.7441154890307
  0
LWPOLYLINE
  5
57C
330
1E
100
AcDbEntity
  8
1
100
AcDbPolyline
 90
       70
 70
     0
 43
0.0
 10
62.5089831937
 20
-24.7441254211
 10
62.56856286490751
 20
-25.2303328840521
 10
62.6045791300725
 20
-25.50435626117001
 10
62.6255557539362
 20
-25.65089963578341
 10
62.6583578004125
 20
-25.8642939207061
 10
62.6663545518332
 20
-25.916626699097
 10
62.6726408471721
 20
-25.9585726862145
 10
62.67804433671329
 20
-25.9954334039498
 10
62.69334336904559
 20
-26.0995842222357
 10
62.6974507602875
 20
-26.1253109335116
 10
62.7008220027217
 20
-26.14529708641061
 10
62.70369232585789
 20
-26.1614617778717
 10
62.7063394320774
 20
-26.1756646327068
 10
62.7090859104675
 20
-26.18969130529881
 10
62.711577609486
 20
-26.2018048949926
 10
62.71415819885
 20
-26.21375579421011
 10
62.7164454129568
 20
-26.22386009942399
 10
62.7188060898901
 20
-26.2338271751138
 10
62.7212439937883
 20
-26.2436488512055
 10
62.7237628887901
 20
-26.25331695762481
 10
62.72592654826199
 20
-26.26125051813239
 10
62.7285986908866
 20
-26.27062949231801
 10
62.7374099222944
 20
-26.2998676993244
 10
62.74117439296279
 20
-26.3122638601537
 10
62.7439783212858
 20
-26.3217090333258
 10
62.7462869000703
 20
-26.32972025280019
 10
62.74810750621178
 20
-26.33624339952751
 10
62.74989867835479
 20
-26.3428852699079
 10
62.7516547907663
 20
-26.3496617761156
 10
62.7529454828961
 20
-26.3548420827003
 10
62.754210916096
 20
-26.3601137854841
 10
62.7554487170099
 20
-26.36548359741551
 10
62.7566565122816
 20
-26.37095823144301
 10
62.757831928555
 20
-26.37654440051488
 10
62.75897259247409
 20
-26.38224881757968
 10
62.7600761306826
 20
-26.38807819558589
 10
62.76114016982449
 20
-26.39403924748179
 10
62.76216233654359
 20
-26.40013868621589
 10
62.7631402574838
 20
-26.40638322473661
 10
62.764071559289
 20
-26.4127795759924
 10
62.76495386860311
 20
-26.4193344529316
 10
62.7655136847342
 20
-26.4237957557516
 10
62.7660499683831
 20
-26.42833248698519
 10
62.7665620163334
 20
-26.43294663565431
 10
62.76704912536839
 20
-26.43764019078069
 10
62.76751111898239
 20
-26.4424140594233
 10
62.76817312256721
 20
-26.4496935594852
 10
62.76952830010899
 20
-26.46439342755161
 10
62.7702996134875
 20
-26.47165695789161
 10
62.7708750640401
 20
-26.47641406272851
 10
62.7715130134786
 20
-26.48107586084261
 10
62.7722250380136
 20
-26.4856191170243
 10
62.7730227138557
 20
-26.49002059606401
 10
62.7739176172156
 20
-26.49425706275211
 10
62.77492132430371
 20
-26.49830528187921
 10
62.77604541133078
 20
-26.50214201823581
 10
62.7773014545074
 20
-26.5057440366122
 10
62.7787010300441
 20
-26.5090881017989
 10
62.78025571415149
 20
-26.51215097858639
 10
62.7819770830403
 20
-26.51490943176519
 10
62.783876712921
 20
-26.51734022612569
 10
62.7859661800041
 20
-26.51942012645831
 10
62.78825706050049
 20
-26.52112589755361
 10
62.7907609306205
 20
-26.52243430420199
 10
62.79348936657489
 20
-26.52332211119389
 10
62.7964539445741
 20
-26.52376608331981
 10
62.7996662408289
 20
-26.5237429853702
 10
62.8031259458578
 20
-26.5232337763625
 10
62.8066737016226
 20
-26.5222755404209
 10
62.8083861872127
 20
-26.52165576016348
  0
LWPOLYLINE
  5
5C4
330
1E
100
AcDbEntity
  8
1
100
AcDbPolyline
 90
        3
 70
     0
 43
0.0
 10
62.98857247549999
 20
-31.4034225368
 10
62.99693083574739
 20
-26.1051324248149
 10
62.98835989454859
 20
-24.28208620511119
  0
LWPOLYLINE
  5
5C9
330
1E
100
AcDbEntity
  8
1
100
AcDbPolyline
 90
        2
 70
     0
 43
0.0
 10
61.60000001220002
 20
-15.23468265240009
 10
62.02938391181461
 20
-15.2352975392279
  0
LWPOLYLINE
  5
5CD
330
1E
100
AcDbEntity
  8
1
100
AcDbPolyline
 90
        2
 70
     0
 43
0.0
 10
61.40868933100001
 20
-31.6965303247
 10
62.9885626449607
 20
-31.40342436996619
  0
LWPOLYLINE
  5
5D1
330
1E
100
AcDbEntity
  8
1
100
AcDbPolyline
 90
       70
 70
     0
 43
0.0
 10
62.5089831937
 20
-21.89459467199998
 10
62.44940352239169
 20
-21.40838720905298
 10
62.4133872572159
 20
-21.1343638319332
 10
62.39241063336439
 20
-20.9878204573151
 10
62.359608586902
 20
-20.77442617238501
 10
62.351611835478
 20
-20.72209339399411
 10
62.3453255401336
 20
-20.68014740687761
 10
62.3399220505848
 20
-20.64328668914389
 10
62.3246230182252
 20
-20.53913587086479
 10
62.3205156269784
 20
-20.51340915958999
 10
62.31714438454179
 20
-20.4934230066916
 10
62.3142740614048
 20
-20.47725831523059
 10
62.31162695518579
 20
-20.4630554603952
 10
62.30888047679728
 20
-20.44902878780261
 10
62.3063887777812
 20
-20.43691519810789
 10
62.3038081884207
 20
-20.4249642988893
 10
62.3015209743177
 20
-20.41485999367411
 10
62.2991602973893
 20
-20.4048929179828
 10
62.2967223934968
 20
-20.39507124188939
 10
62.29420349850161
 20
-20.3854031354679
 10
62.2920398390362
 20
-20.3774695749583
 10
62.2893676964203
 20
-20.36809060077001
 10
62.2805564650442
 20
-20.3388523937534
 10
62.27679199438989
 20
-20.32645623291937
 10
62.2739880660771
 20
-20.3170110597437
 10
62.27167948730079
 20
-20.30899984026647
 10
62.2698588811655
 20
-20.3024766935371
 10
62.2680677090283
 20
-20.29583482315461
 10
62.2663115966222
 20
-20.2890583169449
 10
62.265020904496
 20
-20.2838780103589
 10
62.2637554712995
 20
-20.27860630757368
 10
62.2625176703886
 20
-20.2732364956411
 10
62.26130987511949
 20
-20.2677618616126
 10
62.2601344588482
 20
-20.2621756925397
 10
62.25899379493089
 20
-20.25647127547399
 10
62.2578902567236
 20
-20.2506418974671
 10
62.2568262175824
 20
-20.24468084557061
 10
62.25580405086351
 20
-20.2385814068361
 10
62.2548261299229
 20
-20.23233686831511
 10
62.2538948281167
 20
-20.2259405170592
 10
62.253012518801
 20
-20.21938564012002
 10
62.2524527026684
 20
-20.21492433730029
 10
62.2519164190177
 20
-20.21038760606689
 10
62.25140437106529
 20
-20.2057734573981
 10
62.250917262028
 20
-20.2010799022722
 10
62.25045526841121
 20
-20.1963060336302
 10
62.2497932648214
 20
-20.1890265335697
 10
62.2484380872676
 20
-20.17432666550801
 10
62.2476667738822
 20
-20.16706313517111
 10
62.2470913233247
 20
-20.1623060303364
 10
62.24645337388129
 20
-20.15764423222468
 10
62.2457413493412
 20
-20.15310097604549
 10
62.24494367349399
 20
-20.14869949700839
 10
62.2440487701291
 20
-20.14446303032281
 10
62.24304506303599
 20
-20.1404148111983
 10
62.241920976004
 20
-20.1365780748444
 10
62.2406649328227
 20
-20.1329760564706
 10
62.23926535728139
 20
-20.1296319912863
 10
62.2377106731697
 20
-20.1265691145012
 10
62.2359893042769
 20
-20.12381066132471
 10
62.2340896743925
 20
-20.12137986696639
 10
62.2320002073059
 20
-20.11929996663569
 10
62.22970932680659
 20
-20.11759419554211
 10
62.2272054566841
 20
-20.11628578889518
 10
62.2244770207277
 20
-20.11539798190451
 10
62.2215124427269
 20
-20.1149540097795
 10
62.21830014647121
 20
-20.11497710772971
 10
62.2148404414421
 20
-20.1154863167377
 10
62.2112926856773
 20
-20.11644455267921
 10
62.2095802000872
 20
-20.1170643329365
  0
LWPOLYLINE
  5
619
330
1E
100
AcDbEntity
  8
1
100
AcDbPolyline
 90
        5
 70
     0
 43
0.0
 10
60.6960069167
 20
-22.7064247813001
 10
60.6326628531542
 20
-22.86502862149661
 10
60.5649887951037
 20
-23.0292836072337
 10
60.49284696357739
 20
-23.199100104672
 10
60.45684430583619
 20
-23.2819871378726
  0
LWPOLYLINE
  5
620
330
1E
100
AcDbEntity
  8
1
100
AcDbPolyline
 90
        3
 70
     0
 43
0.0
 10
62.0293939118
 20
-15.2352975563001
 10
62.0210355516189
 20
-20.53358766821019
 10
62.0296064927514
 20
-22.35663388788879
  0
LWPOLYLINE
  5
625
330
1E
100
AcDbEntity
  8
1
100
AcDbPolyline
 90
       39
 70
     0
 43
0.0
 10
62.8083954887
 20
-26.5216520865
 10
62.8167711340917
 20
-26.51741800786589
 10
62.8242806072649
 20
-26.51184456760639
 10
62.8305062164983
 20
-26.50533852011661
 10
62.83540526796929
 20
-26.49808496178691
 10
62.83911185428289
 20
-26.4901644920841
 10
62.8417611066013
 20
-26.48165709659251
 10
62.8434881560866
 20
-26.4726427608965
 10
62.8444281339011
 20
-26.46320147058069
 10
62.844716171207
 20
-26.4534132112295
 10
62.84448739916641
 20
-26.4433579684273
 10
62.8438769489416
 20
-26.4331157277585
 10
62.8425412264263
 20
-26.4175767142215
 10
62.84068466389689
 20
-26.39694949655639
 10
62.83967757567189
 20
-26.38180769526051
 10
62.8390311066033
 20
-26.3669603021465
 10
62.83870796909799
 20
-26.35237984710389
 10
62.838670875563
 20
-26.33803886002221
 10
62.8388825384053
 20
-26.32390987079101
 10
62.8394872622013
 20
-26.30535351371369
 10
62.84063718926539
 20
-26.28252018909619
 10
62.84267324656421
 20
-26.2510015950172
 10
62.84558352829471
 20
-26.20624763442231
 10
62.84666618094629
 20
-26.1837158276757
 10
62.8473873961845
 20
-26.160994847195
 10
62.84777816105648
 20
-26.1381029545432
 10
62.84785819871199
 20
-26.11043542336251
 10
62.8475688449984
 20
-26.08258555280681
 10
62.8467087949015
 20
-26.04522887681739
 10
62.84487535787929
 20
-25.99358659599618
 10
62.83619501063469
 20
-25.79204331211139
 10
62.8222479967921
 20
-25.4628121949964
 10
62.81004009646029
 20
-25.2444844705927
 10
62.7762981600165
 20
-24.73365074411271
 10
62.735348822954
 20
-24.1955863216773
 10
62.6766287725696
 20
-23.51421306065771
 10
62.609254853456
 20
-22.81495250234919
 10
62.5417687532715
 20
-22.18116921700159
 10
62.50898435731478
 20
-21.8946046040693
  0
LWPOLYLINE
  5
64E
330
1E
100
AcDbEntity
  8
1
100
AcDbPolyline
 90
        2
 70
     0
 43
0.0
 10
62.0296065542
 20
-22.3566438877
 10
60.4568489115871
 20
-23.28199121962791
  0
LWPOLYLINE
  5
652
330
1E
100
AcDbEntity
  8
1
100
AcDbPolyline
 90
      126
 70
     0
 43
0.0
 10
56.4854338161
 20
-5.466535281100056
 10
56.48122824487138
 20
-5.513122783905066
 10
56.4776073003963
 20
-5.559769333370223
 10
56.4745708356971
 20
-5.606466290715721
 10
56.47211870379639
 20
-5.653205017161767
 10
56.4702507577167
 20
-5.699976873928544
 10
56.46896685048039
 20
-5.746773222236265
 10
56.46826683510999
 20
-5.793585423305115
 10
56.4681505646281
 20
-5.840404838355285
 10
56.4686178920571
 20
-5.887222828606986
 10
56.4696686704196
 20
-5.934030755280407
 10
56.47130275263
 20
-5.980819981466526
 10
56.47351996470931
 20
-6.027582336614003
 10
56.4763200705669
 20
-6.074310727217157
 10
56.4797028253718
 20
-6.120998211338255
 10
56.48366798429329
 20
-6.167637847039537
 10
56.4882153025002
 20
-6.214222692383255
 10
56.4933445351615
 20
-6.260745805431676
 10
56.49905543744639
 20
-6.307200244247045
 10
56.50534776452371
 20
-6.353579066891617
 10
56.5122212715627
 20
-6.399875331427642
 10
56.5196757137321
 20
-6.446082095917382
 10
56.527710846386
 20
-6.492192410242393
 10
56.53632643308879
 20
-6.538198960775646
 10
56.5455222487067
 20
-6.584093933539516
 10
56.55529806892889
 20
-6.629869478128505
 10
56.5656536694444
 20
-6.675517744137088
 10
56.5765888259422
 20
-6.721030881159736
 10
56.5881033141113
 20
-6.766401038790955
 10
56.60019690964089
 20
-6.811620366625206
 10
56.61286938822
 20
-6.856681014256997
 10
56.6261205255377
 20
-6.901575131280774
 10
56.6399500972829
 20
-6.946294867291052
 10
56.6543578661572
 20
-6.990832340215684
 10
56.6693434281632
 20
-7.035179261534347
 10
56.68490626378922
 20
-7.079327061077246
 10
56.70104585120621
 20
-7.123267163025132
 10
56.7177616685856
 20
-7.166990991558775
 10
56.7350531940985
 20
-7.210489970858936
 10
56.752919905916
 20
-7.253755525106357
 10
56.7713612822094
 20
-7.296779078481827
 10
56.79037680114991
 20
-7.339552055166087
 10
56.8099659409087
 20
-7.382065879339907
 10
56.830128179651
 20
-7.424311975174503
 10
56.8508628568651
 20
-7.466281542381687
 10
56.87216881427771
 20
-7.507964975008174
 10
56.8940447819769
 20
-7.549352486405297
 10
56.916489490051
 20
-7.590434289924384
 10
56.93950166858812
 20
-7.631200598916747
 10
56.9630800476764
 20
-7.671641626733713
 10
56.9872233574042
 20
-7.711747586726605
 10
57.01193032785949
 20
-7.751508692246737
 10
57.0371996891306
 20
-7.790915156645436
 10
57.06303017130579
 20
-7.829957193274037
 10
57.0894204470041
 20
-7.868624963960327
 10
57.1163683909097
 20
-7.906907915146956
 10
57.143871293682
 20
-7.944794969672117
 10
57.17192643260418
 20
-7.982275038381617
 10
57.2005310849596
 20
-8.019337032121223
 10
57.2296825280315
 20
-8.055969861736727
 10
57.25937803910309
 20
-8.092162438073916
 10
57.2896148954576
 20
-8.127903671978577
 10
57.3203903743783
 20
-8.163182474296471
 10
57.3517017531484
 20
-8.197987755873418
 10
57.3835462784751
 20
-8.232308413944958
 10
57.4159201659955
 20
-8.266132886791277
 10
57.45250587675421
 20
-8.303118945709206
 10
57.4859806694874
 20
-8.335856074524997
 10
57.5199689870044
 20
-8.368059239403438
 10
57.5544657143271
 20
-8.399716286333967
 10
57.5894657364773
 20
-8.430815061306027
 10
57.6249639384767
 20
-8.461343410309012
 10
57.66095520534729
 20
-8.491289179332396
 10
57.6974344221107
 20
-8.520640214365577
 10
57.7302658380055
 20
-8.546220911525972
 10
57.7634739037819
 20
-8.571313479607697
 10
57.79705276291229
 20
-8.595909244686911
 10
57.83099651844439
 20
-8.619999530379882
 10
57.8652992734259
 20
-8.643575660302886
 10
57.8999551309045
 20
-8.666628958072186
 10
57.93495819392779
 20
-8.689150747304047
 10
57.97030256554378
 20
-8.711132351614747
 10
58.0059823487999
 20
-8.732565094620552
 10
58.0374726657224
 20
-8.750861686171537
 10
58.0692113168306
 20
-8.768725600430395
 10
58.10119434690879
 20
-8.786151026502285
 10
58.13341719217421
 20
-8.803132360435027
 10
58.16587408608871
 20
-8.819664407271828
 10
58.1985591209738
 20
-8.835742020050544
 10
58.2314663891512
 20
-8.851360051809063
 10
58.2645899829423
 20
-8.866513355585219
 10
58.29792399466889
 20
-8.881196784416852
 10
58.3314625166523
 20
-8.895405191341867
 10
58.36519964121428
 20
-8.909133429398096
 10
58.3991294606762
 20
-8.922376351623409
 10
58.4332460673599
 20
-8.935128811055648
 10
58.46754355358659
 20
-8.947385660732685
 10
58.5020160116781
 20
-8.959141753692389
 10
58.5366573171945
 20
-8.970392212153997
 10
58.56647895981871
 20
-8.979630129836671
 10
58.59641497253459
 20
-8.988491550605976
 10
58.6264608131283
 20
-8.996974253921658
 10
58.6566119393859
 20
-9.005076019243487
 10
58.6868638090932
 20
-9.012794626031226
 10
58.71721188003629
 20
-9.020127853744613
 10
58.74765161000111
 20
-9.027073481843443
 10
58.7781784567737
 20
-9.033629289787453
 10
58.80878787814
 20
-9.039793057036416
 10
58.8394753318861
 20
-9.045562563050086
 10
58.87023627579779
 20
-9.050935587288227
 10
58.9010661676612
 20
-9.055909909210594
 10
58.9319604649711
 20
-9.060483308551065
 10
58.96291424257888
 20
-9.064653925302613
 10
58.9939214395345
 20
-9.068420968816267
 10
59.0249757851209
 20
-9.071783845938426
 10
59.05607100862138
 20
-9.074741963515522
 10
59.08720083931928
 20
-9.077294728393967
 10
59.1183590064977
 20
-9.079441547420167
 10
59.1495392394397
 20
-9.081181827440547
 10
59.1807352674287
 20
-9.082514975301515
 10
59.21194081974789
 20
-9.083440397849496
 10
59.24314962568028
 20
-9.083957501930893
 10
59.27435541450929
 20
-9.084065694392126
 10
59.305551915518
 20
-9.083764382079612
 10
59.3367328579897
 20
-9.083052971839775
 10
59.34711196990889
 20
-9.082724937570056
  0
LWPOLYLINE
  5
6D2
330
1E
100
AcDbEntity
  8
1
100
AcDbPolyline
 90
      110
 70
     0
 43
0.0
 10
59.1290220003
 20
-2.636413600000024
 10
59.099482866166
 20
-2.637597112678017
 10
59.0699526769623
 20
-2.639150413753787
 10
59.0404360366748
 20
-2.641072656338065
 10
59.0109382340641
 20
-2.643362851472193
 10
58.98146455789099
 20
-2.646020010197501
 10
58.9520202969161
 20
-2.649043143555334
 10
58.9226107399001
 20
-2.652431262587016
 10
58.89324117560359
 20
-2.656183378333873
 10
58.8639168927874
 20
-2.660298501837254
 10
58.8346431802121
 20
-2.664775644138484
 10
58.8054253266384
 20
-2.669613816278896
 10
58.77626862082699
 20
-2.674812029299824
 10
58.74717835153849
 20
-2.680369294242606
 10
58.7181598075336
 20
-2.686284622148574
 10
58.6892182775731
 20
-2.692557024059055
 10
58.6603589410849
 20
-2.699185429534765
 10
58.6315859741834
 20
-2.706168020411594
 10
58.6029030136097
 20
-2.713502576555055
 10
58.57431369092109
 20
-2.721186873967254
 10
58.5458216376748
 20
-2.729218688650326
 10
58.5133830551048
 20
-2.738820583841154
 10
58.48108168246231
 20
-2.748870154540376
 10
58.4489229406142
 20
-2.759364080961056
 10
58.4169122504273
 20
-2.770299043316275
 10
58.3850550327684
 20
-2.781671721819105
 10
58.3533567085043
 20
-2.793478796682605
 10
58.3218226985019
 20
-2.805716948119856
 10
58.29045842362799
 20
-2.818382856343936
 10
58.2592693041514
 20
-2.831473200917997
 10
58.22826048964029
 20
-2.844984367228276
 10
58.1974364322357
 20
-2.858911982748916
 10
58.1668014732886
 20
-2.873251554556285
 10
58.1363599541502
 20
-2.887998589726736
 10
58.1061162161718
 20
-2.903148595336615
 10
58.0760746007045
 20
-2.918697078462306
 10
58.04623944909959
 20
-2.934639546180147
 10
58.01661510270821
 20
-2.950971505566501
 10
57.9835450966156
 20
-2.969804929919737
 10
57.95075356673191
 20
-2.989119221158396
 10
57.9182466943952
 20
-3.008907982131457
 10
57.8860306609431
 20
-3.029164815687866
 10
57.854111597857
 20
-3.049883313215146
 10
57.8224945291
 20
-3.071056811496477
 10
57.79118339245929
 20
-3.092678397617004
 10
57.7601820801347
 20
-3.114741148181856
 10
57.7294944843256
 20
-3.137238139796165
 10
57.6957698287691
 20
-3.162735671430465
 10
57.6624426218316
 20
-3.188751258612426
 10
57.6295182026075
 20
-3.215275404229716
 10
57.59700191019089
 20
-3.242298611170036
 10
57.5648990836759
 20
-3.269811382321075
 10
57.5332150621567
 20
-3.297804220570504
 10
57.4988527109526
 20
-3.329139488383026
 10
57.465009485619
 20
-3.361031691563856
 10
57.4316895342418
 20
-3.393468650821576
 10
57.3988968525274
 20
-3.426438210629707
 10
57.36663543618239
 20
-3.459928215461763
 10
57.3349092809131
 20
-3.493926509791265
 10
57.3037223824261
 20
-3.528420938091734
 10
57.2730787364276
 20
-3.563399344836696
 10
57.24298233862429
 20
-3.598849574499667
 10
57.2134371847225
 20
-3.634759471554156
 10
57.1844472611725
 20
-3.671116885790817
 10
57.1560157979739
 20
-3.707910101537485
 10
57.1281447195335
 20
-3.745128153109437
 10
57.10083582081079
 20
-3.782760149181984
 10
57.0740908967653
 20
-3.820795198430475
 10
57.0479117423565
 20
-3.859222409530217
 10
57.0246049786076
 20
-3.894487378790376
 10
57.0017686250879
 20
-3.930059264845866
 10
56.9794040303771
 20
-3.965929884883247
 10
56.9575125430548
 20
-4.002091056089103
 10
56.9360955117006
 20
-4.038534595650006
 10
56.9151542636289
 20
-4.075252341789663
 10
56.89468966529329
 20
-4.112236588650927
 10
56.8747021374487
 20
-4.149480071296037
 10
56.85519208261819
 20
-4.186975542823386
 10
56.8361599033253
 20
-4.224715756331345
 10
56.81760600209311
 20
-4.262693464918306
 10
56.799530781445
 20
-4.300901421682646
 10
56.7819346439042
 20
-4.339332379722755
 10
56.7648179919939
 20
-4.377979092137016
 10
56.7481812282375
 20
-4.416834312023806
 10
56.73202475515822
 20
-4.455890792481516
 10
56.7163489752794
 20
-4.495141286608537
 10
56.7011542180607
 20
-4.534578729057715
 10
56.6864404820012
 20
-4.574196876883027
 10
56.6722076719343
 20
-4.613989719886235
 10
56.6584556926877
 20
-4.653951247883753
 10
56.6451844490891
 20
-4.694075450692006
 10
56.63239384596622
 20
-4.734356318127405
 10
56.6200837881466
 20
-4.774787840006366
 10
56.6082541804581
 20
-4.815364006145307
 10
56.59690492772821
 20
-4.856078806360645
 10
56.5860359347847
 20
-4.896926230468793
 10
56.5756471064552
 20
-4.937900268286177
 10
56.5657383475359
 20
-4.978994908718257
 10
56.556309556241
 20
-5.020203950901936
 10
56.5473606161569
 20
-5.061520772210596
 10
56.5388914088994
 20
-5.102938693202784
 10
56.5309018160845
 20
-5.144451034437037
 10
56.523391719328
 20
-5.186051116471907
 10
56.5163610002457
 20
-5.227732259865945
 10
56.5098095404535
 20
-5.269487785177703
 10
56.5037372215673
 20
-5.311311012965721
 10
56.4981439252028
 20
-5.353195263788565
 10
56.49302953297599
 20
-5.395133858204752
 10
56.4883939265027
 20
-5.437120116772867
 10
56.48543477778811
 20
-5.466525327449397
  0
LWPOLYLINE
  5
742
330
1E
100
AcDbEntity
  8
1
100
AcDbPolyline
 90
      110
 70
     0
 43
0.0
 10
59.3471219642
 20
-9.082724599700046
 10
59.37666109832639
 20
-9.081541086808336
 10
59.406191287523
 20
-9.079987785525975
 10
59.4357079278059
 20
-9.078065542791666
 10
59.46520573041389
 20
-9.075775347558423
 10
59.49467940658628
 20
-9.07311818877922
 10
59.524123667562
 20
-9.07009505540706
 10
59.5535332245801
 20
-9.066706936394915
 10
59.58290278887979
 20
-9.062954820695788
 10
59.6122270716999
 20
-9.058839697262667
 10
59.64150078427969
 20
-9.054362555048546
 10
59.6707186378582
 20
-9.049524383006415
 10
59.6998753436745
 20
-9.044326170089263
 10
59.72896561296749
 20
-9.038768905250076
 10
59.75798415697639
 20
-9.032853577441846
 10
59.7869256869403
 20
-9.026581175617575
 10
59.81578502343078
 20
-9.019952770211347
 10
59.84455799033369
 20
-9.012970179386536
 10
59.87324095090779
 20
-9.005635623279275
 10
59.9018302735962
 20
-8.997951325889136
 10
59.9303223268415
 20
-8.989919511215667
 10
59.96276090941
 20
-8.980317616022677
 10
59.99506228205039
 20
-8.970268045309694
 10
60.02722102389621
 20
-8.959774118866137
 10
60.0592317140808
 20
-8.948839156481437
 10
60.09108893173739
 20
-8.937466477945015
 10
60.1227872559995
 20
-8.925659403046307
 10
60.1543212660005
 20
-8.913421251574716
 10
60.18568554087361
 20
-8.900755343319685
 10
60.21687466035039
 20
-8.887664998720545
 10
60.24788347486261
 20
-8.874153832392716
 10
60.27870753226928
 20
-8.860226216861587
 10
60.3093424912192
 20
-8.845886645049997
 10
60.3397840103611
 20
-8.831139609880741
 10
60.3700277483436
 20
-8.815989604276692
 10
60.4000693638153
 20
-8.800441121160659
 10
60.4299045154251
 20
-8.784498653455466
 10
60.45952886182149
 20
-8.768166694083957
 10
60.49259886791979
 20
-8.749333269749037
 10
60.5253903978092
 20
-8.730018978529271
 10
60.5578972701515
 20
-8.710230217574567
 10
60.59011330360871
 20
-8.689973384034777
 10
60.6220323666993
 20
-8.669254886521276
 10
60.6536494354603
 20
-8.648081388250464
 10
60.6849605721043
 20
-8.626459802137457
 10
60.7159618844317
 20
-8.604397051577436
 10
60.74664948024278
 20
-8.581900059965555
 10
60.7803741358009
 20
-8.556402528331496
 10
60.8137013427391
 20
-8.530386941147597
 10
60.8466257619632
 20
-8.503862795526584
 10
60.879142054379
 20
-8.476839588581187
 10
60.9112448808923
 20
-8.449326817424102
 10
60.94292890240911
 20
-8.421333979168075
 10
60.97729125360951
 20
-8.389998711348157
 10
61.0111344789386
 20
-8.358106508160107
 10
61.0444544303106
 20
-8.325669548895467
 10
61.0772471120193
 20
-8.292699989080785
 10
61.10950852835848
 20
-8.259209984242607
 10
61.14123468362191
 20
-8.225211689907505
 10
61.1724215821033
 20
-8.190717261602026
 10
61.20306522809659
 20
-8.155738854852712
 10
61.2331616258956
 20
-8.120288625186136
 10
61.26270677979399
 20
-8.084378728128838
 10
61.2916967033416
 20
-8.048021313890277
 10
61.32012816653928
 20
-8.011228098142586
 10
61.3479992449799
 20
-7.974010046570431
 10
61.37530814370379
 20
-7.936378050498396
 10
61.40205306775159
 20
-7.898343001251045
 10
61.42823222216371
 20
-7.859915790152935
 10
61.4515389859162
 20
-7.824650820894643
 10
61.47437533944
 20
-7.789078934841295
 10
61.49673993415539
 20
-7.753208314806236
 10
61.5186314214826
 20
-7.717047143602837
 10
61.5400484528422
 20
-7.680603604044437
 10
61.5609897009194
 20
-7.643885857907258
 10
61.5814542992607
 20
-7.606901611048407
 10
61.6014418271111
 20
-7.569658128405605
 10
61.6209518819471
 20
-7.532162656880446
 10
61.6399840612455
 20
-7.494422443374515
 10
61.6585379624828
 20
-7.456444734789407
 10
61.6766131831357
 20
-7.418236778026697
 10
61.6942093206808
 20
-7.379805819987976
 10
61.7113259725947
 20
-7.341159107574855
 10
61.727962736354
 20
-7.302303887688893
 10
61.7441192094353
 20
-7.263247407231697
 10
61.7597949893153
 20
-7.223996913104857
 10
61.7749897465341
 20
-7.184559470655477
 10
61.78970348259301
 20
-7.144941322829637
 10
61.80393629265839
 20
-7.105148479825637
 10
61.817688271903
 20
-7.065186951827103
 10
61.8309595154992
 20
-7.025062749017677
 10
61.8437501186196
 20
-6.984781881580996
 10
61.8560601764366
 20
-6.944350359700697
 10
61.8678897841227
 20
-6.903774193560427
 10
61.87923903685039
 20
-6.863059393343798
 10
61.8901080297923
 20
-6.822211969234476
 10
61.9004968581208
 20
-6.781237931416088
 10
61.91040561704
 20
-6.740143290983214
 10
61.9198344083357
 20
-6.698934248798977
 10
61.9287833484213
 20
-6.657617427489967
 10
61.93725255568089
 20
-6.616199506497617
 10
61.9452421484984
 20
-6.574687165263327
 10
61.95275224525779
 20
-6.533087083228496
 10
61.9597829643431
 20
-6.491405939834556
 10
61.9663344241382
 20
-6.449650414522918
 10
61.9724067430272
 20
-6.407827186734976
 10
61.97800003939399
 20
-6.365942935912157
 10
61.98311443162261
 20
-6.324004341495866
 10
61.987750038097
 20
-6.282018082927516
 10
61.99070918681179
 20
-6.252612872250677
  0
LWPOLYLINE
  5
7B2
330
1E
100
AcDbEntity
  8
1
100
AcDbPolyline
 90
      126
 70
     0
 43
0.0
 10
61.99071014850001
 20
-6.252602918600024
 10
61.9949157197286
 20
-6.206015415794137
 10
61.9985366642036
 20
-6.159368866328105
 10
62.0015731289025
 20
-6.112671908981736
 10
62.004025260803
 20
-6.065933182534815
 10
62.0058932068825
 20
-6.019161325767167
 10
62.00717711411861
 20
-5.972364977458576
 10
62.00787712948879
 20
-5.925552776388846
 10
62.0079933999707
 20
-5.878733361337766
 10
62.0075260725418
 20
-5.831915371085157
 10
62.0064752941797
 20
-5.785107444410797
 10
62.0048412119697
 20
-5.738318218223716
 10
62.00262399989121
 20
-5.691555863075245
 10
61.9998238940346
 20
-5.644827472471077
 10
61.9964411392307
 20
-5.598139988348947
 10
61.9924759803105
 20
-5.551500352646616
 10
61.9879286621051
 20
-5.504915507301838
 10
61.9827994294452
 20
-5.458392394252348
 10
61.97708852716189
 20
-5.411937955435898
 10
61.9707962000861
 20
-5.365559132790247
 10
61.9639226930488
 20
-5.319262868253143
 10
61.95646825088078
 20
-5.273056103762328
 10
61.9484331182284
 20
-5.226945789436253
 10
61.93981753152701
 20
-5.180939238901948
 10
61.9306217159103
 20
-5.135044266137026
 10
61.92084589568921
 20
-5.089268721546988
 10
61.91049029517479
 20
-5.043620455537348
 10
61.89955513867779
 20
-4.998107318513618
 10
61.88804065050939
 20
-4.952737160881317
 10
61.87594705498028
 20
-4.907517833045957
 10
61.8632745764015
 20
-4.862457185413058
 10
61.850023439084
 20
-4.817563068388118
 10
61.8361938673387
 20
-4.772843332376658
 10
61.8217860984642
 20
-4.728305859450816
 10
61.80680053645761
 20
-4.683958938130967
 10
61.7912377008307
 20
-4.639811138586996
 10
61.7750981134121
 20
-4.595871036638254
 10
61.7583822960307
 20
-4.552147208104078
 10
61.7410907705151
 20
-4.508648228803798
 10
61.723224058694
 20
-4.465382674556748
 10
61.7047826823961
 20
-4.422359121182257
 10
61.68576716345009
 20
-4.379586144499675
 10
61.6661780236848
 20
-4.337072320328338
 10
61.64601578493471
 20
-4.294826224497106
 10
61.6252811077117
 20
-4.252856657294215
 10
61.60397515028929
 20
-4.211173224672676
 10
61.5820991825797
 20
-4.169785713280875
 10
61.5596544744953
 20
-4.128703909767176
 10
61.5366422959481
 20
-4.087937600779966
 10
61.5130639168505
 20
-4.047496572967606
 10
61.4889206071146
 20
-4.007390612978475
 10
61.4642136366526
 20
-3.967629507460946
 10
61.4389442753768
 20
-3.928223043063396
 10
61.41311379319938
 20
-3.889181006434196
 10
61.38672351750148
 20
-3.850513235745256
 10
61.3597755735989
 20
-3.812230284554127
 10
61.3322726708316
 20
-3.774343230023045
 10
61.3042175319158
 20
-3.736863161306707
 10
61.2756128795677
 20
-3.699801167559817
 10
61.2464614365034
 20
-3.663168337937046
 10
61.21676592543909
 20
-3.626975761593115
 10
61.1865290690911
 20
-3.591234527682696
 10
61.1557535901754
 20
-3.555955725360487
 10
61.1244422114083
 20
-3.521150443781197
 10
61.0925976860822
 20
-3.486829785709707
 10
61.0602237985597
 20
-3.453005312865866
 10
61.0236380877962
 20
-3.416019253952937
 10
60.9901632950569
 20
-3.383282125143076
 10
60.9561749775328
 20
-3.351078960271336
 10
60.9216782502024
 20
-3.319421913347747
 10
60.8866782280445
 20
-3.288323138382346
 10
60.85118002603778
 20
-3.257794789385166
 10
60.81518875916088
 20
-3.227849020366228
 10
60.77870954239259
 20
-3.198497985335566
 10
60.74587812649511
 20
-3.172917288175386
 10
60.7126700607176
 20
-3.147824720091958
 10
60.67909120158749
 20
-3.123228955009476
 10
60.6451474460568
 20
-3.099138669312037
 10
60.6108446910775
 20
-3.075562539383748
 10
60.5761888336017
 20
-3.052509241608685
 10
60.5411857705814
 20
-3.029987452370966
 10
60.5058413989687
 20
-3.008005848054667
 10
60.4701616157157
 20
-2.986573105043896
 10
60.43867129879539
 20
-2.968276513489384
 10
60.40693264768918
 20
-2.950412599228006
 10
60.3749496176121
 20
-2.932987173154846
 10
60.3427267723471
 20
-2.916005839222167
 10
60.3102698784325
 20
-2.899473792386515
 10
60.27758484354659
 20
-2.883396179609757
 10
60.244677575368
 20
-2.867778147853756
 10
60.2115539815753
 20
-2.852624844080377
 10
60.178219969847
 20
-2.837941415251478
 10
60.1446814478616
 20
-2.823733008328916
 10
60.11094432329779
 20
-2.810004770274565
 10
60.077014503834
 20
-2.796761848050286
 10
60.0428978971488
 20
-2.784009388617946
 10
60.00860041092071
 20
-2.771752538939395
 10
59.97412795282829
 20
-2.759996445976506
 10
59.93948664731149
 20
-2.748745987509856
 10
59.9096650046874
 20
-2.739508069821615
 10
59.87972899197171
 20
-2.730646649045897
 10
59.8496831513785
 20
-2.722163945723214
 10
59.8195320251216
 20
-2.714062180394066
 10
59.7892801554151
 20
-2.706343573598977
 10
59.75893208447289
 20
-2.699010345878443
 10
59.72849235450889
 20
-2.692064717772985
 10
59.69796550773721
 20
-2.685508909823103
 10
59.66735608637169
 20
-2.679345142569325
 10
59.6366686326264
 20
-2.673575636552146
 10
59.6059076887152
 20
-2.668202612312083
 10
59.5750777968521
 20
-2.663228290389644
 10
59.5441834995422
 20
-2.658654891051232
 10
59.513229721934
 20
-2.654484274304004
 10
59.48222252497789
 20
-2.650717230796615
 10
59.4511681793907
 20
-2.647354353682275
 10
59.4200729558892
 20
-2.644396236114173
 10
59.3889431251902
 20
-2.641843471245524
 10
59.35778495801059
 20
-2.639696652229515
 10
59.32660472506722
 20
-2.637956372219345
 10
59.2954086970769
 20
-2.636623224368212
 10
59.2642031447565
 20
-2.635697801829326
 10
59.23299433882278
 20
-2.635180697755877
 10
59.20178854999271
 20
-2.635072505301063
 10
59.1705920489829
 20
-2.635373817618086
 10
59.13941110651049
 20
-2.636085227860147
 10
59.1290319945911
 20
-2.636413262130024
  0
LWPOLYLINE
  5
832
330
1E
100
AcDbEntity
  8
1
100
AcDbPolyline
 90
        2
 70
     0
 43
0.0
 10
62.88943599999998
 20
-79.19017400000001
 10
62.63639994405819
 20
-78.19392030342661
  0
LWPOLYLINE
  5
836
330
1E
100
AcDbEntity
  8
1
100
AcDbPolyline
 90
        2
 70
     0
 43
0.0
 10
62.63639748220001
 20
-78.19391061120011
 10
62.62513210277629
 20
-78.14955948652192
  0
LWPOLYLINE
  5
83A
330
1E
100
AcDbEntity
  8
1
100
AcDbPolyline
 90
        2
 70
     0
 43
0.0
 10
62.911614
 20
-80.10375200000002
 10
62.88943624284089
 20
-79.19018399705098
  0
LWPOLYLINE
  5
83E
330
1E
100
AcDbEntity
  8
1
100
AcDbPolyline
 90
        2
 70
     0
 43
0.0
 10
61.408689
 20
-80.98631199999998
 10
60.33796166308339
 20
-81.60347200490392
  0
LWPOLYLINE
  5
842
330
1E
100
AcDbEntity
  8
1
100
AcDbPolyline
 90
        2
 70
     0
 43
0.0
 10
60.26769121720001
 20
-81.59982380550003
 10
60.33794301349799
 20
-81.60347648059872
  0
LWPOLYLINE
  5
846
330
1E
100
AcDbEntity
  8
1
100
AcDbPolyline
 90
        2
 70
     0
 43
0.0
 10
61.408689
 20
-80.98631199999998
 10
62.3491618136646
 20
-80.42192779138053
  0
LWPOLYLINE
  5
84A
330
1E
100
AcDbEntity
  8
1
100
AcDbPolyline
 90
        2
 70
     0
 43
0.0
 10
62.34917038779998
 20
-80.42192264510012
 10
62.91114309055648
 20
-80.0845828656999
  0
LWPOLYLINE
  5
84E
330
1E
100
AcDbEntity
  8
1
100
AcDbPolyline
 90
        2
 70
     0
 43
0.0
 10
62.91115166419999
 20
-80.08457771859999
 10
62.98856342647099
 20
-80.03810314729063
  0
LWPOLYLINE
  5
852
330
1E
100
AcDbEntity
  8
1
100
AcDbPolyline
 90
        2
 70
     0
 43
0.0
 10
62.98835999999999
 20
-63.95280000000001
 10
61.60000832004709
 20
-63.02264922539261
  0
LWPOLYLINE
  5
856
330
1E
100
AcDbEntity
  8
1
100
AcDbPolyline
 90
        2
 70
     0
 43
0.0
 10
62.98857199999999
 20
-80.03809800000002
 10
62.98836002875178
 20
-63.95280999995872
  0
LWPOLYLINE
  5
85A
330
1E
100
AcDbEntity
  8
1
100
AcDbPolyline
 90
      126
 70
     0
 43
0.0
 10
47.83206825859999
 20
-4.277594455200071
 10
47.82785915776979
 20
-4.324220016782646
 10
47.82423572262939
 20
-4.370896737828663
 10
47.82119779090279
 20
-4.417615858407166
 10
47.8187451835367
 20
-4.464368815580255
 10
47.8168776221241
 20
-4.511148212965077
 10
47.8155947918216
 20
-4.557947081992844
 10
47.81489638187879
 20
-4.604758427427186
 10
47.8147821192581
 20
-4.651575005677091
 10
47.8152517510442
 20
-4.698389440639556
 10
47.8163050247974
 20
-4.745194359802384
 10
47.8179416923569
 20
-4.791982462590971
 10
47.82016150884389
 20
-4.838746503621826
 10
47.82296422981559
 20
-4.885479237946745
 10
47.82634962041949
 20
-4.932173394065421
 10
47.830317456311
 20
-4.978821671387254
 10
47.83486751375011
 20
-5.025416767523456
 10
47.83999957325379
 20
-5.071951360679905
 10
47.84571342199789
 20
-5.118418098707373
 10
47.85200884774289
 20
-5.164809626684425
 10
47.8588856392028
 20
-5.211118561640626
 10
47.8663435872347
 20
-5.257337457610827
 10
47.87438248298689
 20
-5.303458860034296
 10
47.88300211560001
 20
-5.349475287382576
 10
47.8922022676962
 20
-5.39537917058151
 10
47.90198272057728
 20
-5.441162922823095
 10
47.91234325173959
 20
-5.486818933420753
 10
47.92328362090359
 20
-5.532339480155302
 10
47.9348035826041
 20
-5.577716808270137
 10
47.94690288671588
 20
-5.622943143450704
 10
47.9595812522641
 20
-5.668010581926472
 10
47.97283838573711
 20
-5.712911167314796
 10
47.98667398879579
 20
-5.757636927845764
 10
48.001087718541
 20
-5.802179750038763
 10
48.01607920785629
 20
-5.846531443397932
 10
48.031648084888
 20
-5.890683805217893
 10
48.0477939193987
 20
-5.934628484206862
 10
48.0645162403584
 20
-5.978357025256004
 10
48.0818145718966
 20
-6.021860962704557
 10
48.09968836619138
 20
-6.065131679520652
 10
48.11813701315911
 20
-6.108160427686684
 10
48.1371598971512
 20
-6.150938448650362
 10
48.15675631691551
 20
-6.193456832361102
 10
48.17692548279939
 20
-6.235706512321397
 10
48.1976665979491
 20
-6.277678410120556
 10
48.2189787654905
 20
-6.319363296893216
 10
48.2408609699536
 20
-6.360751765377156
 10
48.26331218603229
 20
-6.401834394163966
 10
48.2863312720372
 20
-6.442601612367401
 10
48.3099169342282
 20
-6.483043653812582
 10
48.3340678655527
 20
-6.523150735801664
 10
48.3587826226925
 20
-6.562912926189075
 10
48.38405957466821
 20
-6.602320087014222
 10
48.409897073242
 20
-6.641362061977676
 10
48.4362933084926
 20
-6.680028544035977
 10
48.46324624657722
 20
-6.718309017373557
 10
48.4907538324153
 20
-6.756192947079376
 10
48.51881381589521
 20
-6.793669645121362
 10
48.547423688294
 20
-6.830728220429376
 10
48.57658091586021
 20
-6.867357763250465
 10
48.6062827259048
 20
-6.903547208320162
 10
48.63652605727921
 20
-6.939285302630811
 10
48.6673078197333
 20
-6.974560775717263
 10
48.6986246270895
 20
-7.009362201449847
 10
48.7304727840686
 20
-7.043677991104604
 10
48.7664782650975
 20
-7.081222954119012
 10
48.8031294640629
 20
-7.118137897789596
 10
48.83666262563622
 20
-7.150809206732086
 10
48.8707093992125
 20
-7.182945081240842
 10
48.90526475226979
 20
-7.214533454514576
 10
48.9403234649969
 20
-7.245562204615064
 10
48.975880174432
 20
-7.276019183333595
 10
49.01192893244122
 20
-7.305892135186084
 10
49.0484636407927
 20
-7.335168777208862
 10
49.0813417994975
 20
-7.360681911473807
 10
49.1145940515666
 20
-7.385705500033723
 10
49.1482154438375
 20
-7.410230867577446
 10
49.1822009225736
 20
-7.434249342808143
 10
49.21654495720922
 20
-7.457752273461284
 10
49.2512418760098
 20
-7.480731012906955
 10
49.2862859507207
 20
-7.503176923365246
 10
49.3216709844979
 20
-7.525081440449095
 10
49.35739054869999
 20
-7.546436036076753
 10
49.38891451717189
 20
-7.564663499907116
 10
49.42068508139
 20
-7.582457771625236
 10
49.452697414149
 20
-7.599813283896055
 10
49.4849466802374
 20
-7.616724471629436
 10
49.517427964428
 20
-7.633185802956425
 10
49.5501359940119
 20
-7.649191894428372
 10
49.5830653964867
 20
-7.664737404029168
 10
49.616210793737
 20
-7.679816992920815
 10
49.6495665863027
 20
-7.694425447614562
 10
49.6831268852607
 20
-7.708557718546827
 10
49.71688578214789
 20
-7.722208767219932
 10
49.7508373148238
 20
-7.735373594941256
 10
49.78497518393379
 20
-7.748047453084902
 10
49.81929295948049
 20
-7.760225689905045
 10
49.8537842083998
 20
-7.771903656519971
 10
49.888442318023
 20
-7.783076875315586
 10
49.9182768483235
 20
-7.792248993596874
 10
49.9482245414143
 20
-7.801044554706596
 10
49.9782810327024
 20
-7.809460931107246
 10
50.0084418311167
 20
-7.817495649983325
 10
50.0387023001484
 20
-7.825146416435116
 10
50.06905779525768
 20
-7.832410945387272
 10
50.09950366988229
 20
-7.839286954979432
 10
50.13003518006989
 20
-7.845772318151085
 10
50.16064744328629
 20
-7.851865128115765
 10
50.1913355664136
 20
-7.857563494909768
 10
50.2220946554332
 20
-7.862865530497876
 10
50.25291974566719
 20
-7.867769498170665
 10
50.2838057521037
 20
-7.872273918928635
 10
50.31474757800371
 20
-7.876377338887094
 10
50.3457401262618
 20
-7.880078305277196
 10
50.3767782517838
 20
-7.883375511481974
 10
50.4078567142406
 20
-7.886267940925987
 10
50.4389702620721
 20
-7.888754611238522
 10
50.4701136436115
 20
-7.890834540646634
 10
50.5012815828623
 20
-7.892506883738755
 10
50.5324687486751
 20
-7.893771104220546
 10
50.5636698023015
 20
-7.894626708389716
 10
50.59487940457199
 20
-7.895073202867946
 10
50.6260920345637
 20
-7.895110234249156
 10
50.6573017066568
 20
-7.894737806999514
 10
50.68850236202489
 20
-7.893955981963157
 10
50.69369117491139
 20
-7.893786217430774
  0
LWPOLYLINE
  5
8DA
330
1E
100
AcDbEntity
  8
1
100
AcDbPolyline
 90
      110
 70
     0
 43
0.0
 10
50.47571168050001
 20
-1.447470668300016
 10
50.44614488104119
 20
-1.448654691069624
 10
50.416593299134
 20
-1.450206697814834
 10
50.3870618435809
 20
-1.452126270297475
 10
50.35755576472779
 20
-1.454412932836235
 10
50.328080312921
 20
-1.457066209749832
 10
50.2986405905192
 20
-1.460085564449594
 10
50.2692410662757
 20
-1.463470199572735
 10
50.2398860394058
 20
-1.467219247979435
 10
50.210579809123
 20
-1.471331842529074
 10
50.18132668107298
 20
-1.475807091036175
 10
50.1521310245805
 20
-1.480643853382254
 10
50.122997245331
 20
-1.485840847875826
 10
50.0939297494356
 20
-1.491396791169485
 10
50.0649329396684
 20
-1.497310394548073
 10
50.0360111151828
 20
-1.503580202610774
 10
50.00716845393561
 20
-1.510204564997754
 10
49.97840912700429
 20
-1.517181820283185
 10
49.9497373053376
 20
-1.524510306812485
 10
49.9211571097887
 20
-1.532188273970465
 10
49.8926725353824
 20
-1.540213747693245
 10
49.8602409230479
 20
-1.549808659289165
 10
49.827945330493
 20
-1.559851835133975
 10
49.79579160292979
 20
-1.570340167221164
 10
49.7637853434749
 20
-1.581270249593544
 10
49.7319321144925
 20
-1.592638626139126
 10
49.700237475252
 20
-1.604441837709285
 10
49.6687068296825
 20
-1.616676272744244
 10
49.6373453569374
 20
-1.629338099146185
 10
49.60615821859089
 20
-1.642423467569494
 10
49.57515056286329
 20
-1.655928518531924
 10
49.5443273140914
 20
-1.669849222604191
 10
49.5136932110598
 20
-1.684181409506875
 10
49.48325298695021
 20
-1.698920904707665
 10
49.4530113417942
 20
-1.714063514399875
 10
49.4229727024833
 20
-1.729604885967803
 10
49.3931413615393
 20
-1.745540588670514
 10
49.3635216105476
 20
-1.761866191222586
 10
49.3304575604721
 20
-1.780692990376955
 10
49.2976722457267
 20
-1.800001082204034
 10
49.2651711435019
 20
-1.819783886588884
 10
49.2329597156607
 20
-1.840034818960674
 10
49.2010431142902
 20
-1.860747204735653
 10
49.1694262035796
 20
-1.881914285674285
 10
49.13811383672051
 20
-1.903529300350014
 10
49.10711073785911
 20
-1.925585466066116
 10
49.07642123355349
 20
-1.948075934593035
 10
49.0426947498744
 20
-1.973566366909354
 10
49.0093664392867
 20
-1.999575091453914
 10
48.9764415891261
 20
-2.026092671890443
 10
48.9439252457341
 20
-2.053109660751835
 10
48.9118224236784
 20
-2.080616612540103
 10
48.8801377314359
 20
-2.108604109481434
 10
48.8457726614921
 20
-2.139934169456714
 10
48.81192445493962
 20
-2.171821815812644
 10
48.7785983265002
 20
-2.204254635270185
 10
48.7457991218373
 20
-2.237220281468744
 10
48.71353162743471
 20
-2.270706424470001
 10
48.6818001410986
 20
-2.304700878480923
 10
48.650608684748
 20
-2.339191539087035
 10
48.61996121341778
 20
-2.374166329041554
 10
48.5898612186184
 20
-2.409613361895134
 10
48.5603119871124
 20
-2.445520835477343
 10
48.5313167326455
 20
-2.481876986460125
 10
48.50287824631799
 20
-2.518670276984765
 10
48.4749991657301
 20
-2.555889251080706
 10
48.4476820542173
 20
-2.593522501982493
 10
48.4209291007642
 20
-2.631558871099594
 10
48.3947423763286
 20
-2.669987278086753
 10
48.37142930987289
 20
-2.705253109434254
 10
48.3485871217014
 20
-2.740825735649614
 10
48.3262170007897
 20
-2.776697126667014
 10
48.30432012147671
 20
-2.812859266440344
 10
48.2828974807355
 20
-2.849304308830745
 10
48.2619499575307
 20
-2.886024520745345
 10
48.2414784269244
 20
-2.923012173138404
 10
48.2214836652855
 20
-2.960259648726711
 10
48.20196630013089
 20
-2.997759498790415
 10
48.1829269466432
 20
-3.035504288577552
 10
48.16436618275179
 20
-3.073486632990462
 10
48.14628444251439
 20
-3.111699338696646
 10
48.1286821252619
 20
-3.150135258650553
 10
48.11155962193691
 20
-3.188787258991236
 10
48.09491722371671
 20
-3.227648362669665
 10
48.0787551563276
 20
-3.266711695513115
 10
48.0630736437887
 20
-3.305970386194223
 10
48.0478728628049
 20
-3.345417651299444
 10
48.0331529078356
 20
-3.385046860233345
 10
48.0189138651114
 20
-3.424851397691123
 10
48.0051558077384
 20
-3.464824677834033
 10
47.99187873864321
 20
-3.504960272388955
 10
47.97908263739138
 20
-3.545251805532513
 10
47.96676748189059
 20
-3.585692905853834
 10
47.9549332124361
 20
-3.626277302202252
 10
47.94357973179559
 20
-3.666998823461085
 10
47.932706941106
 20
-3.707851302866251
 10
47.9223147292378
 20
-3.748828619486304
 10
47.91240294679879
 20
-3.789924795352336
 10
47.9029714369575
 20
-3.831133880291844
 10
47.8940200416232
 20
-3.872449927639566
 10
47.8855485873186
 20
-3.913867033587294
 10
47.87755689027229
 20
-3.955379323000236
 10
47.8700447664409
 20
-3.996980922025343
 10
47.86301201647289
 20
-4.038666096350466
 10
47.8564584079135
 20
-4.080429413411976
 10
47.8503837039871
 20
-4.122265480029343
 10
47.844787676333
 20
-4.164168819081004
 10
47.83967016753161
 20
-4.206133245762716
 10
47.83503105573909
 20
-4.248152220379256
 10
47.8320692202881
 20
-4.277584501549615
  0
LWPOLYLINE
  5
94A
330
1E
100
AcDbEntity
  8
1
100
AcDbPolyline
 90
      110
 70
     0
 43
0.0
 10
50.6937011692
 20
-7.893785879500065
 10
50.723267968658
 20
-7.892601856724414
 10
50.7528195505645
 20
-7.891049849975005
 10
50.7823510061171
 20
-7.889130277491456
 10
50.8118570849696
 20
-7.886843614953502
 10
50.84133253677589
 20
-7.884190338040876
 10
50.8707722591771
 20
-7.881170983340976
 10
50.90017178341989
 20
-7.877786348216723
 10
50.9295268102891
 20
-7.874037299808454
 10
50.9588330405713
 20
-7.869924705257274
 10
50.9880861686207
 20
-7.865449456749112
 10
51.01728182511259
 20
-7.860612694402346
 10
51.04641560436149
 20
-7.855415699908005
 10
51.0754831002561
 20
-7.849859756613036
 10
51.1044799100222
 20
-7.843946153232175
 10
51.1334017345064
 20
-7.837676345166594
 10
51.16224439575249
 20
-7.831051982777383
 10
51.1910037226832
 20
-7.824074727491715
 10
51.21967554435039
 20
-7.816746240965432
 10
51.24825573990079
 20
-7.809068273814084
 10
51.2767403143089
 20
-7.801042800099302
 10
51.309171926645
 20
-7.791447888510906
 10
51.3414675191996
 20
-7.781404712668142
 10
51.3736212467603
 20
-7.770916380575504
 10
51.4056275062111
 20
-7.759986298193112
 10
51.4374807351892
 20
-7.748617921636755
 10
51.4691753744264
 20
-7.736814710058772
 10
51.5007060199941
 20
-7.724580275020603
 10
51.5320674927384
 20
-7.711918448618656
 10
51.5632546310848
 20
-7.698833080196885
 10
51.5942622868124
 20
-7.685328029235972
 10
51.62508553558399
 20
-7.671407325164246
 10
51.6557196386148
 20
-7.657075138260796
 10
51.68615986272238
 20
-7.642335643057561
 10
51.7164015078753
 20
-7.627193033361165
 10
51.7464401471832
 20
-7.611651661789196
 10
51.776271488126
 20
-7.595715959085576
 10
51.80589123912021
 20
-7.579390356538667
 10
51.8389552892041
 20
-7.560563557399105
 10
51.8717406039596
 20
-7.541255465589695
 10
51.90424170619
 20
-7.521472661216104
 10
51.93645313402701
 20
-7.501221728840452
 10
51.96836973538498
 20
-7.480509343048546
 10
51.999986646083
 20
-7.459342262091932
 10
52.03129901293779
 20
-7.437727247409572
 10
52.0623021118079
 20
-7.415671081705115
 10
52.09299161612738
 20
-7.393180613198034
 10
52.12671809981621
 20
-7.367690180897223
 10
52.16004641039649
 20
-7.341681456346303
 10
52.19297126053859
 20
-7.315163875888535
 10
52.2254876039157
 20
-7.288146887009182
 10
52.25759042597379
 20
-7.260639935223034
 10
52.28927511823322
 20
-7.232652438301355
 10
52.3236401881951
 20
-7.201322378348262
 10
52.3574883947478
 20
-7.169434731994853
 10
52.3908145231686
 20
-7.137001912519432
 10
52.4236137278074
 20
-7.104036266297183
 10
52.455881222193
 20
-7.070550123280366
 10
52.4876127085244
 20
-7.036555669266673
 10
52.5188041648839
 20
-7.002065008669965
 10
52.5494516362361
 20
-6.967090218735336
 10
52.57955163106029
 20
-6.931643185903505
 10
52.60910086257901
 20
-6.895735712333152
 10
52.638096117035
 20
-6.859379561343272
 10
52.6665346033362
 20
-6.822586270799293
 10
52.6944136838981
 20
-6.785367296684227
 10
52.721730795398
 20
-6.747734045773802
 10
52.748483748851
 20
-6.709697676657853
 10
52.7746704732945
 20
-6.671269269677503
 10
52.7979835397606
 20
-6.636003438337771
 10
52.8208257279418
 20
-6.600430812129405
 10
52.84319584885899
 20
-6.564559421116245
 10
52.86509272817039
 20
-6.528397281342656
 10
52.8865153689031
 20
-6.491952238947972
 10
52.9074628920956
 20
-6.455232027027105
 10
52.9279344226887
 20
-6.418244374627845
 10
52.9479291843176
 20
-6.380996899035536
 10
52.9674465494709
 20
-6.343497048972272
 10
52.986485902972
 20
-6.305752259192295
 10
53.0050466668932
 20
-6.267769914793832
 10
53.0231284071632
 20
-6.229557209103457
 10
53.04073072443379
 20
-6.191121289159176
 10
53.057853227747
 20
-6.152469288815265
 10
53.0744956259335
 20
-6.113608185123902
 10
53.0906576932905
 20
-6.074544852267472
 10
53.1063392058223
 20
-6.035286161583006
 10
53.12153998683121
 20
-5.995838896487272
 10
53.1362599418365
 20
-5.956209687567735
 10
53.15049898458379
 20
-5.916405150120095
 10
53.16425704194809
 20
-5.876431869975934
 10
53.1775341110118
 20
-5.836296275411423
 10
53.19033021222749
 20
-5.796004742256386
 10
53.202645367705
 20
-5.755563641927966
 10
53.21447963715421
 20
-5.714979245578632
 10
53.22583311780021
 20
-5.674257724322455
 10
53.23670590849811
 20
-5.633405244920695
 10
53.2470981203712
 20
-5.592427928302674
 10
53.25700990281049
 20
-5.551331752437286
 10
53.2664414126475
 20
-5.510122667497456
 10
53.275392807973
 20
-5.468806620148906
 10
53.2838642622694
 20
-5.427389514200674
 10
53.2918559593167
 20
-5.385877224788685
 10
53.29936808316628
 20
-5.344275625767106
 10
53.30640083317039
 20
-5.302590451448095
 10
53.31295444176689
 20
-5.260827134392956
 10
53.319029145712
 20
-5.218991067779576
 10
53.32462517335049
 20
-5.177087728727316
 10
53.3297426821138
 20
-5.135123302041866
 10
53.3343817938707
 20
-5.093104327421706
 10
53.3373436293118
 20
-5.063672046250514
  0
LWPOLYLINE
  5
9BA
330
1E
100
AcDbEntity
  8
1
100
AcDbPolyline
 90
      126
 70
     0
 43
0.0
 10
53.337344591
 20
-5.063662092600056
 10
53.3415536918528
 20
-5.017036531019344
 10
53.34517712703779
 20
-4.970359809976826
 10
53.34821505879539
 20
-4.923640689401284
 10
53.3506676661508
 20
-4.876887732228794
 10
53.35253522752349
 20
-4.830108334842746
 10
53.3538180577843
 20
-4.783309465813273
 10
53.3545164677084
 20
-4.736498120378055
 10
53.35463073033179
 20
-4.689681542128286
 10
53.3541610985544
 20
-4.642867107166665
 10
53.3531078248011
 20
-4.596062188005045
 10
53.3514711572347
 20
-4.549274085217416
 10
53.3492513407481
 20
-4.502510044186486
 10
53.3464486197984
 20
-4.455777309859715
 10
53.3430632292344
 20
-4.409083153737893
 10
53.3390953933788
 20
-4.362434876413573
 10
53.33454533594849
 20
-4.315839780277496
 10
53.32941327641971
 20
-4.269305187124355
 10
53.32369942763449
 20
-4.222838449101826
 10
53.31740400185299
 20
-4.176446921129595
 10
53.3105272103755
 20
-4.130137986176526
 10
53.3030692623466
 20
-4.083919090206543
 10
53.2950303666179
 20
-4.037797687779246
 10
53.2864107340444
 20
-3.991781260423166
 10
53.2772105819865
 20
-3.945877377216563
 10
53.26743012912171
 20
-3.900093624972365
 10
53.257069597941
 20
-3.854437614380256
 10
53.2461292287437
 20
-3.808917067654265
 10
53.234609267025
 20
-3.763539739543386
 10
53.2225099629341
 20
-3.718313404356236
 10
53.2098315974287
 20
-3.673245965868404
 10
53.1965744639872
 20
-3.628345380472066
 10
53.1827388609189
 20
-3.583619619945503
 10
53.1683251311306
 20
-3.539076797766866
 10
53.1533336417665
 20
-3.494725104423626
 10
53.1377647647064
 20
-3.450572742613216
 10
53.1216189301926
 20
-3.406628063625793
 10
53.1048966092448
 20
-3.362899522573026
 10
53.08759827772321
 20
-3.319395585118526
 10
53.0697244834436
 20
-3.276124868296356
 10
53.051275836487
 20
-3.233096120125706
 10
53.03225295249951
 20
-3.190318099160365
 10
53.012656532735
 20
-3.147799715450207
 10
52.99248736685179
 20
-3.105550035489845
 10
52.9717462517096
 20
-3.063578137687013
 10
52.9504340841827
 20
-3.021893250907075
 10
52.9285518797345
 20
-2.980504782415716
 10
52.90610066366429
 20
-2.939422153624925
 10
52.88308157765978
 20
-2.898654935421735
 10
52.8594959154665
 20
-2.858212893978083
 10
52.8353449841424
 20
-2.818105811988745
 10
52.81063022700621
 20
-2.778343621599211
 10
52.78535327503078
 20
-2.738936460774286
 10
52.75951577644729
 20
-2.699894485817813
 10
52.7331195411756
 20
-2.661228003774082
 10
52.7061666030656
 20
-2.622947530454595
 10
52.678659017205
 20
-2.585063600765844
 10
52.65059903371329
 20
-2.547586902733981
 10
52.6219891613212
 20
-2.510528327421313
 10
52.59283193378778
 20
-2.473898784573246
 10
52.563130123793
 20
-2.437709339461666
 10
52.5328867924567
 20
-2.401971245119673
 10
52.5021050300001
 20
-2.366695772037815
 10
52.4707882226035
 20
-2.331894346343093
 10
52.43894006558121
 20
-2.297578556727515
 10
52.40293458454229
 20
-2.260033593720645
 10
52.366283385604
 20
-2.223118650023435
 10
52.3327502240551
 20
-2.190447341058065
 10
52.29870345047849
 20
-2.158311466551134
 10
52.2641480974012
 20
-2.126723093299113
 10
52.22908938464989
 20
-2.095694343225464
 10
52.1935326752001
 20
-2.065237364525244
 10
52.1574839171914
 20
-2.035364412673295
 10
52.1209492088603
 20
-2.006087770625184
 10
52.0880710501885
 20
-1.980574636316504
 10
52.0548187981524
 20
-1.955551047712866
 10
52.02119740589811
 20
-1.931025680148185
 10
51.9872119271505
 20
-1.907007204935615
 10
51.9528678924857
 20
-1.883504274325304
 10
51.9181709736551
 20
-1.860525534923685
 10
51.8831268989285
 20
-1.838079624489484
 10
51.8477418651507
 20
-1.816175107407573
 10
51.8120223009575
 20
-1.794820511766912
 10
51.7804983324962
 20
-1.776593047918674
 10
51.7487277682882
 20
-1.758798776182235
 10
51.7167154355362
 20
-1.741443263898495
 10
51.68446616944922
 20
-1.724532076163455
 10
51.6519848852533
 20
-1.708070744849174
 10
51.61927685566141
 20
-1.692064653395104
 10
51.58634745318149
 20
-1.676519143804735
 10
51.5532020559346
 20
-1.661439554903754
 10
51.51984626338109
 20
-1.646831100180875
 10
51.4862859644371
 20
-1.632698829215735
 10
51.45252706755901
 20
-1.619047780523144
 10
51.4185755348814
 20
-1.605882952809515
 10
51.3844376657616
 20
-1.593209094693376
 10
51.3501198902032
 20
-1.581030857905074
 10
51.31562864127629
 20
-1.569352891310876
 10
51.2809705316524
 20
-1.558179672517274
 10
51.25113600135528
 20
-1.549007554226355
 10
51.22118830826999
 20
-1.540211993100436
 10
51.19113181698788
 20
-1.531795616680664
 10
51.1609710185791
 20
-1.523760897785086
 10
51.1307105495523
 20
-1.516110131314626
 10
51.100355054447
 20
-1.508845602345774
 10
51.06990917982527
 20
-1.501969592740064
 10
51.0393776696396
 20
-1.495484229559274
 10
51.0087654064238
 20
-1.489391419591225
 10
50.9780772832961
 20
-1.483693052801043
 10
50.94731819427479
 20
-1.478391017225306
 10
50.91649310403798
 20
-1.473487049572615
 10
50.8856070975984
 20
-1.468982628837864
 10
50.8546652716956
 20
-1.464879208900813
 10
50.8236727234356
 20
-1.461178242525376
 10
50.79263459791309
 20
-1.457881036326124
 10
50.7615561354566
 20
-1.454988606881235
 10
50.7304425876258
 20
-1.452501936564706
 10
50.69929920608721
 20
-1.450422007152786
 10
50.6681312668368
 20
-1.448749664059165
 10
50.6369441010241
 20
-1.447485443577606
 10
50.60574304739779
 20
-1.446629839409504
 10
50.5745334451273
 20
-1.446183344932235
 10
50.54332081513579
 20
-1.446146313551284
 10
50.512111143043
 20
-1.446518740800764
 10
50.4809104876751
 20
-1.447300565836935
 10
50.4757216747886
 20
-1.447470330369305
  0
LWPOLYLINE
  5
A3A
330
1E
100
AcDbEntity
  8
1
100
AcDbPolyline
 90
        3
 70
     0
 43
0.0
 10
50.47571951270001
 20
-1.448712367400053
 10
50.4518817731208
 20
-1.448867396813104
 10
50.43955788380579
 20
-1.449041242915215
  0
LWPOLYLINE
  5
A3F
330
1E
100
AcDbEntity
  8
1
100
AcDbPolyline
 90
        3
 70
     0
 43
0.0
 10
50.69362845770001
 20
-7.892546053400055
 10
50.6697741044403
 20
-7.894005092844022
 10
50.6528535100266
 20
-7.894894309390076
  0
LWPOLYLINE
  5
A44
330
1E
100
AcDbEntity
  8
1
100
AcDbPolyline
 90
       27
 70
     0
 43
0.0
 10
39.57638796999996
 20
-30.2661644403
 10
39.6795366622721
 20
-30.2626586805065
 10
39.78575744048771
 20
-30.260163843635
 10
39.89200381795269
 20
-30.2587829065678
 10
40.00129830223189
 20
-30.25850731585789
 10
40.11059091165739
 20
-30.2593749505368
 10
40.22290215458829
 20
-30.2614393407025
 10
40.33518290866259
 20
-30.26467649538878
 10
40.45045551202957
 20
-30.2692081328383
 10
40.56567361802559
 20
-30.2749489361468
 10
40.68082596639639
 20
-30.2818848626683
 10
40.79892845366727
 20
-30.2902313325954
 10
40.91693773335967
 20
-30.29980903494938
 10
41.03484185933388
 20
-30.3106087122413
 10
41.15564743255009
 20
-30.3229453152284
 10
41.27631696095889
 20
-30.3365483149225
 10
41.39683756972909
 20
-30.3514080718856
 10
41.51719666801358
 20
-30.36751650281431
 10
41.64038467886038
 20
-30.3853190672366
 10
41.76337780733688
 20
-30.4044250449623
 10
41.88616335575809
 20
-30.4248304506832
 10
42.00872862495478
 20
-30.4465313007602
 10
42.1310598773056
 20
-30.46952477931811
 10
42.25314052000149
 20
-30.49381128120939
 10
42.37495347380578
 20
-30.5193917482857
 10
42.49648165948189
 20
-30.54626712239889
 10
42.58815961829188
 20
-30.56744548796139
  0
LWPOLYLINE
  5
A61
330
1E
100
AcDbEntity
  8
1
100
AcDbPolyline
 90
        3
 70
     0
 43
0.0
 10
35.57106781179998
 20
-88.30637941639999
 10
36.86281595832189
 20
-88.29740254793447
 10
38.2791569467141
 20
-88.30068028536631
  0
LWPOLYLINE
  5
A66
330
1E
100
AcDbEntity
  8
1
100
AcDbPolyline
 90
       33
 70
     0
 43
0.0
 10
47.39010219569999
 20
2.28110294239996
 10
47.4103414938486
 20
2.288915212491614
 10
47.43067086278689
 20
2.296499765081533
 10
47.45108731068849
 20
2.303854951036323
 10
47.4709837166587
 20
2.310772899637443
 10
47.4909566006736
 20
2.317471713932844
 10
47.51100322720339
 20
2.323949886063114
 10
47.5311208607182
 20
2.330205908168844
 10
47.55069409491649
 20
2.336058774086634
 10
47.5703290312928
 20
2.341699956871363
 10
47.59002317961999
 20
2.347128087743844
 10
47.6097742106919
 20
2.352342039341094
 10
47.62958000592671
 20
2.357341000086043
 10
47.64943846096599
 20
2.362124179726593
 10
47.6693474714513
 20
2.366690788010654
 10
47.6893049330243
 20
2.371040034686133
 10
47.70868294168329
 20
2.375045342741273
 10
47.7281025324858
 20
2.378845201931063
 10
47.747561792256
 20
2.382438893798473
 10
47.7670588078183
 20
2.385825699886463
 10
47.7865916611554
 20
2.389004904141831
 10
47.8061581668891
 20
2.391975923255634
 10
47.82575573801189
 20
2.394738373327074
 10
47.8453817544196
 20
2.397291886887934
 10
47.86503359600778
 20
2.39963609647
 10
47.8847086426722
 20
2.40177063460506
 10
47.9044042743084
 20
2.403695133824904
 10
47.9241178708121
 20
2.405409226661312
 10
47.943846812079
 20
2.406912545646074
 10
47.9635884780048
 20
2.408204723310974
 10
47.9827029640165
 20
2.409253837134634
 10
48.0018250940988
 20
2.410104686110412
 10
48.0120166323024
 20
2.410477157640223
  0
LWPOLYLINE
  5
A89
330
1E
100
AcDbEntity
  8
1
100
AcDbPolyline
 90
       35
 70
     0
 43
0.0
 10
47.39010219569999
 20
-86.4727831870001
 10
47.55387317251821
 20
-86.36724465733241
 10
47.72145479869688
 20
-86.2621124777832
 10
47.89028427717469
 20
-86.15899650309041
 10
48.06033010664698
 20
-86.05789873217906
 10
48.22637201016119
 20
-85.96182338337799
 10
48.38830764047401
 20
-85.87064679537041
 10
48.54341371052849
 20
-85.78569327545841
 10
48.68891394666699
 20
-85.70818327241941
 10
48.82731889660551
 20
-85.63650207873559
 10
48.9558410158837
 20
-85.57183048415359
 10
49.07163626341528
 20
-85.51522724639871
 10
49.17995333564989
 20
-85.4638195309055
 10
49.27524190640588
 20
-85.4199304705174
 10
49.36281443271349
 20
-85.3807977877579
 10
49.44258241203328
 20
-85.34625509465509
 10
49.51445516004028
 20
-85.31612108175808
 10
49.57834262074749
 20
-85.2902102856658
 10
49.63695010826938
 20
-85.26724280121745
 10
49.68741386612009
 20
-85.24814937480559
 10
49.73246532941539
 20
-85.2317008469406
 10
49.77488146368479
 20
-85.2167793121009
 10
49.81179602734901
 20
-85.20429287687409
 10
49.84600913712939
 20
-85.1931865032345
 10
49.87749626798528
 20
-85.18339962146921
 10
49.90335457706489
 20
-85.1757068017398
 10
49.92930786360028
 20
-85.1683398304312
 10
49.95246379360799
 20
-85.16209832834958
 10
49.97279660263739
 20
-85.1568977502437
 10
49.9931998633825
 20
-85.15196679886591
 10
50.01074668477539
 20
-85.14799076630691
 10
50.02541148961871
 20
-85.14487945899421
 10
50.04011596841021
 20
-85.14197237819791
 10
50.05486113336038
 20
-85.13928878188508
 10
50.0607609545981
 20
-85.1382838788124
  0
LWPOLYLINE
  5
AAE
330
1E
100
AcDbEntity
  8
1
100
AcDbPolyline
 90
       80
 70
     0
 43
0.0
 10
61.60000000000001
 20
78.55391581399989
 10
61.59995400568829
 20
78.56207473069857
 10
61.5998161753799
 20
78.5702339245094
 10
61.59958673801551
 20
78.57839219721141
 10
61.5992659225353
 20
78.58654835058349
 10
61.59885395787989
 20
78.59470118640458
 10
61.5983510729896
 20
78.60284950645368
 10
61.59769315997951
 20
78.61180601271406
 10
61.5969258152229
 20
78.62075401021056
 10
61.59604934343938
 20
78.62969190411078
 10
61.5950640494125
 20
78.6386180997448
 10
61.59397027807528
 20
78.64753110476378
 10
61.59276848317549
 20
78.65642970413076
 10
61.5914591367164
 20
78.6653127293338
 10
61.59004271070172
 20
78.67417901186049
 10
61.58851967713471
 20
78.68302738319869
 10
61.58689050801879
 20
78.69185667483626
 10
61.58515567535751
 20
78.7006657182609
 10
61.58331565115431
 20
78.70945334496045
 10
61.5813709074126
 20
78.71821838642269
 10
61.5793219336575
 20
78.72695967806328
 10
61.57716930272378
 20
78.73567607397307
 10
61.57491361218
 20
78.74436643378728
 10
61.57255545959871
 20
78.75302961714218
 10
61.57009544255251
 20
78.76166448367418
 10
61.56753415861381
 20
78.77026989301938
 10
61.56487220535521
 20
78.77884470481408
 10
61.56211018034929
 20
78.78738777869447
 10
61.55924868116861
 20
78.79589797429689
 10
61.55601431269681
 20
78.80514301010291
 10
61.5526631548608
 20
78.81434625073798
 10
61.5491960998859
 20
78.82350640249069
 10
61.54561404001039
 20
78.83262217167097
 10
61.54191786747271
 20
78.84169226458848
 10
61.53810847451129
 20
78.8507153875533
 10
61.53418675336471
 20
78.85969024687508
 10
61.53015359627119
 20
78.86861554886387
 10
61.5260099000891
 20
78.87749000766589
 10
61.52175660940501
 20
78.88631241838628
 10
61.51739469697861
 20
78.89508162391867
 10
61.51292513593421
 20
78.90379646777539
 10
61.507962761642
 20
78.91317486166319
 10
61.50287642904721
 20
78.92248662844528
 10
61.49766737539192
 20
78.93173029774928
 10
61.49233683791799
 20
78.94090439920278
 10
61.48688605968989
 20
78.95000747798857
 10
61.48131632586077
 20
78.95903819173788
 10
61.47562894008679
 20
78.96799524751497
 10
61.46982520610372
 20
78.97687735259741
 10
61.46344640922629
 20
78.98635739315628
 10
61.45693581632379
 20
78.99574739481789
 10
61.45029505573081
 20
79.00504574300295
 10
61.4435257564236
 20
79.01425082678028
 10
61.43662956372921
 20
79.02336112817536
 10
61.42960814026301
 20
79.03237522749869
 10
61.42194810859301
 20
79.04192482863469
 10
61.41414827263901
 20
79.05136062902791
 10
61.40621067836502
 20
79.06068088832078
 10
61.39813737173521
 20
79.06988386615606
 10
61.38993040386161
 20
79.07896783471128
 10
61.38103134185131
 20
79.08852440251647
 10
61.37198515753821
 20
79.09794182155789
 10
61.36279442154131
 20
79.1072181929258
 10
61.35346170447951
 20
79.11635161771069
 10
61.34398957697182
 20
79.12534019700308
 10
61.3343806070505
 20
79.13418203788889
 10
61.3252501461136
 20
79.1423364387406
 10
61.31600362656331
 20
79.15035901777907
 10
61.3066430569502
 20
79.15824846433408
 10
61.2971704458245
 20
79.16600346773498
 10
61.2875878017367
 20
79.17362271731126
 10
61.2778971332372
 20
79.18110490239239
 10
61.26810049122161
 20
79.18844869954869
 10
61.2582002469821
 20
79.19565268881019
 10
61.24886876796722
 20
79.20224898271818
 10
61.2394512809654
 20
79.20872102241428
 10
61.22994983370421
 20
79.21506761731918
 10
61.22036647391119
 20
79.22128757685347
 10
61.2107032493138
 20
79.22737971043789
 10
61.20724165153861
 20
79.22951903035368
  0
LWPOLYLINE
  5
B00
330
1E
100
AcDbEntity
  8
1
100
AcDbPolyline
 90
       74
 70
     0
 43
0.0
 10
61.2072331326
 20
-22.5093736555
 10
61.25237898032501
 20
-22.4906981097612
 10
61.2877835393279
 20
-22.475590433853
 10
61.3166944221083
 20
-22.46287253209629
 10
61.34096543083709
 20
-22.45186770629281
 10
61.36242792490239
 20
-22.44184151893469
 10
61.3806618151117
 20
-22.43306847669888
 10
61.3970240820009
 20
-22.424961813038
 10
61.41197102369989
 20
-22.4173356399847
 10
61.42551614837028
 20
-22.4102203019961
 10
61.43767176869078
 20
-22.4036454030525
 10
61.4484524365167
 20
-22.3976431298471
 10
61.4583030494005
 20
-22.3920013767684
 10
61.4676588564865
 20
-22.3864894996253
 10
61.476523247008
 20
-22.3811155543359
 10
61.48448042169189
 20
-22.3761502381623
 10
61.49195622470839
 20
-22.37134774747919
 10
61.4989546576299
 20
-22.36671731559999
 10
61.50548120677459
 20
-22.36226953531648
 10
61.5115425505692
 20
-22.35801603790889
 10
61.51714627095627
 20
-22.3539691828308
 10
61.5222993549997
 20
-22.35014100144149
 10
61.52739776515449
 20
-22.3462399698055
 10
61.5320500170707
 20
-22.34256993051868
 10
61.5362647133849
 20
-22.33914392750298
 10
61.54042777945448
 20
-22.3356556158978
 10
61.5441643717575
 20
-22.33242774447739
 10
61.5478522754807
 20
-22.3291434853273
 10
61.55148862445461
 20
-22.32580050843441
 10
61.554714601993
 20
-22.3227396209933
 10
61.5578917594842
 20
-22.3196268620568
 10
61.56101473926889
 20
-22.31645963974139
 10
61.56374090448689
 20
-22.3135965125162
 10
61.5664162608552
 20
-22.31068648266818
 10
61.5687125583282
 20
-22.3081003001199
 10
61.5709645496661
 20
-22.30547559348181
 10
61.57316971225121
 20
-22.3028111427617
 10
61.57502066755689
 20
-22.30049477003839
 10
61.5768337761256
 20
-22.29814753298551
 10
61.5786074493579
 20
-22.29576866332921
 10
61.5803396527213
 20
-22.29335743399689
 10
61.5817488518887
 20
-22.291322939417
 10
61.58312437752369
 20
-22.2892652582654
 10
61.5844638967422
 20
-22.2871840765426
 10
61.5857650766605
 20
-22.2850790802494
 10
61.586776848601
 20
-22.28337772571639
 10
61.5877613959071
 20
-22.28166076813099
 10
61.5887175241423
 20
-22.2799280467255
 10
61.58964403886999
 20
-22.2781794007321
 10
61.5905397456538
 20
-22.2764146693833
 10
61.591403450057
 20
-22.2746336919112
 10
61.5922339576432
 20
-22.2728363075483
 10
61.5930300739757
 20
-22.27102235552679
 10
61.5937906046181
 20
-22.2691916750791
 10
61.59451435513389
 20
-22.26734410543737
 10
61.5952001050698
 20
-22.2654796180816
 10
61.59568864193211
 20
-22.26407065942311
 10
61.5961543942431
 20
-22.2626532129758
 10
61.5965967397819
 20
-22.2612278123493
 10
61.59701505632771
 20
-22.25979499115339
 10
61.5974087216595
 20
-22.25835528299799
 10
61.59777711355649
 20
-22.2569092214927
 10
61.59811960979779
 20
-22.2554573402473
 10
61.5984355881624
 20
-22.25400017287169
 10
61.5987244264296
 20
-22.25253825297558
 10
61.5989855023783
 20
-22.2510721141687
 10
61.59921819378778
 20
-22.24960229006089
 10
61.59942187843721
 20
-22.24812931426189
 10
61.5995959341055
 20
-22.2466537203814
 10
61.5997397385718
 20
-22.24517604202929
 10
61.5998526696153
 20
-22.2436968128154
 10
61.59993410501511
 20
-22.2422165663493
 10
61.59998342255029
 20
-22.24073583624089
 10
61.599999999239
 20
-22.23926515611331
  0
LWPOLYLINE
  5
B4C
330
1E
100
AcDbEntity
  8
1
100
AcDbPolyline
 90
       83
 70
     0
 43
0.0
 10
61.2072331326
 20
-78.8545304455001
 10
61.21622269490577
 20
-78.84937559956593
 10
61.22514785312079
 20
-78.8441065713247
 10
61.23400678703109
 20
-78.83872418248772
 10
61.2434710280765
 20
-78.83280193020731
 10
61.25285408018271
 20
-78.82675018575461
 10
61.26215366994649
 20
-78.82056997542711
 10
61.27136752396477
 20
-78.81426232552231
 10
61.28049336883471
 20
-78.80782826233772
 10
61.28952898162289
 20
-78.80126881079942
 10
61.29847241505128
 20
-78.79458498834559
 10
61.30732181548161
 20
-78.7877778098703
 10
61.31607532935269
 20
-78.78084829026531
 10
61.32473110310319
 20
-78.77379744442281
 10
61.33389457893509
 20
-78.76610948478542
 10
61.34294144548618
 20
-78.75828466090661
 10
61.3518694229091
 20
-78.75032422129752
 10
61.36067621163788
 20
-78.74222951200102
 10
61.36935946214489
 20
-78.73400212618181
 10
61.37791681710909
 20
-78.72564369555329
 10
61.38634591920919
 20
-78.71715585182847
 10
61.39464441112429
 20
-78.7085402267209
 10
61.40280993553311
 20
-78.69979845194372
 10
61.41084013511441
 20
-78.69093215921022
 10
61.41821082356996
 20
-78.68254606649969
 10
61.42545974874311
 20
-78.67405444302502
 10
61.4325851146081
 20
-78.66545887086529
 10
61.4395851254966
 20
-78.6567609328557
 10
61.44645798574
 20
-78.64796221183161
 10
61.45320189966979
 20
-78.63906429062831
 10
61.45934707630599
 20
-78.63071449411382
 10
61.4653780836225
 20
-78.62228179484908
 10
61.47129348922248
 20
-78.61376747133492
 10
61.47709192594259
 20
-78.60517293943582
 10
61.48277207039649
 20
-78.59649970719948
 10
61.48833260000698
 20
-78.58774928437792
 10
61.49377219219719
 20
-78.57892318072298
 10
61.49868486952819
 20
-78.57071014143841
 10
61.50349233241771
 20
-78.56243509058694
 10
61.50819354062321
 20
-78.5540992156293
 10
61.512787453902
 20
-78.54570370402647
 10
61.51727304285989
 20
-78.53724975574748
 10
61.52164936893829
 20
-78.52873867549622
 10
61.5259155388724
 20
-78.5201718202007
 10
61.5300706597295
 20
-78.51155054717231
 10
61.53411383857709
 20
-78.50287621372209
 10
61.53804418248277
 20
-78.49415017716161
 10
61.54186079851399
 20
-78.4853737948019
 10
61.54525869380361
 20
-78.47728570949199
 10
61.54855958799068
 20
-78.46915750571969
 10
61.55176279388738
 20
-78.46099022954772
 10
61.5548676749043
 20
-78.45278497679728
 10
61.557873682804
 20
-78.44454293017389
 10
61.56078027823959
 20
-78.43626528112661
 10
61.563586921865
 20
-78.42795322110451
 10
61.56629307433329
 20
-78.41960794155642
 10
61.56889819629819
 20
-78.41123063393142
 10
61.57140174841309
 20
-78.40282248967851
 10
61.5738031913316
 20
-78.39438470024671
 10
61.576101985707
 20
-78.38591845708511
 10
61.5782975924796
 20
-78.3774249516687
 10
61.58038952593198
 20
-78.36890538033149
 10
61.58237741590029
 20
-78.36036094993321
 10
61.58426090733359
 20
-78.35179286870992
 10
61.58603964518079
 20
-78.34320234489772
 10
61.58771327439088
 20
-78.33459058673302
 10
61.58928143991261
 20
-78.32595880245192
 10
61.59074378669521
 20
-78.31730820029051
 10
61.5920999596873
 20
-78.30863998848498
 10
61.59334960383798
 20
-78.29995537527159
 10
61.59449236410758
 20
-78.29125556890611
 10
61.5954382210246
 20
-78.283334543773
 10
61.59629535638099
 20
-78.27540316573122
 10
61.59706366379319
 20
-78.26746261890598
 10
61.59774303687719
 20
-78.25951408742281
 10
61.59833336924918
 20
-78.2515587554068
 10
61.59883455452549
 20
-78.24359780698322
 10
61.59924648632228
 20
-78.23563242627752
 10
61.5995690582557
 20
-78.22766379741472
 10
61.59980216394188
 20
-78.21969310452022
 10
61.59994569699708
 20
-78.21172153171942
 10
61.5999995510376
 20
-78.20375026313742
 10
61.59999999992929
 20
-78.20296319860131
  0
LWPOLYLINE
  5
BA1
330
1E
100
AcDbEntity
  8
1
100
AcDbPolyline
 90
       47
 70
     0
 43
0.0
 10
47.39010219569999
 20
87.65119776949999
 10
47.33480624261461
 20
87.6841702282415
 10
47.27910376770362
 20
87.716463337439
 10
47.22300473654611
 20
87.74807144306469
 10
47.16651911472109
 20
87.77898889109119
 10
47.10965686780768
 20
87.8092100274908
 10
47.05481968118278
 20
87.8375133292363
 10
46.9996539790879
 20
87.86516746644371
 10
46.94416716781581
 20
87.8921687113657
 10
46.88836658138121
 20
87.9185134023792
 10
46.83225955379858
 20
87.94419787786129
 10
46.7758534190825
 20
87.96921847618881
 10
46.71915551395021
 20
87.99357153609873
 10
46.6621734020089
 20
88.01725342654291
 10
46.60741017163781
 20
88.03927433766657
 10
46.55240119216201
 20
88.060674772027
 10
46.49715346327679
 20
88.0814516025525
 10
46.44167398467802
 20
88.10160170217141
 10
46.38596975606112
 20
88.1211219438121
 10
46.3300477872299
 20
88.14000925064553
 10
46.27391513961
 20
88.15826080242741
 10
46.21757889106329
 20
88.1758738606093
 10
46.16104611945861
 20
88.19284568667731
 10
46.10432390266471
 20
88.2091735421176
 10
46.04741931855051
 20
88.22485468841639
 10
45.99293769082722
 20
88.2392172588003
 10
45.9383026566575
 20
88.25298582531308
 10
45.88352072231261
 20
88.26615829472022
 10
45.8285984083579
 20
88.27873258556008
 10
45.77354223535912
 20
88.29070661637109
 10
45.71835872388152
 20
88.3020783056917
 10
45.66305439449078
 20
88.31284557206009
 10
45.6076357641642
 20
88.32300634023839
 10
45.55210924937049
 20
88.3325587093174
 10
45.4964811549321
 20
88.34150097203449
 10
45.44075777984828
 20
88.3498314312278
 10
45.38494542311799
 20
88.3575483897353
 10
45.32905038374051
 20
88.3646501503952
 10
45.27307896071472
 20
88.37113501604539
 10
45.217037480885
 20
88.37700129536509
 10
45.16093310407939
 20
88.3822474717715
 10
45.1047739466141
 20
88.38687222932751
 10
45.05124557909629
 20
88.39069783008689
 10
44.997681990136
 20
88.39395747485571
 10
44.94409023643078
 20
88.39665003642679
 10
44.89047737467879
 20
88.398774387593
 10
44.84490511370711
 20
88.4001322360177
  0
LWPOLYLINE
  5
BD2
330
1E
100
AcDbEntity
  8
1
100
AcDbPolyline
 90
       82
 70
     0
 43
0.0
 10
45.80600872229999
 20
0.2112851527999684
 10
45.80996091455171
 20
0.2410300009957064
 10
45.81427700800829
 20
0.2707283666627004
 10
45.8189553881431
 20
0.3003752040428744
 10
45.8239944404297
 20
0.3299654673781483
 10
45.82939255034161
 20
0.3594941109104433
 10
45.8351481033523
 20
0.3889560888816814
 10
45.84125948493529
 20
0.4183463555337844
 10
45.84772507901599
 20
0.4476598700939844
 10
45.8545431252107
 20
0.4768920564588047
 10
45.8617116034606
 20
0.5060391746701434
 10
45.8692284665581
 20
0.5350975721874305
 10
45.877091667296
 20
0.5640635964700916
 10
45.88529915846661
 20
0.5929335949775556
 10
45.8938488928626
 20
0.6217039151692503
 10
45.90273882327639
 20
0.6503709045046053
 10
45.9119668956273
 20
0.6789309130973522
 10
45.92153088169371
 20
0.7073803583110144
 10
45.93142836969561
 20
0.7357157283955523
 10
45.94260314264469
 20
0.7664928164718468
 10
45.95416878730198
 20
0.7971254156536323
 10
45.96612216115079
 20
0.8276089711253542
 10
45.9784601216742
 20
0.8579389280714543
 10
45.99117952634819
 20
0.8881107317009913
 10
46.00427719993628
 20
0.9181199381733936
 10
46.01774985925878
 20
0.947962469758348
 10
46.0315941989026
 20
0.9776343241340292
 10
46.0458069134547
 20
1.007131498978603
 10
46.06038469750187
 20
1.036449991970253
 10
46.07532424563128
 20
1.065585800787143
 10
46.09191316314269
 20
1.096938797687863
 10
46.10891857520178
 20
1.128067650658484
 10
46.1263363190917
 20
1.158967549393473
 10
46.1441622439056
 20
1.189633766114534
 10
46.1623921987489
 20
1.220061573129513
 10
46.1810220327271
 20
1.250246242746249
 10
46.20004759494547
 20
1.280183047272613
 10
46.2194647346696
 20
1.309867259098474
 10
46.23926936019049
 20
1.339294180891063
 10
46.261026236436
 20
1.370691672334284
 10
46.2832230305732
 20
1.401779649503071
 10
46.30585484371359
 20
1.432552354060713
 10
46.32891677696849
 20
1.463004027670454
 10
46.3524039314492
 20
1.493128911995564
 10
46.3763114471732
 20
1.522921219520993
 10
46.40063470107899
 20
1.552374985048824
 10
46.42715152137179
 20
1.583550059848703
 10
46.45413481114069
 20
1.614322158327764
 10
46.48157899410899
 20
1.644683861142033
 10
46.5094784940001
 20
1.674627748947413
 10
46.5378277975007
 20
1.704146252618344
 10
46.5666216362555
 20
1.733231220307854
 10
46.5958548014716
 20
1.761874358478163
 10
46.62552208435609
 20
1.790067373591454
 10
46.6556182761161
 20
1.817801972109909
 10
46.6861381703299
 20
1.845069844423543
 10
46.7150011606192
 20
1.870090929715043
 10
46.7442247110639
 20
1.894689846049581
 10
46.7738047554264
 20
1.918858706917833
 10
46.80373722746938
 20
1.942589625810474
 10
46.8318436781641
 20
1.964226448737474
 10
46.8602472398744
 20
1.985472516884073
 10
46.88894450235721
 20
2.006320841547774
 10
46.91793190375739
 20
2.026763772677214
 10
46.9472058753696
 20
2.046793630339563
 10
46.9744792689987
 20
2.064909454739203
 10
47.0019909931229
 20
2.082660726890954
 10
47.02973824082721
 20
2.100041405690443
 10
47.05771819057649
 20
2.117045160437843
 10
47.08592798306759
 20
2.133664912306753
 10
47.111986422797
 20
2.148556201377573
 10
47.1382333795832
 20
2.163113228720033
 10
47.1646666463999
 20
2.177330450026653
 10
47.19128401622049
 20
2.191202320989923
 10
47.21808326544578
 20
2.204723283263393
 10
47.24506139628089
 20
2.217887122682973
 10
47.2697387616096
 20
2.229538346611831
 10
47.29455745511699
 20
2.240883117033912
 10
47.3195143456929
 20
2.251916020708743
 10
47.34460630222719
 20
2.262631644395843
 10
47.3698301936095
 20
2.273024574854743
 10
47.39009288701899
 20
2.281099288844961
  0
LWPOLYLINE
  5
C26
330
1E
100
AcDbEntity
  8
1
100
AcDbPolyline
 90
       86
 70
     0
 43
0.0
 10
46.8882832354
 20
-2.185991446400014
 10
46.859190505866
 20
-2.164988878068593
 10
46.8303923833657
 20
-2.143576127780093
 10
46.8018935509185
 20
-2.121760509767304
 10
46.7736986915436
 20
-2.099549338263003
 10
46.7436803145599
 20
-2.075195640110444
 10
46.71402575456428
 20
-2.050400811606514
 10
46.6847405846241
 20
-2.025173569135684
 10
46.6558293336376
 20
-1.999521043720091
 10
46.62527279363461
 20
-1.971571936831825
 10
46.59515567939688
 20
-1.943150687798204
 10
46.5654832575115
 20
-1.914265606265844
 10
46.53626080607799
 20
-1.884924994915014
 10
46.5074939833177
 20
-1.855136926411744
 10
46.4791889054315
 20
-1.824909196295114
 10
46.45135171587461
 20
-1.794249583612653
 10
46.4239885581019
 20
-1.763165867411883
 10
46.39888271244639
 20
-1.733778625803524
 10
46.3742001654501
 20
-1.704035015972374
 10
46.34994607569979
 20
-1.673941105218584
 10
46.32612567320077
 20
-1.643502848585914
 10
46.3027441884462
 20
-1.612726200351113
 10
46.27980685192921
 20
-1.581617114790903
 10
46.2589101624659
 20
-1.552437644243105
 10
46.23840514476279
 20
-1.522981437226684
 10
46.2182961283544
 20
-1.49325332949613
 10
46.19858754038179
 20
-1.463258203937695
 10
46.17928381026438
 20
-1.433000944537625
 10
46.16038936742138
 20
-1.402486435282165
 10
46.1419086412723
 20
-1.371719560157564
 10
46.12384606123849
 20
-1.340705203170365
 10
46.1075478835941
 20
-1.311861194125615
 10
46.09161329022
 20
-1.282814643482903
 10
46.0760457985563
 20
-1.253569697818365
 10
46.06084892604299
 20
-1.224130503708114
 10
46.04602619012
 20
-1.194501207728293
 10
46.03158110822739
 20
-1.164685956455044
 10
46.0175171978052
 20
-1.134688896464475
 10
46.0038379485091
 20
-1.104514248782534
 10
45.99054673170551
 20
-1.074166551401084
 10
45.9776468872865
 20
-1.043650426649544
 10
45.96514175514388
 20
-1.012970496858055
 10
45.95402831361929
 20
-0.9847072774995696
 10
45.9432519190531
 20
-0.9563138608186056
 10
45.9328151440126
 20
-0.9277938071863529
 10
45.9227205456117
 20
-0.8991506954964465
 10
45.91297048375239
 20
-0.8703883410227865
 10
45.90356718223229
 20
-0.8415107221758834
 10
45.8945128621463
 20
-0.8125218206054604
 10
45.8858097445896
 20
-0.7834256179612428
 10
45.87746005065699
 20
-0.7542260958929516
 10
45.86946600144369
 20
-0.7249272360503129
 10
45.86182981804309
 20
-0.6955330200840486
 10
45.85455362036571
 20
-0.6660474972653786
 10
45.84763915299927
 20
-0.6364749676930968
 10
45.8410880735265
 20
-0.6068197896115139
 10
45.8349020395297
 20
-0.5770863212649418
 10
45.8290827085916
 20
-0.5472789208976946
 10
45.8236317382947
 20
-0.5174019467540809
 10
45.8185507862215
 20
-0.4874597570784156
 10
45.8142542172611
 20
-0.4601866630961787
 10
45.8102658092122
 20
-0.4328666672597607
 10
45.80658625518021
 20
-0.4055033021926568
 10
45.80321622882049
 20
-0.3781001096119406
 10
45.8001564037891
 20
-0.3506606312346896
 10
45.7974074537415
 20
-0.3231884087779796
 10
45.79497005233347
 20
-0.2956869839588856
 10
45.79284487322079
 20
-0.2681598984944836
 10
45.79103258976689
 20
-0.2406106940378806
 10
45.7895337234792
 20
-0.2130428790062016
 10
45.7883483960053
 20
-0.1854598743011346
 10
45.7874766639554
 20
-0.1578650865899776
 10
45.78691858393988
 20
-0.1302619225400276
 10
45.7866742125689
 20
-0.1026537888185826
 10
45.7867436064528
 20
-0.0750440920929382
 10
45.7871268222018
 20
-0.0474362390303929
 10
45.78782391642611
 20
-0.0198336362982435
 10
45.7888348612636
 20
0.007760226060785
 10
45.79015914246538
 20
0.0353413779342022
 10
45.79179607205309
 20
0.0629056777362054
 10
45.79374496183129
 20
0.0904489836670343
 10
45.7960051236049
 20
0.1179671539269294
 10
45.7985758691787
 20
0.1454560467161294
 10
45.80145651035728
 20
0.1729115202348744
 10
45.8046463589457
 20
0.2003294326834054
 10
45.8060074659267
 20
0.2112752320373113
  0
LWPOLYLINE
  5
C7E
330
1E
100
AcDbEntity
  8
1
100
AcDbPolyline
 90
        5
 70
     0
 43
0.0
 10
47.00860161869999
 20
-8.068394555400004
 10
46.9904454756776
 20
-6.191532874557652
 10
46.9535568026128
 20
-4.320830664304271
 10
46.8987553164788
 20
-2.479997953740022
 10
46.8882835994556
 20
-2.186001439770994
  0
LWPOLYLINE
  5
C85
330
1E
100
AcDbEntity
  8
1
100
AcDbPolyline
 90
       26
 70
     0
 43
0.0
 10
44.84489511689999
 20
-31.09760238000001
 10
44.97006553323019
 20
-31.1262652908708
 10
45.09302459724489
 20
-31.15306092300389
 10
45.21625944747539
 20
-31.17856006922889
 10
45.3372349520676
 20
-31.20226517057989
 10
45.45592577834899
 20
-31.2242365424535
 10
45.57484059861309
 20
-31.24496264929121
 10
45.6914327948706
 20
-31.26402137019389
 10
45.80567951359159
 20
-31.2814697617153
 10
45.91755935537038
 20
-31.2973656275327
 10
46.02705185277838
 20
-31.3117644956109
 10
46.13413769494238
 20
-31.32472127265889
 10
46.24135311804299
 20
-31.33656065174699
 10
46.34613187735629
 20
-31.3470146808781
 10
46.44845675581759
 20
-31.35613709360131
 10
46.54831192255899
 20
-31.36398317151261
 10
46.64568174707318
 20
-31.3706064138738
 10
46.7405513476531
 20
-31.37606006540611
 10
46.83290738956399
 20
-31.3803993181132
 10
46.92273740972328
 20
-31.3836785643285
 10
47.01002972591821
 20
-31.38595113425389
 10
47.09477414115379
 20
-31.3872723824932
 10
47.17696110223809
 20
-31.38769864778881
 10
47.25657935410729
 20
-31.38728430430961
 10
47.33618649081338
 20
-31.3860311590726
 10
47.39009219976909
 20
-31.384693603548
  0
LWPOLYLINE
  5
CA1
330
1E
100
AcDbEntity
  8
1
100
AcDbPolyline
 90
       34
 70
     0
 43
0.0
 10
45.80600872229998
 20
-87.40420509810009
 10
45.80931700256778
 20
-87.39978192284821
 10
45.81275063520357
 20
-87.3954555700517
 10
45.81630050627146
 20
-87.39122120303541
 10
45.81995750183587
 20
-87.38707398512458
 10
45.82371250796088
 20
-87.38300907964399
 10
45.82755641071087
 20
-87.3790216499189
 10
45.8328041455347
 20
-87.37381723510859
 10
45.83817211284705
 20
-87.36873049173018
 10
45.84363870924478
 20
-87.3637499550726
 10
45.85057951499647
 20
-87.35765684780279
 10
45.85762214863827
 20
-87.3516984012572
 10
45.86475905422838
 20
-87.3458654210219
 10
45.87343742551277
 20
-87.33901862288281
 10
45.88222825101367
 20
-87.3323236121117
 10
45.89260939037147
 20
-87.3246835897914
 10
45.90461390789896
 20
-87.31614676290261
 10
45.91826426197708
 20
-87.3067492439952
 10
45.9335861277066
 20
-87.29653240691341
 10
45.95060546755449
 20
-87.28553930740792
 10
45.96933945879327
 20
-87.27380343237681
 10
45.99295188368498
 20
-87.2594482267719
 10
46.02150167535529
 20
-87.2425931348428
 10
46.05505147575547
 20
-87.22335425807509
 10
46.10009463441927
 20
-87.19825423591602
 10
46.16810340899728
 20
-87.161410353639
 10
46.76874691689998
 20
-86.8435926387557
 10
46.88620363820649
 20
-86.7781891190177
 10
46.99169311021067
 20
-86.71780873475219
 10
47.09010956972917
 20
-86.65991617116679
 10
47.18309934649549
 20
-86.6037093747091
 10
47.27227767947659
 20
-86.5483295328438
 10
47.35922011026509
 20
-86.4928561632337
 10
47.39009382352747
 20
-86.4727886557044
  0
LWPOLYLINE
  5
CC5
330
1E
100
AcDbEntity
  8
1
100
AcDbPolyline
 90
       24
 70
     0
 43
0.0
 10
47.00860161869997
 20
-87.8669298682
 10
47.00780177358689
 20
-87.85814174457179
 10
47.00690638998759
 20
-87.849364173316
 10
47.00586105300788
 20
-87.840110334413
 10
47.00465346523758
 20
-87.83038198875441
 10
47.00334009128947
 20
-87.82066641306903
 10
47.00185186579028
 20
-87.81047870336541
 10
47.00017810948128
 20
-87.7998207441929
 10
46.99830889616747
 20
-87.78869448311551
 10
46.99614620249469
 20
-87.77661928841778
 10
46.99376103627368
 20
-87.764081418041
 10
46.99104797878539
 20
-87.75060205525402
 10
46.98788336376527
 20
-87.735705954909
 10
46.9842363845711
 20
-87.7194011136069
 10
46.97985253685927
 20
-87.7007402200761
 10
46.97432783601448
 20
-87.67830976693018
 10
46.9670963334246
 20
-87.65024080301849
 10
46.95880589643688
 20
-87.61942643101679
 10
46.94965761653359
 20
-87.58683273158409
 10
46.93947563305639
 20
-87.55200086708891
 10
46.92792521438549
 20
-87.514007898484
 10
46.91464107370788
 20
-87.4719401305955
 10
46.89892350830596
 20
-87.4239602242995
 10
46.88828645530608
 20
-87.39237576842828
  0
LWPOLYLINE
  5
CDF
330
1E
100
AcDbEntity
  8
1
100
AcDbPolyline
 90
       42
 70
     0
 43
0.0
 10
44.84489511689996
 20
-88.341353112
 10
44.89848800313986
 20
-88.34138221749359
 10
44.95208310003572
 20
-88.3408430507184
 10
45.00567328019838
 20
-88.33973565123171
 10
45.05925141623907
 20
-88.33806005859043
 10
45.11281038076877
 20
-88.33581631235171
 10
45.16634304639848
 20
-88.3330044520726
 10
45.21984228585218
 20
-88.32962451734561
 10
45.27330125892648
 20
-88.32567663743629
 10
45.32671403265817
 20
-88.3211612250067
 10
45.38007485287167
 20
-88.31607874856659
 10
45.43337796539119
 20
-88.31042967662609
 10
45.48661761604118
 20
-88.3042144776952
 10
45.53978805064606
 20
-88.297433620284
 10
45.59288351490216
 20
-88.29008757306489
 10
45.64589817615607
 20
-88.28217690409799
 10
45.69882599036676
 20
-88.2737024495911
 10
45.75166087819968
 20
-88.2646650905222
 10
45.80439676032027
 20
-88.25506570786933
 10
45.8570275573941
 20
-88.24490518261049
 10
45.90954719008659
 20
-88.23418439572391
 10
45.96413037791927
 20
-88.22242209581622
 10
46.0185794972086
 20
-88.2100539845253
 10
46.07288773951085
 20
-88.19708155051809
 10
46.12704830181239
 20
-88.18350632500239
 10
46.18105438109888
 20
-88.16932983918569
 10
46.23489917435659
 20
-88.15455362427591
 10
46.28857587857146
 20
-88.13917921148069
 10
46.34207770400127
 20
-88.12320814116791
 10
46.39539809219717
 20
-88.106642113346
 10
46.44853068112958
 20
-88.0894829635932
 10
46.50146911500698
 20
-88.07173253179328
 10
46.55420703803796
 20
-88.05339265783031
 10
46.60673809443127
 20
-88.03446518158821
 10
46.65905592839549
 20
-88.01495194295098
 10
46.71115402891667
 20
-87.99485492009171
 10
46.76509501808037
 20
-87.9733377047167
 10
46.81878170676088
 20
-87.95119545588141
 10
46.87220544479827
 20
-87.92843158024551
 10
46.92535758203248
 20
-87.90504948446871
 10
46.97822946830359
 20
-87.88105257521079
 10
47.00859256526435
 20
-87.86693411499951
  0
LWPOLYLINE
  5
D0B
330
1E
100
AcDbEntity
  8
1
100
AcDbPolyline
 90
       37
 70
     0
 43
0.0
 10
46.78648637619995
 20
-87.96456276089998
 10
46.73135963174456
 20
-87.98839647201297
 10
46.67595808505175
 20
-88.01159662570869
 10
46.62028885931988
 20
-88.0341599283585
 10
46.56436037158157
 20
-88.05608263412869
 10
46.51005763578647
 20
-88.0766621390569
 10
46.45552810237409
 20
-88.09663615791901
 10
46.40077937441888
 20
-88.11600130711751
 10
46.34581900467607
 20
-88.13475424306101
 10
46.29065391908208
 20
-88.15289212050648
 10
46.23529061837017
 20
-88.17041243226579
 10
46.17973559519078
 20
-88.18731267757732
 10
46.12592043256438
 20
-88.2030394474912
 10
46.07193843823288
 20
-88.2181835947145
 10
46.01779545608738
 20
-88.23274286836669
 10
45.96349741483268
 20
-88.24671504071659
 10
45.90905066631278
 20
-88.26009799952579
 10
45.85446169406907
 20
-88.2728896685016
 10
45.79973698168518
 20
-88.2850879713632
 10
45.74488301274477
 20
-88.2966908318294
 10
45.68990627083135
 20
-88.30769617361909
 10
45.63481323952867
 20
-88.3181019204513
 10
45.57961035803907
 20
-88.3279060584177
 10
45.52628081692877
 20
-88.3367886555003
 10
45.47286048997517
 20
-88.3451087365487
 10
45.41935492860749
 20
-88.35286480810179
 10
45.36576968425477
 20
-88.36005537669908
 10
45.31211030834618
 20
-88.3666789488795
 10
45.25838235231087
 20
-88.3727340311823
 10
45.20459146196517
 20
-88.37821914927088
 10
45.15074426704759
 20
-88.38313302816509
 10
45.09684798211168
 20
-88.3874745113769
 10
45.04290982944026
 20
-88.3912424439838
 10
44.98893703131648
 20
-88.3944356710638
 10
44.93493681002287
 20
-88.3970530376947
 10
44.88091638784236
 20
-88.3990933889542
 10
44.84490511370718
 20
-88.40013223601779
  0
LWPOLYLINE
  5
D32
330
1E
100
AcDbEntity
  8
1
100
AcDbPolyline
 90
        6
 70
     0
 43
0.0
 10
46.7864835553
 20
87.96460376949992
 10
46.83664426832449
 20
87.94366575283579
 10
46.88680023991699
 20
87.92208450380559
 10
46.93716051762641
 20
87.8997566764378
 10
46.9874890122892
 20
87.87677326981372
 10
47.0085925652643
 20
87.86693411499951
  0
LWPOLYLINE
  5
D3A
330
1E
100
AcDbEntity
  8
1
100
AcDbPolyline
 90
       93
 70
     0
 43
0.0
 10
55.84141936129999
 20
-25.7969058268
 10
55.8414374617179
 20
-25.7935911256898
 10
55.8414949550306
 20
-25.7902767303543
 10
55.8415915346597
 20
-25.78696287743652
 10
55.8417493207877
 20
-25.78317673978019
 10
55.8419571311738
 20
-25.7793924244377
 10
55.84221439548628
 20
-25.7756105854037
 10
55.8425205433936
 20
-25.77183187667281
 10
55.8428750045642
 20
-25.7680569522396
 10
55.84327720866628
 20
-25.7642864660987
 10
55.84372658536839
 20
-25.76052107224469
 10
55.84422256433889
 20
-25.7567614246722
 10
55.8447645752462
 20
-25.7530081773759
 10
55.8453520477586
 20
-25.74926198435031
 10
55.8459844195568
 20
-25.7455234655521
 10
55.8466611735054
 20
-25.74179304898381
 10
55.8473818082932
 20
-25.73807109542201
 10
55.84824434957539
 20
-25.7338944627215
 10
55.8491610793379
 20
-25.7297295111116
 10
55.8501312838239
 20
-25.72557675417331
 10
55.85115424927689
 20
-25.72143670548809
 10
55.8522292619402
 20
-25.7173098786373
 10
55.853355608057
 20
-25.71319678720211
 10
55.85453257387079
 20
-25.70909794476389
 10
55.8557594490767
 20
-25.7050138613508
 10
55.8570355826414
 20
-25.700944985978
 10
55.85836037340129
 20
-25.6968917163262
 10
55.8598887009233
 20
-25.69240686813039
 10
55.8614755362879
 20
-25.6879423185668
 10
55.8631200569853
 20
-25.68349861095651
 10
55.8648214405054
 20
-25.6790762886205
 10
55.8665788643384
 20
-25.67467589487991
 10
55.8683915059745
 20
-25.67029797305589
 10
55.8702585429036
 20
-25.6659430664694
 10
55.8721791777797
 20
-25.6616116960642
 10
55.874352953759
 20
-25.6568748847228
 10
55.87658985312788
 20
-25.65216761271631
 10
55.8788889862438
 20
-25.64749042079951
 10
55.8812494634639
 20
-25.6428438497273
 10
55.88367039514539
 20
-25.6382284402545
 10
55.88615089164578
 20
-25.63364473313601
 10
55.88869006332227
 20
-25.62909326912661
 10
55.8912870205544
 20
-25.62457458897251
 10
55.8941849708437
 20
-25.6196831263617
 10
55.8971497182602
 20
-25.61483192970761
 10
55.90018033032129
 20
-25.6100216133275
 10
55.90327587454488
 20
-25.6052527915385
 10
55.90643541844841
 20
-25.60052607865779
 10
55.90965802954951
 20
-25.5958420890029
 10
55.913219279646
 20
-25.5908166913467
 10
55.9168522661653
 20
-25.5858429361627
 10
55.9205558267282
 20
-25.58092160335021
 10
55.9243289379801
 20
-25.57605346590849
 10
55.92817062813988
 20
-25.5712392942771
 10
55.9320799255115
 20
-25.56647985889131
 10
55.93636443157699
 20
-25.56141641070248
 10
55.94072500544379
 20
-25.55641829938089
 10
55.94516043348678
 20
-25.55148648718151
 10
55.9496695025286
 20
-25.54662193660298
 10
55.95425105639811
 20
-25.5418256411664
 10
55.9592391144429
 20
-25.5367636938686
 10
55.96430791594629
 20
-25.5317826172634
 10
55.9691105274623
 20
-25.5272077278117
 10
55.9739813403182
 20
-25.52270548507539
 10
55.9789193237353
 20
-25.5182769508127
 10
55.9839234469353
 20
-25.5139231867822
 10
55.9889926862885
 20
-25.5096452911726
 10
55.99375727181389
 20
-25.5057419744695
 10
55.9985763522597
 20
-25.5019061612138
 10
56.0034491353743
 20
-25.4981388699114
 10
56.0083748289061
 20
-25.49444111906849
 10
56.0133526406034
 20
-25.49081392719111
 10
56.0183817782145
 20
-25.48725831278531
 10
56.0230689294835
 20
-25.48404061831559
 10
56.0277985248497
 20
-25.4808856161767
 10
56.0325699780985
 20
-25.47779424889931
 10
56.0373827084612
 20
-25.47476747988341
 10
56.04223613516911
 20
-25.47180627252901
 10
56.04712967745349
 20
-25.46891159023589
 10
56.05206275454579
 20
-25.4660843964041
 10
56.0566189760937
 20
-25.463552911608
 10
56.0612074825153
 20
-25.461079687453
 10
56.0658278262359
 20
-25.4586654661943
 10
56.0704794730983
 20
-25.45631106076591
 10
56.0751616735143
 20
-25.4540174599635
 10
56.0798736449529
 20
-25.45178567947461
 10
56.08461460488279
 20
-25.4496167349867
 10
56.0889490652795
 20
-25.4477003490521
 10
56.0933062484598
 20
-25.4458374962091
 10
56.09768556649671
 20
-25.4440289395588
 10
56.10208643146279
 20
-25.44227544220239
 10
56.106508255431
 20
-25.44057776724089
 10
56.1100510165017
 20
-25.4392637618109
  0
LWPOLYLINE
  5
D99
330
1E
100
AcDbEntity
  8
1
100
AcDbPolyline
 90
        4
 70
     0
 43
0.0
 10
61.0368376446
 20
-22.57646795340011
 10
61.11184018045179
 20
-22.547519992275
 10
61.188908645444
 20
-22.5168158290736
 10
61.20722387232969
 20
-22.5093774300722
  0
LWPOLYLINE
  5
D9F
330
1E
100
AcDbEntity
  8
1
100
AcDbPolyline
 90
       49
 70
     0
 43
0.0
 10
33.59019637249998
 20
-88.01332332040001
 10
33.59266805388068
 20
-88.0107053645065
 10
33.59626967810537
 20
-88.00974003235408
 10
33.60064574075849
 20
-88.0099602118747
 10
33.60544073742458
 20
-88.0108987910002
 10
33.61029917962829
 20
-88.0120886779354
 10
33.61494297634687
 20
-88.01316121698951
 10
33.61935070278377
 20
-88.01407418728869
 10
33.62355406861958
 20
-88.0148529457768
 10
33.62758478353468
 20
-88.0155228493975
 10
33.63147455720955
 20
-88.0161092550945
 10
33.63525509932498
 20
-88.0166375198115
 10
33.64079046824979
 20
-88.01737637086381
 10
33.64808460670909
 20
-88.01839467697821
 10
33.65362449392158
 20
-88.019290251317
 10
33.65927092516609
 20
-88.02033306855628
 10
33.66501052161527
 20
-88.0215065951449
 10
33.67082873576668
 20
-88.0227933063508
 10
33.67868350500737
 20
-88.02465469659191
 10
33.68661769385708
 20
-88.02664460874559
 10
33.70458138571278
 20
-88.0313766545688
 10
33.72043875877359
 20
-88.03558831472971
 10
33.74000618891278
 20
-88.04070387751021
 10
34.03922923986518
 20
-88.11852330524029
 10
34.12322205364207
 20
-88.1389212381971
 10
34.19763292604496
 20
-88.1561493867996
 10
34.27025273198408
 20
-88.17214645570649
 10
34.33910716255109
 20
-88.18654343705
 10
34.40614106047699
 20
-88.1998207200147
 10
34.47133633404568
 20
-88.21201928353421
 10
34.53665727832428
 20
-88.22352357708879
 10
34.60011367569208
 20
-88.23400504191601
 10
34.66367810921058
 20
-88.24381209484981
 10
34.72535362333379
 20
-88.2526610753586
 10
34.78711897885887
 20
-88.2608616914967
 10
34.84896813604148
 20
-88.26840695583703
 10
34.91089475675128
 20
-88.2752905301343
 10
34.97089102908057
 20
-88.28131715705479
 10
35.03094713606579
 20
-88.28671465928222
 10
35.09105680159568
 20
-88.2914784872468
 10
35.15121376596487
 20
-88.29560467305
 10
35.21141178281448
 20
-88.2990897219704
 10
35.26963635059068
 20
-88.3018458942614
 10
35.32788777280218
 20
-88.3039965734622
 10
35.38615946821919
 20
-88.30553897500569
 10
35.44444377236068
 20
-88.3064707292749
 10
35.50273295760439
 20
-88.3067894908399
 10
35.56101929632768
 20
-88.3064929142707
 10
35.57105781254508
 20
-88.3063795384742
  0
LWPOLYLINE
  5
DD2
330
1E
100
AcDbEntity
  8
1
100
AcDbPolyline
 90
        2
 70
     0
 43
0.0
 10
61.2072331326
 20
-78.8545304455001
 10
50.06077953381359
 20
-85.13827732993552
  0
LWPOLYLINE
  5
DD6
330
1E
100
AcDbEntity
  8
1
100
AcDbPolyline
 90
       95
 70
     0
 43
0.0
 10
45.79403041449997
 20
-87.47966033510008
 10
45.79366422060338
 20
-87.47903583886609
 10
45.79330686433719
 20
-87.4784062206786
 10
45.79295851927769
 20
-87.47777150251179
 10
45.79261935900137
 20
-87.4771317063398
 10
45.79232573420388
 20
-87.47655875337898
 10
45.79203962557389
 20
-87.47598182096279
 10
45.79176115501978
 20
-87.47540092452441
 10
45.79149044444977
 20
-87.47481607949707
 10
45.79122761566607
 20
-87.47422730138771
 10
45.79097275321738
 20
-87.4736346316143
 10
45.79072584971267
 20
-87.4730381755428
 10
45.79048688382767
 20
-87.47243804822963
 10
45.79025583423828
 20
-87.47183436473141
 10
45.79003267962058
 20
-87.4712272401047
 10
45.78981739865027
 20
-87.47061678940609
 10
45.78960997000338
 20
-87.47000312769221
 10
45.78941037235574
 20
-87.46938637001957
 10
45.78921858438327
 20
-87.46876663144501
 10
45.78903458476186
 20
-87.46814402702471
 10
45.78885835216737
 20
-87.46751867181549
 10
45.78868986527568
 20
-87.466890680874
 10
45.78852910276277
 20
-87.4662601692567
 10
45.78837604330437
 20
-87.46562725202021
 10
45.78823066557657
 20
-87.46499204422109
 10
45.78809294825521
 20
-87.464354660916
 10
45.78796287001607
 20
-87.4637152171614
 10
45.78784040953517
 20
-87.46307382801399
 10
45.78772554548836
 20
-87.46243060853041
 10
45.78761825655145
 20
-87.46178567376709
 10
45.78751852140061
 20
-87.46113913878071
 10
45.78742631871138
 20
-87.46049111862779
 10
45.78734162715977
 20
-87.459841728365
 10
45.78726442542179
 20
-87.45919108304889
 10
45.78719469217328
 20
-87.45853929773609
 10
45.78713240609006
 20
-87.45788648748309
 10
45.78707754584807
 20
-87.45723276734659
 10
45.78703009012328
 20
-87.45657825238309
 10
45.78699001759146
 20
-87.4559230576491
 10
45.78695373466508
 20
-87.45518529429441
 10
45.78692673874217
 20
-87.4544469800446
 10
45.78690899946088
 20
-87.4537082787204
 10
45.78690048645936
 20
-87.45296935414279
 10
45.78690116937578
 20
-87.4522303701325
 10
45.78691101784808
 20
-87.45149149051028
 10
45.78693000151468
 20
-87.4507528790971
 10
45.78695809001358
 20
-87.45001469971347
 10
45.78699525298289
 20
-87.4492771161805
 10
45.78704146006077
 20
-87.44854029231879
 10
45.78709668088538
 20
-87.44780439194929
 10
45.78716088509488
 20
-87.4470695788927
 10
45.78723404232735
 20
-87.4463360169698
 10
45.78731612222099
 20
-87.4456038700015
 10
45.78740709441388
 20
-87.44487330180858
 10
45.78750692854408
 20
-87.4441444762118
 10
45.78761559424997
 20
-87.44341755703199
 10
45.78773306116945
 20
-87.44269270809002
 10
45.78785929894078
 20
-87.4419700932065
 10
45.78799427545289
 20
-87.44124987317858
 10
45.78813791328101
 20
-87.44053213047209
 10
45.78829008667027
 20
-87.4398168640069
 10
45.78845066751259
 20
-87.43910406863479
 10
45.78861952769977
 20
-87.43839373920771
 10
45.78881670465729
 20
-87.4376073701846
 10
45.78902376913847
 20
-87.43682403212021
 10
45.78924054541189
 20
-87.43604371795241
 10
45.78946685774598
 20
-87.43526642061942
 10
45.78970253040938
 20
-87.434492133059
 10
45.78994738767067
 20
-87.43372084820931
 10
45.79022712913316
 20
-87.43287589457693
 10
45.79051753742557
 20
-87.43203455627989
 10
45.79081837864928
 20
-87.4311968239189
 10
45.79112941890577
 20
-87.4303626880941
 10
45.79145042429657
 20
-87.42953213940621
 10
45.79181170234618
 20
-87.4286301663619
 10
45.79218425770656
 20
-87.4277324389175
 10
45.79256778671399
 20
-87.42683894486997
 10
45.79299530773266
 20
-87.42587575610249
 10
45.79343496507997
 20
-87.42491750585967
 10
45.79388637267409
 20
-87.4239641786262
 10
45.79438520189458
 20
-87.42294300634659
 10
45.79489672864938
 20
-87.4219275062205
 10
45.79545833556299
 20
-87.42084574270959
 10
45.79603337208018
 20
-87.41977044451997
 10
45.79666087852467
 20
-87.41863055915079
 10
45.7973428018576
 20
-87.41742742897889
 10
45.79808096426178
 20
-87.4161624703748
 10
45.79887701833025
 20
-87.41483717190268
 10
45.79973239961889
 20
-87.4134530924133
 10
45.80069231563228
 20
-87.4119435356822
 10
45.80176005988658
 20
-87.41031211043631
 10
45.80302972536389
 20
-87.40842891672341
 10
45.80446108315528
 20
-87.40636906771959
 10
45.80591433591588
 20
-87.4043354076403
 10
45.80600285335227
 20
-87.40421319484591
  0
LWPOLYLINE
  5
E37
330
1E
100
AcDbEntity
  8
1
100
AcDbPolyline
 90
       98
 70
     0
 43
0.0
 10
45.10969602279998
 20
-8.139049428700053
 10
45.10968752339461
 20
-8.138962173964754
 10
45.1096807939994
 20
-8.138874210565122
 10
45.10967585654679
 20
-8.138785680059083
 10
45.1096727329694
 20
-8.138696724004525
 10
45.1096714451995
 20
-8.138607483959372
 10
45.10967201516979
 20
-8.138518101481546
 10
45.1096744648126
 20
-8.138428718128935
 10
45.1096788160606
 20
-8.138339475459455
 10
45.1096850908462
 20
-8.138250515031023
 10
45.10969331110189
 20
-8.138161978401546
 10
45.1097034987602
 20
-8.138074007128931
 10
45.10971567575349
 20
-8.137986742771095
 10
45.1097298640145
 20
-8.137900326885933
 10
45.10974608547559
 20
-8.137814901031376
 10
45.1097643620693
 20
-8.137730606765325
 10
45.1097847157281
 20
-8.137647585645684
 10
45.1098071683845
 20
-8.137565979230375
 10
45.10983174077177
 20
-8.137485925280165
 10
45.10985842857079
 20
-8.137407482221655
 10
45.1098872037372
 20
-8.137330633352531
 10
45.10991803729338
 20
-8.137255359015195
 10
45.10995090026209
 20
-8.137181639552013
 10
45.1099857636657
 20
-8.137109455305392
 10
45.11002259852679
 20
-8.137038786617715
 10
45.11006137586778
 20
-8.136969613831345
 10
45.1101020667114
 20
-8.136901917288696
 10
45.11014464208
 20
-8.136835677332134
 10
45.11018907299621
 20
-8.136770874304055
 10
45.11023533048239
 20
-8.136707488546852
 10
45.11028338556128
 20
-8.136645500402892
 10
45.11033320925529
 20
-8.136584890214585
 10
45.11041119756129
 20
-8.136496515597903
 10
45.1104930022532
 20
-8.136411130807335
 10
45.1105785255317
 20
-8.136328669498434
 10
45.11066766959799
 20
-8.136249065326753
 10
45.11076033665299
 20
-8.136172251947852
 10
45.1108564288978
 20
-8.136098163017264
 10
45.1109558485334
 20
-8.136026732190561
 10
45.1110584977608
 20
-8.135957893123295
 10
45.111164278781
 20
-8.135891579471005
 10
45.11127309379509
 20
-8.135827724889253
 10
45.11138484500389
 20
-8.135766263033605
 10
45.1114994346087
 20
-8.135707127559593
 10
45.11161676481028
 20
-8.135650252122783
 10
45.1117367378097
 20
-8.135595570378711
 10
45.1118592558081
 20
-8.135543015982964
 10
45.1119842210064
 20
-8.135492522591063
 10
45.1121115356056
 20
-8.135444023858585
 10
45.11224110180671
 20
-8.135397453441065
 10
45.1123728218108
 20
-8.135352744994065
 10
45.11250659781889
 20
-8.135309832173135
 10
45.1126879950227
 20
-8.135255293605252
 10
45.11287264165999
 20
-8.135203672054915
 10
45.11306030591089
 20
-8.135154810261191
 10
45.1132507559557
 20
-8.135108550963185
 10
45.1134437599745
 20
-8.135064736899986
 10
45.1136882533609
 20
-8.135013168355245
 10
45.1139359223402
 20
-8.134964867619496
 10
45.1141863141392
 20
-8.134919527542512
 10
45.11448974091559
 20
-8.134868595052212
 10
45.11484682651349
 20
-8.134813295115472
 10
45.11525747470378
 20
-8.134754497846904
 10
45.1158746357584
 20
-8.134672453484494
 10
45.11643688508669
 20
-8.134600518928952
 10
45.116790706731
 20
-8.134554851738915
 10
45.11714071757711
 20
-8.134508756093286
 10
45.11748700678679
 20
-8.134462248937236
 10
45.11787834544159
 20
-8.134408630138644
 10
45.1182651213589
 20
-8.134354552680031
 10
45.1186474935655
 20
-8.13430005860034
 10
45.11902562108811
 20
-8.134245189938486
 10
45.1193996629535
 20
-8.134189988733393
 10
45.1198157744219
 20
-8.134127542227972
 10
45.1202271426754
 20
-8.134064787909245
 10
45.12067893088079
 20
-8.133994772674602
 10
45.1211254534036
 20
-8.133924533427354
 10
45.12161091701559
 20
-8.133847109515864
 10
45.12209079838419
 20
-8.133769623183704
 10
45.1226084245835
 20
-8.133685149864803
 10
45.12316286717321
 20
-8.133593864596695
 10
45.12379531204548
 20
-8.133489059333832
 10
45.1245038993401
 20
-8.133371293599342
 10
45.1254103859492
 20
-8.133221123514703
 10
45.1268762606587
 20
-8.132982966903716
 10
45.12849500171689
 20
-8.132733455909585
 10
45.1297952902514
 20
-8.132548702133624
 10
45.13082153753789
 20
-8.132415431561922
 10
45.1318182626978
 20
-8.132297291308745
 10
45.1329100618092
 20
-8.132179613914905
 10
45.134141224495
 20
-8.132060195100436
 10
45.13555744152628
 20
-8.131938330662892
 10
45.13724902172159
 20
-8.131811735075205
 10
45.13922015112419
 20
-8.131686277531395
 10
45.1416491917506
 20
-8.131558018987233
 10
45.1451561002706
 20
-8.131409877732675
 10
45.1496245247426
 20
-8.131254980682035
 10
45.1511480545517
 20
-8.131204093424965
  0
LWPOLYLINE
  5
E9B
330
1E
100
AcDbEntity
  8
1
100
AcDbPolyline
 90
        4
 70
     0
 43
0.0
 10
44.84489511689996
 20
-88.4001324887
 10
41.67607719872989
 20
-88.46440448654233
 10
38.60044772114818
 20
-88.49592779684821
 10
37.03914779369997
 20
-88.50000017254947
  0
LWPOLYLINE
  5
EA1
330
1E
100
AcDbEntity
  8
1
100
AcDbPolyline
 90
        2
 70
     0
 43
0.0
 10
44.84489511689996
 20
-88.341353112
 10
38.27917694628588
 20
-88.300680416234
  0
LWPOLYLINE
  5
EA5
330
1E
100
AcDbEntity
  8
1
100
AcDbPolyline
 90
        2
 70
     0
 43
0.0
 10
61.2072331326
 20
79.22952426749998
 10
47.3901107529925
 20
87.65119259526141
  0
LWPOLYLINE
  5
EA9
330
1E
100
AcDbEntity
  8
1
100
AcDbPolyline
 90
        4
 70
     0
 43
0.0
 10
44.84489511689999
 20
88.4001324887
 10
41.67607719872989
 20
88.4644044865422
 10
38.60044772114822
 20
88.4959277968481
 10
37.03914779370001
 20
88.50000017254947
  0
LWPOLYLINE
  5
EAF
330
1E
100
AcDbEntity
  8
1
100
AcDbPolyline
 90
        2
 70
     0
 43
0.0
 10
56.8090889912
 20
-25.18400326200011
 10
60.2120431126297
 20
-22.889895426966
  0
LWPOLYLINE
  5
EB3
330
1E
100
AcDbEntity
  8
1
100
AcDbPolyline
 90
        2
 70
     0
 43
0.0
 10
60.21205139439999
 20
-22.8898898223001
 10
60.35017351546439
 20
-22.7964010576992
  0
LWPOLYLINE
  5
EB7
330
1E
100
AcDbEntity
  8
1
100
AcDbPolyline
 90
        2
 70
     0
 43
0.0
 10
56.11006041
 20
-25.43926033219999
 10
56.8090795980837
 20
-25.18400669265099
  0
LWPOLYLINE
  5
EBB
330
1E
100
AcDbEntity
  8
1
100
AcDbPolyline
 90
        2
 70
     0
 43
0.0
 10
47.39010219569999
 20
-31.3846933183
 10
56.44998863623619
 20
-31.11770029627251
  0
LWPOLYLINE
  5
EBF
330
1E
100
AcDbEntity
  8
1
100
AcDbPolyline
 90
        2
 70
     0
 43
0.0
 10
42.58816935249996
 20
-30.5674477782
 10
44.84488538115129
 20
-31.09760009631949
  0
LWPOLYLINE
  5
EC3
330
1E
100
AcDbEntity
  8
1
100
AcDbPolyline
 90
       96
 70
     0
 43
0.0
 10
48.01202662659999
 20
2.41047749529996
 10
48.0337126117469
 20
2.411082814352994
 10
48.05540682985379
 20
2.411433978743574
 10
48.07710588983979
 20
2.411531090270264
 10
48.0988064006236
 20
2.411374250731602
 10
48.12050497112441
 20
2.410963561926144
 10
48.142198210261
 20
2.410299125652433
 10
48.1638827269524
 20
2.409381043709013
 10
48.1855551302865
 20
2.408209418078103
 10
48.20721215672378
 20
2.406784489169843
 10
48.22885089646
 20
2.405106881832753
 10
48.250468500602
 20
2.403177287112983
 10
48.2720621202563
 20
2.400996396056673
 10
48.2936289065297
 20
2.398564899709981
 10
48.31516601052889
 20
2.395883489119043
 10
48.33667058336061
 20
2.392952855330003
 10
48.35813977613129
 20
2.389773689389
 10
48.3822467805633
 20
2.385900914550933
 10
48.4063013886508
 20
2.381715553815573
 10
48.4302997765461
 20
2.377219147197979
 10
48.4542381716953
 20
2.372413357401783
 10
48.4781128015451
 20
2.367299847132893
 10
48.50191989354261
 20
2.361880279097273
 10
48.52565567513449
 20
2.356156316000852
 10
48.5493163737679
 20
2.350129620549583
 10
48.5728982168896
 20
2.343801855449413
 10
48.59639745696878
 20
2.337174712204283
 10
48.6198106185785
 20
2.33025019548029
 10
48.6431343933172
 20
2.323030502172203
 10
48.66636547520821
 20
2.315517831965263
 10
48.68950055827471
 20
2.30771438454474
 10
48.7125363365399
 20
2.299622359595911
 10
48.73546950402722
 20
2.291243956804023
 10
48.7582967547597
 20
2.282581375854363
 10
48.7810147863926
 20
2.273636819057453
 10
48.8036204905773
 20
2.26441262894931
 10
48.8261110466556
 20
2.254911356016501
 10
48.8509621007816
 20
2.244032534982332
 10
48.8756637059379
 20
2.232818327617763
 10
48.90021202485449
 20
2.221272255623253
 10
48.92460322026071
 20
2.209397840699304
 10
48.94883345488651
 20
2.197198604546373
 10
48.97289891090429
 20
2.184678076502601
 10
48.9967961350796
 20
2.171839929125749
 10
49.0205219980467
 20
2.158687962196233
 10
49.04407338170249
 20
2.145225979918623
 10
49.067447167944
 20
2.131457786497521
 10
49.0929494863403
 20
2.115963640181762
 10
49.1182289887656
 20
2.100108644866233
 10
49.1432815260111
 20
2.083897864093339
 10
49.1681031929571
 20
2.067336397558403
 10
49.19269064734599
 20
2.050429428324251
 10
49.21704062599278
 20
2.033182151165473
 10
49.24114986571261
 20
2.015599760856659
 10
49.2671724583204
 20
1.996042880418879
 10
49.2929004317481
 20
1.97610011407862
 10
49.3183295604205
 20
1.955778205236093
 10
49.3434560415131
 20
1.935083865175414
 10
49.36827662021119
 20
1.914023763548691
 10
49.3927880782085
 20
1.892604567234553
 10
49.4189895909297
 20
1.869002941884659
 10
49.44482044732829
 20
1.844996179692234
 10
49.4702765559739
 20
1.820592756907564
 10
49.4953540799022
 20
1.795801080124864
 10
49.52004988190489
 20
1.770629364390833
 10
49.5443609440087
 20
1.745085792113409
 10
49.56828424824029
 20
1.719178545700533
 10
49.59181677662638
 20
1.692915807560144
 10
49.614955511201
 20
1.666305760096484
 10
49.63769759628149
 20
1.639356502476523
 10
49.6600407578155
 20
1.612075835542004
 10
49.68198285200401
 20
1.584471493325884
 10
49.70352173504828
 20
1.55655120986112
 10
49.72465526314961
 20
1.528322719180668
 10
49.745381292509
 20
1.499793755317482
 10
49.76569774810069
 20
1.470972011588133
 10
49.7856029639316
 20
1.441864939145383
 10
49.8050954246252
 20
1.412479899970954
 10
49.82417361504001
 20
1.382824255907324
 10
49.84283602003459
 20
1.352905368796942
 10
49.85969250478249
 20
1.325060653503234
 10
49.876192239144
 20
1.297003685153532
 10
49.89233428389271
 20
1.268739924443551
 10
49.9081179347347
 20
1.24027452537578
 10
49.9235424970942
 20
1.211612629265823
 10
49.93860727639539
 20
1.182759377429261
 10
49.9533115780626
 20
1.153719911181702
 10
49.9676547075202
 20
1.124499371838731
 10
49.9816359646405
 20
1.095102935095642
 10
49.99525458453399
 20
1.065536177682862
 10
50.008509760424
 20
1.035804935715872
 10
50.0214006848309
 20
1.005915049662643
 10
50.0339265502751
 20
0.975872359991157
 10
50.0460865492769
 20
0.945682707169378
 10
50.05787987435678
 20
0.9153519316652856
 10
50.06076727855639
 20
0.9077572243893396
  0
LWPOLYLINE
  5
F25
330
1E
100
AcDbEntity
  8
1
100
AcDbPolyline
 90
       57
 70
     0
 43
0.0
 10
35.22505311119997
 20
-88.4823545467
 10
35.17355585889848
 20
-88.47816175656808
 10
35.12210279954546
 20
-88.4734162579474
 10
35.07241373443898
 20
-88.4683028862118
 10
35.02277942460656
 20
-88.46267171693829
 10
34.97320648569479
 20
-88.45652210025111
 10
34.92370152406557
 20
-88.44985338217691
 10
34.87427070970609
 20
-88.44266471615851
 10
34.82491959777048
 20
-88.4349549842973
 10
34.77565369711637
 20
-88.42672304826241
 10
34.72647851660139
 20
-88.41796776972321
 10
34.67739956610847
 20
-88.4086880094075
 10
34.62842268286549
 20
-88.39888232754379
 10
34.57955449767878
 20
-88.38854855586278
 10
34.53080175926759
 20
-88.3776844178522
 10
34.48217121635117
 20
-88.3662876369998
 10
34.43366962485638
 20
-88.35435590524751
 10
34.38696934794737
 20
-88.34232518806359
 10
34.34040210437967
 20
-88.3297896095388
 10
34.29397427262038
 20
-88.3167457896803
 10
34.24769224536318
 20
-88.30319032986851
 10
34.20320880694679
 20
-88.289629173749
 10
34.15887881647428
 20
-88.27557795087647
 10
34.11634567007348
 20
-88.2615750813472
 10
34.07397420312797
 20
-88.24710046422941
 10
34.03177124180899
 20
-88.2321466524165
 10
33.99135284486109
 20
-88.2173106644797
 10
33.95109470791259
 20
-88.202021206849
 10
33.91260397066469
 20
-88.1869072018447
 10
33.87908192628678
 20
-88.17329608316248
 10
33.84891176437059
 20
-88.16063338463889
 10
33.82049515220607
 20
-88.148302756068
 10
33.79067885060438
 20
-88.13492222961359
 10
33.75630564189398
 20
-88.1190134008378
 10
33.71887458182825
 20
-88.10122874910641
 10
33.70179500753188
 20
-88.09286252483698
 10
33.68948962536338
 20
-88.08660326957669
 10
33.68035720282338
 20
-88.08177856298598
 10
33.67132983621898
 20
-88.0768190887977
 10
33.66390172484008
 20
-88.072568239577
 10
33.65657046173748
 20
-88.06819871065988
 10
33.64497184584079
 20
-88.0610168741032
 10
33.63187229725358
 20
-88.05286142927789
 10
33.62445826696768
 20
-88.0483906058097
 10
33.61840924182718
 20
-88.0448846391576
 10
33.61378534319727
 20
-88.04231180114971
 10
33.60757606586478
 20
-88.0388835963704
 10
33.60455091543868
 20
-88.03707360120553
 10
33.60164311585909
 20
-88.0351363824794
 10
33.59890093614096
 20
-88.03302446890858
 10
33.59637264529907
 20
-88.03069038920989
 10
33.59410651234837
 20
-88.0280866720998
 10
33.59215080630367
 20
-88.0251658462949
 10
33.59056280197278
 20
-88.02188848822959
 10
33.58958709902028
 20
-88.01838257076331
 10
33.58964523651428
 20
-88.01493418257747
 10
33.59019193592757
 20
-88.01333228286479
  0
LWPOLYLINE
  5
F60
330
1E
100
AcDbEntity
  8
1
100
AcDbPolyline
 90
        8
 70
     0
 43
0.0
 10
35.57106781179998
 20
-88.4963476325
 10
35.52154004342387
 20
-88.4958499919859
 10
35.47201910702978
 20
-88.49485067701341
 10
35.42251101870828
 20
-88.4933496078529
 10
35.37302091488149
 20
-88.49134676508361
 10
35.32355340079989
 20
-88.48884216815759
 10
35.27411366132009
 20
-88.48583592578552
 10
35.22506308242487
 20
-88.482355304772
  0
LWPOLYLINE
  5
F6A
330
1E
100
AcDbEntity
  8
1
100
AcDbPolyline
 90
      162
 70
     0
 43
0.0
 10
35.2250534823
 20
-12.0888263843
 10
35.17500962592119
 20
-12.0587028449719
 10
35.1253634093133
 20
-12.0279142537769
 10
35.0761350734173
 20
-11.99645334636888
 10
35.02734485917459
 20
-11.96431285840197
 10
34.979013007526
 20
-11.93148552553019
 10
34.9311597601399
 20
-11.89796408831218
 10
34.8838054709029
 20
-11.863742044389
 10
34.83697072608789
 20
-11.82881445919629
 10
34.7906761408002
 20
-11.79317659268509
 10
34.74494233014481
 20
-11.7568237048065
 10
34.6997899092269
 20
-11.7197510555116
 10
34.6552395844484
 20
-11.68195419688849
 10
34.6113130508011
 20
-11.6434318443675
 10
34.5680326081552
 20
-11.6041846489011
 10
34.525420565081
 20
-11.56421328928149
 10
34.4834992301489
 20
-11.52351844430069
 10
34.44229090553069
 20
-11.48210084492758
 10
34.40181762162669
 20
-11.4399634382355
 10
34.3664759542989
 20
-11.4019084778807
 10
34.3317473733401
 20
-11.36329379402849
 10
34.29764707542489
 20
-11.32412370692577
 10
34.26419025722751
 20
-11.2844025368199
 10
34.2313919833488
 20
-11.24413498517456
 10
34.1992664818427
 20
-11.2033281680628
 10
34.17171948007268
 20
-11.1671861719435
 10
34.1447075254236
 20
-11.13064287064408
 10
34.1182399303225
 20
-11.0937036642415
 10
34.0923260071968
 20
-11.0563739528124
 10
34.06697494894039
 20
-11.0186593285793
 10
34.0421951325996
 20
-10.98056669521157
 10
34.0179945944202
 20
-10.94210350420356
 10
33.99438136950669
 20
-10.90327720888409
 10
33.97136349296371
 20
-10.86409526258169
 10
33.94894899989569
 20
-10.82456511862526
 10
33.9271458433995
 20
-10.78469432622016
 10
33.9059612026754
 20
-10.7444913393428
 10
33.88540183144221
 20
-10.7039651094053
 10
33.86547447901131
 20
-10.6631245929727
 10
33.8489020426828
 20
-10.6278750788692
 10
33.83280315567169
 20
-10.5924068810213
 10
33.81718206042521
 20
-10.55672564752659
 10
33.8020427326838
 20
-10.52083729195808
 10
33.7873888224289
 20
-10.4847480521443
 10
33.7732239598349
 20
-10.448464185629
 10
33.7595517750766
 20
-10.411991949956
 10
33.7463758983284
 20
-10.3753376026691
 10
33.7336999597649
 20
-10.338507401312
 10
33.72152757321149
 20
-10.30150762918599
 10
33.7098621813951
 20
-10.2643448391535
 10
33.6987071250393
 20
-10.22702574477919
 10
33.6880657435074
 20
-10.1895570617712
 10
33.677941376163
 20
-10.1519455058374
 10
33.6683373623695
 20
-10.11419779268557
 10
33.65925704150701
 20
-10.0763206381775
 10
33.6507037644758
 20
-10.0383208638151
 10
33.64268091377459
 20
-10.000205580868
 10
33.635191877272
 20
-9.961981949847654
 10
33.6282400428366
 20
-9.923657131265557
 10
33.62182879833699
 20
-9.885238285633171
 10
33.6159615316418
 20
-9.846732573461991
 10
33.6106416518189
 20
-9.808147195371118
 10
33.6058727646793
 20
-9.769489724203923
 10
33.60165858276511
 20
-9.730767934731183
 10
33.59800281967599
 20
-9.691989603724751
 10
33.59490918901169
 20
-9.653162507956423
 10
33.592381404372
 20
-9.614294424198011
 10
33.590423188664
 20
-9.575393149197092
 10
33.58903847626248
 20
-9.536466933549453
 10
33.5882314115717
 20
-9.497524478612572
 10
33.58800614801539
 20
-9.458574505102452
 10
33.5882658562978
 20
-9.426116742055373
 10
33.58893488107
 20
-9.393664860540251
 10
33.5900156259339
 20
-9.361223907267742
 10
33.5915105175166
 20
-9.328799024190272
 10
33.59342210178329
 20
-9.296395846891734
 10
33.5957529632443
 20
-9.264020170394843
 10
33.5985056864292
 20
-9.231677789801622
 10
33.6016828558675
 20
-9.199374500214082
 10
33.60528705608889
 20
-9.167116096734273
 10
33.6093208716228
 20
-9.134908374464203
 10
33.6137868792308
 20
-9.102757223214107
 10
33.6186876050848
 20
-9.070669149587613
 10
33.6240255551006
 20
-9.038650907149074
 10
33.6298032351406
 20
-9.006709250118984
 10
33.6360231510668
 20
-8.974850932717831
 10
33.6426878087414
 20
-8.943082709166104
 10
33.64979971402661
 20
-8.911411333684283
 10
33.6573612961241
 20
-8.8798437041184
 10
33.66537462032371
 20
-8.848387400112724
 10
33.6738416440432
 20
-8.817050203413398
 10
33.68276432468311
 20
-8.785839895798284
 10
33.69214461964399
 20
-8.754764259045183
 10
33.7019844863267
 20
-8.723831074931942
 10
33.71228587986919
 20
-8.693048126865164
 10
33.7230504014817
 20
-8.662423453035321
 10
33.7342789170048
 20
-8.631965621007383
 10
33.745972200683
 20
-8.601683264283961
 10
33.7581310267609
 20
-8.571585016367693
 10
33.7707561694829
 20
-8.541679510761191
 10
33.7838484030936
 20
-8.511975380967092
 10
33.7974084053887
 20
-8.482481279330883
 10
33.8114357623059
 20
-8.453206071510402
 10
33.82592936905398
 20
-8.424158758108731
 10
33.8408881099295
 20
-8.395348341860803
 10
33.8563108692289
 20
-8.366783825501574
 10
33.8721965312488
 20
-8.338474211765994
 10
33.8885439758524
 20
-8.310428502458142
 10
33.9053513675867
 20
-8.282655549186516
 10
33.9226153733135
 20
-8.255163889089361
 10
33.94033247165391
 20
-8.227962019779754
 10
33.95849914122889
 20
-8.201058438870822
 10
33.9771118606594
 20
-8.174461643975661
 10
33.99616710856649
 20
-8.148180132707423
 10
34.0156611001867
 20
-8.122222241750913
 10
34.035588425259
 20
-8.096595314608954
 10
34.05594305402598
 20
-8.071306316271112
 10
34.0767189555106
 20
-8.046362210981662
 10
34.09791009873559
 20
-8.021769962984892
 10
34.1195104527239
 20
-7.997536536525053
 10
34.1459624184602
 20
-7.968939724778372
 10
34.1729823818382
 20
-7.940879098967982
 10
34.2005564034299
 20
-7.913362491152852
 10
34.2286705047797
 20
-7.886397686773035
 10
34.25731070743189
 20
-7.859992471268554
 10
34.2864630259195
 20
-7.834154611665574
 10
34.31611282680889
 20
-7.808890173263174
 10
34.34624431376231
 20
-7.78420216727255
 10
34.3768415692656
 20
-7.760093286665072
 10
34.4078886758049
 20
-7.736566224412093
 10
34.4340934170952
 20
-7.717406726623472
 10
34.460590287423
 20
-7.698654568559955
 10
34.4873700463538
 20
-7.680309578705365
 10
34.5198661340384
 20
-7.658831288150754
 10
34.55274024981889
 20
-7.637935318048433
 10
34.5859763944331
 20
-7.61761946967672
 10
34.6195585686187
 20
-7.597881544313932
 10
34.6534708953634
 20
-7.578719046509656
 10
34.687698488274
 20
-7.560127076349682
 10
34.7222269414938
 20
-7.542099567544865
 10
34.7570418523361
 20
-7.524630446112463
 10
34.7921288181141
 20
-7.507713638069795
 10
34.82747343614089
 20
-7.491343069434122
 10
34.86306159581221
 20
-7.475512396100952
 10
34.89888084615719
 20
-7.460213739114062
 10
34.9349193216143
 20
-7.445438678122874
 10
34.9711651572837
 20
-7.431178792164612
 10
35.0076064882658
 20
-7.417425660276474
 10
35.044231449661
 20
-7.404170861495662
 10
35.0810283372151
 20
-7.391405928712375
 10
35.11798727042521
 20
-7.379121870926294
 10
35.1612991956488
 20
-7.365385804350544
 10
35.20480598346971
 20
-7.352276759124331
 10
35.2484938091355
 20
-7.339779922097932
 10
35.29234884789371
 20
-7.327880480121612
 10
35.33635748672359
 20
-7.316563675682572
 10
35.38050785671121
 20
-7.305815209568732
 10
35.42478894676909
 20
-7.295621007980012
 10
35.4691897517835
 20
-7.285966998685942
 10
35.5200660013381
 20
-7.275577253318842
 10
35.5710678117999
 20
-7.265853679400062
 10
35.571057976991
 20
-7.265855489520522
  0
LWPOLYLINE
  5
100E
330
1E
100
AcDbEntity
  8
1
100
AcDbPolyline
 90
        5
 70
     0
 43
0.0
 10
35.57106781179999
 20
-12.2853998558
 10
35.4668343811782
 20
-12.2279970674856
 10
35.36084417871609
 20
-12.1680260453601
 10
35.2531473903932
 20
-12.1054308640676
 10
35.225062080015
 20
-12.0888314848607
  0
LWPOLYLINE
  5
1015
330
1E
100
AcDbEntity
  8
1
100
AcDbPolyline
 90
      113
 70
     0
 43
0.0
 10
61.6
 20
-40.20021621789999
 10
61.5999281398395
 20
-40.21370967031749
 10
61.59971014807869
 20
-40.22720296140049
 10
61.5993424077985
 20
-40.24069394346379
 10
61.59885626555249
 20
-40.25338730563871
 10
61.59823125473579
 20
-40.26607492946659
 10
61.59746435989939
 20
-40.27875502440831
 10
61.59661385489521
 20
-40.2906341833636
 10
61.59563339209849
 20
-40.30250358587148
 10
61.5945198551806
 20
-40.31436128218881
 10
61.59335762233329
 20
-40.32541609358728
 10
61.59207398939499
 20
-40.3364572516688
 10
61.59066631193649
 20
-40.34748308805561
 10
61.58913194552828
 20
-40.35849193437019
 10
61.58759142693469
 20
-40.36869776315961
 10
61.58593727401679
 20
-40.37888616799938
 10
61.58416732750598
 20
-40.3890557446309
 10
61.58227906763809
 20
-40.3992045010368
 10
61.5804287088571
 20
-40.4085521229319
 10
61.57847310793989
 20
-40.4178782482194
 10
61.57641013752889
 20
-40.42718107290641
 10
61.57423767026628
 20
-40.4364587929995
 10
61.57195357879439
 20
-40.44570960450569
 10
61.56975995259847
 20
-40.4541643358702
 10
61.56746910488171
 20
-40.46259355115782
 10
61.56507938883599
 20
-40.47099583607461
 10
61.56258901170819
 20
-40.47936933569411
 10
61.55999605518349
 20
-40.4877118159969
 10
61.55729859685139
 20
-40.4960210305995
 10
61.55475406096199
 20
-40.50354410485629
 10
61.55212012683839
 20
-40.51103614254211
 10
61.5493953501452
 20
-40.51849545591589
 10
61.54657828654729
 20
-40.5259203572364
 10
61.54366749170929
 20
-40.5333091587622
 10
61.54066152129579
 20
-40.5406601727522
 10
61.53755893381108
 20
-40.5479716182869
 10
61.5343583051062
 20
-40.55524114523101
 10
61.53139274238128
 20
-40.56174575910211
 10
61.52834558458989
 20
-40.56821247104799
 10
61.52521579830999
 20
-40.5746394108739
 10
61.52200235011979
 20
-40.58102470838511
 10
61.5187042065976
 20
-40.58736649338671
 10
61.5153203343214
 20
-40.59366289568401
 10
61.5118496998695
 20
-40.59991204508221
 10
61.50829126981999
 20
-40.60611207138649
 10
61.50464406368579
 20
-40.61226101001349
 10
61.500907354857
 20
-40.6183564436895
 10
61.49708049274279
 20
-40.62439581958961
 10
61.49316282676669
 20
-40.63037658486421
 10
61.48915370635195
 20
-40.63629618666349
 10
61.48551274126069
 20
-40.64150464405661
 10
61.48179854491559
 20
-40.6466609647387
 10
61.47801066039608
 20
-40.65176335576178
 10
61.4741486307814
 20
-40.6568100241779
 10
61.47021199940851
 20
-40.66179917691441
 10
61.4662004586361
 20
-40.66672894880089
 10
61.46211409957197
 20
-40.67159728175059
 10
61.45795307931149
 20
-40.67640208575129
 10
61.45371755494998
 20
-40.68114127079049
 10
61.44940768358299
 20
-40.68581274685628
 10
61.44502362230578
 20
-40.69041442393621
 10
61.44056552821389
 20
-40.69494421201821
 10
61.4360335584026
 20
-40.69940002108991
 10
61.43142786996747
 20
-40.70377976113911
 10
61.42674863404778
 20
-40.70808134467401
 10
61.42199641330309
 20
-40.71230275446501
 10
61.41717220423829
 20
-40.7164420511409
 10
61.41289276949069
 20
-40.71999505589371
 10
61.40855968156869
 20
-40.7234824145405
 10
61.40417362315121
 20
-40.72690283056361
 10
61.39973527691688
 20
-40.73025500744527
 10
61.39524532554469
 20
-40.7335376486679
 10
61.39070445171328
 20
-40.73674945771361
 10
61.3861133381015
 20
-40.73988913806471
 10
61.38147266810359
 20
-40.74295539382189
 10
61.3767832852589
 20
-40.7459470675034
 10
61.3720463946664
 20
-40.7488633141322
 10
61.3672632510126
 20
-40.7517033315912
 10
61.36243510898379
 20
-40.75446631776309
 10
61.3582618375716
 20
-40.75677267298971
 10
61.35405721806259
 20
-40.7590213393674
 10
61.34982204057989
 20
-40.76121181177279
 10
61.34555709524679
 20
-40.76334358508261
 10
61.34126317218647
 20
-40.7654161541735
 10
61.3369410615223
 20
-40.767429013922
 10
61.33259155337738
 20
-40.7693816592048
 10
61.328215439494
 20
-40.7712735924512
 10
61.32381355825271
 20
-40.77310453365639
 10
61.31938680058359
 20
-40.77487444795528
 10
61.31493606022278
 20
-40.77658331357521
 10
61.31046223090688
 20
-40.77823110874311
 10
61.305966206372
 20
-40.77981781168601
 10
61.30144888035459
 20
-40.781343400631
 10
61.29691114659099
 20
-40.7828078538052
 10
61.29235389881761
 20
-40.78421114943568
 10
61.2877780307707
 20
-40.7855532657496
 10
61.2831844361866
 20
-40.7868341809739
 10
61.27857400880178
 20
-40.78805387333571
 10
61.27394764235249
 20
-40.7892123210622
 10
61.26930623178889
 20
-40.79030951259521
 10
61.26465069608628
 20
-40.7913456385826
 10
61.25998197626479
 20
-40.79232107520691
 10
61.25530101416109
 20
-40.79323620552329
 10
61.25060875161178
 20
-40.79409141258749
 10
61.24590613045359
 20
-40.79488707945471
 10
61.24119409252318
 20
-40.79562358918041
 10
61.23647357965708
 20
-40.79630132482011
 10
61.23174553369221
 20
-40.79692066942899
 10
61.227010896465
 20
-40.79748200606281
 10
61.22227060981218
 20
-40.79798571777671
 10
61.21673439164659
 20
-40.79850106098321
 10
61.21119326153119
 20
-40.7989390999299
 10
61.20724311330189
 20
-40.7992043716798
  0
LWPOLYLINE
  5
1088
330
1E
100
AcDbEntity
  8
1
100
AcDbPolyline
 90
       12
 70
     0
 43
0.0
 10
60.3501817964
 20
-22.79639545179998
 10
60.4087791927748
 20
-22.7809726037444
 10
60.4686050409132
 20
-22.7645507652491
 10
60.53033703556771
 20
-22.74690158114089
 10
60.59326267764209
 20
-22.72818751218769
 10
60.6580535768785
 20
-22.7081687831926
 10
60.72468670513821
 20
-22.68679953668661
 10
60.7924557928063
 20
-22.6642645960639
 10
60.86202532651189
 20
-22.64030252482937
 10
60.93404886623378
 20
-22.6146245677547
 10
61.0071424751252
 20
-22.5876722285783
 10
61.0368282960565
 20
-22.57647150371489
  0
LWPOLYLINE
  5
1096
330
1E
100
AcDbEntity
  8
1
100
AcDbPolyline
 90
       12
 70
     0
 43
0.0
 10
55.84306238039999
 20
-25.82643478590011
 10
55.8427839327992
 20
-25.8238468569672
 10
55.84252916549538
 20
-25.821226203531
 10
55.8423012092331
 20
-25.81860261551061
 10
55.8420977666265
 20
-25.81594697495031
 10
55.8419213588245
 20
-25.8132891600238
 10
55.84177028192579
 20
-25.8106000271732
 10
55.84164523871709
 20
-25.8078799538624
 10
55.84154783623939
 20
-25.80515892570161
 10
55.8414772587321
 20
-25.80240780347251
 10
55.8414341951139
 20
-25.7996270363421
 10
55.84141936660089
 20
-25.7969158268043
  0
LWPOLYLINE
  5
10A4
330
1E
100
AcDbEntity
  8
1
100
AcDbPolyline
 90
        2
 70
     0
 43
0.0
 10
61.2072331326
 20
-19.62193108800011
 10
47.39011212955179
 20
-18.0717674434982
  0
LWPOLYLINE
  5
10A8
330
1E
100
AcDbEntity
  8
1
100
AcDbPolyline
 90
        3
 70
     0
 43
0.0
 10
44.84489511689999
 20
-17.2233660303
 10
38.409396002507
 20
-13.8177207011711
 10
35.57107659893811
 20
-12.2854046292898
  0
LWPOLYLINE
  5
10AD
330
1E
100
AcDbEntity
  8
1
100
AcDbPolyline
 90
        2
 70
     0
 43
0.0
 10
44.84489511689999
 20
-7.81913510060008
 10
38.27917689956321
 20
-7.180561677346013
  0
LWPOLYLINE
  5
10B1
330
1E
100
AcDbEntity
  8
1
100
AcDbPolyline
 90
       55
 70
     0
 43
0.0
 10
45.2575243654
 20
-8.173524480700004
 10
45.2339890577202
 20
-8.170043069072354
 10
45.21275232161009
 20
-8.166682735631273
 10
45.19775565302249
 20
-8.164154296800955
 10
45.18613062907539
 20
-8.162066033689235
 10
45.1756042528651
 20
-8.160055484639741
 10
45.1637282799059
 20
-8.157662831283506
 10
45.1519372414412
 20
-8.155186199821622
 10
45.14724505369609
 20
-8.154151747988542
 10
45.14393498881989
 20
-8.153380882596923
 10
45.14124777695779
 20
-8.152719882011435
 10
45.1388802429138
 20
-8.152104905108313
 10
45.1368283909516
 20
-8.151542629959863
 10
45.1349421806484
 20
-8.150998071926034
 10
45.1332193661553
 20
-8.150474482179731
 10
45.1313713289315
 20
-8.149884598012912
 10
45.1288242815556
 20
-8.149037547033046
 10
45.1262621412189
 20
-8.148168093238432
 10
45.1248205398109
 20
-8.147680563470434
 10
45.12365320739679
 20
-8.147290310439963
 10
45.122619167721
 20
-8.146949727678736
 10
45.1215713926205
 20
-8.146610841460173
 10
45.12066095413978
 20
-8.146322345301312
 10
45.1197378804574
 20
-8.146036224961862
 10
45.11895815344799
 20
-8.145799982265465
 10
45.1181681672983
 20
-8.145566045044736
 10
45.116569790882
 20
-8.145094295309894
 10
45.11593429213021
 20
-8.144895285045851
 10
45.11530710680959
 20
-8.144685340219366
 10
45.1148446248332
 20
-8.144518683370876
 10
45.1143908304205
 20
-8.144342566413182
 10
45.1139474426824
 20
-8.144155571024361
 10
45.11351618072989
 20
-8.143956278882486
 10
45.1132362582527
 20
-8.143815885519206
 10
45.11296299842888
 20
-8.143668976323503
 10
45.11269691062479
 20
-8.143515131051861
 10
45.11243850420649
 20
-8.143353929460744
 10
45.11218828854029
 20
-8.143184951306603
 10
45.11194677299219
 20
-8.143007776345925
 10
45.1117144669286
 20
-8.142821984335165
 10
45.11149187971549
 20
-8.142627155030782
 10
45.1112795207191
 20
-8.142422868189273
 10
45.1110778993058
 20
-8.142208703567071
 10
45.1108875248415
 20
-8.141984240920665
 10
45.1107089066926
 20
-8.141749060006505
 10
45.1105425542251
 20
-8.141502740581072
 10
45.1103889768054
 20
-8.141244862400823
 10
45.1102486843347
 20
-8.140975315575161
 10
45.1101221891996
 20
-8.140695431045905
 10
45.110010004507
 20
-8.140406957575804
 10
45.10991264336399
 20
-8.140111643971666
 10
45.1098306188777
 20
-8.139811239040303
 10
45.1097644441551
 20
-8.139507491588544
 10
45.10971463230329
 20
-8.139202150423196
 10
45.10969710529519
 20
-8.139059371458536
  0
LWPOLYLINE
  5
10EA
330
1E
100
AcDbEntity
  8
1
100
AcDbPolyline
 90
       28
 70
     0
 43
0.0
 10
35.57106781179999
 20
-7.265853679400043
 10
35.6486553154455
 20
-7.25199845389856
 10
35.72907137240501
 20
-7.238518665894303
 10
35.812317746103
 20
-7.225482828440222
 10
35.89570201017439
 20
-7.213335946722092
 10
35.9819053480912
 20
-7.201709337413412
 10
36.07092342701749
 20
-7.190667831652842
 10
36.16004993246139
 20
-7.180568770652802
 10
36.25197965707061
 20
-7.171130737897752
 10
36.3440023872107
 20
-7.162655326805444
 10
36.438817164544
 20
-7.154916041936575
 10
36.53641885107961
 20
-7.147976880002852
 10
36.63680076790071
 20
-7.141901493348504
 10
36.7372409593381
 20
-7.136878215665892
 10
36.8404445775999
 20
-7.132795712846744
 10
36.9436855779806
 20
-7.129785079757174
 10
37.0496695172274
 20
-7.127789640146682
 10
37.15838492078459
 20
-7.126873437017342
 10
37.2671028708105
 20
-7.127083824042474
 10
37.3785308238863
 20
-7.128452101418272
 10
37.49265692347071
 20
-7.131046028801335
 10
37.6067515892082
 20
-7.134828475710822
 10
37.72351801608699
 20
-7.139913330372612
 10
37.8402263287646
 20
-7.146208402007911
 10
37.9595747864561
 20
-7.153888521856744
 10
38.078834262664
 20
-7.162807293915142
 10
38.2006973060495
 20
-7.173195014046592
 10
38.27915699343629
 20
-7.180559741858183
  0
LWPOLYLINE
  5
1108
330
1E
100
AcDbEntity
  8
1
100
AcDbPolyline
 90
      154
 70
     0
 43
0.0
 10
36.69784713849999
 20
-34.1255786548001
 10
36.64566034088419
 20
-34.08085063277821
 10
36.5941375689914
 20
-34.03534404542961
 10
36.54332175665159
 20
-33.9890419232273
 10
36.49325583769488
 20
-33.9419272966448
 10
36.44398274595138
 20
-33.89398319615519
 10
36.39554668974021
 20
-33.8451923475956
 10
36.35271433042139
 20
-33.8005404518266
 10
36.31064617709457
 20
-33.7551717619344
 10
36.27392822730178
 20
-33.71423010714571
 10
36.23787761820988
 20
-33.6726996152468
 10
36.20252460856428
 20
-33.63056977134859
 10
36.17219168959358
 20
-33.593207106362
 10
36.14244938388849
 20
-33.55537277776539
 10
36.11332619653568
 20
-33.51706119597769
 10
36.08485063262221
 20
-33.47826677141771
 10
36.06098006915518
 20
-33.44462586707811
 10
36.037624636892
 20
-33.41062277450471
 10
36.0148062837881
 20
-33.3762556353882
 10
35.99254870983529
 20
-33.34152331974598
 10
35.97087562719828
 20
-33.3064247026553
 10
35.94981074804177
 20
-33.2709586591937
 10
35.9327383891147
 20
-33.24112213847751
 10
35.91611874761029
 20
-33.21102917126049
 10
35.89996756807599
 20
-33.18068086001751
 10
35.8843017662801
 20
-33.15007932278639
 10
35.86913827632788
 20
-33.11922669350531
 10
35.8544940323249
 20
-33.0881251061124
 10
35.8403859683765
 20
-33.0567766945456
 10
35.82683104114138
 20
-33.0251836392682
 10
35.81639728547257
 20
-32.99973561597481
 10
35.80633864009068
 20
-32.9741367686919
 10
35.7966648467936
 20
-32.94839040045401
 10
35.78738564737938
 20
-32.92249981429581
 10
35.77851078364609
 20
-32.896468313252
 10
35.77004999739159
 20
-32.87029920035711
 10
35.76201302964177
 20
-32.8439958030012
 10
35.75440958556809
 20
-32.81756257949349
 10
35.74724932007549
 20
-32.7910055736278
 10
35.74054188431128
 20
-32.76433094773198
 10
35.73429692942269
 20
-32.73754486413411
 10
35.72852410655678
 20
-32.710653485162
 10
35.72323306686096
 20
-32.68366297314371
 10
35.71843333076979
 20
-32.6565797083113
 10
35.71413333129369
 20
-32.62941188368631
 10
35.71034096214809
 20
-32.60216859132199
 10
35.70706411317078
 20
-32.57485892973539
 10
35.70431067419978
 20
-32.5474919974432
 10
35.7020885350731
 20
-32.5200768929622
 10
35.70040547995179
 20
-32.4926227825804
 10
35.69926748900817
 20
-32.4651399894943
 10
35.69877438445438
 20
-32.44451586346988
 10
35.69859225687699
 20
-32.42388673263789
 10
35.6987229714505
 20
-32.40325737389039
 10
35.69916839334918
 20
-32.38263256411971
 10
35.69993038774771
 20
-32.36201708021801
 10
35.7010108184605
 20
-32.34141569930811
 10
35.7024110419281
 20
-32.3208332845674
 10
35.70413114932279
 20
-32.30027491377311
 10
35.70617103785959
 20
-32.27974569759879
 10
35.70853060475299
 20
-32.25925074671851
 10
35.71120974721789
 20
-32.2387951718057
 10
35.71420836246899
 20
-32.21838408353439
 10
35.71752634772098
 20
-32.19802259257831
 10
35.72116358773969
 20
-32.17771580681251
 10
35.7251192187456
 20
-32.15746866582751
 10
35.72939121578838
 20
-32.1372858481647
 10
35.73397745392368
 20
-32.11717200988511
 10
35.73887580820709
 20
-32.0971318070498
 10
35.74588878851638
 20
-32.0705341281406
 10
35.75344782739379
 20
-32.04408667071941
 10
35.76154785366649
 20
-32.01780044730881
 10
35.77018230354929
 20
-31.99168542213711
 10
35.77934257599699
 20
-31.96575012862098
 10
35.78901992345259
 20
-31.9400029972786
 10
35.79920559835896
 20
-31.91445245862789
 10
35.8098908531591
 20
-31.889106943187
 10
35.82106691274869
 20
-31.8639748358617
 10
35.83272413299479
 20
-31.8390630826212
 10
35.84485184546959
 20
-31.8143769334098
 10
35.85743932288199
 20
-31.7899215407059
 10
35.87047583794088
 20
-31.765702056988
 10
35.8839506633551
 20
-31.74172363473439
 10
35.89785307117878
 20
-31.7179914178653
 10
35.91217225718018
 20
-31.6945095532206
 10
35.9268972705261
 20
-31.67128027151189
 10
35.942017143755
 20
-31.6483055861137
 10
35.9575209094052
 20
-31.6255875104005
 10
35.97339760001538
 20
-31.60312805774689
 10
35.99375118076078
 20
-31.5754204978576
 10
36.01464917439519
 20
-31.5481235009802
 10
36.03607184050378
 20
-31.521237250535
 10
36.057999886192
 20
-31.4947609315353
 10
36.080414018755
 20
-31.4686937285711
 10
36.1032949454881
 20
-31.4430348262321
 10
36.1266233779472
 20
-31.417783405568
 10
36.15518260432511
 20
-31.3880171289508
 10
36.18433213320539
 20
-31.3588292151325
 10
36.21404466920349
 20
-31.33021323441329
 10
36.24429291693469
 20
-31.30216275709339
 10
36.2750495810144
 20
-31.2746713534732
 10
36.30628825779589
 20
-31.24773229890648
 10
36.33798685395659
 20
-31.2213374430884
 10
36.3701245767716
 20
-31.195478205535
 10
36.4026806337865
 20
-31.17014600567349
 10
36.43563423254668
 20
-31.14533226293048
 10
36.46896458209399
 20
-31.1210283966848
 10
36.50265223998139
 20
-31.09722578266799
 10
36.54238532730111
 20
-31.0700779207473
 10
36.58255978882628
 20
-31.04358648466039
 10
36.62315190971629
 20
-31.0177375476752
 10
36.66413797513028
 20
-30.99251718305939
 10
36.70549434007978
 20
-30.9679114781281
 10
36.74720034208279
 20
-30.94390711998439
 10
36.78923935500488
 20
-30.9204916074488
 10
36.83159503939928
 20
-30.89765249699539
 10
36.8803683366131
 20
-30.8722404924044
 10
36.9295095141495
 20
-30.84754651215098
 10
36.97899433014358
 20
-30.8235520420723
 10
37.02880232465061
 20
-30.80024010997998
 10
37.078917039268
 20
-30.7775953752052
 10
37.12932220777549
 20
-30.7556025754359
 10
37.18000156395259
 20
-30.7342464483602
 10
37.23732332625021
 20
-30.7109628248623
 10
37.29494843236729
 20
-30.688443986642
 10
37.35285705208147
 20
-30.6666702146421
 10
37.41103386601968
 20
-30.6456245150135
 10
37.46946388605769
 20
-30.62529009402989
 10
37.53466487093549
 20
-30.6035100827913
 10
37.60013939223819
 20
-30.5825644236788
 10
37.6658668981346
 20
-30.5624300864573
 10
37.7318288844125
 20
-30.54308568374549
 10
37.79801160024199
 20
-30.52451364191569
 10
37.87105192169017
 20
-30.504956142879
 10
37.94432609469109
 20
-30.4862899176185
 10
38.01781671242299
 20
-30.4684922941436
 10
38.09150636806461
 20
-30.4515406004638
 10
38.17210291238178
 20
-30.4339872876024
 10
38.25290087263619
 20
-30.4173922920529
 10
38.33388559608528
 20
-30.4017342752748
 10
38.41504242998869
 20
-30.3869918987295
 10
38.50313956072859
 20
-30.3720295165378
 10
38.59140287732397
 20
-30.35808959189678
 10
38.67981587983669
 20
-30.3451475042661
 10
38.76836592662429
 20
-30.3331831794639
 10
38.86386675036747
 20
-30.3213695277648
 10
38.95949705499468
 20
-30.3106426654101
 10
39.05524156596739
 20
-30.3009781265633
 10
39.15793465323469
 20
-30.2917752205593
 10
39.26072500601009
 20
-30.28374102816989
 10
39.363596738546
 20
-30.2768540897028
 10
39.46653396657449
 20
-30.2710929498692
 10
39.57638796999978
 20
-30.2661644403
 10
39.57637797768088
 20
-30.2661648321686
  0
LWPOLYLINE
  5
11A4
330
1E
100
AcDbEntity
  8
1
100
AcDbPolyline
 90
        2
 70
     0
 43
0.0
 10
56.44999863159998
 20
-31.11769999179998
 10
55.8430635012326
 20
-25.8264447228883
  0
LWPOLYLINE
  5
11A8
330
1E
100
AcDbEntity
  8
1
100
AcDbPolyline
 90
      125
 70
     0
 43
0.0
 10
61.6
 20
-19.3600084992
 10
61.5999732542274
 20
-19.3643613013583
 10
61.5998923351305
 20
-19.3687151153742
 10
61.599756220041
 20
-19.37306889018969
 10
61.5995638862905
 20
-19.3774215747473
 10
61.5993143112106
 20
-19.3817721179892
 10
61.59904817328429
 20
-19.38557626050689
 10
61.59873674187679
 20
-19.38937725473719
 10
61.59837933188001
 20
-19.39317439655339
 10
61.5979752581859
 20
-19.3969669818292
 10
61.5975238356868
 20
-19.4007543064378
 10
61.5970243792745
 20
-19.4045356662527
 10
61.5964762038412
 20
-19.40831035714748
 10
61.595878624279
 20
-19.4120776749955
 10
61.59523095547979
 20
-19.41583691567019
 10
61.59453254241238
 20
-19.4195873349273
 10
61.5937828683949
 20
-19.42332800398538
 10
61.5929814565004
 20
-19.42705794103569
 10
61.5921278298054
 20
-19.4307761642652
 10
61.5912215113865
 20
-19.43448169186048
 10
61.5904023672002
 20
-19.43764700945068
 10
61.58954385999749
 20
-19.44080166001938
 10
61.58864568944188
 20
-19.4439450252818
 10
61.5877075551966
 20
-19.4470764869532
 10
61.586729156925
 20
-19.4501954267489
 10
61.58571019429039
 20
-19.45330122638419
 10
61.58465036695639
 20
-19.45639326757439
 10
61.583549374586
 20
-19.45947093203471
 10
61.5824069168429
 20
-19.46253360148039
 10
61.5812226933913
 20
-19.46558065762661
 10
61.5799964747389
 20
-19.46861146111869
 10
61.5787282938637
 20
-19.47162529454119
 10
61.5774182445166
 20
-19.47462142240411
 10
61.57606642044821
 20
-19.4775991092175
 10
61.5746729154091
 20
-19.4805576194915
 10
61.5732378231501
 20
-19.48349621773608
 10
61.57176123742189
 20
-19.4864141684615
 10
61.5702432519752
 20
-19.48931073617769
 10
61.56868396056051
 20
-19.4921851853947
 10
61.56708345692869
 20
-19.49503678062269
 10
61.5654418348304
 20
-19.4978647863718
 10
61.5637591880163
 20
-19.50066846715198
 10
61.562035610237
 20
-19.5034470874733
 10
61.56027119524338
 20
-19.50619991184589
 10
61.5584660382837
 20
-19.508926205584
 10
61.5566203810382
 20
-19.51162531262848
 10
61.55473473255999
 20
-19.51429672048569
 10
61.55280963037228
 20
-19.51693993194931
 10
61.55051452982739
 20
-19.51998737822269
 10
61.5481673135961
 20
-19.5229949797728
 10
61.5457688352455
 20
-19.52596194705419
 10
61.5433199483427
 20
-19.5288874905215
 10
61.5408215064546
 20
-19.53177082062939
 10
61.5382743631484
 20
-19.5346111478325
 10
61.5356793719911
 20
-19.53740768258519
 10
61.5330373865498
 20
-19.5401596353423
 10
61.53034926039151
 20
-19.54286621655839
 10
61.5276158523073
 20
-19.54552664823999
 10
61.524838158145
 20
-19.5481404554691
 10
61.5220173209147
 20
-19.55070748874939
 10
61.5191544908745
 20
-19.553227614613
 10
61.5162508182829
 20
-19.555700699592
 10
61.5133074533981
 20
-19.55812661021839
 10
61.5103255464785
 20
-19.56050521302431
 10
61.5073062477824
 20
-19.56283637454189
 10
61.5042507075681
 20
-19.5651199613031
 10
61.50116007609391
 20
-19.5673558398402
 10
61.4980355036182
 20
-19.56954387668511
 10
61.4948781403992
 20
-19.57168393836989
 10
61.49168913669539
 20
-19.5737758914268
 10
61.4884696236753
 20
-19.57581965689819
 10
61.48522062084509
 20
-19.5778154746788
 10
61.4819431072305
 20
-19.57976370025489
 10
61.4786380618007
 20
-19.5816646892743
 10
61.47530646352489
 20
-19.5835187973846
 10
61.47194929137239
 20
-19.5853263802335
 10
61.46856752431228
 20
-19.5870877934686
 10
61.4651621413139
 20
-19.5888033927375
 10
61.4617341213464
 20
-19.59047353368798
 10
61.458284443379
 20
-19.59209857196769
 10
61.454814086381
 20
-19.5936788632243
 10
61.45082389865599
 20
-19.5954305743259
 10
61.446809441557
 20
-19.5971248357347
 10
61.4427720953016
 20
-19.5987622167432
 10
61.4387129076262
 20
-19.60034344412239
 10
61.43463284107679
 20
-19.6018692849932
 10
61.4305328581997
 20
-19.6033405064767
 10
61.42641392154079
 20
-19.6047578756938
 10
61.42227699364649
 20
-19.6061221597656
 10
61.4181230370628
 20
-19.607434125813
 10
61.4139530143359
 20
-19.608694540957
 10
61.4097678880118
 20
-19.6099041723187
 10
61.4050427658616
 20
-19.61120526026619
 10
61.40030111694411
 20
-19.61244413812511
 10
61.39554431158551
 20
-19.6136218981171
 10
61.3907735841195
 20
-19.6147396115041
 10
61.3859897893521
 20
-19.6157982910541
 10
61.3811937163971
 20
-19.6167989394106
 10
61.3763861543686
 20
-19.61774255921689
 10
61.3715678923803
 20
-19.6186301531164
 10
61.36620267839539
 20
-19.61955187865648
 10
61.3608263112592
 20
-19.62040704960981
 10
61.3554398734325
 20
-19.6211970413444
 10
61.3500444473761
 20
-19.62192322922861
 10
61.34464111555079
 20
-19.62258698863039
 10
61.33868961126161
 20
-19.62324666055661
 10
61.332731147153
 20
-19.6238342047128
 10
61.32676654653209
 20
-19.62435109196437
 10
61.3207965358951
 20
-19.6247987367706
 10
61.3148218417381
 20
-19.625178553591
 10
61.30829950570561
 20
-19.6255172037451
 10
61.3017734036772
 20
-19.62577865266689
 10
61.29524447884261
 20
-19.6259647367095
 10
61.28871367439129
 20
-19.62607729222581
 10
61.2816376090693
 20
-19.62611838230548
 10
61.2745616434391
 20
-19.6260776677443
 10
61.26748684878108
 20
-19.6259573079712
 10
61.26041399951169
 20
-19.62575905546511
 10
61.2528001003989
 20
-19.6254603857398
 10
61.2451902212094
 20
-19.62507546082131
 10
61.23758527647161
 20
-19.62460639727148
 10
61.2294436361354
 20
-19.6240128657168
 10
61.2213098350189
 20
-19.6233277794531
 10
61.2131849979519
 20
-19.62255374175899
 10
61.2072430742504
 20
-19.62193216670939
  0
LWPOLYLINE
  5
1227
330
1E
100
AcDbEntity
  8
1
100
AcDbPolyline
 90
        3
 70
     0
 43
0.0
 10
50.06077081819999
 20
0.9077478717999778
 10
49.9874528199519
 20
0.8438539688569155
 10
49.9707016832151
 20
0.8294911216605187
  0
LWPOLYLINE
  5
122C
330
1E
100
AcDbEntity
  8
1
100
AcDbPolyline
 90
        2
 70
     0
 43
0.0
 10
55.2454771693
 20
0.1728228543999472
 10
50.0607807194956
 20
0.9077464702491086
  0
LWPOLYLINE
  5
1230
330
1E
100
AcDbEntity
  8
1
100
AcDbPolyline
 90
        5
 70
     0
 43
0.0
 10
44.84489511689999
 20
-7.81913510060008
 10
45.4884364225328
 20
-7.885015403697302
 10
46.1031433622373
 20
-7.954208825004402
 10
46.66523458242639
 20
-8.023237490247923
 10
47.00859170870329
 20
-8.068393216756792
  0
LWPOLYLINE
  5
1237
330
1E
100
AcDbEntity
  8
1
100
AcDbPolyline
 90
       35
 70
     0
 43
0.0
 10
47.39010219569999
 20
-18.07176629520011
 10
47.33655237858799
 20
-18.0652724364214
 10
47.2830735598227
 20
-18.0581885152018
 10
47.22967074303709
 20
-18.05052909729811
 10
47.1736850574551
 20
-18.0418832678621
 10
47.1151354872309
 20
-18.03218080371569
 10
47.05669693623121
 20
-18.0218374894181
 10
46.9957264947776
 20
-18.0103581231333
 10
46.9348864188026
 20
-17.9982149817153
 10
46.87154331840718
 20
-17.98485441851961
 10
46.80834876018749
 20
-17.9708086139222
 10
46.7426826807002
 20
-17.9554695532765
 10
46.67456874224829
 20
-17.938772832318
 10
46.60664028282679
 20
-17.9213371252083
 10
46.5362986614007
 20
-17.90246874908799
 10
46.46356993961378
 20
-17.88210361174498
 10
46.38848178880309
 20
-17.8601793544565
 10
46.3136396324313
 20
-17.8374336731238
 10
46.2364782902843
 20
-17.8130618529583
 10
46.1570268400466
 20
-17.7870014476908
 10
46.075315741083
 20
-17.7591917886581
 10
45.99137687190038
 20
-17.7295743437903
 10
45.9052432015063
 20
-17.69809076435119
 10
45.81946585686679
 20
-17.6656490418573
 10
45.7315402419377
 20
-17.63127841014439
 10
45.6415015115317
 20
-17.5949222559731
 10
45.5493860151046
 20
-17.55652541021898
 10
45.4552304966456
 20
-17.51603002177439
 10
45.3590726113185
 20
-17.47337851028168
 10
45.26095122714889
 20
-17.4285153688497
 10
45.1609066671684
 20
-17.3813868928405
 10
45.0589822023783
 20
-17.33193784288141
 10
44.9552234011015
 20
-17.2801133819502
 10
44.8496775235773
 20
-17.22586090958509
 10
44.84490398176388
 20
-17.22337065784669
  0
LWPOLYLINE
  5
125C
330
1E
100
AcDbEntity
  8
1
100
AcDbPolyline
 90
       60
 70
     0
 43
0.0
 10
47.39010219569999
 20
-41.5468872157
 10
47.36241051836659
 20
-41.5480162484514
 10
47.33470465200698
 20
-41.54883293096751
 10
47.30421649622499
 20
-41.54937421077521
 10
47.27372114738469
 20
-41.54954541050971
 10
47.2432238308336
 20
-41.54935064925822
 10
47.2127297719191
 20
-41.54879404610761
 10
47.18224419598867
 20
-41.54787972014498
 10
47.15177232694768
 20
-41.54661179070711
 10
47.12131883178108
 20
-41.54499447352161
 10
47.09088698035578
 20
-41.54303222612869
 10
47.0604798269641
 20
-41.5407295433799
 10
47.02734014387078
 20
-41.537834542423
 10
46.99423745364039
 20
-41.53454558004201
 10
46.96117572157477
 20
-41.53086849177671
 10
46.92815891297589
 20
-41.52680911316688
 10
46.89519097257849
 20
-41.52237327655259
 10
46.86227535539539
 20
-41.51756673808288
 10
46.82667924293909
 20
-41.5119479139001
 10
46.79115173612678
 20
-41.50590790949161
 10
46.75569656449309
 20
-41.49945394011228
 10
46.72031745757259
 20
-41.49259322101711
 10
46.68501814489977
 20
-41.48533296746079
 10
46.64709701321899
 20
-41.47707569121928
 10
46.60927687228278
 20
-41.46837220579278
 10
46.57156066052489
 20
-41.45923080487711
 10
46.5339511551685
 20
-41.44965971486021
 10
46.49377682325757
 20
-41.43893749831579
 10
46.45373158994178
 20
-41.42774157787701
 10
46.41381887108378
 20
-41.41608207164138
 10
46.37404207683849
 20
-41.4039690928755
 10
46.33176654013839
 20
-41.39055962675389
 10
46.2896512722732
 20
-41.37665595716129
 10
46.24769849876077
 20
-41.36226873856839
 10
46.2033042117831
 20
-41.3464644100108
 10
46.15909854752341
 20
-41.3301390075055
 10
46.11508417540759
 20
-41.31330531069479
 10
46.06869205815429
 20
-41.2949414063001
 10
46.02251910548399
 20
-41.2760352907238
 10
45.97402010144477
 20
-41.25550461785978
 10
45.92576807385808
 20
-41.23439885505059
 10
45.87524485045221
 20
-41.21157736305099
 10
45.824998529125
 20
-41.1881525600081
 10
45.7725396330792
 20
-41.1629260414326
 10
45.72038851480662
 20
-41.13707115693979
 10
45.66608419746099
 20
-41.10932904313679
 10
45.61211781394027
 20
-41.08093422450401
 10
45.55605981128969
 20
-41.05057134587631
 10
45.49795845948746
 20
-41.01817309273189
 10
45.44025917256108
 20
-40.98506762304277
 10
45.38058152087739
 20
-40.9498523736597
 10
45.31897528731239
 20
-40.91246100060947
 10
45.2554917755584
 20
-40.87282912434822
 10
45.19018375477089
 20
-40.83089487307717
 10
45.12540902447539
 20
-40.7881406935576
 10
45.05888032052618
 20
-40.74302386794711
 10
44.99065369461239
 20
-40.6954861773116
 10
44.92078664376989
 20
-40.64547251665439
 10
44.84711625672099
 20
-40.5912749588893
 10
44.84490313046128
 20
-40.58962360777568
  0
LWPOLYLINE
  5
129A
330
1E
100
AcDbEntity
  8
1
100
AcDbPolyline
 90
       84
 70
     0
 43
0.0
 10
46.88828323539999
 20
-87.392366301
 10
46.85305398091258
 20
-87.40466373159652
 10
46.81875971282646
 20
-87.4162095801457
 10
46.78433816054278
 20
-87.4273749171499
 10
46.75087393074359
 20
-87.4378215571998
 10
46.71729617793061
 20
-87.4478975488023
 10
46.68469616932248
 20
-87.4572890180867
 10
46.65308639077998
 20
-87.4660238207908
 10
46.62138373757986
 20
-87.4744131374547
 10
46.59068794083167
 20
-87.48217821239679
 10
46.55990905605349
 20
-87.489607281976
 10
46.53015235752945
 20
-87.49644624725418
 10
46.50142804500926
 20
-87.50272263410611
 10
46.47263727906298
 20
-87.5086865892889
 10
46.44489297423247
 20
-87.5141182366214
 10
46.41820390294997
 20
-87.51904576923442
 10
46.39146294169046
 20
-87.5236852081889
 10
46.36578902363328
 20
-87.52785357228519
 10
46.34118992084586
 20
-87.53157678927989
 10
46.31655204170047
 20
-87.53503229394569
 10
46.2929994725816
 20
-87.5380722491946
 10
46.27053843024769
 20
-87.54072502507851
 10
46.24804940937107
 20
-87.54313402045282
 10
46.22666036893469
 20
-87.54518876292921
 10
46.20637698909686
 20
-87.5469146102198
 10
46.18720424841566
 20
-87.54833781595561
 10
46.16801736716029
 20
-87.54955124025507
 10
46.14994762403717
 20
-87.5504938106212
 10
46.13186807257477
 20
-87.5512354976146
 10
46.11491082165938
 20
-87.55174163525259
 10
46.09907924060704
 20
-87.55203979499631
 10
46.083245408415
 20
-87.55215875010781
 10
46.06854260957027
 20
-87.5520993148382
 10
46.05497250962728
 20
-87.55189157478429
 10
46.04140558159509
 20
-87.5515300888067
 10
46.02897328551287
 20
-87.55105786130251
 10
46.01654604622118
 20
-87.55044549989641
 10
46.00525434875359
 20
-87.5497614817956
 10
45.99397099570111
 20
-87.54894635885129
 10
45.98382566257535
 20
-87.54809192158019
 10
45.97369183697469
 20
-87.54711502983651
 10
45.96469547100878
 20
-87.5461376540221
 10
45.95571155440697
 20
-87.5450520293265
 10
45.94674166693347
 20
-87.54385274646491
 10
45.93890576556768
 20
-87.5427058863303
 10
45.93108287307867
 20
-87.5414642413806
 10
45.92327432094296
 20
-87.540123697344
 10
45.91659543639688
 20
-87.53888970621678
 10
45.90993286705097
 20
-87.53757032556748
 10
45.90328969364207
 20
-87.536158938367
 10
45.89666899690707
 20
-87.53464892758612
 10
45.89117114190877
 20
-87.53331047395169
 10
45.88569281794621
 20
-87.53189510726128
 10
45.88023580785318
 20
-87.53039899821578
 10
45.87480189446347
 20
-87.52881831751571
 10
45.86939286061086
 20
-87.5271492358618
 10
45.86401048912938
 20
-87.5253879239548
 10
45.85972510517597
 20
-87.52390975532398
 10
45.85546139054838
 20
-87.52236512660759
 10
45.85122480160245
 20
-87.52074669712099
 10
45.84702087187599
 20
-87.51904703478762
 10
45.84389268596248
 20
-87.51771450812309
 10
45.84078831793599
 20
-87.51632897203171
 10
45.83771010225746
 20
-87.5148872911061
 10
45.83466037338829
 20
-87.51338632993903
 10
45.83164146578948
 20
-87.5118229531229
 10
45.82865571392234
 20
-87.5101940252504
 10
45.825705452248
 20
-87.50849641091429
 10
45.82279301522746
 20
-87.5067269747072
 10
45.81992073732219
 20
-87.50488258122169
 10
45.81709095299308
 20
-87.50296009505051
 10
45.81430644977767
 20
-87.5009563638887
 10
45.81157667768716
 20
-87.49886798695509
 10
45.80891615638496
 20
-87.49669137439621
 10
45.80633953257318
 20
-87.4944229316206
 10
45.80467562602147
 20
-87.49285784454277
 10
45.8030598566524
 20
-87.4912492813751
 10
45.80149656422938
 20
-87.48959617705329
 10
45.79999008851596
 20
-87.48789746651318
 10
45.79854476927597
 20
-87.4861520846907
 10
45.79716494627279
 20
-87.4843589665218
 10
45.79585495927019
 20
-87.48251704694219
 10
45.79461914803157
 20
-87.48062526088778
 10
45.79403553379519
 20
-87.47966892534149
  0
LWPOLYLINE
  5
12F0
330
1E
100
AcDbEntity
  8
1
100
AcDbPolyline
 90
        6
 70
     0
 43
0.0
 10
36.69784713849999
 20
-34.1255786548001
 10
38.3678701983391
 20
-35.51727170395261
 10
40.07206654171889
 20
-36.90018389750961
 10
41.82659919868128
 20
-38.28678210206561
 10
43.62346967252078
 20
-39.669851392239
 10
44.8448871033431
 20
-40.58961164401861
  0
LWPOLYLINE
  5
12F8
330
1E
100
AcDbEntity
  8
1
100
AcDbPolyline
 90
        3
 70
     0
 43
0.0
 10
47.39010219569999
 20
-41.5468872157
 10
56.48312735091501
 20
-41.0795138210411
 10
61.20722315189421
 20
-40.7992056135968
  0
DIMENSION
  5
12FD
330
1E
100
AcDbEntity
  8
2
100
AcDbDimension
  2
*D9
 10
77.99168411902062
 20
-64.56401188683071
 30
0.0
 11
75.61668411902061
 21
-72.28200594341536
 31
0.0
 70
    32
 71
     5
 42
15.4359881131693
  3
ISO-25
100
AcDbAlignedDimension
 13
63.56249999999999
 23
-80.00000000000001
 33
0.0
 14
63.56249999999999
 24
-64.56401188683071
 34
0.0
 50
270.0
100
AcDbRotatedDimension
1001
ACAD
1000
DSTYLE
1002
{
1070
   271
1070
     0
1002
}
  0
DIMENSION
  5
12FE
330
1E
100
AcDbEntity
  8
2
100
AcDbDimension
  2
*D7
 10
60.99992010766872
 20
-95.00070295754929
 30
0.0
 11
52.44158677433539
 21
-92.62570295754928
 31
0.0
 70
    32
 71
     5
 42
2.000079892331278
  3
ISO-25
100
AcDbAlignedDimension
 13
62.99999999999999
 23
-80.56250000000002
 33
0.0
 14
60.99992010766872
 24
-80.56250000000002
 34
0.0
 50
180.0
100
AcDbRotatedDimension
  0
TEXT
  5
15B8
330
1E
100
AcDbEntity
  8
6
100
AcDbText
 10
80.59372772223241
 20
-110.1341229558792
 30
0.0
 40
5.0
  1
6MDK160R00
100
AcDbText
  0
LINE
  5
D8CD
330
1E
100
AcDbEntity
  8
NOCUT
100
AcDbLine
 10
32.03553390589991
 20
87.03553390600003
 30
0.0
 11
16.46446609400003
 21
71.46446609409998
 31
0.0
  0
LINE
  5
D8D6
330
1E
100
AcDbEntity
  8
NOCUT
100
AcDbLine
 10
0.0
 20
48.40000000000003
 30
0.0
 11
0.0
 21
0.0
 31
0.0
  0
LINE
  5
D8DE
330
1E
100
AcDbEntity
  8
NOCUT
100
AcDbLine
 10
15.0
 20
55.0
 30
0.0
 11
15.0
 21
67.92893218820001
 31
0.0
  0
LINE
  5
D8EB
330
1E
100
AcDbEntity
  8
NOCUT
100
AcDbLine
 10
61.59999999999989
 20
0.0
 30
0.0
 11
61.59999999999989
 21
78.9436880563
 31
0.0
  0
LINE
  5
D8EF
330
1E
100
AcDbEntity
  8
NOCUT
100
AcDbLine
 10
10.0
 20
50.0
 30
0.0
 11
1.599999999999909
 21
50.0
 31
0.0
  0
LINE
  5
D8F2
330
1E
100
AcDbEntity
  8
NOCUT
100
AcDbLine
 10
44.84489511690003
 20
88.49999999999999
 30
0.0
 11
35.57106781179982
 21
88.49999999999999
 31
0.0
  0
LINE
  5
D8F8
330
1E
100
AcDbEntity
  8
NOCUT
100
AcDbLine
 10
61.20723313259986
 20
79.63228167790005
 30
0.0
 11
47.3901021956999
 21
87.80371013500001
 31
0.0
  0
ARC
  5
E0A3
330
1E
100
AcDbEntity
  8
NOCUT
100
AcDbCircle
 10
20.0
 20
67.92893218820001
 30
0.0
 40
5.0
100
AcDbArc
 50
135.0000000003982
 51
180.0
  0
ARC
  5
E0AB
330
1E
100
AcDbEntity
  8
NOCUT
100
AcDbCircle
 10
1.599999999999909
 20
48.40000000000003
 30
0.0
 40
1.6
100
AcDbArc
 50
90.0
 51
180.0
  0
ARC
  5
E0AC
330
1E
100
AcDbEntity
  8
NOCUT
100
AcDbCircle
 10
10.0
 20
55.0
 30
0.0
 40
5.0
100
AcDbArc
 50
270.0
 51
359.999999999
  0
ARC
  5
E0AE
330
1E
100
AcDbEntity
  8
NOCUT
100
AcDbCircle
 10
35.57106781179982
 20
83.49999999999999
 30
0.0
 40
5.0
100
AcDbArc
 50
90.0
 51
134.9999999997989
  0
ARC
  5
E0AF
330
1E
100
AcDbEntity
  8
NOCUT
100
AcDbCircle
 10
44.84489511690003
 20
83.49999999999999
 30
0.0
 40
5.0
100
AcDbArc
 50
59.40000000020164
 51
90.0
  0
ARC
  5
E0B0
330
1E
100
AcDbEntity
  8
NOCUT
100
AcDbCircle
 10
60.79999999999995
 20
78.9436880563
 30
0.0
 40
0.8
100
AcDbArc
 50
0.0000000084999688
 51
59.39999999439839
  0
SPLINE
  5
F2A0
330
1E
100
AcDbEntity
  8
CUT
100
AcDbSpline
210
0.0
220
0.0
230
1.0
 70
     8
 71
     3
 72
    36
 73
    32
 74
    30
 42
0.0000000001
 43
0.0000000001
 44
0.0000000001
 12
-0.7340278545679947
 22
-0.6791193626442313
 32
0.0
 13
-0.7350832089425105
 23
-0.6779768992604259
 33
0.0
 40
0.0
 40
0.0
 40
0.0
 40
0.0
 40
0.1194476876669126
 40
0.2388899426732911
 40
0.3583267653077954
 40
0.4777574768689556
 40
0.5971827566717887
 40
0.7166033392235108
 40
0.8360170774993946
 40
0.9554253849196634
 40
1.074827582973183
 40
1.194224350785451
 40
1.31361574431949
 40
1.433000973828881
 40
1.55238009535347
 40
1.671753109259361
 40
1.791120694478335
 40
1.91048290734741
 40
2.029838957566982
 40
2.149188223103099
 40
2.268532061217905
 40
2.387870472201039
 40
2.507202099676813
 40
2.626529035466643
 40
2.745849132017994
 40
2.865163124491696
 40
2.984471013254274
 40
3.103772798672645
 40
3.2230692160958
 40
3.342359473975332
 40
3.461642951561391
 40
3.461642951561391
 40
3.461642951561391
 40
3.461642951561391
 10
55.36926100000004
 20
83.46155999999998
 30
-0.0003777254
 10
55.34003502336295
 20
83.43452025416075
 30
-0.0003777254
 10
55.28158299395114
 20
83.38044351127601
 30
-0.0003777254
 10
55.19390295587925
 20
83.29933455223663
 30
-0.0003777254
 10
55.10622331230865
 20
83.21823349997297
 30
-0.0003777254
 10
55.0185429215485
 20
83.13714158890613
 30
-0.0003777254
 10
54.93086295142459
 20
83.05605719591723
 30
-0.0003777254
 10
54.84318232415478
 20
82.97498184687601
 30
-0.0003777254
 10
54.75550195653349
 20
82.89391455043585
 30
-0.0003777254
 10
54.66782232486134
 20
82.81285548509428
 30
-0.0003777254
 10
54.5801418701563
 20
82.73180564343819
 30
-0.0003777254
 10
54.49246230999209
 20
82.65076313998577
 30
-0.0003777254
 10
54.40478093718296
 20
82.56973093115037
 30
-0.0003777254
 10
54.31710131508539
 20
82.48870549464426
 30
-0.0003777254
 10
54.22942127406883
 20
82.40768953872279
 30
-0.0003777254
 10
54.14174088039654
 20
82.32668263128545
 30
-0.0003777254
 10
54.05406131921795
 20
82.24568312847466
 30
-0.0003777254
 10
53.9663798889669
 20
82.16469398244003
 30
-0.0003777254
 10
53.87870066485279
 20
82.08371144790525
 30
-0.0003777254
 10
53.79101991960365
 20
82.00273958791314
 30
-0.0003777254
 10
53.70333995110537
 20
81.92177555362771
 30
-0.0003777254
 10
53.61566057015863
 20
81.84081954953546
 30
-0.0003777254
 10
53.52797987604613
 20
81.75987327334189
 30
-0.0003777254
 10
53.4402993060474
 20
81.67893586283438
 30
-0.0003777254
 10
53.3526192703721
 20
81.59800654010501
 30
-0.0003777254
 10
53.2649392491619
 20
81.5170865628024
 30
-0.0003777254
 10
53.17725918959076
 20
81.43617562710804
 30
-0.0003777254
 10
53.089579268888
 20
81.35527317958089
 30
-0.0003777254
 10
53.00189794479056
 20
81.2743809198991
 30
-0.0003777254
 10
52.91421849189646
 20
81.19349563197131
 30
-0.0003777254
 10
52.85576376049262
 20
81.13957714742225
 30
-0.0003777254
 10
52.82653600000003
 20
81.11261999999998
 30
-0.0003777254
 11
55.36926100000004
 21
83.46155999999998
 31
-0.0003777254
 11
55.28158100000019
 21
83.38044299999998
 31
-0.0003777254
 11
55.19390100000009
 21
83.29933400000003
 31
-0.0003777254
 11
55.10622099999999
 21
83.21823299999998
 31
-0.0003777254
 11
55.01854099999992
 21
83.13714100000003
 31
-0.0003777254
 11
54.93086100000005
 21
83.05605699999999
 31
-0.0003777254
 11
54.84318000000008
 21
82.974981
 31
-0.0003777254
 11
54.75549999999998
 21
82.89391399999997
 31
-0.0003777254
 11
54.6678200000001
 21
82.812855
 31
-0.0003777254
 11
54.58014000000003
 21
82.731805
 31
-0.0003777254
 11
54.49245999999993
 21
82.65076300000002
 31
-0.0003777254
 11
54.40477899999996
 21
82.56972999999998
 31
-0.0003777254
 11
54.31709899999987
 21
82.48870500000002
 31
-0.0003777254
 11
54.22941900000001
 21
82.40768899999997
 31
-0.0003777254
 11
54.14173900000014
 21
82.32668199999997
 31
-0.0003777254
 11
54.05405900000005
 21
82.24568300000003
 31
-0.0003777254
 11
53.96637800000007
 21
82.16469299999998
 31
-0.0003777254
 11
53.87869799999998
 21
82.08371099999999
 31
-0.0003777254
 11
53.7910179999999
 21
82.002739
 31
-0.0003777254
 11
53.70333800000003
 21
81.92177500000003
 31
-0.0003777254
 11
53.61565800000017
 21
81.840819
 31
-0.0003777254
 11
53.52797800000008
 21
81.759873
 31
-0.0003777254
 11
53.4402970000001
 21
81.67893500000003
 31
-0.0003777254
 11
53.35261700000001
 21
81.59800599999998
 31
-0.0003777254
 11
53.26493699999993
 21
81.51708599999997
 31
-0.0003777254
 11
53.17725700000003
 21
81.43617499999997
 31
-0.0003777254
 11
53.08957699999997
 21
81.35527299999997
 31
-0.0003777254
 11
53.00189599999999
 21
81.27437999999996
 31
-0.0003777254
 11
52.91421600000012
 21
81.19349500000003
 31
-0.0003777254
 11
52.82653600000003
 21
81.11261999999998
 31
-0.0003777254
  0
SPLINE
  5
F2A1
330
1E
100
AcDbEntity
  8
CUT
100
AcDbSpline
210
0.0
220
0.0
230
1.0
 70
     8
 71
     3
 72
    36
 73
    32
 74
    30
 42
0.0000000001
 43
0.0000000001
 44
0.0000000001
 12
-0.8700521473814472
 22
0.4929596949416176
 32
0.0
 13
-0.867929512102849
 23
0.4966873886268006
 33
0.0
 40
0.0
 40
0.0
 40
0.0
 40
0.0
 40
0.3653421814255509
 40
0.7307183869180375
 40
1.096127263171743
 40
1.46157006600821
 40
1.827045065176585
 40
2.192553515623301
 40
2.558093687129806
 40
2.923667327782313
 40
3.289271719393025
 40
3.654909103467859
 40
4.020577255717738
 40
4.386277923074374
 40
4.752008881016169
 40
5.117771875908944
 40
5.483564683003365
 40
5.849389048108996
 40
6.215243615045199
 40
6.581128018070244
 40
6.947043011695724
 40
7.312986866046414
 40
7.678961325701632
 40
8.044964661065046
 40
8.410997624591486
 40
8.777058982511189
 40
9.143149982434826
 40
9.509268894825133
 40
9.875417462935233
 40
10.24159296446679
 40
10.60779763856048
 40
10.60779763856048
 40
10.60779763856048
 40
10.60779763856048
 10
62.04423099999985
 20
75.862925
 30
-0.0003777254
 10
61.9382754168404
 20
75.92295799010162
 30
-0.0003777254
 10
61.72636419997598
 20
76.04304688869955
 30
-0.0003777254
 10
61.40851256803378
 20
76.22324062650739
 30
-0.0003777254
 10
61.09066151141984
 20
76.40350337837316
 30
-0.0003777254
 10
60.77280972288788
 20
76.58383158546503
 30
-0.0003777254
 10
60.45495872499865
 20
76.76422843978638
 30
-0.0003777254
 10
60.13710696932161
 20
76.94468970495724
 30
-0.0003777254
 10
59.81925563778298
 20
77.12521830423511
 30
-0.0003777254
 10
59.5014044698333
 20
77.30581193743657
 30
-0.0003777254
 10
59.18355283875754
 20
77.48647034206699
 30
-0.0003777254
 10
58.86570142351973
 20
77.66719287342391
 30
-0.0003777254
 10
58.54785007879467
 20
77.84798044798863
 30
-0.0003777254
 10
58.22999862594012
 20
78.02883091301734
 30
-0.0003777254
 10
57.91214728845043
 20
78.20974549964832
 30
-0.0003777254
 10
57.59429584572747
 20
78.39072198231393
 30
-0.0003777254
 10
57.2764444604461
 20
78.57176148443703
 30
-0.0003777254
 10
56.95859294858498
 20
78.75286243046932
 30
-0.0003777254
 10
56.64074073763184
 20
78.93402381692546
 30
-0.0003777254
 10
56.32289001561542
 20
79.11524881483176
 30
-0.0003777254
 10
56.00503819853323
 20
79.2965319741034
 30
-0.0003777254
 10
55.6871869777527
 20
79.47787676311387
 30
-0.0003777254
 10
55.36933515014709
 20
79.65927990461505
 30
-0.0003777254
 10
55.05148446981678
 20
79.84074497281118
 30
-0.0003777254
 10
54.73363235792103
 20
80.02226594992896
 30
-0.0003777254
 10
54.41578141274781
 20
80.20384788672027
 30
-0.0003777254
 10
54.09792964131905
 20
80.38548612699058
 30
-0.0003777254
 10
53.78007831631906
 20
80.56718373175511
 30
-0.0003777254
 10
53.46222715063127
 20
80.74893836497043
 30
-0.0003777254
 10
53.14437550587018
 20
80.93074974310885
 30
-0.0003777254
 10
52.93248261470533
 20
81.05199025224047
 30
-0.0003777254
 10
52.82653600000003
 20
81.11261999999998
 30
-0.0003777254
 11
62.04423099999985
 21
75.862925
 31
-0.0003777254
 11
61.72637900000018
 21
76.04304999999998
 31
-0.0003777254
 11
61.40852700000005
 21
76.223244
 31
-0.0003777254
 11
61.09067600000003
 21
76.40350599999995
 31
-0.0003777254
 11
60.77282400000012
 21
76.58383500000002
 31
-0.0003777254
 11
60.4549729999999
 21
76.76423099999998
 31
-0.0003777254
 11
60.13712099999998
 21
76.94469300000001
 31
-0.0003777254
 11
59.81926999999996
 21
77.125221
 31
-0.0003777254
 11
59.50141800000007
 21
77.30581499999998
 31
-0.0003777254
 11
59.18356700000003
 21
77.48647300000003
 31
-0.0003777254
 11
58.86571499999989
 21
77.66719600000003
 31
-0.0003777254
 11
58.54786400000012
 21
77.84798299999998
 31
-0.0003777254
 11
58.23001199999999
 21
78.028834
 31
-0.0003777254
 11
57.91216099999997
 21
78.20974800000003
 31
-0.0003777254
 11
57.59430900000007
 21
78.39072500000002
 31
-0.0003777254
 11
57.27645800000004
 21
78.57176400000001
 31
-0.0003777254
 11
56.95860600000014
 21
78.75286500000003
 31
-0.0003777254
 11
56.64075400000001
 21
78.934027
 31
-0.0003777254
 11
56.32290300000001
 21
79.11525099999998
 31
-0.0003777254
 11
56.00505100000011
 21
79.29653499999997
 31
-0.0003777254
 11
55.68720000000006
 21
79.47787900000001
 31
-0.0003777254
 11
55.36934800000017
 21
79.659283
 31
-0.0003777254
 11
55.05149699999993
 21
79.84074699999998
 31
-0.0003777254
 11
54.73364500000002
 21
80.02226899999998
 31
-0.0003777254
 11
54.41579400000001
 21
80.20385000000002
 31
-0.0003777254
 11
54.09794199999987
 21
80.385489
 31
-0.0003777254
 11
53.78009100000006
 21
80.56718599999998
 31
-0.0003777254
 11
53.46223899999995
 21
80.74894099999999
 31
-0.0003777254
 11
53.14438800000015
 21
80.93075200000003
 31
-0.0003777254
 11
52.82653600000003
 21
81.11261999999998
 31
-0.0003777254
  0
SPLINE
  5
F2A2
330
1E
100
AcDbEntity
  8
CUT
100
AcDbSpline
210
0.0
220
0.0
230
1.0
 70
     8
 71
     3
 72
    36
 73
    32
 74
    30
 42
0.0000000001
 43
0.0000000001
 44
0.0000000001
 12
-0.2461556850377597
 22
-0.9692303022107756
 32
0.0
 13
-0.2462604818395253
 23
-0.9692036809072511
 33
0.0
 40
0.0
 40
0.0
 40
0.0
 40
0.0
 40
0.1183992000015131
 40
0.2367964615450248
 40
0.3551927538602708
 40
0.4735871077205278
 40
0.5919795231279464
 40
0.7103709693097083
 40
0.8287604770415361
 40
0.9471490155493171
 40
1.065535615610313
 40
1.183920277226618
 40
1.302303969621283
 40
1.420685723574316
 40
1.539065539087811
 40
1.657444385382228
 40
1.775821293240133
 40
1.89419626266357
 40
2.012570262870527
 40
2.130941355431207
 40
2.249312447991789
 40
2.367680632910713
 40
2.486047848616788
 40
2.604413125898549
 40
2.722776464758168
 40
2.841138834407507
 40
2.959499265637752
 40
3.077857758450882
 40
3.196214312849004
 40
3.314569898040395
 40
3.432922575614744
 40
3.432922575614744
 40
3.432922575614744
 40
3.432922575614744
 10
62.88943599999993
 20
79.190174
 30
-0.0003777254
 10
62.87972112127183
 20
79.15192196920035
 30
-0.0003777254
 10
62.8602912385861
 20
79.07541860607134
 30
-0.0003777254
 10
62.83114609644634
 20
78.96066430883798
 30
-0.0003777254
 10
62.80200125045425
 20
78.84591160305579
 30
-0.0003777254
 10
62.7728562537549
 20
78.73116060221611
 30
-0.0003777254
 10
62.74371108656764
 20
78.61641131134607
 30
-0.0003777254
 10
62.71456627483408
 20
78.5016635968606
 30
-0.0003777254
 10
62.68542108663417
 20
78.38691731132847
 30
-0.0003777254
 10
62.65627625350983
 20
78.27217260227531
 30
-0.0003777254
 10
62.62713125142835
 20
78.15742960280258
 30
-0.0003777254
 10
62.59798609290067
 20
78.04268830973583
 30
-0.0003777254
 10
62.56884125188202
 20
77.9279486026859
 30
-0.0003777254
 10
62.5396962517241
 20
77.81321060272467
 30
-0.0003777254
 10
62.51055109339755
 20
77.69847430960857
 30
-0.0003777254
 10
62.48140624963143
 20
77.58373960325484
 30
-0.0003777254
 10
62.45226126028033
 20
77.46900660054831
 30
-0.0003777254
 10
62.42311606147495
 20
77.35427531771708
 30
-0.0003777254
 10
62.39397144834113
 20
77.2395458861057
 30
-0.0003777254
 10
62.3648258951482
 20
77.12481802663633
 30
-0.0003777254
 10
62.3356814483407
 20
77.01009188610314
 30
-0.0003777254
 10
62.30653606151534
 20
76.89536731770542
 30
-0.0003777254
 10
62.27739126017518
 20
76.7806446005697
 30
-0.0003777254
 10
62.24824625011262
 20
76.66592360312458
 30
-0.0003777254
 10
62.2191010917271
 20
76.55120431002952
 30
-0.0003777254
 10
62.18995625804017
 20
76.43648660110907
 30
-0.0003777254
 10
62.16081122849445
 20
76.32177060861437
 30
-0.0003777254
 10
62.13166625993737
 20
76.20705660062464
 30
-0.0003777254
 10
62.10252108418012
 20
76.09234431194545
 30
-0.0003777254
 10
62.07337635800443
 20
75.97763390904001
 30
-0.0003777254
 10
62.053946195802
 20
75.9011609502501
 30
-0.0003777254
 10
62.04423099999985
 20
75.862925
 30
-0.0003777254
 11
62.88943599999993
 21
79.190174
 31
-0.0003777254
 11
62.86029099999996
 21
79.075418
 31
-0.0003777254
 11
62.83114599999999
 21
78.96066399999998
 31
-0.0003777254
 11
62.80200100000001
 21
78.84591099999998
 31
-0.0003777254
 11
62.77285600000005
 21
78.73116000000003
 31
-0.0003777254
 11
62.74371100000006
 21
78.61641100000001
 31
-0.0003777254
 11
62.71456600000011
 21
78.50166299999997
 31
-0.0003777254
 11
62.68542100000013
 21
78.38691700000002
 31
-0.0003777254
 11
62.65627600000016
 21
78.27217199999998
 31
-0.0003777254
 11
62.62713099999996
 21
78.15742900000002
 31
-0.0003777254
 11
62.59798599999999
 21
78.04268799999999
 31
-0.0003777254
 11
62.56884100000002
 21
77.927948
 31
-0.0003777254
 11
62.53969600000004
 21
77.81321000000001
 31
-0.0003777254
 11
62.51055099999985
 21
77.69847400000002
 31
-0.0003777254
 11
62.48140599999988
 21
77.58373900000002
 31
-0.0003777254
 11
62.45226099999991
 21
77.46900600000002
 31
-0.0003777254
 11
62.42311599999993
 21
77.35427500000001
 31
-0.0003777254
 11
62.39397099999997
 21
77.23954500000002
 31
-0.0003777254
 11
62.36482599999999
 21
77.12481799999998
 31
-0.0003777254
 11
62.33568100000002
 21
77.01009100000003
 31
-0.0003777254
 11
62.30653600000005
 21
76.89536700000002
 31
-0.0003777254
 11
62.27739100000007
 21
76.78064399999998
 31
-0.0003777254
 11
62.24824600000011
 21
76.66592300000002
 31
-0.0003777254
 11
62.21910100000013
 21
76.55120400000003
 31
-0.0003777254
 11
62.18995600000017
 21
76.43648599999998
 31
-0.0003777254
 11
62.16081099999996
 21
76.32177
 31
-0.0003777254
 11
62.131666
 21
76.207056
 31
-0.0003777254
 11
62.10252100000001
 21
76.09234400000002
 31
-0.0003777254
 11
62.07337600000006
 21
75.97763300000003
 31
-0.0003777254
 11
62.04423099999985
 21
75.862925
 31
-0.0003777254
  0
SPLINE
  5
F2A3
330
1E
100
AcDbEntity
  8
CUT
100
AcDbSpline
210
0.0
220
0.0
230
1.0
 70
     8
 71
     3
 72
    36
 73
    32
 74
    30
 42
0.0000000001
 43
0.0000000001
 44
0.0000000001
 12
-0.024213722409132
 22
-0.9997068048418464
 32
0.0
 13
-0.0242840936081022
 23
-0.9997050979151968
 33
0.0
 40
0.0
 40
0.0
 40
0.0
 40
0.0
 40
0.0315122627718627
 40
0.063024549804053
 40
0.0945368368362436
 40
0.1260491238684338
 40
0.1575613866402913
 40
0.1890736736724866
 40
0.2205859607046578
 40
0.2520972480315907
 40
0.2836095350637616
 40
0.3151217978356524
 40
0.3466340848678141
 40
0.378145372194742
 40
0.4096576592269466
 40
0.4411699219987895
 40
0.4726822090309941
 40
0.5041934963578792
 40
0.5357057833900837
 40
0.5672170464558431
 40
0.5987293334880988
 40
0.6302416205203087
 40
0.6617529078471886
 40
0.6932651706189942
 40
0.7247764579459654
 40
0.756288744978169
 40
0.7878000323050554
 40
0.8193122950768689
 40
0.8508235824037882
 40
0.8823358694360299
 40
0.913847156762949
 40
0.913847156762949
 40
0.913847156762949
 40
0.913847156762949
 10
62.9116140000001
 20
80.10375200000003
 30
-0.0003777254
 10
62.91135965693903
 20
80.09325099215702
 30
-0.0003777254
 10
62.91085016637246
 20
80.07224898786871
 30
-0.0003777254
 10
62.91008493101206
 20
80.04074600167545
 30
-0.0003777254
 10
62.90932010938277
 20
80.00924299734519
 30
-0.0003777254
 10
62.90855463165306
 20
79.97774001702817
 30
-0.0003777254
 10
62.90779136518207
 20
79.94623698304874
 30
-0.0003777254
 10
62.90702590644188
 20
79.91473400227047
 30
-0.0003777254
 10
62.90626101694174
 20
79.88323133292192
 30
-0.0003777254
 10
62.90549607432462
 20
79.85172866486329
 30
-0.0003777254
 10
62.90473063740205
 20
79.8202260168885
 30
-0.0003777254
 10
62.90396736915039
 20
79.78872298295255
 30
-0.0003777254
 10
62.90320189291377
 20
79.75722033593176
 30
-0.0003777254
 10
62.9024371075485
 20
79.72571766405701
 30
-0.0003777254
 10
62.90167162853769
 20
79.69421501710359
 30
-0.0003777254
 10
62.90090837138285
 20
79.66271198289835
 30
-0.0003777254
 10
62.90014289284893
 20
79.63120933593332
 30
-0.0003777254
 10
62.8993781055761
 20
79.59970666410483
 30
-0.0003777254
 10
62.89861264458782
 20
79.56820435004775
 30
-0.0003777254
 10
62.89784935766633
 20
79.53670164989756
 30
-0.0003777254
 10
62.89708387505798
 20
79.50519900303209
 30
-0.0003777254
 10
62.89631914189844
 20
79.47369632988952
 30
-0.0003777254
 10
62.89555360608753
 20
79.44219368431544
 30
-0.0003777254
 10
62.89479039451375
 20
79.41069131566997
 30
-0.0003777254
 10
62.89402485509677
 20
79.37918867018343
 30
-0.0003777254
 10
62.89326014444714
 20
79.34768632982763
 30
-0.0003777254
 10
62.89249460776717
 20
79.31618368427468
 30
-0.0003777254
 10
62.89173138524522
 20
79.28468131589497
 30
-0.0003777254
 10
62.89096589049098
 20
79.25317866932431
 30
-0.0003777254
 10
62.89020101213497
 20
79.22167633303925
 30
-0.0003777254
 10
62.88969107435032
 20
79.20067466486087
 30
-0.0003777254
 10
62.88943599999993
 20
79.190174
 30
-0.0003777254
 11
62.9116140000001
 21
80.10375200000003
 31
-0.0003777254
 11
62.91084999999998
 21
80.07224899999998
 31
-0.0003777254
 11
62.91008499999998
 21
80.040746
 31
-0.0003777254
 11
62.90931999999997
 21
80.00924300000001
 31
-0.0003777254
 11
62.90855499999998
 21
79.97774000000003
 31
-0.0003777254
 11
62.90779100000007
 21
79.94623699999998
 31
-0.0003777254
 11
62.90702599999986
 21
79.914734
 31
-0.0003777254
 11
62.90626100000006
 21
79.88323100000002
 31
-0.0003777254
 11
62.90549599999986
 21
79.85172900000002
 31
-0.0003777254
 11
62.90473100000006
 21
79.82022600000004
 31
-0.0003777254
 11
62.90396699999996
 21
79.78872299999998
 31
-0.0003777254
 11
62.90320199999996
 21
79.75722000000001
 31
-0.0003777254
 11
62.90243699999996
 21
79.72571800000001
 31
-0.0003777254
 11
62.90167199999996
 21
79.69421500000001
 31
-0.0003777254
 11
62.90090800000006
 21
79.66271199999998
 31
-0.0003777254
 11
62.90014300000006
 21
79.63120899999998
 31
-0.0003777254
 11
62.89937800000007
 21
79.59970700000003
 31
-0.0003777254
 11
62.89861300000007
 21
79.56820400000002
 31
-0.0003777254
 11
62.89784899999995
 21
79.53670200000003
 31
-0.0003777254
 11
62.89708400000018
 21
79.50519899999997
 31
-0.0003777254
 11
62.89631899999996
 21
79.47369599999998
 31
-0.0003777254
 11
62.89555400000018
 21
79.44219400000001
 31
-0.0003777254
 11
62.89479000000007
 21
79.41069100000003
 31
-0.0003777254
 11
62.89402500000004
 21
79.37918899999998
 31
-0.0003777254
 11
62.89326000000007
 21
79.34768599999998
 31
-0.0003777254
 11
62.89249500000003
 21
79.31618400000002
 31
-0.0003777254
 11
62.89173100000017
 21
79.28468100000002
 31
-0.0003777254
 11
62.89096599999993
 21
79.25317900000003
 31
-0.0003777254
 11
62.89020100000016
 21
79.22167599999998
 31
-0.0003777254
 11
62.88943599999993
 21
79.190174
 31
-0.0003777254
  0
SPLINE
  5
F2A4
330
1E
100
AcDbEntity
  8
CUT
100
AcDbSpline
210
0.0
220
0.0
230
1.0
 70
     8
 71
     3
 72
    36
 73
    32
 74
    30
 42
0.0000000001
 43
0.0000000001
 44
0.0000000001
 12
-0.8704604015619729
 22
0.4922384476171774
 32
0.0
 13
-0.8689035608915324
 23
0.494981415681453
 33
0.0
 40
0.0
 40
0.0
 40
0.0
 40
0.0
 40
0.2670172651065385
 40
0.5340518768051235
 40
0.801104102203017
 40
1.06817405940913
 40
1.335260766697173
 40
1.602365212938891
 40
1.869486416009653
 40
2.136623509152876
 40
2.403778728800501
 40
2.670950715200597
 40
2.938138978344729
 40
3.205344508072238
 40
3.472566320898368
 40
3.739804043768697
 40
4.007058432039634
 40
4.274329606411425
 40
4.541617076302867
 40
4.808920844794755
 40
5.076240914967139
 40
5.343575432254049
 40
5.610927620803114
 40
5.878295131553688
 40
6.145678956019734
 40
6.413078108293966
 40
6.680493085670085
 40
6.947923021959781
 40
7.215369163457637
 40
7.48283064379634
 40
7.750307960623333
 40
7.750307960623333
 40
7.750307960623333
 40
7.750307960623333
 10
62.9116140000001
 20
80.10375200000003
 30
-0.0003777254
 10
62.83413801473057
 20
80.14756405468771
 30
-0.0003777254
 10
62.67918728403345
 20
80.2352021036917
 30
-0.0003777254
 10
62.44676966058749
 20
80.36669195101378
 30
-0.0003777254
 10
62.21435012713473
 20
80.49821408948417
 30
-0.0003777254
 10
61.98193185478849
 20
80.62977371186761
 30
-0.0003777254
 10
61.74951215292802
 20
80.761366142412
 30
-0.0003777254
 10
61.51709379739211
 20
80.89299561727893
 30
-0.0003777254
 10
61.28467488291537
 20
81.02465818313415
 30
-0.0003777254
 10
61.05225629499267
 20
81.15635565889029
 30
-0.0003777254
 10
60.81983766957481
 20
81.2880874017317
 30
-0.0003777254
 10
60.58741901578378
 20
81.41985368220991
 30
-0.0003777254
 10
60.35499936093685
 20
81.55165219747699
 30
-0.0003777254
 10
60.12258105505102
 20
81.68348675780906
 30
-0.0003777254
 10
59.8901617533807
 20
81.81535297524037
 30
-0.0003777254
 10
59.6577440918417
 20
81.94725508280349
 30
-0.0003777254
 10
59.42532458256319
 20
82.07918726808449
 30
-0.0003777254
 10
59.19290596212295
 20
82.21115460655468
 30
-0.0003777254
 10
58.96048691541229
 20
82.34315452733806
 30
-0.0003777254
 10
58.72806786032062
 20
82.47518743356582
 30
-0.0003777254
 10
58.49564966035535
 20
82.60725359113292
 30
-0.0003777254
 10
58.26323034478461
 20
82.739350452498
 30
-0.0003777254
 10
58.03081248732929
 20
82.87148187886762
 30
-0.0003777254
 10
57.79839277859227
 20
83.00364330205919
 30
-0.0003777254
 10
57.56597442867591
 20
83.13583878133799
 30
-0.0003777254
 10
57.33355510778795
 20
83.26806455335908
 30
-0.0003777254
 10
57.10113627162955
 20
83.40032225858967
 30
-0.0003777254
 10
56.86871819107119
 20
83.53261295779924
 30
-0.0003777254
 10
56.63629932643434
 20
83.66493361271507
 30
-0.0003777254
 10
56.40388011941954
 20
83.79728558531644
 30
-0.0003777254
 10
56.24893866434956
 20
83.88553889968479
 30
-0.0003777254
 10
56.171468
 20
83.92967100000003
 30
-0.0003777254
 11
62.9116140000001
 21
80.10375200000003
 31
-0.0003777254
 11
62.67919500000015
 21
80.235204
 31
-0.0003777254
 11
62.44677700000011
 21
80.36669299999998
 31
-0.0003777254
 11
62.21435800000017
 21
80.49821599999999
 31
-0.0003777254
 11
61.98193900000001
 21
80.62977499999998
 31
-0.0003777254
 11
61.74952000000008
 21
80.76136799999998
 31
-0.0003777254
 11
61.5171009999999
 21
80.89299700000003
 31
-0.0003777254
 11
61.28468199999996
 21
81.02466000000003
 31
-0.0003777254
 11
61.05226399999992
 21
81.156357
 31
-0.0003777254
 11
60.81984499999999
 21
81.28808900000001
 31
-0.0003777254
 11
60.58742600000005
 21
81.41985500000002
 31
-0.0003777254
 11
60.3550070000001
 21
81.55165400000003
 31
-0.0003777254
 11
60.12258800000018
 21
81.683488
 31
-0.0003777254
 11
59.89016900000001
 21
81.815355
 31
-0.0003777254
 11
59.65775100000019
 21
81.94725600000003
 31
-0.0003777254
 11
59.42533200000003
 21
82.07918900000001
 31
-0.0003777254
 11
59.19291299999986
 21
82.211156
 31
-0.0003777254
 11
58.96049399999992
 21
82.343156
 31
-0.0003777254
 11
58.72807499999999
 21
82.47518899999999
 31
-0.0003777254
 11
58.49565600000005
 21
82.60725499999997
 31
-0.0003777254
 11
58.263238
 21
82.73935199999998
 31
-0.0003777254
 11
58.03081900000006
 21
82.871483
 31
-0.0003777254
 11
57.79840000000014
 21
83.00364499999998
 31
-0.0003777254
 11
57.56598099999997
 21
83.13584000000002
 31
-0.0003777254
 11
57.33356200000002
 21
83.26806600000002
 31
-0.0003777254
 11
57.10114299999986
 21
83.400324
 31
-0.0003777254
 11
56.86872500000004
 21
83.53261399999999
 31
-0.0003777254
 11
56.63630599999986
 21
83.664935
 31
-0.0003777254
 11
56.40388699999993
 21
83.79728700000002
 31
-0.0003777254
 11
56.171468
 21
83.92967100000003
 31
-0.0003777254
  0
SPLINE
  5
F2A5
330
1E
100
AcDbEntity
  8
CUT
100
AcDbSpline
210
0.0
220
0.0
230
1.0
 70
     8
 71
     3
 72
    36
 73
    32
 74
    30
 42
0.0000000001
 43
0.0000000001
 44
0.0000000001
 12
0.8638317611803714
 22
0.5037803969747314
 32
0.0
 13
0.8635471776545251
 23
0.5042680556657381
 33
0.0
 40
0.0
 40
0.0
 40
0.0
 40
0.0
 40
0.0320231633822695
 40
0.064045462924893
 40
0.0960687700619937
 40
0.1280924372160065
 40
0.1601162481853178
 40
0.1921400591548377
 40
0.2241652377648461
 40
0.2561900564684537
 40
0.2882148751720531
 40
0.3202407017031139
 40
0.3522668880666012
 40
0.3842932185465803
 40
0.4163195490263191
 40
0.4483472471953355
 40
0.4803745856423188
 40
0.5124024281078672
 40
0.5444302705734156
 40
0.5764594807573168
 40
0.6084878272646998
 40
0.6405171819256698
 40
0.6725474002359318
 40
0.7045772590086317
 40
0.7366071177813153
 40
0.7686383443111282
 40
0.8006692113770712
 40
0.8327005826246617
 40
0.8647319538721783
 40
0.8967646929059274
 40
0.92879707258648
 40
0.92879707258648
 40
0.92879707258648
 40
0.92879707258648
 10
55.36926100000004
 20
83.46155999999998
 30
-0.0003777254
 10
55.37848187520772
 20
83.46693754732035
 30
-0.0003777254
 10
55.39692379355175
 20
83.47769178240985
 30
-0.0003777254
 10
55.42458658307122
 20
83.4938236669277
 30
-0.0003777254
 10
55.45224775996044
 20
83.50995864976749
 30
-0.0003777254
 10
55.47991143425869
 20
83.52609035058973
 30
-0.0003777254
 10
55.5075728965413
 20
83.542226177388
 30
-0.0003777254
 10
55.53523541477254
 20
83.55836119370266
 30
-0.0003777254
 10
55.56289809725499
 20
83.57449659519231
 30
-0.0003777254
 10
55.5905598646121
 20
83.59063423207466
 30
-0.0003777254
 10
55.6182226308545
 20
83.60677058532559
 30
-0.0003777254
 10
55.64588374676182
 20
83.62291067208813
 30
-0.0003777254
 10
55.67354743896727
 20
83.63904734292669
 30
-0.0003777254
 10
55.70120889142831
 20
83.65518818609528
 30
-0.0003777254
 10
55.72887143058309
 20
83.67132816665309
 30
-0.0003777254
 10
55.75653403906562
 20
83.68746869513335
 30
-0.0003777254
 10
55.78419622707335
 20
83.70361094422369
 30
-0.0003777254
 10
55.81185796481459
 20
83.71975406029081
 30
-0.0003777254
 10
55.83952045253347
 20
83.73589712908255
 30
-0.0003777254
 10
55.86718273271536
 20
83.75204088681606
 30
-0.0003777254
 10
55.89484556007632
 20
83.76818470706641
 30
-0.0003777254
 10
55.92250705858596
 20
83.78433147071865
 30
-0.0003777254
 10
55.95017013270615
 20
83.80047653490214
 30
-0.0003777254
 10
55.97783193469542
 20
83.81662411188267
 30
-0.0003777254
 10
56.00549441875815
 20
83.83277118698554
 30
-0.0003777254
 10
56.03315704301501
 20
83.84891868864368
 30
-0.0003777254
 10
56.06081922370775
 20
83.86506795015703
 30
-0.0003777254
 10
56.08848097462991
 20
83.88121804345386
 30
-0.0003777254
 10
56.11614341664414
 20
83.89736819063848
 30
-0.0003777254
 10
56.1438060114981
 20
83.91351874273389
 30
-0.0003777254
 10
56.16224750964444
 20
83.92428669806006
 30
-0.0003777254
 10
56.171468
 20
83.92967100000003
 30
-0.0003777254
 11
55.36926100000004
 21
83.46155999999998
 31
-0.0003777254
 11
55.39692400000014
 21
83.47769200000003
 31
-0.0003777254
 11
55.4245860000001
 21
83.49382400000001
 31
-0.0003777254
 11
55.45224800000005
 21
83.50995800000003
 31
-0.0003777254
 11
55.4799109999999
 21
83.526091
 31
-0.0003777254
 11
55.50757299999986
 21
83.54222600000001
 31
-0.0003777254
 11
55.53523500000006
 21
83.55836100000002
 31
-0.0003777254
 11
55.56289800000013
 21
83.574497
 31
-0.0003777254
 11
55.59056000000009
 21
83.59063400000001
 31
-0.0003777254
 11
55.61822200000007
 21
83.60677100000001
 31
-0.0003777254
 11
55.64588400000001
 21
83.62291000000004
 31
-0.0003777254
 11
55.67354699999985
 21
83.63904799999998
 31
-0.0003777254
 11
55.70120900000007
 21
83.655188
 31
-0.0003777254
 11
55.72887100000002
 21
83.671328
 31
-0.0003777254
 11
55.7565340000001
 21
83.68746900000003
 31
-0.0003777254
 11
55.78419600000007
 21
83.70361100000001
 31
-0.0003777254
 11
55.81185800000003
 21
83.71975400000001
 31
-0.0003777254
 11
55.83952
 21
83.73589700000001
 31
-0.0003777254
 11
55.86718300000007
 21
83.75204100000003
 31
-0.0003777254
 11
55.89484500000003
 21
83.768185
 31
-0.0003777254
 11
55.922507
 21
83.784331
 31
-0.0003777254
 11
55.95017000000006
 21
83.80047699999998
 31
-0.0003777254
 11
55.97783200000002
 21
83.81662400000003
 31
-0.0003777254
 11
56.00549399999999
 21
83.83277100000002
 31
-0.0003777254
 11
56.03315700000006
 21
83.84891900000003
 31
-0.0003777254
 11
56.06081900000003
 21
83.86506799999997
 31
-0.0003777254
 11
56.08848100000001
 21
83.88121800000003
 31
-0.0003777254
 11
56.11614299999995
 21
83.89736800000001
 31
-0.0003777254
 11
56.14380600000004
 21
83.913519
 31
-0.0003777254
 11
56.171468
 21
83.92967100000003
 31
-0.0003777254
  0
SPLINE
  5
F2A6
330
1E
100
AcDbEntity
  8
CUT
100
AcDbSpline
210
0.0
220
0.0
230
1.0
 70
     8
 71
     3
 72
    36
 73
    32
 74
    30
 42
0.0000000001
 43
0.0000000001
 44
0.0000000001
 12
0.2335124640405779
 22
-0.9723538086199374
 32
0.0
 13
-0.2411047837801812
 23
-0.9704990897668643
 33
0.0
 40
0.0
 40
0.0
 40
0.0
 40
0.0
 40
0.6488807735578321
 40
1.29438261736386
 40
1.936672000207766
 40
2.575891679756213
 40
3.212066799440207
 40
3.845585744397696
 40
4.476918046302196
 40
5.106337716380116
 40
5.733823577579338
 40
6.359790090607013
 40
6.984661191258177
 40
7.608484775866831
 40
8.231454449568525
 40
8.854001284629179
 40
9.476481536262131
 40
10.0988547341828
 40
10.72147153220945
 40
11.34475878847656
 40
11.96890677008993
 40
12.59396390046843
 40
13.22035033208712
 40
13.84847661745096
 40
14.478323335688
 40
15.1101569358614
 40
15.74443749209655
 40
16.38154741421827
 40
17.02150869502836
 40
17.66446039072946
 40
18.310560061001
 40
18.310560061001
 40
18.310560061001
 40
18.310560061001
 10
61.40868899999986
 20
80.98631199999998
 30
-0.0003777254
 10
61.45919624943387
 20
80.77599810283023
 30
-0.0003777254
 10
61.5566554504466
 20
80.35566663581759
 30
-0.0003777254
 10
61.69244990274169
 20
79.72452636009677
 30
-0.0003777254
 10
61.81745321576051
 20
79.09444136532259
 30
-0.0003777254
 10
61.93167467878541
 20
78.46547200709249
 30
-0.0003777254
 10
62.0350000408888
 20
77.83758310164593
 30
-0.0003777254
 10
62.12756406403312
 20
77.21067577791686
 30
-0.0003777254
 10
62.20952187238133
 20
76.58456535822802
 30
-0.0003777254
 10
62.28098369554917
 20
75.95919370925603
 30
-0.0003777254
 10
62.34178919001269
 20
75.334492578137
 30
-0.0003777254
 10
62.39205376120955
 20
74.7103768073303
 30
-0.0003777254
 10
62.43187283170724
 20
74.08673086751578
 30
-0.0003777254
 10
62.4612368607146
 20
73.46350494975701
 30
-0.0003777254
 10
62.48010597150359
 20
72.84064801465189
 30
-0.0003777254
 10
62.48851673335389
 20
72.21801010354113
 30
-0.0003777254
 10
62.48650450844337
 20
71.59551755827799
 30
-0.0003777254
 10
62.4740745809679
 20
70.9731224492079
 30
-0.0003777254
 10
62.45118354445725
 20
70.3507548001444
 30
-0.0003777254
 10
62.41779023488728
 20
69.72826986656357
 30
-0.0003777254
 10
62.37392989440973
 20
69.10561971434697
 30
-0.0003777254
 10
62.31962086928366
 20
68.48275680289685
 30
-0.0003777254
 10
62.25475498878687
 20
67.85957064056447
 30
-0.0003777254
 10
62.17921608700632
 20
67.23598034066
 30
-0.0003777254
 10
62.09316690103159
 20
66.61192096330492
 30
-0.0003777254
 10
61.9964940062022
 20
65.98734232122206
 30
-0.0003777254
 10
61.88903983998617
 20
65.36207068878507
 30
-0.0003777254
 10
61.77066151221792
 20
64.73601807286728
 30
-0.0003777254
 10
61.64147616262664
 20
64.10915485664161
 30
-0.0003777254
 10
61.50147775801058
 20
63.48154892625031
 30
-0.0003777254
 10
61.40119090710046
 20
63.0637100472991
 30
-0.0003777254
 10
61.34926500000005
 20
62.85469700000003
 30
-0.0003777254
 11
61.40868899999986
 21
80.98631199999998
 31
-0.0003777254
 11
61.55522599999994
 21
80.354194
 31
-0.0003777254
 11
61.69097699999998
 21
79.72312800000001
 31
-0.0003777254
 11
61.81594399999993
 21
79.093113
 31
-0.0003777254
 11
61.93011500000011
 21
78.46417200000002
 31
-0.0003777254
 11
62.03341099999988
 21
77.83643900000003
 31
-0.0003777254
 11
62.12594899999999
 21
77.209715
 31
-0.0003777254
 11
62.20789100000001
 21
76.58372299999998
 31
-0.0003777254
 11
62.27930700000001
 21
75.95836799999998
 31
-0.0003777254
 11
62.34009999999989
 21
75.33383400000002
 31
-0.0003777254
 11
62.39035400000012
 21
74.70988800000002
 31
-0.0003777254
 11
62.43015899999999
 21
74.08628600000001
 31
-0.0003777254
 11
62.45950399999992
 21
73.46315300000002
 31
-0.0003777254
 11
62.47836800000005
 21
72.84046900000003
 31
-0.0003777254
 11
62.48678000000018
 21
72.217979
 31
-0.0003777254
 11
62.48476800000003
 21
71.59550199999998
 31
-0.0003777254
 11
62.47233499999993
 21
70.97325299999998
 31
-0.0003777254
 11
62.44944800000006
 21
70.35105700000001
 31
-0.0003777254
 11
62.41607199999998
 21
69.72866400000002
 31
-0.0003777254
 11
62.37222599999995
 21
69.10605799999999
 31
-0.0003777254
 11
62.31792500000007
 21
68.48336399999998
 31
-0.0003777254
 11
62.25307100000009
 21
67.86034399999998
 31
-0.0003777254
 11
62.17757699999992
 21
67.23677100000002
 31
-0.0003777254
 11
62.09154200000011
 21
66.61282800000002
 31
-0.0003777254
 11
61.99489399999993
 21
65.98842999999998
 31
-0.0003777254
 11
61.88746700000002
 21
65.36331299999999
 31
-0.0003777254
 11
61.76913800000011
 21
64.73728800000002
 31
-0.0003777254
 11
61.63998799999991
 21
64.11049399999999
 31
-0.0003777254
 11
61.50003100000002
 21
63.48296000000003
 31
-0.0003777254
 11
61.34926500000005
 21
62.85469700000003
 31
-0.0003777254
  0
SPLINE
  5
F2A7
330
1E
100
AcDbEntity
  8
CUT
100
AcDbSpline
210
0.0
220
0.0
230
1.0
 70
     8
 71
     3
 72
    36
 73
    32
 74
    30
 42
0.0000000001
 43
0.0000000001
 44
0.0000000001
 12
-0.8664580808497845
 22
0.4992498313771458
 32
0.0
 13
-0.8663083397137405
 23
0.4995096200699467
 33
0.0
 40
0.0
 40
0.0
 40
0.0
 40
0.0
 40
0.0426129054276056
 40
0.0852263101263405
 40
0.1278388483867299
 40
0.1704527523733675
 40
0.2130666563604053
 40
0.2556810596529992
 40
0.2982954629460093
 40
0.340909866238597
 40
0.3835247688551384
 40
0.4261401708124474
 40
0.4687550734289775
 40
0.5113709747450697
 40
0.5539863767027674
 40
0.5966022780188899
 40
0.6392186787117599
 40
0.6818350794042705
 40
0.7244506137199194
 40
0.7670675138066515
 40
0.8096849133049659
 40
0.8523018133916636
 40
0.8949197123192476
 40
0.9375371118175602
 40
0.9801550107451513
 40
1.022773409119561
 40
1.065391807493944
 40
1.108010205868394
 40
1.150629103707246
 40
1.193248001546133
 40
1.23586739886706
 40
1.23586739886706
 40
1.23586739886706
 40
1.23586739886706
 10
61.40868899999986
 20
80.98631199999998
 30
-0.0003777254
 10
61.39638156791445
 20
80.99340349528306
 30
-0.0003777254
 10
61.37176678370341
 20
81.00758695796962
 30
-0.0003777254
 10
61.33484521812587
 20
81.02886280007357
 30
-0.0003777254
 10
61.29792355682635
 20
81.05013914272626
 30
-0.0003777254
 10
61.26100204375153
 20
81.07141607592074
 30
-0.0003777254
 10
61.22407972952783
 20
81.09269286399333
 30
-0.0003777254
 10
61.18715802871038
 20
81.11397104982014
 30
-0.0003777254
 10
61.15023601142871
 20
81.13524901983103
 30
-0.0003777254
 10
61.11331378136667
 20
81.15652695396144
 30
-0.0003777254
 10
61.07639170944053
 20
81.17780582918786
 30
-0.0003777254
 10
61.03947037140275
 20
81.19908631108225
 30
-0.0003777254
 10
61.00254738178507
 20
81.22036459402876
 30
-0.0003777254
 10
60.96562637090908
 20
81.24164631020398
 30
-0.0003777254
 10
60.92870371144137
 20
81.26292583267559
 30
-0.0003777254
 10
60.8917817738213
 20
81.2842069409327
 30
-0.0003777254
 10
60.85486003954144
 20
81.30548906859919
 30
-0.0003777254
 10
60.81793817400158
 20
81.32677072358076
 30
-0.0003777254
 10
60.78101662145306
 20
81.34805325489319
 30
-0.0003777254
 10
60.74409468520471
 20
81.36933578723676
 30
-0.0003777254
 10
60.70717337796043
 20
81.39062032233786
 30
-0.0003777254
 10
60.67025037984391
 20
81.41190259086286
 30
-0.0003777254
 10
60.63332937195267
 20
81.4331883118934
 30
-0.0003777254
 10
60.59640670926231
 20
81.45447182899012
 30
-0.0003777254
 10
60.55948478139885
 20
81.47575695415
 30
-0.0003777254
 10
60.5225630113009
 20
81.49704301960227
 30
-0.0003777254
 10
60.4856410291677
 20
81.51832905059203
 30
-0.0003777254
 10
60.44871872779236
 20
81.53961486118195
 30
-0.0003777254
 10
60.41179705002231
 20
81.56090208676529
 30
-0.0003777254
 10
60.37487478364629
 20
81.58218895807298
 30
-0.0003777254
 10
60.35026017977753
 20
81.59638073367885
 30
-0.0003777254
 10
60.33795299999997
 20
81.60347699999999
 30
-0.0003777254
 11
61.40868899999986
 21
80.98631199999998
 31
-0.0003777254
 11
61.37176700000011
 21
81.00758699999998
 31
-0.0003777254
 11
61.33484499999986
 21
81.02886299999999
 31
-0.0003777254
 11
61.29792399999995
 21
81.05013899999999
 31
-0.0003777254
 11
61.26100200000019
 21
81.07141599999998
 31
-0.0003777254
 11
61.22407999999996
 21
81.09269299999999
 31
-0.0003777254
 11
61.18715800000018
 21
81.11397099999997
 31
-0.0003777254
 11
61.15023599999995
 21
81.13524900000003
 31
-0.0003777254
 11
61.11331400000017
 21
81.15652700000003
 31
-0.0003777254
 11
61.07639199999994
 21
81.17780600000001
 31
-0.0003777254
 11
61.03947000000015
 21
81.199086
 31
-0.0003777254
 11
61.00254799999993
 21
81.220365
 31
-0.0003777254
 11
60.96562600000015
 21
81.24164599999998
 31
-0.0003777254
 11
60.92870399999992
 21
81.26292599999997
 31
-0.0003777254
 11
60.89178200000016
 21
81.28420700000003
 31
-0.0003777254
 11
60.85485999999992
 21
81.30548899999999
 31
-0.0003777254
 11
60.81793800000014
 21
81.326771
 31
-0.0003777254
 11
60.78101700000002
 21
81.34805299999998
 31
-0.0003777254
 11
60.74409500000001
 21
81.36933600000002
 31
-0.0003777254
 11
60.70717300000001
 21
81.39062
 31
-0.0003777254
 11
60.67025100000001
 21
81.41190299999998
 31
-0.0003777254
 11
60.633329
 21
81.43318800000001
 31
-0.0003777254
 11
60.59640699999999
 21
81.45447199999997
 31
-0.0003777254
 11
60.55948499999999
 21
81.47575700000002
 31
-0.0003777254
 11
60.52256299999999
 21
81.49704300000001
 31
-0.0003777254
 11
60.485641
 21
81.51832899999998
 31
-0.0003777254
 11
60.44871899999998
 21
81.53961500000002
 31
-0.0003777254
 11
60.41179699999998
 21
81.56090199999999
 31
-0.0003777254
 11
60.37487499999997
 21
81.58218900000001
 31
-0.0003777254
 11
60.33795299999997
 21
81.60347699999999
 31
-0.0003777254
  0
SPLINE
  5
F2A8
330
1E
100
AcDbEntity
  8
CUT
100
AcDbSpline
210
0.0
220
0.0
230
1.0
 70
     8
 71
     3
 72
    36
 73
    32
 74
    30
 42
0.0000000001
 43
0.0000000001
 44
0.0000000001
 12
0.9987308635813196
 22
0.0503652869555179
 32
0.0
 13
0.9986502002203732
 23
0.0519401347688727
 33
0.0
 40
0.0
 40
0.0
 40
0.0
 40
0.0
 40
0.11518327212753
 40
0.2303657975384126
 40
0.345549674856416
 40
0.46073290705617
 40
0.5759174414043562
 40
0.6911012807742271
 40
0.8062864736160408
 40
0.9214709721608882
 40
1.036656774141904
 40
1.151841933324768
 40
1.26702839661344
 40
1.38221421789816
 40
1.497401292923983
 40
1.61258777777348
 40
1.727775516921387
 40
1.842962615591244
 40
1.958151020324563
 40
2.073338785373767
 40
2.188527857155809
 40
2.30371623862279
 40
2.418904980242718
 40
2.534095029574278
 40
2.649284441175468
 40
2.764475109517171
 40
2.879665140860968
 40
2.994856532956712
 40
3.110047237095669
 40
3.225239250903074
 40
3.340430577382049
 40
3.340430577382049
 40
3.340430577382049
 40
3.340430577382049
 10
57.00189499999988
 20
81.43262300000001
 30
-0.0003777254
 10
57.04024069628057
 20
81.43455674618442
 30
-0.0003777254
 10
57.11693179377407
 20
81.43842514784786
 30
-0.0003777254
 10
57.23196851160203
 20
81.44423280443442
 30
-0.0003777254
 10
57.34700484689641
 20
81.45004777015875
 30
-0.0003777254
 10
57.46204148101435
 20
81.45587008358013
 30
-0.0003777254
 10
57.57707781737735
 20
81.4616980265861
 30
-0.0003777254
 10
57.6921145140113
 20
81.46753177279741
 30
-0.0003777254
 10
57.80715081812353
 20
81.4733730188059
 30
-0.0003777254
 10
57.92218748005019
 20
81.47922011471777
 30
-0.0003777254
 10
58.03722385397939
 20
81.48507265414654
 30
-0.0003777254
 10
58.15226047416715
 20
81.49093323662913
 30
-0.0003777254
 10
58.26729686060942
 20
81.49679853242218
 30
-0.0003777254
 10
58.38233343883931
 20
81.50267260079338
 30
-0.0003777254
 10
58.49736989542922
 20
81.50854919267059
 30
-0.0003777254
 10
58.61240643908496
 20
81.51443660089464
 30
-0.0003777254
 10
58.72744286141828
 20
81.52032653239981
 30
-0.0003777254
 10
58.84247947508677
 20
81.52622523670601
 30
-0.0003777254
 10
58.95751585555337
 20
81.53212865503739
 30
-0.0003777254
 10
59.07255248185325
 20
81.5380401112622
 30
-0.0003777254
 10
59.18758881930743
 20
81.54395703369997
 30
-0.0003777254
 10
59.30262518720567
 20
81.54987969970589
 30
-0.0003777254
 10
59.41766147663898
 20
81.55581022132508
 30
-0.0003777254
 10
59.53269786111254
 20
81.56174556738269
 30
-0.0003777254
 10
59.647734446533
 20
81.56768947649243
 30
-0.0003777254
 10
59.76277085689888
 20
81.57363665607181
 30
-0.0003777254
 10
59.87780751286106
 20
81.57959186750851
 30
-0.0003777254
 10
59.99284382143409
 20
81.58555401529131
 30
-0.0003777254
 10
60.10788048726894
 20
81.59152203429529
 30
-0.0003777254
 10
60.22291682346292
 20
81.59749598216793
 30
-0.0003777254
 10
60.29960771958267
 20
81.60148264899282
 30
-0.0003777254
 10
60.33795299999997
 20
81.60347699999999
 30
-0.0003777254
 11
57.00189499999988
 21
81.43262300000001
 31
-0.0003777254
 11
57.11693199999991
 21
81.43842599999997
 31
-0.0003777254
 11
57.23196800000003
 21
81.44423399999999
 31
-0.0003777254
 11
57.34700500000006
 21
81.45004900000001
 31
-0.0003777254
 11
57.46204099999999
 21
81.45587099999998
 31
-0.0003777254
 11
57.57707800000003
 21
81.461699
 31
-0.0003777254
 11
57.69211399999996
 21
81.46753299999998
 31
-0.0003777254
 11
57.80715099999998
 21
81.47337400000003
 31
-0.0003777254
 11
57.9221870000001
 21
81.47922099999998
 31
-0.0003777254
 11
58.03722400000015
 21
81.48507399999997
 31
-0.0003777254
 11
58.15226000000007
 21
81.49093400000003
 31
-0.0003777254
 11
58.26729699999987
 21
81.4968
 31
-0.0003777254
 11
58.38233300000002
 21
81.50267300000001
 31
-0.0003777254
 11
58.49737000000004
 21
81.50855099999999
 31
-0.0003777254
 11
58.61240599999996
 21
81.51443700000003
 31
-0.0003777254
 11
58.72744299999999
 21
81.52032799999998
 31
-0.0003777254
 11
58.84247899999991
 21
81.52622599999999
 31
-0.0003777254
 11
58.95751599999993
 21
81.53212999999999
 31
-0.0003777254
 11
59.07255200000006
 21
81.538041
 31
-0.0003777254
 11
59.1875890000001
 21
81.54395800000001
 31
-0.0003777254
 11
59.30262500000003
 21
81.54988100000002
 31
-0.0003777254
 11
59.41766099999995
 21
81.55581099999997
 31
-0.0003777254
 11
59.53269799999998
 21
81.56174700000002
 31
-0.0003777254
 11
59.6477340000001
 21
81.56769000000002
 31
-0.0003777254
 11
59.76277100000014
 21
81.573638
 31
-0.0003777254
 11
59.87780700000008
 21
81.57959300000003
 31
-0.0003777254
 11
59.99284399999988
 21
81.58555499999998
 31
-0.0003777254
 11
60.10788000000001
 21
81.59152299999998
 31
-0.0003777254
 11
60.22291700000003
 21
81.59749700000002
 31
-0.0003777254
 11
60.33795299999997
 21
81.60347699999999
 31
-0.0003777254
  0
SPLINE
  5
F2A9
330
1E
100
AcDbEntity
  8
CUT
100
AcDbSpline
210
0.0
220
0.0
230
1.0
 70
     8
 71
     3
 72
    36
 73
    32
 74
    30
 42
0.0000000001
 43
0.0000000001
 44
0.0000000001
 12
-0.691693796081324
 22
-0.7221908975212911
 32
0.0
 13
-0.6917870170419335
 23
-0.7221016016131136
 33
0.0
 40
0.0
 40
0.0
 40
0.0
 40
0.0
 40
0.0255876846157871
 40
0.0511760914633398
 40
0.0767637760792645
 40
0.1023507690444532
 40
0.1279377314471047
 40
0.1535246938499153
 40
0.1791116562527759
 40
0.2046986186554542
 40
0.2302855810580963
 40
0.2558718212665353
 40
0.2814580614750153
 40
0.3070435795075539
 40
0.3326298197158557
 40
0.3582153377486137
 40
0.3838008557813658
 40
0.4093856516569196
 40
0.434970477980375
 40
0.4605552738560859
 40
0.4861393475934068
 40
0.5117241434690265
 40
0.5373082172064691
 40
0.562892290943938
 40
0.5884763646813854
 40
0.6140597162991179
 40
0.6396430679168504
 40
0.6652264195347295
 40
0.6908097711526185
 40
0.7163924006694117
 40
0.7419750301862813
 40
0.7419750301862813
 40
0.7419750301862813
 40
0.7419750301862813
 10
57.00189499999988
 20
81.43262300000001
 30
-0.0003777254
 10
56.99599538576494
 20
81.42646326902729
 30
-0.0003777254
 10
56.98419675022925
 20
81.41414290585265
 30
-0.0003777254
 10
56.96649937975472
 20
81.39566196966015
 30
-0.0003777254
 10
56.94880088929528
 20
81.37718242523755
 30
-0.0003777254
 10
56.93110435284513
 20
81.35870167619355
 30
-0.0003777254
 10
56.91340590810045
 20
81.3402230880102
 30
-0.0003777254
 10
56.8957080218001
 20
81.32174397912283
 30
-0.0003777254
 10
56.87801000469923
 20
81.30326499549864
 30
-0.0003777254
 10
56.86031195940263
 20
81.28478603888295
 30
-0.0003777254
 10
56.84261432419776
 20
81.26630702282845
 30
-0.0003777254
 10
56.8249159093896
 20
81.24782908678595
 30
-0.0003777254
 10
56.80721837126715
 20
81.22935097772913
 30
-0.0003777254
 10
56.78951960461164
 20
81.21087404537506
 30
-0.0003777254
 10
56.77182237772675
 20
81.19239597154097
 30
-0.0003777254
 10
56.75412388355656
 20
81.17391911153369
 30
-0.0003777254
 10
56.73642642107123
 20
81.15544193000742
 30
-0.0003777254
 10
56.71872759073344
 20
81.13696637795717
 30
-0.0003777254
 10
56.70103134039313
 20
81.11848868801615
 30
-0.0003777254
 10
56.68333325632937
 20
81.10001308778297
 30
-0.0003777254
 10
56.66563464039882
 20
81.08153801113706
 30
-0.0003777254
 10
56.64793734951423
 20
81.06306199852733
 30
-0.0003777254
 10
56.63023896062248
 20
81.04458703772007
 30
-0.0003777254
 10
56.61254097451333
 20
81.02611202441611
 30
-0.0003777254
 10
56.59484330783333
 20
81.00763703843828
 30
-0.0003777254
 10
56.57714495974509
 20
80.98916303856309
 30
-0.0003777254
 10
56.5594470197033
 20
80.97068898112437
 30
-0.0003777254
 10
56.54174896144207
 20
80.95221503693906
 30
-0.0003777254
 10
56.5240513010378
 20
80.93374104493294
 30
-0.0003777254
 10
56.5063529999995
 20
80.91526799999991
 30
-0.0003777254
 10
56.49455424365396
 20
80.90295275258252
 30
-0.0003777254
 10
56.4886550000001
 20
80.89679499999999
 30
-0.0003777254
 11
57.00189499999988
 21
81.43262300000001
 31
-0.0003777254
 11
56.98419699999998
 21
81.414143
 31
-0.0003777254
 11
56.96649900000011
 21
81.395662
 31
-0.0003777254
 11
56.948801
 21
81.377182
 31
-0.0003777254
 11
56.93110400000001
 21
81.35870199999997
 31
-0.0003777254
 11
56.9134060000001
 21
81.34022300000003
 31
-0.0003777254
 11
56.89570800000002
 21
81.32174400000002
 31
-0.0003777254
 11
56.87800999999989
 21
81.303265
 31
-0.0003777254
 11
56.86031200000002
 21
81.28478599999999
 31
-0.0003777254
 11
56.84261400000014
 21
81.26630700000003
 31
-0.0003777254
 11
56.82491600000003
 21
81.24782900000003
 31
-0.0003777254
 11
56.80721799999992
 21
81.22935099999997
 31
-0.0003777254
 11
56.78952000000004
 21
81.21087400000003
 31
-0.0003777254
 11
56.77182200000014
 21
81.19239600000001
 31
-0.0003777254
 11
56.75412400000005
 21
81.17391899999999
 31
-0.0003777254
 11
56.73642599999993
 21
81.15544199999998
 31
-0.0003777254
 11
56.71872800000007
 21
81.13696600000002
 31
-0.0003777254
 11
56.70103100000005
 21
81.118489
 31
-0.0003777254
 11
56.68333299999996
 21
81.10001300000003
 31
-0.0003777254
 11
56.66563500000006
 21
81.08153800000001
 31
-0.0003777254
 11
56.64793700000018
 21
81.06306199999998
 31
-0.0003777254
 11
56.63023900000006
 21
81.04458700000002
 31
-0.0003777254
 11
56.61254099999997
 21
81.026112
 31
-0.0003777254
 11
56.59484299999984
 21
81.00763700000003
 31
-0.0003777254
 11
56.57714499999997
 21
80.989163
 31
-0.0003777254
 11
56.55944700000009
 21
80.97068899999998
 31
-0.0003777254
 11
56.54174899999998
 21
80.95221499999999
 31
-0.0003777254
 11
56.52405099999985
 21
80.93374099999998
 31
-0.0003777254
 11
56.50635299999999
 21
80.91526800000002
 31
-0.0003777254
 11
56.4886550000001
 21
80.89679499999999
 31
-0.0003777254
  0
SPLINE
  5
F2AA
330
1E
100
AcDbEntity
  8
CUT
100
AcDbSpline
210
0.0
220
0.0
230
1.0
 70
    24
 71
     3
 72
    36
 73
    32
 74
    30
 42
0.0000000001
 43
0.0000000001
 44
0.0000000001
 12
0.0
 22
-1.0
 32
0.0
 13
0.0
 23
-1.0
 33
0.0
 40
0.0
 40
0.0
 40
0.0
 40
0.0
 40
0.6348640000000075
 40
1.269704999999987
 40
1.904522
 40
2.539315000000001
 40
3.174082999999995
 40
3.808825999999967
 40
4.443541999999979
 40
5.078230999999959
 40
5.712892999999951
 40
6.347525999999959
 40
6.982130999999981
 40
7.616704999999967
 40
8.251248999999958
 40
8.885761999999999
 40
9.520243000000007
 40
10.15469099999996
 40
10.78910499999995
 40
11.42348399999997
 40
12.05782699999997
 40
12.69213299999997
 40
13.32640199999997
 40
13.96063099999998
 40
14.59482099999997
 40
15.22896899999995
 40
15.86307499999998
 40
16.49713699999995
 40
17.13115499999997
 40
17.76512599999995
 40
18.39904899999999
 40
18.39904899999999
 40
18.39904899999999
 40
18.39904899999999
 10
56.4886550000001
 20
80.89679499999999
 30
-0.0003777254
 10
56.4886550000001
 20
80.68517366666664
 30
-0.0003777254
 10
56.4886550000001
 20
80.26193866666664
 30
-0.0003777254
 10
56.4886550000001
 20
79.62709799999998
 30
-0.0003777254
 10
56.4886550000001
 20
78.99228099999996
 30
-0.0003777254
 10
56.4886550000001
 20
78.35748833333332
 30
-0.0003777254
 10
56.48865500000011
 20
77.72272033333333
 30
-0.0003777254
 10
56.4886550000001
 20
77.08797799999999
 30
-0.0003777254
 10
56.4886550000001
 20
76.45326200000003
 30
-0.0003777254
 10
56.4886550000001
 20
75.81857300000002
 30
-0.0003777254
 10
56.48865500000011
 20
75.18391166666669
 30
-0.0003777254
 10
56.48865500000009
 20
74.54927833333335
 30
-0.0003777254
 10
56.48865500000012
 20
73.91467433333335
 30
-0.0003777254
 10
56.4886550000001
 20
73.28010000000002
 30
-0.0003777254
 10
56.48865500000008
 20
72.64555633333332
 30
-0.0003777254
 10
56.4886550000001
 20
72.01104366666666
 30
-0.0003777254
 10
56.48865500000011
 20
71.37656299999999
 30
-0.0003777254
 10
56.4886550000001
 20
70.74211533333336
 30
-0.0003777254
 10
56.48865500000012
 20
70.10770166666668
 30
-0.0003777254
 10
56.48865500000011
 20
69.47332300000002
 30
-0.0003777254
 10
56.48865500000011
 20
68.83898033333334
 30
-0.0003777254
 10
56.4886550000001
 20
68.20467433333334
 30
-0.0003777254
 10
56.48865500000012
 20
67.57040633333335
 30
-0.0003777254
 10
56.4886550000001
 20
66.93617700000001
 30
-0.0003777254
 10
56.48865500000011
 20
66.30198800000002
 30
-0.0003777254
 10
56.4886550000001
 20
65.66784000000001
 30
-0.0003777254
 10
56.4886550000001
 20
65.03373466666669
 30
-0.0003777254
 10
56.4886550000001
 20
64.39967266666667
 30
-0.0003777254
 10
56.4886550000001
 20
63.7656556666667
 30
-0.0003777254
 10
56.4886550000001
 20
63.13168500000002
 30
-0.0003777254
 10
56.4886550000001
 20
62.70905366666667
 30
-0.0003777254
 10
56.4886550000001
 20
62.49774599999999
 30
-0.0003777254
 11
56.4886550000001
 21
80.89679499999999
 31
-0.0003777254
 11
56.4886550000001
 21
80.26193099999998
 31
-0.0003777254
 11
56.4886550000001
 21
79.62709
 31
-0.0003777254
 11
56.4886550000001
 21
78.99227299999998
 31
-0.0003777254
 11
56.4886550000001
 21
78.35747999999998
 31
-0.0003777254
 11
56.4886550000001
 21
77.72271199999998
 31
-0.0003777254
 11
56.4886550000001
 21
77.08796900000002
 31
-0.0003777254
 11
56.4886550000001
 21
76.453253
 31
-0.0003777254
 11
56.4886550000001
 21
75.81856400000003
 31
-0.0003777254
 11
56.4886550000001
 21
75.18390200000003
 31
-0.0003777254
 11
56.4886550000001
 21
74.54926900000002
 31
-0.0003777254
 11
56.4886550000001
 21
73.914664
 31
-0.0003777254
 11
56.4886550000001
 21
73.28009000000001
 31
-0.0003777254
 11
56.4886550000001
 21
72.64554600000002
 31
-0.0003777254
 11
56.4886550000001
 21
72.01103299999998
 31
-0.0003777254
 11
56.4886550000001
 21
71.37655199999997
 31
-0.0003777254
 11
56.4886550000001
 21
70.74210400000002
 31
-0.0003777254
 11
56.4886550000001
 21
70.10769000000003
 31
-0.0003777254
 11
56.4886550000001
 21
69.47331100000001
 31
-0.0003777254
 11
56.4886550000001
 21
68.83896800000001
 31
-0.0003777254
 11
56.4886550000001
 21
68.20466200000002
 31
-0.0003777254
 11
56.4886550000001
 21
67.57039300000001
 31
-0.0003777254
 11
56.4886550000001
 21
66.936164
 31
-0.0003777254
 11
56.4886550000001
 21
66.30197400000001
 31
-0.0003777254
 11
56.4886550000001
 21
65.66782600000003
 31
-0.0003777254
 11
56.4886550000001
 21
65.03372
 31
-0.0003777254
 11
56.4886550000001
 21
64.39965800000003
 31
-0.0003777254
 11
56.4886550000001
 21
63.76564000000001
 31
-0.0003777254
 11
56.4886550000001
 21
63.13166900000003
 31
-0.0003777254
 11
56.4886550000001
 21
62.49774599999999
 31
-0.0003777254
  0
SPLINE
  5
F2AB
330
1E
100
AcDbEntity
  8
CUT
100
AcDbSpline
210
0.0
220
0.0
230
1.0
 70
     8
 71
     3
 72
    36
 73
    32
 74
    30
 42
0.0000000001
 43
0.0000000001
 44
0.0000000001
 12
0.7264343703945843
 22
-0.6872358441680877
 32
0.0
 13
0.7265130473099309
 23
-0.6871526701457533
 33
0.0
 40
0.0
 40
0.0
 40
0.0
 40
0.0
 40
0.0243628252260401
 40
0.0487256504521038
 40
0.0730884756783636
 40
0.097451300904574
 40
0.121814126130648
 40
0.1461762641319827
 40
0.1705390893582129
 40
0.1949019145844371
 40
0.2192640525859522
 40
0.2436268778119923
 40
0.2679890158133522
 40
0.2923511538148124
 40
0.3167132526160419
 40
0.3410753906173711
 40
0.365437528618852
 40
0.3897996666203418
 40
0.4141618046217017
 40
0.4385239426230171
 40
0.4628860806245222
 40
0.4872482186259881
 40
0.5116103566273327
 40
0.5359724946286772
 40
0.560333945427086
 40
0.5846960834285753
 40
0.6090575342268294
 40
0.6334189457828215
 40
0.657780396581249
 40
0.6821425345825544
 40
0.7065039853808374
 40
0.7065039853808374
 40
0.7065039853808374
 40
0.7065039853808374
 10
56.4886550000001
 20
62.49774599999999
 30
-0.0003777254
 10
56.49455433120148
 20
62.49216499774647
 30
-0.0003777254
 10
56.50635300000018
 20
62.48100300000018
 30
-0.0003777254
 10
56.52405100319718
 20
62.46426000337971
 30
-0.0003777254
 10
56.54174898721056
 20
62.44751698648072
 30
-0.0003777254
 10
56.55944704796037
 20
62.43077405069747
 30
-0.0003777254
 10
56.5771446545425
 20
62.41403096816052
 30
-0.0003777254
 10
56.5948433354093
 20
62.39728902121797
 30
-0.0003777254
 10
56.61254100228171
 20
62.38054600241198
 30
-0.0003777254
 10
56.63023865546381
 20
62.36380296913422
 30
-0.0003777254
 10
56.64793737740077
 20
62.34706106560593
 30
-0.0003777254
 10
56.66563466698556
 20
62.33031798131282
 30
-0.0003777254
 10
56.68333295619813
 20
62.31357595370117
 30
-0.0003777254
 10
56.70103133231544
 20
62.29683437028391
 30
-0.0003777254
 10
56.71872765758753
 20
62.2800906190428
 30
-0.0003777254
 10
56.73642609428768
 20
62.26334909966586
 30
-0.0003777254
 10
56.75412397475415
 20
62.2466069733141
 30
-0.0003777254
 10
56.77182200669601
 20
62.22986500707787
 30
-0.0003777254
 10
56.78951999846244
 20
62.21312299837473
 30
-0.0003777254
 10
56.80721799945439
 20
62.19638099942318
 30
-0.0003777254
 10
56.82491600371982
 20
62.17963900393233
 30
-0.0003777254
 10
56.84261398566641
 20
62.16289698484743
 30
-0.0003777254
 10
56.86031205361514
 20
62.14615505667829
 30
-0.0003777254
 10
56.87800963346814
 20
62.12941294586045
 30
-0.0003777254
 10
56.89570841405362
 20
62.11267210437581
 30
-0.0003777254
 10
56.91340554236406
 20
62.09592984955394
 30
-0.0003777254
 10
56.93110440851572
 20
62.07918945087957
 30
-0.0003777254
 10
56.94880060013835
 20
62.06244655826951
 30
-0.0003777254
 10
56.9664994143653
 20
62.04570610469983
 30
-0.0003777254
 10
56.98419675037865
 20
62.02896406946366
 30
-0.0003777254
 10
56.99599536271443
 20
62.01780301198821
 30
-0.0003777254
 10
57.00189499999988
 20
62.01222299999999
 30
-0.0003777254
 11
56.4886550000001
 21
62.49774599999999
 31
-0.0003777254
 11
56.50635299999999
 21
62.48100300000003
 31
-0.0003777254
 11
56.52405099999985
 21
62.46426000000001
 31
-0.0003777254
 11
56.54174899999998
 21
62.44751699999999
 31
-0.0003777254
 11
56.55944700000009
 21
62.43077400000003
 31
-0.0003777254
 11
56.57714499999997
 21
62.41403100000001
 31
-0.0003777254
 11
56.59484299999984
 21
62.39728899999999
 31
-0.0003777254
 11
56.61254099999997
 21
62.38054600000001
 31
-0.0003777254
 11
56.63023900000006
 21
62.363803
 31
-0.0003777254
 11
56.64793700000018
 21
62.34706099999998
 31
-0.0003777254
 11
56.66563500000006
 21
62.33031800000002
 31
-0.0003777254
 11
56.68333299999996
 21
62.31357599999999
 31
-0.0003777254
 11
56.70103100000005
 21
62.29683400000002
 31
-0.0003777254
 11
56.71872800000007
 21
62.28009100000001
 31
-0.0003777254
 11
56.73642599999993
 21
62.26334899999999
 31
-0.0003777254
 11
56.75412400000005
 21
62.24660700000002
 31
-0.0003777254
 11
56.77182200000014
 21
62.22986500000001
 31
-0.0003777254
 11
56.78952000000004
 21
62.21312299999998
 31
-0.0003777254
 11
56.80721799999992
 21
62.196381
 31
-0.0003777254
 11
56.82491600000003
 21
62.17963899999999
 31
-0.0003777254
 11
56.84261400000014
 21
62.16289700000003
 31
-0.0003777254
 11
56.86031200000002
 21
62.146155
 31
-0.0003777254
 11
56.87800999999989
 21
62.12941299999998
 31
-0.0003777254
 11
56.89570800000002
 21
62.11267200000001
 31
-0.0003777254
 11
56.9134060000001
 21
62.09592999999999
 31
-0.0003777254
 11
56.93110400000001
 21
62.07918900000002
 31
-0.0003777254
 11
56.948801
 21
62.062447
 31
-0.0003777254
 11
56.96649900000011
 21
62.04570599999998
 31
-0.0003777254
 11
56.98419699999998
 21
62.02896400000001
 31
-0.0003777254
 11
57.00189499999988
 21
62.01222299999999
 31
-0.0003777254
  0
SPLINE
  5
F2AC
330
1E
100
AcDbEntity
  8
CUT
100
AcDbSpline
210
0.0
220
0.0
230
1.0
 70
     8
 71
     3
 72
    36
 73
    32
 74
    30
 42
0.0000000001
 43
0.0000000001
 44
0.0000000001
 12
0.9989278934821461
 22
0.0462932351788278
 32
0.0
 13
0.9988283734876123
 23
0.0483929779626194
 33
0.0
 40
0.0
 40
0.0
 40
0.0
 40
0.0
 40
0.1151605499205577
 40
0.2303204252940072
 40
0.3454817637240924
 40
0.4606424286448136
 40
0.5758045580885174
 40
0.690966015060825
 40
0.8061288912753632
 40
0.9212911896200417
 40
1.036454861708984
 40
1.151617910296549
 40
1.266782380763583
 40
1.381946228914967
 40
1.497111500264472
 40
1.612276150483117
 40
1.727442225218721
 40
1.842607680008688
 40
1.957774513159586
 40
2.0729407750249
 40
2.188108416422161
 40
2.303275487866141
 40
2.418442941154747
 40
2.533611775697806
 40
2.648780042247357
 40
2.76394973920801
 40
2.87911882152173
 40
2.994289287431858
 40
3.109459139810981
 40
3.224630425160259
 40
3.339801146513327
 40
3.339801146513327
 40
3.339801146513327
 40
3.339801146513327
 10
57.00189499999988
 20
62.01222299999999
 30
-0.0003777254
 10
57.04024069518134
 20
62.01400005147359
 30
-0.0003777254
 10
57.11693182971787
 20
62.01755481770231
 30
-0.0003777254
 10
57.23196858042697
 20
62.0228940157229
 30
-0.0003777254
 10
57.34700480982604
 20
62.02824525700181
 30
-0.0003777254
 10
57.46204158525129
 20
62.03360092857955
 30
-0.0003777254
 10
57.57707781450928
 20
62.03896916689713
 30
-0.0003777254
 10
57.69211454952831
 20
62.04434237548387
 30
-0.0003777254
 10
57.80715087900361
 20
62.04972546635713
 30
-0.0003777254
 10
57.92218751754663
 20
62.05511773956121
 30
-0.0003777254
 10
58.03722385267585
 20
62.06051770682726
 30
-0.0003777254
 10
58.15226054936494
 20
62.06592540859104
 30
-0.0003777254
 10
58.26729684910389
 20
62.07134279521985
 30
-0.0003777254
 10
58.38233355106641
 20
62.076767386819
 30
-0.0003777254
 10
58.49736984971226
 20
62.08220179452394
 30
-0.0003777254
 10
58.61240655057565
 20
62.08764341147231
 30
-0.0003777254
 10
58.72744285490943
 20
62.09309469721635
 30
-0.0003777254
 10
58.84247951811439
 20
62.09855377539745
 30
-0.0003777254
 10
58.95751588855752
 20
62.10402033491627
 30
-0.0003777254
 10
59.07255251442024
 20
62.10949686528274
 30
-0.0003777254
 10
59.18758888904161
 20
62.11498033901725
 30
-0.0003777254
 10
59.30262518749308
 20
62.12047374323643
 30
-0.0003777254
 10
59.41766152106592
 20
62.12597474349462
 30
-0.0003777254
 10
59.53269788550802
 20
62.13148343385952
 30
-0.0003777254
 10
59.64773454925051
 20
62.1370015024888
 30
-0.0003777254
 10
59.76277085751701
 20
62.14252869732828
 30
-0.0003777254
 10
59.87780752508114
 20
62.14806368436849
 30
-0.0003777254
 10
59.99284385789571
 20
62.15360670077537
 30
-0.0003777254
 10
60.10788055119028
 20
62.15915748879997
 30
-0.0003777254
 10
60.22291688499603
 20
62.16471748637496
 30
-0.0003777254
 10
60.29960773857247
 20
62.16843018193988
 30
-0.0003777254
 10
60.33795299999997
 20
62.17028800000001
 30
-0.0003777254
 11
57.00189499999988
 21
62.01222299999999
 31
-0.0003777254
 11
57.11693199999991
 21
62.01755600000001
 31
-0.0003777254
 11
57.23196800000003
 21
62.02289599999999
 31
-0.0003777254
 11
57.34700500000006
 21
62.02824600000001
 31
-0.0003777254
 11
57.46204099999999
 21
62.03360299999999
 31
-0.0003777254
 11
57.57707800000003
 21
62.03896999999999
 31
-0.0003777254
 11
57.69211399999996
 21
62.04434400000001
 31
-0.0003777254
 11
57.80715099999998
 21
62.049727
 31
-0.0003777254
 11
57.9221870000001
 21
62.05511900000002
 31
-0.0003777254
 11
58.03722400000015
 21
62.06051899999998
 31
-0.0003777254
 11
58.15226000000007
 21
62.06592700000003
 31
-0.0003777254
 11
58.26729699999987
 21
62.071344
 31
-0.0003777254
 11
58.38233300000002
 21
62.07676899999999
 31
-0.0003777254
 11
58.49737000000004
 21
62.08220299999998
 31
-0.0003777254
 11
58.61240599999996
 21
62.087645
 31
-0.0003777254
 11
58.72744299999999
 21
62.09309599999999
 31
-0.0003777254
 11
58.84247899999991
 21
62.09855500000002
 31
-0.0003777254
 11
58.95751599999993
 21
62.10402200000003
 31
-0.0003777254
 11
59.07255200000006
 21
62.10949800000001
 31
-0.0003777254
 11
59.1875890000001
 21
62.11498199999998
 31
-0.0003777254
 11
59.30262500000003
 21
62.12047499999997
 31
-0.0003777254
 11
59.41766099999995
 21
62.12597600000002
 31
-0.0003777254
 11
59.53269799999998
 21
62.13148499999999
 31
-0.0003777254
 11
59.6477340000001
 21
62.13700299999998
 31
-0.0003777254
 11
59.76277100000014
 21
62.14253000000001
 31
-0.0003777254
 11
59.87780700000008
 21
62.14806500000001
 31
-0.0003777254
 11
59.99284399999988
 21
62.153608
 31
-0.0003777254
 11
60.10788000000001
 21
62.15915900000003
 31
-0.0003777254
 11
60.22291700000003
 21
62.16471900000001
 31
-0.0003777254
 11
60.33795299999997
 21
62.17028800000001
 31
-0.0003777254
  0
SPLINE
  5
F2AD
330
1E
100
AcDbEntity
  8
CUT
100
AcDbSpline
210
0.0
220
0.0
230
1.0
 70
     8
 71
     3
 72
    36
 73
    32
 74
    30
 42
0.0000000001
 43
0.0000000001
 44
0.0000000001
 12
-0.8280243866421519
 22
-0.5606920858420316
 32
0.0
 13
-0.8283981617091694
 23
-0.5601397019287857
 33
0.0
 40
0.0
 40
0.0
 40
0.0
 40
0.0
 40
0.0421169987653914
 40
0.0842331695314609
 40
0.1263490468819889
 40
0.1684643635494894
 40
0.2105791195502799
 40
0.2526933149003737
 40
0.2948061215510523
 40
0.3369186350477011
 40
0.3790311485443123
 40
0.4211425408865969
 40
0.4632533726759013
 40
0.5053636439289607
 40
0.5474719660042489
 40
0.5895811162331911
 40
0.6316891455031995
 40
0.6737966143182069
 40
0.7159040831329826
 40
0.7580098706805851
 40
0.8001148300083936
 40
0.8422200571661209
 40
0.8843241635929929
 40
0.9264277096786647
 40
0.9685306954398066
 40
1.010632292606618
 40
1.052734157767269
 40
1.094834902392526
 40
1.136935086774624
 40
1.179035271156517
 40
1.221133774906687
 40
1.221133774906687
 40
1.221133774906687
 40
1.221133774906687
 10
61.34926500000005
 20
62.85469700000003
 30
-0.0003777254
 10
61.33764036597674
 20
62.84682544403764
 30
-0.0003777254
 10
61.31439217612179
 20
62.83108123213964
 30
-0.0003777254
 10
61.27952040100304
 20
62.80746458227059
 30
-0.0003777254
 10
61.2446471700303
 20
62.78385108221765
 30
-0.0003777254
 10
61.20977423789516
 20
62.76023798199466
 30
-0.0003777254
 10
61.17490127115271
 20
62.73662593284827
 30
-0.0003777254
 10
61.14002829880451
 20
62.71301538434176
 30
-0.0003777254
 10
61.10515645244768
 20
62.68940450599875
 30
-0.0003777254
 10
61.07028284113626
 20
62.66579723466399
 30
-0.0003777254
 10
61.03541057339696
 20
62.64218881963296
 30
-0.0003777254
 10
61.00053718634204
 20
62.61858305803772
 30
-0.0003777254
 10
60.96566422859483
 20
62.59497799561479
 30
-0.0003777254
 10
60.93079167519865
 20
62.5713741615711
 30
-0.0003777254
 10
60.89591876319504
 20
62.54777185737897
 30
-0.0003777254
 10
60.86104651924765
 20
62.52416989942729
 30
-0.0003777254
 10
60.82617325205101
 20
62.50056996086693
 30
-0.0003777254
 10
60.79129986504679
 20
62.47697119943737
 30
-0.0003777254
 10
60.7564279066123
 20
62.45337166018235
 30
-0.0003777254
 10
60.721553986184
 20
62.42977651304308
 30
-0.0003777254
 10
60.68668213942673
 20
62.40617963463776
 30
-0.0003777254
 10
60.65180947657914
 20
62.38258496225327
 30
-0.0003777254
 10
60.61693620091615
 20
62.35899203635127
 30
-0.0003777254
 10
60.58206326679611
 20
62.33539993895374
 30
-0.0003777254
 10
60.54719035289139
 20
62.31180930442187
 30
-0.0003777254
 10
60.51231808602011
 20
62.28821871340677
 30
-0.0003777254
 10
60.47744547784414
 20
62.26462996020851
 30
-0.0003777254
 10
60.44257224898901
 20
62.24104296519643
 30
-0.0003777254
 10
60.4076989184111
 20
62.21745712062883
 30
-0.0003777254
 10
60.3728266960935
 20
62.19387097076581
 30
-0.0003777254
 10
60.34957777437242
 20
62.17814834778076
 30
-0.0003777254
 10
60.33795299999997
 20
62.17028800000001
 30
-0.0003777254
 11
61.34926500000005
 21
62.85469700000003
 31
-0.0003777254
 11
61.31439199999999
 21
62.83108100000003
 31
-0.0003777254
 11
61.27952000000004
 21
62.80746500000002
 31
-0.0003777254
 11
61.24464699999998
 21
62.78385100000001
 31
-0.0003777254
 11
61.20977399999993
 21
62.760238
 31
-0.0003777254
 11
61.17490099999987
 21
62.73662599999997
 31
-0.0003777254
 11
61.14002800000003
 21
62.71301500000003
 31
-0.0003777254
 11
61.10515600000008
 21
62.68940500000001
 31
-0.0003777254
 11
61.07028300000002
 21
62.66579699999998
 31
-0.0003777254
 11
61.03540999999996
 21
62.64218900000002
 31
-0.0003777254
 11
61.00053699999989
 21
62.618583
 31
-0.0003777254
 11
60.96566400000007
 21
62.59497800000001
 31
-0.0003777254
 11
60.930791
 21
62.57137399999997
 31
-0.0003777254
 11
60.89591900000005
 21
62.54777199999999
 31
-0.0003777254
 11
60.86104599999998
 21
62.52417000000001
 31
-0.0003777254
 11
60.82617299999992
 21
62.50057000000001
 31
-0.0003777254
 11
60.79129999999985
 21
62.47697099999998
 31
-0.0003777254
 11
60.75642700000003
 21
62.45337199999998
 31
-0.0003777254
 11
60.72155399999997
 21
62.42977599999999
 31
-0.0003777254
 11
60.68668200000002
 21
62.40617999999999
 31
-0.0003777254
 11
60.65180899999996
 21
62.38258499999999
 31
-0.0003777254
 11
60.6169359999999
 21
62.35899199999998
 31
-0.0003777254
 11
60.58206300000007
 21
62.33539999999997
 31
-0.0003777254
 11
60.54719
 21
62.31180900000001
 31
-0.0003777254
 11
60.51231800000005
 21
62.28821900000001
 31
-0.0003777254
 11
60.47744499999999
 21
62.26462999999998
 31
-0.0003777254
 11
60.44257199999993
 21
62.24104300000004
 31
-0.0003777254
 11
60.40769899999986
 21
62.21745700000001
 31
-0.0003777254
 11
60.37282600000003
 21
62.19387099999998
 31
-0.0003777254
 11
60.33795299999997
 21
62.17028800000001
 31
-0.0003777254
  0
SPLINE
  5
F2AE
330
1E
100
AcDbEntity
  8
CUT
100
AcDbSpline
210
0.0
220
0.0
230
1.0
 70
     8
 71
     3
 72
    36
 73
    32
 74
    30
 42
0.0000000001
 43
0.0000000001
 44
0.0000000001
 12
0.8575074201643561
 22
-0.5144715972364951
 32
0.0
 13
0.8573528978074628
 23
-0.5147290633150085
 33
0.0
 40
0.0
 40
0.0
 40
0.0
 40
0.0
 40
0.0635676655698808
 40
0.1271327586713164
 40
0.1906956222948032
 40
0.2542567709627996
 40
0.317814832685819
 40
0.381371522404677
 40
0.4449264971902889
 40
0.5084783850458649
 40
0.5720289008893398
 40
0.6355768443731073
 40
0.6991230729707424
 40
0.7626670721053357
 40
0.8262088417768314
 40
0.8897483819861554
 40
0.9532862073344452
 40
1.016821460423013
 40
1.080355341470761
 40
1.143886135649657
 40
1.207415215014782
 40
1.270942922332276
 40
1.334467542795568
 40
1.397990448467313
 40
1.461510267303796
 40
1.525029228756134
 40
1.58854596076438
 40
1.652060120650155
 40
1.715572908464954
 40
1.779082609471938
 40
1.842590595757069
 40
1.842590595757069
 40
1.842590595757069
 40
1.842590595757069
 10
61.40868899999986
 20
80.98631199999998
 30
-0.0003777254
 10
61.42685891496943
 20
80.97541074718721
 30
-0.0003777254
 10
61.46319739707228
 20
80.95360766176666
 30
-0.0003777254
 10
61.51770332119251
 20
80.9209023131013
 30
-0.0003777254
 10
61.57220763197134
 20
80.88819849769823
 30
-0.0003777254
 10
61.6267092000964
 20
80.85549466679243
 30
-0.0003777254
 10
61.68120850907959
 20
80.82279107071611
 30
-0.0003777254
 10
61.73570664604319
 20
80.79008952112477
 30
-0.0003777254
 10
61.79020220111969
 20
80.75738766848054
 30
-0.0003777254
 10
61.8446954910423
 20
80.72468604067234
 30
-0.0003777254
 10
61.89918747213916
 20
80.69198678676494
 30
-0.0003777254
 10
61.95367659151695
 20
80.65928643020646
 30
-0.0003777254
 10
62.00816335839902
 20
80.62658637510008
 30
-0.0003777254
 10
62.06264838708199
 20
80.59388742289241
 30
-0.0003777254
 10
62.1171313584028
 20
80.56118937510468
 30
-0.0003777254
 10
62.17161259152315
 20
80.52849243020309
 30
-0.0003777254
 10
62.22609147224204
 20
80.49579578681386
 30
-0.0003777254
 10
62.28056749107783
 20
80.46309804078397
 30
-0.0003777254
 10
62.33504220109056
 20
80.43040266837024
 30
-0.0003777254
 10
62.38951464661815
 20
80.39770752194113
 30
-0.0003777254
 10
62.44398450738938
 20
80.36501206797476
 30
-0.0003777254
 10
62.49845320656874
 20
80.33231867747952
 30
-0.0003777254
 10
62.55291960852268
 20
80.29962545845149
 30
-0.0003777254
 10
62.60738316431673
 20
80.26693260706883
 30
-0.0003777254
 10
62.66184482365145
 20
80.23424026151417
 30
-0.0003777254
 10
62.71630430646562
 20
80.20154828857917
 30
-0.0003777254
 10
62.77076251021647
 20
80.16885784991535
 30
-0.0003777254
 10
62.82521747775438
 20
80.13616601864866
 30
-0.0003777254
 10
62.87967121663941
 20
80.10347669420239
 30
-0.0003777254
 10
62.9341225982659
 20
80.07078744129714
 30
-0.0003777254
 10
62.97042241464147
 20
80.04899446876457
 30
-0.0003777254
 10
62.98857199999996
 20
80.03809800000004
 30
-0.0003777254
 11
61.40868899999986
 21
80.98631199999998
 31
-0.0003777254
 11
61.46319799999992
 21
80.95360700000002
 31
-0.0003777254
 11
61.51770399999985
 21
80.92090199999999
 31
-0.0003777254
 11
61.57220800000004
 21
80.88819800000003
 31
-0.0003777254
 11
61.62670999999999
 21
80.85549400000003
 31
-0.0003777254
 11
61.68120899999984
 21
80.82279099999999
 31
-0.0003777254
 11
61.73570700000005
 21
80.79008900000003
 31
-0.0003777254
 11
61.79020300000002
 21
80.75738699999998
 31
-0.0003777254
 11
61.8446960000001
 21
80.724686
 31
-0.0003777254
 11
61.89918799999986
 21
80.69198600000003
 31
-0.0003777254
 11
61.95367699999997
 21
80.65928599999997
 31
-0.0003777254
 11
62.00816399999984
 21
80.62658600000002
 31
-0.0003777254
 11
62.06264899999997
 21
80.59388699999997
 31
-0.0003777254
 11
62.11713199999985
 21
80.56118899999999
 31
-0.0003777254
 11
62.17161299999998
 21
80.52849200000002
 31
-0.0003777254
 11
62.2260919999999
 21
80.49579500000003
 31
-0.0003777254
 11
62.28056800000013
 21
80.46309799999999
 31
-0.0003777254
 11
62.33504300000004
 21
80.430402
 31
-0.0003777254
 11
62.38951500000006
 21
80.39770700000003
 31
-0.0003777254
 11
62.44398499999988
 21
80.36501200000001
 31
-0.0003777254
 11
62.49845400000004
 21
80.33231800000001
 31
-0.0003777254
 11
62.55292000000006
 21
80.29962499999998
 31
-0.0003777254
 11
62.6073839999999
 21
80.26693199999998
 31
-0.0003777254
 11
62.66184500000008
 21
80.23423999999998
 31
-0.0003777254
 11
62.71630499999992
 21
80.20154799999998
 31
-0.0003777254
 11
62.77076299999999
 21
80.16885699999997
 31
-0.0003777254
 11
62.82521799999995
 21
80.13616599999997
 31
-0.0003777254
 11
62.87967200000003
 21
80.10347599999999
 31
-0.0003777254
 11
62.93412299999999
 21
80.07078699999999
 31
-0.0003777254
 11
62.98857199999996
 21
80.03809800000004
 31
-0.0003777254
  0
SPLINE
  5
F2AF
330
1E
100
AcDbEntity
  8
CUT
100
AcDbSpline
210
0.0
220
0.0
230
1.0
 70
     8
 71
     3
 72
    36
 73
    32
 74
    30
 42
0.0000000001
 43
0.0000000001
 44
0.0000000001
 12
0.2335124640405779
 22
-0.9723538086199374
 32
0.0
 13
-0.2411047837801812
 23
-0.9704990897668643
 33
0.0
 40
0.0
 40
0.0
 40
0.0
 40
0.0
 40
0.6488807735578321
 40
1.29438261736386
 40
1.936672000207766
 40
2.575891679756213
 40
3.212066799440207
 40
3.845585744397696
 40
4.476918046302196
 40
5.106337716380116
 40
5.733823577579338
 40
6.359790090607013
 40
6.984661191258177
 40
7.608484775866831
 40
8.231454449568525
 40
8.854001284629179
 40
9.476481536262131
 40
10.0988547341828
 40
10.72147153220945
 40
11.34475878847656
 40
11.96890677008993
 40
12.59396390046843
 40
13.22035033208712
 40
13.84847661745096
 40
14.478323335688
 40
15.1101569358614
 40
15.74443749209655
 40
16.38154741421827
 40
17.02150869502836
 40
17.66446039072946
 40
18.310560061001
 40
18.310560061001
 40
18.310560061001
 40
18.310560061001
 10
61.40868899999986
 20
80.98631199999998
 30
-0.0003777254
 10
61.45919624943387
 20
80.77599810283023
 30
-0.0003777254
 10
61.5566554504466
 20
80.35566663581759
 30
-0.0003777254
 10
61.69244990274169
 20
79.72452636009677
 30
-0.0003777254
 10
61.81745321576051
 20
79.09444136532259
 30
-0.0003777254
 10
61.93167467878541
 20
78.46547200709249
 30
-0.0003777254
 10
62.0350000408888
 20
77.83758310164593
 30
-0.0003777254
 10
62.12756406403312
 20
77.21067577791686
 30
-0.0003777254
 10
62.20952187238133
 20
76.58456535822802
 30
-0.0003777254
 10
62.28098369554917
 20
75.95919370925603
 30
-0.0003777254
 10
62.34178919001269
 20
75.334492578137
 30
-0.0003777254
 10
62.39205376120955
 20
74.7103768073303
 30
-0.0003777254
 10
62.43187283170724
 20
74.08673086751578
 30
-0.0003777254
 10
62.4612368607146
 20
73.46350494975701
 30
-0.0003777254
 10
62.48010597150359
 20
72.84064801465189
 30
-0.0003777254
 10
62.48851673335389
 20
72.21801010354113
 30
-0.0003777254
 10
62.48650450844337
 20
71.59551755827799
 30
-0.0003777254
 10
62.4740745809679
 20
70.9731224492079
 30
-0.0003777254
 10
62.45118354445725
 20
70.3507548001444
 30
-0.0003777254
 10
62.41779023488728
 20
69.72826986656357
 30
-0.0003777254
 10
62.37392989440973
 20
69.10561971434697
 30
-0.0003777254
 10
62.31962086928366
 20
68.48275680289685
 30
-0.0003777254
 10
62.25475498878687
 20
67.85957064056447
 30
-0.0003777254
 10
62.17921608700632
 20
67.23598034066
 30
-0.0003777254
 10
62.09316690103159
 20
66.61192096330492
 30
-0.0003777254
 10
61.9964940062022
 20
65.98734232122206
 30
-0.0003777254
 10
61.88903983998617
 20
65.36207068878507
 30
-0.0003777254
 10
61.77066151221792
 20
64.73601807286728
 30
-0.0003777254
 10
61.64147616262664
 20
64.10915485664161
 30
-0.0003777254
 10
61.50147775801058
 20
63.48154892625031
 30
-0.0003777254
 10
61.40119090710046
 20
63.0637100472991
 30
-0.0003777254
 10
61.34926500000005
 20
62.85469700000003
 30
-0.0003777254
 11
61.40868899999986
 21
80.98631199999998
 31
-0.0003777254
 11
61.55522599999994
 21
80.354194
 31
-0.0003777254
 11
61.69097699999998
 21
79.72312800000001
 31
-0.0003777254
 11
61.81594399999993
 21
79.093113
 31
-0.0003777254
 11
61.93011500000011
 21
78.46417200000002
 31
-0.0003777254
 11
62.03341099999988
 21
77.83643900000003
 31
-0.0003777254
 11
62.12594899999999
 21
77.209715
 31
-0.0003777254
 11
62.20789100000001
 21
76.58372299999998
 31
-0.0003777254
 11
62.27930700000001
 21
75.95836799999998
 31
-0.0003777254
 11
62.34009999999989
 21
75.33383400000002
 31
-0.0003777254
 11
62.39035400000012
 21
74.70988800000002
 31
-0.0003777254
 11
62.43015899999999
 21
74.08628600000001
 31
-0.0003777254
 11
62.45950399999992
 21
73.46315300000002
 31
-0.0003777254
 11
62.47836800000005
 21
72.84046900000003
 31
-0.0003777254
 11
62.48678000000018
 21
72.217979
 31
-0.0003777254
 11
62.48476800000003
 21
71.59550199999998
 31
-0.0003777254
 11
62.47233499999993
 21
70.97325299999998
 31
-0.0003777254
 11
62.44944800000006
 21
70.35105700000001
 31
-0.0003777254
 11
62.41607199999998
 21
69.72866400000002
 31
-0.0003777254
 11
62.37222599999995
 21
69.10605799999999
 31
-0.0003777254
 11
62.31792500000007
 21
68.48336399999998
 31
-0.0003777254
 11
62.25307100000009
 21
67.86034399999998
 31
-0.0003777254
 11
62.17757699999992
 21
67.23677100000002
 31
-0.0003777254
 11
62.09154200000011
 21
66.61282800000002
 31
-0.0003777254
 11
61.99489399999993
 21
65.98842999999998
 31
-0.0003777254
 11
61.88746700000002
 21
65.36331299999999
 31
-0.0003777254
 11
61.76913800000011
 21
64.73728800000002
 31
-0.0003777254
 11
61.63998799999991
 21
64.11049399999999
 31
-0.0003777254
 11
61.50003100000002
 21
63.48296000000003
 31
-0.0003777254
 11
61.34926500000005
 21
62.85469700000003
 31
-0.0003777254
  0
SPLINE
  5
F2B0
330
1E
100
AcDbEntity
  8
CUT
100
AcDbSpline
210
0.0
220
0.0
230
1.0
 70
     8
 71
     3
 72
    36
 73
    32
 74
    30
 42
0.0000000001
 43
0.0000000001
 44
0.0000000001
 12
-0.8307467257210515
 22
-0.5566505885236737
 32
0.0
 13
-0.830848145662126
 23
-0.556499199325396
 33
0.0
 40
0.0
 40
0.0
 40
0.0
 40
0.0
 40
0.0680632896133328
 40
0.1361229736855204
 40
0.2041821011042879
 40
0.2722381796351208
 40
0.3402931448690419
 40
0.4083445045617946
 40
0.4763944768615051
 40
0.5444425051430838
 40
0.612487758651163
 40
0.6805307940038511
 40
0.7485718853604404
 40
0.8166107585580412
 40
0.8846468569911261
 40
0.9526818422415066
 40
1.020713778536053
 40
1.088743770870308
 40
1.156770988460032
 40
1.224796818679221
 40
1.292819874160344
 40
1.360841542274235
 40
1.428860435657116
 40
1.496877385132837
 40
1.56489211642697
 40
1.632904073000734
 40
1.700914085690057
 40
1.768921880191686
 40
1.836927730822464
 40
1.904930806752816
 40
1.972932495334814
 40
1.972932495334814
 40
1.972932495334814
 40
1.972932495334814
 10
62.98836000000004
 20
63.95280000000001
 30
-0.0003777254
 10
62.96951221500401
 20
63.94017084325997
 30
-0.0003777254
 10
62.93181799763661
 20
63.91491267019418
 30
-0.0003777254
 10
62.87527732964824
 20
63.8770258413688
 30
-0.0003777254
 10
62.81873760550616
 20
63.83914192207408
 30
-0.0003777254
 10
62.76220062073017
 20
63.80125674028327
 30
-0.0003777254
 10
62.70566391231768
 20
63.76337579752448
 30
-0.0003777254
 10
62.64912941158866
 20
63.72549521654278
 30
-0.0003777254
 10
62.59259666746024
 20
63.68761616798622
 30
-0.0003777254
 10
62.53606483953033
 20
63.64973940866088
 30
-0.0003777254
 10
62.47953450581904
 20
63.61186457340525
 30
-0.0003777254
 10
62.42300674373552
 20
63.57399005411958
 30
-0.0003777254
 10
62.36647951613981
 20
63.5361185580035
 30
-0.0003777254
 10
62.30995479830979
 20
63.49824747018399
 30
-0.0003777254
 10
62.25343159196071
 20
63.46037778308436
 30
-0.0003777254
 10
62.1969086045203
 20
63.42251192364611
 30
-0.0003777254
 10
62.14038874700273
 20
63.38464504920106
 30
-0.0003777254
 10
62.08386978860477
 20
63.34678148464749
 30
-0.0003777254
 10
62.02735240006191
 20
63.30891923372738
 30
-0.0003777254
 10
61.97083683745162
 20
63.2710584117297
 30
-0.0003777254
 10
61.91432239750293
 20
63.23319923754318
 30
-0.0003777254
 10
61.85780979886816
 20
63.19534146932154
 30
-0.0003777254
 10
61.80129870854969
 20
63.15748510653715
 30
-0.0003777254
 10
61.74478851807968
 20
63.11963155514776
 30
-0.0003777254
 10
61.68828082604289
 20
63.08177842874586
 30
-0.0003777254
 10
61.63177470940992
 20
63.04392710522749
 30
-0.0003777254
 10
61.57526948749154
 20
63.00607860082394
 30
-0.0003777254
 10
61.51876671751257
 20
62.9682300931196
 30
-0.0003777254
 10
61.46226479363078
 20
62.93038447711253
 30
-0.0003777254
 10
61.40576440967008
 20
62.89254021936492
 30
-0.0003777254
 10
61.36809802562012
 20
62.86731129508291
 30
-0.0003777254
 10
61.34926500000005
 20
62.85469700000003
 30
-0.0003777254
 11
62.98836000000004
 21
63.95280000000001
 31
-0.0003777254
 11
62.93181700000014
 21
63.914912
 31
-0.0003777254
 11
62.87527700000009
 21
63.87702599999999
 31
-0.0003777254
 11
62.81873700000005
 21
63.83914100000001
 31
-0.0003777254
 11
62.76220000000011
 21
63.80125699999999
 31
-0.0003777254
 11
62.7056630000002
 21
63.76337499999998
 31
-0.0003777254
 11
62.64912899999989
 21
63.72549500000001
 31
-0.0003777254
 11
62.59259599999996
 21
63.68761600000002
 31
-0.0003777254
 11
62.5360639999999
 21
63.64973899999998
 31
-0.0003777254
 11
62.47953400000007
 21
63.61186400000001
 31
-0.0003777254
 11
62.423006
 21
63.57399
 31
-0.0003777254
 11
62.36647900000003
 21
63.53611800000003
 31
-0.0003777254
 11
62.30995400000007
 21
63.49824699999998
 31
-0.0003777254
 11
62.2534310000001
 21
63.46037799999997
 31
-0.0003777254
 11
62.19690799999989
 21
63.42251100000003
 31
-0.0003777254
 11
62.14038800000003
 21
63.38464500000002
 31
-0.0003777254
 11
62.08386900000005
 21
63.34678100000001
 31
-0.0003777254
 11
62.02735200000006
 21
63.30891899999999
 31
-0.0003777254
 11
61.97083599999996
 21
63.27105800000001
 31
-0.0003777254
 11
61.91432200000008
 21
63.233199
 31
-0.0003777254
 11
61.85780900000009
 21
63.19534100000002
 31
-0.0003777254
 11
61.80129799999985
 21
63.15748499999997
 31
-0.0003777254
 11
61.74478799999997
 21
63.11963100000001
 31
-0.0003777254
 11
61.68827999999985
 21
63.08177800000002
 31
-0.0003777254
 11
61.63177399999995
 21
63.04392699999998
 31
-0.0003777254
 11
61.57526899999993
 21
63.00607799999998
 31
-0.0003777254
 11
61.51876600000014
 21
62.96822999999999
 31
-0.0003777254
 11
61.462264
 21
62.93038399999999
 31
-0.0003777254
 11
61.40576400000011
 21
62.89253999999998
 31
-0.0003777254
 11
61.34926500000005
 21
62.85469700000003
 31
-0.0003777254
  0
SPLINE
  5
F2B1
330
1E
100
AcDbEntity
  8
CUT
100
AcDbSpline
210
0.0
220
0.0
230
1.0
 70
     8
 71
     3
 72
    36
 73
    32
 74
    30
 42
0.0000000001
 43
0.0000000001
 44
0.0000000001
 12
0.0028407025114194
 22
-0.9999959651964809
 32
0.0
 13
-0.0028751798762275
 23
-0.9999958666617974
 33
0.0
 40
0.0
 40
0.0
 40
0.0
 40
0.0
 40
0.5556050873939488
 40
1.111157884317914
 40
1.666659414843253
 40
2.222108700313088
 40
2.77750276012473
 40
3.332843617775223
 40
3.888128294625728
 40
4.443355812039087
 40
4.998526190215045
 40
5.553638451892759
 40
6.108703618449816
 40
6.663719710699439
 40
7.218677751192591
 40
7.773569760567369
 40
8.328389760625066
 40
8.883127772753287
 40
9.437774818796974
 40
9.992324920587611
 40
10.54676809836601
 40
11.10110137519956
 40
11.65533477175552
 40
12.20946630951983
 40
12.76349400999153
 40
13.31741589647193
 40
13.8712279889013
 40
14.42492731101033
 40
14.97851087999337
 40
15.53197672219144
 40
16.08531985682852
 40
16.08531985682852
 40
16.08531985682852
 40
16.08531985682852
 10
62.98857199999996
 20
80.03809800000004
 30
-0.0003777254
 10
62.98909810292233
 20
79.85289705145452
 30
-0.0003777254
 10
62.99011326425116
 20
79.48251247831578
 30
-0.0003777254
 10
62.99152607881961
 20
78.92696113308289
 30
-0.0003777254
 10
62.99283004276417
 20
78.37146145566283
 30
-0.0003777254
 10
62.99402539614288
 20
77.81601444634969
 30
-0.0003777254
 10
62.99511003607062
 20
77.26062076753482
 30
-0.0003777254
 10
62.99608616039335
 20
76.7052817570957
 30
-0.0003777254
 10
62.99695304390758
 20
76.14999807958435
 30
-0.0003777254
 10
62.99771141353514
 20
75.59477106974982
 30
-0.0003777254
 10
62.9983590845063
 20
75.03960139147807
 30
-0.0003777254
 10
62.99889806604626
 20
74.48448571418897
 30
-0.0003777254
 10
62.99932852385727
 20
73.92942137059417
 30
-0.0003777254
 10
62.99964773789248
 20
73.37440835907726
 30
-0.0003777254
 10
62.99986044181719
 20
72.81945301565096
 30
-0.0003777254
 10
62.99996243932425
 20
72.264563004612
 30
-0.0003777254
 10
62.99995378313591
 20
71.7097463273231
 30
-0.0003777254
 10
62.99983845619008
 20
71.15501131639698
 30
-0.0003777254
 10
62.99961247625501
 20
70.60036630533446
 30
-0.0003777254
 10
62.9992757875335
 20
70.04581962885054
 30
-0.0003777254
 10
62.9988325979663
 20
69.49137761694619
 30
-0.0003777254
 10
62.99827811313663
 20
68.93704127353491
 30
-0.0003777254
 10
62.99761528265536
 20
68.38280892929166
 30
-0.0003777254
 10
62.99684315199549
 20
67.82867858541329
 30
-0.0003777254
 10
62.99596257408514
 20
67.2746522399861
 30
-0.0003777254
 10
62.99497108936675
 20
66.72073256394944
 30
-0.0003777254
 10
62.99387168976714
 20
66.1669225511865
 30
-0.0003777254
 10
62.99266085748033
 20
65.61322554370846
 30
-0.0003777254
 10
62.99134367253014
 20
65.05964419607154
 30
-0.0003777254
 10
62.98991533102646
 20
64.50618185364342
 30
-0.0003777254
 10
62.98889032034849
 20
64.13724694916092
 30
-0.0003777254
 10
62.98836000000004
 20
63.95280000000001
 30
-0.0003777254
 11
62.98857199999996
 21
80.03809800000004
 31
-0.0003777254
 11
62.99009500000011
 21
79.48249500000001
 31
-0.0003777254
 11
62.99150800000006
 21
78.92694399999998
 31
-0.0003777254
 11
62.99281199999995
 21
78.37144399999998
 31
-0.0003777254
 11
62.99400700000001
 21
77.81599600000003
 31
-0.0003777254
 11
62.9950920000001
 21
77.26060299999997
 31
-0.0003777254
 11
62.99606799999992
 21
76.70526299999998
 31
-0.0003777254
 11
62.9969350000001
 21
76.14997900000002
 31
-0.0003777254
 11
62.99769300000003
 21
75.59475200000001
 31
-0.0003777254
 11
62.99834099999998
 21
75.03958199999998
 31
-0.0003777254
 11
62.99888000000009
 21
74.48447000000003
 31
-0.0003777254
 11
62.99931000000015
 21
73.92940500000001
 31
-0.0003777254
 11
62.99963000000001
 21
73.37438899999998
 31
-0.0003777254
 11
62.99984200000017
 21
72.81943099999998
 31
-0.0003777254
 11
62.99994400000014
 21
72.264539
 31
-0.0003777254
 11
62.99993600000015
 21
71.70971899999997
 31
-0.0003777254
 11
62.99981999999999
 21
71.154981
 31
-0.0003777254
 11
62.99959399999988
 21
70.60033400000001
 31
-0.0003777254
 11
62.99925800000004
 21
70.04578400000001
 31
-0.0003777254
 11
62.99881400000003
 21
69.49134100000001
 31
-0.0003777254
 11
62.99826000000006
 21
68.93700799999997
 31
-0.0003777254
 11
62.99759700000004
 21
68.38277500000002
 31
-0.0003777254
 11
62.99682500000017
 21
67.82864399999998
 31
-0.0003777254
 11
62.99594400000001
 21
67.27461700000002
 31
-0.0003777254
 11
62.99495299999989
 21
66.72069600000002
 31
-0.0003777254
 11
62.99385299999993
 21
66.16688500000002
 31
-0.0003777254
 11
62.99264300000004
 21
65.61318700000002
 31
-0.0003777254
 11
62.99132499999996
 21
65.05960500000002
 31
-0.0003777254
 11
62.98989699999992
 21
64.506141
 31
-0.0003777254
 11
62.98836000000004
 21
63.95280000000001
 31
-0.0003777254
  0
LINE
  5
F772
330
1E
100
AcDbEntity
  8
NOCUT
100
AcDbLine
 10
0.0
 20
0.0
 30
0.0
 11
61.59999999999989
 21
0.0
 31
0.0
  0
TEXT
  5
F9EA
330
1E
100
AcDbEntity
  8
6
100
AcDbText
 10
94.41025447350785
 20
-10.04649940626267
 30
0.0
 40
3.5
  1
Z=19/3
 50
90.0
100
AcDbText
  0
TEXT
  5
F9EC
330
1E
100
AcDbEntity
  8
6
100
AcDbText
 10
66.56224169589222
 20
91.15912292116673
 30
0.0
 40
2.5
  1
YDA334L102
100
AcDbText
  0
TEXT
  5
FA52
330
1E
100
AcDbEntity
  8
6
100
AcDbText
 10
66.67690643392461
 20
95.44110975002103
 30
0.0
 40
2.5
  1
SPE-33R101
100
AcDbText
  0
LINE
  5
FBD6
330
1E
100
AcDbEntity
  8
1
100
AcDbLine
 10
0.0000000000001137
 20
2.950972054112611
 30
0.0
 11
0.0000000000001137
 21
-2.950972054112583
 31
0.0
  0
HATCH
  5
FBD7
330
1E
100
AcDbEntity
  8
1
100
AcDbHatch
 10
0.0
 20
0.0
 30
0.0
210
0.0
220
0.0
230
1.0
  2
SOLID
 70
     1
 71
     0
 91
        2
 92
        7
 72
     1
 73
     1
 93
        3
 10
0.0000000000001137
 20
0.0
 42
0.0
 10
2.950972054112696
 20
0.0
 42
0.4142135623730966
 10
0.0000000000001137
 20
2.950972054112611
 42
0.0
 97
        0
 92
        7
 72
     1
 73
     1
 93
        3
 10
0.0000000000001137
 20
-2.950972054112496
 42
0.0
 10
0.0000000000001137
 20
0.0
 42
0.0
 10
-2.950972054112468
 20
0.0
 42
0.4142135623730953
 97
        0
 75
     0
 76
     1
 47
0.1190009775223266
 98
        2
 10
0.7445530588121017
 20
0.9212244733764975
 10
-1.279464601852737
 20
-1.696796923046291
  0
CIRCLE
  5
FBD8
330
1E
100
AcDbEntity
  8
1
100
AcDbCircle
 10
0.0000000000001137
 20
0.0
 30
0.0
 40
2.950972054112601
  0
LWPOLYLINE
  5
FBD9
330
1E
100
AcDbEntity
  8
1
100
AcDbPolyline
 90
        3
 70
     1
 43
0.0
 10
0.0000000000001137
 20
2.950972054112611
 10
0.0000000000001137
 20
0.0
 10
2.950972054112696
 20
0.0
 42
0.4142135623730966
  0
LWPOLYLINE
  5
FBDA
330
1E
100
AcDbEntity
  8
1
100
AcDbPolyline
 90
        3
 70
     1
 43
0.0
 10
0.0000000000001137
 20
0.0
 10
-2.950972054112468
 20
0.0
 42
0.4142135623730966
 10
0.0000000000001137
 20
-2.950972054112583
  0
LINE
  5
FBDB
330
1E
100
AcDbEntity
  8
1
100
AcDbLine
 10
-2.950972054112725
 20
0.0
 30
0.0
 11
2.950972054112696
 21
0.0
 31
0.0
  0
CIRCLE
  5
FBDD
330
1E
100
AcDbEntity
  8
1
100
AcDbCircle
 10
62.99999999999997
 20
80.0
 30
0.0
 40
0.463769369848821
  0
LINE
  5
FBDE
330
1E
100
AcDbEntity
  8
1
100
AcDbLine
 10
62.53623063015115
 20
80.0
 30
0.0
 11
63.46376936984881
 21
80.0
 31
0.0
  0
LINE
  5
FBDF
330
1E
100
AcDbEntity
  8
1
100
AcDbLine
 10
62.99999999999997
 20
80.46376936984882
 30
0.0
 11
62.99999999999997
 21
79.53623063015121
 31
0.0
  0
ENDSEC
  0
SECTION
  2
OBJECTS
  0
DICTIONARY
  5
C
330
0
100
AcDbDictionary
281
     1
  3
ACAD_COLOR
350
FDBF
  3
ACAD_GROUP
350
D
  3
ACAD_LAYOUT
350
19
  3
ACAD_MATERIAL
350
FDBE
  3
ACAD_MLINESTYLE
350
16
  3
ACAD_PLOTSETTINGS
350
18
  3
ACAD_PLOTSTYLENAME
350
A3F9
  3
ACAD_TABLESTYLE
350
FDC0
  3
ACDBHEADERROUNDTRIPXREC
350
FDD8
  3
AcDbVariableDictionary
350
FDCD
1001
ACAD
1000
TREAT_AS_HARD
1070
     0
  0
DICTIONARY
  5
75E1
330
1E
100
AcDbDictionary
281
     1
  3
ACAD_LAYOUTSELFREF
350
75E2
  0
DICTIONARY
  5
75DF
330
1A
100
AcDbDictionary
281
     1
  3
ACAD_LAYOUTSELFREF
350
75E0
  0
DICTIONARY
  5
FDBF
102
{ACAD_REACTORS
330
C
102
}
330
C
100
AcDbDictionary
281
     1
  0
DICTIONARY
  5
D
102
{ACAD_REACTORS
330
C
102
}
330
C
100
AcDbDictionary
281
     1
1001
ACAD
1000
TREAT_AS_HARD
1070
     0
  0
DICTIONARY
  5
19
102
{ACAD_REACTORS
330
C
102
}
330
C
100
AcDbDictionary
281
     1
  3
Layout1
350
A3FC
  3
Model
350
A3FB
1001
ACAD
1000
TREAT_AS_HARD
1070
     0
  0
DICTIONARY
  5
FDBE
102
{ACAD_REACTORS
330
C
102
}
330
C
100
AcDbDictionary
281
     1
  0
DICTIONARY
  5
16
102
{ACAD_REACTORS
330
C
102
}
330
C
100
AcDbDictionary
281
     1
  3
STANDARD
350
17
1001
ACAD
1000
TREAT_AS_HARD
1070
     0
  0
DICTIONARY
  5
18
102
{ACAD_REACTORS
330
C
102
}
330
C
100
AcDbDictionary
281
     1
1001
ACAD
1000
TREAT_AS_HARD
1070
     0
  0
ACDBDICTIONARYWDFLT
  5
A3F9
102
{ACAD_REACTORS
330
C
102
}
330
C
100
AcDbDictionary
281
     1
  3
Normal
350
A3FA
100
AcDbDictionaryWithDefault
340
A3FA
  0
DICTIONARY
  5
FDC0
102
{ACAD_REACTORS
330
C
102
}
330
C
100
AcDbDictionary
281
     1
  3
Standard
350
FDC1
  0
DICTIONARY
  5
FDD8
102
{ACAD_REACTORS
330
C
102
}
330
C
100
AcDbDictionary
281
     1
  0
DICTIONARY
  5
FDCD
102
{ACAD_REACTORS
330
C
102
}
330
C
100
AcDbDictionary
281
     1
  3
CTABLESTYLE
350
FDCE
  3
DIMASSOC
350
FDCF
  3
PROJECTNAME
350
FDD0
  0
XRECORD
  5
75E2
102
{ACAD_REACTORS
330
75E1
102
}
330
75E1
100
AcDbXrecord
280
     1
340
1E
  0
XRECORD
  5
75E0
102
{ACAD_REACTORS
330
75DF
102
}
330
75DF
100
AcDbXrecord
280
     1
340
1A
  0
LAYOUT
  5
A3FC
102
{ACAD_XDICTIONARY
360
FDDB
102
}
102
{ACAD_REACTORS
330
19
102
}
330
19
100
AcDbPlotSettings
  1

  2
\\ingdom02\ITB3
  4

  6

 40
0.0
 41
0.0
 42
0.0
 43
0.0
 44
0.0
 45
0.0
 46
0.0
 47
0.0
 48
0.0
 49
0.0
140
0.0
141
0.0
142
1.0
143
1.0
 70
   688
 72
     0
 73
     0
 74
     5
  7

 75
    16
147
1.0
148
0.0
149
0.0
100
AcDbLayout
  1
Layout1
 70
     1
 71
     1
 10
0.0
 20
0.0
 11
12.0
 21
9.0
 12
0.0
 22
0.0
 32
0.0
 14
100.0
 24
100.0
 34
100.0
 15
-100.0
 25
-100.0
 35
-100.0
146
0.0
 13
0.0
 23
0.0
 33
0.0
 16
1.0
 26
0.0
 36
0.0
 17
0.0
 27
1.0
 37
0.0
 76
     0
330
1A
  0
LAYOUT
  5
A3FB
102
{ACAD_XDICTIONARY
360
FDD9
102
}
102
{ACAD_REACTORS
330
19
102
}
330
19
100
AcDbPlotSettings
  1

  2
\\ingdom02\ITB3
  4

  6

 40
0.0
 41
0.0
 42
0.0
 43
0.0
 44
0.0
 45
0.0
 46
0.0
 47
0.0
 48
0.0
 49
0.0
140
0.0
141
0.0
142
1.0
143
1.0
 70
  1712
 72
     0
 73
     0
 74
     0
  7

 75
     0
147
1.0
148
0.0
149
0.0
100
AcDbLayout
  1
Model
 70
     1
 71
     0
 10
0.0
 20
0.0
 11
12.0
 21
9.0
 12
0.0
 22
0.0
 32
0.0
 14
0.0
 24
0.0
 34
0.0
 15
0.0
 25
0.0
 35
0.0
146
0.0
 13
0.0
 23
0.0
 33
0.0
 16
1.0
 26
0.0
 36
0.0
 17
0.0
 27
1.0
 37
0.0
 76
     0
330
1E
  0
MLINESTYLE
  5
17
102
{ACAD_REACTORS
330
16
102
}
330
16
100
AcDbMlineStyle
  2
STANDARD
 70
     0
  3

 62
   256
 51
90.0
 52
90.0
 71
     2
 49
0.5
 62
   256
  6
BYLAYER
 49
-0.5
 62
   256
  6
BYLAYER
  0
ACDBPLACEHOLDER
  5
A3FA
102
{ACAD_REACTORS
330
A3F9
102
}
330
A3F9
  0
TABLESTYLE
  5
FDC1
102
{ACAD_REACTORS
330
FDC0
102
}
330
FDC0
100
AcDbTableStyle
  3
Standard
 70
     0
 71
     0
 40
0.06
 41
0.06
280
     0
281
     0
  7
STANDARD
140
0.18
170
     2
 62
     0
 63
     7
283
     0
274
    -2
284
     1
 64
     0
275
    -2
285
     1
 65
     0
276
    -2
286
     1
 66
     0
277
    -2
287
     1
 67
     0
278
    -2
288
     1
 68
     0
279
    -2
289
     1
 69
     0
  7
STANDARD
140
0.25
170
     5
 62
     0
 63
     7
283
     0
274
    -2
284
     1
 64
     0
275
    -2
285
     1
 65
     0
276
    -2
286
     1
 66
     0
277
    -2
287
     1
 67
     0
278
    -2
288
     1
 68
     0
279
    -2
289
     1
 69
     0
  7
STANDARD
140
0.18
170
     5
 62
     0
 63
     7
283
     0
274
    -2
284
     1
 64
     0
275
    -2
285
     1
 65
     0
276
    -2
286
     1
 66
     0
277
    -2
287
     1
 67
     0
278
    -2
288
     1
 68
     0
279
    -2
289
     1
 69
     0
  0
DICTIONARYVAR
  5
FDCE
102
{ACAD_REACTORS
330
FDCD
102
}
330
FDCD
100
DictionaryVariables
280
     0
  1
STANDARD
  0
DICTIONARYVAR
  5
FDCF
102
{ACAD_REACTORS
330
FDCD
102
}
330
FDCD
100
DictionaryVariables
280
     0
  1
1
  0
DICTIONARYVAR
  5
FDD0
102
{ACAD_REACTORS
330
FDCD
102
}
330
FDCD
100
DictionaryVariables
280
     0
  1

  0
DICTIONARY
  5
FDDB
330
A3FC
100
AcDbDictionary
280
     1
281
     1
  3
ACAD_XREC_ROUNDTRIP
360
FDDC
  0
DICTIONARY
  5
FDD9
330
A3FB
100
AcDbDictionary
280
     1
281
     1
  3
ACAD_XREC_ROUNDTRIP
360
FDDA
  0
XRECORD
  5
FDDC
102
{ACAD_REACTORS
330
FDDB
102
}
330
FDDB
100
AcDbXrecord
280
     1
102
SHADEPLOT
 70
     0
102
SHADEPLOTRESLEVEL
 70
     2
102
SHADEPLOTCUSTOMDPI
 70
   300
  0
XRECORD
  5
FDDA
102
{ACAD_REACTORS
330
FDD9
102
}
330
FDD9
100
AcDbXrecord
280
     1
102
SHADEPLOT
 70
     0
102
SHADEPLOTRESLEVEL
 70
     2
102
SHADEPLOTCUSTOMDPI
 70
   300
  0
ENDSEC
  0
EOF
