  0
SECTION
  2
HEADER
  9
$ACADVER
  1
AC1015
  9
$ACADMAINTVER
 70
    10
  9
$DWGCODEPAGE
  3
ANSI_1252
  9
$INSBASE
 10
0.0
 20
0.0
 30
0.0
  9
$EXTMIN
 10
-55.61105121042761
 20
-176.4013820542788
 30
-0.000000000000013
  9
$EXTMAX
 10
131.0774533306416
 20
162.540560473426
 30
0.0000000000000023
  9
$LIMMIN
 10
0.0
 20
0.0
  9
$LIMMAX
 10
841.0
 20
594.0
  9
$ORTHOMODE
 70
     0
  9
$REGENMODE
 70
     1
  9
$FILLMODE
 70
     1
  9
$QTEXTMODE
 70
     0
  9
$MIRRTEXT
 70
     1
  9
$LTSCALE
 40
10.0
  9
$ATTMODE
 70
     1
  9
$TEXTSIZE
 40
0.2
  9
$TRACEWID
 40
0.05
  9
$TEXTSTYLE
  7
STANDARD
  9
$CLAYER
  8
0
  9
$CELTYPE
  6
BYLAYER
  9
$CECOLOR
 62
   256
  9
$CELTSCALE
 40
1.0
  9
$DISPSILH
 70
     0
  9
$DIMSCALE
 40
1.0
  9
$DIMASZ
 40
3.5
  9
$DIMEXO
 40
0.625
  9
$DIMDLI
 40
3.75
  9
$DIMRND
 40
0.0
  9
$DIMDLE
 40
0.0
  9
$DIMEXE
 40
1.25
  9
$DIMTP
 40
0.0
  9
$DIMTM
 40
0.0
  9
$DIMTXT
 40
3.5
  9
$DIMCEN
 40
2.5
  9
$DIMTSZ
 40
0.0
  9
$DIMTOL
 70
     0
  9
$DIMLIM
 70
     0
  9
$DIMTIH
 70
     0
  9
$DIMTOH
 70
     0
  9
$DIMSE1
 70
     0
  9
$DIMSE2
 70
     0
  9
$DIMTAD
 70
     1
  9
$DIMZIN
 70
     8
  9
$DIMBLK
  1

  9
$DIMASO
 70
     1
  9
$DIMSHO
 70
     1
  9
$DIMPOST
  1

  9
$DIMAPOST
  1

  9
$DIMALT
 70
     0
  9
$DIMALTD
 70
     3
  9
$DIMALTF
 40
0.03937007874016
  9
$DIMLFAC
 40
1.0
  9
$DIMTOFL
 70
     1
  9
$DIMTVP
 40
0.0
  9
$DIMTIX
 70
     0
  9
$DIMSOXD
 70
     0
  9
$DIMSAH
 70
     0
  9
$DIMBLK1
  1

  9
$DIMBLK2
  1

  9
$DIMSTYLE
  2
ISO-25
  9
$DIMCLRD
 70
   256
  9
$DIMCLRE
 70
   256
  9
$DIMCLRT
 70
   256
  9
$DIMTFAC
 40
1.0
  9
$DIMGAP
 40
0.625
  9
$DIMJUST
 70
     0
  9
$DIMSD1
 70
     0
  9
$DIMSD2
 70
     0
  9
$DIMTOLJ
 70
     0
  9
$DIMTZIN
 70
     8
  9
$DIMALTZ
 70
     0
  9
$DIMALTTZ
 70
     0
  9
$DIMUPT
 70
     0
  9
$DIMDEC
 70
     2
  9
$DIMTDEC
 70
     2
  9
$DIMALTU
 70
     2
  9
$DIMALTTD
 70
     3
  9
$DIMTXSTY
  7
STANDARD
  9
$DIMAUNIT
 70
     0
  9
$DIMADEC
 70
     0
  9
$DIMALTRND
 40
0.0
  9
$DIMAZIN
 70
     0
  9
$DIMDSEP
 70
    46
  9
$DIMATFIT
 70
     3
  9
$DIMFRAC
 70
     0
  9
$DIMLDRBLK
  1

  9
$DIMLUNIT
 70
     2
  9
$DIMLWD
 70
    -2
  9
$DIMLWE
 70
    -2
  9
$DIMTMOVE
 70
     0
  9
$LUNITS
 70
     2
  9
$LUPREC
 70
     4
  9
$SKETCHINC
 40
0.1
  9
$FILLETRAD
 40
0.0
  9
$AUNITS
 70
     0
  9
$AUPREC
 70
     0
  9
$MENU
  1

  9
$ELEVATION
 40
0.0
  9
$PELEVATION
 40
0.0
  9
$THICKNESS
 40
0.0
  9
$LIMCHECK
 70
     0
  9
$CHAMFERA
 40
0.0
  9
$CHAMFERB
 40
0.0
  9
$CHAMFERC
 40
0.0
  9
$CHAMFERD
 40
0.0
  9
$SKPOLY
 70
     0
  9
$TDCREATE
 40
2453431.631613900
  9
$TDUCREATE
 40
2453431.589947234
  9
$TDUPDATE
 40
2453777.537898530
  9
$TDUUPDATE
 40
2453777.496231863
  9
$TDINDWG
 40
0.0296635648
  9
$TDUSRTIMER
 40
0.0195706597
  9
$USRTIMER
 70
     1
  9
$ANGBASE
 50
0.0
  9
$ANGDIR
 70
     0
  9
$PDMODE
 70
     0
  9
$PDSIZE
 40
0.3125
  9
$PLINEWID
 40
0.0
  9
$SPLFRAME
 70
     0
  9
$SPLINETYPE
 70
     6
  9
$SPLINESEGS
 70
     8
  9
$HANDSEED
  5
296D
  9
$SURFTAB1
 70
     6
  9
$SURFTAB2
 70
     6
  9
$SURFTYPE
 70
     6
  9
$SURFU
 70
     6
  9
$SURFV
 70
     6
  9
$UCSBASE
  2

  9
$UCSNAME
  2

  9
$UCSORG
 10
0.0
 20
0.0
 30
0.0
  9
$UCSXDIR
 10
1.0
 20
0.0
 30
0.0
  9
$UCSYDIR
 10
0.0
 20
1.0
 30
0.0
  9
$UCSORTHOREF
  2

  9
$UCSORTHOVIEW
 70
     0
  9
$UCSORGTOP
 10
0.0
 20
0.0
 30
0.0
  9
$UCSORGBOTTOM
 10
0.0
 20
0.0
 30
0.0
  9
$UCSORGLEFT
 10
0.0
 20
0.0
 30
0.0
  9
$UCSORGRIGHT
 10
0.0
 20
0.0
 30
0.0
  9
$UCSORGFRONT
 10
0.0
 20
0.0
 30
0.0
  9
$UCSORGBACK
 10
0.0
 20
0.0
 30
0.0
  9
$PUCSBASE
  2

  9
$PUCSNAME
  2

  9
$PUCSORG
 10
0.0
 20
0.0
 30
0.0
  9
$PUCSXDIR
 10
1.0
 20
0.0
 30
0.0
  9
$PUCSYDIR
 10
0.0
 20
1.0
 30
0.0
  9
$PUCSORTHOREF
  2

  9
$PUCSORTHOVIEW
 70
     0
  9
$PUCSORGTOP
 10
0.0
 20
0.0
 30
0.0
  9
$PUCSORGBOTTOM
 10
0.0
 20
0.0
 30
0.0
  9
$PUCSORGLEFT
 10
0.0
 20
0.0
 30
0.0
  9
$PUCSORGRIGHT
 10
0.0
 20
0.0
 30
0.0
  9
$PUCSORGFRONT
 10
0.0
 20
0.0
 30
0.0
  9
$PUCSORGBACK
 10
0.0
 20
0.0
 30
0.0
  9
$USERI1
 70
     0
  9
$USERI2
 70
     0
  9
$USERI3
 70
     0
  9
$USERI4
 70
     0
  9
$USERI5
 70
     0
  9
$USERR1
 40
0.0
  9
$USERR2
 40
0.0
  9
$USERR3
 40
0.0
  9
$USERR4
 40
0.0
  9
$USERR5
 40
0.0
  9
$WORLDVIEW
 70
     1
  9
$SHADEDGE
 70
     3
  9
$SHADEDIF
 70
    70
  9
$TILEMODE
 70
     1
  9
$MAXACTVP
 70
    64
  9
$PINSBASE
 10
0.0
 20
0.0
 30
0.0
  9
$PLIMCHECK
 70
     0
  9
$PEXTMIN
 10
100.0
 20
100.0
 30
100.0
  9
$PEXTMAX
 10
-100.0
 20
-100.0
 30
-100.0
  9
$PLIMMIN
 10
0.0
 20
0.0
  9
$PLIMMAX
 10
12.0
 20
9.0
  9
$UNITMODE
 70
     0
  9
$VISRETAIN
 70
     1
  9
$PLINEGEN
 70
     1
  9
$PSLTSCALE
 70
     1
  9
$TREEDEPTH
 70
  3020
  9
$CMLSTYLE
  2
STANDARD
  9
$CMLJUST
 70
     0
  9
$CMLSCALE
 40
1.0
  9
$PROXYGRAPHICS
 70
     1
  9
$MEASUREMENT
 70
     0
  9
$CELWEIGHT
370
    -1
  9
$ENDCAPS
280
     0
  9
$JOINSTYLE
280
     0
  9
$LWDISPLAY
290
     0
  9
$INSUNITS
 70
     0
  9
$HYPERLINKBASE
  1

  9
$STYLESHEET
  1

  9
$XEDIT
290
     1
  9
$CEPSNTYPE
380
     0
  9
$PSTYLEMODE
290
     1
  9
$FINGERPRINTGUID
  2
{38E1A358-BE72-47D6-8748-1CC887762C4D}
  9
$VERSIONGUID
  2
{7FDD7D8A-8094-4BD5-8186-DC05877A616C}
  9
$EXTNAMES
290
     1
  9
$PSVPSCALE
 40
0.0
  9
$OLESTARTUP
290
     0
  0
ENDSEC
  0
SECTION
  2
CLASSES
  0
CLASS
  1
ACDBDICTIONARYWDFLT
  2
AcDbDictionaryWithDefault
  3
AutoCAD 2000
 90
        0
280
     0
281
     0
  0
CLASS
  1
ACDBPLACEHOLDER
  2
AcDbPlaceHolder
  3
AutoCAD 2000
 90
        0
280
     0
281
     0
  0
CLASS
  1
LAYOUT
  2
AcDbLayout
  3
AutoCAD 2000
 90
        0
280
     0
281
     0
  0
CLASS
  1
TABLESTYLE
  2
AcDbTableStyle
  3
ObjectDBX Classes
 90
     2047
280
     0
281
     0
  0
CLASS
  1
DICTIONARYVAR
  2
AcDbDictionaryVar
  3
AutoCAD 2000
 90
        0
280
     0
281
     0
  0
ENDSEC
  0
SECTION
  2
TABLES
  0
TABLE
  2
VPORT
  5
8
330
0
100
AcDbSymbolTable
 70
     5
  0
VPORT
  5
296C
330
8
100
AcDbSymbolTableRecord
100
AcDbViewportTableRecord
  2
*Active
 70
     0
 10
0.0
 20
0.0
 11
1.0
 21
1.0
 12
37.73320106010703
 22
-6.930410790426435
 13
0.0
 23
0.0
 14
1.0
 24
1.0
 15
0.0
 25
0.0
 16
0.0
 26
0.0
 36
1.0
 17
0.0
 27
0.0
 37
0.0
 40
341.6426751374874
 41
1.636968085106382
 42
50.0
 43
0.0
 44
0.0
 50
0.0
 51
0.0
 71
     0
 72
   100
 73
     1
 74
     1
 75
     0
 76
     0
 77
     0
 78
     0
281
     0
 65
     1
110
0.0
120
0.0
130
0.0
111
1.0
121
0.0
131
0.0
112
0.0
122
1.0
132
0.0
 79
     0
146
0.0
  0
ENDTAB
  0
TABLE
  2
LTYPE
  5
5
330
0
100
AcDbSymbolTable
 70
     4
  0
LTYPE
  5
13
330
5
100
AcDbSymbolTableRecord
100
AcDbLinetypeTableRecord
  2
BYBLOCK
 70
     0
  3

 72
    65
 73
     0
 40
0.0
  0
LTYPE
  5
14
330
5
100
AcDbSymbolTableRecord
100
AcDbLinetypeTableRecord
  2
BYLAYER
 70
     0
  3

 72
    65
 73
     0
 40
0.0
  0
LTYPE
  5
15
330
5
100
AcDbSymbolTableRecord
100
AcDbLinetypeTableRecord
  2
CONTINUOUS
 70
     0
  3
Solid line
 72
    65
 73
     0
 40
0.0
  0
LTYPE
  5
2C
330
5
100
AcDbSymbolTableRecord
100
AcDbLinetypeTableRecord
  2
CENTER
 70
     0
  3
____ _ ____ _ ____ _ ____ _ ____ _ ____ _ ____
 72
    65
 73
     4
 40
0.6
 49
0.375
 74
     0
 49
-0.075
 74
     0
 49
0.075
 74
     0
 49
-0.075
 74
     0
  0
LTYPE
  5
2D
330
5
100
AcDbSymbolTableRecord
100
AcDbLinetypeTableRecord
  2
HIDDEN
 70
     0
  3
- - - - - - - - - - - - - - - - - - - -
 72
    65
 73
     2
 40
0.2
 49
0.1
 74
     0
 49
-0.1
 74
     0
  0
ENDTAB
  0
TABLE
  2
LAYER
  5
2
330
0
100
AcDbSymbolTable
 70
    12
  0
LAYER
  5
10
330
2
100
AcDbSymbolTableRecord
100
AcDbLayerTableRecord
  2
1
 70
     0
 62
     4
  6
CONTINUOUS
370
    -3
390
25AA
  0
LAYER
  5
31
330
2
100
AcDbSymbolTableRecord
100
AcDbLayerTableRecord
  2
2
 70
     0
 62
     7
  6
CONTINUOUS
370
    -3
390
25AA
  0
LAYER
  5
33
330
2
100
AcDbSymbolTableRecord
100
AcDbLayerTableRecord
  2
4
 70
     0
 62
     2
  6
CENTER
370
    -3
390
25AA
  0
LAYER
  5
36
330
2
100
AcDbSymbolTableRecord
100
AcDbLayerTableRecord
  2
0
 70
     0
 62
     7
  6
CONTINUOUS
370
    -3
390
25AA
  0
LAYER
  5
37
330
2
100
AcDbSymbolTableRecord
100
AcDbLayerTableRecord
  2
DEFPOINTS
 70
     0
 62
     7
  6
CONTINUOUS
290
     0
370
    -3
390
25AA
  0
LAYER
  5
2604
330
2
100
AcDbSymbolTableRecord
100
AcDbLayerTableRecord
  2
CUT
 70
     0
 62
     1
  6
CONTINUOUS
370
    -3
390
25AA
  0
LAYER
  5
261A
330
2
100
AcDbSymbolTableRecord
100
AcDbLayerTableRecord
  2
NOCUT
 70
     0
 62
     7
  6
CONTINUOUS
370
    -3
390
25AA
  0
LAYER
  5
268F
330
2
100
AcDbSymbolTableRecord
100
AcDbLayerTableRecord
  2
6
 70
     0
 62
     5
  6
CONTINUOUS
370
    -3
390
25AA
  0
LAYER
  5
2690
330
2
100
AcDbSymbolTableRecord
100
AcDbLayerTableRecord
  2
SK2
 70
     0
 62
     7
  6
CONTINUOUS
370
    -3
390
25AA
  0
LAYER
  5
2934
330
2
100
AcDbSymbolTableRecord
100
AcDbLayerTableRecord
  2
SK3
 70
     0
 62
     1
  6
HIDDEN
370
    -3
390
25AA
  0
LAYER
  5
2935
330
2
100
AcDbSymbolTableRecord
100
AcDbLayerTableRecord
  2
SK4
 70
     0
 62
     2
  6
CENTER
370
    -3
390
25AA
  0
ENDTAB
  0
TABLE
  2
STYLE
  5
3
330
0
100
AcDbSymbolTable
 70
     1
  0
STYLE
  5
11
330
3
100
AcDbSymbolTableRecord
100
AcDbTextStyleTableRecord
  2
STANDARD
 70
     0
 40
0.0
 41
0.8
 50
0.0
 71
     0
 42
0.2
  3
ISOCP
  4

  0
ENDTAB
  0
TABLE
  2
VIEW
  5
6
330
0
100
AcDbSymbolTable
 70
     0
  0
ENDTAB
  0
TABLE
  2
UCS
  5
7
330
0
100
AcDbSymbolTable
 70
     0
  0
ENDTAB
  0
TABLE
  2
APPID
  5
9
330
0
100
AcDbSymbolTable
 70
     1
  0
APPID
  5
12
330
9
100
AcDbSymbolTableRecord
100
AcDbRegAppTableRecord
  2
ACAD
 70
     0
  0
ENDTAB
  0
TABLE
  2
DIMSTYLE
  5
A
330
0
100
AcDbSymbolTable
 70
     2
100
AcDbDimStyleTable
 71
     0
  0
DIMSTYLE
105
D2F
102
{ACAD_REACTORS
330
7C
330
7A
330
D37
330
7D
330
7B
330
DA4
330
19AB
102
}
330
A
100
AcDbSymbolTableRecord
100
AcDbDimStyleTableRecord
  2
ISO-25
 70
     0
 41
3.5
 42
0.625
 43
3.75
 44
1.25
 73
     0
 74
     0
 77
     1
 78
     8
140
3.5
141
2.5
143
0.03937007874016
147
0.625
171
     3
172
     1
176
   256
177
   256
178
   256
271
     2
272
     2
274
     3
283
     0
284
     8
340
11
  0
DIMSTYLE
105
2605
330
A
100
AcDbSymbolTableRecord
100
AcDbDimStyleTableRecord
  2
STANDARD
 70
     0
 41
2.5
 47
0.01
 48
0.01
 71
     1
 73
     0
 74
     0
 77
     1
 78
     8
140
3.5
178
     5
271
     3
272
     3
284
     8
340
11
341
25FF
342
25FF
343
25FF
344
25FF
  0
ENDTAB
  0
TABLE
  2
BLOCK_RECORD
  5
1
330
0
100
AcDbSymbolTable
 70
    11
  0
BLOCK_RECORD
  5
1E
102
{ACAD_XDICTIONARY
360
DBE
102
}
330
1
100
AcDbSymbolTableRecord
100
AcDbBlockTableRecord
  2
*MODEL_SPACE
340
25AF
  0
BLOCK_RECORD
  5
1A
102
{ACAD_XDICTIONARY
360
DBC
102
}
330
1
100
AcDbSymbolTableRecord
100
AcDbBlockTableRecord
  2
*PAPER_SPACE
340
25B0
  0
BLOCK_RECORD
  5
D3A
330
1
100
AcDbSymbolTableRecord
100
AcDbBlockTableRecord
  2
*D0
340
0
  0
BLOCK_RECORD
  5
D4F
330
1
100
AcDbSymbolTableRecord
100
AcDbBlockTableRecord
  2
*D1
340
0
  0
BLOCK_RECORD
  5
D64
330
1
100
AcDbSymbolTableRecord
100
AcDbBlockTableRecord
  2
*D2
340
0
  0
BLOCK_RECORD
  5
D79
330
1
100
AcDbSymbolTableRecord
100
AcDbBlockTableRecord
  2
*D3
340
0
  0
BLOCK_RECORD
  5
D85
330
1
100
AcDbSymbolTableRecord
100
AcDbBlockTableRecord
  2
*D4
340
0
  0
BLOCK_RECORD
  5
DA6
330
1
100
AcDbSymbolTableRecord
100
AcDbBlockTableRecord
  2
*D5
340
0
  0
BLOCK_RECORD
  5
19AD
330
1
100
AcDbSymbolTableRecord
100
AcDbBlockTableRecord
  2
*D6
340
0
  0
BLOCK_RECORD
  5
25FF
330
1
100
AcDbSymbolTableRecord
100
AcDbBlockTableRecord
  2
_FILLED
340
0
  0
ENDTAB
  0
ENDSEC
  0
SECTION
  2
BLOCKS
  0
BLOCK
  5
3A
330
1E
100
AcDbEntity
  8
0
100
AcDbBlockBegin
  2
*MODEL_SPACE
 70
     0
 10
0.0
 20
0.0
 30
0.0
  3
*MODEL_SPACE
  1

  0
ENDBLK
  5
3B
330
1E
100
AcDbEntity
  8
0
100
AcDbBlockEnd
  0
BLOCK
  5
38
330
1A
100
AcDbEntity
 67
     1
  8
0
100
AcDbBlockBegin
  2
*PAPER_SPACE
 70
     0
 10
0.0
 20
0.0
 30
0.0
  3
*PAPER_SPACE
  1

  0
ENDBLK
  5
39
330
1A
100
AcDbEntity
 67
     1
  8
0
100
AcDbBlockEnd
  0
BLOCK
  5
D44
330
D3A
100
AcDbEntity
  8
0
100
AcDbBlockBegin
  2
*D0
 70
     1
 10
0.0
 20
0.0
 30
0.0
  3
*D0
  1

  0
LINE
  5
28A2
330
D3A
100
AcDbEntity
  8
SK2
370
    -2
100
AcDbLine
 10
-4.577356856195284
 20
-50.8
 30
0.0
 11
-27.12122676663769
 21
-50.79999999999999
 31
0.0
  0
LINE
  5
28A3
330
D3A
100
AcDbEntity
  8
SK2
370
    -2
100
AcDbLine
 10
-4.577356856195271
 20
50.8
 30
0.0
 11
-27.12122676663767
 21
50.8
 31
0.0
  0
LINE
  5
28A4
330
D3A
100
AcDbEntity
  8
SK2
370
    -2
100
AcDbLine
 10
-25.87122676663769
 20
-47.29999999999999
 30
0.0
 11
-25.87122676663767
 21
47.29999999999999
 31
0.0
  0
SOLID
  5
28A5
330
D3A
100
AcDbEntity
  8
SK2
100
AcDbTrace
 10
-26.45456009997102
 20
-47.29999999999999
 30
0.0
 11
-25.28789343330435
 21
-47.29999999999999
 31
0.0
 12
-25.87122676663769
 22
-50.79999999999999
 32
0.0
 13
-25.87122676663769
 23
-50.79999999999999
 33
0.0
  0
SOLID
  5
28A6
330
D3A
100
AcDbEntity
  8
SK2
100
AcDbTrace
 10
-26.45456009997099
 20
47.29999999999999
 30
0.0
 11
-25.28789343330434
 21
47.29999999999999
 31
0.0
 12
-25.87122676663767
 22
50.8
 32
0.0
 13
-25.87122676663767
 23
50.8
 33
0.0
  0
MTEXT
  5
28A7
330
D3A
100
AcDbEntity
  8
SK2
100
AcDbMText
 10
-28.24622676663768
 20
-0.9033696839325635
 30
0.0
 40
3.5
 41
0.0
 71
     5
 72
     1
  1
%%c101.6
 11
0.0000000000000001
 21
1.0
 31
0.0
 73
     1
 44
1.0
  0
POINT
  5
28A8
330
D3A
100
AcDbEntity
  8
DEFPOINTS
 62
     0
100
AcDbPoint
 10
-3.952356856195283
 20
-50.8
 30
0.0
  0
POINT
  5
28A9
330
D3A
100
AcDbEntity
  8
DEFPOINTS
 62
     0
100
AcDbPoint
 10
-3.952356856195271
 20
50.8
 30
0.0
  0
POINT
  5
28AA
330
D3A
100
AcDbEntity
  8
DEFPOINTS
 62
     0
100
AcDbPoint
 10
-25.87122676663767
 20
50.8
 30
0.0
  0
ENDBLK
  5
D45
330
D3A
100
AcDbEntity
  8
0
100
AcDbBlockEnd
  0
BLOCK
  5
D59
330
D4F
100
AcDbEntity
  8
0
100
AcDbBlockBegin
  2
*D1
 70
     1
 10
0.0
 20
0.0
 30
0.0
  3
*D1
  1

  0
LINE
  5
28AB
330
D4F
100
AcDbEntity
  8
SK2
370
    -2
100
AcDbLine
 10
0.475000000000026
 20
130.0
 30
0.0
 11
-52.72192704542765
 21
130.0
 31
0.0
  0
LINE
  5
28AC
330
D4F
100
AcDbEntity
  8
SK2
370
    -2
100
AcDbLine
 10
0.4749999999999943
 20
-130.0
 30
0.0
 11
-52.72192704542771
 21
-130.0
 31
0.0
  0
LINE
  5
28AD
330
D4F
100
AcDbEntity
  8
SK2
370
    -2
100
AcDbLine
 10
-51.47192704542765
 20
126.5
 30
0.0
 11
-51.47192704542771
 21
-126.4999999999999
 31
0.0
  0
SOLID
  5
28AE
330
D4F
100
AcDbEntity
  8
SK2
100
AcDbTrace
 10
-52.05526037876097
 20
126.5
 30
0.0
 11
-50.88859371209432
 21
126.5
 31
0.0
 12
-51.47192704542765
 22
130.0
 32
0.0
 13
-51.47192704542765
 23
130.0
 33
0.0
  0
SOLID
  5
28AF
330
D4F
100
AcDbEntity
  8
SK2
100
AcDbTrace
 10
-52.05526037876104
 20
-126.4999999999999
 30
0.0
 11
-50.88859371209436
 21
-126.4999999999999
 31
0.0
 12
-51.47192704542771
 22
-130.0
 32
0.0
 13
-51.47192704542771
 23
-130.0
 33
0.0
  0
MTEXT
  5
28B0
330
D4F
100
AcDbEntity
  8
SK2
100
AcDbMText
 10
-53.84727153361666
 20
0.0000000000000777
 30
0.0
 40
3.5
 41
0.0
 71
     5
 72
     1
  1
%%c260
 11
0.0000000000000001
 21
1.0
 31
0.0
 73
     1
 44
1.0
  0
POINT
  5
28B1
330
D4F
100
AcDbEntity
  8
DEFPOINTS
 62
     0
100
AcDbPoint
 10
1.100000000000024
 20
130.0
 30
0.0
  0
POINT
  5
28B2
330
D4F
100
AcDbEntity
  8
DEFPOINTS
 62
     0
100
AcDbPoint
 10
1.099999999999994
 20
-130.0
 30
0.0
  0
POINT
  5
28B3
330
D4F
100
AcDbEntity
  8
DEFPOINTS
 62
     0
100
AcDbPoint
 10
-51.47192704542771
 20
-130.0
 30
0.0
  0
ENDBLK
  5
D5A
330
D4F
100
AcDbEntity
  8
0
100
AcDbBlockEnd
  0
BLOCK
  5
D6E
330
D64
100
AcDbEntity
  8
0
100
AcDbBlockBegin
  2
*D2
 70
     1
 10
0.0
 20
0.0
 30
0.0
  3
*D2
  1

  0
LINE
  5
28DE
330
D64
100
AcDbEntity
  8
2
370
    -2
100
AcDbLine
 10
61.9528809929302
 20
157.5
 30
0.0
 11
81.87500000000003
 21
157.4999999999999
 31
0.0
  0
LINE
  5
28DF
330
D64
100
AcDbEntity
  8
2
370
    -2
100
AcDbLine
 10
64.12499999999997
 20
-157.5
 30
0.0
 11
81.87499999999998
 21
-157.5
 31
0.0
  0
LINE
  5
28E0
330
D64
100
AcDbEntity
  8
2
370
    -2
100
AcDbLine
 10
80.62500000000003
 20
153.9999999999999
 30
0.0
 11
80.62499999999998
 21
-154.0
 31
0.0
  0
SOLID
  5
28E1
330
D64
100
AcDbEntity
  8
2
100
AcDbTrace
 10
80.04166666666669
 20
153.9999999999999
 30
0.0
 11
81.20833333333335
 21
153.9999999999999
 31
0.0
 12
80.62500000000003
 22
157.4999999999999
 32
0.0
 13
80.62500000000003
 23
157.4999999999999
 33
0.0
  0
SOLID
  5
28E2
330
D64
100
AcDbEntity
  8
2
100
AcDbTrace
 10
80.04166666666664
 20
-154.0
 30
0.0
 11
81.2083333333333
 21
-154.0
 31
0.0
 12
80.62499999999998
 22
-157.5
 32
0.0
 13
80.62499999999998
 23
-157.5
 33
0.0
  0
MTEXT
  5
28E3
330
D64
100
AcDbEntity
  8
2
100
AcDbMText
 10
78.25
 20
-0.0000000000000096
 30
0.0
 40
3.5
 41
0.0
 71
     5
 72
     1
  1
%%c315
 11
0.0000000000000001
 21
1.0
 31
0.0
 73
     1
 44
1.0
  0
POINT
  5
28E4
330
D64
100
AcDbEntity
  8
DEFPOINTS
 62
     0
100
AcDbPoint
 10
61.3278809929302
 20
157.5
 30
0.0
  0
POINT
  5
28E5
330
D64
100
AcDbEntity
  8
DEFPOINTS
 62
     0
100
AcDbPoint
 10
63.49999999999997
 20
-157.5
 30
0.0
  0
POINT
  5
28E6
330
D64
100
AcDbEntity
  8
DEFPOINTS
 62
     0
100
AcDbPoint
 10
80.62499999999998
 20
-157.5
 30
0.0
  0
ENDBLK
  5
D6F
330
D64
100
AcDbEntity
  8
0
100
AcDbBlockEnd
  0
BLOCK
  5
D83
330
D79
100
AcDbEntity
  8
0
100
AcDbBlockBegin
  2
*D3
 70
     1
 10
0.0
 20
0.0
 30
0.0
  3
*D3
  1

  0
LINE
  5
28B4
330
D79
100
AcDbEntity
  8
SK2
370
    -2
100
AcDbLine
 10
2.223088319900003
 20
30.0
 30
0.0
 11
-13.62499999999999
 21
30.0
 31
0.0
  0
LINE
  5
28B5
330
D79
100
AcDbEntity
  8
SK2
370
    -2
100
AcDbLine
 10
-0.4330858796000177
 20
-30.0
 30
0.0
 11
-13.625
 21
-30.0
 31
0.0
  0
LINE
  5
28B6
330
D79
100
AcDbEntity
  8
SK2
370
    -2
100
AcDbLine
 10
-12.37499999999999
 20
26.5
 30
0.0
 11
-12.375
 21
-26.49999999999999
 31
0.0
  0
SOLID
  5
28B7
330
D79
100
AcDbEntity
  8
SK2
100
AcDbTrace
 10
-12.95833333333332
 20
26.5
 30
0.0
 11
-11.79166666666666
 21
26.5
 31
0.0
 12
-12.37499999999999
 22
30.0
 32
0.0
 13
-12.37499999999999
 23
30.0
 33
0.0
  0
SOLID
  5
28B8
330
D79
100
AcDbEntity
  8
SK2
100
AcDbTrace
 10
-12.95833333333334
 20
-26.49999999999999
 30
0.0
 11
-11.79166666666666
 21
-26.49999999999999
 31
0.0
 12
-12.375
 22
-30.0
 32
0.0
 13
-12.375
 23
-30.0
 33
0.0
  0
MTEXT
  5
28B9
330
D79
100
AcDbEntity
  8
SK2
100
AcDbMText
 10
-14.75
 20
0.0000000000000018
 30
0.0
 40
3.5
 41
0.0
 71
     5
 72
     1
  1
%%c60
 11
0.0000000000000001
 21
1.0
 31
0.0
 73
     1
 44
1.0
  0
POINT
  5
28BA
330
D79
100
AcDbEntity
  8
DEFPOINTS
 62
     0
100
AcDbPoint
 10
2.848088319900003
 20
30.0
 30
0.0
  0
POINT
  5
28BB
330
D79
100
AcDbEntity
  8
DEFPOINTS
 62
     0
100
AcDbPoint
 10
0.1919141203999823
 20
-30.0
 30
0.0
  0
POINT
  5
28BC
330
D79
100
AcDbEntity
  8
DEFPOINTS
 62
     0
100
AcDbPoint
 10
-12.375
 20
-30.0
 30
0.0
  0
ENDBLK
  5
D84
330
D79
100
AcDbEntity
  8
0
100
AcDbBlockEnd
  0
BLOCK
  5
D8F
330
D85
100
AcDbEntity
  8
0
100
AcDbBlockBegin
  2
*D4
 70
     1
 10
0.0
 20
0.0
 30
0.0
  3
*D4
  1

  0
LINE
  5
25BB
330
D85
100
AcDbEntity
  8
2
370
    -2
100
AcDbLine
 10
62.99999999999998
 20
-162.3729956267998
 30
0.0
 11
62.99999999999998
 21
-176.3749999999999
 31
0.0
  0
LINE
  5
25BC
330
D85
100
AcDbEntity
  8
2
370
    -2
100
AcDbLine
 10
-0.0000000000000141
 20
-115.4088903841
 30
0.0
 11
-0.0000000000000178
 21
-176.3749999999999
 31
0.0
  0
LINE
  5
25BD
330
D85
100
AcDbEntity
  8
2
370
    -2
100
AcDbLine
 10
59.49999999999998
 20
-175.1249999999999
 30
0.0
 11
3.499999999999982
 21
-175.1249999999999
 31
0.0
  0
SOLID
  5
25BE
330
D85
100
AcDbEntity
  8
2
100
AcDbTrace
 10
59.49999999999998
 20
-174.5416666666663
 30
0.0
 11
59.49999999999998
 21
-175.7083333333332
 31
0.0
 12
62.99999999999998
 22
-175.1249999999999
 32
0.0
 13
62.99999999999998
 23
-175.1249999999999
 33
0.0
  0
SOLID
  5
25BF
330
D85
100
AcDbEntity
  8
2
100
AcDbTrace
 10
3.499999999999982
 20
-174.5416666666663
 30
0.0
 11
3.499999999999982
 21
-175.7083333333332
 31
0.0
 12
-0.0000000000000178
 22
-175.1249999999999
 32
0.0
 13
-0.0000000000000178
 23
-175.1249999999999
 33
0.0
  0
MTEXT
  5
25C0
330
D85
100
AcDbEntity
  8
2
100
AcDbMText
 10
31.49999999999998
 20
-172.7499999999999
 30
0.0
 40
3.5
 41
0.0
 71
     5
 72
     1
  1
63
 73
     1
 44
1.0
1001
ACAD
1000
MTEXTBEGIN
1070
    73
1070
     1
1070
    44
1040
1.0
1070
    74
1070
     0
1000
MTEXTEND
  0
POINT
  5
25C1
330
D85
100
AcDbEntity
  8
DEFPOINTS
 62
     0
100
AcDbPoint
 10
62.99999999999998
 20
-161.7479956268
 30
0.0
  0
POINT
  5
25C2
330
D85
100
AcDbEntity
  8
DEFPOINTS
 62
     0
100
AcDbPoint
 10
-0.0000000000000141
 20
-114.7838903841
 30
0.0
  0
POINT
  5
25C3
330
D85
100
AcDbEntity
  8
DEFPOINTS
 62
     0
100
AcDbPoint
 10
-0.0000000000000178
 20
-175.1249999999999
 30
0.0
  0
ENDBLK
  5
D90
330
D85
100
AcDbEntity
  8
0
100
AcDbBlockEnd
  0
BLOCK
  5
DB0
330
DA6
100
AcDbEntity
  8
0
100
AcDbBlockBegin
  2
*D5
 70
     1
 10
0.0
 20
0.0
 30
0.0
  3
*D5
  1

  0
LINE
  5
28D5
330
DA6
100
AcDbEntity
  8
2
370
    -2
100
AcDbLine
 10
61.9528809929302
 20
157.4999999999999
 30
0.0
 11
74.78856680723834
 21
157.4999999999998
 31
0.0
  0
LINE
  5
28D6
330
DA6
100
AcDbEntity
  8
2
370
    -2
100
AcDbLine
 10
64.12500000000001
 20
147.4999999999998
 30
0.0
 11
74.78856680723834
 21
147.4999999999998
 31
0.0
  0
LINE
  5
28D7
330
DA6
100
AcDbEntity
  8
2
370
    -2
100
AcDbLine
 10
73.53856680723834
 20
153.9999999999998
 30
0.0
 11
73.53856680723834
 21
150.9999999999998
 31
0.0
  0
SOLID
  5
28D8
330
DA6
100
AcDbEntity
  8
2
100
AcDbTrace
 10
72.95523347390501
 20
153.9999999999998
 30
0.0
 11
74.12190014057166
 21
153.9999999999998
 31
0.0
 12
73.53856680723834
 22
157.4999999999998
 32
0.0
 13
73.53856680723834
 23
157.4999999999998
 33
0.0
  0
SOLID
  5
28D9
330
DA6
100
AcDbEntity
  8
2
100
AcDbTrace
 10
72.95523347390501
 20
150.9999999999998
 30
0.0
 11
74.12190014057166
 21
150.9999999999998
 31
0.0
 12
73.53856680723834
 22
147.4999999999998
 32
0.0
 13
73.53856680723834
 23
147.4999999999998
 33
0.0
  0
MTEXT
  5
28DA
330
DA6
100
AcDbEntity
  8
2
100
AcDbMText
 10
71.16356680723832
 20
152.4999999999999
 30
0.0
 40
3.5
 41
0.0
 71
     5
 72
     1
  1
10
 11
0.0000000000000001
 21
1.0
 31
0.0
 73
     1
 44
1.0
  0
POINT
  5
28DB
330
DA6
100
AcDbEntity
  8
DEFPOINTS
 62
     0
100
AcDbPoint
 10
61.3278809929302
 20
157.4999999999999
 30
0.0
  0
POINT
  5
28DC
330
DA6
100
AcDbEntity
  8
DEFPOINTS
 62
     0
100
AcDbPoint
 10
63.50000000000002
 20
147.4999999999999
 30
0.0
  0
POINT
  5
28DD
330
DA6
100
AcDbEntity
  8
DEFPOINTS
 62
     0
100
AcDbPoint
 10
73.53856680723834
 20
147.4999999999998
 30
0.0
  0
ENDBLK
  5
DB1
330
DA6
100
AcDbEntity
  8
0
100
AcDbBlockEnd
  0
BLOCK
  5
19B7
330
19AD
100
AcDbEntity
  8
0
100
AcDbBlockBegin
  2
*D6
 70
     1
 10
0.0
 20
0.0
 30
0.0
  3
*D6
  1

  0
LINE
  5
2899
330
19AD
100
AcDbEntity
  8
SK2
370
    -2
100
AcDbLine
 10
-7.576735496815826
 20
88.90000000000004
 30
0.0
 11
-40.50174076325832
 21
88.90000000000004
 31
0.0
  0
LINE
  5
289A
330
19AD
100
AcDbEntity
  8
SK2
370
    -2
100
AcDbLine
 10
-7.192941843191601
 20
-88.89999999999997
 30
0.0
 11
-40.50174076325835
 21
-88.89999999999997
 31
0.0
  0
LINE
  5
289B
330
19AD
100
AcDbEntity
  8
SK2
370
    -2
100
AcDbLine
 10
-39.25174076325832
 20
85.40000000000004
 30
0.0
 11
-39.25174076325835
 21
-85.39999999999995
 31
0.0
  0
SOLID
  5
289C
330
19AD
100
AcDbEntity
  8
SK2
100
AcDbTrace
 10
-39.83507409659164
 20
85.40000000000004
 30
0.0
 11
-38.66840742992497
 21
85.40000000000004
 31
0.0
 12
-39.25174076325832
 22
88.90000000000004
 32
0.0
 13
-39.25174076325832
 23
88.90000000000004
 33
0.0
  0
SOLID
  5
289D
330
19AD
100
AcDbEntity
  8
SK2
100
AcDbTrace
 10
-39.8350740965917
 20
-85.39999999999995
 30
0.0
 11
-38.66840742992502
 21
-85.39999999999995
 31
0.0
 12
-39.25174076325835
 22
-88.89999999999997
 32
0.0
 13
-39.25174076325835
 23
-88.89999999999997
 33
0.0
  0
MTEXT
  5
289E
330
19AD
100
AcDbEntity
  8
SK2
100
AcDbMText
 10
-41.62674076325834
 20
0.0282189190006699
 30
0.0
 40
3.5
 41
0.0
 71
     5
 72
     1
  1
%%c177.8
 11
0.0000000000000001
 21
1.0
 31
0.0
 73
     1
 44
1.0
  0
POINT
  5
289F
330
19AD
100
AcDbEntity
  8
DEFPOINTS
 62
     0
100
AcDbPoint
 10
-6.951735496815826
 20
88.90000000000004
 30
0.0
  0
POINT
  5
28A0
330
19AD
100
AcDbEntity
  8
DEFPOINTS
 62
     0
100
AcDbPoint
 10
-6.567941843191601
 20
-88.89999999999997
 30
0.0
  0
POINT
  5
28A1
330
19AD
100
AcDbEntity
  8
DEFPOINTS
 62
     0
100
AcDbPoint
 10
-39.25174076325835
 20
-88.89999999999997
 30
0.0
  0
ENDBLK
  5
19B8
330
19AD
100
AcDbEntity
  8
0
100
AcDbBlockEnd
  0
BLOCK
  5
2601
330
25FF
100
AcDbEntity
  8
0
100
AcDbBlockBegin
  2
_FILLED
 70
     0
 10
0.0
 20
0.0
 30
0.0
  3
_FILLED
  1

  0
SOLID
  5
2600
330
25FF
100
AcDbEntity
  8
0
  6
ByBlock
 62
     0
100
AcDbTrace
 10
0.0
 20
0.0
 30
0.0
 11
-1.0
 21
0.132
 31
0.0
 12
-1.0
 22
-0.132
 32
0.0
 13
-1.0
 23
-0.132
 33
0.0
  0
ENDBLK
  5
2602
330
25FF
100
AcDbEntity
  8
0
  6
ByBlock
 62
     0
100
AcDbBlockEnd
  0
ENDSEC
  0
SECTION
  2
ENTITIES
  0
DIMENSION
  5
7A
330
1E
100
AcDbEntity
  8
2
100
AcDbDimension
  2
*D2
 10
80.62499999999998
 20
-157.5
 30
0.0
 11
80.625
 21
-0.0000000000000099
 31
0.0
 70
   160
  1
%%c<>
 71
     5
 42
315.0
  3
ISO-25
100
AcDbAlignedDimension
 13
61.3278809929302
 23
157.5
 33
0.0
 14
63.49999999999997
 24
-157.5
 34
0.0
 50
270.0
100
AcDbRotatedDimension
  0
DIMENSION
  5
7B
330
1E
100
AcDbEntity
  8
2
100
AcDbDimension
  2
*D4
 10
-0.0000000000000178
 20
-175.1249999999999
 30
0.0
 11
31.49999999999998
 21
-175.1249999999999
 31
0.0
 70
   160
 71
     5
 42
62.99999999999999
  3
ISO-25
100
AcDbAlignedDimension
 13
62.99999999999998
 23
-161.7479956268
 33
0.0
 14
-0.0000000000000141
 24
-114.7838903841
 34
0.0
 50
180.0
100
AcDbRotatedDimension
  0
DIMENSION
  5
7C
330
1E
100
AcDbEntity
  8
SK2
100
AcDbDimension
  2
*D1
 10
-51.47192704542771
 20
-130.0
 30
0.0
 11
-51.47192704542767
 21
0.0000000000000774
 31
0.0
 70
   160
  1
%%c<>
 71
     5
 42
260.0
  3
ISO-25
100
AcDbAlignedDimension
 13
1.100000000000024
 23
130.0
 33
0.0
 14
1.099999999999994
 24
-130.0
 34
0.0
 50
270.0
100
AcDbRotatedDimension
  0
DIMENSION
  5
7D
330
1E
100
AcDbEntity
  8
SK2
100
AcDbDimension
  2
*D3
 10
-12.375
 20
-30.0
 30
0.0
 11
-12.375
 21
0.0000000000000015
 31
0.0
 70
   160
  1
%%c<>
 71
     5
 42
60.0
  3
ISO-25
100
AcDbAlignedDimension
 13
2.848088319900003
 23
30.0
 33
0.0
 14
0.1919141203999823
 24
-30.0
 34
0.0
 50
270.0
100
AcDbRotatedDimension
  0
LINE
  5
7E
330
1E
100
AcDbEntity
  8
1
100
AcDbLine
 10
61.96477058300003
 20
156.8153132868999
 30
0.0
 11
61.89836239260001
 21
156.8132529119
 31
0.0
  0
LINE
  5
7F
330
1E
100
AcDbEntity
  8
1
100
AcDbLine
 10
61.96345248190002
 20
156.815334076
 30
0.0
 11
61.96455287490003
 21
156.815334076
 31
0.0
  0
LINE
  5
80
330
1E
100
AcDbEntity
  8
1
100
AcDbLine
 10
57.99878066010002
 20
155.8499999999999
 30
0.0
 11
31.65655526620001
 21
155.8499999999999
 31
0.0
  0
LINE
  5
81
330
1E
100
AcDbEntity
  8
SK3
100
AcDbLine
 10
61.60000000000001
 20
133.85
 30
0.0
 11
43.0
 21
133.85
 31
0.0
  0
LINE
  5
82
330
1E
100
AcDbEntity
  8
1
100
AcDbLine
 10
13.26794919250001
 20
130.0
 30
0.0
 11
6.600000000000022
 21
130.0
 31
0.0
  0
LINE
  5
83
330
1E
100
AcDbEntity
  8
SK3
100
AcDbLine
 10
43.0
 20
110.4474411167
 30
0.0
 11
32.00000000000001
 21
107.4999999999999
 31
0.0
  0
LWPOLYLINE
  5
84
330
1E
100
AcDbEntity
  8
1
100
AcDbPolyline
 90
        9
 70
     0
 43
0.0
 10
61.59995077129997
 20
-138.1971573261
 10
61.6281099827
 20
-137.9146926430999
 10
61.66210320039998
 20
-137.6864995909
 10
61.70014042709999
 20
-137.5270877485
 10
61.740720803
 20
-137.4427471326999
 10
61.78224312189996
 20
-137.436805626
 10
61.82306901059996
 20
-137.5094976663999
 10
61.86094053639997
 20
-137.6547267295999
 10
61.8961380352
 20
-137.8752273483996
  0
LINE
  5
90
330
1E
100
AcDbEntity
  8
1
100
AcDbLine
 10
62.00436643069999
 20
-4.254208840800068
 30
0.0
 11
62.9999999568
 21
-13.72702907109998
 31
0.0
  0
LINE
  5
91
330
1E
100
AcDbEntity
  8
1
100
AcDbLine
 10
57.91199581019999
 20
-6.091486535100046
 30
0.0
 11
58.6167458581
 21
-12.7967353401
 31
0.0
  0
LINE
  5
92
330
1E
100
AcDbEntity
  8
1
100
AcDbLine
 10
57.83533830069999
 20
-10.14552516840008
 30
0.0
 11
57.4398955234
 21
-6.383138464000016
 31
0.0
  0
LINE
  5
93
330
1E
100
AcDbEntity
  8
1
100
AcDbLine
 10
57.42063504789999
 20
-6.199887281100025
 30
0.0
 11
57.42933460799999
 21
-6.282658066200045
 31
0.0
  0
LINE
  5
94
330
1E
100
AcDbEntity
  8
1
100
AcDbLine
 10
57.83533830069999
 20
-10.14552516840008
 30
0.0
 11
58.11190480810001
 21
-12.7768797152
 31
0.0
  0
LINE
  5
95
330
1E
100
AcDbEntity
  8
1
100
AcDbLine
 10
57.0799605989
 20
-12.53431887510001
 30
0.0
 11
57.1970883718
 21
-13.6487151939001
 31
0.0
  0
LINE
  5
96
330
1E
100
AcDbEntity
  8
1
100
AcDbLine
 10
54.67026966729999
 20
-13.5156114853001
 30
0.0
 11
54.73576744729999
 21
-14.13878123509999
 31
0.0
  0
LINE
  5
97
330
1E
100
AcDbEntity
  8
1
100
AcDbLine
 10
61.60000000000001
 20
148.1411213474
 30
0.0
 11
61.6
 21
-4.425803669200096
 31
0.0
  0
LINE
  5
98
330
1E
100
AcDbEntity
  8
1
100
AcDbLine
 10
61.6
 20
-13.45489705
 30
0.0
 11
61.59999999999998
 21
-154.2494913884999
 31
0.0
  0
LINE
  5
99
330
1E
100
AcDbEntity
  8
1
100
AcDbLine
 10
58.06548265410003
 20
155.3610803295998
 30
0.0
 11
58.06548265410003
 21
150.7519174717
 31
0.0
  0
LINE
  5
9A
330
1E
100
AcDbEntity
  8
1
100
AcDbLine
 10
57.86463492070001
 20
155.5772172933
 30
0.0
 11
57.86463492070001
 21
155.7540395989
 31
0.0
  0
LINE
  5
9B
330
1E
100
AcDbEntity
  8
1
100
AcDbLine
 10
62.9999999568
 20
13.72702907099989
 30
0.0
 11
62.00436643069999
 21
4.25420884079994
 31
0.0
  0
LINE
  5
9C
330
1E
100
AcDbEntity
  8
1
100
AcDbLine
 10
62.1059238725
 20
12.51930402599998
 30
0.0
 11
61.6
 21
7.705759917599942
 31
0.0
  0
LINE
  5
9D
330
1E
100
AcDbEntity
  8
SK3
100
AcDbLine
 10
1.600000000000013
 20
30.0
 30
0.0
 11
30.4
 21
30.0
 31
0.0
  0
LINE
  5
9E
330
1E
100
AcDbEntity
  8
SK3
100
AcDbLine
 10
42.99999999999998
 20
-133.85
 30
0.0
 11
43.0
 21
133.85
 31
0.0
  0
LINE
  5
9F
330
1E
100
AcDbEntity
  8
1
100
AcDbLine
 10
57.41845600439999
 20
-6.200811896400074
 30
0.0
 11
58.31820349
 21
-5.818891747800085
 31
0.0
  0
LINE
  5
A0
330
1E
100
AcDbEntity
  8
1
100
AcDbLine
 10
58.31820349
 20
-5.818891747800085
 30
0.0
 11
61.6080513932
 21
-4.422434163700025
 31
0.0
  0
LINE
  5
A1
330
1E
100
AcDbEntity
  8
1
100
AcDbLine
 10
61.6155519998
 20
-4.419250345100015
 30
0.0
 11
62.002317111
 21
-4.255078295600076
 31
0.0
  0
LINE
  5
A2
330
1E
100
AcDbEntity
  8
1
100
AcDbLine
 10
57.8646349207
 20
-5.468239994200077
 30
0.0
 11
61.0988881137
 21
-4.095380964500074
 31
0.0
  0
LINE
  5
A3
330
1E
100
AcDbEntity
  8
SK3
100
AcDbLine
 10
1.600000000000011
 20
12.85
 30
0.0
 11
12.4
 21
12.85
 31
0.0
  0
LINE
  5
A4
330
1E
100
AcDbEntity
  8
1
100
AcDbLine
 10
61.6155519998
 20
4.419250345099943
 30
0.0
 11
62.002317111
 21
4.255078295599949
 31
0.0
  0
LINE
  5
A5
330
1E
100
AcDbEntity
  8
1
100
AcDbLine
 10
58.02826739939999
 20
-5.575965660800025
 30
0.0
 11
58.3248119889
 21
-5.816102734500087
 31
0.0
  0
LINE
  5
A6
330
1E
100
AcDbEntity
  8
1
100
AcDbLine
 10
57.4398955234
 20
-6.383138464000016
 30
0.0
 11
57.3621809272
 21
-6.320206424900057
 31
0.0
  0
LINE
  5
A7
330
1E
100
AcDbEntity
  8
SK3
100
AcDbLine
 10
31.99999999999999
 20
-107.4999999999999
 30
0.0
 11
32.00000000000001
 21
107.4999999999999
 31
0.0
  0
LINE
  5
A8
330
1E
100
AcDbEntity
  8
SK3
100
AcDbLine
 10
30.4
 20
-30.0
 30
0.0
 11
30.4
 21
30.0
 31
0.0
  0
LINE
  5
A9
330
1E
100
AcDbEntity
  8
1
100
AcDbLine
 10
61.6
 20
13.45489704999999
 30
0.0
 11
62.9978146496
 21
13.72660469369988
 31
0.0
  0
LINE
  5
AA
330
1E
100
AcDbEntity
  8
4
100
AcDbLine
 10
71.34860071689998
 20
-0.0000000000000087
 30
0.0
 11
-9.67954330319999
 21
0.0000000000000012
 31
0.0
  0
LWPOLYLINE
  5
AB
330
1E
100
AcDbEntity
  8
1
100
AcDbPolyline
 90
       17
 70
     0
 43
0.0
 10
61.63304807399998
 20
-140.9841025428
 10
61.66711310260001
 20
-141.1989348504999
 10
61.70489111229997
 20
-141.3463762172999
 10
61.74494315049997
 20
-141.4208106472
 10
61.78646951899998
 20
-141.4186845252999
 10
61.82643598599999
 20
-141.3401532021999
 10
61.86404687489996
 20
-141.188851975
 10
61.89786959869998
 20
-140.9705438603999
 10
61.92707602789997
 20
-140.6881258139
 10
61.94953211889997
 20
-140.362233444
 10
61.96494393840001
 20
-140.0008198296999
 10
61.97272445489998
 20
-139.6176511033999
 10
61.9725022147
 20
-139.2203777935999
 10
61.96429345619998
 20
-138.8380277073
 10
61.94847817139999
 20
-138.4782128995999
 10
61.92565875969997
 20
-138.1546386046998
 10
61.89613803529997
 20
-137.8752273486
  0
LINE
  5
BE
330
1E
100
AcDbEntity
  8
1
100
AcDbLine
 10
-0.0000000000000018
 20
-14.45
 30
0.0
 11
1.600000000000008
 21
-12.85
 31
0.0
  0
LINE
  5
BF
330
1E
100
AcDbEntity
  8
1
100
AcDbLine
 10
57.185928756
 20
-5.847601082000043
 30
0.0
 11
58.22840338159998
 21
-5.738032583700037
 31
0.0
  0
LINE
  5
C0
330
1E
100
AcDbEntity
  8
1
100
AcDbLine
 10
58.1095811435
 20
-12.7764283536
 30
0.0
 11
62.9978146496
 21
-13.72660469369999
 31
0.0
  0
LINE
  5
C1
330
1E
100
AcDbEntity
  8
1
100
AcDbLine
 10
0.0000000000000018
 20
14.45
 30
0.0
 11
1.600000000000011
 21
12.85
 31
0.0
  0
LINE
  5
C2
330
1E
100
AcDbEntity
  8
SK3
100
AcDbLine
 10
14.0
 20
-11.25
 30
0.0
 11
14.0
 21
11.25
 31
0.0
  0
LINE
  5
C3
330
1E
100
AcDbEntity
  8
SK3
100
AcDbLine
 10
30.4
 20
30.0
 30
0.0
 11
32.00000000000001
 21
31.6
 31
0.0
  0
LINE
  5
C4
330
1E
100
AcDbEntity
  8
1
100
AcDbLine
 10
55.18722840929999
 20
-12.6377191349001
 30
0.0
 11
58.0654826541
 21
-12.3352024236
 31
0.0
  0
LINE
  5
C5
330
1E
100
AcDbEntity
  8
1
100
AcDbLine
 10
57.1264742427
 20
-12.97686663440001
 30
0.0
 11
55.3512689557
 21
-13.14552070560011
 31
0.0
  0
LINE
  5
C6
330
1E
100
AcDbEntity
  8
SK3
100
AcDbLine
 10
1.600000000000008
 20
-12.85
 30
0.0
 11
12.4
 21
-12.85
 31
0.0
  0
LINE
  5
C7
330
1E
100
AcDbEntity
  8
SK3
100
AcDbLine
 10
30.4
 20
-30.0
 30
0.0
 11
32.0
 21
-31.60000000000001
 31
0.0
  0
LINE
  5
C8
330
1E
100
AcDbEntity
  8
1
100
AcDbLine
 10
1.600000000000024
 20
125.0
 30
0.0
 11
1.599999999999994
 21
-125.0
 31
0.0
  0
LINE
  5
C9
330
1E
100
AcDbEntity
  8
1
100
AcDbLine
 10
-0.0000000000000133
 20
-108.4
 30
0.0
 11
-0.0000000000000018
 21
-14.4436151020001
 31
0.0
  0
LINE
  5
CA
330
1E
100
AcDbEntity
  8
1
100
AcDbLine
 10
0.0000000000000018
 20
14.44361506429999
 30
0.0
 11
0.0000000000000133
 21
108.4
 31
0.0
  0
LINE
  5
CB
330
1E
100
AcDbEntity
  8
SK3
100
AcDbLine
 10
1.600000000000004
 20
-30.0
 30
0.0
 11
30.4
 21
-30.0
 31
0.0
  0
LINE
  5
CC
330
1E
100
AcDbEntity
  8
1
100
AcDbLine
 10
62.99073173270002
 20
143.8980925564
 30
0.0
 11
62.53809711510001
 21
142.9776690182
 31
0.0
  0
LINE
  5
CD
330
1E
100
AcDbEntity
  8
1
100
AcDbLine
 10
62.99073173269999
 20
-143.8980925564
 30
0.0
 11
62.53809711509997
 21
-142.9776690182
 31
0.0
  0
LINE
  5
CE
330
1E
100
AcDbEntity
  8
1
100
AcDbLine
 10
62.01363465479996
 20
-154.8949105378999
 30
0.0
 11
62.46626927229995
 21
-155.815334076
 31
0.0
  0
LINE
  5
CF
330
1E
100
AcDbEntity
  8
1
100
AcDbLine
 10
57.83533830070002
 20
155.5176431962999
 30
0.0
 11
58.10490807960002
 21
156.0658080075
 31
0.0
  0
LINE
  5
D0
330
1E
100
AcDbEntity
  8
1
100
AcDbLine
 10
58.24466453789998
 20
-155.8499999999999
 30
0.0
 11
58.61674585809996
 21
-156.6066200019
 31
0.0
  0
LINE
  5
D1
330
1E
100
AcDbEntity
  8
1
100
AcDbLine
 10
57.99878066009998
 20
-155.8499999999999
 30
0.0
 11
58.10490807959998
 21
-156.0658080075
 31
0.0
  0
LINE
  5
D2
330
1E
100
AcDbEntity
  8
1
100
AcDbLine
 10
29.05847905480001
 20
154.3499999999999
 30
0.0
 11
15.86602540380002
 21
131.4999999999999
 31
0.0
  0
LINE
  5
D3
330
1E
100
AcDbEntity
  8
1
100
AcDbLine
 10
29.05847905479998
 20
-154.3499999999999
 30
0.0
 11
15.86602540379996
 21
-131.4999999999999
 31
0.0
  0
LINE
  5
D4
330
1E
100
AcDbEntity
  8
SK3
100
AcDbLine
 10
42.99999999999998
 20
-110.4474411168
 30
0.0
 11
31.99999999999999
 21
-107.4999999999999
 31
0.0
  0
LINE
  5
D5
330
1E
100
AcDbEntity
  8
1
100
AcDbLine
 10
13.26794919249998
 20
-130.0
 30
0.0
 11
6.599999999999991
 21
-130.0
 31
0.0
  0
LINE
  5
D6
330
1E
100
AcDbEntity
  8
SK3
100
AcDbLine
 10
61.59999999999999
 20
-133.85
 30
0.0
 11
42.99999999999998
 21
-133.85
 31
0.0
  0
LINE
  5
D7
330
1E
100
AcDbEntity
  8
SK3
100
AcDbLine
 10
62.99999999999998
 20
-151.4
 30
0.0
 11
62.89999999999999
 21
-151.4
 31
0.0
  0
LINE
  5
D8
330
1E
100
AcDbEntity
  8
1
100
AcDbLine
 10
59.99999999999998
 20
-155.8499999999999
 30
0.0
 11
31.65655526619998
 21
-155.8499999999999
 31
0.0
  0
ARC
  5
DB
330
1E
100
AcDbEntity
  8
SK3
100
AcDbCircle
 10
12.4
 20
11.25
 30
0.0
 40
1.6
100
AcDbArc
 50
0.0
 51
90.0
  0
ARC
  5
DC
330
1E
100
AcDbEntity
  8
SK3
100
AcDbCircle
 10
12.4
 20
-11.25
 30
0.0
 40
1.6
100
AcDbArc
 50
270.0
 51
0.0
  0
ARC
  5
DD
330
1E
100
AcDbEntity
  8
1
100
AcDbCircle
 10
54.39973310079999
 20
-36.88327294620011
 30
0.0
 40
50.0
100
AcDbArc
 50
81.13401601739992
 51
81.72026487250006
  0
ARC
  5
DE
330
1E
100
AcDbEntity
  8
1
100
AcDbCircle
 10
54.46350707659998
 20
36.27650409699988
 30
0.0
 40
50.0
100
AcDbArc
 50
273.1340160174
 51
277.3548819019
  0
ARC
  5
E0
330
1E
100
AcDbEntity
  8
1
100
AcDbCircle
 10
57.6768411227
 20
-5.931633444100047
 30
0.0
 40
0.5
100
AcDbArc
 50
45.34368484939999
 51
230.9999999999999
  0
ARC
  5
E1
330
1E
100
AcDbEntity
  8
1
100
AcDbCircle
 10
1.599999999999995
 20
-108.4
 30
0.0
 40
1.6
100
AcDbArc
 50
180.0
 51
270.0
  0
ARC
  5
E2
330
1E
100
AcDbEntity
  8
1
100
AcDbCircle
 10
1.600000000000023
 20
108.4
 30
0.0
 40
1.6
100
AcDbArc
 50
90.0
 51
180.0
  0
ARC
  5
E3
330
1E
100
AcDbEntity
  8
1
100
AcDbCircle
 10
6.599999999999991
 20
-125.0
 30
0.0
 40
5.0
100
AcDbArc
 50
180.0
 51
270.0
  0
ARC
  5
E4
330
1E
100
AcDbEntity
  8
1
100
AcDbCircle
 10
6.600000000000022
 20
125.0
 30
0.0
 40
5.0
100
AcDbArc
 50
90.0
 51
180.0
  0
ARC
  5
E5
330
1E
100
AcDbEntity
  8
1
100
AcDbCircle
 10
59.99999999999998
 20
-154.2499999999999
 30
0.0
 40
1.6
100
AcDbArc
 50
270.0
 51
0.0
  0
ARC
  5
E6
330
1E
100
AcDbEntity
  8
1
100
AcDbCircle
 10
13.26794919249998
 20
-133.0
 30
0.0
 40
3.0
100
AcDbArc
 50
30.00000000000005
 51
90.0
  0
ARC
  5
E7
330
1E
100
AcDbEntity
  8
1
100
AcDbCircle
 10
13.26794919250001
 20
133.0
 30
0.0
 40
3.0
100
AcDbArc
 50
270.0
 51
330.0000000000001
  0
ARC
  5
E8
330
1E
100
AcDbEntity
  8
1
100
AcDbCircle
 10
31.65655526619998
 20
-152.85
 30
0.0
 40
3.0
100
AcDbArc
 50
209.9999999998999
 51
270.0
  0
ARC
  5
E9
330
1E
100
AcDbEntity
  8
1
100
AcDbCircle
 10
31.65655526620001
 20
152.85
 30
0.0
 40
3.0
100
AcDbArc
 50
90.0
 51
150.0000000000999
  0
LWPOLYLINE
  5
EA
330
1E
100
AcDbEntity
  8
1
100
AcDbPolyline
 90
       34
 70
     0
 43
0.0
 10
62.5380971151
 20
9.332317093199991
 10
62.51303971892269
 20
9.105193696023043
 10
62.485627568769
 20
8.87833945625614
 10
62.45640599273389
 20
8.655901907056389
 10
62.4254651574917
 20
8.437893816173252
 10
62.39288614349461
 20
8.224326035378183
 10
62.3594243364079
 20
8.019309594037801
 10
62.32453310028589
 20
7.818747254576011
 10
62.2890342472362
 20
7.626735935922241
 10
62.2530996187768
 20
7.4432656124348
 10
62.2168918645447
 20
7.268326361472499
 10
62.18148230636829
 20
7.105959134582753
 10
62.14620954501328
 20
6.952075729368419
 10
62.1112370118829
 20
6.806656680137923
 10
62.07672621793371
 20
6.669681194431062
 10
62.0428445088752
 20
6.541123896365442
 10
62.0097594994058
 20
6.420957350574012
 10
61.97764649798251
 20
6.309148524246831
 10
61.9466815787689
 20
6.205662035738318
 10
61.917050307261
 20
6.110455463060341
 10
61.88763693997029
 20
6.019538731535909
 10
61.85985035365678
 20
5.936834204232878
 10
61.8324967611548
 20
5.858372705662737
 10
61.8056462858664
 20
5.784140959773217
 10
61.7808553722702
 20
5.71800488264703
 10
61.7568093494113
 20
5.656031687162093
 10
61.7335943804136
 20
5.598196673773891
 10
61.7112966039415
 20
5.544474400073299
 10
61.688342693441
 20
5.491028745159613
 10
61.6663995058166
 20
5.441673393198738
 10
61.6455652923965
 20
5.396376144926612
 10
61.62594182693561
 20
5.355101317705721
 10
61.6057818929457
 20
5.314088042253422
 10
61.6001901638422
 20
5.302960390080943
  0
LWPOLYLINE
  5
10E
330
1E
100
AcDbEntity
  8
1
100
AcDbPolyline
 90
       46
 70
     0
 43
0.0
 10
62.0107572072
 20
4.315013018299898
 10
62.0107516400365
 20
4.315877634576819
 10
62.01055712017289
 20
4.316665585649078
 10
62.0101923702787
 20
4.317383902392352
 10
62.0096761130236
 20
4.318039615682261
 10
62.0090270710771
 20
4.31863975639446
 10
62.00826396710869
 20
4.319191355404599
 10
62.0074055237879
 20
4.319701443588328
 10
62.00647046378438
 20
4.320177051821301
 10
62.0054775097677
 20
4.320625210979152
 10
62.0044453844072
 20
4.321052951937532
 10
62.0023385103336
 20
4.321875302758478
 10
62.00130046580341
 20
4.32228370282359
 10
62.00028598921718
 20
4.322695356099512
 10
61.99929438997139
 20
4.32311018072166
 10
61.99832478337111
 20
4.323528023713278
 10
61.99737628472149
 20
4.323948732097651
 10
61.9964480093279
 20
4.324372152898018
 10
61.9955390724955
 20
4.324798133137651
 10
61.9942099917793
 20
4.325441567809071
 10
61.9929194464177
 20
4.326089900724642
 10
61.9916644505657
 20
4.32674261558786
 10
61.9904420183784
 20
4.327399196102232
 10
61.9892491640111
 20
4.328059125971241
 10
61.9880829016187
 20
4.328721888898392
 10
61.9869402453564
 20
4.32938696858718
 10
61.9854482636005
 20
4.33027645299265
 10
61.9839858625713
 20
4.331167914411091
 10
61.9818322427309
 20
4.33250613634506
 10
61.97507507941879
 20
4.336708090631372
 10
61.9732485756106
 20
4.337793775841792
 10
61.9713891930626
 20
4.33886905549073
 10
61.9694988449233
 20
4.339934453314191
 10
61.9671922468449
 20
4.341200624215939
 10
61.9648471204204
 20
4.34245422471625
 10
61.9624667722529
 20
4.34369615995729
 10
61.9596495943762
 20
4.345131548368192
 10
61.95638350628938
 20
4.346755902545861
 10
61.9526592942097
 20
4.348565351171538
 10
61.94763019640511
 20
4.350953488918761
 10
61.9210140420002
 20
4.36330051432907
 10
61.9106543590442
 20
4.368197706593622
 10
61.8926406878106
 20
4.376812895045
 10
61.84849530282019
 20
4.397752911599921
 10
61.7229535612987
 20
4.455081679450628
 10
61.6000112953623
 20
4.510118709323061
  0
LWPOLYLINE
  5
13E
330
1E
100
AcDbEntity
  8
1
100
AcDbPolyline
 90
        2
 70
     0
 43
0.0
 10
62.9907317327
 20
13.63884780909999
 10
61.6000097425103
 20
13.36615293058299
  0
LWPOLYLINE
  5
142
330
1E
100
AcDbEntity
  8
1
100
AcDbPolyline
 90
       86
 70
     0
 43
0.0
 10
62.4662692723
 20
-8.648920818900087
 10
62.4892569348959
 20
-8.879207104691156
 10
62.5094029669048
 20
-9.104711644023927
 10
62.527209604807
 20
-9.330411839593207
 10
62.54231567300779
 20
-9.551264860516756
 10
62.5548252961587
 20
-9.767241013525675
 10
62.5646134706474
 20
-9.973284557090526
 10
62.57207926713022
 20
-10.17439085751649
 10
62.5771842047977
 20
-10.36550503384739
 10
62.58020900541017
 20
-10.55163187632577
 10
62.5812098525763
 20
-10.72771807281098
 10
62.58040620689889
 20
-10.89374318788357
 10
62.5780126035746
 20
-11.04968953223089
 10
62.57424884750011
 20
-11.19554374073117
 10
62.56912312537622
 20
-11.33632197097961
 10
62.56296426144628
 20
-11.46698650669831
 10
62.555997426723
 20
-11.58753259788291
 10
62.5480862288177
 20
-11.70297835557539
 10
62.5397286031475
 20
-11.80830135737171
 10
62.53069076019697
 20
-11.9085180650581
 10
62.52105493637881
 20
-12.00362328746368
 10
62.51150283643839
 20
-12.08861841023791
 10
62.5016491412332
 20
-12.1685122458972
 10
62.49159307616309
 20
-12.24330718803269
 10
62.48144286926709
 20
-12.31300939606869
 10
62.4713051376464
 20
-12.3776250036236
 10
62.4604305217084
 20
-12.4421208146715
 10
62.4496910694531
 20
-12.50153363220229
 10
62.4392068630896
 20
-12.5558756663781
 10
62.4291065880179
 20
-12.60516453325001
 10
62.4184268286282
 20
-12.6543319546718
 10
62.40828052456921
 20
-12.69846303098367
 10
62.3975902661393
 20
-12.74246543352218
 10
62.3876012306357
 20
-12.78145829280641
 10
62.37711921764379
 20
-12.82032190762331
 10
62.3675123044318
 20
-12.85420692831197
 10
62.35747172279062
 20
-12.8879662549222
 10
62.346969862131
 20
-12.92158643572919
 10
62.3375729753012
 20
-12.95027763666031
 10
62.327783505322
 20
-12.97883683316469
 10
62.3175751972359
 20
-13.00724922904121
 10
62.30872918789088
 20
-13.0308032359925
 10
62.2995539266026
 20
-13.0542320697968
 10
62.2900248820102
 20
-13.0775189119015
 10
62.2801173239132
 20
-13.1006467679462
 10
62.2698065221113
 20
-13.12359864357077
 10
62.26125049525951
 20
-13.14182151724629
 10
62.25240222002319
 20
-13.15990558729867
 10
62.2432407614661
 20
-13.17783254695131
 10
62.23374513815372
 20
-13.1955840354397
 10
62.22389436865171
 20
-13.21314169199941
 10
62.2136674255792
 20
-13.23048707179508
 10
62.20573559497779
 20
-13.24334184330631
 10
62.1975644170658
 20
-13.25604615115041
 10
62.1891398655128
 20
-13.2685827807667
 10
62.18044791398828
 20
-13.2809345175946
 10
62.17147453616179
 20
-13.29308414707351
 10
62.16220570570289
 20
-13.30501445464291
 10
62.1526269013968
 20
-13.3167057584853
 10
62.14272079588178
 20
-13.32812438667301
 10
62.1324690739143
 20
-13.33923174217011
 10
62.12185341915088
 20
-13.3499892224579
 10
62.11085551524821
 20
-13.3603582250179
 10
62.0994570462167
 20
-13.3703001467061
 10
62.0916276508417
 20
-13.3766697040259
 10
62.08361274641649
 20
-13.3828100895706
 10
62.07541258453979
 20
-13.38869982493918
 10
62.0670274168102
 20
-13.3943174317308
 10
62.0584574948264
 20
-13.3996414315445
 10
62.04970307018699
 20
-13.4046503459794
 10
62.0407643944907
 20
-13.4093226966346
 10
62.0316417865001
 20
-13.413637022266
 10
62.02234124969379
 20
-13.41757331377601
 10
62.01287871095729
 20
-13.4211140969764
 10
62.0032710954655
 20
-13.4242421526895
 10
61.99353532839348
 20
-13.42694026173758
 10
61.9836883349164
 20
-13.4291912049432
 10
61.97374704020909
 20
-13.43097776312861
 10
61.9637284432306
 20
-13.43228294664249
 10
61.9536530013628
 20
-13.43310052426708
 10
61.9435460393211
 20
-13.4334394060441
 10
61.933433247743
 20
-13.43330964032311
 10
61.9233403172661
 20
-13.43272127545368
 10
61.9132929385277
 20
-13.4316843597855
 10
61.90331680216559
 20
-13.43020894166801
 10
61.89837329753671
 20
-13.42931182662659
  0
LWPOLYLINE
  5
19A
330
1E
100
AcDbEntity
  8
1
100
AcDbPolyline
 90
        2
 70
     0
 43
0.0
 10
61.8983634782
 20
-13.42930993430001
 10
58.61675567728621
 20
-12.7967372331354
  0
LWPOLYLINE
  5
19E
330
1E
100
AcDbEntity
  8
1
100
AcDbPolyline
 90
        2
 70
     0
 43
0.0
 10
62.0136346548
 20
-4.342390103000075
 10
58.59549301364769
 20
-5.799993467074463
  0
LWPOLYLINE
  5
1A2
330
1E
100
AcDbEntity
  8
1
100
AcDbPolyline
 90
        2
 70
     0
 43
0.0
 10
58.59548381519999
 20
-5.799997389900067
 10
58.3606629400319
 20
-5.900141076837535
  0
LWPOLYLINE
  5
1A6
330
1E
100
AcDbEntity
  8
1
100
AcDbPolyline
 90
        2
 70
     0
 43
0.0
 10
58.3606537416
 20
-5.900144999700056
 10
58.1964053219209
 20
-5.970192425311693
  0
LWPOLYLINE
  5
1AA
330
1E
100
AcDbEntity
  8
1
100
AcDbPolyline
 90
        2
 70
     0
 43
0.0
 10
58.1963961235
 20
-5.970196348200037
 10
57.9120050086018
 20
-6.091482612166987
  0
LWPOLYLINE
  5
1AE
330
1E
100
AcDbEntity
  8
1
100
AcDbPolyline
 90
       32
 70
     0
 43
0.0
 10
62.9936091802
 20
-13.66622489380008
 10
62.9928532581445
 20
-13.66434742188689
 10
62.99122218809451
 20
-13.66306773777919
 10
62.9889678586184
 20
-13.66222486021451
 10
62.98634215828421
 20
-13.6616578079301
 10
62.9822537152381
 20
-13.66097512989631
 10
62.97966618638319
 20
-13.6604783655259
 10
62.9772002670969
 20
-13.65993798776011
 10
62.9748434979259
 20
-13.65935898261789
 10
62.97258341941709
 20
-13.65874633611831
 10
62.9704075721172
 20
-13.65810503428031
 10
62.968303496573
 20
-13.6574400631229
 10
62.9662587333313
 20
-13.65675640866498
 10
62.9632755439817
 20
-13.65570680270649
 10
62.9593892630107
 20
-13.65428847272091
 10
62.9545379828507
 20
-13.65254134967269
 10
62.9515608154985
 20
-13.6515347370873
 10
62.94851932899028
 20
-13.65056467027651
 10
62.94541918686459
 20
-13.64962822206231
 10
62.941204259049
 20
-13.64842684073841
 10
62.9369086635967
 20
-13.6472730354891
 10
62.93254589137418
 20
-13.64615984041759
 10
62.92701851125521
 20
-13.64481484253211
 10
62.91581749573929
 20
-13.64222813325908
 10
62.9012553322476
 20
-13.63892114009291
 10
62.8902067774231
 20
-13.63633883677717
 10
62.8749201976402
 20
-13.63268102454291
 10
62.81418489862879
 20
-13.6182226070064
 10
62.6838402858371
 20
-13.5892445206363
 10
62.4502630078246
 20
-13.53960971360949
 10
62.07443345020131
 20
-13.46363002262759
 10
61.8983722118823
 20
-13.4293116175368
  0
LWPOLYLINE
  5
1D0
330
1E
100
AcDbEntity
  8
1
100
AcDbPolyline
 90
        2
 70
     0
 43
0.0
 10
57.42933460799999
 20
-6.282658066200045
 10
57.9119865095799
 20
-6.091490209125974
  0
LWPOLYLINE
  5
1D4
330
1E
100
AcDbEntity
  8
1
100
AcDbPolyline
 90
        2
 70
     0
 43
0.0
 10
58.6167458581
 20
-12.7967353401
 10
58.10491793813429
 20
-12.71031196699681
  0
LWPOLYLINE
  5
1D8
330
1E
100
AcDbEntity
  8
1
100
AcDbPolyline
 90
       77
 70
     0
 43
0.0
 10
62.50218319369998
 20
-146.1715015470999
 10
62.48963796470487
 20
-146.173692386197
 10
62.47818102530348
 20
-146.1796455268139
 10
62.46775187509886
 20
-146.1884319039388
 10
62.45829001369425
 20
-146.1991224525639
 10
62.44973494069288
 20
-146.210788107677
 10
62.44202322244147
 20
-146.222639830322
 10
62.43507837909357
 20
-146.2345113730289
 10
62.42882030503206
 20
-146.246409573211
 10
62.42316889449597
 20
-146.2583412751629
 10
62.41804404172419
 20
-146.270313323181
 10
62.41336564095558
 20
-146.282332561561
 10
62.40905358642908
 20
-146.294405834598
 10
62.40309717249076
 20
-146.3126320310309
 10
62.39569330610707
 20
-146.337186104789
 10
62.38680352287246
 20
-146.368300793131
 10
62.37662129427988
 20
-146.4061565734098
 10
62.36698441596747
 20
-146.4444411464039
 10
62.35790951316029
 20
-146.4830100181869
 10
62.34941321108338
 20
-146.521718694832
 10
62.34150063742107
 20
-146.560445819391
 10
62.33412610615456
 20
-146.5991722894379
 10
62.32612284046497
 20
-146.6443645338289
 10
62.31765180533685
 20
-146.6960455652539
 10
62.30786898289327
 20
-146.7607277119709
 10
62.29522246389218
 20
-146.8514986956799
 10
62.28275890920169
 20
-146.9490168065748
 10
62.27060648947237
 20
-147.053245586422
 10
62.25821917950447
 20
-147.170640323747
 10
62.24587834063369
 20
-147.3011667750619
 10
62.23277083271868
 20
-147.45791613641
 10
62.21941158217896
 20
-147.6409510177379
 10
62.20635177513948
 20
-147.8503056461248
 10
62.19446715155598
 20
-148.0794237397909
 10
62.18386680029485
 20
-148.33484072636
 10
62.17508494551958
 20
-148.6165600175976
 10
62.16880975773178
 20
-148.9180173816
 10
62.16551306354547
 20
-149.232631357541
 10
62.16547895978878
 20
-149.553816986576
 10
62.16870765474967
 20
-149.8684316453958
 10
62.17491495115177
 20
-150.169890425094
 10
62.18362914646948
 20
-150.451611883388
 10
62.19416169041878
 20
-150.7070315841829
 10
62.20635177513318
 20
-150.9426974480819
 10
62.21941158217028
 20
-151.152052076469
 10
62.23277083271296
 20
-151.335086957796
 10
62.24587834063418
 20
-151.491836319144
 10
62.25821917950668
 20
-151.6223627704579
 10
62.27060648946917
 20
-151.7397575077849
 10
62.28275890919057
 20
-151.8439862876329
 10
62.29522246387706
 20
-151.941504398529
 10
62.30786898288249
 20
-152.032275382236
 10
62.31765180533358
 20
-152.096957528951
 10
62.32612284046727
 20
-152.1486385603749
 10
62.33412610615958
 20
-152.1938308047649
 10
62.34150063742577
 20
-152.232557274813
 10
62.34941321108415
 20
-152.271284399373
 10
62.35790951315369
 20
-152.3099930760209
 10
62.36698441595159
 20
-152.348561947807
 10
62.37662129425586
 20
-152.386846520804
 10
62.38680352284426
 20
-152.424702301084
 10
62.39569330608016
 20
-152.455816989426
 10
62.4030971724686
 20
-152.4803710631809
 10
62.40905358641146
 20
-152.498597259613
 10
62.41336564094118
 20
-152.5106705326479
 10
62.41804404171299
 20
-152.5226897710259
 10
62.42316889448778
 20
-152.5346618190418
 10
62.42882030502657
 20
-152.546593520993
 10
62.43507837909047
 20
-152.5584917211729
 10
62.44202322244028
 20
-152.5703632638789
 10
62.44973494069288
 20
-152.5822149865229
 10
62.45829001369486
 20
-152.5938806416349
 10
62.46775187509946
 20
-152.60457119026
 10
62.47818102530377
 20
-152.613357567386
 10
62.48963796470487
 20
-152.619310708003
 10
62.50218319369985
 20
-152.6215015470999
 10
62.50217319403418
 20
-152.6215015457349
  0
LWPOLYLINE
  5
227
330
1E
100
AcDbEntity
  8
1
100
AcDbPolyline
 90
        2
 70
     0
 43
0.0
 10
62.99360918019996
 20
-155.815334076
 10
62.99073176117548
 20
-143.89810255636
  0
LWPOLYLINE
  5
22B
330
1E
100
AcDbEntity
  8
1
100
AcDbPolyline
 90
       54
 70
     0
 43
0.0
 10
62.53809711509997
 20
-142.9776690182
 10
62.53051456922887
 20
-142.962482943291
 10
62.52214511881969
 20
-142.9462297434479
 10
62.51356947625159
 20
-142.9300823664609
 10
62.50479274456319
 20
-142.9140418840009
 10
62.49517175374258
 20
-142.896975490539
 10
62.48533205541428
 20
-142.880034355976
 10
62.47460229459457
 20
-142.86210330433
 10
62.46363704348008
 20
-142.8443169881649
 10
62.4524417142911
 20
-142.826675628219
 10
62.44030061148069
 20
-142.8080907453899
 10
62.42791232791588
 20
-142.7896699898409
 10
62.41528332193869
 20
-142.7714136138699
 10
62.40165568375759
 20
-142.752262910114
 10
62.38777114856628
 20
-142.73329752726
 10
62.37284341833518
 20
-142.7134802681869
 10
62.35764369282827
 20
-142.6938709562666
 10
62.34135798704087
 20
-142.6734550475606
 10
62.32478601455827
 20
-142.653271213936
 10
62.30793454299629
 20
-142.633320278255
 10
62.28994709114358
 20
-142.612623352539
 10
62.27166658832327
 20
-142.5921851073979
 10
62.25220857304968
 20
-142.571052419457
 10
62.23244369026961
 20
-142.550206510258
 10
62.21146030018639
 20
-142.5287213366669
 10
62.19015734332058
 20
-142.5075532396799
 10
62.16854188427839
 20
-142.486704451695
 10
62.14662094768549
 20
-142.46617722087
 10
62.12440118616789
 20
-142.4459740225199
 10
62.10188862056149
 20
-142.426097717758
 10
62.08008637162109
 20
-142.4073941576688
 10
62.05802668068328
 20
-142.3889950655739
 10
62.03571410362119
 20
-142.370903574964
 10
62.01315313899877
 20
-142.353122871326
 10
61.99034814797538
 20
-142.3356563263969
 10
61.96835579375658
 20
-142.319280310132
 10
61.94614819045538
 20
-142.30319745402
 10
61.92372870235637
 20
-142.287411332493
 10
61.90110047279961
 20
-142.271925992359
 10
61.87935855013487
 20
-142.2574614666249
 10
61.85743274536467
 20
-142.2432772183809
 10
61.83532555448167
 20
-142.229377420605
 10
61.81415796230928
 20
-142.216439968342
 10
61.79283100719437
 20
-142.203766848161
 10
61.77134677576997
 20
-142.191362298964
 10
61.7497073483982
 20
-142.1792306835468
 10
61.72906554611301
 20
-142.167993354764
 10
61.70828793743099
 20
-142.1570091159949
 10
61.68737611374217
 20
-142.1462822625539
 10
61.66633170154607
 20
-142.135817139923
 10
61.64633652386427
 20
-142.1261781901788
 10
61.6262268774381
 20
-142.1167816187839
 10
61.6060047124133
 20
-142.1076319343949
 10
61.60004495241298
 20
-142.104992507594
  0
LWPOLYLINE
  5
263
330
1E
100
AcDbEntity
  8
1
100
AcDbPolyline
 90
        8
 70
     0
 43
0.0
 10
61.96351537119997
 20
-156.8153340743
 10
61.95347639931078
 20
-156.8152834014699
 10
61.94324185650278
 20
-156.8151283928509
 10
61.93287840324568
 20
-156.8148666262288
 10
61.92238762770777
 20
-156.8144957506619
 10
61.91170612109726
 20
-156.814010201315
 10
61.90083584241018
 20
-156.813405811613
 10
61.89837345844185
 20
-156.8132536085219
  0
LWPOLYLINE
  5
26D
330
1E
100
AcDbEntity
  8
1
100
AcDbPolyline
 90
        2
 70
     0
 43
0.0
 10
61.89836347819998
 20
-156.8132529801999
 10
58.61675583833118
 20
-156.606620630379
  0
LWPOLYLINE
  5
271
330
1E
100
AcDbEntity
  8
1
100
AcDbPolyline
 90
        2
 70
     0
 43
0.0
 10
58.61674585809996
 20
-156.6066200019
 10
58.10491495301608
 20
-156.065815270843
  0
LWPOLYLINE
  5
275
330
1E
100
AcDbEntity
  8
1
100
AcDbPolyline
 90
      118
 70
     0
 43
0.0
 10
62.99360918019996
 20
-155.815334076
 10
62.99349556110207
 20
-155.828067861883
 10
62.99321504736308
 20
-155.840802069645
 10
62.99276783908678
 20
-155.8535341292869
 10
62.99215413637697
 20
-155.866261470814
 10
62.99137413933737
 20
-155.8789815242269
 10
62.99042804807207
 20
-155.8916917195309
 10
62.98931606268457
 20
-155.904389486727
 10
62.98803838327897
 20
-155.917072255818
 10
62.98659520995887
 20
-155.929737456808
 10
62.98498674282829
 20
-155.9423825197
 10
62.98321318224488
 20
-155.9550048749239
 10
62.98127481803547
 20
-155.96760210353
 10
62.97917216086275
 20
-155.980172158348
 10
62.97690575486186
 20
-155.9927130485548
 10
62.97447614416788
 20
-156.0052227833299
 10
62.97188387291598
 20
-156.0176993718519
 10
62.96912948524127
 20
-156.030140823299
 10
62.96621352527917
 20
-156.0425451468496
 10
62.96313653716457
 20
-156.0549103516839
 10
62.95989906503268
 20
-156.067234446979
 10
62.95650165301868
 20
-156.079515441914
 10
62.95294484692385
 20
-156.091751345685
 10
62.9492293052731
 20
-156.103940168734
 10
62.94535586907547
 20
-156.116079923514
 10
62.94132539598119
 20
-156.128168622662
 10
62.93713874364016
 20
-156.1402042788158
 10
62.93279676970278
 20
-156.152184904613
 10
62.92830033181898
 20
-156.164108512689
 10
62.92365028763897
 20
-156.175973115683
 10
62.91884749481297
 20
-156.1877767262309
 10
62.91389281099108
 20
-156.199517356971
 10
62.90878709382327
 20
-156.2111930205399
 10
62.90353120629998
 20
-156.2228017339589
 10
62.89812613861728
 20
-156.234341618667
 10
62.89257301066077
 20
-156.245810902557
 10
62.88687294815296
 20
-156.257207818317
 10
62.88028614678228
 20
-156.2699406455036
 10
62.87351640894797
 20
-156.2825771286686
 10
62.86656533748567
 20
-156.295114751461
 10
62.85943453523046
 20
-156.3075509975289
 10
62.85212560501797
 20
-156.3198833505229
 10
62.84464014968346
 20
-156.3321092940899
 10
62.83697977924178
 20
-156.3442263186269
 10
62.82914625542608
 20
-156.3562320570729
 10
62.82114148459285
 20
-156.3681242782509
 10
62.81296737885778
 20
-156.379900756394
 10
62.80462585033667
 20
-156.391559265733
 10
62.79611881114519
 20
-156.4030975805009
 10
62.78744817339917
 20
-156.414513474932
 10
62.77762458227545
 20
-156.4270515155159
 10
62.76760400119409
 20
-156.439432618841
 10
62.75738905413728
 20
-156.451653733173
 10
62.74698247236647
 20
-156.4637119539838
 10
62.73638718548367
 20
-156.475604648911
 10
62.72560614454096
 20
-156.487329215021
 10
62.71464230059048
 20
-156.498883049385
 10
62.70349860468439
 20
-156.510263549071
 10
62.69217800787488
 20
-156.5214681111489
 10
62.68068346121398
 20
-156.5324941326879
 10
62.66901791575397
 20
-156.5433390107569
 10
62.65718433458308
 20
-156.554000164286
 10
62.64518582277909
 20
-156.564475270099
 10
62.63302557801658
 20
-156.574762173204
 10
62.62070679955918
 20
-156.5848587214919
 10
62.60823268667017
 20
-156.5947627628569
 10
62.59560643861288
 20
-156.6044721451889
 10
62.58283125465077
 20
-156.6139847163829
 10
62.57120889307736
 20
-156.6223759782169
 10
62.55947081708748
 20
-156.6306045109339
 10
62.54761936911748
 20
-156.6386687729218
 10
62.53565696843736
 20
-156.646567428546
 10
62.52358606940747
 20
-156.654299236245
 10
62.51140912656826
 20
-156.6618629549379
 10
62.49912859446006
 20
-156.6692573435449
 10
62.48674692762347
 20
-156.676481160987
 10
62.47426658059877
 20
-156.683533166185
 10
62.46169000792646
 20
-156.6904121180579
 10
62.44901966414698
 20
-156.697116775528
 10
62.43625800385135
 20
-156.703645897666
 10
62.42340750724967
 20
-156.7099983211909
 10
62.41047072172957
 20
-156.7161730864089
 10
62.39745020555607
 20
-156.7221692665938
 10
62.38434851699406
 20
-156.727985935019
 10
62.37116821430856
 20
-156.733622164957
 10
62.35791185576457
 20
-156.7390770296819
 10
62.34458199962697
 20
-156.744349602466
 10
62.33118120416087
 20
-156.7494389565818
 10
62.31921190009996
 20
-156.753808264528
 10
62.30719036328187
 20
-156.758031424789
 10
62.29511838798821
 20
-156.7621078601199
 10
62.28299776410146
 20
-156.766037124423
 10
62.27083028104448
 20
-156.7698187853179
 10
62.25861772823959
 20
-156.7734524104239
 10
62.24636189510947
 20
-156.776937567362
 10
62.23406457107646
 20
-156.7802738237529
 10
62.22172754556336
 20
-156.783460747216
 10
62.20935260799246
 20
-156.786497905371
 10
62.19694154778636
 20
-156.7893848658389
 10
62.18449615436778
 20
-156.7921211962399
 10
62.17201821874927
 20
-156.7947064657109
 10
62.15950960955435
 20
-156.797140317422
 10
62.14697230644507
 20
-156.799422500465
 10
62.13440829762927
 20
-156.801552772083
 10
62.12181957131516
 20
-156.8035308895179
 10
62.10920811571088
 20
-156.805356610014
 10
62.09657591902438
 20
-156.807029690814
 10
62.08392496946398
 20
-156.808549889162
 10
62.07125725523757
 20
-156.8099169623
 10
62.05857476455328
 20
-156.811130667472
 10
62.04587948561925
 20
-156.8121907619199
 10
62.03317340441728
 20
-156.8130970065318
 10
62.02045842422737
 20
-156.8138492975158
 10
62.00773634307289
 20
-156.8144477033129
 10
61.99500895215738
 20
-156.8148923035218
 10
61.98227804268408
 20
-156.8151831777439
 10
61.96954540585648
 20
-156.8153204055759
 10
61.96478058729997
 20
-156.815332268015
  0
LWPOLYLINE
  5
2ED
330
1E
100
AcDbEntity
  8
1
100
AcDbPolyline
 90
        2
 70
     0
 43
0.0
 10
62.01363465479996
 20
-154.8949105378999
 10
62.01075718355617
 20
-142.9776790181719
  0
LWPOLYLINE
  5
2F1
330
1E
100
AcDbEntity
  8
1
100
AcDbPolyline
 90
       77
 70
     0
 43
0.0
 10
62.50218319369998
 20
-152.6215015470999
 10
62.51472842269457
 20
-152.619310708003
 10
62.52618536209467
 20
-152.613357567386
 10
62.53661451229827
 20
-152.604571190259
 10
62.54607637370319
 20
-152.5938806416339
 10
62.55463144670738
 20
-152.582214986522
 10
62.56234316496458
 20
-152.57036326388
 10
62.56928800832118
 20
-152.558491721177
 10
62.57554608239346
 20
-152.546593521
 10
62.58119749294218
 20
-152.534661819053
 10
62.58632234572758
 20
-152.5226897710408
 10
62.59100074651039
 20
-152.510670532667
 10
62.59531280105107
 20
-152.4985972596368
 10
62.60126921500916
 20
-152.480371063212
 10
62.60867308141357
 20
-152.4558169894629
 10
62.61756286466119
 20
-152.4247023011259
 10
62.62774509325377
 20
-152.386846520847
 10
62.63738197155507
 20
-152.3485619478489
 10
62.64645687434626
 20
-152.3099930760588
 10
62.65495317640858
 20
-152.271284399408
 10
62.66286575006247
 20
-152.2325572748449
 10
62.67024028132677
 20
-152.193830804796
 10
62.67824354701946
 20
-152.148638560405
 10
62.68671458215578
 20
-152.096957528982
 10
62.69649740461137
 20
-152.032275382267
 10
62.70914392362097
 20
-151.94150439856
 10
62.72160747830838
 20
-151.843986287664
 10
62.73375989802868
 20
-151.739757507814
 10
62.74614720798986
 20
-151.622362770485
 10
62.75848804686257
 20
-151.4918363191688
 10
62.77159555478488
 20
-151.3350869578198
 10
62.78495480532846
 20
-151.1520520764898
 10
62.79801461236576
 20
-150.942697448101
 10
62.80989923594678
 20
-150.7135793544319
 10
62.82049958720776
 20
-150.45816236786
 10
62.82928144198277
 20
-150.1764430766179
 10
62.83555662976947
 20
-149.874985712613
 10
62.83885332395485
 20
-149.560371736668
 10
62.83888742771067
 20
-149.239186107628
 10
62.83565873274877
 20
-148.924571448805
 10
62.82945143634528
 20
-148.623112669103
 10
62.82073724102676
 20
-148.341391210806
 10
62.81020469707666
 20
-148.0859715100069
 10
62.79801461235948
 20
-147.8503056461059
 10
62.78495480531976
 20
-147.6409510177169
 10
62.77159555477928
 20
-147.457916136387
 10
62.75848804686319
 20
-147.301166775037
 10
62.74614720799218
 20
-147.1706403237209
 10
62.73375989802548
 20
-147.0532455863929
 10
62.72160747829728
 20
-146.949016806544
 10
62.70914392360587
 20
-146.8514986956479
 10
62.69649740460057
 20
-146.7607277119398
 10
62.68671458215248
 20
-146.696045565224
 10
62.67824354702177
 20
-146.644364533799
 10
62.67024028133189
 20
-146.5991722894079
 10
62.66286575006729
 20
-146.5604458193588
 10
62.65495317640958
 20
-146.5217186947979
 10
62.64645687433958
 20
-146.483010018149
 10
62.63738197153917
 20
-146.444441146362
 10
62.62774509322987
 20
-146.4061565733659
 10
62.61756286463295
 20
-146.368300793089
 10
62.60867308138678
 20
-146.3371861047519
 10
62.60126921498718
 20
-146.3126320310009
 10
62.59531280103345
 20
-146.294405834574
 10
62.59100074649598
 20
-146.282332561541
 10
62.58632234571636
 20
-146.2703133231659
 10
62.58119749293395
 20
-146.258341275152
 10
62.57554608238809
 20
-146.246409573204
 10
62.56928800831818
 20
-146.2345113730249
 10
62.56234316496338
 20
-146.222639830321
 10
62.55463144670748
 20
-146.2107881076778
 10
62.54607637370398
 20
-146.199122452566
 10
62.53661451229906
 20
-146.1884319039409
 10
62.52618536209518
 20
-146.1796455268139
 10
62.51472842269476
 20
-146.173692386197
 10
62.50218319369998
 20
-146.1715015470999
 10
62.50219319336578
 20
-146.1715015484648
  0
LWPOLYLINE
  5
340
330
1E
100
AcDbEntity
  8
1
100
AcDbPolyline
 90
       61
 70
     0
 43
0.0
 10
62.42915953759997
 20
-152.5405692404999
 10
62.43443780229638
 20
-152.529072677099
 10
62.43931808705228
 20
-152.5174050207368
 10
62.44384843388058
 20
-152.505589482639
 10
62.44807688479376
 20
-152.493649274031
 10
62.45395859822628
 20
-152.475555978464
 10
62.45943128217218
 20
-152.457312737387
 10
62.46804962145326
 20
-152.426770011055
 10
62.47624791698267
 20
-152.3961519115329
 10
62.48556231627727
 20
-152.359315343545
 10
62.49433365190607
 20
-152.3223768745349
 10
62.50259166369636
 20
-152.285338167
 10
62.51036609147586
 20
-152.248200883435
 10
62.51886514523938
 20
-152.2047523007159
 10
62.52679964518659
 20
-152.161183474254
 10
62.53524855161628
 20
-152.1112642922659
 10
62.54406476194136
 20
-152.054973643721
 10
62.55401833839408
 20
-151.9860340715958
 10
62.56649678847478
 20
-151.891882999251
 10
62.57870490063768
 20
-151.791347868235
 10
62.59121046946757
 20
-151.678125459188
 10
62.60374461297257
 20
-151.552184793955
 10
62.61660459661968
 20
-151.4071953873228
 10
62.62939020122407
 20
-151.243136061965
 10
62.64258649069645
 20
-151.0473792373689
 10
62.65517014005489
 20
-150.8262293670959
 10
62.66660629050308
 20
-150.579673512613
 10
62.67637651105097
 20
-150.307710720983
 10
62.68381800194436
 20
-150.016681075349
 10
62.68854722893188
 20
-149.706607446437
 10
62.69011070717296
 20
-149.3901727476959
 10
62.68841686463606
 20
-149.0737387225659
 10
62.68355591266818
 20
-148.76366712638
 10
62.67598439899319
 20
-148.4726407536579
 10
62.66634462606637
 20
-148.207006201832
 10
62.65484240302217
 20
-147.9604534538109
 10
62.64219202748077
 20
-147.7393072391699
 10
62.62892949744577
 20
-147.5435545827449
 10
62.61607736313367
 20
-147.379500774895
 10
62.60314915779918
 20
-147.2345180243699
 10
62.59054758891156
 20
-147.1085843141449
 10
62.57797315007138
 20
-146.995368749843
 10
62.56569726498018
 20
-146.894840159896
 10
62.55314562000766
 20
-146.8006969505259
 10
62.54311769470207
 20
-146.73176907884
 10
62.53422586896608
 20
-146.6754923245499
 10
62.52569857830408
 20
-146.625588757895
 10
62.51768686784526
 20
-146.582036115531
 10
62.50910267361097
 20
-146.538605888505
 10
62.50124971376528
 20
-146.501484918826
 10
62.49290821327157
 20
-146.464462802259
 10
62.48404843230188
 20
-146.427541201301
 10
62.47464063102775
 20
-146.3907217784468
 10
62.46636071419406
 20
-146.360118178198
 10
62.45764249315868
 20
-146.3295974515139
 10
62.45205148180548
 20
-146.311395488064
 10
62.4459973937011
 20
-146.293369582753
 10
62.44162400008178
 20
-146.281488807996
 10
62.43692468954119
 20
-146.269744309363
 10
62.43185142006659
 20
-146.2581592980789
 10
62.42916387741308
 20
-146.252442862912
  0
LWPOLYLINE
  5
37F
330
1E
100
AcDbEntity
  8
1
100
AcDbPolyline
 90
      141
 70
     0
 43
0.0
 10
62.46626927229995
 20
-155.815334076
 10
62.47384445432921
 20
-155.8309854116309
 10
62.48122090673458
 20
-155.846734172709
 10
62.48784857009319
 20
-155.861356694558
 10
62.49429746138127
 20
-155.8760598265959
 10
62.50056304924521
 20
-155.8908424152839
 10
62.50664080233137
 20
-155.9057033070809
 10
62.51204319826485
 20
-155.91939359313
 10
62.51728034304566
 20
-155.933147798991
 10
62.52234811434128
 20
-155.9469649373538
 10
62.52724225305897
 20
-155.960843999535
 10
62.53153721326577
 20
-155.9735142155529
 10
62.53568195564118
 20
-155.9862340168139
 10
62.53967328026456
 20
-155.9990026454778
 10
62.54350798721547
 20
-156.011819343705
 10
62.54718281605136
 20
-156.0246832990309
 10
62.55069399304488
 20
-156.0375932357288
 10
62.55371079728575
 20
-156.049250245531
 10
62.55658883621958
 20
-156.060942176292
 10
62.55932516878118
 20
-156.072667926509
 10
62.56191685390525
 20
-156.0844263946778
 10
62.56436095052688
 20
-156.096216479296
 10
62.56665450530608
 20
-156.108037063456
 10
62.56856424890425
 20
-156.1185686957449
 10
62.57035007405498
 20
-156.1291220517199
 10
62.57200954078758
 20
-156.1396958880179
 10
62.57354020913126
 20
-156.150288961276
 10
62.57493963911509
 20
-156.1609000281299
 10
62.57620539076828
 20
-156.1715278452169
 10
62.57733502410335
 20
-156.1821711691349
 10
62.57832603993868
 20
-156.1928286226619
 10
62.57917574694427
 20
-156.203498394179
 10
62.57980117683627
 20
-156.2128430555179
 10
62.58031449775457
 20
-156.222194420849
 10
62.58071388064546
 20
-156.231551217584
 10
62.58099749645518
 20
-156.2409121731399
 10
62.58116351612977
 20
-156.2502760149278
 10
62.58121010846357
 20
-156.2596414522579
 10
62.58113540859757
 20
-156.2690069113279
 10
62.58093752500375
 20
-156.2783705939779
 10
62.58061456542277
 20
-156.287730695893
 10
62.58016463759487
 20
-156.2970854127569
 10
62.57958584926058
 20
-156.3064329402569
 10
62.57898574816427
 20
-156.314438016835
 10
62.57828839234896
 20
-156.322435348855
 10
62.57749261580827
 20
-156.3304236890969
 10
62.57659730528168
 20
-156.338401561885
 10
62.57560135405707
 20
-156.346367463175
 10
62.57450365542226
 20
-156.354319888926
 10
62.57330310266528
 20
-156.3622573350959
 10
62.57199858907397
 20
-156.370178297642
 10
62.57058900793627
 20
-156.378081272521
 10
62.56907326015467
 20
-156.385964744786
 10
62.56745037386227
 20
-156.39382701724
 10
62.56571948241177
 20
-156.401666241974
 10
62.56387972231838
 20
-156.4094805665449
 10
62.56193023009758
 20
-156.4172681385128
 10
62.55987014226467
 20
-156.4250271054349
 10
62.55769859533508
 20
-156.432755614871
 10
62.55541473161525
 20
-156.440451810646
 10
62.55301787314866
 20
-156.4481137206939
 10
62.55050755214477
 20
-156.455739237441
 10
62.54788331273678
 20
-156.4633262456259
 10
62.54514469905817
 20
-156.4708726299859
 10
62.54229125524215
 20
-156.478376275259
 10
62.53932252542227
 20
-156.485835066183
 10
62.53623808775017
 20
-156.4932468804389
 10
62.53303784509918
 20
-156.500609528353
 10
62.52972188050645
 20
-156.50792078288
 10
62.52629027893206
 20
-156.515178416575
 10
62.52274312533609
 20
-156.522380201994
 10
62.51908050467836
 20
-156.5295239116928
 10
62.51530250532038
 20
-156.5366073186849
 10
62.51140943591306
 20
-156.543628225565
 10
62.50740195622245
 20
-156.550584482083
 10
62.50328075737678
 20
-156.5574739421979
 10
62.49904653050377
 20
-156.564294459871
 10
62.49469996673178
 20
-156.571043889062
 10
62.49024175754488
 20
-156.577720083902
 10
62.48567274226669
 20
-156.584320969255
 10
62.48099413572256
 20
-156.590844649648
 10
62.47620721146867
 20
-156.5972892577059
 10
62.47131324306119
 20
-156.603652926054
 10
62.46631350405618
 20
-156.609933787318
 10
62.46120926822309
 20
-156.616129974321
 10
62.45600192518389
 20
-156.6222397267148
 10
62.45069317172368
 20
-156.6282615673929
 10
62.44528475495958
 20
-156.6341940656629
 10
62.43977842200869
 20
-156.6400357908289
 10
62.43323294255606
 20
-156.6467345010449
 10
62.42655934870768
 20
-156.653305453508
 10
62.41976064479446
 20
-156.6597467697198
 10
62.41383606927428
 20
-156.6651636106259
 10
62.40782401723318
 20
-156.670483230304
 10
62.40172654267578
 20
-156.6757047230208
 10
62.39554569960638
 20
-156.6808271830439
 10
62.38928355182626
 20
-156.685849747569
 10
62.38294223940838
 20
-156.690771888001
 10
62.37652393818488
 20
-156.695593232438
 10
62.37003082419326
 20
-156.700313409877
 10
62.36346507347118
 20
-156.7049320493159
 10
62.35682886205588
 20
-156.7094487797489
 10
62.35012436208558
 20
-156.7138632700268
 10
62.34335371627189
 20
-156.7181754897069
 10
62.33651905389698
 20
-156.7223855455939
 10
62.32962250417418
 20
-156.726493545192
 10
62.32266619631658
 20
-156.730499596007
 10
62.31565225953777
 20
-156.7344038055418
 10
62.30858281498347
 20
-156.7382062987229
 10
62.30145988444577
 20
-156.7419074149898
 10
62.29428542286986
 20
-156.7455076381198
 10
62.28706138395676
 20
-156.749007454572
 10
62.27978972140746
 20
-156.7524073508089
 10
62.27247238892275
 20
-156.755707813292
 10
62.26511133937708
 20
-156.758909329305
 10
62.25770844033638
 20
-156.7620124712228
 10
62.25026540105417
 20
-156.7650179693249
 10
62.24278391358268
 20
-156.7679265710459
 10
62.23400917466868
 20
-156.7711984706189
 10
62.22518709348457
 20
-156.774340687693
 10
62.21632035694469
 20
-156.7773544091689
 10
62.20741156999448
 20
-156.780240863796
 10
62.19846303849077
 20
-156.7830014330179
 10
62.18947700009238
 20
-156.7856375330969
 10
62.18045569245806
 20
-156.788150580294
 10
62.17140135324668
 20
-156.7905419908699
 10
62.16231622011717
 20
-156.7928131810869
 10
62.15320247279358
 20
-156.7949655754709
 10
62.14406194545138
 20
-156.797000647846
 10
62.13489634468857
 20
-156.798919890235
 10
62.12570737690068
 20
-156.800724794692
 10
62.11649674848298
 20
-156.8024168532689
 10
62.10726616583057
 20
-156.803997558018
 10
62.09669468220337
 20
-156.805669639634
 10
62.08610180360138
 20
-156.807200421501
 10
62.07548979865448
 20
-156.808592043256
 10
62.06486092013608
 20
-156.8098466395509
 10
62.05421742081957
 20
-156.8109663450389
 10
62.04356155347827
 20
-156.81195329437
 10
62.03289556955078
 20
-156.812809622248
 10
62.02623491963756
 20
-156.813278788405
  0
LWPOLYLINE
  5
40E
330
1E
100
AcDbEntity
  8
1
100
AcDbPolyline
 90
        8
 70
     0
 43
0.0
 10
62.02622494179998
 20
-156.8132794537999
 10
62.01708094557687
 20
-156.813842574829
 10
62.00780546212498
 20
-156.8143195661839
 10
61.99839964705797
 20
-156.814707896891
 10
61.9888647668611
 20
-156.8150050895699
 10
61.97920220272687
 20
-156.8152087239699
 10
61.96935070726374
 20
-156.815316814259
 10
61.96352537119958
 20
-156.815334074236
  0
LWPOLYLINE
  5
418
330
1E
100
AcDbEntity
  8
1
100
AcDbPolyline
 90
       75
 70
     0
 43
0.0
 10
62.01075720719996
 20
-142.9776690182
 10
62.01072127619038
 20
-142.9662428483888
 10
62.01055949383539
 20
-142.954815603557
 10
62.01027191612419
 20
-142.9433889223149
 10
62.00985859904627
 20
-142.9319644432769
 10
62.00931959859087
 20
-142.920543805056
 10
62.00865497074729
 20
-142.909128646264
 10
62.00786477150487
 20
-142.8977206055149
 10
62.00694905685319
 20
-142.886321321421
 10
62.00590788278128
 20
-142.8749324325949
 10
62.00474130527858
 20
-142.86355557765
 10
62.00344938033449
 20
-142.8521923951989
 10
62.00203216393828
 20
-142.840844523854
 10
62.0004897315464
 20
-142.829513559339
 10
61.99882225425488
 20
-142.818200886657
 10
61.99702993248259
 20
-142.806907826208
 10
61.99494759949208
 20
-142.7946973406539
 10
61.99271923767888
 20
-142.7825131006018
 10
61.99034510186749
 20
-142.770356784802
 10
61.98782544688228
 20
-142.758230072005
 10
61.98516052754789
 20
-142.746134640962
 10
61.98235059868878
 20
-142.734072170424
 10
61.97939591512962
 20
-142.722044339141
 10
61.97629673169458
 20
-142.7100528258639
 10
61.97305330992421
 20
-142.698099313003
 10
61.96966601666458
 20
-142.6861855403388
 10
61.96613530236469
 20
-142.674313293201
 10
61.96246161977587
 20
-142.662484358171
 10
61.95864542164938
 20
-142.650700521835
 10
61.95468716073659
 20
-142.638963570773
 10
61.95058728978878
 20
-142.627275291571
 10
61.94634626155719
 20
-142.615637470811
 10
61.94196452879328
 20
-142.6040518950768
 10
61.93744254424828
 20
-142.592520350951
 10
61.9327807606735
 20
-142.5810446250166
 10
61.92797963660228
 20
-142.5696265023889
 10
61.92303973639297
 20
-142.5582677412769
 10
61.91796171703028
 20
-142.546970076343
 10
61.91274623862721
 20
-142.5357352414569
 10
61.90739396129647
 20
-142.524564970484
 10
61.90190554515098
 20
-142.513460997294
 10
61.89628165030338
 20
-142.502425055755
 10
61.89052293686668
 20
-142.491458879732
 10
61.88417122918328
 20
-142.4797291622788
 10
61.87766475388571
 20
-142.4680845327499
 10
61.87100433543911
 20
-142.456527156703
 10
61.86419083384388
 20
-142.445059197359
 10
61.85722531913667
 20
-142.4336828041159
 10
61.85010893824378
 20
-142.422400121311
 10
61.84284283820709
 20
-142.411213293276
 10
61.83542816606818
 20
-142.4001244643399
 10
61.82786606886878
 20
-142.389135778833
 10
61.82015769365047
 20
-142.3782493810859
 10
61.81230418745522
 20
-142.3674674154289
 10
61.8037299687463
 20
-142.356033633225
 10
61.79499187316761
 20
-142.344724833834
 10
61.78609134906369
 20
-142.3335436163779
 10
61.77702999964948
 20
-142.322492421905
 10
61.76780946807869
 20
-142.311573650697
 10
61.75843139750497
 20
-142.3007897030369
 10
61.74889743108218
 20
-142.2901429792069
 10
61.73920921196377
 20
-142.2796358794909
 10
61.72870694218977
 20
-142.268584907697
 10
61.7180330308505
 20
-142.2576984411589
 10
61.70718947212609
 20
-142.24697939293
 10
61.69617840770339
 20
-142.23643070871
 10
61.68570598903578
 20
-142.2266988121859
 10
61.67509151024319
 20
-142.217122001055
 10
61.66433757517069
 20
-142.2077028882199
 10
61.65344678766318
 20
-142.1984440865849
 10
61.64242175156588
 20
-142.1893482090538
 10
61.63201289285549
 20
-142.1810080221399
 10
61.62149147396778
 20
-142.1728141607399
 10
61.61085961192509
 20
-142.164768749243
 10
61.60012737223937
 20
-142.1568796383908
  0
LWPOLYLINE
  5
465
330
1E
100
AcDbEntity
  8
1
100
AcDbPolyline
 90
        2
 70
     0
 43
0.0
 10
62.01363465479996
 20
-154.8949105378999
 10
61.44332301821297
 20
-154.9336460990488
  0
LWPOLYLINE
  5
469
330
1E
100
AcDbEntity
  8
1
100
AcDbPolyline
 90
        2
 70
     0
 43
0.0
 10
62.99360918020003
 20
155.815334076
 10
62.99073176117548
 20
143.8981025563589
  0
LWPOLYLINE
  5
46D
330
1E
100
AcDbEntity
  8
1
100
AcDbPolyline
 90
        8
 70
     0
 43
0.0
 10
61.96351537120001
 20
156.8153340743
 10
61.95347639931082
 20
156.8152834014699
 10
61.9432418565028
 20
156.8151283928509
 10
61.93287840324572
 20
156.8148666262279
 10
61.92238762770783
 20
156.8144957506619
 10
61.91170612109732
 20
156.814010201315
 10
61.90083584241023
 20
156.813405811613
 10
61.89837345844189
 20
156.8132536085219
  0
LWPOLYLINE
  5
477
330
1E
100
AcDbEntity
  8
1
100
AcDbPolyline
 90
       36
 70
     0
 43
0.0
 10
62.53809711510001
 20
142.9776690182
 10
62.53055281124421
 20
142.962558398478
 10
62.52282811034651
 20
142.947537197733
 10
62.51452742618202
 20
142.931862099009
 10
62.50603695126041
 20
142.916287495124
 10
62.4969436824422
 20
142.9000800965818
 10
62.487652588205
 20
142.8839851906649
 10
62.477733454579
 20
142.8672801893639
 10
62.46716459903279
 20
142.8499821742749
 10
62.4563775789614
 20
142.8328205255438
 10
62.44491441908749
 20
142.815089020965
 10
62.43322544354171
 20
142.797505905039
 10
62.42083534609512
 20
142.779377106429
 10
62.40821312896352
 20
142.761409316432
 10
62.39486545364769
 20
142.742921371366
 10
62.3807711472908
 20
142.7239332358039
 10
62.36642623673581
 20
142.705133646422
 10
62.35131156729671
 20
142.685862103814
 10
62.33540692113631
 20
142.666140348768
 10
62.31923514917141
 20
142.6466372968389
 10
62.30225025225101
 20
142.626714702198
 10
62.28443242182599
 20
142.6063961144889
 10
62.2663320249651
 20
142.5863291254209
 10
62.2473766490731
 20
142.565899858786
 10
62.22754664146989
 20
142.5451341957568
 10
62.20682274790411
 20
142.5240590498028
 10
62.18579082562921
 20
142.5032915077449
 10
62.1644576182101
 20
142.482833735633
 10
62.14282984144671
 20
142.462687910725
 10
62.12154378091932
 20
142.4434186628399
 10
62.09999065688221
 20
142.424448479493
 10
62.07817554563872
 20
142.4057797978619
 10
62.0567562993143
 20
142.3879512110518
 10
62.03509959872302
 20
142.370412543751
 10
62.0132100264226
 20
142.353167070718
 10
61.99581031285791
 20
142.339794302406
  0
LWPOLYLINE
  5
49D
330
1E
100
AcDbEntity
  8
1
100
AcDbPolyline
 90
        2
 70
     0
 43
0.0
 10
61.8983634782
 20
156.8132529801999
 10
58.61675583833122
 20
156.606620630379
  0
LWPOLYLINE
  5
4A1
330
1E
100
AcDbEntity
  8
1
100
AcDbPolyline
 90
      118
 70
     0
 43
0.0
 10
62.99360918020003
 20
155.815334076
 10
62.99349556110231
 20
155.828067861883
 10
62.99321504736371
 20
155.8408020696439
 10
62.99276783908791
 20
155.8535341292869
 10
62.99215413637873
 20
155.8662614708129
 10
62.99137413933982
 20
155.8789815242269
 10
62.99042804807482
 20
155.89169171953
 10
62.98931606268761
 20
155.904389486726
 10
62.98803838328192
 20
155.917072255817
 10
62.98659520996142
 20
155.929737456807
 10
62.98498674282981
 20
155.9423825196978
 10
62.98321318224492
 20
155.9550048749206
 10
62.98127481803328
 20
155.9676021035269
 10
62.97917216085801
 20
155.980172158344
 10
62.97690575485402
 20
155.9927130485498
 10
62.97447614415681
 20
156.005222783324
 10
62.9718838729017
 20
156.0176993718449
 10
62.96912948522392
 20
156.0301408232918
 10
62.96621352525882
 20
156.042545146842
 10
62.96313653714172
 20
156.0549103516748
 10
62.95989906500789
 20
156.0672344469689
 10
62.95650165299273
 20
156.0795154419039
 10
62.95294484689751
 20
156.0917513456749
 10
62.94922930524722
 20
156.1039401687239
 10
62.94535586905089
 20
156.116079923504
 10
62.94132539595852
 20
156.1281686226529
 10
62.93713874362012
 20
156.1402042788079
 10
62.93279676968563
 20
156.152184904605
 10
62.92830033180502
 20
156.1641085126819
 10
62.92365028762842
 20
156.1759731156769
 10
62.91884749480582
 20
156.1877767262268
 10
62.9138928109872
 20
156.1995173569679
 10
62.90878709382261
 20
156.2111930205379
 10
62.90353120630212
 20
156.2228017339579
 10
62.89812613862181
 20
156.234341618666
 10
62.89257301066728
 20
156.245810902558
 10
62.88687294816101
 20
156.257207818318
 10
62.88028614679141
 20
156.269940645506
 10
62.87351640895764
 20
156.282577128671
 10
62.86656533749489
 20
156.2951147514629
 10
62.85943453523882
 20
156.3075509975299
 10
62.85212560502444
 20
156.319883350522
 10
62.84464014968722
 20
156.332109294088
 10
62.83697977924202
 20
156.3442263186218
 10
62.82914625542193
 20
156.356232057065
 10
62.82114148458372
 20
156.36812427824
 10
62.81296737884312
 20
156.379900756378
 10
62.80462585031622
 20
156.3915592657116
 10
62.79611881111883
 20
156.4030975804759
 10
62.78744817336692
 20
156.414513474902
 10
62.77762458223699
 20
156.4270515154819
 10
62.76760400114969
 20
156.4394326188019
 10
62.75738905408783
 20
156.451653733129
 10
62.74698247231281
 20
156.463711953936
 10
62.73638718542672
 20
156.4756046488589
 10
62.72560614448171
 20
156.487329214967
 10
62.71464230052991
 20
156.4988830493289
 10
62.70349860462351
 20
156.5102635490138
 10
62.6921780078147
 20
156.5214681110919
 10
62.68068346115573
 20
156.5324941326329
 10
62.66901791569864
 20
156.5433390107038
 10
62.65718433453192
 20
156.554000164238
 10
62.64518582273288
 20
156.5644752700569
 10
62.63302557797622
 20
156.574762173169
 10
62.62070679952492
 20
156.584858721464
 10
62.60823268664213
 20
156.594762762836
 10
62.595606438591
 20
156.604472145177
 10
62.58283125463462
 20
156.6139847163769
 10
62.57120889306572
 20
156.622375978216
 10
62.55947081707942
 20
156.630604510938
 10
62.5476193691122
 20
156.638668772929
 10
62.53565696843391
 20
156.646567428556
 10
62.52358606940504
 20
156.6542992362549
 10
62.51140912656611
 20
156.6618629549479
 10
62.49912859445782
 20
156.6692573435549
 10
62.48674692762062
 20
156.6764811609959
 10
62.47426658059511
 20
156.683533166192
 10
62.46169000792189
 20
156.6904121180639
 10
62.44901966414152
 20
156.697116775532
 10
62.43625800384512
 20
156.7036458976689
 10
62.42340750724302
 20
156.709998321193
 10
62.41047072172271
 20
156.716173086411
 10
62.3974502055491
 20
156.7221692665949
 10
62.38434851698731
 20
156.7279859350199
 10
62.37116821430213
 20
156.733622164958
 10
62.35791185575841
 20
156.7390770296819
 10
62.34458199962133
 20
156.7443496024669
 10
62.33118120415554
 20
156.7494389565839
 10
62.31921190009511
 20
156.753808264529
 10
62.30719036327731
 20
156.7580314247899
 10
62.29511838798382
 20
156.762107860122
 10
62.28299776409739
 20
156.766037124425
 10
62.27083028104062
 20
156.7698187853189
 10
62.2586177282359
 20
156.7734524104249
 10
62.24636189510594
 20
156.7769375673639
 10
62.23406457107311
 20
156.7802738237539
 10
62.22172754556003
 20
156.7834607472169
 10
62.20935260798921
 20
156.786497905372
 10
62.19694154778331
 20
156.78938486584
 10
62.18449615436473
 20
156.7921211962399
 10
62.17201821874642
 20
156.7947064657109
 10
62.1595096095517
 20
156.797140317423
 10
62.14697230644239
 20
156.799422500465
 10
62.13440829762681
 20
156.801552772083
 10
62.12181957131292
 20
156.8035308895179
 10
62.10920811570881
 20
156.805356610014
 10
62.09657591902251
 20
156.807029690814
 10
62.08392496946222
 20
156.808549889162
 10
62.07125725523603
 20
156.8099169623
 10
62.05857476455202
 20
156.811130667472
 10
62.04587948561822
 20
156.8121907619199
 10
62.03317340441628
 20
156.8130970065318
 10
62.02045842422661
 20
156.8138492975158
 10
62.00773634307243
 20
156.8144477033129
 10
61.99500895215702
 20
156.8148923035218
 10
61.98227804268391
 20
156.8151831777429
 10
61.9695454058564
 20
156.8153204055759
 10
61.96478058730003
 20
156.815332268015
  0
LWPOLYLINE
  5
519
330
1E
100
AcDbEntity
  8
1
100
AcDbPolyline
 90
        2
 70
     0
 43
0.0
 10
58.61674585810003
 20
156.6066200019
 10
58.10491495301612
 20
156.065815270843
  0
LWPOLYLINE
  5
51D
330
1E
100
AcDbEntity
  8
1
100
AcDbPolyline
 90
        2
 70
     0
 43
0.0
 10
58.10490807960002
 20
156.0658080075
 10
58.11188111855932
 20
150.7382988764998
  0
LWPOLYLINE
  5
521
330
1E
100
AcDbEntity
  8
1
100
AcDbPolyline
 90
        2
 70
     0
 43
0.0
 10
62.99073173270002
 20
143.8980925564
 10
61.60000997479161
 20
143.8095476589209
  0
LWPOLYLINE
  5
525
330
1E
100
AcDbEntity
  8
1
100
AcDbPolyline
 90
       51
 70
     0
 43
0.0
 10
62.02354711629999
 20
-141.4353123480998
 10
62.03780914550929
 20
-141.255322200315
 10
62.05217602188608
 20
-141.0461390821299
 10
62.06572023034937
 20
-140.813559881841
 10
62.07826818202728
 20
-140.5517655683169
 10
62.08921654510639
 20
-140.26075497479
 10
62.09781149476309
 20
-139.946358658273
 10
62.10349267158328
 20
-139.614420507034
 10
62.10586825624258
 20
-139.270793309243
 10
62.10474479059907
 20
-138.927159722858
 10
62.10019924764726
 20
-138.589379223744
 10
62.09262142226278
 20
-138.269130748251
 10
62.08234498592509
 20
-137.9664400427209
 10
62.07022389536217
 20
-137.692965036955
 10
62.05686633336997
 20
-137.4487081297669
 10
62.04287356021596
 20
-137.233662638007
 10
62.02838779139177
 20
-137.0420063566029
 10
62.01386018622288
 20
-136.873726651851
 10
61.99977118259488
 20
-136.728801532744
 10
61.98663447802458
 20
-136.607197958476
 10
61.97355598599439
 20
-136.4973110913719
 10
61.96151935321239
 20
-136.404902228437
 10
61.95009375804318
 20
-136.324165840192
 10
61.93953022150898
 20
-136.255076520161
 10
61.92912255658278
 20
-136.1918596206699
 10
61.91896284877099
 20
-136.134508976761
 10
61.90915667687849
 20
-136.083015078302
 10
61.89982504025689
 20
-136.0373640647059
 10
61.89110569665198
 20
-135.9975366443016
 10
61.88315349855418
 20
-135.963506995923
 10
61.87613715471877
 20
-135.935242641244
 10
61.86871219554938
 20
-135.90708289271
 10
61.86243577711618
 20
-135.8846462262789
 10
61.85581430124647
 20
-135.8623089954589
 10
61.84879622040388
 20
-135.840092945299
 10
61.84323141200758
 20
-135.8235289212879
 10
61.83736992614258
 20
-135.8070672347966
 10
61.83116481053009
 20
-135.7907320005919
 10
61.82456007309319
 20
-135.774553678135
 10
61.81747802687707
 20
-135.758578408467
 10
61.81244390145
 20
-135.748071540608
 10
61.80711290562808
 20
-135.737712255372
 10
61.80143893730608
 20
-135.727535129578
 10
61.79535462930822
 20
-135.717598540098
 10
61.78878137213548
 20
-135.7079754227739
 10
61.78160527600596
 20
-135.6987937301489
 10
61.77368732250869
 20
-135.6902372097219
 10
61.76484869840351
 20
-135.6826349446158
 10
61.75491592871148
 20
-135.6765285633219
 10
61.74388274843319
 20
-135.6727448469519
 10
61.73811379222648
 20
-135.672030289149
  0
LWPOLYLINE
  5
55A
330
1E
100
AcDbEntity
  8
1
100
AcDbPolyline
 90
       71
 70
     0
 43
0.0
 10
61.65606844609998
 20
-140.712075967
 10
61.66119677233607
 20
-140.7502895094039
 10
61.66604280542897
 20
-140.7837758812148
 10
61.67050893977618
 20
-140.812545297106
 10
61.67475700573869
 20
-140.838162058535
 10
61.67872464026108
 20
-140.860633748698
 10
61.68242037274069
 20
-140.8803557099878
 10
61.68594040255658
 20
-140.8981084155529
 10
61.68916548544228
 20
-140.9135120299628
 10
61.69221450173861
 20
-140.9273438773039
 10
61.6951448555211
 20
-140.939992717903
 10
61.69784138888599
 20
-140.951079519234
 10
61.7003666511556
 20
-140.9609926563909
 10
61.70279650609838
 20
-140.970117882038
 10
61.70511643906529
 20
-140.9784577386469
 10
61.70731224072419
 20
-140.986014608634
 10
61.70936663506378
 20
-140.992792454206
 10
61.71138089074228
 20
-140.9991709572549
 10
61.7132225855261
 20
-141.004778650383
 10
61.71500208467218
 20
-141.009992333566
 10
61.71671277552611
 20
-141.014813269331
 10
61.71834640948571
 20
-141.0192436653369
 10
61.71989356219357
 20
-141.023286448911
 10
61.72149152086976
 20
-141.027309993896
 10
61.72299117723998
 20
-141.0309496014729
 10
61.72438315880828
 20
-141.0342078913399
 10
61.72565804730878
 20
-141.0370876899399
 10
61.72697174799158
 20
-141.0399496684989
 10
61.7281556784246
 20
-141.0424375239438
 10
61.72937407996156
 20
-141.044908526043
 10
61.73062917184869
 20
-141.047361176852
 10
61.73173584964549
 20
-141.0494477073789
 10
61.73287253582559
 20
-141.0515186845129
 10
61.73404152296459
 20
-141.053572167249
 10
61.73504279241161
 20
-141.0552677635179
 10
61.73607084271547
 20
-141.056947144753
 10
61.73712767283507
 20
-141.058608438349
 10
61.73821528172918
 20
-141.060249771698
 10
61.7391088728625
 20
-141.061547208608
 10
61.74002446521186
 20
-141.062829713717
 10
61.74096308224438
 20
-141.064096328251
 10
61.74192574742676
 20
-141.065346093436
 10
61.74291348422988
 20
-141.066578050487
 10
61.74392767767937
 20
-141.0677904401369
 10
61.74497106472827
 20
-141.068978509933
 10
61.74577459981279
 20
-141.0698503227069
 10
61.7465975614758
 20
-141.070703088833
 10
61.74744123765108
 20
-141.071534508284
 10
61.74830691627239
 20
-141.0723422810308
 10
61.74919588527359
 20
-141.073124107048
 10
61.75010943258829
 20
-141.073877686308
 10
61.75104884615048
 20
-141.0746007187819
 10
61.75201541389377
 20
-141.0752909044429
 10
61.75267551406218
 20
-141.075731644172
 10
61.7533486367806
 20
-141.076156081594
 10
61.75403504588738
 20
-141.0765634584499
 10
61.75473421070901
 20
-141.0769524985809
 10
61.75544527214049
 20
-141.077321711743
 10
61.75616737003577
 20
-141.07766960701
 10
61.7568996442494
 20
-141.07799469346
 10
61.75764123463519
 20
-141.078295480168
 10
61.75839128104747
 20
-141.0785704762109
 10
61.75914892334048
 20
-141.078818190664
 10
61.75991330136838
 20
-141.0790371326038
 10
61.76068355498518
 20
-141.0792258111069
 10
61.76145882404526
 20
-141.079382735249
 10
61.76223824840278
 20
-141.0795064141069
 10
61.76302096791179
 20
-141.079595356755
 10
61.7638061224266
 20
-141.079648072271
 10
61.76459276869998
 20
-141.0796631999
 10
61.7645827687771
 20
-141.079663244632
  0
LWPOLYLINE
  5
5A3
330
1E
100
AcDbEntity
  8
1
100
AcDbPolyline
 90
       55
 70
     0
 43
0.0
 10
61.76459334149996
 20
-137.7796666989999
 10
61.76222600699116
 20
-137.7798407334589
 10
61.75988506168919
 20
-137.7803160646839
 10
61.75759862094071
 20
-137.781056501465
 10
61.75539480009278
 20
-137.7820258525879
 10
61.75330052180076
 20
-137.783188365479
 10
61.75132280410409
 20
-137.784515607884
 10
61.74945221631168
 20
-137.7859851968989
 10
61.74767883410728
 20
-137.787574931161
 10
61.7459927331745
 20
-137.7892626093079
 10
61.74438398919709
 20
-137.7910260299759
 10
61.74284300632389
 20
-137.792844024048
 10
61.74136365109006
 20
-137.7947063034199
 10
61.73994186562969
 20
-137.796609102833
 10
61.73857362020997
 20
-137.7985487454399
 10
61.73725488509819
 20
-137.8005215543959
 10
61.73536079921721
 20
-137.8035349116329
 10
61.73355544428197
 20
-137.806602210895
 10
61.73182629520351
 20
-137.8097121478859
 10
61.73016639798177
 20
-137.812859143805
 10
61.72857059743727
 20
-137.816039468524
 10
61.72703373928179
 20
-137.819249392832
 10
61.72506737458878
 20
-137.823568890162
 10
61.72318441561419
 20
-137.827925539663
 10
61.72137359920478
 20
-137.8323113291779
 10
61.71962865179558
 20
-137.8367225723889
 10
61.71753301430019
 20
-137.842268951301
 10
61.71552395664739
 20
-137.8478470966809
 10
61.71321459205787
 20
-137.85457654218
 10
61.71100192882889
 20
-137.861338066163
 10
61.70853038878749
 20
-137.8692614340259
 10
61.70616666636019
 20
-137.8772178847249
 10
61.70358311458718
 20
-137.8863453921139
 10
61.70080787975688
 20
-137.8966496249496
 10
61.69786954678658
 20
-137.9081363687229
 10
61.69479595914738
 20
-137.9208112693989
 10
61.69160898917228
 20
-137.9346775356449
 10
61.68832840477276
 20
-137.949737560545
 10
61.68474170820359
 20
-137.967156686147
 10
61.68090121996247
 20
-137.986943055412
 10
61.67685684718676
 20
-138.0091037270719
 10
61.67246008336668
 20
-138.034813990342
 10
61.66796831126659
 20
-138.0629117962747
 10
61.66307849910278
 20
-138.095746649829
 10
61.65789124673378
 20
-138.1333296133779
 10
61.65235512779671
 20
-138.176846020265
 10
61.64659019258071
 20
-138.226306267385
 10
61.64046675016948
 20
-138.284076808538
 10
61.63415471283088
 20
-138.350169330103
 10
61.62771653612946
 20
-138.4257736271458
 10
61.62116770587989
 20
-138.513262650102
 10
61.61474943161817
 20
-138.612645253062
 10
61.60863519589177
 20
-138.7251102529409
 10
61.60308882065198
 20
-138.8506603448
 10
61.59998403033627
 20
-138.9371428111388
  0
LWPOLYLINE
  5
5DC
330
1E
100
AcDbEntity
  8
1
100
AcDbPolyline
 90
        4
 70
     0
 43
0.0
 10
61.63679070939998
 20
-140.5376430325
 10
61.64286172922327
 20
-140.5985387021089
 10
61.64865884797086
 20
-140.6512876671349
 10
61.6519884880935
 20
-140.6794693453339
  0
LWPOLYLINE
  5
5E2
330
1E
100
AcDbEntity
  8
1
100
AcDbPolyline
 90
        2
 70
     0
 43
0.0
 10
61.65198969199998
 20
-140.6794792725999
 10
61.65606716561651
 20
-140.712066049321
  0
LWPOLYLINE
  5
5E6
330
1E
100
AcDbEntity
  8
1
100
AcDbPolyline
 90
        2
 70
     0
 43
0.0
 10
61.6000183489
 20
-135.6652646167
 10
61.738094176246
 20
-135.672021876447
  0
LWPOLYLINE
  5
5EA
330
1E
100
AcDbEntity
  8
1
100
AcDbPolyline
 90
       11
 70
     0
 43
0.0
 10
61.91899669829997
 20
-142.2841754117999
 10
61.92740389913367
 20
-142.237005998564
 10
61.93631106212668
 20
-142.183845003398
 10
61.94586349548909
 20
-142.122987880951
 10
61.95602943045328
 20
-142.053570253333
 10
61.96686772312077
 20
-141.973878860944
 10
61.97838446660387
 20
-141.882196195856
 10
61.9905356750544
 20
-141.776801884276
 10
62.00331495955097
 20
-141.655122587291
 10
62.01663642425867
 20
-141.514581196122
 10
62.02354627305639
 20
-141.435322312484
  0
LWPOLYLINE
  5
5F7
330
1E
100
AcDbEntity
  8
1
100
AcDbPolyline
 90
       71
 70
     0
 43
0.0
 10
61.87311766409997
 20
-138.1472539318999
 10
61.86798933785128
 20
-138.1090403894949
 10
61.86314330478789
 20
-138.075554017677
 10
61.85867717050317
 20
-138.0467846017739
 10
61.8544291045524
 20
-138.021167840341
 10
61.85046146998619
 20
-137.9986961501829
 10
61.84676573745846
 20
-137.9789741889009
 10
61.84324570761628
 20
-137.9612214833398
 10
61.84002062473119
 20
-137.9458178689299
 10
61.83697160846019
 20
-137.931986021581
 10
61.8340412547201
 20
-137.91933718097
 10
61.83134472139059
 20
-137.908250379629
 10
61.82881945913639
 20
-137.8983372424679
 10
61.82638960418309
 20
-137.889212016823
 10
61.82406967118619
 20
-137.880872160223
 10
61.82187386949268
 20
-137.8733152902459
 10
61.81981947512388
 20
-137.866537444681
 10
61.8178052194256
 20
-137.8601589416369
 10
61.81596352463479
 20
-137.854551248511
 10
61.81418402549007
 20
-137.849337565327
 10
61.81247333464218
 20
-137.8445166295596
 10
61.81083970069039
 20
-137.840086233551
 10
61.80929254798996
 20
-137.836043449973
 10
61.80769458932047
 20
-137.8320199049859
 10
61.80619493295468
 20
-137.828380297407
 10
61.80480295138858
 20
-137.825122007538
 10
61.80352806288879
 20
-137.8222422089359
 10
61.80221436220579
 20
-137.8193802303776
 10
61.80103043177187
 20
-137.8168923749319
 10
61.79981203023327
 20
-137.814421372834
 10
61.79855693834408
 20
-137.8119687220259
 10
61.79745026054497
 20
-137.8098821915
 10
61.79631357436239
 20
-137.807811214368
 10
61.79514458722059
 20
-137.805757731634
 10
61.79414331777149
 20
-137.804062135367
 10
61.79311526746571
 20
-137.8023827541329
 10
61.79205843734457
 20
-137.8007214605389
 10
61.79097082844958
 20
-137.7990801271909
 10
61.79007723731616
 20
-137.797782690281
 10
61.78916164496719
 20
-137.79650018517
 10
61.78822302793578
 20
-137.7952335706349
 10
61.78726036275518
 20
-137.793983805448
 10
61.78627262595479
 20
-137.792751848394
 10
61.78525843250888
 20
-137.7915394587399
 10
61.78421504546411
 20
-137.79035138894
 10
61.78341151038297
 20
-137.7894795761619
 10
61.78258854872339
 20
-137.788626810032
 10
61.78174487255148
 20
-137.7877953905779
 10
61.78087919393328
 20
-137.786987617827
 10
61.77999022493498
 20
-137.786205791807
 10
61.77907667762259
 20
-137.7854522125449
 10
61.77813726406228
 20
-137.784729180069
 10
61.77717069632008
 20
-137.7840389944056
 10
61.77651059615199
 20
-137.783598254676
 10
61.77583747343351
 20
-137.783173817254
 10
61.77515106432627
 20
-137.782766440398
 10
61.77445189950399
 20
-137.7823774002679
 10
61.77374083807158
 20
-137.782008187108
 10
61.77301874017516
 20
-137.781660291842
 10
61.77228646596048
 20
-137.7813352053939
 10
61.77154487557339
 20
-137.7810344186886
 10
61.77079482915967
 20
-137.780759422649
 10
61.77003718686536
 20
-137.7805117082
 10
61.76927280883628
 20
-137.780292766264
 10
61.76850255521818
 20
-137.780104087765
 10
61.76772728615698
 20
-137.779947163628
 10
61.76694786179858
 20
-137.7798234847769
 10
61.76616514228888
 20
-137.779734542134
 10
61.76537998777359
 20
-137.7796818266249
 10
61.76459334149996
 20
-137.7796666989999
 10
61.76460334142277
 20
-137.7796666542679
  0
LWPOLYLINE
  5
640
330
1E
100
AcDbEntity
  8
1
100
AcDbPolyline
 90
       83
 70
     0
 43
0.0
 10
61.73810380429999
 20
-135.6720297976
 10
61.73721163119577
 20
-135.6719960799759
 10
61.73631837198318
 20
-135.6719824610389
 10
61.73542457143259
 20
-135.6719889631959
 10
61.73453077431489
 20
-135.672015608853
 10
61.73363752540069
 20
-135.6720624204158
 10
61.73274536946077
 20
-135.672129420292
 10
61.73185485126587
 20
-135.6722166308869
 10
61.73096651558659
 20
-135.6723240746066
 10
61.7300809071936
 20
-135.67245177386
 10
61.72919856345969
 20
-135.672599738957
 10
61.72831987086446
 20
-135.6727677335429
 10
61.72744507497888
 20
-135.672955290918
 10
61.7265744159749
 20
-135.673161935553
 10
61.72570813402497
 20
-135.6733871919209
 10
61.72484646930138
 20
-135.673630584497
 10
61.7239896619765
 20
-135.673891637752
 10
61.72313795222247
 20
-135.6741698761606
 10
61.72229158021171
 20
-135.674464824195
 10
61.72145078611649
 20
-135.674776006329
 10
61.72061581010908
 20
-135.675102947036
 10
61.71978689236188
 20
-135.675445170788
 10
61.71896427304698
 20
-135.675802202059
 10
61.71814819233689
 20
-135.676173565321
 10
61.71733889040377
 20
-135.676558785048
 10
61.71627076916719
 20
-135.6770931486869
 10
61.71521534469327
 20
-135.677650313313
 10
61.71417248744949
 20
-135.678229430409
 10
61.71314204939328
 20
-135.6788296588379
 10
61.71212388248239
 20
-135.679450157465
 10
61.71111783867439
 20
-135.680090085153
 10
61.71012376992678
 20
-135.6807486007649
 10
61.70914152819727
 20
-135.681424863165
 10
61.70817096544348
 20
-135.6821180312159
 10
61.70697396002728
 20
-135.6830069834326
 10
61.70579468254918
 20
-135.683919393611
 10
61.70463284386358
 20
-135.6848536189029
 10
61.70348815400608
 20
-135.685808022868
 10
61.70213668800908
 20
-135.6869781578559
 10
61.70080874888927
 20
-135.6881741103129
 10
61.69950364164598
 20
-135.689394568007
 10
61.69822067127817
 20
-135.6906382187019
 10
61.69675092386269
 20
-135.692116707231
 10
61.69530925758528
 20
-135.693622894135
 10
61.69389456881035
 20
-135.695154695632
 10
61.69250575390238
 20
-135.6967100279439
 10
61.69094880343569
 20
-135.6985136908509
 10
61.68942266815268
 20
-135.7003426211766
 10
61.68792616850877
 20
-135.7021952679479
 10
61.68645819805449
 20
-135.7040703238279
 10
61.68483945493089
 20
-135.7062049197969
 10
61.68325384331851
 20
-135.7083643612799
 10
61.68169978782309
 20
-135.710546786858
 10
61.68000815363861
 20
-135.7129963968179
 10
61.67835137165789
 20
-135.715469530767
 10
61.67656676672828
 20
-135.718214384127
 10
61.67482002421118
 20
-135.720983072689
 10
61.67295574216298
 20
-135.724028935727
 10
61.67113243950398
 20
-135.727099546798
 10
61.66920097016399
 20
-135.730451780382
 10
61.66716881346077
 20
-135.7340891298087
 10
61.66504286443018
 20
-135.738014329892
 10
61.66296655353499
 20
-135.741965566721
 10
61.66080374715319
 20
-135.7462068742079
 10
61.65856137401468
 20
-135.750741186518
 10
61.65624582048366
 20
-135.7555709259359
 10
61.65386275321088
 20
-135.76069787646
 10
61.65129635084149
 20
-135.7663951081379
 10
61.64867878685548
 20
-135.7723948279927
 10
61.64601538724518
 20
-135.77869863511
 10
61.64319958078378
 20
-135.7855836133379
 10
61.64024413060197
 20
-135.793053804
 10
61.63716077576419
 20
-135.8011124400666
 10
61.63396201853331
 20
-135.8097633104069
 10
61.6306594688411
 20
-135.8190096529087
 10
61.62716743125738
 20
-135.8291353801696
 10
61.62350380877039
 20
-135.840145103189
 10
61.6196870272769
 20
-135.8520437684809
 10
61.61564711074189
 20
-135.865119905916
 10
61.61132385439827
 20
-135.8796644009169
 10
61.60683002227098
 20
-135.8953986550149
 10
61.60203181326417
 20
-135.9129010555347
 10
61.59996806413968
 20
-135.9206537616429
  0
LWPOLYLINE
  5
695
330
1E
100
AcDbEntity
  8
1
100
AcDbPolyline
 90
       54
 70
     0
 43
0.0
 10
61.76459276869998
 20
-141.0796631999
 10
61.77045083763179
 20
-141.078675141126
 10
61.7758820279629
 20
-141.0761437181698
 10
61.78062746142121
 20
-141.0725676402219
 10
61.78479661421029
 20
-141.068310146729
 10
61.78853407657438
 20
-141.0636853553748
 10
61.79192442454958
 20
-141.058818781158
 10
61.79503058574209
 20
-141.0537679059848
 10
61.7979127565966
 20
-141.048587343342
 10
61.80060729390771
 20
-141.0433072063499
 10
61.80313814183397
 20
-141.037944851477
 10
61.80552913776748
 20
-141.0325175254649
 10
61.8089010285271
 20
-141.024288519803
 10
61.81205157802009
 20
-141.015975004502
 10
61.81501144110228
 20
-141.00759201521
 10
61.81781083668277
 20
-140.999154336195
 10
61.82133025804557
 20
-140.987836120488
 10
61.82463612968199
 20
-140.9764531557349
 10
61.82776040737461
 20
-140.9650191488349
 10
61.8314469702275
 20
-140.9506695899839
 10
61.83491945218708
 20
-140.936266758176
 10
61.83884529360669
 20
-140.9189272720159
 10
61.84254218626271
 20
-140.9015376536399
 10
61.84660312053427
 20
-140.8811977544999
 10
61.85095792126897
 20
-140.8578972053599
 10
61.85553903035978
 20
-140.831626634659
 10
61.86028995595798
 20
-140.802380214782
 10
61.86558325036358
 20
-140.7672207241249
 10
61.87088629265558
 20
-140.72906896551
 10
61.87652537474026
 20
-140.6849837742119
 10
61.88270873516477
 20
-140.6320102628979
 10
61.88893814299228
 20
-140.5730795927667
 10
61.89538501334372
 20
-140.5052374543397
 10
61.90210939601978
 20
-140.4255211067049
 10
61.90885847682388
 20
-140.3339182377649
 10
61.91539289187378
 20
-140.2304214422279
 10
61.9216234563331
 20
-140.112067826995
 10
61.92712156474649
 20
-139.9818145903999
 10
61.93165557002011
 20
-139.8396659455239
 10
61.93497709063058
 20
-139.6856291112559
 10
61.93677301817189
 20
-139.5256406882429
 10
61.936922839954
 20
-139.362679326625
 10
61.93542536702707
 20
-139.2026878260429
 10
61.93240354239478
 20
-139.048644811135
 10
61.92806160184177
 20
-138.9035258923927
 10
61.9226952787018
 20
-138.770301779742
 10
61.91670401419418
 20
-138.6519357920388
 10
61.91021048649147
 20
-138.5454678329649
 10
61.90344332538685
 20
-138.450895552909
 10
61.89663940793685
 20
-138.3682126468358
 10
61.89004876945521
 20
-138.2974080227309
 10
61.88361418638688
 20
-138.235519749813
 10
61.87752121612367
 20
-138.1825356165649
 10
61.8731189445835
 20
-138.1472638495789
  0
LWPOLYLINE
  5
6CD
330
1E
100
AcDbEntity
  8
1
100
AcDbPolyline
 90
       54
 70
     0
 43
0.0
 10
62.15710948729999
 20
138.4239506729999
 10
62.14729476638762
 20
138.126516945742
 10
62.1356290880097
 20
137.8559831164158
 10
62.122651621418
 20
137.6123536783379
 10
62.10889271308
 20
137.395625547661
 10
62.09489049365202
 20
137.2057871965859
 10
62.08096374998071
 20
137.0401469393339
 10
62.0673470547188
 20
136.8960123238269
 10
62.05419291020311
 20
136.7706916748169
 10
62.04157131134332
 20
136.6614958150909
 10
62.02981781282972
 20
136.5683981394629
 10
62.01853614693501
 20
136.486054860198
 10
62.00793971530631
 20
136.414446245949
 10
61.997825467447
 20
136.3509008550119
 10
61.9883570318303
 20
136.295400550457
 10
61.97971354833299
 20
136.247921829179
 10
61.97156283587609
 20
136.2058062461659
 10
61.96401970734061
 20
136.169037014884
 10
61.95662452837169
 20
136.1349766508739
 10
61.95003469653221
 20
136.106230368969
 10
61.94374473722621
 20
136.080167772386
 10
61.93781067785001
 20
136.0567788821247
 10
61.931584436576
 20
136.0334660845159
 10
61.9257743864869
 20
136.012818982324
 10
61.92044977077639
 20
135.9948222718369
 10
61.91568657326461
 20
135.979456602241
 10
61.91071655378022
 20
135.964156657398
 10
61.90551597930999
 20
135.948933283448
 10
61.90098431656241
 20
135.936316300972
 10
61.89624966415451
 20
135.9237741205899
 10
61.89230028679261
 20
135.9138024051999
 10
61.88818931321161
 20
135.903896252902
 10
61.88389797567548
 20
135.8940669046279
 10
61.87940618078751
 20
135.884326749111
 10
61.87588857012451
 20
135.877092059159
 10
61.8722281762269
 20
135.8699286116379
 10
61.86841095687672
 20
135.8628465273999
 10
61.8644174911391
 20
135.8558619357509
 10
61.86022363212138
 20
135.84899624527
 10
61.8558047919917
 20
135.8422714797139
 10
61.85271823206601
 20
135.837882966231
 10
61.84950459800011
 20
135.833587189967
 10
61.84615118978221
 20
135.8293990952976
 10
61.84264500092591
 20
135.8253346971699
 10
61.83896959953401
 20
135.8214219761179
 10
61.83510640728751
 20
135.8176964105229
 10
61.83103682757812
 20
135.814193746627
 10
61.82674360086038
 20
135.8109635676899
 10
61.82221185355991
 20
135.8080801489487
 10
61.81742767096841
 20
135.8056205866859
 10
61.8124064099836
 20
135.803672936015
 10
61.8072023995414
 20
135.802339842576
 10
61.80187777430003
 20
135.8017130291
 10
61.80188776220282
 20
135.801713521143
  0
LWPOLYLINE
  5
705
330
1E
100
AcDbEntity
  8
1
100
AcDbPolyline
 90
        2
 70
     0
 43
0.0
 10
61.80187813939999
 20
142.8765293338997
 10
61.60003005502361
 20
142.8862770707318
  0
LWPOLYLINE
  5
709
330
1E
100
AcDbEntity
  8
1
100
AcDbPolyline
 90
       50
 70
     0
 43
0.0
 10
61.80187778020002
 20
142.8765219153999
 10
61.81077272735829
 20
142.8750561087719
 10
61.81920673258892
 20
142.871769219338
 10
61.8269566343583
 20
142.8671223231568
 10
61.83403338994899
 20
142.861503551168
 10
61.84051268105381
 20
142.855213875097
 10
61.846481997351
 20
142.8484358282009
 10
61.8520209641762
 20
142.841307611485
 10
61.85719217957752
 20
142.833907435891
 10
61.86205327059282
 20
142.826302089937
 10
61.86664463899091
 20
142.818531500136
 10
61.8710007361594
 20
142.810626316091
 10
61.8751524279946
 20
142.802613172021
 10
61.88104240929678
 20
142.790424877007
 10
61.88658456033081
 20
142.7780749224879
 10
61.8918277803909
 20
142.7655955831698
 10
61.89681011683052
 20
142.7530097255169
 10
61.90156461092478
 20
142.740336571326
 10
61.90759029707042
 20
142.7233246767
 10
61.9133039641069
 20
142.7062058301659
 10
61.9187429948396
 20
142.6889977348579
 10
61.92520442917771
 20
142.667384208314
 10
61.93133563177879
 20
142.645674713866
 10
61.93831336315112
 20
142.619519325041
 10
61.94492686693479
 20
142.593269453167
 10
61.95224093726402
 20
142.562546416787
 10
61.96013587442632
 20
142.5273272061529
 10
61.96850311749201
 20
142.487593842105
 10
61.97724554699472
 20
142.4433326288019
 10
61.98627678979239
 20
142.3945333703668
 10
61.99552087846901
 20
142.341188887903
 10
62.00560885877578
 20
142.2788370103108
 10
62.0163412808219
 20
142.2074534567709
 10
62.02753666120752
 20
142.127019820539
 10
62.03958291812369
 20
142.033044961543
 10
62.05219580746462
 20
141.925503506586
 10
62.06557131396952
 20
141.7998886865239
 10
62.0793360074015
 20
141.656175047812
 10
62.09350655082181
 20
141.489848323549
 10
62.10762792069161
 20
141.3008879821329
 10
62.12153888324628
 20
141.084778410179
 10
62.1346922235207
 20
140.841507329165
 10
62.1465499008346
 20
140.571071169456
 10
62.15656621371361
 20
140.2734741195
 10
62.16408310563861
 20
139.9532387888219
 10
62.16857247189731
 20
139.6148986637639
 10
62.1696313371406
 20
139.2720187706649
 10
62.16720621771941
 20
138.9291458336859
 10
62.1614320962476
 20
138.595337468146
 10
62.15710976714222
 20
138.4239606690838
  0
LWPOLYLINE
  5
73D
330
1E
100
AcDbEntity
  8
1
100
AcDbPolyline
 90
        2
 70
     0
 43
0.0
 10
61.60002007250001
 20
135.7919572986
 10
61.801868152046
 20
135.801704994347
  0
LWPOLYLINE
  5
741
330
1E
100
AcDbEntity
  8
1
100
AcDbPolyline
 90
        2
 70
     0
 43
0.0
 10
62.99073199999997
 20
-144.543001
 10
61.6000099676189
 20
-144.4293601000289
  0
LWPOLYLINE
  5
745
330
1E
100
AcDbEntity
  8
1
100
AcDbPolyline
 90
        2
 70
     0
 43
0.0
 10
58.10490799999997
 20
-156.582529
 10
58.10661051116746
 20
-155.850010000177
  0
LWPOLYLINE
  5
749
330
1E
100
AcDbEntity
  8
1
100
AcDbPolyline
 90
        2
 70
     0
 43
0.0
 10
58.61674599999997
 20
-157.128577
 10
58.10491483816576
 20
-156.58253629654
  0
LWPOLYLINE
  5
74D
330
1E
100
AcDbEntity
  8
1
100
AcDbPolyline
 90
        2
 70
     0
 43
0.0
 10
61.89836299999998
 20
-157.387238
 10
58.61675596934897
 20
-157.128577782355
  0
LWPOLYLINE
  5
751
330
1E
100
AcDbEntity
  8
1
100
AcDbPolyline
 90
      124
 70
     0
 43
0.0
 10
62.99360899999997
 20
-156.4135029999999
 10
62.99350650551937
 20
-156.425025486324
 10
62.99326814399488
 20
-156.4365468178896
 10
62.99289360206937
 20
-156.4480650778699
 10
62.99238256638568
 20
-156.459578349435
 10
62.99173472358668
 20
-156.471084715768
 10
62.99094976013947
 20
-156.482582318419
 10
62.99002736192307
 20
-156.4940694944479
 10
62.98896721469347
 20
-156.5055446218079
 10
62.98776900420666
 20
-156.5170060784498
 10
62.98643241656268
 20
-156.5284522422909
 10
62.98495730549857
 20
-156.53988147408
 10
62.98334396176315
 20
-156.5512920898119
 10
62.98159274641886
 20
-156.5626823982829
 10
62.97970402052847
 20
-156.574050708286
 10
62.97767814629388
 20
-156.585395329106
 10
62.97551564804327
 20
-156.5967146395909
 10
62.97321737893518
 20
-156.60800715969
 10
62.97078423193259
 20
-156.619271426429
 10
62.96783948138717
 20
-156.632108401478
 10
62.96472101107107
 20
-156.644904363871
 10
62.96142900648884
 20
-156.657656783496
 10
62.95796261056938
 20
-156.6703628155719
 10
62.95478575243108
 20
-156.6814402951569
 10
62.95147408613287
 20
-156.692478157523
 10
62.94802734037908
 20
-156.70347458916
 10
62.94392432630669
 20
-156.7159894525969
 10
62.93964875252125
 20
-156.7284465360828
 10
62.93520295791398
 20
-156.740843967812
 10
62.93058922398377
 20
-156.7531798593129
 10
62.92580880380268
 20
-156.765452023378
 10
62.92086206187937
 20
-156.7776580147009
 10
62.91574933349117
 20
-156.78979537948
 10
62.91047095551338
 20
-156.801861664025
 10
62.90502742711257
 20
-156.8138544256469
 10
62.89941954715578
 20
-156.825771241973
 10
62.89364814687528
 20
-156.8376096928268
 10
62.8877140575036
 20
-156.84936735803
 10
62.88161837237667
 20
-156.861041983739
 10
62.87536323799057
 20
-156.872631984451
 10
62.86895106532345
 20
-156.8841359425079
 10
62.86238426535338
 20
-156.8955524402499
 10
62.85566510142746
 20
-156.906879971463
 10
62.84879444202297
 20
-156.918116193246
 10
62.84177238798307
 20
-156.9292583022449
 10
62.83459903217367
 20
-156.9403034903199
 10
62.82727450942587
 20
-156.951248976738
 10
62.81885533783867
 20
-156.963440952668
 10
62.81024990669617
 20
-156.9755023335688
 10
62.80146177687175
 20
-156.9874313603509
 10
62.79249443249018
 20
-156.9992262260566
 10
62.78335035908785
 20
-157.0108845009559
 10
62.77403134355227
 20
-157.0224033196018
 10
62.76453915841967
 20
-157.0337798075989
 10
62.75487567052586
 20
-157.045011165843
 10
62.74504332830158
 20
-157.0560950595999
 10
62.73392371199538
 20
-157.068234920385
 10
62.72260259166288
 20
-157.080187101962
 10
62.71108351068246
 20
-157.0919485749818
 10
62.69936979522368
 20
-157.1035161834499
 10
62.68746474821586
 20
-157.114886757821
 10
62.67537174263188
 20
-157.126057211134
 10
62.66309457768157
 20
-157.137024958978
 10
62.65189094552519
 20
-157.1467206390819
 10
62.64054423837219
 20
-157.156248442526
 10
62.62905735572008
 20
-157.1656067158219
 10
62.61743321975798
 20
-157.174793969732
 10
62.60567475504037
 20
-157.1838087321399
 10
62.59378487454837
 20
-157.192649513781
 10
62.58176618174396
 20
-157.2013143668399
 10
62.56962094438748
 20
-157.209800846151
 10
62.55735141341878
 20
-157.2181064816328
 10
62.54495990488018
 20
-157.226228911535
 10
62.53244952014136
 20
-157.2341670809129
 10
62.51982388111247
 20
-157.241920801018
 10
62.50708661902475
 20
-157.2494898986109
 10
62.49424124145036
 20
-157.2568740056109
 10
62.48129043020297
 20
-157.264071452839
 10
62.46823652887478
 20
-157.271080038201
 10
62.45654841003545
 20
-157.2771495596539
 10
62.44478240032097
 20
-157.2830666929369
 10
62.43294060786648
 20
-157.2888307556989
 10
62.42102528614497
 20
-157.294441337307
 10
62.40903868885126
 20
-157.299898027544
 10
62.39698306414226
 20
-157.305200410729
 10
62.38486056121385
 20
-157.310347973487
 10
62.37267324390397
 20
-157.315340118184
 10
62.36042317325185
 20
-157.3201762444259
 10
62.34811241020958
 20
-157.3248557515059
 10
62.33574300188127
 20
-157.32937798966
 10
62.32331696651296
 20
-157.333742206893
 10
62.31083631874366
 20
-157.33794763843
 10
62.29830307321236
 20
-157.3419935194968
 10
62.28571926747388
 20
-157.345879188641
 10
62.27308706561709
 20
-157.3496045549179
 10
62.26040867516487
 20
-157.353169723216
 10
62.24768630367947
 20
-157.356574798601
 10
62.23492215106139
 20
-157.359819855039
 10
62.22211827391248
 20
-157.362904384821
 10
62.20927660173797
 20
-157.3658273643339
 10
62.19639905963667
 20
-157.3685877520778
 10
62.18348757304627
 20
-157.3711845085119
 10
62.17054414981379
 20
-157.3736170710199
 10
62.15757098714966
 20
-157.375885972882
 10
62.14457030876086
 20
-157.3779919007189
 10
62.13154433835437
 20
-157.379935541151
 10
62.11849527374127
 20
-157.381717440047
 10
62.10542513691928
 20
-157.383337187672
 10
62.09233587679168
 20
-157.3847939769999
 10
62.0792294420231
 20
-157.3860869997099
 10
62.06610778386218
 20
-157.3872154599909
 10
62.05297293219236
 20
-157.3881789428579
 10
62.03982700795935
 20
-157.3889774743348
 10
62.02667213719507
 20
-157.389611105079
 10
62.01351044592287
 20
-157.390079885774
 10
62.00034402082798
 20
-157.3903840076638
 10
61.98717481845289
 20
-157.3905241269879
 10
61.97400476846338
 20
-157.390500996019
 10
61.96083580052519
 20
-157.3903153670279
 10
61.94766986085626
 20
-157.389967993579
 10
61.93450908487727
 20
-157.3894596440258
 10
61.92135572856628
 20
-157.388791096147
 10
61.90821204984388
 20
-157.387963127871
 10
61.89837196959476
 20
-157.387238779222
  0
LWPOLYLINE
  5
7CF
330
1E
100
AcDbEntity
  8
1
100
AcDbPolyline
 90
        2
 70
     0
 43
0.0
 10
62.99360899999997
 20
-156.4135029999999
 10
62.9907320285249
 20
-144.5430109999589
  0
LWPOLYLINE
  5
7D3
330
1E
100
AcDbEntity
  8
1
100
AcDbPolyline
 90
        2
 70
     0
 43
0.0
 10
62.01363499999998
 20
-154.9557669999998
 10
61.40851740331735
 20
-155.004293439924
  0
LWPOLYLINE
  5
7D7
330
1E
100
AcDbEntity
  8
1
100
AcDbPolyline
 90
       76
 70
     0
 43
0.0
 10
62.01075699999998
 20
-143.042767
 10
62.01070672033369
 20
-143.0304473690519
 10
62.01051248598925
 20
-143.0181283419599
 10
62.01017383966828
 20
-143.0058119340019
 10
62.00969032407209
 20
-142.993500160457
 10
62.00906148190608
 20
-142.98119503435
 10
62.00835162882597
 20
-142.9698440020529
 10
62.00751719842235
 20
-142.9585016149349
 10
62.00655783142487
 20
-142.947169225191
 10
62.00547316856297
 20
-142.935848185015
 10
62.00426285613596
 20
-142.924539847304
 10
62.00292677478095
 20
-142.913245594473
 10
62.00146512026901
 20
-142.9019668486309
 10
61.99987811054636
 20
-142.8907050346778
 10
61.99816596355947
 20
-142.8794615775179
 10
61.99632890172178
 20
-142.868237900331
 10
61.99436732720087
 20
-142.857035357054
 10
61.99210252096229
 20
-142.844924581735
 10
61.98969316886341
 20
-142.8328416885749
 10
61.98714010427329
 20
-142.8207882749269
 10
61.9844440689873
 20
-142.8087659648689
 10
61.98160475131967
 20
-142.796776689873
 10
61.97862116513959
 20
-142.784822578209
 10
61.97573817427158
 20
-142.773821066995
 10
61.97273062247637
 20
-142.762853010079
 10
61.96959798495547
 20
-142.7519200151849
 10
61.96606408640787
 20
-142.7401169561609
 10
61.96238589675319
 20
-142.728357972007
 10
61.95856498145277
 20
-142.716644515251
 10
61.95460290070489
 20
-142.7049780399778
 10
61.95050067021039
 20
-142.693360161447
 10
61.94625829453478
 20
-142.681792794216
 10
61.94187566828928
 20
-142.670277885392
 10
61.93735268608498
 20
-142.6588173820789
 10
61.93268926546759
 20
-142.647413233201
 10
61.92788555780911
 20
-142.6360674061958
 10
61.92294185109997
 20
-142.6247818793228
 10
61.9178584350454
 20
-142.6135586309769
 10
61.91263560041577
 20
-142.6023996389799
 10
61.90727396768828
 20
-142.591306703666
 10
61.90177495205361
 20
-142.5802811975619
 10
61.89614008603019
 20
-142.5693244300338
 10
61.89037090213687
 20
-142.55843771045
 10
61.88400936096837
 20
-142.546793460007
 10
61.87749417650177
 20
-142.5352345194069
 10
61.87082499549159
 20
-142.523763858511
 10
61.86400145196369
 20
-142.512384454673
 10
61.85702323353178
 20
-142.5010992550689
 10
61.84989118853138
 20
-142.4899105532239
 10
61.84260728747577
 20
-142.4788200107158
 10
61.8351735467545
 20
-142.4678292632879
 10
61.82759197338119
 20
-142.4569399527809
 10
61.81986411470887
 20
-142.446154019997
 10
61.81199085921971
 20
-142.435473834268
 10
61.80397304455127
 20
-142.4249017979919
 10
61.79581150965049
 20
-142.414440312843
 10
61.78690870174359
 20
-142.40335686017
 10
61.77784383852277
 20
-142.392405509588
 10
61.76861872228158
 20
-142.3815887888578
 10
61.75923515465861
 20
-142.370909226738
 10
61.74969490801688
 20
-142.360369396583
 10
61.73999971432047
 20
-142.349971933291
 10
61.73015130258108
 20
-142.3397194762579
 10
61.71947941599918
 20
-142.3289463138349
 10
61.70863760885237
 20
-142.318344131357
 10
61.69832147175148
 20
-142.308562401171
 10
61.68786055348938
 20
-142.298935789534
 10
61.67725707485189
 20
-142.2894665947119
 10
61.66651331604889
 20
-142.280156846669
 10
61.65563158006857
 20
-142.27100847253
 10
61.64535283875317
 20
-142.262617284989
 10
61.634957769284
 20
-142.254370096546
 10
61.62444817047077
 20
-142.2462694626219
 10
61.61382582411746
 20
-142.238318166971
 10
61.60309251202661
 20
-142.230518993362
 10
61.60001386817378
 20
-142.2283247690259
  0
LWPOLYLINE
  5
825
330
1E
100
AcDbEntity
  8
1
100
AcDbPolyline
 90
        2
 70
     0
 43
0.0
 10
62.01363499999998
 20
-154.9557669999998
 10
62.01075697636539
 20
-143.042776999972
  0
LWPOLYLINE
  5
829
330
1E
100
AcDbEntity
  8
1
100
AcDbPolyline
 90
        2
 70
     0
 43
0.0
 10
58.10490800000001
 20
156.582529
 10
58.10613054341573
 20
156.0671094941739
  0
LWPOLYLINE
  5
82D
330
1E
100
AcDbEntity
  8
1
100
AcDbPolyline
 90
        2
 70
     0
 43
0.0
 10
58.61674600000002
 20
157.128577
 10
58.10491483816582
 20
156.5825362965389
  0
LWPOLYLINE
  5
831
330
1E
100
AcDbEntity
  8
1
100
AcDbPolyline
 90
        2
 70
     0
 43
0.0
 10
61.89836300000003
 20
157.387238
 10
58.61675596934902
 20
157.128577782355
  0
LWPOLYLINE
  5
835
330
1E
100
AcDbEntity
  8
1
100
AcDbPolyline
 90
      124
 70
     0
 43
0.0
 10
62.99360899999999
 20
156.4135029999999
 10
62.99350650551939
 20
156.425025486324
 10
62.99326814399492
 20
156.4365468178896
 10
62.99289360206941
 20
156.4480650778689
 10
62.99238256638573
 20
156.459578349435
 10
62.99173472358662
 20
156.471084715768
 10
62.9909497601394
 20
156.482582318419
 10
62.99002736192313
 20
156.4940694944479
 10
62.9889672146935
 20
156.5055446218079
 10
62.98776900420667
 20
156.5170060784498
 10
62.98643241656272
 20
156.5284522422909
 10
62.98495730549861
 20
156.53988147408
 10
62.9833439617631
 20
156.5512920898119
 10
62.98159274641888
 20
156.5626823982829
 10
62.97970402052849
 20
156.574050708286
 10
62.9776781462939
 20
156.585395329106
 10
62.97551564804329
 20
156.5967146395909
 10
62.97321737893522
 20
156.60800715969
 10
62.97078423193251
 20
156.619271426429
 10
62.96783948138732
 20
156.632108401478
 10
62.96472101107111
 20
156.644904363871
 10
62.96142900648891
 20
156.657656783496
 10
62.95796261056942
 20
156.6703628155719
 10
62.95478575243111
 20
156.6814402951569
 10
62.95147408613289
 20
156.692478157523
 10
62.94802734037912
 20
156.70347458916
 10
62.94392432630671
 20
156.7159894525969
 10
62.93964875252122
 20
156.7284465360828
 10
62.93520295791392
 20
156.740843967812
 10
62.93058922398381
 20
156.753179859312
 10
62.9258088038027
 20
156.765452023378
 10
62.92086206187939
 20
156.7776580147009
 10
62.91574933349114
 20
156.78979537948
 10
62.91047095551332
 20
156.801861664025
 10
62.90502742711261
 20
156.8138544256469
 10
62.89941954715581
 20
156.825771241973
 10
62.89364814687528
 20
156.8376096928268
 10
62.88771405750363
 20
156.84936735803
 10
62.88161837237669
 20
156.861041983739
 10
62.87536323799059
 20
156.872631984451
 10
62.86895106532342
 20
156.8841359425079
 10
62.86238426535332
 20
156.8955524402499
 10
62.8556651014274
 20
156.906879971463
 10
62.84879444202301
 20
156.918116193246
 10
62.84177238798314
 20
156.9292583022449
 10
62.83459903217371
 20
156.9403034903199
 10
62.82727450942592
 20
156.951248976738
 10
62.81885533783881
 20
156.963440952667
 10
62.81024990669624
 20
156.9755023335688
 10
62.80146177687178
 20
156.9874313603509
 10
62.79249443249025
 20
156.9992262260566
 10
62.78335035908781
 20
157.0108845009559
 10
62.77403134355232
 20
157.0224033196018
 10
62.76453915841972
 20
157.0337798075989
 10
62.75487567052589
 20
157.045011165843
 10
62.74504332830153
 20
157.0560950595999
 10
62.73392371199542
 20
157.068234920385
 10
62.72260259166293
 20
157.080187101962
 10
62.71108351068249
 20
157.0919485749818
 10
62.6993697952238
 20
157.1035161834499
 10
62.6874647482159
 20
157.114886757821
 10
62.67537174263193
 20
157.126057211134
 10
62.66309457768159
 20
157.137024958978
 10
62.65189094552521
 20
157.1467206390819
 10
62.64054423837222
 20
157.156248442526
 10
62.62905735572012
 20
157.1656067158219
 10
62.61743321975803
 20
157.174793969732
 10
62.60567475504031
 20
157.1838087321389
 10
62.59378487454839
 20
157.192649513781
 10
62.58176618174402
 20
157.2013143668399
 10
62.56962094438752
 20
157.209800846151
 10
62.55735141341889
 20
157.2181064816328
 10
62.5449599048802
 20
157.226228911535
 10
62.53244952014131
 20
157.2341670809129
 10
62.51982388111253
 20
157.241920801018
 10
62.5070866190248
 20
157.2494898986109
 10
62.49424124145043
 20
157.2568740056109
 10
62.4812904302029
 20
157.264071452839
 10
62.46823652887481
 20
157.271080038201
 10
62.45654841003553
 20
157.2771495596539
 10
62.44478240032101
 20
157.2830666929369
 10
62.43294060786652
 20
157.2888307556989
 10
62.42102528614502
 20
157.294441337307
 10
62.40903868885132
 20
157.299898027544
 10
62.39698306414228
 20
157.305200410729
 10
62.38486056121391
 20
157.3103479734859
 10
62.37267324390391
 20
157.315340118184
 10
62.36042317325189
 20
157.3201762444259
 10
62.34811241020961
 20
157.3248557515059
 10
62.33574300188132
 20
157.32937798966
 10
62.32331696651304
 20
157.333742206893
 10
62.31083631874373
 20
157.33794763843
 10
62.2983030732124
 20
157.3419935194968
 10
62.28571926747393
 20
157.345879188641
 10
62.27308706561713
 20
157.3496045549179
 10
62.26040867516491
 20
157.353169723216
 10
62.24768630367941
 20
157.356574798601
 10
62.23492215106143
 20
157.359819855039
 10
62.22211827391253
 20
157.362904384821
 10
62.20927660173803
 20
157.3658273643339
 10
62.19639905963671
 20
157.3685877520778
 10
62.18348757304632
 20
157.3711845085119
 10
62.17054414981381
 20
157.3736170710199
 10
62.15757098714973
 20
157.375885972882
 10
62.14457030876092
 20
157.3779919007189
 10
62.13154433835441
 20
157.379935541151
 10
62.1184952737413
 20
157.381717440046
 10
62.10542513691931
 20
157.383337187671
 10
62.09233587679162
 20
157.3847939769999
 10
62.07922944202302
 20
157.386086999709
 10
62.06610778386222
 20
157.3872154599898
 10
62.0529729321924
 20
157.3881789428579
 10
62.03982700795942
 20
157.3889774743348
 10
62.02667213719512
 20
157.389611105079
 10
62.01351044592291
 20
157.390079885774
 10
62.00034402082803
 20
157.3903840076638
 10
61.98717481845292
 20
157.3905241269879
 10
61.97400476846342
 20
157.390500996019
 10
61.96083580052523
 20
157.3903153670279
 10
61.94766986085632
 20
157.389967993579
 10
61.93450908487731
 20
157.3894596440258
 10
61.92135572856631
 20
157.388791096147
 10
61.9082120498439
 20
157.38796312787
 10
61.89837196959481
 20
157.387238779222
  0
LWPOLYLINE
  5
8B3
330
1E
100
AcDbEntity
  8
1
100
AcDbPolyline
 90
        3
 70
     0
 43
0.0
 10
57.1521267908
 20
-13.22876065660008
 10
57.0496548930204
 20
-13.2852637291395
 10
56.9949971262566
 20
-13.31603199351851
  0
LWPOLYLINE
  5
8B8
330
1E
100
AcDbEntity
  8
1
100
AcDbPolyline
 90
      130
 70
     0
 43
0.0
 10
56.9949884272
 20
-13.31603692569998
 10
56.87600174420179
 20
-13.38456081401051
 10
56.75794211279839
 20
-13.45468617013799
 10
56.6408312558882
 20
-13.5264086891684
 10
56.52469089636999
 20
-13.59972406618769
 10
56.4095427571422
 20
-13.6746279962816
 10
56.2954085611035
 20
-13.75111617453598
 10
56.1823103495066
 20
-13.82918324232899
 10
56.0563433739142
 20
-13.91888020774921
 10
55.931753960134
 20
-14.0105374935289
 10
55.8085778671085
 20
-14.1041329860019
 10
55.6868508537803
 20
-14.19964457150197
 10
55.5666086790919
 20
-14.2970501363631
 10
55.44788710198609
 20
-14.396327566919
 10
55.33072188140529
 20
-14.49745474950367
 10
55.2151487762922
 20
-14.6004095704509
 10
55.10120354558928
 20
-14.70516991609451
 10
54.9889219482392
 20
-14.8117136727684
 10
54.8783397431845
 20
-14.9200187268064
 10
54.7694926893677
 20
-15.0300629645424
 10
54.6624162334003
 20
-15.14182403538868
 10
54.5571417031456
 20
-15.25527646444579
 10
54.4536975175484
 20
-15.3703925702286
 10
54.3521120343986
 20
-15.4871446248628
 10
54.2524136114866
 20
-15.6055049004741
 10
54.15463060660229
 20
-15.7254456691881
 10
54.0587913775359
 20
-15.8469392031306
 10
53.9649242820775
 20
-15.96995777442709
 10
53.8831654070461
 20
-16.08056547826841
 10
53.80300708377578
 20
-16.19233676727931
 10
53.724469228849
 20
-16.30525216728759
 10
53.6475717588481
 20
-16.4192922041208
 10
53.57233459035541
 20
-16.5344374036066
 10
53.4987776399533
 20
-16.6506682915726
 10
53.42692008654
 20
-16.767964344513
 10
53.3567780793437
 20
-16.88630072930869
 10
53.2883669899175
 20
-17.0056515066206
 10
53.2217021898135
 20
-17.125990737109
 10
53.1567990505842
 20
-17.24729248143421
 10
53.09367294378169
 20
-17.36953080025631
 10
53.0323392409585
 20
-17.4926797542356
 10
52.9728133136669
 20
-17.61671340403228
 10
52.9151105334591
 20
-17.74160581030669
 10
52.86612823520121
 20
-17.8515707227038
 10
52.81856385051328
 20
-17.9621558833909
 10
52.7724276771345
 20
-18.07334391503689
 10
52.727730012804
 20
-18.18511744031081
 10
52.6844811552609
 20
-18.29745908188129
 10
52.64269140224438
 20
-18.41035146241728
 10
52.6023709980843
 20
-18.52377718125898
 10
52.56352790335239
 20
-18.63771784021929
 10
52.52616698600029
 20
-18.75215369028001
 10
52.4902928941216
 20
-18.86706488639021
 10
52.4559102758099
 20
-18.98243158349939
 10
52.42302377915879
 20
-19.09823393655689
 10
52.3916380522621
 20
-19.21445210051221
 10
52.3617577432133
 20
-19.33106623031461
 10
52.33338750010609
 20
-19.44805648091351
 10
52.306531971034
 20
-19.56540300725819
 10
52.28119580409078
 20
-19.6830859642981
 10
52.2573836473701
 20
-19.80108550698258
 10
52.2351001489655
 20
-19.91938179026099
 10
52.21434995697061
 20
-20.0379549690828
 10
52.195137719479
 20
-20.15678519839731
 10
52.17746808458439
 20
-20.27585263315391
 10
52.16134570038049
 20
-20.39513742830191
 10
52.1467749931886
 20
-20.51461973788769
 10
52.1337571469075
 20
-20.6342797027555
 10
52.1222908876949
 20
-20.75409745374189
 10
52.1123748806591
 20
-20.8740531214353
 10
52.1040077909081
 20
-20.9941268364238
 10
52.0971882835502
 20
-21.11429872929579
 10
52.0919150236936
 20
-21.2345489306393
 10
52.08818667644639
 20
-21.35485757104271
 10
52.0860019069169
 20
-21.47520478109421
 10
52.08535938021309
 20
-21.595570691382
 10
52.0862577614434
 20
-21.7159354324943
 10
52.0886957157159
 20
-21.83627913501939
 10
52.09267190813871
 20
-21.95658192954539
 10
52.0981850038202
 20
-22.07682394666071
 10
52.1052336678683
 20
-22.19698531695339
 10
52.11381656539138
 20
-22.31704617101189
 10
52.1239323607721
 20
-22.43698663964799
 10
52.1355785325574
 20
-22.55678721958369
 10
52.14874895941189
 20
-22.67642951834501
 10
52.1634368394351
 20
-22.79589535345801
 10
52.17963537072662
 20
-22.91516654244869
 10
52.19733775138579
 20
-23.03422490284321
 10
52.2165371795123
 20
-23.15305225216739
 10
52.23722685320559
 20
-23.27163040794729
 10
52.2593999705653
 20
-23.3899411877091
 10
52.28304972969089
 20
-23.50796640897871
 10
52.30816932868179
 20
-23.6256878892821
 10
52.3347519656377
 20
-23.74308744614539
 10
52.362790838658
 20
-23.86014689709447
 10
52.3922791458423
 20
-23.97684805965559
 10
52.42321008529
 20
-24.0931727513546
 10
52.45557685510078
 20
-24.20910278971748
 10
52.48937265337421
 20
-24.32461999227041
 10
52.52459067700828
 20
-24.43970617817501
 10
52.5612233910958
 20
-24.55434416308681
 10
52.60480940783089
 20
-24.68479161434781
 10
52.6502160803119
 20
-24.81461375367199
 10
52.69742872413771
 20
-24.9437896098702
 10
52.7464326549076
 20
-25.0722982117533
 10
52.7972131882206
 20
-25.20011858813251
 10
52.84975563967599
 20
-25.32722976781849
 10
52.90404532487279
 20
-25.45361077962251
 10
52.96006755941011
 20
-25.57924065235519
 10
53.01780765888722
 20
-25.70409841482771
 10
53.077250938903
 20
-25.82816309585089
 10
53.1383827150569
 20
-25.9514137242358
 10
53.2011883029478
 20
-26.0738293287933
 10
53.26565301817488
 20
-26.1953889383344
 10
53.33176217633739
 20
-26.3160715816701
 10
53.39950076472129
 20
-26.43585635708419
 10
53.4688502588247
 20
-26.55472310597549
 10
53.53979000530522
 20
-26.67265212021791
 10
53.62147231569069
 20
-26.80417684422101
 10
53.7051116628699
 20
-26.93446176069301
 10
53.79067859758769
 20
-27.06347881763161
 10
53.87814367058889
 20
-27.1911999630341
 10
53.96747743261809
 20
-27.31759714489791
 10
54.05865043442039
 20
-27.44264231122039
 10
54.15163322674029
 20
-27.5663074099992
 10
54.2463963603228
 20
-27.68856438923161
 10
54.35374096705579
 20
-27.82271986000041
 10
54.463206772076
 20
-27.95506379936099
 10
54.5747533786
 20
-28.08555772720001
 10
54.5747468196014
 20
-28.08555017872071
  0
LWPOLYLINE
  5
93C
330
1E
100
AcDbEntity
  8
1
100
AcDbPolyline
 90
       32
 70
     0
 43
0.0
 10
57.36218092720002
 20
155.7217951693
 10
57.34616200395882
 20
155.722408194969
 10
57.32174135741843
 20
155.72360204255
 10
57.25567128332682
 20
155.7271911513169
 10
57.23726455515252
 20
155.72796506198
 10
57.21950140987821
 20
155.728610980977
 10
57.21576860682922
 20
155.7288041603609
 10
57.21278922948862
 20
155.7289911433599
 10
57.21018872440262
 20
155.729183476462
 10
57.20778039813872
 20
155.729389718979
 10
57.20574810864381
 20
155.7295874481959
 10
57.20372146629411
 20
155.729808503606
 10
57.20188442674471
 20
155.730031326946
 10
57.20005292082902
 20
155.7302764696399
 10
57.19840963781951
 20
155.730517378163
 10
57.19677147212632
 20
155.730778594354
 10
57.19531986405249
 20
155.73102868849
 10
57.19387274825702
 20
155.731296403981
 10
57.19243033601832
 20
155.731582482377
 10
57.19099283861473
 20
155.7318876652269
 10
57.18973922618022
 20
155.732170954797
 10
57.18848967996631
 20
155.732469935743
 10
57.18724434151321
 20
155.732785104843
 10
57.18600335236081
 20
155.7331169588769
 10
57.18476685404922
 20
155.7334659946258
 10
57.18353498811842
 20
155.733832708868
 10
57.1824828973216
 20
155.734161482567
 10
57.18143440302831
 20
155.7345039223688
 10
57.1803895943716
 20
155.734860341114
 10
57.17934856048442
 20
155.735231051644
 10
57.17831139050002
 20
155.7356163668
 10
57.17832074046722
 20
155.7356128204198
  0
LWPOLYLINE
  5
95E
330
1E
100
AcDbEntity
  8
1
100
AcDbPolyline
 90
       45
 70
     0
 43
0.0
 10
57.17831139050002
 20
155.7356163668
 10
57.17821428193102
 20
155.7356531102049
 10
57.1780690370056
 20
155.7357081832718
 10
57.17793714166861
 20
155.735759046532
 10
57.17783390587753
 20
155.735799908485
 10
57.17774731313522
 20
155.7358351782229
 10
57.17767128390441
 20
155.735867079076
 10
57.17760174546331
 20
155.735897161587
 10
57.17753870233789
 20
155.73592529341
 10
57.17748010643322
 20
155.7359522675639
 10
57.17742593759981
 20
155.735977992535
 10
57.17737417474922
 20
155.736003355989
 10
57.17732481484151
 20
155.736028321189
 10
57.17727784683592
 20
155.736052847007
 10
57.17723325264552
 20
155.736076888599
 10
57.17719100805481
 20
155.7361003980689
 10
57.17715108359781
 20
155.7361233250919
 10
57.17711344539853
 20
155.7361456175199
 10
57.17707620361333
 20
155.7361683707829
 10
57.17704120965292
 20
155.7361904265069
 10
57.17700660931193
 20
155.736212923788
 10
57.17697420896161
 20
155.736234655634
 10
57.17694219241803
 20
155.7362568056209
 10
57.17691057453372
 20
155.7362793843759
 10
57.17688109263671
 20
155.7363011120299
 10
57.17685199209451
 20
155.7363232405629
 10
57.17682328541911
 20
155.7363457789259
 10
57.17679663837281
 20
155.7363673738989
 10
57.1767703617338
 20
155.736389347297
 10
57.17674446593381
 20
155.736411706583
 10
57.17672054377692
 20
155.7364330255159
 10
57.17669697410531
 20
155.736454696317
 10
57.17667376551432
 20
155.736476725135
 10
57.17665243752021
 20
155.7364976138009
 10
57.17663143854311
 20
155.7365188246969
 10
57.17661077557131
 20
155.7365403628208
 10
57.17659045559321
 20
155.736562233173
 10
57.17657190026979
 20
155.736582843207
 10
57.17655365231173
 20
155.7366037480169
 10
57.1765357173141
 20
155.736624951605
 10
57.17651810087232
 20
155.736646457975
 10
57.17650080858152
 20
155.7366682711299
 10
57.17648513901369
 20
155.736688682105
 10
57.17646975481383
 20
155.736709361042
 10
57.17646930796941
 20
155.736709971603
  0
LWPOLYLINE
  5
98D
330
1E
100
AcDbEntity
  8
1
100
AcDbPolyline
 90
       78
 70
     0
 43
0.0
 10
48.62891162020003
 20
153.1826694293999
 10
48.42276085577903
 20
153.2284052114019
 10
48.24768636491122
 20
153.268929303689
 10
48.09139406070902
 20
153.3067856629508
 10
47.94904145039678
 20
153.3429391644809
 10
47.82083172253964
 20
153.37710726811
 10
47.70161327104611
 20
153.4104561334498
 10
47.60161340938502
 20
153.439759227537
 10
47.51285846380978
 20
153.466905387621
 10
47.43512967373992
 20
153.4916501888579
 10
47.36324414428751
 20
153.5154185764579
 10
47.27993681385011
 20
153.544112548572
 10
47.20701991040072
 20
153.570289023484
 10
47.14162513482961
 20
153.594632347475
 10
47.08350830406291
 20
153.616963130673
 10
47.0276851768359
 20
153.639030003906
 10
46.97649833685622
 20
153.659791066351
 10
46.927464858603
 20
153.680143731088
 10
46.8805494503298
 20
153.7000337361758
 10
46.83573780196629
 20
153.7194018705418
 10
46.7930336286444
 20
153.7381851527779
 10
46.74990634556349
 20
153.757466276737
 10
46.70888380908928
 20
153.7760861918638
 10
46.66739884027482
 20
153.7951820440048
 10
46.62804891368552
 20
153.81353171883
 10
46.59089104203791
 20
153.8310612341479
 10
46.55598896640211
 20
153.8476973417099
 10
46.5207239140266
 20
153.864701806359
 10
46.49352392793651
 20
153.878096842649
 10
46.46914866559939
 20
153.890442282261
 10
46.44767182623922
 20
153.901684140338
 10
46.42909960343181
 20
153.91175356106
 10
46.41339162046172
 20
153.920574183272
 10
46.40047924876042
 20
153.928068585407
 10
46.38775160593717
 20
153.93570197487
 10
46.37523049965589
 20
153.9434820241899
 10
46.36537697569109
 20
153.949816814684
 10
46.35568075754201
 20
153.956254306242
 10
46.34615301073231
 20
153.9627984271989
 10
46.33680490078581
 20
153.969453105891
 10
46.32764759322661
 20
153.976222270653
 10
46.31869225357838
 20
153.9831098498208
 10
46.3121150070444
 20
153.9883556067899
 10
46.30566235852292
 20
153.993671838817
 10
46.29933901846928
 20
153.9990602031689
 10
46.29314969733901
 20
154.0045223571129
 10
46.28709910558741
 20
154.0100599579148
 10
46.2811919536699
 20
154.015674662842
 10
46.27543295204192
 20
154.0213681291588
 10
46.26982681115872
 20
154.027142014134
 10
46.26437824147568
 20
154.032997975034
 10
46.25909195344841
 20
154.0389376691239
 10
46.25397265753202
 20
154.044962753671
 10
46.2490250641821
 20
154.051074885942
 10
46.24425388385392
 20
154.057275723203
 10
46.23966382700281
 20
154.063566922721
 10
46.23525960408431
 20
154.069950141762
 10
46.23104592555372
 20
154.0764270375938
 10
46.22702750186652
 20
154.082999267481
 10
46.22320904347793
 20
154.0896684886918
 10
46.21959526084341
 20
154.0964363584919
 10
46.21619086441842
 20
154.103304534148
 10
46.21300056465822
 20
154.110274672926
 10
46.21002907201822
 20
154.1173484320939
 10
46.20728109695392
 20
154.124527468917
 10
46.20476134992062
 20
154.131813440662
 10
46.20247454137362
 20
154.139208004596
 10
46.20042538176853
 20
154.1467128179849
 10
46.19919362870572
 20
154.1517780950109
 10
46.19807098662099
 20
154.1568935994
 10
46.19705885120501
 20
154.162059822194
 10
46.19615861814801
 20
154.1672772544339
 10
46.19537168314061
 20
154.1725463871629
 10
46.19469985566102
 20
154.1778659046839
 10
46.19414713837412
 20
154.183224915098
 10
46.19371825781222
 20
154.188609365854
 10
46.19341794095952
 20
154.194005202429
 10
46.19325109841589
 20
154.1993883719529
  0
LWPOLYLINE
  5
9DD
330
1E
100
AcDbEntity
  8
1
100
AcDbPolyline
 90
       96
 70
     0
 43
0.0
 10
61.60000000000001
 20
148.1411213474
 10
61.59987199558642
 20
148.1602445488509
 10
61.59949002486023
 20
148.1793694983809
 10
61.59885715159354
 20
148.1984934434749
 10
61.59797643955831
 20
148.2176136316168
 10
61.5968509525268
 20
148.2367273102939
 10
61.59548375427091
 20
148.2558317269879
 10
61.59387790856271
 20
148.2749241291859
 10
61.59203647917431
 20
148.294001764372
 10
61.58996252987773
 20
148.31306188003
 10
61.58765912444501
 20
148.3321017236459
 10
61.58512932664823
 20
148.3511185427049
 10
61.58196484422981
 20
148.372820325942
 10
61.57851324065123
 20
148.3944843324539
 10
61.57477908923982
 20
148.416106453533
 10
61.5707669633231
 20
148.4376825804648
 10
61.56648143622831
 20
148.4592086045419
 10
61.56192708128301
 20
148.480680417051
 10
61.55710847181453
 20
148.502093909284
 10
61.55203018115012
 20
148.5234449725268
 10
61.54669678261718
 20
148.544729498073
 10
61.54039746997232
 20
148.5685899401409
 10
61.53378726266089
 20
148.5923557177389
 10
61.52687080834639
 20
148.61602442321
 10
61.5196522966946
 20
148.6395944947469
 10
61.51213591729582
 20
148.6630643706799
 10
61.50432585974042
 20
148.6864324893419
 10
61.49622631361881
 20
148.709697289063
 10
61.48784146852118
 20
148.732857208174
 10
61.47917551403802
 20
148.7559106850059
 10
61.46922207523703
 20
148.781398920132
 10
61.45893250718303
 20
148.806751674843
 10
61.44831255691364
 20
148.831966806934
 10
61.43736797146631
 20
148.8570421741959
 10
61.42610449787861
 20
148.8819756344249
 10
61.41452788318802
 20
148.906765045411
 10
61.40264387443203
 20
148.9314082649489
 10
61.38922328374412
 20
148.9583443985939
 10
61.37544534945922
 20
148.9850981972379
 10
61.36131719473921
 20
149.011666848467
 10
61.34684388699191
 20
149.0380476917148
 10
61.3320299916104
 20
149.0642381034969
 10
61.31688007398793
 20
149.090235460328
 10
61.29997502374381
 20
149.1183729521189
 10
61.28268143957981
 20
149.146274164401
 10
61.26500524861762
 20
149.173935691178
 10
61.24695237797951
 20
149.2013541264539
 10
61.22852875478741
 20
149.22852606423
 10
61.20974030616333
 20
149.2554480985089
 10
61.18898133250802
 20
149.284327676153
 10
61.16780868762273
 20
149.312905636534
 10
61.1462299073216
 20
149.341177649228
 10
61.12425252486472
 20
149.369139383477
 10
61.10188340032703
 20
149.396786421245
 10
61.07736153038683
 20
149.426202913306
 10
61.05239778891981
 20
149.4552432626636
 10
61.02699850010163
 20
149.4839016603699
 10
61.00116998810771
 20
149.5121722974749
 10
60.97491857711381
 20
149.5400493650319
 10
60.94825059129522
 20
149.5675270540909
 10
60.9192226638062
 20
149.596517647719
 10
60.89171189097081
 20
149.6231495737729
 10
60.86380396756432
 20
149.6493642795599
 10
60.83550521776231
 20
149.6751559561318
 10
60.80682193475362
 20
149.7005187582169
 10
60.77775941408662
 20
149.7254456710759
 10
60.75043680750992
 20
149.748194444831
 10
60.72279398091882
 20
149.770553330583
 10
60.69483416791661
 20
149.7925155323128
 10
60.66656060210654
 20
149.8140742539989
 10
60.63797651709172
 20
149.835222699619
 10
60.61131839555651
 20
149.854374314071
 10
60.5844009881862
 20
149.8731652082369
 10
60.55722683829753
 20
149.891590036861
 10
60.52979848920671
 20
149.9096434546889
 10
60.50211848423042
 20
149.927320116467
 10
60.4741893666852
 20
149.9446146769389
 10
60.44601367988754
 20
149.961521790852
 10
60.41997181049431
 20
149.97667471205
 10
60.39372910701912
 20
149.991490675371
 10
60.36729016093712
 20
150.005962312885
 10
60.34065956502702
 20
150.020082255049
 10
60.31384191206792
 20
150.0338431323219
 10
60.28930377002431
 20
150.0460352342489
 10
60.26461828168601
 20
150.0579189609559
 10
60.23978889767562
 20
150.069488775597
 10
60.21481906861589
 20
150.0807391413269
 10
60.18971224512961
 20
150.0916645213
 10
60.16447187783951
 20
150.1022593786709
 10
60.13910141736842
 20
150.1125181765939
 10
60.11615962521432
 20
150.121459187693
 10
60.09311776809202
 20
150.1301194694329
 10
60.06997836150539
 20
150.1384949854549
 10
60.04674392095852
 20
150.1465816993968
 10
60.02341696195543
 20
150.154375574899
 10
60.00000954298243
 20
150.161869587039
  0
LWPOLYLINE
  5
A3F
330
1E
100
AcDbEntity
  8
1
100
AcDbPolyline
 90
       11
 70
     0
 43
0.0
 10
58.0662517628
 20
-12.34252000450001
 10
57.96087885871511
 20
-12.35813814859181
 10
57.8556490330697
 20
-12.3748371944893
 10
57.75157136135661
 20
-12.3924483637545
 10
57.64767056878938
 20
-12.4111281009075
 10
57.54396481268759
 20
-12.4308803692035
 10
57.44145683146
 20
-12.45150567298351
 10
57.33917564598449
 20
-12.4731909152423
 10
57.23811880266
 20
-12.49571612902159
 10
57.1373188597929
 20
-12.51928851430551
 10
57.0797111441492
 20
-12.53326191727021
  0
LWPOLYLINE
  5
A4C
330
1E
100
AcDbEntity
  8
1
100
AcDbPolyline
 90
       16
 70
     0
 43
0.0
 10
57.07970143309999
 20
-12.5332643038001
 10
56.9801364154745
 20
-12.55828639334509
 10
56.8808219699725
 20
-12.58436116040019
 10
56.78316863985189
 20
-12.61110479336831
 10
56.68579359653629
 20
-12.6388824060392
 10
56.5887145823972
 20
-12.66769918560308
 10
56.4933294085208
 20
-12.69712635434711
 10
56.39826609812079
 20
-12.7275732196626
 10
56.3035416439921
 20
-12.7590447495921
 10
56.21053807831279
 20
-12.79106750438141
 10
56.1178963866047
 20
-12.82409501885281
 10
56.0269866390276
 20
-12.8576252403004
 10
55.9364584535614
 20
-12.89214610733028
 10
55.8476686003584
 20
-12.92713045262081
 10
55.7606131571013
 20
-12.9625438593209
 10
55.70724748874368
 20
-12.9848100768441
  0
LWPOLYLINE
  5
A5E
330
1E
100
AcDbEntity
  8
1
100
AcDbPolyline
 90
       15
 70
     0
 43
0.0
 10
55.70723827310001
 20
-12.98481395910008
 10
55.6225690961996
 20
-13.0210318517878
 10
55.5383051563292
 20
-13.05818797560529
 10
55.4555174739518
 20
-13.0958040003244
 10
55.3742020392616
 20
-13.13385378769821
 10
55.2943543264213
 20
-13.17231098533699
 10
55.21597581345869
 20
-13.2111510111852
 10
55.1390752307601
 20
-13.25035144516211
 10
55.0636600458729
 20
-13.28988947071681
 10
54.98973594306
 20
-13.3297417316413
 10
54.91730689196878
 20
-13.36988436668258
 10
54.84637521535828
 20
-13.41029304367991
 10
54.7769416558863
 20
-13.45094299322871
 10
54.7080101166138
 20
-13.49241602735419
 10
54.6702781690393
 20
-13.5156062202806
  0
LWPOLYLINE
  5
A6F
330
1E
100
AcDbEntity
  8
1
100
AcDbPolyline
 90
       10
 70
     0
 43
0.0
 10
60.00000000000002
 20
150.1618725756
 10
58.60503926509029
 20
150.590655367908
 10
57.22816960745512
 20
150.998021421863
 10
55.86973308317261
 20
151.3844541422439
 10
54.51867721955089
 20
151.7534903095429
 10
53.18659412777843
 20
152.102357542253
 10
51.87375870904243
 20
152.431572149945
 10
50.56899752248003
 20
152.7443353568399
 10
49.28401686800532
 20
153.0382417604579
 10
48.62892139139912
 20
153.1826673025079
  0
LWPOLYLINE
  5
A7B
330
1E
100
AcDbEntity
  8
1
100
AcDbPolyline
 90
        9
 70
     0
 43
0.0
 10
58.06548265410003
 20
155.3610803295998
 10
58.03132435455641
 20
155.3865430512099
 10
57.99841466970703
 20
155.410429653376
 10
57.96656956731712
 20
155.432939977295
 10
57.93582554825781
 20
155.4541083295729
 10
57.90575300189272
 20
155.474278347421
 10
57.87660858996041
 20
155.4933199009429
 10
57.84818360866212
 20
155.511411612519
 10
57.83614854422332
 20
155.5189288237896
  0
LWPOLYLINE
  5
A86
330
1E
100
AcDbEntity
  8
1
100
AcDbPolyline
 90
        5
 70
     0
 43
0.0
 10
57.83614004930003
 20
155.5189340997999
 10
57.80837366146172
 20
155.535953339597
 10
57.78124039260394
 20
155.552148650817
 10
57.75467542185671
 20
155.5675878466749
 10
57.7529180222016
 20
155.5685946864628
  0
LWPOLYLINE
  5
A8D
330
1E
100
AcDbEntity
  8
1
100
AcDbPolyline
 90
        8
 70
     0
 43
0.0
 10
57.75290934340002
 20
155.5685996542
 10
57.72642156144902
 20
155.5835564337369
 10
57.70053246854519
 20
155.597779775844
 10
57.67525966995703
 20
155.6112878619819
 10
57.65046247721699
 20
155.6241802698409
 10
57.62615410722371
 20
155.6364711259089
 10
57.60234717823782
 20
155.6481750894729
 10
57.59646431238231
 20
155.6510163907329
  0
LWPOLYLINE
  5
A97
330
1E
100
AcDbEntity
  8
1
100
AcDbPolyline
 90
        8
 70
     0
 43
0.0
 10
57.59645530160002
 20
155.6510207272999
 10
57.57269149613112
 20
155.662292874193
 10
57.54941926359352
 20
155.673013158745
 10
57.52665123787451
 20
155.6831960352969
 10
57.50424228024751
 20
155.6929235388089
 10
57.48220153608332
 20
155.7022057561239
 10
57.46053771019713
 20
155.7110531124848
 10
57.43990483991693
 20
155.7192246054729
  0
LWPOLYLINE
  5
AA1
330
1E
100
AcDbEntity
  8
1
100
AcDbPolyline
 90
        2
 70
     0
 43
0.0
 10
57.43989552340003
 20
155.7192282389999
 10
57.36219092180341
 20
155.721794840814
  0
LWPOLYLINE
  5
AA5
330
1E
100
AcDbEntity
  8
1
100
AcDbPolyline
 90
        2
 70
     0
 43
0.0
 10
61.6
 20
-36.08432868370011
 10
54.5747599376021
 20
-28.0855652756761
  0
LWPOLYLINE
  5
AA9
330
1E
100
AcDbEntity
  8
1
100
AcDbPolyline
 90
       86
 70
     0
 43
0.0
 10
61.0988881137
 20
-4.095380964500074
 10
61.114960520227
 20
-4.099673501298465
 10
61.13159566223419
 20
-4.104299336738455
 10
61.1487830153641
 20
-4.109273438857666
 10
61.16593887744329
 20
-4.114435356205737
 10
61.1836230844666
 20
-4.119962201702786
 10
61.20181998783969
 20
-4.125868101432966
 10
61.21994641538758
 20
-4.131972929975924
 10
61.23855286410971
 20
-4.138471509323756
 10
61.25761768149128
 20
-4.145376748760666
 10
61.2771164870038
 20
-4.152701065903515
 10
61.297021986563
 20
-4.160456307639885
 10
61.3173037815314
 20
-4.168653668740835
 10
61.3384679267283
 20
-4.177534322987064
 10
61.35832447365249
 20
-4.186179224113897
 10
61.37742162081329
 20
-4.194795245730235
 10
61.3921286395524
 20
-4.201672993810785
 10
61.4041215705134
 20
-4.207470813521544
 10
61.4144905888853
 20
-4.212640760836984
 10
61.4237785550107
 20
-4.217409256382846
 10
61.4325146789946
 20
-4.222023891951065
 10
61.440707213414
 20
-4.226474308444796
 10
61.44836330543359
 20
-4.230748203434576
 10
61.4554891095265
 20
-4.234831795283993
 10
61.4620898931508
 20
-4.238710258267536
 10
61.4686762945094
 20
-4.242676429354146
 10
61.47474417666161
 20
-4.246419032114256
 10
61.4808014949211
 20
-4.250243330291214
 10
61.48634544973
 20
-4.253823558158455
 10
61.4918818350313
 20
-4.257477814793094
 10
61.49741127595839
 20
-4.261208674158825
 10
61.50243254036031
 20
-4.264669003855495
 10
61.5074490519209
 20
-4.268196702694114
 10
61.512461280312
 20
-4.271793704531694
 10
61.51746969520569
 20
-4.275461943225255
 10
61.52247476627369
 20
-4.279203352631806
 10
61.52697685944779
 20
-4.282634780390126
 10
61.53147696694817
 20
-4.286128452631926
 10
61.5359754311657
 20
-4.289685779138943
 10
61.54047224744609
 20
-4.293308174544875
 10
61.54495766873377
 20
-4.296997189688306
 10
61.54891852325659
 20
-4.300333617861696
 10
61.5528392602871
 20
-4.303725230026873
 10
61.5567050274155
 20
-4.307173227326645
 10
61.5600308051885
 20
-4.310237422652437
 10
61.56283138164059
 20
-4.312899577381947
 10
61.5651250889094
 20
-4.315143600943845
 10
61.567378467962
 20
-4.317411174837266
 10
61.5695878927217
 20
-4.319702592309976
 10
61.5717497371121
 20
-4.322018146609706
 10
61.573442518035
 20
-4.323888165627455
 10
61.57510067028129
 20
-4.325773970035903
 10
61.5767223372997
 20
-4.327675709977936
 10
61.5783056625391
 20
-4.329593535596365
 10
61.57984878944819
 20
-4.331527597034065
 10
61.5813498614758
 20
-4.333478044433887
 10
61.58280702207079
 20
-4.335445027938667
 10
61.58421841468189
 20
-4.337428697691267
 10
61.5852458070692
 20
-4.338927490676156
 10
61.58624562742288
 20
-4.340435817472306
 10
61.58721709251061
 20
-4.341953741421247
 10
61.5881594190996
 20
-4.343481325864466
 10
61.58907182395751
 20
-4.345018634143505
 10
61.58995352385169
 20
-4.346565729599864
 10
61.5908037355496
 20
-4.348122675575065
 10
61.59162167581879
 20
-4.349689535410623
 10
61.5924065614266
 20
-4.351266372448046
 10
61.5931576091405
 20
-4.352853250028855
 10
61.593874035728
 20
-4.354450231494566
 10
61.59455505795659
 20
-4.356057380186696
 10
61.59519989259369
 20
-4.357674759446747
 10
61.59580775640669
 20
-4.359302432616247
 10
61.5963778661631
 20
-4.360940463036706
 10
61.5969094386304
 20
-4.362588914049636
 10
61.59740169057609
 20
-4.364247848996556
 10
61.5978538387675
 20
-4.365917331218984
 10
61.5982650999722
 20
-4.367597424058436
 10
61.5986346909576
 20
-4.369288190856415
 10
61.5989618284912
 20
-4.370989694954444
 10
61.59924572934031
 20
-4.372701999694036
 10
61.5994856102726
 20
-4.374425168416713
 10
61.5996806880554
 20
-4.376159264463985
 10
61.5998301794562
 20
-4.377904351177356
 10
61.5999333012424
 20
-4.379660491898365
 10
61.59998927018158
 20
-4.381427749968506
 10
61.59999999923559
 20
-4.382602129777134
  0
LWPOLYLINE
  5
B01
330
1E
100
AcDbEntity
  8
1
100
AcDbPolyline
 90
       63
 70
     0
 43
0.0
 10
46.19325091480003
 20
154.1993983703
 10
46.19351903684312
 20
154.217924920092
 10
46.19496771890002
 20
154.2364277555869
 10
46.19754409977139
 20
154.2548688156909
 10
46.20119531825772
 20
154.2732100393109
 10
46.20586851315962
 20
154.2914133653528
 10
46.21151082327768
 20
154.3094407327258
 10
46.21806938741271
 20
154.3272540803359
 10
46.22549134436503
 20
154.3448153470896
 10
46.23372383293538
 20
154.3620864718949
 10
46.24271399192442
 20
154.379029393659
 10
46.25240896013258
 20
154.3956060512869
 10
46.26275587636071
 20
154.4117783836879
 10
46.27370187940921
 20
154.4275083297669
 10
46.28519410807871
 20
154.4427578284329
 10
46.29717970116979
 20
154.457488818592
 10
46.30960668395428
 20
154.4716644687239
 10
46.32244229918151
 20
154.485274602783
 10
46.33567237800892
 20
154.498334827645
 10
46.34928351220691
 20
154.510861805191
 10
46.36326229354629
 20
154.522872197301
 10
46.37759531379751
 20
154.534382665856
 10
46.39226916473107
 20
154.5454098727358
 10
46.40727043811781
 20
154.5559704798209
 10
46.42258572572811
 20
154.5660811489919
 10
46.43820161933262
 20
154.5757585421289
 10
46.45410471070182
 20
154.585019321113
 10
46.47028159160639
 20
154.593880147825
 10
46.4867188538169
 20
154.602357684144
 10
46.51183363157939
 20
154.614391767
 10
46.53745884598968
 20
154.625657169551
 10
46.5635492442736
 20
154.636210125643
 10
46.59005957365681
 20
154.646106869124
 10
46.61694458136492
 20
154.655403633838
 10
46.64415901462371
 20
154.664156653633
 10
46.67165762065891
 20
154.6724221623549
 10
46.70868626057528
 20
154.6827816843959
 10
46.74603238132672
 20
154.6925077864109
 10
46.79299807689431
 20
154.703977733688
 10
46.88707706801189
 20
154.7256143852129
 10
46.98962153171239
 20
154.74888978236
 10
47.10942918394181
 20
154.7759829092339
 10
47.25522675806361
 20
154.8085331123739
 10
47.43565405931831
 20
154.847646226073
 10
47.58813919810353
 20
154.879194780667
 10
47.72254763913752
 20
154.905495217088
 10
47.84827806914328
 20
154.928562275405
 10
47.96557555173482
 20
154.948567076258
 10
48.08349480760714
 20
154.967205995168
 10
48.21110918012053
 20
154.985862235051
 10
48.35764355490603
 20
155.00554098368
 10
48.52322635160472
 20
155.025807184743
 10
48.70790996018142
 20
155.046310156795
 10
48.94872061975772
 20
155.0703714872229
 10
49.32892116989862
 20
155.104164590311
 10
49.87485327534923
 20
155.1474982208899
 10
50.43824636728152
 20
155.1864746155839
 10
51.02006312302304
 20
155.220704259004
 10
51.65819243848432
 20
155.2515567672036
 10
52.43603646087168
 20
155.281118960952
 10
53.47360905174832
 20
155.309973566844
 10
54.64995349438439
 20
155.3310090404619
 10
55.18721840966561
 20
155.336764896493
  0
LWPOLYLINE
  5
B42
330
1E
100
AcDbEntity
  8
1
100
AcDbPolyline
 90
      153
 70
     0
 43
0.0
 10
57.17646343000001
 20
155.7367180570999
 10
57.17591180214072
 20
155.73750019426
 10
57.17539932916164
 20
155.7382650776726
 10
57.17492564280331
 20
155.739012864307
 10
57.17449037480642
 20
155.7397437111299
 10
57.17409315691162
 20
155.740457775111
 10
57.17373362085933
 20
155.741155213219
 10
57.17341139839032
 20
155.7418361824228
 10
57.17312612124493
 20
155.7425008396899
 10
57.17287742116404
 20
155.743149341989
 10
57.17266492988802
 20
155.743781846289
 10
57.17248827915753
 20
155.7443985095579
 10
57.17234710071323
 20
155.7449994887648
 10
57.1722410262956
 20
155.7455849408779
 10
57.17216968764542
 20
155.7461550228669
 10
57.17213271650302
 20
155.746709891699
 10
57.17212974460911
 20
155.747249704343
 10
57.17216040370431
 20
155.7477746177669
 10
57.17222432552922
 20
155.74828478894
 10
57.17232114182442
 20
155.7487803748309
 10
57.17245048433039
 20
155.749261532409
 10
57.17261198478793
 20
155.7497284186409
 10
57.17280527493741
 20
155.7501811904959
 10
57.17302998651963
 20
155.7506200049419
 10
57.17328575127492
 20
155.75104501895
 10
57.17357220094412
 20
155.751456389486
 10
57.17388896726772
 20
155.751854273519
 10
57.17423568198633
 20
155.752238828018
 10
57.17461197684041
 20
155.7526102099519
 10
57.17501748357072
 20
155.7529685762889
 10
57.17545183391782
 20
155.753314083997
 10
57.17591465962232
 20
155.7536468900449
 10
57.17640559242473
 20
155.753967151402
 10
57.17692426406562
 20
155.7542750250359
 10
57.17747030628562
 20
155.754570667915
 10
57.17804335082544
 20
155.754854237009
 10
57.17864302942551
 20
155.7551258892849
 10
57.17926897382652
 20
155.7553857817129
 10
57.17992081576891
 20
155.755634071261
 10
57.18059818699352
 20
155.7558709148969
 10
57.18130071924072
 20
155.756096469589
 10
57.18202804425122
 20
155.7563108923079
 10
57.18277979376551
 20
155.7565143400199
 10
57.18355559952431
 20
155.7567069696949
 10
57.18435509326811
 20
155.7568889382999
 10
57.18517790673753
 20
155.7570604028056
 10
57.18602367167312
 20
155.757221520179
 10
57.18689201981552
 20
155.757372447389
 10
57.18778258290543
 20
155.757513341404
 10
57.18869499268322
 20
155.7576443591929
 10
57.1896288808896
 20
155.757765657724
 10
57.19058387926512
 20
155.757877393966
 10
57.19155961955038
 20
155.757979724887
 10
57.19255573348611
 20
155.7580728074559
 10
57.19357185281271
 20
155.758156798642
 10
57.19513273634312
 20
155.758266082445
 10
57.19673656054403
 20
155.758355793582
 10
57.19838208253982
 20
155.758426461823
 10
57.20006805945492
 20
155.7584786169369
 10
57.2017932484141
 20
155.758512788692
 10
57.20355640654151
 20
155.7585295068579
 10
57.205356290962
 20
155.7585293012019
 10
57.20719165879971
 20
155.758512701494
 10
57.20906126717942
 20
155.758480237503
 10
57.21096387322551
 20
155.758432438997
 10
57.21289823406241
 20
155.7583698357449
 10
57.21486310681461
 20
155.7582929575159
 10
57.21685724860678
 20
155.7582023340789
 10
57.21887941656317
 20
155.758098495203
 10
57.22092836780852
 20
155.757981970656
 10
57.22300285946714
 20
155.757853290208
 10
57.22510164866362
 20
155.7577129836269
 10
57.22722349252242
 20
155.7575615806809
 10
57.23008633229562
 20
155.757343364726
 10
57.23298500250344
 20
155.757107619461
 10
57.23591655707052
 20
155.7568556006339
 10
57.23887804992172
 20
155.756588563994
 10
57.24261752853612
 20
155.756235562448
 10
57.2463934284234
 20
155.7558635103078
 10
57.25096448266152
 20
155.755395354266
 10
57.25711073077862
 20
155.7547412919759
 10
57.28259837831489
 20
155.751890589129
 10
57.28717135847001
 20
155.751381836332
 10
57.29094923891032
 20
155.750968035758
 10
57.29469103955231
 20
155.75056608777
 10
57.29765463588742
 20
155.7502547114129
 10
57.30058851248222
 20
155.7499537461449
 10
57.30348972326139
 20
155.7496644477159
 10
57.30635533922654
 20
155.749388064726
 10
57.30918367388721
 20
155.7491253258709
 10
57.31197510363122
 20
155.74887609666
 10
57.31473019933552
 20
155.7486401612248
 10
57.31744953187654
 20
155.7484173036939
 10
57.32013367213121
 20
155.7482073082
 10
57.32278319097622
 20
155.7480099588708
 10
57.32539865928824
 20
155.747825039837
 10
57.32798064794402
 20
155.7476523352299
 10
57.33052972782043
 20
155.747491629179
 10
57.33304646979392
 20
155.7473427058139
 10
57.33553144474154
 20
155.7472053492649
 10
57.33798522353971
 20
155.7470793436628
 10
57.34040837706531
 20
155.746964473139
 10
57.34280147619511
 20
155.7468605218209
 10
57.34516509180568
 20
155.74676727384
 10
57.34749979477392
 20
155.746684513327
 10
57.34980615597653
 20
155.7466120244109
 10
57.35208474629012
 20
155.7465495912229
 10
57.35433613659152
 20
155.746496997893
 10
57.35656089775742
 20
155.74645402855
 10
57.35930527168811
 20
155.746413521742
 10
57.36201004458301
 20
155.746387293497
 10
57.36467633143583
 20
155.746374922196
 10
57.3673052472401
 20
155.746375986217
 10
57.36989790698952
 20
155.7463900639399
 10
57.37245542567769
 20
155.7464167337428
 10
57.37497891829813
 20
155.746455574007
 10
57.37746949984462
 20
155.746506163111
 10
57.37992828531051
 20
155.7465680794329
 10
57.38283842695452
 20
155.746656737306
 10
57.38570631454241
 20
155.74676037068
 10
57.38853387478314
 20
155.7468782509929
 10
57.39132303438561
 20
155.7470096496859
 10
57.39407572005903
 20
155.7471538381969
 10
57.39724365811582
 20
155.747337251059
 10
57.40036763310981
 20
155.7475359237058
 10
57.40388798270142
 20
155.747780179505
 10
57.40735947430041
 20
155.7480411284039
 10
57.41121218824762
 20
155.748352499121
 10
57.41543514612223
 20
155.748717691253
 10
57.4204345016154
 20
155.749178033258
 10
57.42660135782578
 20
155.74977895775
 10
57.45832658516778
 20
155.7529322632939
 10
57.46332499502539
 20
155.7533578810719
 10
57.46754699975923
 20
155.753688073387
 10
57.47139776566211
 20
155.753963600235
 10
57.47573337268612
 20
155.7542455951149
 10
57.48012672057392
 20
155.754503073068
 10
57.4845754937724
 20
155.754736965954
 10
57.48953039691202
 20
155.754968119551
 10
57.49454648085742
 20
155.7551731030729
 10
57.50008472736553
 20
155.7553683320269
 10
57.50615787891592
 20
155.755548217602
 10
57.51230239351922
 20
155.755697221021
 10
57.51899353628298
 20
155.755825497679
 10
57.52672652529279
 20
155.7559344308089
 10
57.53552441108461
 20
155.75601351529
 10
57.54540603991872
 20
155.7560537843549
 10
57.55788792770021
 20
155.756044663935
 10
57.5770600374591
 20
155.755935137338
 10
57.63533949337862
 20
155.755387001021
 10
57.64781994897003
 20
155.7553214982078
 10
57.65770014239564
 20
155.755305258178
 10
57.66356536497651
 20
155.7553143140189
  0
LWPOLYLINE
  5
BDD
330
1E
100
AcDbEntity
  8
1
100
AcDbPolyline
 90
        2
 70
     0
 43
0.0
 10
57.66357536500002
 20
155.7553143428
 10
57.76341407471901
 20
155.7551187218859
  0
LWPOLYLINE
  5
BE1
330
1E
100
AcDbEntity
  8
1
100
AcDbPolyline
 90
        2
 70
     0
 43
0.0
 10
57.76342407450003
 20
155.7551186557
 10
57.86462492171203
 20
155.7540397411609
  0
LWPOLYLINE
  5
BE5
330
1E
100
AcDbEntity
  8
1
100
AcDbPolyline
 90
       88
 70
     0
 43
0.0
 10
61.6
 20
-42.97988676050009
 10
61.5998365931254
 20
-42.9842057096835
 10
61.59935550809148
 20
-42.98851791525371
 10
61.5985704482837
 20
-42.99281301683921
 10
61.5974951170871
 20
-42.9970806540687
 10
61.59614321788679
 20
-43.0013104665707
 10
61.5945284540682
 20
-43.005492093974
 10
61.59266452901627
 20
-43.009615175907
 10
61.59056514611639
 20
-43.0136693519985
 10
61.5882440087536
 20
-43.01764426187709
 10
61.58571482031309
 20
-43.02152954517128
 10
61.58299128418018
 20
-43.02531484150989
 10
61.58008710374001
 20
-43.0289897905214
 10
61.57701598237768
 20
-43.0325440318345
 10
61.57379162347849
 20
-43.03596720507781
 10
61.57042773042761
 20
-43.03924894987988
 10
61.5669380066101
 20
-43.04237890586938
 10
61.56333615541129
 20
-43.04534671267499
 10
61.55963588021639
 20
-43.04814200992518
 10
61.5558508844105
 20
-43.05075443724879
 10
61.55199487137879
 20
-43.05317363427429
 10
61.54808154450649
 20
-43.05538924063029
 10
61.54412460717889
 20
-43.05739089594551
 10
61.54013776278099
 20
-43.05916823984849
 10
61.5361326679357
 20
-43.06071355577461
 10
61.53211240148388
 20
-43.0620302070942
 10
61.52807779552079
 20
-43.06312445930307
 10
61.5240296821338
 20
-43.06400257790761
 10
61.51996889340999
 20
-43.06467082841381
 10
61.51589626143678
 20
-43.06513547632788
 10
61.51181261830128
 20
-43.0654027871561
 10
61.50771879609089
 20
-43.06547902640449
 10
61.50361562689279
 20
-43.06537045957941
 10
61.49950394279419
 20
-43.06508335218678
 10
61.49538457588239
 20
-43.0646239697331
 10
61.4912583582446
 20
-43.06399857772428
 10
61.4871261219682
 20
-43.06321344166669
 10
61.48298869914022
 20
-43.0622748270664
 10
61.4788469218481
 20
-43.06118899942959
 10
61.47470162217896
 20
-43.05996222426251
 10
61.47055363222019
 20
-43.05860076707118
 10
61.46640378405899
 20
-43.05711089336201
 10
61.46225290978247
 20
-43.05549886864088
 10
61.45810184147808
 20
-43.05377095841429
 10
61.45395141123309
 20
-43.05193342818828
 10
61.44980245113448
 20
-43.04999254346901
 10
61.44565579326978
 20
-43.0479545697626
 10
61.4415122697261
 20
-43.0458257725754
 10
61.43530468145339
 20
-43.04247598856259
 10
61.42910882589389
 20
-43.0389570951901
 10
61.4229275113421
 20
-43.03529023854109
 10
61.41676354609229
 20
-43.03149656469918
 10
61.40857676740488
 20
-43.0262776105067
 10
61.39840382910039
 20
-43.01956610084849
 10
61.38229767959828
 20
-43.00862439910772
 10
61.36841227891649
 20
-42.9991123486961
 10
61.3547339849854
 20
-42.98979080627169
 10
61.34125342228139
 20
-42.98064824348521
 10
61.32796040365249
 20
-42.97166808468441
 10
61.3129849601016
 20
-42.96158264485111
 10
61.29822595993159
 20
-42.95166293201351
 10
61.28186186837218
 20
-42.94067054310421
 10
61.26573081585779
 20
-42.92982135818777
 10
61.24805440743871
 20
-42.9178918149564
 10
61.22714538307421
 20
-42.90368427950791
 10
61.20310396803539
 20
-42.88715207242129
 10
61.17262584171629
 20
-42.86576069165671
 10
61.14748371803599
 20
-42.84763055372579
 10
61.12913196261638
 20
-42.83405812742361
 10
61.1124787743445
 20
-42.82146442509151
 10
61.09418781182331
 20
-42.8073319442829
 10
61.07592778552398
 20
-42.79292389729827
 10
61.05604556035871
 20
-42.77691252516721
 10
61.03455414117219
 20
-42.75924716977878
 10
61.0114689261524
 20
-42.73988374643351
 10
60.98516678414589
 20
-42.71736910065508
 10
60.95568799098891
 20
-42.69161427333428
 10
60.9182062976739
 20
-42.65816817834919
 10
60.85839324119909
 20
-42.60348247628701
 10
60.78813653338759
 20
-42.53783853377778
 10
60.7141558606562
 20
-42.467536800434
 10
60.63036640015958
 20
-42.38641049733209
 10
60.53096558212072
 20
-42.28798104138241
 10
60.4283399512801
 20
-42.18373744931439
 10
60.32682612714697
 20
-42.0779495710602
 10
60.20730274826559
 20
-41.95014989222751
 10
60.06905644585839
 20
-41.7982771080998
 10
60.00000663656778
 20
-41.72091979767301
  0
LWPOLYLINE
  5
C3F
330
1E
100
AcDbEntity
  8
1
100
AcDbPolyline
 90
        2
 70
     0
 43
0.0
 10
55.1872284093
 20
155.336764982
 10
58.06547265444822
 20
155.361080246153
  0
LWPOLYLINE
  5
C43
330
1E
100
AcDbEntity
  8
1
100
AcDbPolyline
 90
      152
 70
     0
 43
0.0
 10
48.62891162020001
 20
-28.71049087820001
 10
48.51796108663528
 20
-28.57948723778151
 10
48.4091162010046
 20
-28.44662406517581
 10
48.3024170589575
 20
-28.31194126214739
 10
48.19790375614389
 20
-28.17547873046071
 10
48.09561638821339
 20
-28.03727637188039
 10
47.9955950508157
 20
-27.89737408817081
 10
47.90996675427011
 20
-27.77359648817861
 10
47.82613094653579
 20
-27.64857466386279
 10
47.7441144885658
 20
-27.5223353462881
 10
47.6639442413128
 20
-27.39490526651938
 10
47.58564706572959
 20
-27.26631115562171
 10
47.50924982276918
 20
-27.13657974465971
 10
47.43477937338428
 20
-27.0057377646985
 10
47.3622625603448
 20
-26.87381195037719
 10
47.29172360467909
 20
-26.74082955170119
 10
47.22318139143879
 20
-26.6068188675903
 10
47.1566541570961
 20
-26.47180832445819
 10
47.0921601381234
 20
-26.3358263487186
 10
47.02971757099301
 20
-26.19890136678489
 10
46.96934469217729
 20
-26.06106180507099
 10
46.9110597381484
 20
-25.92233608999039
 10
46.86277684737627
 20
-25.80274457618501
 10
46.8160528245789
 20
-25.68254079682041
 10
46.77089915394879
 20
-25.5617426530782
 10
46.72732731967847
 20
-25.44036804614041
 10
46.68534880596038
 20
-25.31843487718861
 10
46.644975096987
 20
-25.1959610474047
 10
46.60621767695078
 20
-25.07296445797031
 10
46.56908803004429
 20
-24.94946301006731
 10
46.53359754949529
 20
-24.82547470936141
 10
46.4997555769318
 20
-24.7010199180301
 10
46.46756942468079
 20
-24.5761213291496
 10
46.43704631856468
 20
-24.45080173515739
 10
46.4081934844057
 20
-24.32508392849121
 10
46.381018148026
 20
-24.19899070158839
 10
46.3555275352479
 20
-24.07254484688661
 10
46.3317288718937
 20
-23.94576915682339
 10
46.30962938378567
 20
-23.81868642383619
 10
46.28923629674599
 20
-23.69131944036271
 10
46.2705568365969
 20
-23.56369099884028
 10
46.25359822916078
 20
-23.43582389170661
 10
46.23836770025989
 20
-23.30774091139919
 10
46.2248724757164
 20
-23.17946485035551
 10
46.2131197813526
 20
-23.05101850101319
 10
46.2031168429907
 20
-22.92242465580971
 10
46.19487088621968
 20
-22.79370610723401
 10
46.18838774292679
 20
-22.6648859548493
 10
46.18366856214249
 20
-22.5359883299918
 10
46.18071351043709
 20
-22.40703758046321
 10
46.17952275438059
 20
-22.27805805406529
 10
46.1800964605431
 20
-22.14907409859981
 10
46.1824347954947
 20
-22.02011006186851
 10
46.18653792580559
 20
-21.89119029167311
 10
46.19240601804579
 20
-21.76233913581529
 10
46.2000392387854
 20
-21.63358094209681
 10
46.2094377545946
 20
-21.50494005831939
 10
46.22060173204349
 20
-21.37644083228468
 10
46.23353133770221
 20
-21.2481076117946
 10
46.24822673814071
 20
-21.1199647446508
 10
46.26468809992928
 20
-20.99203657865501
 10
46.2829155896379
 20
-20.8643474616088
 10
46.30290937383678
 20
-20.7369217413141
 10
46.3246684301441
 20
-20.60978366182411
 10
46.3481867890549
 20
-20.4829570355031
 10
46.37345719454589
 20
-20.35646556245349
 10
46.40047239059089
 20
-20.2303329427773
 10
46.4292251211637
 20
-20.10458287657639
 10
46.45970813023828
 20
-19.979239063953
 10
46.4919141617886
 20
-19.85432520500889
 10
46.52583595978827
 20
-19.7298649998461
 10
46.56146626821139
 20
-19.60588214856669
 10
46.5987978310317
 20
-19.48240035127269
 10
46.63782339222318
 20
-19.3594433080661
 10
46.67853569575959
 20
-19.2370347190488
 10
46.7209274856149
 20
-19.11519828432289
 10
46.76499150576289
 20
-18.99395770399038
 10
46.81072050017749
 20
-18.87333667815321
 10
46.85810721283259
 20
-18.75335890691351
 10
46.90714417808539
 20
-18.63404796820951
 10
46.9578205404545
 20
-18.51542546439801
 10
47.01012269898622
 20
-18.39751139778741
 10
47.06403697378159
 20
-18.28032572467739
 10
47.1195496849419
 20
-18.16388840136768
 10
47.17664715256829
 20
-18.04821938415796
 10
47.23531569676199
 20
-17.93333862934789
 10
47.295541637624
 20
-17.8192660932371
 10
47.3677553612208
 20
-17.6872295902063
 10
47.4420485316924
 20
-17.55635201523331
 10
47.5183994258661
 20
-17.4266650581829
 10
47.59678632056949
 20
-17.2982004089199
 10
47.6771874926297
 20
-17.17098975730889
 10
47.7595812188742
 20
-17.04506479321477
 10
47.8439457761302
 20
-16.92045720650228
 10
47.9302593913919
 20
-16.7971986158919
 10
48.018498027036
 20
-16.67531740702519
 10
48.10863449885061
 20
-16.55483747331981
 10
48.20064139039228
 20
-16.4357823766481
 10
48.29449128521789
 20
-16.31817567888299
 10
48.39015676688401
 20
-16.2020409418971
 10
48.4876104189473
 20
-16.0874017275629
 10
48.60114044792871
 20
-15.958246959979
 10
48.7169293123399
 20
-15.8311114738696
 10
48.8349360873441
 20
-15.7060304403099
 10
48.95511984810472
 20
-15.5830390303751
 10
49.0774396697851
 20
-15.4621724151403
 10
49.2018546275486
 20
-15.3434657656809
 10
49.3283237417105
 20
-15.2269541261949
 10
49.4568040091823
 20
-15.1126678602502
 10
49.5872498596757
 20
-15.00063139285041
 10
49.7196155573597
 20
-14.89086876605831
 10
49.8369744630443
 20
-14.79671062774317
 10
49.955737595805
 20
-14.70432791215151
 10
50.07587431620811
 20
-14.6137367255871
 10
50.19735398482001
 20
-14.5249531743536
 10
50.3201459622071
 20
-14.43799336475501
 10
50.44421960893568
 20
-14.352873403095
 10
50.5695442855721
 20
-14.2696093956773
 10
50.6960893526829
 20
-14.18821744880589
 10
50.82382417083421
 20
-14.1087136687845
 10
50.9527181005925
 20
-14.03111416191681
 10
51.08274056589859
 20
-13.95543469269891
 10
51.2138617298629
 20
-13.8816870389512
 10
51.3460522336402
 20
-13.80988040018221
 10
51.479282726405
 20
-13.7400239326469
 10
51.61352385733199
 20
-13.67212679259971
 10
51.7487462755956
 20
-13.60619813629529
 10
51.8849206303705
 20
-13.54224711998859
 10
52.0220175708312
 20
-13.48028289993401
 10
52.1600077461524
 20
-13.4203146323863
 10
52.2988618055086
 20
-13.3623514736001
 10
52.43855039807429
 20
-13.3064025798301
 10
52.5790441730243
 20
-13.25247710733099
 10
52.7203137795329
 20
-13.2005842123574
 10
52.86232986677489
 20
-13.1507330511641
 10
53.00506308392471
 20
-13.1029327800056
 10
53.1484830832798
 20
-13.05719178816659
 10
53.2925552437182
 20
-13.01351517708019
 10
53.43724379923351
 20
-12.9719071673366
 10
53.5825129838068
 20
-12.93237197951651
 10
53.7283270314185
 20
-12.89491383420001
 10
53.87465017604939
 20
-12.8595369519677
 10
54.0214466516803
 20
-12.82624555339981
 10
54.16868069229179
 20
-12.79504385907681
 10
54.31631653186478
 20
-12.76593608957901
 10
54.4643184043799
 20
-12.73892646548681
 10
54.5914413733233
 20
-12.71744851086149
 10
54.7187844641454
 20
-12.69751780951269
 10
54.8463251536388
 20
-12.6791370192986
 10
54.97404091859579
 20
-12.66230879807729
 10
55.10190923580911
 20
-12.6470358037071
 10
55.18721846408141
 20
-12.6377201801894
  0
LWPOLYLINE
  5
CDD
330
1E
100
AcDbEntity
  8
1
100
AcDbPolyline
 90
        2
 70
     0
 43
0.0
 10
57.86463492070001
 20
155.7540395989
 10
57.95220864989522
 20
155.755340228205
  0
LWPOLYLINE
  5
CE1
330
1E
100
AcDbEntity
  8
1
100
AcDbPolyline
 90
        3
 70
     0
 43
0.0
 10
60.0
 20
-41.7209123173001
 10
49.7799445852932
 20
-30.0452292531471
 10
48.6289181452102
 20
-28.71049845607851
  0
LWPOLYLINE
  5
CE6
330
1E
100
AcDbEntity
  8
1
100
AcDbPolyline
 90
        2
 70
     0
 43
0.0
 10
54.73576744729999
 20
-14.13878123509999
 10
55.138534812437
 20
-13.91231605954919
  0
LWPOLYLINE
  5
CEA
330
1E
100
AcDbEntity
  8
1
100
AcDbPolyline
 90
       11
 70
     0
 43
0.0
 10
55.1385435447
 20
-13.91231118640011
 10
55.4714563116412
 20
-13.7287872314153
 10
55.6979384683339
 20
-13.6074373617307
 10
55.899911783642
 20
-13.5022288752962
 10
56.0881741327341
 20
-13.40689002507359
 10
56.26438146308349
 20
-13.32016039191631
 10
56.4302344213814
 20
-13.24083378578801
 10
56.5893756143373
 20
-13.16689745790768
 10
56.7417081543104
 20
-13.09818861871359
 10
56.8890497099343
 20
-13.03369738239131
 10
57.00819385934639
 20
-12.98297237684121
  0
DIMENSION
  5
D37
330
1E
100
AcDbEntity
  8
SK2
100
AcDbDimension
  2
*D0
 10
-25.87122676663767
 20
50.8
 30
0.0
 11
-25.87122676663768
 21
-0.9033696839325639
 31
0.0
 70
   160
  1
%%c<>
 71
     5
 42
101.6
  3
ISO-25
100
AcDbAlignedDimension
 13
-3.952356856195283
 23
-50.8
 33
0.0
 14
-3.952356856195271
 24
50.8
 34
0.0
 50
270.0
100
AcDbRotatedDimension
  0
LINE
  5
D38
330
1E
100
AcDbEntity
  8
SK4
100
AcDbLine
 10
36.17016982152238
 20
-50.8
 30
0.0
 11
-3.952356856195283
 21
-50.8
 31
0.0
  0
LINE
  5
D39
330
1E
100
AcDbEntity
  8
SK4
100
AcDbLine
 10
35.18629295945528
 20
50.79999999999999
 30
0.0
 11
-3.952356856195271
 21
50.8
 31
0.0
  0
DIMENSION
  5
DA4
330
1E
100
AcDbEntity
  8
2
100
AcDbDimension
  2
*D5
 10
73.53856680723834
 20
147.4999999999998
 30
0.0
 11
71.16356680723832
 21
152.4999999999999
 31
0.0
 70
    32
 71
     5
 42
10.0
  3
ISO-25
100
AcDbAlignedDimension
 13
61.3278809929302
 23
157.4999999999999
 33
0.0
 14
63.50000000000002
 24
147.4999999999999
 34
0.0
 50
270.0
100
AcDbRotatedDimension
  0
LINE
  5
19AA
330
1E
100
AcDbEntity
  8
SK4
100
AcDbLine
 10
58.29336984267121
 20
-88.89999999999998
 30
0.0
 11
-6.567941843191601
 21
-88.89999999999997
 31
0.0
  0
DIMENSION
  5
19AB
330
1E
100
AcDbEntity
  8
SK2
100
AcDbDimension
  2
*D6
 10
-39.25174076325835
 20
-88.89999999999997
 30
0.0
 11
-39.25174076325834
 21
0.0282189190006696
 31
0.0
 70
   160
  1
%%c<>
 71
     5
 42
177.8
  3
ISO-25
100
AcDbAlignedDimension
 13
-6.951735496815826
 23
88.90000000000004
 33
0.0
 14
-6.567941843191601
 24
-88.89999999999997
 34
0.0
 50
270.0
100
AcDbRotatedDimension
  0
LINE
  5
19AC
330
1E
100
AcDbEntity
  8
SK4
100
AcDbLine
 10
56.37439666192661
 20
88.90000000000004
 30
0.0
 11
-6.951735496815826
 21
88.90000000000004
 31
0.0
  0
SPLINE
  5
2612
330
1E
100
AcDbEntity
  8
CUT
100
AcDbSpline
210
0.0
220
0.0
230
1.0
 70
     8
 71
     3
 72
    36
 73
    32
 74
    30
 42
0.0000000001
 43
0.0000000001
 44
0.0000000001
 12
0.0023777469235403
 22
-0.9999971731557884
 32
0.0
 13
-0.0028524927348691
 23
-0.9999959316343229
 33
0.0
 40
0.0
 40
0.0
 40
0.0
 40
0.0
 40
0.4085550699000168
 40
0.8171649770265903
 40
1.225827732902406
 40
1.634545354810242
 40
2.043317855822724
 40
2.452146246237333
 40
2.861029542243552
 40
3.269969754853041
 40
3.678966899519112
 40
4.088021988626805
 40
4.497142035576468
 40
4.906326054063157
 40
5.31557305687819
 40
5.724879057641665
 40
6.134240069855812
 40
6.54365410640683
 40
6.953118180905366
 40
7.362629305932608
 40
7.772183496414061
 40
8.181781763778662
 40
8.59143112365855
 40
9.001131586748341
 40
9.410884167709008
 40
9.820688879873237
 40
10.23054773452077
 40
10.64045874906425
 40
11.05042293237046
 40
11.46044229996799
 40
11.87051586516452
 40
11.87051586516452
 40
11.87051586516452
 40
11.87051586516452
 10
62.99360900000003
 20
156.4135029999999
 30
0.0
 10
62.99393281352021
 20
156.2773183616737
 30
0.0
 10
62.99455639359539
 20
156.0049307480731
 30
0.0
 10
62.99541769966456
 20
155.5963224093162
 30
0.0
 10
62.99620312989429
 20
155.1876597334848
 30
0.0
 10
62.99691608120765
 20
154.7789427269927
 30
0.0
 10
62.99755681842095
 20
154.3701703890471
 30
0.0
 10
62.99812089120407
 20
153.9613427134953
 30
0.0
 10
62.99861383094542
 20
153.5524590420604
 30
0.0
 10
62.9990299740157
 20
153.143519033744
 30
0.0
 10
62.99937443209583
 20
152.7345216945561
 30
0.0
 10
62.99964442943021
 20
152.3254643544166
 30
0.0
 10
62.999839959364
 20
151.9163446808505
 30
0.0
 10
62.99996380807626
 20
151.507161007885
 30
0.0
 10
63.00001084773263
 20
151.0979153343518
 30
0.0
 10
62.99998680619859
 20
150.6886106609005
 30
0.0
 10
62.99988590237179
 20
150.2792503212336
 30
0.0
 10
62.99971353147903
 20
149.8698373142542
 30
0.0
 10
62.99946589490186
 20
149.4603743082687
 30
0.0
 10
62.99914679166833
 20
149.0508646336696
 30
0.0
 10
62.99875082427154
 20
148.6413102952376
 30
0.0
 10
62.99828376959428
 20
148.2317099534037
 30
0.0
 10
62.99773991087743
 20
147.8220609486949
 30
0.0
 10
62.99712436945675
 20
147.4123606076844
 30
0.0
 10
62.99643436269533
 20
147.0026086009282
 30
0.0
 10
62.99566990096844
 20
146.592803929257
 30
0.0
 10
62.99483371884158
 20
146.1829465861893
 30
0.0
 10
62.99392088771348
 20
145.7730362495046
 30
0.0
 10
62.99293636031122
 20
145.3630725743773
 30
0.0
 10
62.99187726090211
 20
144.9530549013634
 30
0.0
 10
62.99112191062185
 20
144.679691632289
 30
0.0
 10
62.99073200000002
 20
144.5430009999999
 30
0.0
 11
62.99360900000003
 21
156.4135029999999
 31
0.0
 11
62.99454399999993
 21
156.0049489999999
 31
0.0
 11
62.99540499999993
 21
155.5963399999999
 31
0.0
 11
62.99619100000001
 21
155.1876779999998
 31
0.0
 11
62.99690400000002
 21
154.7789609999998
 31
0.0
 11
62.99754399999999
 21
154.3701889999999
 31
0.0
 11
62.99810900000004
 21
153.9613609999999
 31
0.0
 11
62.99860099999993
 21
153.552478
 31
0.0
 11
62.99901800000002
 21
153.1435379999998
 31
0.0
 11
62.99936199999994
 21
152.7345409999998
 31
0.0
 11
62.99963199999996
 21
152.325486
 31
0.0
 11
62.99982800000002
 21
151.9163659999998
 31
0.0
 11
62.99995099999993
 21
151.507182
 31
0.0
 11
62.99999900000003
 21
151.0979349999999
 31
0.0
 11
62.99997399999998
 21
150.6886289999999
 31
0.0
 11
62.99987400000002
 21
150.2792679999999
 31
0.0
 11
62.999701
 21
149.8698539999999
 31
0.0
 11
62.99945399999995
 21
149.4603899999999
 31
0.0
 11
62.99913399999995
 21
149.0508789999998
 31
0.0
 11
62.99873900000005
 21
148.641325
 31
0.0
 11
62.99827099999998
 21
148.2317269999998
 31
0.0
 11
62.99772799999998
 21
147.8220779999998
 31
0.0
 11
62.99711199999993
 21
147.4123779999999
 31
0.0
 11
62.99642199999998
 21
147.002626
 31
0.0
 11
62.99565799999998
 21
146.5928219999999
 31
0.0
 11
62.99482100000004
 21
146.1829639999999
 31
0.0
 11
62.99390899999996
 21
145.7730539999999
 31
0.0
 11
62.99292399999995
 21
145.363091
 31
0.0
 11
62.99186500000001
 21
144.9530729999999
 31
0.0
 11
62.99073200000002
 21
144.5430009999999
 31
0.0
  0
SPLINE
  5
2613
330
1E
100
AcDbEntity
  8
CUT
100
AcDbSpline
210
0.0
220
0.0
230
1.0
 70
     8
 71
     3
 72
    36
 73
    32
 74
    30
 42
0.0000000001
 43
0.0000000001
 44
0.0000000001
 12
0.00248574922836
 22
-0.9999969105206144
 32
0.0
 13
-0.0027650330525247
 23
-0.9999961772888028
 33
0.0
 40
0.0
 40
0.0
 40
0.0
 40
0.0
 40
0.4104271771764158
 40
0.8209051836639885
 40
1.231433032845878
 40
1.642012736242283
 40
2.052644309257554
 40
2.463327763769556
 40
2.874064114808887
 40
3.284854374605774
 40
3.695697557819272
 40
4.106595677032541
 40
4.517554746529727
 40
4.928575779648476
 40
5.339654789500598
 40
5.750788789811823
 40
6.161976794044774
 40
6.573213815551836
 40
6.984498868147985
 40
7.395827964815
 40
7.807198118856464
 40
8.218610344616696
 40
8.630069654519797
 40
9.041578063260212
 40
9.453136582890152
 40
9.864744228458116
 40
10.27640101164651
 40
10.68810894785005
 40
11.09986804837853
 40
11.51167832648846
 40
11.92353979810363
 40
11.92353979810363
 40
11.92353979810363
 40
11.92353979810363
 10
58.10490799999995
 20
156.5825289999999
 30
0.0
 10
58.10524807301294
 20
156.4457203636098
 30
0.0
 10
58.10590339190899
 20
156.1720860853101
 30
0.0
 10
58.10681230862656
 20
155.7616094119244
 30
0.0
 10
58.10764769336404
 20
155.3510817398689
 30
0.0
 10
58.10840721872645
 20
154.9405027316204
 30
0.0
 10
58.10909370572904
 20
154.5298717262087
 30
0.0
 10
58.10970420464193
 20
154.1191883848637
 30
0.0
 10
58.11024169742289
 20
153.7084520458424
 30
0.0
 10
58.11070320152008
 20
153.297662371469
 30
0.0
 10
58.11109166174609
 20
152.8868186988079
 30
0.0
 10
58.11140429299771
 20
152.4759186914586
 30
0.0
 10
58.11164328766364
 20
152.0649593515274
 30
0.0
 10
58.1118086470633
 20
151.6539396783302
 30
0.0
 10
58.11189817832915
 20
151.2428616714209
 30
0.0
 10
58.11191466109573
 20
150.8317279980304
 30
0.0
 10
58.11185516906956
 20
150.4205416580624
 30
0.0
 10
58.11172262815619
 20
150.0093049844133
 30
0.0
 10
58.11151425915141
 20
149.5980213113062
 30
0.0
 10
58.11123225648215
 20
149.1866933047309
 30
0.0
 10
58.11087661847963
 20
148.7753229640036
 30
0.0
 10
58.11044514739776
 20
148.3639092914627
 30
0.0
 10
58.10994063218992
 20
147.9524496170505
 30
0.0
 10
58.10936012999275
 20
147.5409412781649
 30
0.0
 10
58.1087066234464
 20
147.1293836034564
 30
0.0
 10
58.10797712808454
 20
146.7177765981915
 30
0.0
 10
58.10717458858919
 20
146.3061199232676
 30
0.0
 10
58.1062962055703
 20
145.8944129180386
 30
0.0
 10
58.10534424795587
 20
145.4826549113325
 30
0.0
 10
58.10431843390119
 20
145.0708459034395
 30
0.0
 10
58.10358460352739
 20
144.7962896323957
 30
0.0
 10
58.10320500000003
 20
144.6590029999998
 30
0.0
 11
58.10490799999995
 21
156.5825289999999
 31
0.0
 11
58.10589099999997
 21
156.1721029999999
 31
0.0
 11
58.10679999999995
 21
155.7616259999998
 31
0.0
 11
58.107635
 21
155.351099
 31
0.0
 11
58.10839500000001
 21
154.9405199999999
 31
0.0
 11
58.10908099999998
 21
154.5298889999999
 31
0.0
 11
58.10969200000004
 21
154.119206
 31
0.0
 11
58.11022899999993
 21
153.7084699999998
 31
0.0
 11
58.110691
 21
153.2976799999999
 31
0.0
 11
58.11107899999996
 21
152.8868369999998
 31
0.0
 11
58.11139199999995
 21
152.4759389999998
 31
0.0
 11
58.11163100000003
 21
152.0649799999999
 31
0.0
 11
58.11179599999995
 21
151.6539589999998
 31
0.0
 11
58.11188599999995
 21
151.2428799999999
 31
0.0
 11
58.11190200000003
 21
150.831746
 31
0.0
 11
58.11184299999995
 21
150.4205579999999
 31
0.0
 11
58.11170999999993
 21
150.0093209999999
 31
0.0
 11
58.11150200000001
 21
149.5980359999999
 31
0.0
 11
58.11121999999993
 21
149.186707
 31
0.0
 11
58.11086400000004
 21
148.7753369999999
 31
0.0
 11
58.11043299999997
 21
148.3639249999999
 31
0.0
 11
58.10992800000001
 21
147.9524659999999
 31
0.0
 11
58.109348
 21
147.5409579999999
 31
0.0
 11
58.10869399999994
 21
147.1293999999999
 31
0.0
 11
58.10796499999996
 21
146.7177929999999
 31
0.0
 11
58.10716199999993
 21
146.3061369999999
 31
0.0
 11
58.10628399999999
 21
145.8944299999999
 31
0.0
 11
58.10533200000001
 21
145.4826719999998
 31
0.0
 11
58.10430600000001
 21
145.0708629999999
 31
0.0
 11
58.10320500000003
 21
144.6590029999998
 31
0.0
  0
SPLINE
  5
2614
330
1E
100
AcDbEntity
  8
CUT
100
AcDbSpline
210
0.0
220
0.0
230
1.0
 70
     8
 71
     3
 72
    36
 73
    32
 74
    30
 42
0.0000000001
 43
0.0000000001
 44
0.0000000001
 12
-0.9966651512171882
 22
-0.0816001001789784
 32
0.0
 13
-0.9967516908606025
 23
-0.0805361208808169
 33
0.0
 40
0.0
 40
0.0
 40
0.0
 40
0.0
 40
0.1514188122791143
 40
0.3028352233612104
 40
0.4542491518784375
 40
0.6056606795372901
 40
0.7570696435948675
 40
0.9084762071646991
 40
1.059880289025109
 40
1.211280974049961
 40
1.362680174460639
 40
1.514075897101669
 40
1.665469220114935
 40
1.816860977965222
 40
1.968249339859404
 40
2.119635302649884
 40
2.271018704319313
 40
2.422399707255621
 40
2.573778230600291
 40
2.725154355550603
 40
2.876527004599275
 40
3.027898171407934
 40
3.179266859481061
 40
3.330632153141842
 40
3.481994887683689
 40
3.633356221643254
 40
3.78471416170583
 40
3.936069624071707
 40
4.087422528322063
 40
4.238773116576604
 40
4.390121147194747
 40
4.390121147194747
 40
4.390121147194747
 40
4.390121147194747
 10
62.99073200000002
 20
144.5430009999999
 30
0.0
 10
62.9404273821876
 20
144.5388824032496
 30
0.0
 10
62.83981886327095
 20
144.5306462646031
 30
0.0
 10
62.68890691528987
 20
144.5182969608983
 30
0.0
 10
62.53799684428893
 20
144.5059544946313
 30
0.0
 10
62.38708896737879
 20
144.4936156542515
 30
0.0
 10
62.23618284317979
 20
144.4812855060379
 30
0.0
 10
62.08527891862745
 20
144.4689589146075
 30
0.0
 10
61.9343771797838
 20
144.4566394641142
 30
0.0
 10
61.78347757963823
 20
144.4443239813217
 30
0.0
 10
61.63258023823452
 20
144.432015078659
 30
0.0
 10
61.48168484583318
 20
144.419712468855
 30
0.0
 10
61.33079163447185
 20
144.4074136374312
 30
0.0
 10
61.17990018174509
 20
144.3951234348773
 30
0.0
 10
61.02901085336191
 20
144.3828373734864
 30
0.0
 10
60.87812396340144
 20
144.3705556865291
 30
0.0
 10
60.72723884330675
 20
144.358282494755
 30
0.0
 10
60.57635591670368
 20
144.346012924363
 30
0.0
 10
60.42547485035212
 20
144.3337504061671
 30
0.0
 10
60.27459623839845
 20
144.3214920650019
 30
0.0
 10
60.12371956916628
 20
144.3092400951691
 30
0.0
 10
59.97284491052359
 20
144.2969939948108
 30
0.0
 10
59.82197217373312
 20
144.2847545248355
 30
0.0
 10
59.67110196269972
 20
144.2725186819491
 30
0.0
 10
59.52023352031975
 20
144.2602913590774
 30
0.0
 10
59.36936719122576
 20
144.2480683059597
 30
0.0
 10
59.21850289655583
 20
144.2358501608324
 30
0.0
 10
59.06764096251649
 20
144.2236376774161
 30
0.0
 10
58.91678079555688
 20
144.2114337398438
 30
0.0
 10
58.76592294135199
 20
144.1992319363975
 30
0.0
 10
58.66535146847569
 20
144.1911019944295
 30
0.0
 10
58.61506600000001
 20
144.1870389999999
 30
0.0
 11
62.99073200000002
 21
144.5430009999999
 31
0.0
 11
62.83981799999995
 21
144.530647
 31
0.0
 11
62.68890600000002
 21
144.518298
 31
0.0
 11
62.53799599999995
 21
144.505955
 31
0.0
 11
62.38708799999999
 21
144.493617
 31
0.0
 11
62.23618200000003
 21
144.481286
 31
0.0
 11
62.08527799999995
 21
144.4689599999998
 31
0.0
 11
61.93437599999997
 21
144.4566399999999
 31
0.0
 11
61.78347699999999
 21
144.4443249999999
 31
0.0
 11
61.63257900000001
 21
144.432016
 31
0.0
 11
61.48168400000002
 21
144.4197129999999
 31
0.0
 11
61.33079100000002
 21
144.4074149999998
 31
0.0
 11
61.17989900000002
 21
144.3951239999998
 31
0.0
 11
61.02901000000001
 21
144.3828379999999
 31
0.0
 11
60.87812299999999
 21
144.370557
 31
0.0
 11
60.72723799999998
 21
144.3582829999999
 31
0.0
 11
60.57635499999996
 21
144.346014
 31
0.0
 11
60.42547399999993
 21
144.3337509999999
 31
0.0
 11
60.27459500000002
 21
144.3214929999999
 31
0.0
 11
60.12371899999997
 21
144.309241
 31
0.0
 11
59.97284399999993
 21
144.2969949999999
 31
0.0
 11
59.821971
 21
144.2847549999999
 31
0.0
 11
59.67110099999995
 21
144.2725199999999
 31
0.0
 11
59.520233
 21
144.2602919999998
 31
0.0
 11
59.36936599999993
 21
144.2480689999999
 31
0.0
 11
59.21850199999997
 21
144.2358509999999
 31
0.0
 11
59.06764000000002
 21
144.2236389999998
 31
0.0
 11
58.91677999999995
 21
144.211434
 31
0.0
 11
58.76592199999997
 21
144.1992329999999
 31
0.0
 11
58.61506600000001
 21
144.1870389999999
 31
0.0
  0
SPLINE
  5
2615
330
1E
100
AcDbEntity
  8
CUT
100
AcDbSpline
210
0.0
220
0.0
230
1.0
 70
     8
 71
     3
 72
    36
 73
    32
 74
    30
 42
0.0000000001
 43
0.0000000001
 44
0.0000000001
 12
0.7352597765854002
 22
-0.6777854092082445
 32
0.0
 13
0.7350258332249538
 23
-0.6780391024800582
 33
0.0
 40
0.0
 40
0.0
 40
0.0
 40
0.0
 40
0.0240169432900881
 40
0.0480324735361545
 40
0.0720472685175678
 40
0.0960620634989146
 40
0.1200761232348782
 40
0.1440895051707325
 40
0.1681028296802995
 40
0.1921147411410181
 40
0.2161266526018524
 40
0.2401378288537578
 40
0.2641483272659757
 40
0.2881580904676438
 40
0.3121678536693067
 40
0.3361768816796254
 40
0.3601851745176617
 40
0.3841927894763152
 40
0.4081996692609517
 40
0.4322065490457577
 40
0.4562126936758543
 40
0.4802181031703923
 40
0.5042228347456436
 40
0.5282268311836975
 40
0.5522308276218424
 40
0.5762340889419467
 40
0.6002366723236861
 40
0.6242391985448949
 40
0.6482403117065281
 40
0.6722407469110058
 40
0.6962411249913693
 40
0.6962411249913693
 40
0.6962411249913693
 40
0.6962411249913693
 10
58.10320500000003
 20
144.6590029999998
 30
0.0
 10
58.10909123078594
 20
144.6535768887546
 30
0.0
 10
58.12086364717963
 20
144.6427253121932
 30
0.0
 10
58.13852195735575
 20
144.6264483153423
 30
0.0
 10
58.15617891563945
 20
144.6101709084877
 30
0.0
 10
58.17383601968564
 20
144.5938943829379
 30
0.0
 10
58.19149157814691
 20
144.5776168757286
 30
0.0
 10
58.20914831064253
 20
144.5613413652039
 30
0.0
 10
58.22680256834896
 20
144.5450642266857
 30
0.0
 10
58.24445697781554
 20
144.5287879759402
 30
0.0
 10
58.2621109939059
 20
144.5125123549342
 30
0.0
 10
58.27976361921365
 20
144.4962359203187
 30
0.0
 10
58.29741700605691
 20
144.4799613681154
 30
0.0
 10
58.31506892918238
 20
144.4636859231889
 30
0.0
 10
58.33272091686774
 20
144.447411271366
 30
0.0
 10
58.35037196199554
 20
144.4311363202863
 30
0.0
 10
58.36802162776441
 20
144.4148609296374
 30
0.0
 10
58.38567200378878
 20
144.3985873656156
 30
0.0
 10
58.40332092982871
 20
144.3823129238983
 30
0.0
 10
58.42096991658617
 20
144.3660392710313
 30
0.0
 10
58.43861796261873
 20
144.3497653209274
 30
0.0
 10
58.45626462569518
 20
144.3334909274376
 30
0.0
 10
58.47391201146725
 20
144.3172183739017
 30
0.0
 10
58.49155790130901
 20
144.3009448929824
 30
0.0
 10
58.50920402302154
 20
144.2846723864108
 30
0.0
 10
58.52684857956536
 20
144.2683988774392
 30
0.0
 10
58.54449430172804
 20
144.2521273552739
 30
0.0
 10
58.56213760311328
 20
144.2358542644227
 30
0.0
 10
58.57978068203145
 20
144.219581988559
 30
0.0
 10
58.59742414565874
 20
144.2033111860418
 30
0.0
 10
58.60918570070126
 20
144.1924633982708
 30
0.0
 10
58.61506600000001
 20
144.1870389999999
 30
0.0
 11
58.10320500000003
 21
144.6590029999998
 31
0.0
 11
58.12086400000001
 21
144.6427249999999
 31
0.0
 11
58.13852200000001
 21
144.6264479999999
 31
0.0
 11
58.15617899999999
 21
144.6101709999998
 31
0.0
 11
58.17383599999998
 21
144.593894
 31
0.0
 11
58.19149199999997
 21
144.5776169999999
 31
0.0
 11
58.20914799999997
 21
144.5613409999999
 31
0.0
 11
58.22680299999993
 21
144.5450639999999
 31
0.0
 11
58.24445699999993
 21
144.5287879999999
 31
0.0
 11
58.26211099999993
 21
144.5125119999999
 31
0.0
 11
58.27976400000004
 21
144.496236
 31
0.0
 11
58.29741700000004
 21
144.4799609999999
 31
0.0
 11
58.31506900000004
 21
144.4636859999999
 31
0.0
 11
58.33272100000002
 21
144.4474109999999
 31
0.0
 11
58.35037200000003
 21
144.4311359999999
 31
0.0
 11
58.36802200000004
 21
144.414861
 31
0.0
 11
58.38567200000003
 21
144.3985869999998
 31
0.0
 11
58.40332099999994
 21
144.3823129999999
 31
0.0
 11
58.42096999999993
 21
144.3660389999999
 31
0.0
 11
58.43861799999995
 21
144.3497649999999
 31
0.0
 11
58.45626499999996
 21
144.3334909999999
 31
0.0
 11
58.47391199999997
 21
144.3172179999999
 31
0.0
 11
58.49155799999998
 21
144.3009449999999
 31
0.0
 11
58.50920399999999
 21
144.2846719999999
 31
0.0
 11
58.52684900000001
 21
144.2683989999999
 31
0.0
 11
58.54449400000003
 21
144.252127
 31
0.0
 11
58.56213799999993
 21
144.2358539999998
 31
0.0
 11
58.57978099999995
 21
144.219582
 31
0.0
 11
58.59742399999998
 21
144.2033109999998
 31
0.0
 11
58.61506600000001
 21
144.1870389999999
 31
0.0
  0
SPLINE
  5
2616
330
1E
100
AcDbEntity
  8
CUT
100
AcDbSpline
210
0.0
220
0.0
230
1.0
 70
     8
 71
     3
 72
    36
 73
    32
 74
    30
 42
0.0000000001
 43
0.0000000001
 44
0.0000000001
 12
-0.99688127990444
 22
-0.0789158651735215
 32
0.0
 13
-0.9969349020907717
 23
-0.0782355481431771
 33
0.0
 40
0.0
 40
0.0
 40
0.0
 40
0.0
 40
0.113525058564151
 40
0.2270499593128151
 40
0.3405735476502913
 40
0.4540959813891422
 40
0.5676181786238459
 40
0.6811381456516545
 40
0.7946568794359638
 40
0.9081753769463961
 40
1.021691723192172
 40
1.135207754593026
 40
1.248722631723715
 40
1.362236275960847
 40
1.475748687379171
 40
1.589259866053336
 40
1.702769812058078
 40
1.816278604021512
 40
1.929787160350986
 40
2.043293408795733
 40
2.156799500262215
 40
2.270304359409322
 40
2.383808064745324
 40
2.497310459477768
 40
2.610811622115005
 40
2.724311631088582
 40
2.837810408090844
 40
2.95130795319634
 40
3.064805263411201
 40
3.178300344947822
 40
3.291795269984153
 40
3.291795269984153
 40
3.291795269984153
 40
3.291795269984153
 10
61.89836299999996
 20
157.3872379999999
 30
0.0
 10
61.86063933143906
 20
157.3842516905947
 30
0.0
 10
61.78519207866895
 20
157.3782786728935
 30
0.0
 10
61.67202150447369
 20
157.3693211704803
 30
0.0
 10
61.55885139229592
 20
157.3603689212411
 30
0.0
 10
61.44568212671393
 20
157.3514173977097
 30
0.0
 10
61.3325137757309
 20
157.3424696203677
 30
0.0
 10
61.21934644638583
 20
157.333524569529
 30
0.0
 10
61.10618012695365
 20
157.3245823930054
 30
0.0
 10
60.99301472005869
 20
157.3156439907136
 30
0.0
 10
60.87985017998029
 20
157.3067060538405
 30
0.0
 10
60.76668639080456
 20
157.2977739384847
 30
0.0
 10
60.65352345606149
 20
157.2888424447318
 30
0.0
 10
60.54036144601667
 20
157.2799145714828
 30
0.0
 10
60.42720044687516
 20
157.2709895601764
 30
0.0
 10
60.3140404532698
 20
157.2620674785413
 30
0.0
 10
60.20088140051368
 20
157.2531488142129
 30
0.0
 10
60.0877231170365
 20
157.2442315146204
 30
0.0
 10
59.97456582986477
 20
157.2353172611273
 30
0.0
 10
59.86140906241234
 20
157.2264078739433
 30
0.0
 10
59.74825346206602
 20
157.2174993644707
 30
0.0
 10
59.63509839145277
 20
157.2085949280788
 30
0.0
 10
59.52194450108087
 20
157.1996912009058
 30
0.0
 10
59.40879144573327
 20
157.1907925704878
 30
0.0
 10
59.29563940092335
 20
157.1818968068898
 30
0.0
 10
59.18248845300505
 20
157.1730024772848
 30
0.0
 10
59.06933844556177
 20
157.1641115714955
 30
0.0
 10
58.95618911779481
 20
157.1552235001649
 30
0.0
 10
58.84304077963889
 20
157.1463385610708
 30
0.0
 10
58.72989307800866
 20
157.1374566727893
 30
0.0
 10
58.65446168399294
 20
157.1315367792238
 30
0.0
 10
58.61674599999997
 20
157.128577
 30
0.0
 11
61.89836299999996
 21
157.3872379999999
 31
0.0
 11
61.78519199999998
 21
157.3782789999999
 31
0.0
 11
61.672021
 21
157.3693219999999
 31
0.0
 11
61.55885099999993
 21
157.3603689999998
 31
0.0
 11
61.44568199999996
 21
157.351418
 31
0.0
 11
61.33251299999999
 21
157.3424699999999
 31
0.0
 11
61.21934600000002
 21
157.3335249999999
 31
0.0
 11
61.10618000000004
 21
157.324583
 31
0.0
 11
60.99301399999993
 21
157.3156439999999
 31
0.0
 11
60.87984999999996
 21
157.306707
 31
0.0
 11
60.76668599999997
 21
157.2977739999999
 31
0.0
 11
60.65352299999999
 21
157.2888429999999
 31
0.0
 11
60.54036100000001
 21
157.2799149999999
 31
0.0
 11
60.4272
 21
157.2709899999999
 31
0.0
 11
60.31404000000001
 21
157.2620679999999
 31
0.0
 11
60.20088100000002
 21
157.2531489999998
 31
0.0
 11
60.08772300000003
 21
157.2442319999999
 31
0.0
 11
59.97456500000001
 21
157.2353179999999
 31
0.0
 11
59.86140900000002
 21
157.2264079999999
 31
0.0
 11
59.74825300000002
 21
157.2175
 31
0.0
 11
59.635098
 21
157.2085949999999
 31
0.0
 11
59.52194399999999
 21
157.1996919999999
 31
0.0
 11
59.408791
 21
157.1907929999998
 31
0.0
 11
59.29563899999998
 21
157.1818969999999
 31
0.0
 11
59.18248799999997
 21
157.1730029999999
 31
0.0
 11
59.06933799999993
 21
157.1641119999999
 31
0.0
 11
58.95618900000004
 21
157.155224
 31
0.0
 11
58.84304000000001
 21
157.1463389999999
 31
0.0
 11
58.72989299999999
 21
157.1374569999998
 31
0.0
 11
58.61674599999997
 21
157.128577
 31
0.0
  0
SPLINE
  5
2617
330
1E
100
AcDbEntity
  8
CUT
100
AcDbSpline
210
0.0
220
0.0
230
1.0
 70
     8
 71
     3
 72
    36
 73
    32
 74
    30
 42
0.0000000001
 43
0.0000000001
 44
0.0000000001
 12
-0.6840123136871198
 22
-0.7294704618587331
 32
0.0
 13
-0.6838165770570379
 23
-0.7296539515016665
 33
0.0
 40
0.0
 40
0.0
 40
0.0
 40
0.0
 40
0.0258065122982741
 40
0.0516130701663751
 40
0.0774210415125259
 40
0.1032275993806269
 40
0.1290341572487486
 40
0.1548421285948165
 40
0.1806494160151574
 40
0.2064567034355861
 40
0.2322639908560039
 40
0.258072007846864
 40
0.2838792952673501
 40
0.3096866283724358
 40
0.3354946453632703
 40
0.3613026623541353
 40
0.3871099954592061
 40
0.4129187420386253
 40
0.4387260751438413
 40
0.4645348217232555
 40
0.4903428844362808
 40
0.5161509471493318
 40
0.54195900986229
 40
0.5677678022013393
 40
0.5935758649144524
 40
0.6193846572535066
 40
0.6451934495925657
 40
0.6710022419315321
 40
0.6968117639147087
 40
0.7226198724274169
 40
0.7484293944106032
 40
0.7484293944106032
 40
0.7484293944106032
 40
0.7484293944106032
 10
58.61674599999997
 20
157.128577
 30
0.0
 10
58.61086200927152
 20
157.1223019705182
 30
0.0
 10
58.5990948177418
 20
157.1097511500364
 30
0.0
 10
58.58144473422917
 20
157.0909236033295
 30
0.0
 10
58.56379430150877
 20
157.0720963631678
 30
0.0
 10
58.54614399319298
 20
157.0532690063812
 30
0.0
 10
58.52849372571984
 20
157.0344416113059
 30
0.0
 10
58.51084300414285
 20
157.0156143086031
 30
0.0
 10
58.49319302688947
 20
156.9967859747912
 30
0.0
 10
58.47554304421302
 20
156.977957958555
 30
0.0
 10
58.45789262993436
 20
156.9591300135685
 30
0.0
 10
58.44024343813508
 20
156.9403009226243
 30
0.0
 10
58.42259260503714
 20
156.9214733493588
 30
0.0
 10
58.40494407925003
 20
156.9026436132592
 30
0.0
 10
58.38729397626093
 20
156.8838150222526
 30
0.0
 10
58.36964401570519
 20
156.8649862977307
 30
0.0
 10
58.35199473000554
 20
156.8461566072962
 30
0.0
 10
58.33434528689469
 20
156.8273273768617
 30
0.0
 10
58.31669573348421
 20
156.8084976040372
 30
0.0
 10
58.29904600177201
 20
156.789668310775
 30
0.0
 10
58.28139702844834
 20
156.7708379733343
 30
0.0
 10
58.26374804032179
 20
156.7520079622086
 30
0.0
 10
58.24609864394272
 20
156.7331780003833
 30
0.0
 10
58.22845038600275
 20
156.7143469715498
 30
0.0
 10
58.21080064363304
 20
156.6955170006738
 30
0.0
 10
58.19315204156122
 20
156.6766859610458
 30
0.0
 10
58.17550302380912
 20
156.6578549776864
 30
0.0
 10
58.15785369688156
 20
156.639023950751
 30
0.0
 10
58.14020534662909
 20
156.6201923208717
 30
0.0
 10
58.12255668338933
 20
156.6013606509947
 30
0.0
 10
58.11079099299263
 20
156.5888063399003
 30
0.0
 10
58.10490799999995
 20
156.5825289999999
 30
0.0
 11
58.61674599999997
 21
157.128577
 31
0.0
 11
58.59909499999996
 21
157.1097509999999
 31
0.0
 11
58.58144499999996
 21
157.0909239999999
 31
0.0
 11
58.56379399999996
 21
157.0720959999999
 31
0.0
 11
58.54614399999995
 21
157.0532689999999
 31
0.0
 11
58.52849399999995
 21
157.0344419999998
 31
0.0
 11
58.51084299999995
 21
157.0156139999999
 31
0.0
 11
58.49319299999995
 21
156.996786
 31
0.0
 11
58.47554299999995
 21
156.977958
 31
0.0
 11
58.45789299999993
 21
156.95913
 31
0.0
 11
58.44024299999993
 21
156.940301
 31
0.0
 11
58.42259299999994
 21
156.9214729999998
 31
0.0
 11
58.40494400000004
 21
156.9026439999998
 31
0.0
 11
58.38729400000004
 21
156.8838149999999
 31
0.0
 11
58.36964400000002
 21
156.8649859999998
 31
0.0
 11
58.35199500000003
 21
156.846157
 31
0.0
 11
58.33434500000002
 21
156.8273269999999
 31
0.0
 11
58.31669600000002
 21
156.8084979999999
 31
0.0
 11
58.29904600000002
 21
156.7896679999998
 31
0.0
 11
58.28139700000001
 21
156.7708379999999
 31
0.0
 11
58.26374799999999
 21
156.7520079999999
 31
0.0
 11
58.246099
 21
156.733178
 31
0.0
 11
58.22845
 21
156.7143469999999
 31
0.0
 11
58.21080099999999
 21
156.6955169999999
 31
0.0
 11
58.19315199999998
 21
156.6766859999999
 31
0.0
 11
58.17550299999997
 21
156.6578549999999
 31
0.0
 11
58.15785399999997
 21
156.639024
 31
0.0
 11
58.14020499999998
 21
156.620192
 31
0.0
 11
58.12255699999997
 21
156.6013609999999
 31
0.0
 11
58.10490799999995
 21
156.5825289999999
 31
0.0
  0
SPLINE
  5
2618
330
1E
100
AcDbEntity
  8
CUT
100
AcDbSpline
210
0.0
220
0.0
230
1.0
 70
     8
 71
     3
 72
    36
 73
    32
 74
    30
 42
0.0000000001
 43
0.0000000001
 44
0.0000000001
 12
-0.0030085034090581
 22
0.9999954744433786
 32
0.0
 13
-0.9969590854141362
 23
-0.0779267733850771
 33
0.0
 40
0.0
 40
0.0
 40
0.0
 40
0.0
 40
0.0569284851809588
 40
0.1135524400410904
 40
0.1701379470548969
 40
0.2269076947819239
 40
0.2834613791888658
 40
0.3399988604204545
 40
0.396459909312496
 40
0.4526885641603208
 40
0.5089556136386832
 40
0.5649817632475936
 40
0.6210190835351134
 40
0.6770013736811419
 40
0.7329752329103068
 40
0.7890976327342249
 40
0.8452407336996273
 40
0.9016833116438903
 40
0.9581617338066429
 40
1.014821986232902
 40
1.071653046446405
 40
1.128456971838949
 40
1.185505228972735
 40
1.242541243647743
 40
1.299788509608543
 40
1.35715664928557
 40
1.414609099276838
 40
1.472324908566872
 40
1.530006532989234
 40
1.587845765496196
 40
1.646068129558556
 40
1.646068129558556
 40
1.646068129558556
 40
1.646068129558556
 10
62.99360900000003
 20
156.4135029999999
 30
0.0
 10
62.99355191015278
 20
156.4324790758491
 30
0.0
 10
62.9923380312822
 20
156.4703359020137
 30
0.0
 10
62.98719420227492
 20
156.5268463630073
 30
0.0
 10
62.97870595484069
 20
156.5829011828638
 30
0.0
 10
62.9669119424371
 20
156.6383287567053
 30
0.0
 10
62.95192016393087
 20
156.6929627595052
 30
0.0
 10
62.9336957877124
 20
156.7464964320934
 30
0.0
 10
62.9124399729211
 20
156.7987814801247
 30
0.0
 10
62.88819132410115
 20
156.8496494085423
 30
0.0
 10
62.86105594943263
 20
156.8988702657529
 30
0.0
 10
62.83119804603869
 20
156.9464135039581
 30
0.0
 10
62.79865474698758
 20
156.9920443950168
 30
0.0
 10
62.76358007638416
 20
157.0357353652767
 30
0.0
 10
62.7260420136388
 20
157.0773676413102
 30
0.0
 10
62.68616149958792
 20
157.1168375862567
 30
0.0
 10
62.64398461970337
 20
157.15407996429
 30
0.0
 10
62.59968074947898
 20
157.1889561483393
 30
0.0
 10
62.553353080869
 20
157.2213978868099
 30
0.0
 10
62.50514834846676
 20
157.2512245678804
 30
0.0
 10
62.45527527757352
 20
157.2783957197199
 30
0.0
 10
62.40383932174771
 20
157.3027819929726
 30
0.0
 10
62.35106962241904
 20
157.3243088080802
 30
0.0
 10
62.29705287793017
 20
157.3429404687632
 30
0.0
 10
62.24198564360438
 20
157.3585827941357
 30
0.0
 10
62.18601200990228
 20
157.371231458191
 30
0.0
 10
62.12926934755154
 20
157.3807828667537
 30
0.0
 10
62.07198960535231
 20
157.3872620558589
 30
0.0
 10
62.01430996783379
 20
157.3905850252246
 30
0.0
 10
61.95636850706393
 20
157.3907386008318
 30
0.0
 10
61.91771043827536
 20
157.3887503603233
 30
0.0
 10
61.89836199999994
 20
157.3872379999999
 30
0.0
 11
62.99360900000003
 21
156.4135029999999
 31
0.0
 11
62.991777
 21
156.4704019999998
 31
0.0
 11
62.98663500000002
 21
156.5267919999999
 31
0.0
 11
62.97816500000003
 21
156.58274
 31
0.0
 11
62.96636099999993
 21
156.6382689999999
 31
0.0
 11
62.95137500000002
 21
156.6928009999999
 31
0.0
 11
62.93317499999993
 21
156.746329
 31
0.0
 11
62.91190399999997
 21
156.7986299999999
 31
0.0
 11
62.88770500000001
 21
156.8493849999998
 31
0.0
 11
62.860556
 21
156.8986689999999
 31
0.0
 11
62.83074400000002
 21
156.9461049999999
 31
0.0
 11
62.79821999999994
 21
156.9917379999999
 31
0.0
 11
62.76317099999999
 21
157.0353909999998
 31
0.0
 11
62.72569200000003
 21
157.076965
 31
0.0
 11
62.68580299999999
 21
157.1164439999999
 31
0.0
 11
62.64372199999995
 21
157.153609
 31
0.0
 11
62.59937599999993
 21
157.1885259999999
 31
0.0
 11
62.55310899999999
 21
157.2209169999998
 31
0.0
 11
62.50493499999997
 21
157.250744
 31
0.0
 11
62.45502600000001
 21
157.2779259999999
 31
0.0
 11
62.403702
 21
157.3022679999999
 31
0.0
 11
62.35088100000001
 21
157.3238189999999
 31
0.0
 11
62.29696199999994
 21
157.3424159999999
 31
0.0
 11
62.24189600000004
 21
157.3580679999999
 31
0.0
 11
62.18593700000001
 21
157.3707049999998
 31
0.0
 11
62.12928400000002
 21
157.3802559999999
 31
0.0
 11
62.07193299999999
 21
157.3867349999999
 31
0.0
 11
62.01434699999997
 21
157.390055
 31
0.0
 11
61.95650800000002
 21
157.3902189999999
 31
0.0
 11
61.89836199999994
 21
157.3872379999999
 31
0.0
  0
LINE
  5
2619
330
1E
100
AcDbEntity
  8
CUT
100
AcDbLine
 10
63.00000000000004
 20
151.4
 30
0.0
 11
62.90000000000002
 21
151.4
 31
0.0
  0
LINE
  5
263B
330
1E
100
AcDbEntity
  8
NOCUT
100
AcDbLine
 10
61.60000000000014
 20
0.0
 30
0.0
 11
61.60000000000014
 21
154.2499999999999
 31
0.0
  0
LINE
  5
263C
330
1E
100
AcDbEntity
  8
NOCUT
100
AcDbLine
 10
0.0
 20
108.4
 30
0.0
 11
0.0
 21
0.0
 31
0.0
  0
LINE
  5
263D
330
1E
100
AcDbEntity
  8
NOCUT
100
AcDbLine
 10
61.60000000000014
 20
0.0
 30
0.0
 11
0.0
 21
0.0
 31
0.0
  0
LINE
  5
263E
330
1E
100
AcDbEntity
  8
NOCUT
100
AcDbLine
 10
1.600000000000022
 20
109.9999999999998
 30
0.0
 11
1.600000000000022
 21
124.9999999999999
 31
0.0
  0
ARC
  5
263F
330
1E
100
AcDbEntity
  8
NOCUT
100
AcDbCircle
 10
1.600000000000022
 20
108.4
 30
0.0
 40
1.6
100
AcDbArc
 50
90.0
 51
180.0
  0
ARC
  5
2640
330
1E
100
AcDbEntity
  8
NOCUT
100
AcDbCircle
 10
31.65655526610009
 20
152.8499999999999
 30
0.0
 40
3.0
100
AcDbArc
 50
90.0
 51
149.9999984921996
  0
LINE
  5
2641
330
1E
100
AcDbEntity
  8
NOCUT
100
AcDbLine
 10
29.05847905480003
 20
154.3499999999999
 30
0.0
 11
15.86602540379999
 21
131.4999999999999
 31
0.0
  0
ARC
  5
2642
330
1E
100
AcDbEntity
  8
NOCUT
100
AcDbCircle
 10
13.26794919240001
 20
132.9999999999999
 30
0.0
 40
3.0
100
AcDbArc
 50
270.0
 51
329.9999999909001
  0
LINE
  5
2643
330
1E
100
AcDbEntity
  8
NOCUT
100
AcDbLine
 10
13.26794919240001
 20
129.9999999999999
 30
0.0
 11
6.600000000000137
 21
129.9999999999999
 31
0.0
  0
ARC
  5
2644
330
1E
100
AcDbEntity
  8
NOCUT
100
AcDbCircle
 10
6.600000000000137
 20
124.9999999999999
 30
0.0
 40
5.0
100
AcDbArc
 50
90.0
 51
179.9999987634996
  0
LINE
  5
2645
330
1E
100
AcDbEntity
  8
NOCUT
100
AcDbLine
 10
60.0000000000001
 20
155.8499999999999
 30
0.0
 11
31.65655526610009
 21
155.8499999999999
 31
0.0
  0
ARC
  5
2646
330
1E
100
AcDbEntity
  8
NOCUT
100
AcDbCircle
 10
60.0000000000001
 20
154.2499999999999
 30
0.0
 40
1.6
100
AcDbArc
 50
0.0000031772994219
 51
90.0
  0
TEXT
  5
2758
330
1E
100
AcDbEntity
  8
6
100
AcDbText
 10
96.80188817239377
 20
-169.8885236646481
 30
0.0
 40
5.0
  1
6F2B315R00
100
AcDbText
  0
TEXT
  5
27DF
330
1E
100
AcDbEntity
  8
6
100
AcDbText
 10
101.0496857290122
 20
-3.844161070889867
 30
0.0
 40
3.5
  1
Z=18
 50
90.0
100
AcDbText
  0
TEXT
  5
281A
330
1E
100
AcDbEntity
  8
6
100
AcDbText
 10
102.4601078823168
 20
160.0113963749784
 30
0.0
 40
2.5
  1
YDA323L101
100
AcDbText
  0
LWPOLYLINE
  5
294B
330
1E
100
AcDbEntity
  8
1
100
AcDbPolyline
 90
        3
 70
     1
 43
0.0
 10
0.0
 20
2.950972054112583
 10
0.0
 20
0.0
 10
2.950972054112639
 20
0.0
 42
0.4142135623730966
  0
CIRCLE
  5
294C
330
1E
100
AcDbEntity
  8
1
100
AcDbCircle
 10
0.0
 20
0.0
 30
0.0
 40
2.950972054112601
  0
HATCH
  5
294D
330
1E
100
AcDbEntity
  8
1
100
AcDbHatch
 10
0.0
 20
0.0
 30
0.0
210
0.0
220
0.0
230
1.0
  2
SOLID
 70
     1
 71
     0
 91
        2
 92
        7
 72
     1
 73
     1
 93
        3
 10
0.0
 20
0.0
 42
0.0
 10
2.950972054112639
 20
0.0
 42
0.4142135623730966
 10
0.0
 20
2.950972054112583
 42
0.0
 97
        0
 92
        7
 72
     1
 73
     1
 93
        3
 10
0.0
 20
-2.950972054112583
 42
0.0
 10
0.0
 20
0.0
 42
0.0
 10
-2.950972054112639
 20
0.0
 42
0.4142135623730953
 97
        0
 75
     0
 76
     1
 47
0.1190009775223266
 98
        2
 10
0.7445530588120164
 20
0.9212244733764691
 10
-1.279464601852851
 20
-1.696796923046349
  0
LINE
  5
294E
330
1E
100
AcDbEntity
  8
1
100
AcDbLine
 10
-2.950972054112753
 20
0.0
 30
0.0
 11
2.950972054112526
 21
0.0
 31
0.0
  0
LINE
  5
294F
330
1E
100
AcDbEntity
  8
1
100
AcDbLine
 10
0.0
 20
2.950972054112583
 30
0.0
 11
0.0
 21
-2.950972054112639
 31
0.0
  0
LWPOLYLINE
  5
2950
330
1E
100
AcDbEntity
  8
1
100
AcDbPolyline
 90
        3
 70
     1
 43
0.0
 10
0.0
 20
0.0
 10
-2.950972054112639
 20
0.0
 42
0.4142135623730966
 10
0.0
 20
-2.950972054112611
  0
LINE
  5
2951
330
1E
100
AcDbEntity
  8
1
100
AcDbLine
 10
63.00000000000006
 20
157.9637693698487
 30
0.0
 11
63.00000000000006
 21
157.0362306301511
 31
0.0
  0
CIRCLE
  5
2952
330
1E
100
AcDbEntity
  8
1
100
AcDbCircle
 10
63.00000000000006
 20
157.4999999999999
 30
0.0
 40
0.463769369848821
  0
LINE
  5
2953
330
1E
100
AcDbEntity
  8
1
100
AcDbLine
 10
62.53623063015123
 20
157.4999999999999
 30
0.0
 11
63.46376936984888
 21
157.4999999999999
 31
0.0
  0
ENDSEC
  0
SECTION
  2
OBJECTS
  0
DICTIONARY
  5
C
330
0
100
AcDbDictionary
281
     1
  3
ACAD_COLOR
350
25AC
  3
ACAD_GROUP
350
D
  3
ACAD_LAYOUT
350
19
  3
ACAD_MATERIAL
350
25AB
  3
ACAD_MLINESTYLE
350
16
  3
ACAD_PLOTSETTINGS
350
18
  3
ACAD_PLOTSTYLENAME
350
25A9
  3
ACAD_TABLESTYLE
350
25AD
  3
AcDbVariableDictionary
350
25F1
1001
ACAD
1000
TREAT_AS_HARD
1070
     0
1000
TREAT_AS_HARD
1070
     0
  0
DICTIONARY
  5
DBE
330
1E
100
AcDbDictionary
281
     1
  3
ACAD_LAYOUTSELFREF
350
19D6
1001
ACAD
1000
TREAT_AS_HARD
1070
     0
  0
DICTIONARY
  5
DBC
330
1A
100
AcDbDictionary
281
     1
  3
ACAD_LAYOUTSELFREF
350
19D5
1001
ACAD
1000
TREAT_AS_HARD
1070
     0
  0
DICTIONARY
  5
25AC
102
{ACAD_REACTORS
330
C
102
}
330
C
100
AcDbDictionary
281
     1
  0
DICTIONARY
  5
D
102
{ACAD_REACTORS
330
C
102
}
330
C
100
AcDbDictionary
281
     1
1001
ACAD
1000
TREAT_AS_HARD
1070
     0
1000
TREAT_AS_HARD
1070
     0
  0
DICTIONARY
  5
19
102
{ACAD_REACTORS
330
C
102
}
330
C
100
AcDbDictionary
281
     1
  3
Layout1
350
25B0
  3
Model
350
25AF
1001
ACAD
1000
TREAT_AS_HARD
1070
     0
1000
TREAT_AS_HARD
1070
     0
  0
DICTIONARY
  5
25AB
102
{ACAD_REACTORS
330
C
102
}
330
C
100
AcDbDictionary
281
     1
  0
DICTIONARY
  5
16
102
{ACAD_REACTORS
330
C
102
}
330
C
100
AcDbDictionary
281
     1
  3
STANDARD
350
17
1001
ACAD
1000
TREAT_AS_HARD
1070
     0
1000
TREAT_AS_HARD
1070
     0
  0
DICTIONARY
  5
18
102
{ACAD_REACTORS
330
C
102
}
330
C
100
AcDbDictionary
281
     1
1001
ACAD
1000
TREAT_AS_HARD
1070
     0
1000
TREAT_AS_HARD
1070
     0
  0
ACDBDICTIONARYWDFLT
  5
25A9
102
{ACAD_REACTORS
330
C
102
}
330
C
100
AcDbDictionary
281
     1
  3
Normal
350
25AA
100
AcDbDictionaryWithDefault
340
25AA
  0
DICTIONARY
  5
25AD
102
{ACAD_REACTORS
330
C
102
}
330
C
100
AcDbDictionary
281
     1
  3
Standard
350
25AE
  0
DICTIONARY
  5
25F1
102
{ACAD_REACTORS
330
C
102
}
330
C
100
AcDbDictionary
281
     1
  3
CTABLESTYLE
350
25F2
  3
DIMASSOC
350
25F3
  3
PROJECTNAME
350
25F4
  0
XRECORD
  5
19D6
102
{ACAD_REACTORS
330
DBE
102
}
330
DBE
100
AcDbXrecord
280
     1
340
1E
  0
XRECORD
  5
19D5
102
{ACAD_REACTORS
330
DBC
102
}
330
DBC
100
AcDbXrecord
280
     1
340
1A
  0
LAYOUT
  5
25B0
102
{ACAD_XDICTIONARY
360
25F9
102
}
102
{ACAD_REACTORS
330
19
102
}
330
19
100
AcDbPlotSettings
  1

  2
\\ingdom02\ITB3
  4

  6

 40
0.0
 41
0.0
 42
0.0
 43
0.0
 44
0.0
 45
0.0
 46
0.0
 47
0.0
 48
0.0
 49
0.0
140
0.0
141
0.0
142
1.0
143
1.0
 70
   688
 72
     0
 73
     0
 74
     5
  7
^A
 75
    16
147
1.0
148
0.0
149
0.0
100
AcDbLayout
  1
Layout1
 70
     1
 71
     1
 10
0.0
 20
0.0
 11
12.0
 21
9.0
 12
0.0
 22
0.0
 32
0.0
 14
100.0
 24
100.0
 34
100.0
 15
-100.0
 25
-100.0
 35
-100.0
146
0.0
 13
0.0
 23
0.0
 33
0.0
 16
1.0
 26
0.0
 36
0.0
 17
0.0
 27
1.0
 37
0.0
 76
     0
330
1A
  0
LAYOUT
  5
25AF
102
{ACAD_XDICTIONARY
360
25F7
102
}
102
{ACAD_REACTORS
330
19
102
}
330
19
100
AcDbPlotSettings
  1

  2
\\ingdom02\ITB3
  4

  6

 40
0.0
 41
0.0
 42
0.0
 43
0.0
 44
0.0
 45
0.0
 46
0.0
 47
0.0
 48
0.0
 49
0.0
140
0.0
141
0.0
142
1.0
143
1.0
 70
  1712
 72
     0
 73
     0
 74
     0
  7
^A
 75
     0
147
1.0
148
0.0
149
0.0
100
AcDbLayout
  1
Model
 70
     1
 71
     0
 10
0.0
 20
0.0
 11
12.0
 21
9.0
 12
0.0
 22
0.0
 32
0.0
 14
0.0
 24
0.0
 34
0.0
 15
0.0
 25
0.0
 35
0.0
146
0.0
 13
0.0
 23
0.0
 33
0.0
 16
1.0
 26
0.0
 36
0.0
 17
0.0
 27
1.0
 37
0.0
 76
     0
330
1E
  0
MLINESTYLE
  5
17
102
{ACAD_REACTORS
330
16
102
}
330
16
100
AcDbMlineStyle
  2
STANDARD
 70
     0
  3

 62
   256
 51
90.0
 52
90.0
 71
     2
 49
0.5
 62
   256
  6
BYLAYER
 49
-0.5
 62
   256
  6
BYLAYER
  0
ACDBPLACEHOLDER
  5
25AA
102
{ACAD_REACTORS
330
25A9
102
}
330
25A9
  0
TABLESTYLE
  5
25AE
102
{ACAD_REACTORS
330
25AD
102
}
330
25AD
100
AcDbTableStyle
  3
Standard
 70
     0
 71
     0
 40
0.06
 41
0.06
280
     0
281
     0
  7
STANDARD
140
0.18
170
     2
 62
     0
 63
     7
283
     0
274
    -2
284
     1
 64
     0
275
    -2
285
     1
 65
     0
276
    -2
286
     1
 66
     0
277
    -2
287
     1
 67
     0
278
    -2
288
     1
 68
     0
279
    -2
289
     1
 69
     0
  7
STANDARD
140
0.25
170
     5
 62
     0
 63
     7
283
     0
274
    -2
284
     1
 64
     0
275
    -2
285
     1
 65
     0
276
    -2
286
     1
 66
     0
277
    -2
287
     1
 67
     0
278
    -2
288
     1
 68
     0
279
    -2
289
     1
 69
     0
  7
STANDARD
140
0.18
170
     5
 62
     0
 63
     7
283
     0
274
    -2
284
     1
 64
     0
275
    -2
285
     1
 65
     0
276
    -2
286
     1
 66
     0
277
    -2
287
     1
 67
     0
278
    -2
288
     1
 68
     0
279
    -2
289
     1
 69
     0
  0
DICTIONARYVAR
  5
25F2
102
{ACAD_REACTORS
330
25F1
102
}
330
25F1
100
DictionaryVariables
280
     0
  1
STANDARD
  0
DICTIONARYVAR
  5
25F3
102
{ACAD_REACTORS
330
25F1
102
}
330
25F1
100
DictionaryVariables
280
     0
  1
1
  0
DICTIONARYVAR
  5
25F4
102
{ACAD_REACTORS
330
25F1
102
}
330
25F1
100
DictionaryVariables
280
     0
  1

  0
DICTIONARY
  5
25F9
330
25B0
100
AcDbDictionary
280
     1
281
     1
  3
ACAD_XREC_ROUNDTRIP
360
25FA
  0
DICTIONARY
  5
25F7
330
25AF
100
AcDbDictionary
280
     1
281
     1
  3
ACAD_XREC_ROUNDTRIP
360
25F8
  0
XRECORD
  5
25FA
102
{ACAD_REACTORS
330
25F9
102
}
330
25F9
100
AcDbXrecord
280
     1
102
SHADEPLOT
 70
     0
102
SHADEPLOTRESLEVEL
 70
     2
102
SHADEPLOTCUSTOMDPI
 70
   300
  0
XRECORD
  5
25F8
102
{ACAD_REACTORS
330
25F7
102
}
330
25F7
100
AcDbXrecord
280
     1
102
SHADEPLOT
 70
     0
102
SHADEPLOTRESLEVEL
 70
     2
102
SHADEPLOTCUSTOMDPI
 70
   300
  0
ENDSEC
  0
EOF
