  0
SECTION
  2
HEADER
  9
$ACADVER
  1
AC1015
  9
$ACADMAINTVER
 70
    10
  9
$DWGCODEPAGE
  3
ANSI_1252
  9
$INSBASE
 10
0.0
 20
0.0
 30
0.0
  9
$EXTMIN
 10
-40.45748310033537
 20
-143.9074606121091
 30
-0.0000000000112498
  9
$EXTMAX
 10
152.6257291263091
 20
125.4696336004449
 30
0.0000000000002956
  9
$LIMMIN
 10
0.0
 20
0.0
  9
$LIMMAX
 10
841.0
 20
594.0
  9
$ORTHOMODE
 70
     0
  9
$REGENMODE
 70
     1
  9
$FILLMODE
 70
     1
  9
$QTEXTMODE
 70
     0
  9
$MIRRTEXT
 70
     1
  9
$LTSCALE
 40
10.0
  9
$ATTMODE
 70
     1
  9
$TEXTSIZE
 40
0.2
  9
$TRACEWID
 40
0.05
  9
$TEXTSTYLE
  7
STANDARD
  9
$CLAYER
  8
0
  9
$CELTYPE
  6
BYLAYER
  9
$CECOLOR
 62
   256
  9
$CELTSCALE
 40
1.0
  9
$DISPSILH
 70
     0
  9
$DIMSCALE
 40
1.0
  9
$DIMASZ
 40
3.5
  9
$DIMEXO
 40
0.625
  9
$DIMDLI
 40
3.75
  9
$DIMRND
 40
0.0
  9
$DIMDLE
 40
0.0
  9
$DIMEXE
 40
1.25
  9
$DIMTP
 40
0.0
  9
$DIMTM
 40
0.0
  9
$DIMTXT
 40
3.5
  9
$DIMCEN
 40
2.5
  9
$DIMTSZ
 40
0.0
  9
$DIMTOL
 70
     0
  9
$DIMLIM
 70
     0
  9
$DIMTIH
 70
     0
  9
$DIMTOH
 70
     0
  9
$DIMSE1
 70
     0
  9
$DIMSE2
 70
     0
  9
$DIMTAD
 70
     1
  9
$DIMZIN
 70
     8
  9
$DIMBLK
  1

  9
$DIMASO
 70
     1
  9
$DIMSHO
 70
     1
  9
$DIMPOST
  1

  9
$DIMAPOST
  1

  9
$DIMALT
 70
     0
  9
$DIMALTD
 70
     3
  9
$DIMALTF
 40
0.03937007874016
  9
$DIMLFAC
 40
1.0
  9
$DIMTOFL
 70
     1
  9
$DIMTVP
 40
0.0
  9
$DIMTIX
 70
     0
  9
$DIMSOXD
 70
     0
  9
$DIMSAH
 70
     0
  9
$DIMBLK1
  1

  9
$DIMBLK2
  1

  9
$DIMSTYLE
  2
ISO-25
  9
$DIMCLRD
 70
   256
  9
$DIMCLRE
 70
   256
  9
$DIMCLRT
 70
   256
  9
$DIMTFAC
 40
1.0
  9
$DIMGAP
 40
0.625
  9
$DIMJUST
 70
     0
  9
$DIMSD1
 70
     0
  9
$DIMSD2
 70
     0
  9
$DIMTOLJ
 70
     0
  9
$DIMTZIN
 70
     8
  9
$DIMALTZ
 70
     0
  9
$DIMALTTZ
 70
     0
  9
$DIMUPT
 70
     0
  9
$DIMDEC
 70
     2
  9
$DIMTDEC
 70
     2
  9
$DIMALTU
 70
     2
  9
$DIMALTTD
 70
     3
  9
$DIMTXSTY
  7
STANDARD
  9
$DIMAUNIT
 70
     0
  9
$DIMADEC
 70
     0
  9
$DIMALTRND
 40
0.0
  9
$DIMAZIN
 70
     0
  9
$DIMDSEP
 70
    46
  9
$DIMATFIT
 70
     3
  9
$DIMFRAC
 70
     0
  9
$DIMLDRBLK
  1

  9
$DIMLUNIT
 70
     2
  9
$DIMLWD
 70
    -2
  9
$DIMLWE
 70
    -2
  9
$DIMTMOVE
 70
     0
  9
$LUNITS
 70
     2
  9
$LUPREC
 70
     4
  9
$SKETCHINC
 40
0.1
  9
$FILLETRAD
 40
0.0
  9
$AUNITS
 70
     0
  9
$AUPREC
 70
     0
  9
$MENU
  1

  9
$ELEVATION
 40
0.0
  9
$PELEVATION
 40
0.0
  9
$THICKNESS
 40
0.0
  9
$LIMCHECK
 70
     0
  9
$CHAMFERA
 40
0.0
  9
$CHAMFERB
 40
0.0
  9
$CHAMFERC
 40
0.0
  9
$CHAMFERD
 40
0.0
  9
$SKPOLY
 70
     0
  9
$TDCREATE
 40
2453431.621385659
  9
$TDUCREATE
 40
2453431.579718993
  9
$TDUPDATE
 40
2453777.539226342
  9
$TDUUPDATE
 40
2453777.497559676
  9
$TDINDWG
 40
0.0269932639
  9
$TDUSRTIMER
 40
0.0168945023
  9
$USRTIMER
 70
     1
  9
$ANGBASE
 50
0.0
  9
$ANGDIR
 70
     0
  9
$PDMODE
 70
     0
  9
$PDSIZE
 40
0.3125
  9
$PLINEWID
 40
0.0
  9
$SPLFRAME
 70
     0
  9
$SPLINETYPE
 70
     6
  9
$SPLINESEGS
 70
     8
  9
$HANDSEED
  5
34A9
  9
$SURFTAB1
 70
     6
  9
$SURFTAB2
 70
     6
  9
$SURFTYPE
 70
     6
  9
$SURFU
 70
     6
  9
$SURFV
 70
     6
  9
$UCSBASE
  2

  9
$UCSNAME
  2

  9
$UCSORG
 10
0.0
 20
0.0
 30
0.0
  9
$UCSXDIR
 10
1.0
 20
0.0
 30
0.0
  9
$UCSYDIR
 10
0.0
 20
1.0
 30
0.0
  9
$UCSORTHOREF
  2

  9
$UCSORTHOVIEW
 70
     0
  9
$UCSORGTOP
 10
0.0
 20
0.0
 30
0.0
  9
$UCSORGBOTTOM
 10
0.0
 20
0.0
 30
0.0
  9
$UCSORGLEFT
 10
0.0
 20
0.0
 30
0.0
  9
$UCSORGRIGHT
 10
0.0
 20
0.0
 30
0.0
  9
$UCSORGFRONT
 10
0.0
 20
0.0
 30
0.0
  9
$UCSORGBACK
 10
0.0
 20
0.0
 30
0.0
  9
$PUCSBASE
  2

  9
$PUCSNAME
  2

  9
$PUCSORG
 10
0.0
 20
0.0
 30
0.0
  9
$PUCSXDIR
 10
1.0
 20
0.0
 30
0.0
  9
$PUCSYDIR
 10
0.0
 20
1.0
 30
0.0
  9
$PUCSORTHOREF
  2

  9
$PUCSORTHOVIEW
 70
     0
  9
$PUCSORGTOP
 10
0.0
 20
0.0
 30
0.0
  9
$PUCSORGBOTTOM
 10
0.0
 20
0.0
 30
0.0
  9
$PUCSORGLEFT
 10
0.0
 20
0.0
 30
0.0
  9
$PUCSORGRIGHT
 10
0.0
 20
0.0
 30
0.0
  9
$PUCSORGFRONT
 10
0.0
 20
0.0
 30
0.0
  9
$PUCSORGBACK
 10
0.0
 20
0.0
 30
0.0
  9
$USERI1
 70
     0
  9
$USERI2
 70
     0
  9
$USERI3
 70
     0
  9
$USERI4
 70
     0
  9
$USERI5
 70
     0
  9
$USERR1
 40
0.0
  9
$USERR2
 40
0.0
  9
$USERR3
 40
0.0
  9
$USERR4
 40
0.0
  9
$USERR5
 40
0.0
  9
$WORLDVIEW
 70
     1
  9
$SHADEDGE
 70
     3
  9
$SHADEDIF
 70
    70
  9
$TILEMODE
 70
     1
  9
$MAXACTVP
 70
    64
  9
$PINSBASE
 10
0.0
 20
0.0
 30
0.0
  9
$PLIMCHECK
 70
     0
  9
$PEXTMIN
 10
100.0
 20
100.0
 30
100.0
  9
$PEXTMAX
 10
-100.0
 20
-100.0
 30
-100.0
  9
$PLIMMIN
 10
0.0
 20
0.0
  9
$PLIMMAX
 10
12.0
 20
9.0
  9
$UNITMODE
 70
     0
  9
$VISRETAIN
 70
     1
  9
$PLINEGEN
 70
     1
  9
$PSLTSCALE
 70
     1
  9
$TREEDEPTH
 70
  3020
  9
$CMLSTYLE
  2
STANDARD
  9
$CMLJUST
 70
     0
  9
$CMLSCALE
 40
1.0
  9
$PROXYGRAPHICS
 70
     1
  9
$MEASUREMENT
 70
     0
  9
$CELWEIGHT
370
    -1
  9
$ENDCAPS
280
     0
  9
$JOINSTYLE
280
     0
  9
$LWDISPLAY
290
     0
  9
$INSUNITS
 70
     0
  9
$HYPERLINKBASE
  1

  9
$STYLESHEET
  1

  9
$XEDIT
290
     1
  9
$CEPSNTYPE
380
     0
  9
$PSTYLEMODE
290
     1
  9
$FINGERPRINTGUID
  2
{F9016531-72CD-4F9E-B9C1-6394CEE457F5}
  9
$VERSIONGUID
  2
{BBF354C7-C9E5-4D77-8064-731E1D2F962F}
  9
$EXTNAMES
290
     1
  9
$PSVPSCALE
 40
0.0
  9
$OLESTARTUP
290
     0
  0
ENDSEC
  0
SECTION
  2
CLASSES
  0
CLASS
  1
ACDBDICTIONARYWDFLT
  2
AcDbDictionaryWithDefault
  3
AutoCAD 2000
 90
        0
280
     0
281
     0
  0
CLASS
  1
ACDBPLACEHOLDER
  2
AcDbPlaceHolder
  3
AutoCAD 2000
 90
        0
280
     0
281
     0
  0
CLASS
  1
LAYOUT
  2
AcDbLayout
  3
AutoCAD 2000
 90
        0
280
     0
281
     0
  0
CLASS
  1
TABLESTYLE
  2
AcDbTableStyle
  3
ObjectDBX Classes
 90
     2047
280
     0
281
     0
  0
CLASS
  1
DICTIONARYVAR
  2
AcDbDictionaryVar
  3
AutoCAD 2000
 90
        0
280
     0
281
     0
  0
ENDSEC
  0
SECTION
  2
TABLES
  0
TABLE
  2
VPORT
  5
8
330
0
100
AcDbSymbolTable
 70
     3
  0
VPORT
  5
34A8
330
8
100
AcDbSymbolTableRecord
100
AcDbViewportTableRecord
  2
*Active
 70
     0
 10
0.0
 20
0.0
 11
1.0
 21
1.0
 12
56.08412301298688
 22
-9.218913505832119
 13
0.0
 23
0.0
 14
1.0
 24
1.0
 15
0.0
 25
0.0
 16
0.0
 26
0.0
 36
1.0
 17
0.0
 27
0.0
 37
0.0
 40
271.5235252421361
 41
1.636968085106382
 42
50.0
 43
0.0
 44
0.0
 50
0.0
 51
0.0
 71
     0
 72
   100
 73
     1
 74
     1
 75
     0
 76
     0
 77
     0
 78
     0
281
     0
 65
     1
110
0.0
120
0.0
130
0.0
111
1.0
121
0.0
131
0.0
112
0.0
122
1.0
132
0.0
 79
     0
146
0.0
  0
ENDTAB
  0
TABLE
  2
LTYPE
  5
5
330
0
100
AcDbSymbolTable
 70
     3
  0
LTYPE
  5
13
330
5
100
AcDbSymbolTableRecord
100
AcDbLinetypeTableRecord
  2
BYBLOCK
 70
     0
  3

 72
    65
 73
     0
 40
0.0
  0
LTYPE
  5
14
330
5
100
AcDbSymbolTableRecord
100
AcDbLinetypeTableRecord
  2
BYLAYER
 70
     0
  3

 72
    65
 73
     0
 40
0.0
  0
LTYPE
  5
15
330
5
100
AcDbSymbolTableRecord
100
AcDbLinetypeTableRecord
  2
CONTINUOUS
 70
     0
  3
Solid line
 72
    65
 73
     0
 40
0.0
  0
LTYPE
  5
28
330
5
100
AcDbSymbolTableRecord
100
AcDbLinetypeTableRecord
  2
CENTER
 70
     0
  3
____ _ ____ _ ____ _ ____ _ ____ _ ____ _ ____
 72
    65
 73
     4
 40
0.6
 49
0.375
 74
     0
 49
-0.075
 74
     0
 49
0.075
 74
     0
 49
-0.075
 74
     0
  0
LTYPE
  5
29
330
5
100
AcDbSymbolTableRecord
100
AcDbLinetypeTableRecord
  2
HIDDEN
 70
     0
  3
- - - - - - - - - - - - - - - - - - - -
 72
    65
 73
     2
 40
0.2
 49
0.1
 74
     0
 49
-0.1
 74
     0
  0
ENDTAB
  0
TABLE
  2
LAYER
  5
2
330
0
100
AcDbSymbolTable
 70
    12
  0
LAYER
  5
10
330
2
100
AcDbSymbolTableRecord
100
AcDbLayerTableRecord
  2
1
 70
     0
 62
     4
  6
CONTINUOUS
370
    -3
390
31F0
  0
LAYER
  5
2D
330
2
100
AcDbSymbolTableRecord
100
AcDbLayerTableRecord
  2
2
 70
     0
 62
     7
  6
CONTINUOUS
370
    -3
390
31F0
  0
LAYER
  5
2F
330
2
100
AcDbSymbolTableRecord
100
AcDbLayerTableRecord
  2
4
 70
     0
 62
     2
  6
CENTER
370
    -3
390
31F0
  0
LAYER
  5
32
330
2
100
AcDbSymbolTableRecord
100
AcDbLayerTableRecord
  2
0
 70
     0
 62
     7
  6
CONTINUOUS
370
    -3
390
31F0
  0
LAYER
  5
D19
330
2
100
AcDbSymbolTableRecord
100
AcDbLayerTableRecord
  2
DEFPOINTS
 70
     0
 62
     7
  6
CONTINUOUS
290
     0
370
    -3
390
31F0
  0
LAYER
  5
3284
330
2
100
AcDbSymbolTableRecord
100
AcDbLayerTableRecord
  2
6
 70
     0
 62
     5
  6
CONTINUOUS
370
    -3
390
31F0
  0
LAYER
  5
3285
330
2
100
AcDbSymbolTableRecord
100
AcDbLayerTableRecord
  2
CUT
 70
     0
 62
     1
  6
CONTINUOUS
370
    -3
390
31F0
  0
LAYER
  5
3286
330
2
100
AcDbSymbolTableRecord
100
AcDbLayerTableRecord
  2
NOCUT
 70
     0
 62
     7
  6
CONTINUOUS
370
    -3
390
31F0
  0
LAYER
  5
3287
330
2
100
AcDbSymbolTableRecord
100
AcDbLayerTableRecord
  2
SK2
 70
     0
 62
     7
  6
CONTINUOUS
370
    -3
390
31F0
  0
LAYER
  5
3472
330
2
100
AcDbSymbolTableRecord
100
AcDbLayerTableRecord
  2
SK3
 70
     0
 62
     1
  6
HIDDEN
370
    -3
390
31F0
  0
LAYER
  5
3473
330
2
100
AcDbSymbolTableRecord
100
AcDbLayerTableRecord
  2
SK4
 70
     0
 62
     2
  6
CENTER
370
    -3
390
31F0
  0
ENDTAB
  0
TABLE
  2
STYLE
  5
3
330
0
100
AcDbSymbolTable
 70
     1
  0
STYLE
  5
11
330
3
100
AcDbSymbolTableRecord
100
AcDbTextStyleTableRecord
  2
STANDARD
 70
     0
 40
0.0
 41
0.8
 50
0.0
 71
     0
 42
0.2
  3
ISOCP
  4

  0
ENDTAB
  0
TABLE
  2
VIEW
  5
6
330
0
100
AcDbSymbolTable
 70
     0
  0
ENDTAB
  0
TABLE
  2
UCS
  5
7
330
0
100
AcDbSymbolTable
 70
     0
  0
ENDTAB
  0
TABLE
  2
APPID
  5
9
330
0
100
AcDbSymbolTable
 70
     1
  0
APPID
  5
12
330
9
100
AcDbSymbolTableRecord
100
AcDbRegAppTableRecord
  2
ACAD
 70
     0
  0
ENDTAB
  0
TABLE
  2
DIMSTYLE
  5
A
330
0
100
AcDbSymbolTable
 70
     2
100
AcDbDimStyleTable
 71
     0
  0
DIMSTYLE
105
D1B
102
{ACAD_REACTORS
330
D22
330
64
330
66
330
67
330
65
330
D97
102
}
330
A
100
AcDbSymbolTableRecord
100
AcDbDimStyleTableRecord
  2
ISO-25
 70
     0
 41
3.5
 42
0.625
 43
3.75
 44
1.25
 73
     0
 74
     0
 77
     1
 78
     8
140
3.5
141
2.5
143
0.03937007874016
147
0.625
171
     3
172
     1
176
   256
177
   256
178
   256
271
     2
272
     2
274
     3
283
     0
284
     8
340
11
  0
DIMSTYLE
105
33F1
330
A
100
AcDbSymbolTableRecord
100
AcDbDimStyleTableRecord
  2
STANDARD
 70
     0
 41
2.5
 47
0.01
 48
0.01
 71
     1
 73
     0
 74
     0
 77
     1
 78
     8
140
3.5
178
     5
271
     3
272
     3
284
     8
340
11
341
33ED
342
33ED
343
33ED
344
33ED
  0
ENDTAB
  0
TABLE
  2
BLOCK_RECORD
  5
1
330
0
100
AcDbSymbolTable
 70
    10
  0
BLOCK_RECORD
  5
1E
102
{ACAD_XDICTIONARY
360
DEA
102
}
330
1
100
AcDbSymbolTableRecord
100
AcDbBlockTableRecord
  2
*MODEL_SPACE
340
31F5
  0
BLOCK_RECORD
  5
1A
102
{ACAD_XDICTIONARY
360
DE8
102
}
330
1
100
AcDbSymbolTableRecord
100
AcDbBlockTableRecord
  2
*PAPER_SPACE
340
31F6
  0
BLOCK_RECORD
  5
D24
330
1
100
AcDbSymbolTableRecord
100
AcDbBlockTableRecord
  2
*D0
340
0
  0
BLOCK_RECORD
  5
D39
330
1
100
AcDbSymbolTableRecord
100
AcDbBlockTableRecord
  2
*D1
340
0
  0
BLOCK_RECORD
  5
D45
330
1
100
AcDbSymbolTableRecord
100
AcDbBlockTableRecord
  2
*D2
340
0
  0
BLOCK_RECORD
  5
D51
330
1
100
AcDbSymbolTableRecord
100
AcDbBlockTableRecord
  2
*D3
340
0
  0
BLOCK_RECORD
  5
D5D
330
1
100
AcDbSymbolTableRecord
100
AcDbBlockTableRecord
  2
*D4
340
0
  0
BLOCK_RECORD
  5
D9A
330
1
100
AcDbSymbolTableRecord
100
AcDbBlockTableRecord
  2
*D5
340
0
  0
BLOCK_RECORD
  5
33ED
330
1
100
AcDbSymbolTableRecord
100
AcDbBlockTableRecord
  2
_FILLED
340
0
  0
ENDTAB
  0
ENDSEC
  0
SECTION
  2
BLOCKS
  0
BLOCK
  5
35
330
1E
100
AcDbEntity
  8
0
100
AcDbBlockBegin
  2
*MODEL_SPACE
 70
     0
 10
0.0
 20
0.0
 30
0.0
  3
*MODEL_SPACE
  1

  0
ENDBLK
  5
36
330
1E
100
AcDbEntity
  8
0
100
AcDbBlockEnd
  0
BLOCK
  5
33
330
1A
100
AcDbEntity
 67
     1
  8
0
100
AcDbBlockBegin
  2
*PAPER_SPACE
 70
     0
 10
0.0
 20
0.0
 30
0.0
  3
*PAPER_SPACE
  1

  0
ENDBLK
  5
34
330
1A
100
AcDbEntity
 67
     1
  8
0
100
AcDbBlockEnd
  0
BLOCK
  5
D2E
330
D24
100
AcDbEntity
  8
0
100
AcDbBlockBegin
  2
*D0
 70
     1
 10
0.0
 20
0.0
 30
0.0
  3
*D0
  1

  0
LINE
  5
3454
330
D24
100
AcDbEntity
  8
2
370
    -2
100
AcDbLine
 10
62.84309842389848
 20
125.0
 30
0.0
 11
74.78856680723834
 21
125.0
 31
0.0
  0
LINE
  5
3455
330
D24
100
AcDbEntity
  8
2
370
    -2
100
AcDbLine
 10
64.125
 20
115.0
 30
0.0
 11
74.78856680723834
 21
115.0
 31
0.0
  0
LINE
  5
3456
330
D24
100
AcDbEntity
  8
2
370
    -2
100
AcDbLine
 10
73.53856680723834
 20
121.5
 30
0.0
 11
73.53856680723834
 21
118.5
 31
0.0
  0
SOLID
  5
3457
330
D24
100
AcDbEntity
  8
2
100
AcDbTrace
 10
72.95523347390501
 20
121.5
 30
0.0
 11
74.12190014057166
 21
121.5
 31
0.0
 12
73.53856680723834
 22
125.0
 32
0.0
 13
73.53856680723834
 23
125.0
 33
0.0
  0
SOLID
  5
3458
330
D24
100
AcDbEntity
  8
2
100
AcDbTrace
 10
72.95523347390501
 20
118.5
 30
0.0
 11
74.12190014057166
 21
118.5
 31
0.0
 12
73.53856680723834
 22
115.0
 32
0.0
 13
73.53856680723834
 23
115.0
 33
0.0
  0
MTEXT
  5
3459
330
D24
100
AcDbEntity
  8
2
100
AcDbMText
 10
71.16356680723832
 20
120.0
 30
0.0
 40
3.5
 41
0.0
 71
     5
 72
     1
  1
10
 11
0.0000000000000001
 21
1.0
 31
0.0
 73
     1
 44
1.0
  0
POINT
  5
345A
330
D24
100
AcDbEntity
  8
DEFPOINTS
 62
     0
100
AcDbPoint
 10
62.21809842389848
 20
125.0
 30
0.0
  0
POINT
  5
345B
330
D24
100
AcDbEntity
  8
DEFPOINTS
 62
     0
100
AcDbPoint
 10
63.50000000000001
 20
115.0
 30
0.0
  0
POINT
  5
345C
330
D24
100
AcDbEntity
  8
DEFPOINTS
 62
     0
100
AcDbPoint
 10
73.53856680723834
 20
115.0
 30
0.0
  0
ENDBLK
  5
D2F
330
D24
100
AcDbEntity
  8
0
100
AcDbBlockEnd
  0
BLOCK
  5
D43
330
D39
100
AcDbEntity
  8
0
100
AcDbBlockBegin
  2
*D1
 70
     1
 10
0.0
 20
0.0
 30
0.0
  3
*D1
  1

  0
LINE
  5
345D
330
D39
100
AcDbEntity
  8
2
370
    -2
100
AcDbLine
 10
62.84309842389848
 20
125.0
 30
0.0
 11
99.23043777194092
 21
124.9999999999999
 31
0.0
  0
LINE
  5
345E
330
D39
100
AcDbEntity
  8
2
370
    -2
100
AcDbLine
 10
64.12499999999997
 20
-125.0
 30
0.0
 11
99.23043777194086
 21
-125.0
 31
0.0
  0
LINE
  5
345F
330
D39
100
AcDbEntity
  8
2
370
    -2
100
AcDbLine
 10
97.98043777194092
 20
121.4999999999999
 30
0.0
 11
97.98043777194086
 21
-121.5
 31
0.0
  0
SOLID
  5
3460
330
D39
100
AcDbEntity
  8
2
100
AcDbTrace
 10
97.39710443860758
 20
121.4999999999999
 30
0.0
 11
98.56377110527425
 21
121.4999999999999
 31
0.0
 12
97.98043777194092
 22
124.9999999999999
 32
0.0
 13
97.98043777194092
 23
124.9999999999999
 33
0.0
  0
SOLID
  5
3461
330
D39
100
AcDbEntity
  8
2
100
AcDbTrace
 10
97.39710443860753
 20
-121.5
 30
0.0
 11
98.56377110527418
 21
-121.5
 31
0.0
 12
97.98043777194086
 22
-125.0
 32
0.0
 13
97.98043777194086
 23
-125.0
 33
0.0
  0
MTEXT
  5
3462
330
D39
100
AcDbEntity
  8
2
100
AcDbMText
 10
95.60509328375191
 20
0.7058311246307084
 30
0.0
 40
3.5
 41
0.0
 71
     5
 72
     1
  1
%%c250
 11
0.0000000000000001
 21
1.0
 31
0.0
 73
     1
 44
1.0
  0
POINT
  5
3463
330
D39
100
AcDbEntity
  8
DEFPOINTS
 62
     0
100
AcDbPoint
 10
62.21809842389848
 20
125.0
 30
0.0
  0
POINT
  5
3464
330
D39
100
AcDbEntity
  8
DEFPOINTS
 62
     0
100
AcDbPoint
 10
63.49999999999997
 20
-125.0
 30
0.0
  0
POINT
  5
3465
330
D39
100
AcDbEntity
  8
DEFPOINTS
 62
     0
100
AcDbPoint
 10
97.98043777194086
 20
-125.0
 30
0.0
  0
ENDBLK
  5
D44
330
D39
100
AcDbEntity
  8
0
100
AcDbBlockEnd
  0
BLOCK
  5
D4F
330
D45
100
AcDbEntity
  8
0
100
AcDbBlockBegin
  2
*D2
 70
     1
 10
0.0
 20
0.0
 30
0.0
  3
*D2
  1

  0
LINE
  5
3433
330
D45
100
AcDbEntity
  8
SK2
370
    -2
100
AcDbLine
 10
-1.124999999999985
 20
110.0
 30
0.0
 11
-37.5748092565247
 21
110.0
 31
0.0
  0
LINE
  5
3434
330
D45
100
AcDbEntity
  8
SK2
370
    -2
100
AcDbLine
 10
-1.125000000000012
 20
-110.0
 30
0.0
 11
-37.57480925652474
 21
-109.9999999999998
 31
0.0
  0
LINE
  5
3435
330
D45
100
AcDbEntity
  8
SK2
370
    -2
100
AcDbLine
 10
-36.3248092565247
 20
106.4999999999999
 30
0.0
 11
-36.32480925652474
 21
-106.4999999999999
 31
0.0
  0
SOLID
  5
3436
330
D45
100
AcDbEntity
  8
SK2
100
AcDbTrace
 10
-36.90814258985803
 20
106.4999999999999
 30
0.0
 11
-35.74147592319135
 21
106.4999999999999
 31
0.0
 12
-36.3248092565247
 22
110.0
 32
0.0
 13
-36.3248092565247
 23
110.0
 33
0.0
  0
SOLID
  5
3437
330
D45
100
AcDbEntity
  8
SK2
100
AcDbTrace
 10
-36.90814258985808
 20
-106.4999999999999
 30
0.0
 11
-35.7414759231914
 21
-106.4999999999999
 31
0.0
 12
-36.32480925652474
 22
-109.9999999999998
 32
0.0
 13
-36.32480925652474
 23
-109.9999999999998
 33
0.0
  0
MTEXT
  5
3438
330
D45
100
AcDbEntity
  8
SK2
100
AcDbMText
 10
-38.7001537447137
 20
0.0301416437338892
 30
0.0
 40
3.5
 41
0.0
 71
     5
 72
     1
  1
%%c220
 11
0.0000000000000001
 21
1.0
 31
0.0
 73
     1
 44
1.0
  0
POINT
  5
3439
330
D45
100
AcDbEntity
  8
DEFPOINTS
 62
     0
100
AcDbPoint
 10
-0.4999999999999865
 20
110.0
 30
0.0
  0
POINT
  5
343A
330
D45
100
AcDbEntity
  8
DEFPOINTS
 62
     0
100
AcDbPoint
 10
-0.5000000000000135
 20
-110.0
 30
0.0
  0
POINT
  5
343B
330
D45
100
AcDbEntity
  8
DEFPOINTS
 62
     0
100
AcDbPoint
 10
-36.32480925652474
 20
-109.9999999999998
 30
0.0
  0
ENDBLK
  5
D50
330
D45
100
AcDbEntity
  8
0
100
AcDbBlockEnd
  0
BLOCK
  5
D5B
330
D51
100
AcDbEntity
  8
0
100
AcDbBlockBegin
  2
*D3
 70
     1
 10
0.0
 20
0.0
 30
0.0
  3
*D3
  1

  0
LINE
  5
342A
330
D51
100
AcDbEntity
  8
SK2
370
    -2
100
AcDbLine
 10
1.892917786400005
 20
30.0
 30
0.0
 11
-13.62499999999999
 21
30.0
 31
0.0
  0
LINE
  5
342B
330
D51
100
AcDbEntity
  8
SK2
370
    -2
100
AcDbLine
 10
1.892917786399998
 20
-30.0
 30
0.0
 11
-13.625
 21
-30.0
 31
0.0
  0
LINE
  5
342C
330
D51
100
AcDbEntity
  8
SK2
370
    -2
100
AcDbLine
 10
-12.37499999999999
 20
26.5
 30
0.0
 11
-12.375
 21
-26.49999999999999
 31
0.0
  0
SOLID
  5
342D
330
D51
100
AcDbEntity
  8
SK2
100
AcDbTrace
 10
-12.95833333333332
 20
26.5
 30
0.0
 11
-11.79166666666666
 21
26.5
 31
0.0
 12
-12.37499999999999
 22
30.0
 32
0.0
 13
-12.37499999999999
 23
30.0
 33
0.0
  0
SOLID
  5
342E
330
D51
100
AcDbEntity
  8
SK2
100
AcDbTrace
 10
-12.95833333333334
 20
-26.49999999999999
 30
0.0
 11
-11.79166666666666
 21
-26.49999999999999
 31
0.0
 12
-12.375
 22
-30.0
 32
0.0
 13
-12.375
 23
-30.0
 33
0.0
  0
MTEXT
  5
342F
330
D51
100
AcDbEntity
  8
SK2
100
AcDbMText
 10
-14.75
 20
0.0000000000000018
 30
0.0
 40
3.5
 41
0.0
 71
     5
 72
     1
  1
%%c60
 11
0.0000000000000001
 21
1.0
 31
0.0
 73
     1
 44
1.0
  0
POINT
  5
3430
330
D51
100
AcDbEntity
  8
DEFPOINTS
 62
     0
100
AcDbPoint
 10
2.517917786400005
 20
30.0
 30
0.0
  0
POINT
  5
3431
330
D51
100
AcDbEntity
  8
DEFPOINTS
 62
     0
100
AcDbPoint
 10
2.517917786399999
 20
-30.0
 30
0.0
  0
POINT
  5
3432
330
D51
100
AcDbEntity
  8
DEFPOINTS
 62
     0
100
AcDbPoint
 10
-12.375
 20
-30.0
 30
0.0
  0
ENDBLK
  5
D5C
330
D51
100
AcDbEntity
  8
0
100
AcDbBlockEnd
  0
BLOCK
  5
D67
330
D5D
100
AcDbEntity
  8
0
100
AcDbBlockBegin
  2
*D4
 70
     1
 10
0.0
 20
0.0
 30
0.0
  3
*D4
  1

  0
LINE
  5
3201
330
D5D
100
AcDbEntity
  8
2
370
    -2
100
AcDbLine
 10
62.99999999999998
 20
-133.2017575351999
 30
0.0
 11
62.99999999999998
 21
-143.8749999999999
 31
0.0
  0
LINE
  5
3202
330
D5D
100
AcDbEntity
  8
2
370
    -2
100
AcDbLine
 10
-0.0000000000000143
 20
-116.7614613098997
 30
0.0
 11
-0.0000000000000159
 21
-143.8749999999999
 31
0.0
  0
LINE
  5
3203
330
D5D
100
AcDbEntity
  8
2
370
    -2
100
AcDbLine
 10
59.49999999999999
 20
-142.625
 30
0.0
 11
3.499999999999984
 21
-142.625
 31
0.0
  0
SOLID
  5
3204
330
D5D
100
AcDbEntity
  8
2
100
AcDbTrace
 10
59.49999999999999
 20
-142.0416666666666
 30
0.0
 11
59.49999999999999
 21
-143.2083333333333
 31
0.0
 12
62.99999999999998
 22
-142.625
 32
0.0
 13
62.99999999999998
 23
-142.625
 33
0.0
  0
SOLID
  5
3205
330
D5D
100
AcDbEntity
  8
2
100
AcDbTrace
 10
3.499999999999984
 20
-142.0416666666666
 30
0.0
 11
3.499999999999984
 21
-143.2083333333333
 31
0.0
 12
-0.0000000000000158
 22
-142.625
 32
0.0
 13
-0.0000000000000158
 23
-142.625
 33
0.0
  0
MTEXT
  5
3206
330
D5D
100
AcDbEntity
  8
2
100
AcDbMText
 10
31.49999999999999
 20
-140.25
 30
0.0
 40
3.5
 41
0.0
 71
     5
 72
     1
  1
63
 73
     1
 44
1.0
1001
ACAD
1000
MTEXTBEGIN
1070
    73
1070
     1
1070
    44
1040
1.0
1070
    74
1070
     0
1000
MTEXTEND
  0
POINT
  5
3207
330
D5D
100
AcDbEntity
  8
DEFPOINTS
 62
     0
100
AcDbPoint
 10
62.99999999999998
 20
-132.5767575351999
 30
0.0
  0
POINT
  5
3208
330
D5D
100
AcDbEntity
  8
DEFPOINTS
 62
     0
100
AcDbPoint
 10
-0.0000000000000142
 20
-116.1364613098997
 30
0.0
  0
POINT
  5
3209
330
D5D
100
AcDbEntity
  8
DEFPOINTS
 62
     0
100
AcDbPoint
 10
-0.0000000000000158
 20
-142.625
 30
0.0
  0
ENDBLK
  5
D68
330
D5D
100
AcDbEntity
  8
0
100
AcDbBlockEnd
  0
BLOCK
  5
DA4
330
D9A
100
AcDbEntity
  8
0
100
AcDbBlockBegin
  2
*D5
 70
     1
 10
0.0
 20
0.0
 30
0.0
  3
*D5
  1

  0
LINE
  5
3421
330
D9A
100
AcDbEntity
  8
SK2
370
    -2
100
AcDbLine
 10
-4.577356856195284
 20
-50.80000000000001
 30
0.0
 11
-27.12122676663769
 21
-50.8
 31
0.0
  0
LINE
  5
3422
330
D9A
100
AcDbEntity
  8
SK2
370
    -2
100
AcDbLine
 10
-4.577356856195271
 20
50.80000000000001
 30
0.0
 11
-27.12122676663767
 21
50.80000000000001
 31
0.0
  0
LINE
  5
3423
330
D9A
100
AcDbEntity
  8
SK2
370
    -2
100
AcDbLine
 10
-25.87122676663769
 20
-47.29999999999999
 30
0.0
 11
-25.87122676663767
 21
47.30000000000002
 31
0.0
  0
SOLID
  5
3424
330
D9A
100
AcDbEntity
  8
SK2
100
AcDbTrace
 10
-26.45456009997102
 20
-47.29999999999999
 30
0.0
 11
-25.28789343330435
 21
-47.29999999999999
 31
0.0
 12
-25.87122676663769
 22
-50.8
 32
0.0
 13
-25.87122676663769
 23
-50.8
 33
0.0
  0
SOLID
  5
3425
330
D9A
100
AcDbEntity
  8
SK2
100
AcDbTrace
 10
-26.45456009997099
 20
47.30000000000002
 30
0.0
 11
-25.28789343330434
 21
47.30000000000002
 31
0.0
 12
-25.87122676663767
 22
50.80000000000001
 32
0.0
 13
-25.87122676663767
 23
50.80000000000001
 33
0.0
  0
MTEXT
  5
3426
330
D9A
100
AcDbEntity
  8
SK2
100
AcDbMText
 10
-28.24622676663768
 20
-0.9033696839325635
 30
0.0
 40
3.5
 41
0.0
 71
     5
 72
     1
  1
%%c101.6
 11
0.0000000000000001
 21
1.0
 31
0.0
 73
     1
 44
1.0
  0
POINT
  5
3427
330
D9A
100
AcDbEntity
  8
DEFPOINTS
 62
     0
100
AcDbPoint
 10
-3.952356856195283
 20
-50.80000000000001
 30
0.0
  0
POINT
  5
3428
330
D9A
100
AcDbEntity
  8
DEFPOINTS
 62
     0
100
AcDbPoint
 10
-3.952356856195271
 20
50.80000000000001
 30
0.0
  0
POINT
  5
3429
330
D9A
100
AcDbEntity
  8
DEFPOINTS
 62
     0
100
AcDbPoint
 10
-25.87122676663767
 20
50.80000000000001
 30
0.0
  0
ENDBLK
  5
DA5
330
D9A
100
AcDbEntity
  8
0
100
AcDbBlockEnd
  0
BLOCK
  5
33EF
330
33ED
100
AcDbEntity
  8
0
100
AcDbBlockBegin
  2
_FILLED
 70
     0
 10
0.0
 20
0.0
 30
0.0
  3
_FILLED
  1

  0
SOLID
  5
33EE
330
33ED
100
AcDbEntity
  8
0
  6
ByBlock
 62
     0
100
AcDbTrace
 10
0.0
 20
0.0
 30
0.0
 11
-1.0
 21
0.132
 31
0.0
 12
-1.0
 22
-0.132
 32
0.0
 13
-1.0
 23
-0.132
 33
0.0
  0
ENDBLK
  5
33F0
330
33ED
100
AcDbEntity
  8
0
  6
ByBlock
 62
     0
100
AcDbBlockEnd
  0
ENDSEC
  0
SECTION
  2
ENTITIES
  0
DIMENSION
  5
64
330
1E
100
AcDbEntity
  8
2
100
AcDbDimension
  2
*D1
 10
97.98043777194086
 20
-125.0
 30
0.0
 11
97.98043777194088
 21
0.7058311246307082
 31
0.0
 70
   160
  1
%%c<>
 71
     5
 42
250.0
  3
ISO-25
100
AcDbAlignedDimension
 13
62.21809842389848
 23
125.0
 33
0.0
 14
63.49999999999997
 24
-125.0
 34
0.0
 50
270.0
100
AcDbRotatedDimension
  0
DIMENSION
  5
65
330
1E
100
AcDbEntity
  8
2
100
AcDbDimension
  2
*D4
 10
-0.0000000000000158
 20
-142.625
 30
0.0
 11
31.49999999999999
 21
-142.625
 31
0.0
 70
   160
 71
     5
 42
63.0
  3
ISO-25
100
AcDbAlignedDimension
 13
62.99999999999998
 23
-132.5767575351999
 33
0.0
 14
-0.0000000000000142
 24
-116.1364613098997
 34
0.0
 50
180.0
100
AcDbRotatedDimension
  0
DIMENSION
  5
66
330
1E
100
AcDbEntity
  8
SK2
100
AcDbDimension
  2
*D2
 10
-36.32480925652474
 20
-109.9999999999998
 30
0.0
 11
-36.32480925652472
 21
0.0301416437338889
 31
0.0
 70
   160
  1
%%c<>
 71
     5
 42
220.0
  3
ISO-25
100
AcDbAlignedDimension
 13
-0.4999999999999865
 23
110.0
 33
0.0
 14
-0.5000000000000135
 24
-110.0
 34
0.0
 50
270.0
100
AcDbRotatedDimension
  0
DIMENSION
  5
67
330
1E
100
AcDbEntity
  8
SK2
100
AcDbDimension
  2
*D3
 10
-12.375
 20
-30.0
 30
0.0
 11
-12.375
 21
0.0000000000000015
 31
0.0
 70
   160
  1
%%c<>
 71
     5
 42
60.0
  3
ISO-25
100
AcDbAlignedDimension
 13
2.517917786400005
 23
30.0
 33
0.0
 14
2.517917786399999
 24
-30.0
 34
0.0
 50
270.0
100
AcDbRotatedDimension
  0
LINE
  5
6A
330
1E
100
AcDbEntity
  8
1
100
AcDbLine
 10
61.96477058300001
 20
124.4389855989999
 30
0.0
 11
61.89836239249999
 21
124.4369252238999
 31
0.0
  0
LINE
  5
6B
330
1E
100
AcDbEntity
  8
1
100
AcDbLine
 10
61.9634524819
 20
124.439006388
 30
0.0
 11
61.9645528748
 21
124.439006388
 31
0.0
  0
LINE
  5
6C
330
1E
100
AcDbEntity
  8
1
100
AcDbLine
 10
57.86463492060001
 20
123.4499999999999
 30
0.0
 11
34.6926406871
 21
123.4499999999999
 31
0.0
  0
LINE
  5
6D
330
1E
100
AcDbEntity
  8
1
100
AcDbLine
 10
18.75735931290001
 20
110.0
 30
0.0
 11
5.000000000000011
 21
110.0
 31
0.0
  0
LINE
  5
6E
330
1E
100
AcDbEntity
  8
SK3
100
AcDbLine
 10
61.60000000000001
 20
101.4499999999999
 30
0.0
 11
43.0
 21
101.4499999999999
 31
0.0
  0
LWPOLYLINE
  5
6F
330
1E
100
AcDbEntity
  8
1
100
AcDbPolyline
 90
       17
 70
     0
 43
0.0
 10
61.7105085152
 20
-105.121425705
 10
61.75076218239998
 20
-105.0577189945999
 10
61.79154266329999
 20
-105.070024764
 10
61.83129664199998
 20
-105.1578742900999
 10
61.86914247409998
 20
-105.3214022114999
 10
61.9023148556
 20
-105.5486599356
 10
61.93024145649999
 20
-105.8332303514999
 10
61.95185856119998
 20
-106.1642742603999
 10
61.96653280169996
 20
-106.5359227803
 10
61.97319196619996
 20
-106.9210204461999
 10
61.97190566299997
 20
-107.3111580184
 10
61.96272288709998
 20
-107.691475278
 10
61.94562956470001
 20
-108.0535377338998
 10
61.92187466409998
 20
-108.3708903516999
 10
61.89212895579998
 20
-108.6380577816
 10
61.85752544469997
 20
-108.8448636992999
 10
61.81867759609998
 20
-108.9852488148999
  0
LINE
  5
82
330
1E
100
AcDbEntity
  8
SK3
100
AcDbLine
 10
43.0
 20
82.94744111669997
 30
0.0
 11
32.00000000000001
 21
80.0
 31
0.0
  0
LWPOLYLINE
  5
83
330
1E
100
AcDbEntity
  8
1
100
AcDbPolyline
 90
        7
 70
     0
 43
0.0
 10
61.7105085152
 20
-105.121425705
 10
61.68969634469998
 20
-105.1860934589999
 10
61.6690550905
 20
-105.2743987092999
 10
61.64953144629999
 20
-105.383514111
 10
61.63135380109999
 20
-105.5121632242
 10
61.61524452449999
 20
-105.6538451913998
 10
61.5999700839
 20
-105.8205935733
  0
LINE
  5
8C
330
1E
100
AcDbEntity
  8
1
100
AcDbLine
 10
62.0043664306
 20
-1.421647201500042
 30
0.0
 11
62.99999995670001
 21
-10.89446743170003
 31
0.0
  0
LINE
  5
8D
330
1E
100
AcDbEntity
  8
1
100
AcDbLine
 10
57.91199581009999
 20
-3.258924895800028
 30
0.0
 11
58.616745858
 21
-9.964173700800023
 31
0.0
  0
LINE
  5
8E
330
1E
100
AcDbEntity
  8
1
100
AcDbLine
 10
57.86988513389999
 20
-7.641654691800005
 30
0.0
 11
57.43989552329999
 21
-3.550576824700048
 31
0.0
  0
LINE
  5
8F
330
1E
100
AcDbEntity
  8
1
100
AcDbLine
 10
57.42063504789999
 20
-3.367325641799998
 30
0.0
 11
57.43989552329999
 21
-3.550576824700048
 31
0.0
  0
LINE
  5
90
330
1E
100
AcDbEntity
  8
1
100
AcDbLine
 10
57.86988513389999
 20
-7.641654691800005
 30
0.0
 11
58.111904808
 21
-9.944318075900019
 31
0.0
  0
LINE
  5
92
330
1E
100
AcDbEntity
  8
1
100
AcDbLine
 10
61.60000000000001
 20
112.2362941656999
 30
0.0
 11
61.60000000000001
 21
-1.593288502200043
 31
0.0
  0
LINE
  5
93
330
1E
100
AcDbEntity
  8
1
100
AcDbLine
 10
61.60000000000001
 20
-10.62233541070001
 30
0.0
 11
61.6
 21
-121.8496447368
 31
0.0
  0
LINE
  5
94
330
1E
100
AcDbEntity
  8
1
100
AcDbLine
 10
58.065482654
 20
123.0837207680999
 30
0.0
 11
58.065482654
 21
115.9155793344999
 31
0.0
  0
LINE
  5
95
330
1E
100
AcDbEntity
  8
1
100
AcDbLine
 10
57.86463492060001
 20
123.2145136812999
 30
0.0
 11
57.86463492060001
 21
123.4218607038998
 31
0.0
  0
LINE
  5
96
330
1E
100
AcDbEntity
  8
1
100
AcDbLine
 10
62.99999995670001
 20
10.89446743169996
 30
0.0
 11
62.0043664306
 21
1.421647201499968
 31
0.0
  0
LINE
  5
97
330
1E
100
AcDbEntity
  8
1
100
AcDbLine
 10
62.16969784829998
 20
10.29351123589996
 30
0.0
 11
61.60000000000001
 21
4.873198278299971
 31
0.0
  0
LINE
  5
98
330
1E
100
AcDbEntity
  8
SK3
100
AcDbLine
 10
1.599999999999995
 20
30.0
 30
0.0
 11
30.4
 21
30.0
 31
0.0
  0
LINE
  5
99
330
1E
100
AcDbEntity
  8
1
100
AcDbLine
 10
57.0799753228
 20
-9.701897325500006
 30
0.0
 11
57.19708837169999
 21
-10.8161535546
 31
0.0
  0
LINE
  5
9A
330
1E
100
AcDbEntity
  8
1
100
AcDbLine
 10
54.67026966729999
 20
-10.68304984600001
 30
0.0
 11
54.73576744729999
 21
-11.30621959580003
 31
0.0
  0
LWPOLYLINE
  5
9B
330
1E
100
AcDbEntity
  8
1
100
AcDbPolyline
 90
        7
 70
     0
 43
0.0
 10
61.59994137789999
 20
-108.2857300161
 10
61.6275465309
 20
-108.5636469762
 10
61.66082040639999
 20
-108.7895426387999
 10
61.69804694979998
 20
-108.9493067779
 10
61.73780821379999
 20
-109.0368540270999
 10
61.77786151129999
 20
-109.0493049895
 10
61.81867759779999
 20
-108.9852488106
  0
LINE
  5
A4
330
1E
100
AcDbEntity
  8
SK3
100
AcDbLine
 10
42.99999999999998
 20
-101.4499999999999
 30
0.0
 11
43.0
 21
101.4499999999999
 31
0.0
  0
LINE
  5
A5
330
1E
100
AcDbEntity
  8
1
100
AcDbLine
 10
57.4184560043
 20
-3.368250257100051
 30
0.0
 11
58.3182034899
 21
-2.986330108500005
 31
0.0
  0
LINE
  5
A6
330
1E
100
AcDbEntity
  8
1
100
AcDbLine
 10
58.3182034899
 20
-2.986330108500005
 30
0.0
 11
61.60154338609999
 21
-1.592635009500048
 31
0.0
  0
LINE
  5
A7
330
1E
100
AcDbEntity
  8
1
100
AcDbLine
 10
61.6174604339
 20
-1.585878623500041
 30
0.0
 11
62.00231711090001
 21
-1.422516656300053
 31
0.0
  0
LINE
  5
A8
330
1E
100
AcDbEntity
  8
1
100
AcDbLine
 10
57.86463492060001
 20
-2.6356783549
 30
0.0
 11
61.1236641186
 21
-1.252302535100005
 31
0.0
  0
LINE
  5
A9
330
1E
100
AcDbEntity
  8
1
100
AcDbLine
 10
12.4
 20
12.84999999999996
 30
0.0
 11
1.599999999999995
 21
12.84999999999996
 31
0.0
  0
LINE
  5
AA
330
1E
100
AcDbEntity
  8
1
100
AcDbLine
 10
61.6174604339
 20
1.585878623499971
 30
0.0
 11
62.00231711090001
 21
1.422516656299982
 31
0.0
  0
LINE
  5
AB
330
1E
100
AcDbEntity
  8
1
100
AcDbLine
 10
58.02826739930001
 20
-2.743404021500005
 30
0.0
 11
58.3248119888
 21
-2.983541095200002
 31
0.0
  0
LINE
  5
AC
330
1E
100
AcDbEntity
  8
1
100
AcDbLine
 10
57.43989552329999
 20
-3.550576824700048
 30
0.0
 11
57.3621809271
 21
-3.487644785600028
 31
0.0
  0
LINE
  5
AD
330
1E
100
AcDbEntity
  8
SK3
100
AcDbLine
 10
31.99999999999999
 20
-80.0
 30
0.0
 11
32.00000000000001
 21
80.0
 31
0.0
  0
LINE
  5
AE
330
1E
100
AcDbEntity
  8
SK3
100
AcDbLine
 10
30.4
 20
-30.0
 30
0.0
 11
30.4
 21
30.0
 31
0.0
  0
LINE
  5
AF
330
1E
100
AcDbEntity
  8
SK3
100
AcDbLine
 10
-0.0000000000000039
 20
-31.60000000000001
 30
0.0
 11
1.599999999999988
 21
-30.0
 31
0.0
  0
LINE
  5
B0
330
1E
100
AcDbEntity
  8
1
100
AcDbLine
 10
61.60000000000001
 20
10.62233541069996
 30
0.0
 11
62.9978146495
 21
10.89404305439993
 31
0.0
  0
LINE
  5
B1
330
1E
100
AcDbEntity
  8
4
100
AcDbLine
 10
68.9611943866
 20
-0.0000000000000084
 30
0.0
 11
-6.099700636100007
 21
0.0000000000000007
 31
0.0
  0
LINE
  5
B2
330
1E
100
AcDbEntity
  8
SK3
100
AcDbLine
 10
0.0000000000000039
 20
31.59999999999996
 30
0.0
 11
1.599999999999995
 21
30.0
 31
0.0
  0
LINE
  5
B3
330
1E
100
AcDbEntity
  8
1
100
AcDbLine
 10
57.1859298955
 20
-3.015039322900014
 30
0.0
 11
58.22840338159998
 21
-2.905470944400013
 31
0.0
  0
LINE
  5
B4
330
1E
100
AcDbEntity
  8
1
100
AcDbLine
 10
58.10958114339999
 20
-9.94386671430005
 30
0.0
 11
62.9978146495
 21
-10.89404305440002
 31
0.0
  0
LINE
  5
B5
330
1E
100
AcDbEntity
  8
1
100
AcDbLine
 10
14.0
 20
-11.25
 30
0.0
 11
14.0
 21
11.25
 31
0.0
  0
LINE
  5
B6
330
1E
100
AcDbEntity
  8
1
100
AcDbLine
 10
-0.0000000000000018
 20
-14.45000000000002
 30
0.0
 11
1.59999999999999
 21
-12.85000000000001
 31
0.0
  0
LINE
  5
B7
330
1E
100
AcDbEntity
  8
1
100
AcDbLine
 10
55.16075828289999
 20
-9.807939618000037
 30
0.0
 11
58.065482654
 21
-9.502640784300018
 31
0.0
  0
LINE
  5
B8
330
1E
100
AcDbEntity
  8
1
100
AcDbLine
 10
57.1264742426
 20
-10.14430499510001
 30
0.0
 11
55.3518987105
 21
-10.31289923619999
 31
0.0
  0
LINE
  5
B9
330
1E
100
AcDbEntity
  8
1
100
AcDbLine
 10
12.4
 20
-12.85000000000001
 30
0.0
 11
1.59999999999999
 21
-12.85000000000001
 31
0.0
  0
LINE
  5
BA
330
1E
100
AcDbEntity
  8
1
100
AcDbLine
 10
0.0000000000000018
 20
14.44999999999998
 30
0.0
 11
1.599999999999995
 21
12.84999999999996
 31
0.0
  0
LINE
  5
BB
330
1E
100
AcDbEntity
  8
1
100
AcDbLine
 10
62.99073173260001
 20
111.5217648683999
 30
0.0
 11
62.53809711510001
 21
110.6013413302
 31
0.0
  0
LINE
  5
BC
330
1E
100
AcDbEntity
  8
SK3
100
AcDbLine
 10
30.4
 20
30.0
 30
0.0
 11
32.00000000000001
 21
31.59999999999996
 31
0.0
  0
LINE
  5
BD
330
1E
100
AcDbEntity
  8
SK3
100
AcDbLine
 10
30.4
 20
-30.0
 30
0.0
 11
32.0
 21
-31.60000000000001
 31
0.0
  0
LINE
  5
BE
330
1E
100
AcDbEntity
  8
1
100
AcDbLine
 10
62.99073173259999
 20
-111.5217648683999
 30
0.0
 11
62.53809711509997
 21
-110.6013413302
 31
0.0
  0
LINE
  5
BF
330
1E
100
AcDbEntity
  8
1
100
AcDbLine
 10
62.01363465469999
 20
-122.5185828499
 30
0.0
 11
62.46626927229996
 21
-123.439006388
 31
0.0
  0
LINE
  5
C0
330
1E
100
AcDbEntity
  8
SK3
100
AcDbLine
 10
1.599999999999988
 20
-30.0
 30
0.0
 11
1.59999999999999
 21
-12.85000000000001
 31
0.0
  0
LINE
  5
C1
330
1E
100
AcDbEntity
  8
SK3
100
AcDbLine
 10
1.599999999999995
 20
12.84999999999996
 30
0.0
 11
1.599999999999995
 21
30.0
 31
0.0
  0
LINE
  5
C2
330
1E
100
AcDbEntity
  8
1
100
AcDbLine
 10
-0.0000000000000129
 20
-104.9995737239
 30
0.0
 11
-0.0000000000000018
 21
-14.44423453440004
 31
0.0
  0
LINE
  5
C3
330
1E
100
AcDbEntity
  8
1
100
AcDbLine
 10
0.0000000000000018
 20
14.44423453409996
 30
0.0
 11
0.0000000000000129
 21
104.9995737238998
 31
0.0
  0
LINE
  5
C4
330
1E
100
AcDbEntity
  8
1
100
AcDbLine
 10
57.8698851339
 20
123.2115658102
 30
0.0
 11
58.1049080796
 21
123.6894803194999
 31
0.0
  0
LINE
  5
C5
330
1E
100
AcDbEntity
  8
SK3
100
AcDbLine
 10
1.599999999999988
 20
-30.0
 30
0.0
 11
30.4
 21
-30.0
 31
0.0
  0
LINE
  5
C6
330
1E
100
AcDbEntity
  8
1
100
AcDbLine
 10
58.23302325810001
 20
-123.4499999999999
 30
0.0
 11
58.61674585799999
 21
-124.230292314
 31
0.0
  0
LINE
  5
C7
330
1E
100
AcDbEntity
  8
1
100
AcDbLine
 10
57.98713938029997
 20
-123.4499999999999
 30
0.0
 11
58.10490807959999
 21
-123.6894803194999
 31
0.0
  0
LINE
  5
C8
330
1E
100
AcDbEntity
  8
SK3
100
AcDbLine
 10
42.99999999999999
 20
-82.94744111670002
 30
0.0
 11
31.99999999999999
 21
-80.0
 31
0.0
  0
LINE
  5
C9
330
1E
100
AcDbEntity
  8
1
100
AcDbLine
 10
32.57132034350001
 20
122.5713203436
 30
0.0
 11
20.87867965639997
 21
110.8786796563999
 31
0.0
  0
LINE
  5
CA
330
1E
100
AcDbEntity
  8
1
100
AcDbLine
 10
32.57132034349999
 20
-122.5713203436
 30
0.0
 11
20.87867965639996
 21
-110.8786796563999
 31
0.0
  0
LINE
  5
CB
330
1E
100
AcDbEntity
  8
SK3
100
AcDbLine
 10
61.6
 20
-101.4499999999999
 30
0.0
 11
42.99999999999998
 21
-101.4499999999999
 31
0.0
  0
LINE
  5
CC
330
1E
100
AcDbEntity
  8
1
100
AcDbLine
 10
18.75735931289996
 20
-110.0
 30
0.0
 11
4.999999999999986
 21
-110.0
 31
0.0
  0
LINE
  5
CE
330
1E
100
AcDbEntity
  8
1
100
AcDbLine
 10
60.0
 20
-123.4499999999999
 30
0.0
 11
34.69264068709996
 21
-123.4499999999999
 31
0.0
  0
ARC
  5
D1
330
1E
100
AcDbEntity
  8
1
100
AcDbCircle
 10
54.46350707659997
 20
-39.1090657363
 30
0.0
 40
50.0
100
AcDbArc
 50
81.13401601739992
 51
81.79409019589998
  0
ARC
  5
D2
330
1E
100
AcDbEntity
  8
1
100
AcDbCircle
 10
54.46350707659998
 20
39.10906573629995
 30
0.0
 40
50.0
100
AcDbArc
 50
273.1340160174
 51
277.3548819019
  0
ARC
  5
D4
330
1E
100
AcDbEntity
  8
1
100
AcDbCircle
 10
12.4
 20
-11.25
 30
0.0
 40
1.6
100
AcDbArc
 50
270.0
 51
0.0
  0
ARC
  5
D5
330
1E
100
AcDbEntity
  8
1
100
AcDbCircle
 10
12.4
 20
11.25
 30
0.0
 40
1.6
100
AcDbArc
 50
0.0
 51
90.0
  0
ARC
  5
D6
330
1E
100
AcDbEntity
  8
1
100
AcDbCircle
 10
57.6768411227
 20
-3.099071804800023
 30
0.0
 40
0.5
100
AcDbArc
 50
45.34368484939999
 51
230.9999999999999
  0
ARC
  5
D7
330
1E
100
AcDbEntity
  8
1
100
AcDbCircle
 10
4.999999999999987
 20
-105.0
 30
0.0
 40
5.0
100
AcDbArc
 50
180.0
 51
270.0
  0
ARC
  5
D8
330
1E
100
AcDbEntity
  8
1
100
AcDbCircle
 10
5.000000000000011
 20
105.0
 30
0.0
 40
5.0
100
AcDbArc
 50
90.0
 51
180.0
  0
ARC
  5
D9
330
1E
100
AcDbEntity
  8
1
100
AcDbCircle
 10
60.0
 20
-121.8499999999999
 30
0.0
 40
1.6
100
AcDbArc
 50
270.0
 51
0.0
  0
ARC
  5
DA
330
1E
100
AcDbEntity
  8
1
100
AcDbCircle
 10
18.75735931289996
 20
-113.0
 30
0.0
 40
3.0
100
AcDbArc
 50
45.0
 51
90.0
  0
ARC
  5
DB
330
1E
100
AcDbEntity
  8
1
100
AcDbCircle
 10
18.75735931290001
 20
113.0
 30
0.0
 40
3.0
100
AcDbArc
 50
270.0
 51
315.0
  0
ARC
  5
DC
330
1E
100
AcDbEntity
  8
1
100
AcDbCircle
 10
34.69264068709996
 20
-120.4499999999999
 30
0.0
 40
3.0
100
AcDbArc
 50
225.0
 51
270.0
  0
ARC
  5
DD
330
1E
100
AcDbEntity
  8
1
100
AcDbCircle
 10
34.6926406871
 20
120.4499999999999
 30
0.0
 40
3.0
100
AcDbArc
 50
90.0
 51
135.0000000001
  0
LWPOLYLINE
  5
DE
330
1E
100
AcDbEntity
  8
1
100
AcDbPolyline
 90
       34
 70
     0
 43
0.0
 10
62.5380971151
 20
6.499755453899967
 10
62.5130397188874
 20
6.272632056725957
 10
62.48562756867631
 20
6.045777816964965
 10
62.45640599262308
 20
5.823340267766972
 10
62.4254651573909
 20
5.605332176881963
 10
62.39288614340011
 20
5.391764396084956
 10
62.3594243363099
 20
5.186747954743956
 10
62.32453310017859
 20
4.98618561528399
 10
62.2890342471188
 20
4.794174296630948
 10
62.25309961865391
 20
4.610703973143973
 10
62.2168918644266
 20
4.435764722179943
 10
62.1814823062634
 20
4.273397495286975
 10
62.1462095449135
 20
4.119514090070985
 10
62.1112370117783
 20
3.974095040840998
 10
62.07672621783879
 20
3.837119555130972
 10
62.0428445088125
 20
3.708562257056988
 10
62.00975949938051
 20
3.588395711253943
 10
61.9776464979814
 20
3.476586884919973
 10
61.9466815787592
 20
3.373100396413001
 10
61.91705030720981
 20
3.277893823747993
 10
61.8876369398772
 20
3.186977092236977
 10
61.8598503535491
 20
3.104272564937947
 10
61.83249676105099
 20
3.025811066365965
 10
61.8056462857683
 20
2.951579320474981
 10
61.7808553721727
 20
2.885443243347982
 10
61.75680934931239
 20
2.823470047862988
 10
61.7335943803137
 20
2.765635034474986
 10
61.71129660384149
 20
2.711912760773989
 10
61.68834269334129
 20
2.658467105859974
 10
61.66639950571688
 20
2.609111753898948
 10
61.6455652922966
 20
2.563814505626957
 10
61.62594182683561
 20
2.522539678405954
 10
61.60578189284571
 20
2.48152640295398
 10
61.6001901637422
 20
2.470398750780979
  0
LWPOLYLINE
  5
102
330
1E
100
AcDbEntity
  8
1
100
AcDbPolyline
 90
       46
 70
     0
 43
0.0
 10
62.0107572072
 20
1.482451378999985
 10
62.0107516400365
 20
1.483315995276987
 10
62.01055712017289
 20
1.484103946349978
 10
62.0101923702787
 20
1.484822263093
 10
62.0096761130235
 20
1.485477976382972
 10
62.0090270710768
 20
1.486078117095975
 10
62.00826396710819
 20
1.486629716105985
 10
62.0074055237873
 20
1.487139804289985
 10
62.0064704637835
 20
1.487615412522975
 10
62.00547750976641
 20
1.488063571680973
 10
62.0044453844057
 20
1.488491312638975
 10
62.0023385103312
 20
1.489313663459985
 10
62.00130046580049
 20
1.489722063524984
 10
62.0002859892137
 20
1.49013371679995
 10
61.9992943899672
 20
1.490548541421949
 10
61.9983247833661
 20
1.490966384412946
 10
61.9973762847157
 20
1.491387092795995
 10
61.99644800932119
 20
1.491810513595956
 10
61.99553907248779
 20
1.492236493834969
 10
61.99420999176999
 20
1.492879928504965
 10
61.99291944640671
 20
1.493528261418976
 10
61.99166445055279
 20
1.494180976279995
 10
61.99044201836372
 20
1.494837556792948
 10
61.9892491639944
 20
1.495497486659975
 10
61.98808290160012
 20
1.496160249584979
 10
61.9869402453358
 20
1.496825329270953
 10
61.98544826357739
 20
1.497714813673941
 10
61.9839858625456
 20
1.49860627508996
 10
61.9818322427017
 20
1.499944497018977
 10
61.97507507938201
 20
1.504146451292956
 10
61.97324857557299
 20
1.505232136500968
 10
61.97138919302431
 20
1.506307416147981
 10
61.9694988448845
 20
1.507372813969985
 10
61.96719224680549
 20
1.508638984869994
 10
61.96484712038071
 20
1.509892585368949
 10
61.9624667722129
 20
1.511134520609962
 10
61.95964959433609
 20
1.512569909019978
 10
61.95638350624939
 20
1.514194263197956
 10
61.9526592941699
 20
1.516003711823989
 10
61.94763019636599
 20
1.518391849573951
 10
61.92101404196781
 20
1.53073887501096
 10
61.91065435901601
 20
1.53563606729198
 10
61.892640687791
 20
1.544251255771985
 10
61.84849530281161
 20
1.565191272371965
 10
61.7229535612437
 20
1.622520040185965
 10
61.60001129526222
 20
1.67755707002299
  0
LWPOLYLINE
  5
132
330
1E
100
AcDbEntity
  8
1
100
AcDbPolyline
 90
        2
 70
     0
 43
0.0
 10
62.9907317326
 20
10.80628616979998
 10
61.60000974241031
 20
10.53359129128293
  0
LWPOLYLINE
  5
136
330
1E
100
AcDbEntity
  8
1
100
AcDbPolyline
 90
       86
 70
     0
 43
0.0
 10
62.4662692723
 20
-5.816359179600007
 10
62.4892569349094
 20
-6.046645465386013
 10
62.50940296691728
 20
-6.272150004715007
 10
62.52720960476111
 20
-6.497850200285035
 10
62.54231567290879
 20
-6.718703221209017
 10
62.5548252960878
 20
-6.934679374213041
 10
62.56461347064091
 20
-7.140722917771035
 10
62.5720792671564
 20
-7.341829218192009
 10
62.5771842047983
 20
-7.532943394521002
 10
62.58020900533749
 20
-7.719070236997032
 10
62.58120985247838
 20
-7.895156433480003
 10
62.58040620686279
 20
-8.061181548550003
 10
62.57801260357481
 20
-8.217127892895016
 10
62.57424884745489
 20
-8.362982101391999
 10
62.56912312527109
 20
-8.503760331636051
 10
62.56296426132269
 20
-8.634424867351022
 10
62.55599742662901
 20
-8.75497095853604
 10
62.54808622878671
 20
-8.870416716231039
 10
62.5397286031514
 20
-8.975739718028027
 10
62.53069076017279
 20
-9.075956425710051
 10
62.52105493630231
 20
-9.171061648109008
 10
62.5115028363357
 20
-9.256056770879016
 10
62.50164914113209
 20
-9.335950606537046
 10
62.49159307607119
 20
-9.410745548672995
 10
62.481442869179
 20
-9.480447756708036
 10
62.47130513755809
 20
-9.545063364262038
 10
62.46043052161922
 20
-9.609559175308
 10
62.44969106936451
 20
-9.668971992838015
 10
62.43920686300221
 20
-9.723314027013039
 10
62.4291065879317
 20
-9.772602893884998
 10
62.4184268285431
 20
-9.821770315306027
 10
62.40828052448501
 20
-9.865901391617006
 10
62.397590266056
 20
-9.909903794155015
 10
62.38760123055349
 20
-9.948896653439023
 10
62.37711921756261
 20
-9.987760268255046
 10
62.3675123043516
 20
-10.021645288944
 10
62.35747172271151
 20
-10.055404615554
 10
62.346969862053
 20
-10.08902479636
 10
62.3375729752243
 20
-10.11771599729103
 10
62.3277835052462
 20
-10.14627519379603
 10
62.3175751971614
 20
-10.17468758967202
 10
62.30872918781749
 20
-10.19824159662299
 10
62.29955392653041
 20
-10.22167043042804
 10
62.2900248819392
 20
-10.24495727253202
 10
62.2801173238435
 20
-10.268085128577
 10
62.269806522043
 20
-10.29103700420199
 10
62.2612504951923
 20
-10.30925987787701
 10
62.25240221995719
 20
-10.32734394793002
 10
62.24324076140129
 20
-10.34527090758301
 10
62.2337451380904
 20
-10.36302239607205
 10
62.22389436859
 20
-10.380580052632
 10
62.2136674255195
 20
-10.39792543242902
 10
62.20573559491977
 20
-10.41078020394101
 10
62.1975644170096
 20
-10.42348451178598
 10
62.18913986545828
 20
-10.43602114140304
 10
62.18044791393548
 20
-10.44837287823199
 10
62.1714745361104
 20
-10.46052250771202
 10
62.1622057056524
 20
-10.47245281528103
 10
62.1526269013469
 20
-10.484144119123
 10
62.1427207958325
 20
-10.49556274731098
 10
62.13246907386601
 20
-10.506670102808
 10
62.12185341910459
 20
-10.517427583097
 10
62.1108555152052
 20
-10.527796585661
 10
62.09945704617889
 20
-10.53773850735399
 10
62.09162765080851
 20
-10.54410806468002
 10
62.0836127463886
 20
-10.55024845023103
 10
62.0754125845173
 20
-10.55613818560702
 10
62.06702741679331
 20
-10.561755792406
 10
62.0584574948146
 20
-10.56707979222702
 10
62.0497030701798
 20
-10.57208870666902
 10
62.0407643944871
 20
-10.57676105733099
 10
62.03164178649888
 20
-10.58107538296803
 10
62.0223412496935
 20
-10.58501167448304
 10
62.01287871095679
 20
-10.58855245768602
 10
62.0032710954642
 20
-10.59168051339899
 10
61.99353532839101
 20
-10.59437862244601
 10
61.98368833491261
 20
-10.596629565646
 10
61.97374704020429
 20
-10.598416123824
 10
61.9637284432254
 20
-10.59972130732603
 10
61.9536530013579
 20
-10.60053888493601
 10
61.94354603931699
 20
-10.60087776669601
 10
61.93343324774
 20
-10.600748000958
 10
61.92334031726421
 20
-10.60015963607302
 10
61.91329293852691
 20
-10.59912272039303
 10
61.90331680216551
 20
-10.59764730226903
 10
61.89837329753671
 20
-10.596750187226
  0
LWPOLYLINE
  5
18E
330
1E
100
AcDbEntity
  8
1
100
AcDbPolyline
 90
        2
 70
     0
 43
0.0
 10
61.8983634782
 20
-10.59674829490002
 10
58.6167556771862
 20
-9.96417559383503
  0
LWPOLYLINE
  5
192
330
1E
100
AcDbEntity
  8
1
100
AcDbPolyline
 90
        2
 70
     0
 43
0.0
 10
62.0136346547
 20
-1.50982846370005
 10
58.3606629399319
 20
-3.067579437537013
  0
LWPOLYLINE
  5
196
330
1E
100
AcDbEntity
  8
1
100
AcDbPolyline
 90
        2
 70
     0
 43
0.0
 10
58.36065374149999
 20
-3.067583360400028
 10
57.91200500850179
 20
-3.258920972867038
  0
LWPOLYLINE
  5
19A
330
1E
100
AcDbEntity
  8
1
100
AcDbPolyline
 90
       32
 70
     0
 43
0.0
 10
62.99360918019999
 20
-10.8336632545
 10
62.99285325814659
 20
-10.83178578258703
 10
62.9912221881012
 20
-10.83050609848098
 10
62.98896785862933
 20
-10.82966322091998
 10
62.9863421582964
 20
-10.82909616864004
 10
62.98225371524139
 20
-10.828413490618
 10
62.97966618637939
 20
-10.827916726252
 10
62.97720026708771
 20
-10.82737634848804
 10
62.9748434979128
 20
-10.82679734334399
 10
62.97258341940129
 20
-10.82618469684
 10
62.9704075721
 20
-10.82554339499604
 10
62.9683034965555
 20
-10.82487842383103
 10
62.96625873331429
 20
-10.82419476936302
 10
62.9632755439672
 20
-10.82314516338902
 10
62.95938926300159
 20
-10.82172683338201
 10
62.95453798285049
 20
-10.81997971030902
 10
62.9515608155034
 20
-10.818973097714
 10
62.9485193289989
 20
-10.81800303089701
 10
62.9454191868756
 20
-10.81706658268002
 10
62.9412042590614
 20
-10.81586520135797
 10
62.93690866360861
 20
-10.81471139611499
 10
62.93254589138431
 20
-10.81359820105299
 10
62.92701851126129
 20
-10.81225320318399
 10
62.91581749573438
 20
-10.80966649394901
 10
62.9012553322291
 20
-10.806359500822
 10
62.8902067773993
 20
-10.803777197519
 10
62.87492019761529
 20
-10.80011938528002
 10
62.8141848986122
 20
-10.785660967695
 10
62.6838402858057
 20
-10.75668288133498
 10
62.45026300777039
 20
-10.70704807432002
 10
62.0744334501161
 20
-10.63106838333004
 10
61.8983722117823
 20
-10.59674997823701
  0
LWPOLYLINE
  5
1BC
330
1E
100
AcDbEntity
  8
1
100
AcDbPolyline
 90
        2
 70
     0
 43
0.0
 10
57.4293346079
 20
-3.450096426900023
 10
57.9119865094799
 20
-3.258928569826031
  0
LWPOLYLINE
  5
1C0
330
1E
100
AcDbEntity
  8
1
100
AcDbPolyline
 90
        2
 70
     0
 43
0.0
 10
58.616745858
 20
-9.964173700800023
 10
58.10491793813439
 20
-9.877750327697023
  0
LWPOLYLINE
  5
1C4
330
1E
100
AcDbEntity
  8
1
100
AcDbPolyline
 90
       77
 70
     0
 43
0.0
 10
62.50218319369999
 20
-113.7951738590997
 10
62.48963796470527
 20
-113.7973646981969
 10
62.47818102530477
 20
-113.8033178388139
 10
62.46775187510088
 20
-113.812104215941
 10
62.45829001369608
 20
-113.822794764566
 10
62.44973494069249
 20
-113.8344604196779
 10
62.44202322243658
 20
-113.8463121423209
 10
62.43507837908189
 20
-113.858183685025
 10
62.42882030501186
 20
-113.8700818852039
 10
62.42316889446598
 20
-113.8820135871519
 10
62.4180440416836
 20
-113.8939856351659
 10
62.41336564090397
 20
-113.9060048735409
 10
62.40905358636646
 20
-113.918078146573
 10
62.40309717241288
 20
-113.9363043430009
 10
62.39569330601319
 20
-113.960858416751
 10
62.38680352276698
 20
-113.9919731050889
 10
62.37662129417007
 20
-114.029828885366
 10
62.36698441586078
 20
-114.068113458362
 10
62.35790951306029
 20
-114.106682330149
 10
62.34941321099046
 20
-114.145391006797
 10
62.34150063733268
 20
-114.184118131359
 10
62.33412610606809
 20
-114.2228446014069
 10
62.32612284037818
 20
-114.268036845799
 10
62.31765180524749
 20
-114.3197178772229
 10
62.30786898279938
 20
-114.3844000239399
 10
62.29522246379399
 20
-114.4751710076479
 10
62.28275890910269
 20
-114.572689118544
 10
62.27060648937449
 20
-114.676917898393
 10
62.25821917940777
 20
-114.7943126357199
 10
62.24587834053687
 20
-114.9248390870369
 10
62.23277083262068
 20
-115.081588448386
 10
62.21941158208021
 20
-115.264623329717
 10
62.20635177504036
 20
-115.4739779581059
 10
62.19446715145679
 20
-115.703096051775
 10
62.18386680019538
 20
-115.9585130383468
 10
62.17508494541989
 20
-116.2402323295878
 10
62.16880975763189
 20
-116.5416896935939
 10
62.16551306344547
 20
-116.8563036695388
 10
62.16547895968878
 20
-117.177489298578
 10
62.16870765464979
 20
-117.4921039574019
 10
62.17491495105198
 20
-117.7935627371039
 10
62.18362914636996
 20
-118.075284195401
 10
62.19416169031969
 20
-118.3307038961989
 10
62.20635177503417
 20
-118.5663697601009
 10
62.21941158207147
 20
-118.77572438849
 10
62.232770832615
 20
-118.95875926982
 10
62.24587834053735
 20
-119.1155086311688
 10
62.25821917941
 20
-119.2460350824849
 10
62.27060648937126
 20
-119.363429819814
 10
62.28275890909158
 20
-119.467658599664
 10
62.29522246377896
 20
-119.56517671056
 10
62.3078689827886
 20
-119.6559476942669
 10
62.31765180524416
 20
-119.7206298409819
 10
62.32612284038047
 20
-119.772310872405
 10
62.33412610607317
 20
-119.8175031167959
 10
62.3415006373375
 20
-119.856229586845
 10
62.34941321099128
 20
-119.8949567114079
 10
62.35790951305371
 20
-119.933665388059
 10
62.36698441584488
 20
-119.9722342598489
 10
62.37662129414617
 20
-120.0105188328469
 10
62.38680352273878
 20
-120.0483746131259
 10
62.39569330598627
 20
-120.0794893014629
 10
62.40309717239068
 20
-120.104043375212
 10
62.40905358634889
 20
-120.1222695716369
 10
62.41336564088958
 20
-120.1343428446669
 10
62.41804404167227
 20
-120.1463620830399
 10
62.42316889445778
 20
-120.1583341310529
 10
62.42882030500648
 20
-120.170265832999
 10
62.43507837907878
 20
-120.1821640331759
 10
62.44202322243537
 20
-120.19403557588
 10
62.4497349406926
 20
-120.2058872985219
 10
62.45829001369668
 20
-120.2175529536338
 10
62.46775187510158
 20
-120.2282435022589
 10
62.47818102530517
 20
-120.237029879385
 10
62.48963796470539
 20
-120.242983020003
 10
62.50218319369999
 20
-120.2451738590999
 10
62.50217319403422
 20
-120.2451738577349
  0
LWPOLYLINE
  5
213
330
1E
100
AcDbEntity
  8
1
100
AcDbPolyline
 90
        2
 70
     0
 43
0.0
 10
62.99360918019996
 20
-123.439006388
 10
62.99073176107549
 20
-111.5217748683589
  0
LWPOLYLINE
  5
217
330
1E
100
AcDbEntity
  8
1
100
AcDbPolyline
 90
       54
 70
     0
 43
0.0
 10
62.53809711509997
 20
-110.6013413302
 10
62.53051456922547
 20
-110.586155255293
 10
62.52214511880678
 20
-110.569902055454
 10
62.51356947622499
 20
-110.5537546784729
 10
62.50479274452111
 20
-110.537714196021
 10
62.49517175368382
 20
-110.520647802567
 10
62.48533205534119
 20
-110.503706668012
 10
62.47460229451178
 20
-110.4857756163699
 10
62.46363704339317
 20
-110.4679893002069
 10
62.45244171420427
 20
-110.4503479402589
 10
62.44030061139709
 20
-110.4317630574279
 10
62.42791232783647
 20
-110.4133423018759
 10
62.41528332186259
 20
-110.395085925902
 10
62.40165568368317
 20
-110.3759352221439
 10
62.387771148492
 20
-110.3569698392889
 10
62.37284341825978
 20
-110.337152580216
 10
62.35764369275121
 20
-110.3175432682949
 10
62.34135798696208
 20
-110.2971273595899
 10
62.32478601447837
 20
-110.276943525965
 10
62.30793454291639
 20
-110.2569925902819
 10
62.28994709106546
 20
-110.236295664564
 10
62.2716665882489
 20
-110.2158574194179
 10
62.25220857297818
 20
-110.194724731473
 10
62.2324436901957
 20
-110.173878822275
 10
62.21146030009997
 20
-110.152393648695
 10
62.19015734321389
 20
-110.131225551728
 10
62.16854188415338
 20
-110.11037676376
 10
62.14662094755396
 20
-110.0898495329399
 10
62.12440118604598
 20
-110.0696463345789
 10
62.10188862045947
 20
-110.0497700297919
 10
62.08008637154177
 20
-110.031066469675
 10
62.05802668062432
 20
-110.012667377555
 10
62.03571410357437
 20
-109.994575886927
 10
62.01315313895037
 20
-109.9767951832909
 10
61.99034814791016
 20
-109.959328638383
 10
61.96835579367068
 20
-109.9429526221438
 10
61.9461481903547
 20
-109.9268697660499
 10
61.92372870225366
 20
-109.9110836445239
 10
61.90110047270318
 20
-109.89559830438
 10
61.8793585500471
 20
-109.8811337786318
 10
61.85743274528279
 20
-109.8669495303769
 10
61.83532555439988
 20
-109.8530497325979
 10
61.81415796221918
 20
-109.840112280348
 10
61.79283100708708
 20
-109.827439160195
 10
61.77134677564419
 20
-109.8150346110289
 10
61.7497073482623
 20
-109.802902995627
 10
61.72906554598219
 20
-109.7916656668319
 10
61.7082879373147
 20
-109.780681428034
 10
61.68737611364109
 20
-109.7699545745629
 10
61.66633170145217
 20
-109.759489451916
 10
61.64633652376968
 20
-109.749850502173
 10
61.62622687734
 20
-109.7404539307818
 10
61.60600471231338
 20
-109.731304246395
 10
61.60004495231299
 20
-109.728664819594
  0
LWPOLYLINE
  5
24F
330
1E
100
AcDbEntity
  8
1
100
AcDbPolyline
 90
        8
 70
     0
 43
0.0
 10
61.96351537119998
 20
-124.4390063862999
 10
61.95347639931078
 20
-124.4389557134699
 10
61.94324185650279
 20
-124.438800704851
 10
61.93287840324567
 20
-124.4385389382289
 10
61.9223876277078
 20
-124.4381680626619
 10
61.91170612109726
 20
-124.4376825133149
 10
61.90083584241028
 20
-124.4370781236129
 10
61.89837345844185
 20
-124.436925920522
  0
LWPOLYLINE
  5
259
330
1E
100
AcDbEntity
  8
1
100
AcDbPolyline
 90
        2
 70
     0
 43
0.0
 10
61.89836347819998
 20
-124.4369252921998
 10
58.61675583823118
 20
-124.230292942479
  0
LWPOLYLINE
  5
25D
330
1E
100
AcDbEntity
  8
1
100
AcDbPolyline
 90
        2
 70
     0
 43
0.0
 10
58.61674585799999
 20
-124.230292314
 10
58.10491495301609
 20
-123.6894875828429
  0
LWPOLYLINE
  5
261
330
1E
100
AcDbEntity
  8
1
100
AcDbPolyline
 90
      118
 70
     0
 43
0.0
 10
62.99360918019996
 20
-123.439006388
 10
62.99349556110039
 20
-123.451740173883
 10
62.99321504735659
 20
-123.464474381644
 10
62.99276783907278
 20
-123.477206441287
 10
62.99215413635351
 20
-123.489933782813
 10
62.99137413930309
 20
-123.5026538362257
 10
62.99042804802579
 20
-123.515364031529
 10
62.98931606262609
 20
-123.5280617987239
 10
62.98803838320838
 20
-123.540744567815
 10
62.98659520987689
 20
-123.553409768805
 10
62.98498674273607
 20
-123.566054831696
 10
62.98321318214428
 20
-123.578677186919
 10
62.98127481792858
 20
-123.591274415526
 10
62.97917216075159
 20
-123.603844470343
 10
62.9769057547481
 20
-123.6163853605499
 10
62.9744761440531
 20
-123.6288950953248
 10
62.97188387280149
 20
-123.6413716838479
 10
62.9691294851282
 20
-123.6538131352949
 10
62.96621352516806
 20
-123.666217458847
 10
62.96313653705627
 20
-123.6785826636809
 10
62.95989906492756
 20
-123.690906758976
 10
62.95650165291699
 20
-123.703187753912
 10
62.95294484682536
 20
-123.7154236576839
 10
62.9492293051777
 20
-123.727612480733
 10
62.94535586898297
 20
-123.7397522355139
 10
62.94132539589159
 20
-123.751840934663
 10
62.9371387435535
 20
-123.763876590818
 10
62.93279676961907
 20
-123.7758572166159
 10
62.92830033173847
 20
-123.787780824694
 10
62.92365028756197
 20
-123.7996454276899
 10
62.91884749473979
 20
-123.8114490382399
 10
62.91389281092197
 20
-123.823189668982
 10
62.90878709375888
 20
-123.834865332555
 10
62.90353120624079
 20
-123.846474045977
 10
62.89812613856378
 20
-123.858013930687
 10
62.8925730106131
 20
-123.8694832145819
 10
62.8868729481111
 20
-123.8808801303459
 10
62.88028614674669
 20
-123.893612957537
 10
62.87351640891788
 20
-123.906249440706
 10
62.86656533745978
 20
-123.9187870635
 10
62.85943453520761
 20
-123.9312233095699
 10
62.85212560499608
 20
-123.9435556625639
 10
62.84464014966038
 20
-123.95578160613
 10
62.83697977921497
 20
-123.967898630664
 10
62.82914625539318
 20
-123.979904369106
 10
62.82114148455208
 20
-123.9917965902779
 10
62.81296737880801
 20
-124.0035730684129
 10
62.8046258502773
 20
-124.015231577745
 10
62.79611881107626
 20
-124.026769892507
 10
62.7874481733215
 20
-124.0381857869319
 10
62.77762458218968
 20
-124.050723827511
 10
62.76760400110279
 20
-124.063104930834
 10
62.75738905404368
 20
-124.075326045165
 10
62.74698247227428
 20
-124.08738426598
 10
62.73638718539586
 20
-124.0992769609119
 10
62.72560614445969
 20
-124.111001527029
 10
62.71464230051698
 20
-124.1225553614009
 10
62.70349860461909
 20
-124.133935861096
 10
62.69217800781721
 20
-124.1451404231806
 10
62.68068346116278
 20
-124.156166444726
 10
62.6690179157071
 20
-124.167011322798
 10
62.65718433453759
 20
-124.1776724763279
 10
62.64518582273209
 20
-124.188147582139
 10
62.63302557796587
 20
-124.1984344852379
 10
62.62070679950299
 20
-124.2085310335198
 10
62.60823268660727
 20
-124.2184350748768
 10
62.59560643854289
 20
-124.228144457202
 10
62.58283125457369
 20
-124.237657028388
 10
62.57120889299429
 20
-124.2460482902149
 10
62.55947081699939
 20
-124.254276822927
 10
62.54761936902568
 20
-124.262341084911
 10
62.53565696834319
 20
-124.2702397405329
 10
62.52358606931188
 20
-124.2779715482309
 10
62.51140912647222
 20
-124.285535266924
 10
62.49912859436429
 20
-124.2929296555319
 10
62.48674692752839
 20
-124.3001534729759
 10
62.47426658050478
 20
-124.3072054781749
 10
62.46169000783368
 20
-124.3140844300499
 10
62.44901966405539
 20
-124.3207890875219
 10
62.43625800376076
 20
-124.327318209662
 10
62.42340750715982
 20
-124.3336706331879
 10
62.41047072164001
 20
-124.339845398407
 10
62.39745020546648
 20
-124.345841578592
 10
62.38434851690428
 20
-124.3516582470179
 10
62.37116821421839
 20
-124.3572944769549
 10
62.35791185567388
 20
-124.36274934168
 10
62.34458199953571
 20
-124.3680219144638
 10
62.33118120406889
 20
-124.3731112685799
 10
62.31921190000747
 20
-124.377480576526
 10
62.30719036318888
 20
-124.381703736786
 10
62.29511838789469
 20
-124.3857801721178
 10
62.28299776400771
 20
-124.389709436421
 10
62.27083028095039
 20
-124.393491097315
 10
62.25861772814528
 20
-124.397124722422
 10
62.24636189501488
 20
-124.40060987936
 10
62.23406457098168
 20
-124.403946135751
 10
62.22172754546837
 20
-124.407133059214
 10
62.2093526078973
 20
-124.4101702173689
 10
62.19694154769108
 20
-124.413057177837
 10
62.18449615427227
 20
-124.415793508239
 10
62.17201821865369
 20
-124.41837877771
 10
62.15950960945859
 20
-124.420812629421
 10
62.14697230634897
 20
-124.423094812464
 10
62.13440829753288
 20
-124.4252250840819
 10
62.1218195712186
 20
-124.4272032015169
 10
62.109208115614
 20
-124.4290289220139
 10
62.09657591892728
 20
-124.430702002814
 10
62.08392496936646
 20
-124.4322222011619
 10
62.07125725513979
 20
-124.4335892743
 10
62.05857476445529
 20
-124.434802979472
 10
62.04587948552099
 20
-124.43586307392
 10
62.03317340431869
 20
-124.436769318532
 10
62.02045842412849
 20
-124.4375216095159
 10
62.00773634297378
 20
-124.438120015313
 10
61.99500895205797
 20
-124.438564615522
 10
61.98227804258438
 20
-124.438855489744
 10
61.96954540575646
 20
-124.438992717576
 10
61.9647805872
 20
-124.439004580015
  0
LWPOLYLINE
  5
2D9
330
1E
100
AcDbEntity
  8
1
100
AcDbPolyline
 90
        2
 70
     0
 43
0.0
 10
62.01363465469999
 20
-122.5185828499
 10
62.0107571835562
 20
-110.601351330172
  0
LWPOLYLINE
  5
2DD
330
1E
100
AcDbEntity
  8
1
100
AcDbPolyline
 90
       77
 70
     0
 43
0.0
 10
62.50218319369999
 20
-120.2451738590999
 10
62.51472842269499
 20
-120.242983020003
 10
62.5261853620961
 20
-120.237029879386
 10
62.53661451230039
 20
-120.22824350226
 10
62.546076373705
 20
-120.2175529536349
 10
62.55463144670699
 20
-120.205887298523
 10
62.56234316495959
 20
-120.1940355758789
 10
62.56928800830948
 20
-120.182164033173
 10
62.57554608237328
 20
-120.1702658329929
 10
62.58119749291218
 20
-120.1583341310419
 10
62.58632234568699
 20
-120.146362083025
 10
62.59100074645878
 20
-120.134342844648
 10
62.59531280098848
 20
-120.122269571613
 10
62.60126921493139
 20
-120.1040433751809
 10
62.60867308131979
 20
-120.0794893014249
 10
62.61756286455568
 20
-120.0483746130839
 10
62.62774509314407
 20
-120.010518832804
 10
62.63738197144839
 20
-119.972234259807
 10
62.64645687424629
 20
-119.9336653880209
 10
62.65495317631577
 20
-119.894956711373
 10
62.66286574997418
 20
-119.8562295868129
 10
62.67024028124039
 20
-119.8175031167649
 10
62.67824354693269
 20
-119.7723108723748
 10
62.6867145820664
 20
-119.7206298409509
 10
62.69649740451749
 20
-119.6559476942357
 10
62.70914392352288
 20
-119.5651767105289
 10
62.72160747820938
 20
-119.467658599633
 10
62.73375989793078
 20
-119.363429819785
 10
62.74614720789319
 20
-119.2460350824579
 10
62.7584880467658
 20
-119.1155086311439
 10
62.77159555468696
 20
-118.9587592697969
 10
62.78495480522968
 20
-118.7757243884689
 10
62.79801461226671
 20
-118.5663697600819
 10
62.80989923584765
 20
-118.3372516664158
 10
62.82049958710826
 20
-118.0818346798468
 10
62.82928144188311
 20
-117.8001153886079
 10
62.83555662966958
 20
-117.4986580246069
 10
62.838853323855
 20
-117.184044048666
 10
62.83888742761078
 20
-116.86285841963
 10
62.83565873264878
 20
-116.54824376081
 10
62.82945143624549
 20
-116.246784981112
 10
62.82073724092728
 20
-115.965063522818
 10
62.81020469697747
 20
-115.709643822023
 10
62.7980146122605
 20
-115.4739779581249
 10
62.78495480522089
 20
-115.264623329738
 10
62.77159555468128
 20
-115.08158844841
 10
62.75848804676629
 20
-114.9248390870619
 10
62.74614720789548
 20
-114.7943126357469
 10
62.73375989792757
 20
-114.676917898422
 10
62.72160747819828
 20
-114.572689118575
 10
62.70914392350787
 20
-114.4751710076798
 10
62.69649740450677
 20
-114.384400023971
 10
62.68671458206309
 20
-114.319717877254
 10
62.67824354693499
 20
-114.2680368458289
 10
62.67024028124538
 20
-114.222844601438
 10
62.6628657499789
 20
-114.1841181313909
 10
62.65495317631668
 20
-114.1453910068319
 10
62.64645687423968
 20
-114.1066823301869
 10
62.63738197143251
 20
-114.068113458404
 10
62.62774509312007
 20
-114.02982888541
 10
62.61756286452758
 20
-113.9919731051308
 10
62.60867308129299
 20
-113.960858416789
 10
62.60126921490932
 20
-113.936304343031
 10
62.59531280097085
 20
-113.918078146598
 10
62.59100074644439
 20
-113.9060048735609
 10
62.58632234567578
 20
-113.8939856351809
 10
62.58119749290397
 20
-113.8820135871629
 10
62.57554608236802
 20
-113.8700818852109
 10
62.5692880083065
 20
-113.858183685029
 10
62.5623431649585
 20
-113.846312142322
 10
62.55463144670718
 20
-113.8344604196769
 10
62.54607637370578
 20
-113.8227947645639
 10
62.53661451230119
 20
-113.8121042159399
 10
62.52618536209658
 20
-113.803317838813
 10
62.51472842269517
 20
-113.7973646981969
 10
62.50218319370009
 20
-113.7951738590997
 10
62.50219319336578
 20
-113.795173860465
  0
LWPOLYLINE
  5
32C
330
1E
100
AcDbEntity
  8
1
100
AcDbPolyline
 90
       61
 70
     0
 43
0.0
 10
62.42915953749998
 20
-120.1642415525
 10
62.43443780219648
 20
-120.152744989099
 10
62.43931808695247
 20
-120.1410773327369
 10
62.44384843378077
 20
-120.1292617946389
 10
62.44807688469419
 20
-120.1173215860309
 10
62.45395859812669
 20
-120.0992282904639
 10
62.45943128207239
 20
-120.080985049387
 10
62.46804962135261
 20
-120.0504423230549
 10
62.4762479168805
 20
-120.019824223533
 10
62.48556231617309
 20
-119.982987655544
 10
62.4943336518006
 20
-119.9460491865339
 10
62.50259166359138
 20
-119.909010478998
 10
62.51036609137377
 20
-119.8718731954339
 10
62.51886514514517
 20
-119.8284246127157
 10
62.52679964510456
 20
-119.7848557862559
 10
62.53524855155198
 20
-119.7349366042709
 10
62.54406476189909
 20
-119.6786459557289
 10
62.55401833837797
 20
-119.6097063836079
 10
62.5664967884844
 20
-119.515555311266
 10
62.57870490065768
 20
-119.415020180252
 10
62.59121046948217
 20
-119.3017977712038
 10
62.60374461296528
 20
-119.175857105967
 10
62.61660459657548
 20
-119.0308676993319
 10
62.62939020113879
 20
-118.8668083739709
 10
62.64258649058608
 20
-118.671051549372
 10
62.65517013994777
 20
-118.449901679099
 10
62.66660629040638
 20
-118.203345824616
 10
62.6763765109549
 20
-117.931383032985
 10
62.68381800184546
 20
-117.6403533873509
 10
62.68854722883189
 20
-117.3302797584379
 10
62.69011070707318
 20
-117.013845059696
 10
62.6884168645359
 20
-116.6974110345649
 10
62.68355591256728
 20
-116.387339438379
 10
62.67598439889486
 20
-116.0963130656559
 10
62.66634462596909
 20
-115.8306785138289
 10
62.6548424029151
 20
-115.5841257658079
 10
62.64219202737077
 20
-115.3629795511668
 10
62.62892949736166
 20
-115.1672268947399
 10
62.6160773630912
 20
-115.0031730868859
 10
62.60314915779319
 20
-114.858190336357
 10
62.59054758892689
 20
-114.7322566261299
 10
62.57797315009129
 20
-114.6190410618259
 10
62.56569726498868
 20
-114.51851247188
 10
62.55314561998948
 20
-114.4243692625149
 10
62.54311769465747
 20
-114.355441390832
 10
62.53422586889946
 20
-114.2991646365459
 10
62.52569857822019
 20
-114.2492610698939
 10
62.51768686774969
 20
-114.2057084275309
 10
62.50910267350825
 20
-114.1622782005059
 10
62.50124971366008
 20
-114.1251572308279
 10
62.49290821316629
 20
-114.0881351142609
 10
62.48404843219788
 20
-114.051213513302
 10
62.47464063092588
 20
-114.0143940904479
 10
62.46636071409366
 20
-113.983790490198
 10
62.45764249305898
 20
-113.953269763514
 10
62.45205148170589
 20
-113.9350678000639
 10
62.44599739360138
 20
-113.917041894753
 10
62.44162399998199
 20
-113.9051611199958
 10
62.43692468944128
 20
-113.8934166213629
 10
62.43185141996661
 20
-113.881831610079
 10
62.42916387731309
 20
-113.876115174912
  0
LWPOLYLINE
  5
36B
330
1E
100
AcDbEntity
  8
1
100
AcDbPolyline
 90
      141
 70
     0
 43
0.0
 10
62.46626927229996
 20
-123.439006388
 10
62.47384445433098
 20
-123.454657723631
 10
62.48122090674049
 20
-123.470406484708
 10
62.48784857010297
 20
-123.4850290065559
 10
62.49429746139387
 20
-123.4997321385939
 10
62.50056304925818
 20
-123.514514727282
 10
62.50664080234069
 20
-123.5293756190809
 10
62.51204319826618
 20
-123.5430659051329
 10
62.51728034303389
 20
-123.556820110998
 10
62.52234811431289
 20
-123.570637249368
 10
62.5272422530125
 20
-123.5845163115549
 10
62.53153721320359
 20
-123.5971865275779
 10
62.5356819555655
 20
-123.6099063288438
 10
62.53967328017928
 20
-123.622674957512
 10
62.54350798712611
 20
-123.6354916557409
 10
62.5471828159647
 20
-123.6483556110669
 10
62.55069399296708
 20
-123.6612655477629
 10
62.55371079721997
 20
-123.672922557562
 10
62.55658883616849
 20
-123.6846144883199
 10
62.55932516874608
 20
-123.6963402385329
 10
62.56191685388649
 20
-123.7080987066989
 10
62.56436095052339
 20
-123.7198887913129
 10
62.56665450531578
 20
-123.7317093754709
 10
62.56856424892315
 20
-123.7422410077589
 10
62.57035007408038
 20
-123.752794363734
 10
62.57200954081618
 20
-123.7633682000329
 10
62.5735402091594
 20
-123.773961273292
 10
62.57493963913868
 20
-123.7845723401469
 10
62.57620539078288
 20
-123.7952001572349
 10
62.57733502410409
 20
-123.8058434811539
 10
62.57832603992078
 20
-123.8165009346819
 10
62.5791757469051
 20
-123.8271707061999
 10
62.57980117677828
 20
-123.83651536754
 10
62.58031449767929
 20
-123.845866732871
 10
62.58071388055618
 20
-123.855223529608
 10
62.58099749635668
 20
-123.8645844851639
 10
62.58116351602867
 20
-123.8739483269529
 10
62.58121010836799
 20
-123.8833137642848
 10
62.58113540851468
 20
-123.892679223357
 10
62.5809375249383
 20
-123.9020429060079
 10
62.5806145653765
 20
-123.9114030079239
 10
62.58016463756709
 20
-123.9207577247889
 10
62.57958584924772
 20
-123.930105252289
 10
62.5789857481595
 20
-123.938110328868
 10
62.57828839234578
 20
-123.946107660886
 10
62.57749261579999
 20
-123.9540960011279
 10
62.5765973052626
 20
-123.962073873914
 10
62.57560135402319
 20
-123.970039775203
 10
62.57450365537149
 20
-123.9779922009519
 10
62.57330310259688
 20
-123.985929647119
 10
62.57199858898898
 20
-123.9938506096629
 10
62.57058900783729
 20
-124.0017535845409
 10
62.56907326004597
 20
-124.009637056805
 10
62.5674503737486
 20
-124.017499329259
 10
62.56571948229727
 20
-124.025338553992
 10
62.56387972220688
 20
-124.033152878564
 10
62.56193022999218
 20
-124.040940450533
 10
62.55987014216819
 20
-124.0486994174569
 10
62.55769859524971
 20
-124.0564279268969
 10
62.55541473154258
 20
-124.0641241226746
 10
62.55301787308972
 20
-124.0717860327279
 10
62.55050755209911
 20
-124.0794115494809
 10
62.54788331270288
 20
-124.08699855767
 10
62.54514469903348
 20
-124.094544942034
 10
62.54229125522272
 20
-124.1020485873089
 10
62.53932252540288
 20
-124.1095073782328
 10
62.53623808772488
 20
-124.1169191924859
 10
62.53303784506258
 20
-124.1242818403949
 10
62.52972188045519
 20
-124.1315930949149
 10
62.52629027886438
 20
-124.138850728602
 10
62.52274312525209
 20
-124.146052514014
 10
62.51908050458027
 20
-124.1531962237069
 10
62.51530250521188
 20
-124.160279630694
 10
62.51140943579876
 20
-124.1673005375719
 10
62.50740195610621
 20
-124.1742567940889
 10
62.50328075726106
 20
-124.1811462542049
 10
62.4990465303906
 20
-124.1879667718789
 10
62.49469996662178
 20
-124.194716201072
 10
62.49024175743771
 20
-124.2013923959129
 10
62.48567274216146
 20
-124.2079932812679
 10
62.48099413561821
 20
-124.2145169616619
 10
62.47620721136421
 20
-124.22096156972
 10
62.47131324295569
 20
-124.2273252380679
 10
62.46631350394887
 20
-124.2336060993307
 10
62.46120926811322
 20
-124.239802286332
 10
62.45600192507087
 20
-124.2459120387229
 10
62.4506931716079
 20
-124.2519338793979
 10
62.44528475484178
 20
-124.257866377666
 10
62.43977842189059
 20
-124.263708102833
 10
62.43323294244096
 20
-124.270406813052
 10
62.42655934860017
 20
-124.276977765524
 10
62.4197606446985
 20
-124.2834190817498
 10
62.41383606918947
 20
-124.2888359226689
 10
62.40782401715889
 20
-124.2941555423589
 10
62.40172654260959
 20
-124.2993770350849
 10
62.39554569954439
 20
-124.3044994951129
 10
62.38928355176309
 20
-124.3095220596349
 10
62.38294223933919
 20
-124.3144442000589
 10
62.37652393810669
 20
-124.319265544484
 10
62.37003082410446
 20
-124.3239857219099
 10
62.36346507337188
 20
-124.3286043613349
 10
62.35682886194799
 20
-124.333121091758
 10
62.35012436197211
 20
-124.337535582028
 10
62.34335371615596
 20
-124.341847801706
 10
62.33651905378088
 20
-124.346057857593
 10
62.32962250405927
 20
-124.3501658571939
 10
62.32266619620361
 20
-124.3541719080109
 10
62.31565225942627
 20
-124.358076117548
 10
62.30858281487249
 20
-124.361878610728
 10
62.30145988433418
 20
-124.365579726995
 10
62.29428542275728
 20
-124.3691799501219
 10
62.28706138384308
 20
-124.372679766573
 10
62.2797897212931
 20
-124.3760796628089
 10
62.2724723888086
 20
-124.379380125294
 10
62.26511133926469
 20
-124.3825816413119
 10
62.25770844022738
 20
-124.3856847832389
 10
62.2502654009498
 20
-124.3886902813529
 10
62.24278391348359
 20
-124.3915988830879
 10
62.23400917457627
 20
-124.3948707826779
 10
62.22518709339849
 20
-124.39801299977
 10
62.21632035686369
 20
-124.401026721263
 10
62.20741156991721
 20
-124.4039131759059
 10
62.19846303841547
 20
-124.406673745139
 10
62.18947700001749
 20
-124.409309845224
 10
62.18045569238221
 20
-124.4118228924197
 10
62.17140135316859
 20
-124.414214302988
 10
62.16231622003562
 20
-124.416485493186
 10
62.15320247270747
 20
-124.418637887541
 10
62.1440619453602
 20
-124.4206729598809
 10
62.1348963445926
 20
-124.4225922022359
 10
62.12570737680048
 20
-124.4243971066669
 10
62.11649674837985
 20
-124.4260891652319
 10
62.10726616572667
 20
-124.427669869992
 10
62.09669468210186
 20
-124.429341951653
 10
62.0861018035054
 20
-124.4308727335988
 10
62.07548979856529
 20
-124.4322643554409
 10
62.06486092005269
 20
-124.433518951805
 10
62.05421742073871
 20
-124.434638657316
 10
62.04356155339461
 20
-124.4356256065989
 10
62.03289556945677
 20
-124.4364819343289
 10
62.02623491953769
 20
-124.436951100405
  0
LWPOLYLINE
  5
3FA
330
1E
100
AcDbEntity
  8
1
100
AcDbPolyline
 90
        8
 70
     0
 43
0.0
 10
62.02622494169999
 20
-124.4369517658
 10
62.01708094549149
 20
-124.4375148868289
 10
62.00780546205436
 20
-124.437991878183
 10
61.99839964700238
 20
-124.4383802088889
 10
61.98886476682067
 20
-124.4386774015679
 10
61.97920220270189
 20
-124.438881035969
 10
61.9693507072545
 20
-124.4389891262579
 10
61.9635253711996
 20
-124.4390063862359
  0
LWPOLYLINE
  5
404
330
1E
100
AcDbEntity
  8
1
100
AcDbPolyline
 90
       75
 70
     0
 43
0.0
 10
62.01075720719996
 20
-110.6013413302
 10
62.01072127619078
 20
-110.589915160389
 10
62.01055949383682
 20
-110.5784879155558
 10
62.01027191612697
 20
-110.5670612343129
 10
62.00985859905049
 20
-110.5556367552749
 10
62.00931959859669
 20
-110.544216117053
 10
62.00865497075449
 20
-110.5328009582609
 10
62.00786477151307
 20
-110.521392917511
 10
62.00694905686166
 20
-110.5099936334168
 10
62.00590788278928
 20
-110.4986047445899
 10
62.00474130528522
 20
-110.487227889645
 10
62.00344938033848
 20
-110.4758647071949
 10
62.00203216393821
 20
-110.464516835851
 10
62.00048973154068
 20
-110.453185871336
 10
61.99882225424229
 20
-110.4418731986559
 10
61.99702993246188
 20
-110.4305801382079
 10
61.99494759946189
 20
-110.4183696526559
 10
61.99271923763838
 20
-110.406185412606
 10
61.99034510181657
 20
-110.3940290968079
 10
61.98782544682106
 20
-110.3819023840129
 10
61.9851605274768
 20
-110.369806952971
 10
61.98235059860857
 20
-110.357744482435
 10
61.97939591504146
 20
-110.345716651153
 10
61.97629673160007
 20
-110.333725137877
 10
61.97305330982519
 20
-110.3217716250159
 10
61.96966601656278
 20
-110.3098578523519
 10
61.96613530226168
 20
-110.297985605213
 10
61.96246161967287
 20
-110.2861566701829
 10
61.95864542154728
 20
-110.274372833846
 10
61.95468716063597
 20
-110.2626358827839
 10
61.95058728968989
 20
-110.2509476035809
 10
61.94634626145997
 20
-110.2393097828199
 10
61.94196452869748
 20
-110.2277242070849
 10
61.93744254415308
 20
-110.216192662959
 10
61.93278076057801
 20
-110.204716937026
 10
61.92797963650519
 20
-110.193298814399
 10
61.92303973629297
 20
-110.1819400532876
 10
61.91796171692639
 20
-110.170642388356
 10
61.91274623851859
 20
-110.1594075534719
 10
61.90739396118269
 20
-110.148237282502
 10
61.90190554503177
 20
-110.137133309314
 10
61.89628165017879
 20
-110.126097367776
 10
61.89052293673689
 20
-110.1151311917559
 10
61.8841712290484
 20
-110.1034014743059
 10
61.87766475374688
 20
-110.0917568447776
 10
61.87100433529739
 20
-110.0801994687319
 10
61.86419083370099
 20
-110.0687315093879
 10
61.85722531899389
 20
-110.057355116144
 10
61.85010893810272
 20
-110.046072433339
 10
61.84284283806878
 20
-110.0348856053009
 10
61.83542816593377
 20
-110.023796776362
 10
61.82786606873921
 20
-110.0128080908518
 10
61.82015769352671
 20
-110.0019216931009
 10
61.81230418733779
 20
-109.99113972744
 10
61.80372996863638
 20
-109.97970594523
 10
61.79499187306568
 20
-109.9683971458319
 10
61.78609134896998
 20
-109.957215928368
 10
61.77702999956411
 20
-109.9461647338866
 10
61.76780946800128
 20
-109.9352459626709
 10
61.75843139743498
 20
-109.924462015004
 10
61.74889743101868
 20
-109.9138152911679
 10
61.73920921190568
 20
-109.903308191446
 10
61.72870694213578
 20
-109.892257219648
 10
61.71803303079849
 20
-109.8813707531068
 10
61.70718947207369
 20
-109.8706517048779
 10
61.69617840764797
 20
-109.860103020662
 10
61.68570598897567
 20
-109.8503711241439
 10
61.67509151017699
 20
-109.8407943130189
 10
61.66433757509749
 20
-109.831375200191
 10
61.65344678758288
 20
-109.822116398565
 10
61.64242175147888
 20
-109.813020521042
 10
61.63201289276289
 20
-109.8046803341329
 10
61.62149147387086
 20
-109.7964864727376
 10
61.61085961182569
 20
-109.788441061243
 10
61.60012737213937
 20
-109.780551950391
  0
LWPOLYLINE
  5
451
330
1E
100
AcDbEntity
  8
1
100
AcDbPolyline
 90
        2
 70
     0
 43
0.0
 10
62.01363465469999
 20
-122.5185828499
 10
61.43323378071297
 20
-122.558003684449
  0
LWPOLYLINE
  5
455
330
1E
100
AcDbEntity
  8
1
100
AcDbPolyline
 90
        2
 70
     0
 43
0.0
 10
62.9936091802
 20
123.439006388
 10
62.99073176107552
 20
111.5217748683599
  0
LWPOLYLINE
  5
459
330
1E
100
AcDbEntity
  8
1
100
AcDbPolyline
 90
        8
 70
     0
 43
0.0
 10
61.96351537119999
 20
124.4390063862999
 10
61.95347639931082
 20
124.4389557134699
 10
61.9432418565028
 20
124.4388007048509
 10
61.93287840324568
 20
124.4385389382289
 10
61.92238762770783
 20
124.4381680626619
 10
61.91170612109729
 20
124.4376825133149
 10
61.90083584241023
 20
124.4370781236129
 10
61.89837345844189
 20
124.4369259205219
  0
LWPOLYLINE
  5
463
330
1E
100
AcDbEntity
  8
1
100
AcDbPolyline
 90
       36
 70
     0
 43
0.0
 10
62.53809711510001
 20
110.6013413302
 10
62.5305528112407
 20
110.5862307104789
 10
62.52282811033431
 20
110.5712095097379
 10
62.5145274261566
 20
110.5555344110198
 10
62.5060369512199
 20
110.5399598071419
 10
62.49694368238539
 20
110.523752408608
 10
62.48765258813389
 20
110.5076575026979
 10
62.47773345449711
 20
110.4909525014009
 10
62.46716459894521
 20
110.4736544863139
 10
62.45637757887252
 20
110.4564928375818
 10
62.4449144190005
 20
110.4387613330009
 10
62.43322544345822
 20
110.421178217072
 10
62.42083534601531
 20
110.4030494184589
 10
62.40821312888582
 20
110.38508162846
 10
62.39486545357049
 20
110.3665936833909
 10
62.38077114721273
 20
110.3476055478279
 10
62.36642623665611
 20
110.3288059584459
 10
62.35131156721482
 20
110.3095344158379
 10
62.33540692105241
 20
110.289812660792
 10
62.31923514908618
 20
110.2703096088629
 10
62.30225025216591
 20
110.2503870142187
 10
62.28443242174321
 20
110.2300684265059
 10
62.26633202488612
 20
110.2100014374319
 10
62.24737664899581
 20
110.1895721707929
 10
62.22754664138729
 20
110.1688065077679
 10
62.20682274780472
 20
110.1477313618289
 10
62.1857908255074
 20
110.1269638197919
 10
62.16445761807183
 20
110.106506047695
 10
62.14282984130942
 20
110.0863602227819
 10
62.12154378079859
 20
110.0670909748759
 10
62.09999065678021
 20
110.0481207915059
 10
62.07817554554392
 20
110.0294521098659
 10
62.05675629921231
 20
110.0116235230629
 10
62.03509959861212
 20
109.9940848557698
 10
62.01321002631503
 20
109.9768393827299
 10
61.99581031275799
 20
109.9634666144059
  0
LWPOLYLINE
  5
489
330
1E
100
AcDbEntity
  8
1
100
AcDbPolyline
 90
        2
 70
     0
 43
0.0
 10
61.8983634782
 20
124.4369252921998
 10
58.61675583823121
 20
124.2302929424789
  0
LWPOLYLINE
  5
48D
330
1E
100
AcDbEntity
  8
1
100
AcDbPolyline
 90
      118
 70
     0
 43
0.0
 10
62.9936091802
 20
123.439006388
 10
62.9934955611004
 20
123.4517401738829
 10
62.99321504735631
 20
123.4644743816448
 10
62.99276783907242
 20
123.4772064412869
 10
62.99215413635292
 20
123.4899337828128
 10
62.99137413930218
 20
123.5026538362248
 10
62.99042804802478
 20
123.5153640315278
 10
62.98931606262502
 20
123.5280617987229
 10
62.98803838320729
 20
123.5407445678147
 10
62.98659520987602
 20
123.553409768804
 10
62.9849867427356
 20
123.566054831695
 10
62.98321318214449
 20
123.5786771869189
 10
62.9812748179297
 20
123.5912744155259
 10
62.97917216075372
 20
123.603844470343
 10
62.97690575475122
 20
123.6163853605509
 10
62.97447614405712
 20
123.6288950953259
 10
62.97188387280622
 20
123.6413716838489
 10
62.96912948513342
 20
123.6538131352969
 10
62.96621352517338
 20
123.666217458848
 10
62.96313653706111
 20
123.6785826636819
 10
62.9598990649314
 20
123.690906758977
 10
62.95650165291892
 20
123.703187753912
 10
62.95294484682461
 20
123.7154236576829
 10
62.94922930517351
 20
123.7276124807309
 10
62.94535586897481
 20
123.7397522355099
 10
62.94132539587883
 20
123.7518409346569
 10
62.93713874353612
 20
123.7638765908098
 10
62.93279676959691
 20
123.7758572166059
 10
62.9283003317119
 20
123.7877808246819
 10
62.92365028753139
 20
123.7996454276759
 10
62.91884749470582
 20
123.8114490382249
 10
62.91389281088551
 20
123.8231896689669
 10
62.90878709372099
 20
123.8348653325389
 10
62.90353120620281
 20
123.8464740459607
 10
62.89812613852689
 20
123.8580139306729
 10
62.89257301057851
 20
123.8694832145688
 10
62.8868729480796
 20
123.880880130334
 10
62.8802861467194
 20
123.8936129575276
 10
62.87351640889552
 20
123.9062494406989
 10
62.86656533744251
 20
123.9187870634959
 10
62.85943453519529
 20
123.931223309568
 10
62.85212560498839
 20
123.9435556625639
 10
62.84464014965671
 20
123.9557816061326
 10
62.83697977921441
 20
123.9678986306679
 10
62.82914625539461
 20
123.9799043691099
 10
62.82114148455463
 20
123.9917965902828
 10
62.81296737881081
 20
124.0035730684189
 10
62.80462585027989
 20
124.0152315777509
 10
62.79611881107832
 20
124.026769892512
 10
62.78744817332261
 20
124.0381857869359
 10
62.77762458218951
 20
124.0507238275149
 10
62.76760400110132
 20
124.0631049308366
 10
62.75738905404121
 20
124.0753260451679
 10
62.74698247227131
 20
124.087384265982
 10
62.73638718539253
 20
124.0992769609139
 10
62.72560614445621
 20
124.1110015270309
 10
62.7146423005135
 20
124.1225553614029
 10
62.70349860461581
 20
124.1339358610979
 10
62.69217800781429
 20
124.1451404231829
 10
62.68068346116031
 20
124.156166444728
 10
62.66901791570489
 20
124.1670113227999
 10
62.65718433453572
 20
124.1776724763299
 10
62.64518582273029
 20
124.1881475821406
 10
62.63302557796421
 20
124.1984344852399
 10
62.62070679950132
 20
124.2085310335218
 10
62.60823268660562
 20
124.2184350748789
 10
62.59560643854118
 20
124.228144457204
 10
62.5828312545719
 20
124.23765702839
 10
62.57120889299251
 20
124.246048290217
 10
62.55947081699751
 20
124.2542768229279
 10
62.5476193690239
 20
124.2623410849126
 10
62.53565696834129
 20
124.2702397405348
 10
62.52358606931013
 20
124.2779715482319
 10
62.5114091264704
 20
124.2855352669249
 10
62.49912859436251
 20
124.2929296555329
 10
62.48674692752668
 20
124.300153472977
 10
62.47426658050311
 20
124.3072054781759
 10
62.46169000783211
 20
124.3140844300509
 10
62.44901966405389
 20
124.3207890875229
 10
62.4362580037593
 20
124.3273182096629
 10
62.42340750715829
 20
124.3336706331889
 10
62.41047072163861
 20
124.3398453984078
 10
62.39745020546512
 20
124.3458415785929
 10
62.38434851690289
 20
124.3516582470179
 10
62.37116821421712
 20
124.3572944769559
 10
62.3579118556726
 20
124.36274934168
 10
62.3445819995344
 20
124.3680219144638
 10
62.33118120406762
 20
124.3731112685809
 10
62.31921190000633
 20
124.3774805765258
 10
62.30719036318771
 20
124.3817037367868
 10
62.29511838789361
 20
124.3857801721178
 10
62.2829977640066
 20
124.3897094364209
 10
62.27083028094932
 20
124.3934910973159
 10
62.25861772814422
 20
124.397124722422
 10
62.24636189501389
 20
124.4006098793599
 10
62.23406457098081
 20
124.4039461357506
 10
62.2217275454675
 20
124.407133059214
 10
62.20935260789651
 20
124.4101702173699
 10
62.1969415476904
 20
124.4130571778379
 10
62.1844961542715
 20
124.415793508239
 10
62.17201821865302
 20
124.4183787777099
 10
62.1595096094579
 20
124.4208126294219
 10
62.14697230634842
 20
124.4230948124649
 10
62.13440829753238
 20
124.4252250840819
 10
62.12181957121811
 20
124.4272032015179
 10
62.10920811561351
 20
124.4290289220139
 10
62.09657591892689
 20
124.4307020028139
 10
62.08392496936621
 20
124.4322222011619
 10
62.07125725513952
 20
124.4335892743
 10
62.058574764455
 20
124.4348029794719
 10
62.04587948552081
 20
124.4358630739199
 10
62.0331734043185
 20
124.4367693185319
 10
62.02045842412839
 20
124.4375216095159
 10
62.0077363429737
 20
124.4381200153129
 10
61.99500895205789
 20
124.4385646155219
 10
61.98227804258441
 20
124.4388554897438
 10
61.9695454057566
 20
124.4389927175759
 10
61.96478058720003
 20
124.4390045800149
  0
LWPOLYLINE
  5
505
330
1E
100
AcDbEntity
  8
1
100
AcDbPolyline
 90
        2
 70
     0
 43
0.0
 10
58.61674585800003
 20
124.230292314
 10
58.10491495301612
 20
123.6894875828429
  0
LWPOLYLINE
  5
509
330
1E
100
AcDbEntity
  8
1
100
AcDbPolyline
 90
        2
 70
     0
 43
0.0
 10
58.1049080796
 20
123.6894803194999
 10
58.1108987936797
 20
115.8872571436956
  0
LWPOLYLINE
  5
50D
330
1E
100
AcDbEntity
  8
1
100
AcDbPolyline
 90
        2
 70
     0
 43
0.0
 10
62.99073173260001
 20
111.5217648683999
 10
61.60000997479161
 20
111.433219971021
  0
LWPOLYLINE
  5
511
330
1E
100
AcDbEntity
  8
1
100
AcDbPolyline
 90
       54
 70
     0
 43
0.0
 10
62.15710948729999
 20
-106.047622985
 10
62.14729476629539
 20
-105.750189257756
 10
62.13562908800867
 20
-105.479655428435
 10
62.122651621322
 20
-105.2360259903699
 10
62.10889271297657
 20
-105.0192978597018
 10
62.09489049354678
 20
-104.8294595086329
 10
62.08096374996738
 20
-104.6638192513789
 10
62.06734705460878
 20
-104.5196846358869
 10
62.05419291010969
 20
-104.39436398688
 10
62.04157131123746
 20
-104.285168127159
 10
62.02981781276628
 20
-104.1920704515278
 10
62.01853614695028
 20
-104.1097271722559
 10
62.00793971532238
 20
-104.0381185580089
 10
61.99782546742799
 20
-103.9745731670808
 10
61.98835703173719
 20
-103.9190728625399
 10
61.97971354824796
 20
-103.871594141263
 10
61.97156283579428
 20
-103.8294785582499
 10
61.96401970725859
 20
-103.7927093269699
 10
61.95662452829118
 20
-103.7586489629598
 10
61.95003469645078
 20
-103.7299026810569
 10
61.94374473714878
 20
-103.7038400844739
 10
61.93781067778028
 20
-103.680451194211
 10
61.93158443649699
 20
-103.6571383966069
 10
61.92577438638346
 20
-103.636491294422
 10
61.92044977067538
 20
-103.6184945839349
 10
61.91568657320321
 20
-103.6031289143269
 10
61.91071655377488
 20
-103.5878289694669
 10
61.9055159793493
 20
-103.572605595502
 10
61.90098431661338
 20
-103.559988613021
 10
61.8962496641835
 20
-103.5474464326489
 10
61.89230028677638
 20
-103.537474717278
 10
61.88818931314511
 20
-103.527568565002
 10
61.88389797558119
 20
-103.5177392167399
 10
61.87940618070937
 20
-103.5079990612139
 10
61.8758885700759
 20
-103.5007643712477
 10
61.87222817620527
 20
-103.493600923714
 10
61.86841095686469
 20
-103.486518839472
 10
61.86441749111839
 20
-103.4795342478289
 10
61.86022363208639
 20
-103.4726685573559
 10
61.85580479194888
 20
-103.465943791806
 10
61.85271823202448
 20
-103.461555278323
 10
61.84950459796286
 20
-103.4572595020559
 10
61.84615118975058
 20
-103.4530714073818
 10
61.84264500089946
 20
-103.4490070092469
 10
61.83896959951177
 20
-103.4450942881899
 10
61.83510640726877
 20
-103.4413687225909
 10
61.83103682756249
 20
-103.437866058699
 10
61.82674360084837
 20
-103.4346358797679
 10
61.82221185355317
 20
-103.431752461019
 10
61.81742767097047
 20
-103.4292928987159
 10
61.81240640999417
 20
-103.4273452479969
 10
61.80720239955128
 20
-103.42601215458
 10
61.80187777429996
 20
-103.4253853412
 10
61.80188776220277
 20
-103.425385833243
  0
LWPOLYLINE
  5
549
330
1E
100
AcDbEntity
  8
1
100
AcDbPolyline
 90
       31
 70
     0
 43
0.0
 10
61.7199733092
 20
-105.4595102285999
 10
61.71799401651739
 20
-105.464699351606
 10
61.71609066132928
 20
-105.469917283431
 10
61.71389861565588
 20
-105.476212443757
 10
61.71179734185877
 20
-105.482539221401
 10
61.70944706752809
 20
-105.4899532458829
 10
61.7071927210322
 20
-105.497395926805
 10
61.70472343646077
 20
-105.5059327728279
 10
61.70206918821858
 20
-105.5155713705999
 10
61.69925567007489
 20
-105.5263172720569
 10
61.69630531411528
 20
-105.5381744779679
 10
61.69324228594978
 20
-105.551147515901
 10
61.69008661482916
 20
-105.5652391934069
 10
61.68662889666298
 20
-105.5815383441019
 10
61.68292195537137
 20
-105.6000542065089
 10
61.67901234204639
 20
-105.6207937027848
 10
61.67494169141559
 20
-105.6437619517449
 10
61.67057293653582
 20
-105.6700600667249
 10
61.6659722187726
 20
-105.6996956921639
 10
61.66104873830779
 20
-105.733775520263
 10
61.65574844776108
 20
-105.7734100044239
 10
61.65018557908968
 20
-105.8186099930437
 10
61.64434582941787
 20
-105.8704878419579
 10
61.63824895922619
 20
-105.9301578687108
 10
61.6318522651214
 20
-105.9998422764949
 10
61.62536039188488
 20
-106.079552439265
 10
61.61889189037279
 20
-106.170403993037
 10
61.61253731225678
 20
-106.2746209136269
 10
61.60662214205328
 20
-106.3910994863139
 10
61.6013457000287
 20
-106.520949967624
 10
61.59998113958458
 20
-106.560903714437
  0
LWPOLYLINE
  5
56A
330
1E
100
AcDbEntity
  8
1
100
AcDbPolyline
 90
        2
 70
     0
 43
0.0
 10
61.59998064039998
 20
-107.5457552168
 10
61.60105519570818
 20
-107.5775018498269
  0
LWPOLYLINE
  5
56E
330
1E
100
AcDbEntity
  8
1
100
AcDbPolyline
 90
       63
 70
     0
 43
0.0
 10
61.63189162710001
 20
-108.1072872136
 10
61.63821557868419
 20
-108.1761741332889
 10
61.64429281655561
 20
-108.235693312529
 10
61.65007171427738
 20
-108.287096361939
 10
61.65553915791318
 20
-108.3316336301469
 10
61.66072271463509
 20
-108.3705526770279
 10
61.66559893969338
 20
-108.40448109438
 10
61.67016096913389
 20
-108.434045841989
 10
61.67442179449349
 20
-108.4598720504389
 10
61.67852301016469
 20
-108.4831968241949
 10
61.68230150760278
 20
-108.5034132525639
 10
61.68593549899869
 20
-108.5217536407639
 10
61.68925751388209
 20
-108.537613735043
 10
61.69234876499029
 20
-108.5516108866539
 10
61.69531083396439
 20
-108.564359316257
 10
61.69811856424818
 20
-108.5758634031009
 10
61.70074785403057
 20
-108.5861272351769
 10
61.70317029724177
 20
-108.595156834088
 10
61.70552607996449
 20
-108.603558975522
 10
61.7078043699101
 20
-108.611335356003
 10
61.70999521202098
 20
-108.618487033551
 10
61.71208573204528
 20
-108.625016631039
 10
61.71406071233286
 20
-108.6309281118819
 10
61.71590366275839
 20
-108.63622628005
 10
61.71759964610099
 20
-108.640915364512
 10
61.71935688897708
 20
-108.6455818735199
 10
61.72094994434089
 20
-108.6496439791989
 10
61.72259942619648
 20
-108.653684106086
 10
61.7240615479362
 20
-108.6571279180399
 10
61.72557121267971
 20
-108.6605525697879
 10
61.72713273028028
 20
-108.663955084019
 10
61.72847844008248
 20
-108.6667696286609
 10
61.72986883470838
 20
-108.6695616371359
 10
61.7313079268035
 20
-108.672327780555
 10
61.73249695915536
 20
-108.6745198354349
 10
61.73372178045537
 20
-108.6766915017959
 10
61.73498444517807
 20
-108.678841075247
 10
61.73628716496182
 20
-108.680966706933
 10
61.73763447224096
 20
-108.6830644147659
 10
61.73867800265938
 20
-108.6846159981619
 10
61.739752837242
 20
-108.6861463348439
 10
61.74086165405435
 20
-108.6876530408259
 10
61.74200713116167
 20
-108.6891337321209
 10
61.74319194662936
 20
-108.6905860247409
 10
61.74441877852277
 20
-108.6920075347
 10
61.74569030490719
 20
-108.693395878011
 10
61.74700924913369
 20
-108.694747793808
 10
61.74837872999539
 20
-108.6960523641719
 10
61.7493214340036
 20
-108.6968884330159
 10
61.75028906068908
 20
-108.6976924340449
 10
61.75128259513478
 20
-108.698459951235
 10
61.75230302242379
 20
-108.699186568561
 10
61.7533513276393
 20
-108.6998678699989
 10
61.75442849586421
 20
-108.7004994395229
 10
61.75553551218169
 20
-108.7010768611099
 10
61.75667336148197
 20
-108.7015957187779
 10
61.75784179457859
 20
-108.702051878142
 10
61.75903639834999
 20
-108.7024421549579
 10
61.7602518823562
 20
-108.70276356517
 10
61.76148295615717
 20
-108.703013124722
 10
61.76272432931308
 20
-108.7031878495579
 10
61.76397071138397
 20
-108.703284755624
 10
61.76458412825379
 20
-108.703302961259
  0
LWPOLYLINE
  5
5AF
330
1E
100
AcDbEntity
  8
1
100
AcDbPolyline
 90
       83
 70
     0
 43
0.0
 10
61.76459198259998
 20
-105.4033714287999
 10
61.76429209637188
 20
-105.4033699423879
 10
61.76399207877118
 20
-105.4033733263659
 10
61.76369205825878
 20
-105.4033816358909
 10
61.76339216329589
 20
-105.40339492612
 10
61.76309252234347
 20
-105.403413252213
 10
61.76279326386278
 20
-105.4034366693269
 10
61.76249451631488
 20
-105.403465232621
 10
61.76219640816086
 20
-105.4034989972508
 10
61.76189906773188
 20
-105.4035380181969
 10
61.76160259409638
 20
-105.403582310182
 10
61.76130702015777
 20
-105.4036317969059
 10
61.76101236973018
 20
-105.403686389564
 10
61.76071866662738
 20
-105.403745999352
 10
61.76042593466327
 20
-105.4038105374629
 10
61.7601341976518
 20
-105.403879915095
 10
61.75984347940678
 20
-105.403954043441
 10
61.75955380374219
 20
-105.404032833698
 10
61.7592651944721
 20
-105.4041161970598
 10
61.75897767540996
 20
-105.4042040447229
 10
61.75869127037017
 20
-105.4042962878809
 10
61.75840600316638
 20
-105.4043928377309
 10
61.75812189761249
 20
-105.4044936054669
 10
61.75783897752246
 20
-105.4045985022859
 10
61.75748703074738
 20
-105.4047352945409
 10
61.75713701998039
 20
-105.404878226282
 10
61.75678899173289
 20
-105.4050271240628
 10
61.75644299251639
 20
-105.4051818144358
 10
61.75609906884248
 20
-105.4053421239539
 10
61.75575726722279
 20
-105.405507879172
 10
61.7554176341687
 20
-105.405678906641
 10
61.75508021619178
 20
-105.4058550329159
 10
61.75474505980346
 20
-105.4060360845489
 10
61.754345922923
 20
-105.4062596037689
 10
61.75395019007868
 20
-105.406489666026
 10
61.75355794164249
 20
-105.4067259716036
 10
61.75316925798647
 20
-105.4069682207869
 10
61.75278421948238
 20
-105.4072161138579
 10
61.7523397221861
 20
-105.407512055838
 10
61.75190042336949
 20
-105.4078147958919
 10
61.75140489678489
 20
-105.408168498166
 10
61.75091647813109
 20
-105.408529804792
 10
61.75043509358236
 20
-105.408898392467
 10
61.7499605889029
 20
-105.4092740556489
 10
61.74943480256619
 20
-105.4097048784309
 10
61.7489173084851
 20
-105.4101441037519
 10
61.74840788691208
 20
-105.4105914391679
 10
61.74790631809969
 20
-105.4110465922309
 10
61.74735796217268
 20
-105.411561131006
 10
61.74681872828127
 20
-105.412084558992
 10
61.74628831498861
 20
-105.4126164750279
 10
61.74576642085732
 20
-105.4131564779539
 10
61.74520181717939
 20
-105.4137593427429
 10
61.74464675573528
 20
-105.414370973318
 10
61.74405164559072
 20
-105.4150475765997
 10
61.74346689313345
 20
-105.4157332832459
 10
61.74284449553717
 20
-105.4164856010139
 10
61.74218637238688
 20
-105.4173058167868
 10
61.74154004301508
 20
-105.4181353567769
 10
61.74085969501337
 20
-105.4190332460299
 10
61.74014682519359
 20
-105.420000030637
 10
61.73940332547508
 20
-105.4210367938749
 10
61.73867374939298
 20
-105.4220830043359
 10
61.73791595430788
 20
-105.4232006041269
 10
61.73717277417328
 20
-105.4243278614679
 10
61.7364035962775
 20
-105.4255276908139
 10
61.73561024995128
 20
-105.4268010949468
 10
61.73479448971878
 20
-105.4281489688489
 10
61.73395796897597
 20
-105.4295720750009
 10
61.7331022123534
 20
-105.4310710174489
 10
61.73222858676329
 20
-105.4326462146228
 10
61.73130305785099
 20
-105.4343641491149
 10
61.7303289167695
 20
-105.436225955349
 10
61.72934286068179
 20
-105.4381654159399
 10
61.72831328531118
 20
-105.440250284437
 10
61.72727586523269
 20
-105.442414305339
 10
61.72620046877649
 20
-105.44472596428
 10
61.72509035753297
 20
-105.4471865007599
 10
61.72394850775128
 20
-105.449796929359
 10
61.7227486405584
 20
-105.4526271763829
 10
61.72149517267908
 20
-105.4556785583419
 10
61.72013707505139
 20
-105.459091394109
 10
61.71997694509681
 20
-105.459500913003
  0
LWPOLYLINE
  5
604
330
1E
100
AcDbEntity
  8
1
100
AcDbPolyline
 90
       20
 70
     0
 43
0.0
 10
61.99574172699998
 20
-109.9635432911999
 10
62.00575594941579
 20
-109.9015669675579
 10
62.01625465882597
 20
-109.8317237224277
 10
62.02761435723576
 20
-109.7501114327649
 10
62.03958443157229
 20
-109.656704950879
 10
62.05237372455766
 20
-109.5475865569059
 10
62.06565532960532
 20
-109.4227306648229
 10
62.07948412215168
 20
-109.278211706697
 10
62.09346751718777
 20
-109.1140081929919
 10
62.1075141587856
 20
-108.9261923735729
 10
62.12139748333588
 20
-108.710832797069
 10
62.13455788625719
 20
-108.4679161490189
 10
62.14644512725839
 20
-108.1974380907529
 10
62.15650155391759
 20
-107.899402299989
 10
62.16406775912997
 20
-107.5777433643799
 10
62.16855804481427
 20
-107.2403303178779
 10
62.16963004288847
 20
-106.8950415560399
 10
62.16721675949358
 20
-106.5536833963149
 10
62.16154693723016
 20
-106.224136730773
 10
62.15710976714219
 20
-106.047632981084
  0
LWPOLYLINE
  5
61A
330
1E
100
AcDbEntity
  8
1
100
AcDbPolyline
 90
        2
 70
     0
 43
0.0
 10
61.60002007239999
 20
-103.4156296105998
 10
61.80186815204598
 20
-103.4253773064469
  0
LWPOLYLINE
  5
61E
330
1E
100
AcDbEntity
  8
1
100
AcDbPolyline
 90
       68
 70
     0
 43
0.0
 10
61.80921280089997
 20
-108.6471642942999
 10
61.81266893707988
 20
-108.637946318837
 10
61.81590071223276
 20
-108.628645386557
 10
61.8189407872185
 20
-108.6192788445919
 10
61.8218199827628
 20
-108.609862824325
 10
61.82544102983348
 20
-108.5972452415459
 10
61.82884489772039
 20
-108.584567618869
 10
61.83284337986997
 20
-108.5686542878478
 10
61.83659482588558
 20
-108.5526806442109
 10
61.84081796385838
 20
-108.5334490017179
 10
61.84478070033759
 20
-108.514162512639
 10
61.84911815856111
 20
-108.4916048271379
 10
61.85375259145367
 20
-108.4657649163998
 10
61.85861013861888
 20
-108.4366333338489
 10
61.86362866275118
 20
-108.4042042660597
 10
61.86919789104938
 20
-108.3652220592419
 10
61.8747526152516
 20
-108.322925789028
 10
61.88063137976897
 20
-108.274055791191
 10
61.88704125880658
 20
-108.2153379360919
 10
61.89345524833347
 20
-108.1500225134699
 10
61.9000387910211
 20
-108.074836245193
 10
61.90683298789427
 20
-107.986497363818
 10
61.91355430441759
 20
-107.8849940622109
 10
61.91993079687209
 20
-107.7703197831539
 10
61.92569649321048
 20
-107.6424724751549
 10
61.93058253666748
 20
-107.5014540090997
 10
61.9342438943541
 20
-107.350550950814
 10
61.93644556787059
 20
-107.19305594373
 10
61.93705097268717
 20
-107.0322652256719
 10
61.93601421401089
 20
-106.871476714555
 10
61.93337797699911
 20
-106.713988392949
 10
61.92938274385511
 20
-106.5663764365639
 10
61.92422648183207
 20
-106.428651294703
 10
61.9182584724577
 20
-106.304098400211
 10
61.91174582813927
 20
-106.1927186795369
 10
61.90495536503988
 20
-106.094509017544
 10
61.89816169837928
 20
-106.009461613138
 10
61.89133790607978
 20
-105.934296778535
 10
61.88468079887878
 20
-105.8690056976959
 10
61.87840382817938
 20
-105.8135747424809
 10
61.87231289683128
 20
-105.764730708749
 10
61.8665434024311
 20
-105.722463178415
 10
61.86124439290338
 20
-105.686757699103
 10
61.85603970607957
 20
-105.654357899408
 10
61.85098571247799
 20
-105.6252597963419
 10
61.84677231887528
 20
-105.6026787013769
 10
61.84227066101739
 20
-105.5801531094799
 10
61.8381458454046
 20
-105.560900395265
 10
61.83448908796091
 20
-105.544905117784
 10
61.83060338687258
 20
-105.5289635922669
 10
61.82730127680149
 20
-105.5162590546738
 10
61.8238007281361
 20
-105.5036070926619
 10
61.82007039122979
 20
-105.491020158505
 10
61.8170930828908
 20
-105.481635601464
 10
61.81393820453519
 20
-105.4723095399789
 10
61.81057732986868
 20
-105.4630553939249
 10
61.80696264721219
 20
-105.4538966432958
 10
61.80438663124649
 20
-105.4478562388119
 10
61.80165733148926
 20
-105.4418796778739
 10
61.79874231089629
 20
-105.435992718575
 10
61.79560408480397
 20
-105.430226457125
 10
61.79220414918351
 20
-105.4246129273596
 10
61.78847013625229
 20
-105.419215290097
 10
61.78428866977935
 20
-105.414134400412
 10
61.77954193062499
 20
-105.4095117690879
 10
61.77409496068919
 20
-105.4058207741239
 10
61.76786723267309
 20
-105.4036902745729
 10
61.76460198184617
 20
-105.4033715616409
  0
LWPOLYLINE
  5
664
330
1E
100
AcDbEntity
  8
1
100
AcDbPolyline
 90
       83
 70
     0
 43
0.0
 10
61.76459412749998
 20
-108.7033030940999
 10
61.76489401372807
 20
-108.7033045805107
 10
61.76519403132878
 20
-108.7033011965327
 10
61.76549405184101
 20
-108.7032928870069
 10
61.76579394680378
 20
-108.703279596775
 10
61.76609358775587
 20
-108.7032612706799
 10
61.76639284623647
 20
-108.7032378535639
 10
61.76669159378427
 20
-108.7032092902689
 10
61.76698970193838
 20
-108.7031755256369
 10
61.76728704236747
 20
-108.7031365046889
 10
61.76758351600327
 20
-108.703092212702
 10
61.76787908994228
 20
-108.7030427259769
 10
61.7681737403705
 20
-108.7029881333188
 10
61.76846744347397
 20
-108.7029285235319
 10
61.76876017543897
 20
-108.7028639854199
 10
61.76905191245147
 20
-108.7027946077899
 10
61.7693426306975
 20
-108.702720479444
 10
61.7696323063633
 20
-108.7026416891889
 10
61.76992091563477
 20
-108.7025583258279
 10
61.77020843469819
 20
-108.702470478167
 10
61.77049483973949
 20
-108.7023782350098
 10
61.77078010694478
 20
-108.7022816851627
 10
61.77106421250027
 20
-108.702180917429
 10
61.77134713259189
 20
-108.7020760206129
 10
61.771699079369
 20
-108.7019392283609
 10
61.77204909013819
 20
-108.7017962966239
 10
61.77239711838779
 20
-108.701647398847
 10
61.77274311760641
 20
-108.7014927084779
 10
61.77308704128239
 20
-108.7013323989639
 10
61.77342884290418
 20
-108.701166643751
 10
61.77376847596028
 20
-108.7009956162859
 10
61.77410589393919
 20
-108.700819490015
 10
61.77444105032927
 20
-108.7006384383859
 10
61.77484018721189
 20
-108.700414919171
 10
61.7752359200581
 20
-108.700184856919
 10
61.77562816849589
 20
-108.699948551345
 10
61.77601685215329
 20
-108.699706302167
 10
61.77640189065837
 20
-108.6994584091
 10
61.77684638795549
 20
-108.6991624671248
 10
61.7772856867726
 20
-108.6988597270738
 10
61.77778121335689
 20
-108.698506024803
 10
61.77826963200969
 20
-108.6981447181788
 10
61.77875101655668
 20
-108.6977761305049
 10
61.77922552123368
 20
-108.6974004673229
 10
61.77975130756709
 20
-108.696969644541
 10
61.78026880164408
 20
-108.696530419217
 10
61.78077822321228
 20
-108.6960830837979
 10
61.78127979201949
 20
-108.6956279307309
 10
61.78182814794019
 20
-108.6951133919509
 10
61.78236738182476
 20
-108.6945899639578
 10
61.78289779511047
 20
-108.694058047915
 10
61.78341968923438
 20
-108.6935180449819
 10
61.78398429290421
 20
-108.692915180184
 10
61.78453935434021
 20
-108.6923035495999
 10
61.78513446447619
 20
-108.691626946308
 10
61.78571921692509
 20
-108.6909412396519
 10
61.78634161451308
 20
-108.690188921874
 10
61.78699973765558
 20
-108.6893687060898
 10
61.78764606702088
 20
-108.688539166091
 10
61.78832641501749
 20
-108.6876412768289
 10
61.78903928483439
 20
-108.686674492216
 10
61.78978278455248
 20
-108.6856377289739
 10
61.79051236063647
 20
-108.684591518512
 10
61.79127015572608
 20
-108.683473918721
 10
61.79201333586718
 20
-108.682346661382
 10
61.79278251377159
 20
-108.6811468320399
 10
61.7935758601084
 20
-108.679873427914
 10
61.79439162035325
 20
-108.678525554021
 10
61.79522814110979
 20
-108.6771024478777
 10
61.79608389774679
 20
-108.675603505441
 10
61.79695752335128
 20
-108.6740283082779
 10
61.79788305227727
 20
-108.6723103737979
 10
61.79885719337039
 20
-108.6704485675729
 10
61.79984324946538
 20
-108.6685091069879
 10
61.8008728248391
 20
-108.666424238495
 10
61.80191024491648
 20
-108.6642602175938
 10
61.80298564136776
 20
-108.6619485586499
 10
61.80409575260319
 20
-108.6594880221648
 10
61.80523760237469
 20
-108.6568775935599
 10
61.80643746955649
 20
-108.6540473465279
 10
61.80769093742608
 20
-108.650995964562
 10
61.80904903504859
 20
-108.647583128791
 10
61.80920916500316
 20
-108.6471736098959
  0
LWPOLYLINE
  5
6B9
330
1E
100
AcDbEntity
  8
1
100
AcDbPolyline
 90
       77
 70
     0
 43
0.0
 10
61.80187777429996
 20
-103.4253853412
 10
61.80064360066388
 20
-103.4253439614789
 10
61.79940776074936
 20
-103.4253410304998
 10
61.79817169472435
 20
-103.425376620882
 10
61.7969368427571
 20
-103.4254508052449
 10
61.79570464501559
 20
-103.4255636562069
 10
61.79447654166779
 20
-103.4257152463879
 10
61.79325397147488
 20
-103.4259056460599
 10
61.79203813803828
 20
-103.426134533201
 10
61.7908297483451
 20
-103.4264007573397
 10
61.78962944633092
 20
-103.426703062821
 10
61.78843787593152
 20
-103.4270401939909
 10
61.78725568108259
 20
-103.427410895196
 10
61.78608350571987
 20
-103.4278139107809
 10
61.78492199377918
 20
-103.4282479850919
 10
61.78377178919621
 20
-103.4287118624749
 10
61.78263353590658
 20
-103.429204287275
 10
61.78150787784618
 20
-103.4297240038376
 10
61.78039545777856
 20
-103.4302697569638
 10
61.77875239486269
 20
-103.4311347153699
 10
61.77713964378478
 20
-103.4320523931809
 10
61.77555665314589
 20
-103.433019608887
 10
61.77400287154688
 20
-103.4340331809769
 10
61.77247774758898
 20
-103.4350899279409
 10
61.77098072987319
 20
-103.4361866682679
 10
61.76951126700058
 20
-103.437320220446
 10
61.76806880757219
 20
-103.4384874029659
 10
61.76665278271388
 20
-103.439685166916
 10
61.7652624835226
 20
-103.440911525898
 10
61.76344742733689
 20
-103.442588602091
 10
61.76167488491099
 20
-103.444310399568
 10
61.7599430153768
 20
-103.446073427722
 10
61.75824997786619
 20
-103.4478741959429
 10
61.75659393151128
 20
-103.4497092136219
 10
61.754973035444
 20
-103.4515749901498
 10
61.75299371952577
 20
-103.453945747905
 10
61.75106399369427
 20
-103.4563561258869
 10
61.74918143789398
 20
-103.458803258143
 10
61.7473436320752
 20
-103.4612842787369
 10
61.74554815618787
 20
-103.4637963217359
 10
61.74379259018229
 20
-103.466336521205
 10
61.74173518678388
 20
-103.469417895333
 10
61.73972809268757
 20
-103.47253153315
 10
61.73776876664549
 20
-103.4756750696059
 10
61.73554007856747
 20
-103.4793774918719
 10
61.73336937597397
 20
-103.4831143636889
 10
61.73125287232547
 20
-103.486882321922
 10
61.72889552435899
 20
-103.491222315869
 10
61.72659911331877
 20
-103.4955943291569
 10
61.72408428804637
 20
-103.5005480271389
 10
61.72163776232886
 20
-103.5055358553389
 10
61.71899397886709
 20
-103.5111139721649
 10
61.71642267586388
 20
-103.5167257753129
 10
61.71367136723798
 20
-103.5229330948599
 10
61.71075627726039
 20
-103.529742160491
 10
61.70792524521147
 20
-103.5365866815949
 10
61.70494595316672
 20
-103.544037275234
 10
61.70183093661478
 20
-103.552097450445
 10
61.69859323086065
 20
-103.56077106454
 10
61.69503969861978
 20
-103.570643687901
 10
61.69140006051089
 20
-103.5811404794949
 10
61.68749087489249
 20
-103.592849169768
 10
61.68352710020069
 20
-103.6051894107749
 10
61.67933705631488
 20
-103.6187525845589
 10
61.67494511326759
 20
-103.633544133642
 10
61.67020993650888
 20
-103.650164123368
 10
61.6651722555875
 20
-103.6686218921158
 10
61.66002309025988
 20
-103.6883273747319
 10
61.65448672065319
 20
-103.7104819698599
 10
61.64861420170878
 20
-103.7350955701419
 10
61.6423208664159
 20
-103.762779627498
 10
61.63566906244048
 20
-103.7935448922368
 10
61.62859629406609
 20
-103.828005760353
 10
61.62105901014848
 20
-103.866779330042
 10
61.61303197094468
 20
-103.910485010294
 10
61.60440544715148
 20
-103.960352790655
 10
61.59998200760282
 20
-103.9871356753259
  0
LWPOLYLINE
  5
708
330
1E
100
AcDbEntity
  8
1
100
AcDbPolyline
 90
       53
 70
     0
 43
0.0
 10
62.15710948729999
 20
106.0476229849999
 10
62.14729476629539
 20
105.750189257756
 10
62.1356290880087
 20
105.4796554284349
 10
62.1226516213218
 20
105.2360259903699
 10
62.10889271298292
 20
105.019297859701
 10
62.09489049354679
 20
104.8294595086329
 10
62.0809637499677
 20
104.6638192513789
 10
62.067347054613
 20
104.5196846358859
 10
62.05419291011189
 20
104.394363986879
 10
62.04157131123771
 20
104.2851681271589
 10
62.02981781276619
 20
104.1920704515278
 10
62.01853614695028
 20
104.1097271722559
 10
62.00793971532242
 20
104.0381185580089
 10
61.99782546742802
 20
103.9745731670808
 10
61.98835703173721
 20
103.9190728625399
 10
61.97971354824812
 20
103.8715941412629
 10
61.97156283579428
 20
103.8294785582499
 10
61.96401970725862
 20
103.7927093269699
 10
61.95662452829111
 20
103.7586489629598
 10
61.95003469645079
 20
103.7299026810569
 10
61.94374473714881
 20
103.7038400844739
 10
61.93781067778028
 20
103.680451194211
 10
61.93158443649702
 20
103.6571383966069
 10
61.92577438638349
 20
103.636491294422
 10
61.92044977067531
 20
103.6184945839349
 10
61.91568657320321
 20
103.6031289143269
 10
61.91071655377491
 20
103.5878289694669
 10
61.90551597934931
 20
103.5726055955018
 10
61.90098431661341
 20
103.559988613021
 10
61.89624966418342
 20
103.5474464326489
 10
61.89230028677632
 20
103.5374747172776
 10
61.88818931314511
 20
103.5275685650019
 10
61.8838979755812
 20
103.5177392167399
 10
61.8794061807094
 20
103.5079990612139
 10
61.8758885700759
 20
103.5007643712477
 10
61.8722281762053
 20
103.4936009237139
 10
61.86841095686472
 20
103.4865188394729
 10
61.86441749111851
 20
103.4795342478289
 10
61.86022363208643
 20
103.4726685573569
 10
61.855804791949
 20
103.4659437918058
 10
61.85271823202453
 20
103.4615552783229
 10
61.84950459796289
 20
103.4572595020559
 10
61.8461511897506
 20
103.4530714073818
 10
61.84264500089951
 20
103.4490070092479
 10
61.83896959951169
 20
103.4450942881899
 10
61.83510640726868
 20
103.4413687225909
 10
61.83103682756252
 20
103.437866058699
 10
61.82674360084831
 20
103.4346358797679
 10
61.8222118535532
 20
103.4317524610187
 10
61.81742767097048
 20
103.4292928987159
 10
61.8124064099941
 20
103.4273452479969
 10
61.80720239955128
 20
103.42601215458
 10
61.80188776220282
 20
103.4253858332429
  0
LWPOLYLINE
  5
73F
330
1E
100
AcDbEntity
  8
1
100
AcDbPolyline
 90
        2
 70
     0
 43
0.0
 10
61.80187813939999
 20
110.5002016458999
 10
61.60003005502361
 20
110.5099493827319
  0
LWPOLYLINE
  5
743
330
1E
100
AcDbEntity
  8
1
100
AcDbPolyline
 90
       50
 70
     0
 43
0.0
 10
61.80187778010001
 20
110.5001942273997
 10
61.81077272725939
 20
110.4987284207729
 10
61.81920673248902
 20
110.4954415313379
 10
61.82695663424961
 20
110.4907946351489
 10
61.83403338986042
 20
110.485175863179
 10
61.84051268102301
 20
110.4788861871639
 10
61.84648199735462
 20
110.4721081403039
 10
61.85202096415832
 20
110.4649799235727
 10
61.85719217951542
 20
110.4575797479439
 10
61.86205327049922
 20
110.4499744019669
 10
61.86664463888273
 20
110.4422038121589
 10
61.87100073604733
 20
110.4342986281129
 10
61.87515242788351
 20
110.426285484044
 10
61.88104240918779
 20
110.4140971890299
 10
61.8865845602146
 20
110.4017472345079
 10
61.89182778026928
 20
110.3892678951879
 10
61.89681011673092
 20
110.3766820375436
 10
61.90156461087942
 20
110.3640088833719
 10
61.9075902970809
 20
110.3469969887659
 10
61.9133039640871
 20
110.3298781422229
 10
61.918742994748
 20
110.3126700468907
 10
61.92520442904761
 20
110.2910565203349
 10
61.93133563166671
 20
110.2693470258919
 10
61.93831336306272
 20
110.2431916370739
 10
61.94492686685093
 20
110.2169417651999
 10
61.95224093716571
 20
110.1862187288169
 10
61.9601358743176
 20
110.1509995181799
 10
61.96850311738653
 20
110.1112661541329
 10
61.97724554689822
 20
110.0670049408309
 10
61.98627678976721
 20
110.0182056824079
 10
61.99552087842739
 20
109.9648611999419
 10
62.00560885865422
 20
109.9025093223348
 10
62.0163412807804
 20
109.831125768807
 10
62.02753666115349
 20
109.7506921325728
 10
62.0395829180804
 20
109.6567172735769
 10
62.05219580747061
 20
109.5491758186249
 10
62.06557131385102
 20
109.4235609985489
 10
62.079336007398
 20
109.2798473598459
 10
62.09350655072031
 20
109.1135206355729
 10
62.1076279205834
 20
108.9245602941549
 10
62.12153888326072
 20
108.7084507222068
 10
62.1346922234145
 20
108.4651796411849
 10
62.14654990072168
 20
108.1947434814739
 10
62.1565662136989
 20
107.8971464315179
 10
62.16408310553241
 20
107.5769111008359
 10
62.16857247190803
 20
107.2385709757749
 10
62.16963133714171
 20
106.8956910826739
 10
62.16720621771071
 20
106.5528181456919
 10
62.16143209613719
 20
106.2190097801509
 10
62.15710976714222
 20
106.047632981084
  0
LWPOLYLINE
  5
777
330
1E
100
AcDbEntity
  8
1
100
AcDbPolyline
 90
        2
 70
     0
 43
0.0
 10
61.60002007240001
 20
103.4156296105998
 10
61.801868152046
 20
103.4253773064469
  0
LWPOLYLINE
  5
77B
330
1E
100
AcDbEntity
  8
1
100
AcDbPolyline
 90
        2
 70
     0
 43
0.0
 10
62.99073199999998
 20
-112.0440979999999
 10
61.60000996747378
 20
-111.9299742153289
  0
LWPOLYLINE
  5
77F
330
1E
100
AcDbEntity
  8
1
100
AcDbPolyline
 90
        2
 70
     0
 43
0.0
 10
58.104908
 20
-124.083268
 10
58.10639340813557
 20
-123.4500100006749
  0
LWPOLYLINE
  5
783
330
1E
100
AcDbEntity
  8
1
100
AcDbPolyline
 90
        2
 70
     0
 43
0.0
 10
58.61674599999997
 20
-124.6292509999999
 10
58.10491483869289
 20
-124.0832752960459
  0
LWPOLYLINE
  5
787
330
1E
100
AcDbEntity
  8
1
100
AcDbPolyline
 90
        2
 70
     0
 43
0.0
 10
61.89836299999999
 20
-124.887307
 10
58.61675596958177
 20
-124.6292517793829
  0
LWPOLYLINE
  5
78B
330
1E
100
AcDbEntity
  8
1
100
AcDbPolyline
 90
      124
 70
     0
 43
0.0
 10
62.99360899999998
 20
-123.913504
 10
62.99350648673067
 20
-123.925026641668
 10
62.99326811389409
 20
-123.936548128429
 10
62.9928935652845
 20
-123.948066543563
 10
62.99238252469628
 20
-123.9595799703469
 10
62.99173467592349
 20
-123.971086492071
 10
62.99094970258527
 20
-123.982584250251
 10
62.99002728771348
 20
-123.9940715814059
 10
62.98896711421718
 20
-124.0055468628289
 10
62.98776886500569
 20
-124.017008471817
 10
62.98643222333699
 20
-124.02845478563
 10
62.98495704217629
 20
-124.0398841647029
 10
62.98334361672619
 20
-124.0512949256229
 10
62.98159231331458
 20
-124.0626853779269
 10
62.97970349826959
 20
-124.0740538311519
 10
62.97767753904478
 20
-124.085398595321
 10
62.9755149627643
 20
-124.096718049663
 10
62.97321662014799
 20
-124.108010713656
 10
62.97078340104928
 20
-124.1192751237399
 10
62.96783856584887
 20
-124.132112261187
 10
62.96472000408157
 20
-124.1449083836217
 10
62.96142789950849
 20
-124.157660960584
 10
62.95796139684782
 20
-124.1703671477
 10
62.95478444133927
 20
-124.1814447614149
 10
62.95147267536169
 20
-124.1924827568049
 10
62.94802582883956
 20
-124.2034793205859
 10
62.94392269680836
 20
-124.2159943331029
 10
62.93964699892068
 20
-124.2284515620948
 10
62.93520107076778
 20
-124.2408491341938
 10
62.93058719084479
 20
-124.2531851595199
 10
62.92580661636119
 20
-124.2654574528399
 10
62.92085972311069
 20
-124.2776635740199
 10
62.91574685795527
 20
-124.289801074557
 10
62.91046836929009
 20
-124.3018675060256
 10
62.90502476045599
 20
-124.313860427593
 10
62.89941682055449
 20
-124.325777412435
 10
62.89364536949721
 20
-124.3376160352338
 10
62.88771122719558
 20
-124.3493738706769
 10
62.88161547928798
 20
-124.361048661737
 10
62.87536027762449
 20
-124.3726388266559
 10
62.86894804143789
 20
-124.3841429530109
 10
62.86238118996049
 20
-124.395559628382
 10
62.85566199257259
 20
-124.406887350286
 10
62.84879130502138
 20
-124.418123766641
 10
62.8417692060719
 20
-124.4292660583919
 10
62.8345957664475
 20
-124.440311401654
 10
62.82727110006868
 20
-124.451257000834
 10
62.8188517082076
 20
-124.4634490625759
 10
62.81024604968139
 20
-124.4755105262909
 10
62.80145774425429
 20
-124.4874396761849
 10
62.79249033037229
 20
-124.4992347452898
 10
62.78334629025319
 20
-124.5108933019829
 10
62.77402736802978
 20
-124.5224124501848
 10
62.76453529271879
 20
-124.5337892843046
 10
62.7548718936526
 20
-124.545020978465
 10
62.74503961809217
 20
-124.5561051978059
 10
62.73392006494312
 20
-124.568245420167
 10
62.72259901265039
 20
-124.580197976072
 10
62.71108001203208
 20
-124.5919598412589
 10
62.69936637948788
 20
-124.603527849714
 10
62.68746140636246
 20
-124.6148988202729
 10
62.67536845823278
 20
-124.6260696591876
 10
62.66309135201296
 20
-124.6370378041989
 10
62.65188779612858
 20
-124.6467338788149
 10
62.64054120772389
 20
-124.6562621365959
 10
62.62905449315121
 20
-124.6656209333419
 10
62.61743055863838
 20
-124.674808762901
 10
62.60567231040049
 20
-124.6838241334999
 10
62.5937826433584
 20
-124.692665536444
 10
62.58176415067119
 20
-124.701331010962
 10
62.56961909837798
 20
-124.709818106208
 10
62.5573497361416
 20
-124.718124346805
 10
62.54495837978048
 20
-124.726247367856
 10
62.53244814276547
 20
-124.734186136556
 10
62.51982266709187
 20
-124.741940502742
 10
62.50708560421069
 20
-124.749510332042
 10
62.49424047645648
 20
-124.756895284915
 10
62.48128994417179
 20
-124.76409365208
 10
62.4682363147136
 20
-124.771103163352
 10
62.45654840225359
 20
-124.777173457735
 10
62.44478254456838
 20
-124.7830912775049
 10
62.4329408617045
 20
-124.7888559657539
 10
62.42102563078778
 20
-124.7944671603198
 10
62.4090391291839
 20
-124.7999244994909
 10
62.39698362764737
 20
-124.8052276139089
 10
62.38486127877758
 20
-124.810375997581
 10
62.3726741332491
 20
-124.8153690266448
 10
62.36042423839408
 20
-124.8202060733739
 10
62.3481136414865
 20
-124.8248865097826
 10
62.33574438056638
 20
-124.8294096670639
 10
62.32331847442538
 20
-124.8337747913089
 10
62.3108379394486
 20
-124.8379811179709
 10
62.29830479202097
 20
-124.8420278825009
 10
62.28572107181609
 20
-124.8459144263319
 10
62.27308894715278
 20
-124.849640676323
 10
62.26041063052649
 20
-124.853206760365
 10
62.24768833447248
 20
-124.856612806536
 10
62.23492426355617
 20
-124.85985891055
 10
62.22212047316469
 20
-124.8629445624596
 10
62.20927888631798
 20
-124.8658687149049
 10
62.19640142144337
 20
-124.8686303018769
 10
62.18348999731517
 20
-124.871228259359
 10
62.17054661737508
 20
-124.873662008307
 10
62.15757347971909
 20
-124.875932084668
 10
62.14457280969607
 20
-124.878039180492
 10
62.13154683265479
 20
-124.87998398783
 10
62.11849774786727
 20
-124.88176705742
 10
62.10542757745439
 20
-124.8833879800119
 10
62.09233826984718
 20
-124.884845947026
 10
62.07923177323498
 20
-124.886140148574
 10
62.06611003839689
 20
-124.887269787282
 10
62.05297509498747
 20
-124.8882344469709
 10
62.03982906404438
 20
-124.889034153101
 10
62.02667407171269
 20
-124.8896689558188
 10
62.01351224412968
 20
-124.8901389053019
 10
62.000345668114
 20
-124.890444192176
 10
61.9871763003547
 20
-124.890585471916
 10
61.97400607065578
 20
-124.890563496032
 10
61.96083690882138
 20
-124.890379016037
 10
61.94767076121028
 20
-124.890032784734
 10
61.93450976346968
 20
-124.8895255697049
 10
61.92135617188396
 20
-124.8888581479549
 10
61.90821224468269
 20
-124.888031296636
 10
61.89837196966107
 20
-124.8873077783729
  0
LWPOLYLINE
  5
809
330
1E
100
AcDbEntity
  8
1
100
AcDbPolyline
 90
        2
 70
     0
 43
0.0
 10
62.99360899999998
 20
-123.913504
 10
62.99073202852888
 20
-112.044107999959
  0
LWPOLYLINE
  5
80D
330
1E
100
AcDbEntity
  8
1
100
AcDbPolyline
 90
        2
 70
     0
 43
0.0
 10
62.01363499999999
 20
-122.527886
 10
61.42785049790298
 20
-122.571000008927
  0
LWPOLYLINE
  5
811
330
1E
100
AcDbEntity
  8
1
100
AcDbPolyline
 90
       75
 70
     0
 43
0.0
 10
62.01075699999998
 20
-110.611276
 10
62.01070644019269
 20
-110.598919053391
 10
62.01051130706209
 20
-110.58656271766
 10
62.01017117600198
 20
-110.5742090172149
 10
62.00968562240617
 20
-110.5618599764629
 10
62.00910797862658
 20
-110.5504667472489
 10
62.00840572891529
 20
-110.539080717773
 10
62.00757853970238
 20
-110.5277032544699
 10
62.00662607744059
 20
-110.51633571096
 10
62.00554800858228
 20
-110.5049794408609
 10
62.00434400284867
 20
-110.493635798165
 10
62.00301394237737
 20
-110.482306161146
 10
62.0015580482859
 20
-110.4709919468307
 10
61.99997657201909
 20
-110.4596945757118
 10
61.99826976502198
 20
-110.4484154682839
 10
61.99643788139598
 20
-110.437156043966
 10
61.99431267813088
 20
-110.4249821164418
 10
61.9920419930191
 20
-110.412834481868
 10
61.98962667822698
 20
-110.400714731269
 10
61.98706758592089
 20
-110.388624455672
 10
61.98436546612008
 20
-110.3765652756
 10
61.98152000467368
 20
-110.3645391189169
 10
61.97853025521187
 20
-110.35254809607
 10
61.97539526302069
 20
-110.340594319918
 10
61.97237168477169
 20
-110.3295949514349
 10
61.96922315299099
 20
-110.3186306837759
 10
61.96567234324501
 20
-110.306793737588
 10
61.96197758014918
 20
-110.2950008413966
 10
61.95814044728809
 20
-110.283253431154
 10
61.95416251351527
 20
-110.271552947125
 10
61.95004468186368
 20
-110.2599010245119
 10
61.94578693231939
 20
-110.248299568759
 10
61.94138917696577
 20
-110.2367505051889
 10
61.93685132788607
 20
-110.225255759126
 10
61.93217333175249
 20
-110.213817258574
 10
61.92735538083319
 20
-110.20243695056
 10
61.92239777366518
 20
-110.1911167903409
 10
61.91730080921018
 20
-110.1798587332099
 10
61.91206479102309
 20
-110.168664731979
 10
61.90669044159428
 20
-110.157536513437
 10
61.90117923222246
 20
-110.1464754003758
 10
61.8955327118331
 20
-110.1354826737059
 10
61.8893022962121
 20
-110.12372230136
 10
61.88291844846077
 20
-110.1120444630228
 10
61.87638137738589
 20
-110.1004517645479
 10
61.86969070704272
 20
-110.0889471526679
 10
61.86284606011311
 20
-110.077533574914
 10
61.85584718419209
 20
-110.0662139087649
 10
61.84869521175667
 20
-110.0549902550369
 10
61.84139213783408
 20
-110.0438642308179
 10
61.83393997049979
 20
-110.0328374458749
 10
61.82634068942379
 20
-110.021911528158
 10
61.81859569527007
 20
-110.0110884762059
 10
61.81070584820568
 20
-110.000370634504
 10
61.80267198770501
 20
-109.9897603607769
 10
61.79390543232147
 20
-109.9785142516727
 10
61.78497587344859
 20
-109.9673970660609
 10
61.77588501739736
 20
-109.95641135501
 10
61.76663459162328
 20
-109.9455596586427
 10
61.75722632457759
 20
-109.934844517568
 10
61.74766196024959
 20
-109.9242684799859
 10
61.73794325492267
 20
-109.9138341001069
 10
61.72740849704009
 20
-109.9028631112229
 10
61.71670230263138
 20
-109.892059286467
 10
61.70582710272721
 20
-109.8814255927478
 10
61.69548036888459
 20
-109.8716136143299
 10
61.68498941806998
 20
-109.861956135715
 10
61.67435639055558
 20
-109.8524554389409
 10
61.66358355919538
 20
-109.843113468701
 10
61.65267321938628
 20
-109.8339321123319
 10
61.64162766574428
 20
-109.824913264015
 10
61.63119846161669
 20
-109.816644418121
 10
61.62065514832239
 20
-109.808521968099
 10
61.60999944859899
 20
-109.8005487069638
 10
61.60001386424347
 20
-109.793286812257
  0
LWPOLYLINE
  5
85E
330
1E
100
AcDbEntity
  8
1
100
AcDbPolyline
 90
        2
 70
     0
 43
0.0
 10
62.01363499999999
 20
-122.527886
 10
62.01075697638287
 20
-110.611285999972
  0
LWPOLYLINE
  5
862
330
1E
100
AcDbEntity
  8
1
100
AcDbPolyline
 90
        2
 70
     0
 43
0.0
 10
58.10490800000001
 20
124.0832679999999
 10
58.1058501264799
 20
123.6904855398729
  0
LWPOLYLINE
  5
866
330
1E
100
AcDbEntity
  8
1
100
AcDbPolyline
 90
        2
 70
     0
 43
0.0
 10
58.616746
 20
124.6292509999999
 10
58.104914838693
 20
124.0832752960449
  0
LWPOLYLINE
  5
86A
330
1E
100
AcDbEntity
  8
1
100
AcDbPolyline
 90
        2
 70
     0
 43
0.0
 10
61.89836300000002
 20
124.8873069999999
 10
58.61675596958178
 20
124.6292517793829
  0
LWPOLYLINE
  5
86E
330
1E
100
AcDbEntity
  8
1
100
AcDbPolyline
 90
      124
 70
     0
 43
0.0
 10
62.99360899999999
 20
123.9135039999996
 10
62.9935064867307
 20
123.9250266416678
 10
62.99326811389412
 20
123.9365481284288
 10
62.99289356528452
 20
123.9480665435626
 10
62.99238252469631
 20
123.9595799703469
 10
62.99173467592352
 20
123.9710864920709
 10
62.99094970258529
 20
123.9825842502509
 10
62.99002728771353
 20
123.9940715814049
 10
62.98896711421722
 20
124.0055468628289
 10
62.98776886500572
 20
124.017008471817
 10
62.98643222333709
 20
124.02845478563
 10
62.98495704217629
 20
124.0398841647029
 10
62.98334361672623
 20
124.0512949256229
 10
62.9815923133146
 20
124.0626853779269
 10
62.97970349826961
 20
124.0740538311519
 10
62.97767753904481
 20
124.0853985953209
 10
62.9755149627644
 20
124.0967180496629
 10
62.97321662014812
 20
124.108010713657
 10
62.97078340104939
 20
124.1192751237409
 10
62.96783856584889
 20
124.1321122611878
 10
62.96472000408172
 20
124.1449083836217
 10
62.96142789950852
 20
124.157660960584
 10
62.95796139684792
 20
124.1703671477
 10
62.95478444133941
 20
124.1814447614149
 10
62.95147267536171
 20
124.1924827568049
 10
62.9480258288396
 20
124.2034793205859
 10
62.94392269680841
 20
124.2159943331029
 10
62.93964699892072
 20
124.2284515620948
 10
62.9352010707679
 20
124.2408491341938
 10
62.93058719084489
 20
124.2531851595199
 10
62.92580661636121
 20
124.2654574528399
 10
62.92085972311071
 20
124.2776635740189
 10
62.91574685795531
 20
124.2898010745569
 10
62.91046836929012
 20
124.3018675060249
 10
62.90502476045602
 20
124.313860427593
 10
62.89941682055442
 20
124.325777412435
 10
62.89364536949712
 20
124.3376160352338
 10
62.88771122719561
 20
124.3493738706769
 10
62.88161547928801
 20
124.3610486617366
 10
62.87536027762461
 20
124.3726388266559
 10
62.8689480414379
 20
124.3841429530109
 10
62.86238118996061
 20
124.395559628382
 10
62.85566199257272
 20
124.4068873502859
 10
62.84879130502152
 20
124.4181237666409
 10
62.8417692060719
 20
124.4292660583919
 10
62.83459576644752
 20
124.4403114016539
 10
62.82727110006871
 20
124.451257000834
 10
62.81885170820761
 20
124.4634490625759
 10
62.81024604968139
 20
124.4755105262919
 10
62.80145774425442
 20
124.4874396761849
 10
62.79249033037242
 20
124.4992347452898
 10
62.78334629025331
 20
124.5108933019819
 10
62.77402736802991
 20
124.5224124501848
 10
62.76453529271882
 20
124.5337892843046
 10
62.75487189365263
 20
124.545020978465
 10
62.74503961809219
 20
124.5561051978059
 10
62.73392006494312
 20
124.568245420167
 10
62.72259901265042
 20
124.5801979760719
 10
62.71108001203222
 20
124.5919598412589
 10
62.69936637948799
 20
124.603527849714
 10
62.68746140636249
 20
124.6148988202739
 10
62.67536845823291
 20
124.6260696591876
 10
62.663091352013
 20
124.6370378041989
 10
62.65188779612859
 20
124.6467338788149
 10
62.64054120772389
 20
124.6562621365959
 10
62.62905449315121
 20
124.6656209333419
 10
62.61743055863842
 20
124.6748087629009
 10
62.60567231040059
 20
124.6838241334999
 10
62.5937826433584
 20
124.6926655364449
 10
62.58176415067129
 20
124.701331010962
 10
62.5696190983781
 20
124.709818106208
 10
62.5573497361417
 20
124.7181243468046
 10
62.54495837978061
 20
124.726247367856
 10
62.53244814276561
 20
124.734186136556
 10
62.51982266709203
 20
124.7419405027419
 10
62.5070856042107
 20
124.749510332042
 10
62.49424047645651
 20
124.756895284915
 10
62.48128994417181
 20
124.7640936520796
 10
62.46823631471363
 20
124.771103163352
 10
62.45654840225371
 20
124.777173457735
 10
62.44478254456851
 20
124.7830912775049
 10
62.4329408617045
 20
124.7888559657539
 10
62.42102563078788
 20
124.7944671603198
 10
62.4090391291839
 20
124.7999244994909
 10
62.39698362764741
 20
124.8052276139089
 10
62.38486127877759
 20
124.810375997581
 10
62.37267413324913
 20
124.8153690266448
 10
62.3604242383941
 20
124.8202060733739
 10
62.34811364148653
 20
124.8248865097826
 10
62.33574438056638
 20
124.8294096670639
 10
62.3233184744254
 20
124.8337747913089
 10
62.31083793944861
 20
124.8379811179709
 10
62.29830479202099
 20
124.8420278825009
 10
62.28572107181611
 20
124.8459144263319
 10
62.27308894715278
 20
124.8496406763228
 10
62.2604106305264
 20
124.8532067603649
 10
62.2476883344725
 20
124.8566128065359
 10
62.2349242635562
 20
124.8598589105499
 10
62.22212047316472
 20
124.8629445624596
 10
62.20927888631798
 20
124.8658687149049
 10
62.19640142144339
 20
124.868630301878
 10
62.18348999731521
 20
124.8712282593589
 10
62.1705466173752
 20
124.8736620083079
 10
62.15757347971919
 20
124.8759320846679
 10
62.14457280969611
 20
124.8780391804919
 10
62.13154683265481
 20
124.8799839878299
 10
62.11849774786728
 20
124.88176705742
 10
62.10542757745439
 20
124.8833879800119
 10
62.09233826984712
 20
124.884845947026
 10
62.07923177323491
 20
124.8861401485739
 10
62.06611003839682
 20
124.8872697872819
 10
62.05297509498748
 20
124.8882344469709
 10
62.03982906404441
 20
124.8890341531009
 10
62.02667407171272
 20
124.8896689558188
 10
62.01351224412971
 20
124.8901389053019
 10
62.000345668114
 20
124.890444192176
 10
61.98717630035472
 20
124.8905854719159
 10
61.97400607065572
 20
124.890563496033
 10
61.9608369088214
 20
124.890379016037
 10
61.94767076121031
 20
124.8900327847339
 10
61.93450976346971
 20
124.889525569706
 10
61.92135617188402
 20
124.8888581479549
 10
61.90821224468261
 20
124.8880312966359
 10
61.89837196966109
 20
124.8873077783729
  0
LWPOLYLINE
  5
8EC
330
1E
100
AcDbEntity
  8
1
100
AcDbPolyline
 90
        3
 70
     0
 43
0.0
 10
57.1495796353
 20
-10.38619967639998
 10
57.0474291112842
 20
-10.44219610574599
 10
56.99622279818228
 20
-10.47084100361604
  0
LWPOLYLINE
  5
8F1
330
1E
100
AcDbEntity
  8
1
100
AcDbPolyline
 90
      117
 70
     0
 43
0.0
 10
56.996214085
 20
-10.47084591079997
 10
56.87870365449079
 20
-10.53805943133703
 10
56.7620949869041
 20
-10.60683599940698
 10
56.64640649530451
 20
-10.67717365705201
 10
56.53165659275611
 20
-10.74907044631298
 10
56.4178637760063
 20
-10.82252425712703
 10
56.30504937102781
 20
-10.89752783688801
 10
56.1932381510438
 20
-10.97406766709599
 10
56.07021042225319
 20
-11.06089679423303
 10
55.94848630435691
 20
-11.149586304293
 10
55.8281000662504
 20
-11.240117132764
 10
55.709085976829
 20
-11.33247021513801
 10
55.5914783049882
 20
-11.42662648690402
 10
55.47531131962339
 20
-11.52256688355203
 10
55.36061928963
 20
-11.62027234057303
 10
55.24743648390351
 20
-11.71972379345602
 10
55.13579717133921
 20
-11.82090217769302
 10
55.0257356128381
 20
-11.92378842346601
 10
54.9172843114929
 20
-12.02836229426003
 10
54.79988178044401
 20
-12.14531546135098
 10
54.69490432528591
 20
-12.25335852026803
 10
54.5916244981095
 20
-12.363017584572
 10
54.4900703089223
 20
-12.47426943558202
 10
54.39026976773181
 20
-12.58709085461402
 10
54.29225088454559
 20
-12.70145862298599
 10
54.19604166937117
 20
-12.817349522017
 10
54.10167013221609
 20
-12.93474033302501
 10
54.00916428308789
 20
-13.053607837326
 10
53.92752733240659
 20
-13.16183197372402
 10
53.8474446906232
 20
-13.27121648566002
 10
53.76893591412059
 20
-13.38174259207701
 10
53.69201880421041
 20
-13.493387739777
 10
53.61671094733448
 20
-13.60612891375104
 10
53.54302992993471
 20
-13.719943098986
 10
53.4709933384529
 20
-13.83480728047201
 10
53.40061875933098
 20
-13.95069844319702
 10
53.33192377901091
 20
-14.067593572151
 10
53.2649259839344
 20
-14.18546965232103
 10
53.1996429605433
 20
-14.30430366869803
 10
53.13609229527968
 20
-14.42407260627003
 10
53.0810713575012
 20
-14.53130015058301
 10
53.02744544349518
 20
-14.63923204918502
 10
52.97522690478181
 20
-14.74785213789703
 10
52.92442795070281
 20
-14.85714415766302
 10
52.8750584032015
 20
-14.96709025628302
 10
52.82712610363478
 20
-15.077671259883
 10
52.78063883343451
 20
-15.18886795459899
 10
52.73560437403211
 20
-15.30066112656704
 10
52.69203050685929
 20
-15.41303156192402
 10
52.6499250133477
 20
-15.525960046806
 10
52.609295674929
 20
-15.63942736735004
 10
52.5701502730348
 20
-15.75341430969301
 10
52.53249658909679
 20
-15.86790165997103
 10
52.49634240454668
 20
-15.98287020432002
 10
52.46169550081599
 20
-16.09830072887802
 10
52.42856365933651
 20
-16.21417401978003
 10
52.39695466153968
 20
-16.33047086316302
 10
52.36687628885739
 20
-16.44717204516398
 10
52.33833589720269
 20
-16.564258250848
 10
52.31133744631041
 20
-16.681709358597
 10
52.2858832695094
 20
-16.79950486048102
 10
52.26197568993899
 20
-16.91762424614903
 10
52.2396170307382
 20
-17.03604700525
 10
52.2188096150462
 20
-17.15475262743302
 10
52.1995557660022
 20
-17.27372060234602
 10
52.1818578067453
 20
-17.39293041964002
 10
52.16571806041461
 20
-17.51236156896204
 10
52.1511388501494
 20
-17.63199353996203
 10
52.13812249908881
 20
-17.75180582228801
 10
52.12667133037189
 20
-17.87177790559002
 10
52.1167876671379
 20
-17.99188927951701
 10
52.1084738325259
 20
-18.11211943371698
 10
52.101732145022
 20
-18.23244785807601
 10
52.09656339977279
 20
-18.35285412019501
 10
52.09296468154009
 20
-18.47331797695498
 10
52.0909325209045
 20
-18.59381921351102
 10
52.0904634484469
 20
-18.71433761501704
 10
52.0915539947482
 20
-18.83485296662803
 10
52.0942006903891
 20
-18.95534505349702
 10
52.0984000659505
 20
-19.07579366077903
 10
52.10414865201311
 20
-19.19617857362799
 10
52.11144297915788
 20
-19.31647957719899
 10
52.1202795779655
 20
-19.43667645664602
 10
52.13065497901689
 20
-19.55674899712203
 10
52.14256571289279
 20
-19.67667698378301
 10
52.156008310174
 20
-19.79644020178202
 10
52.1709793014415
 20
-19.91601843627405
 10
52.18747520789619
 20
-20.03539147996002
 10
52.2054912524049
 20
-20.15454017022801
 10
52.22502004322779
 20
-20.27344744826605
 10
52.24605387481751
 20
-20.39209650776701
 10
52.26858504162641
 20
-20.51047054242105
 10
52.2926058381067
 20
-20.62855274591901
 10
52.318108558711
 20
-20.74632631195298
 10
52.34508549789159
 20
-20.86377443421504
 10
52.3735289501009
 20
-20.98088030639304
 10
52.4034312097913
 20
-21.09762712218099
 10
52.4347845714152
 20
-21.21399807526903
 10
52.467581329425
 20
-21.32997635934799
 10
52.5018137782731
 20
-21.44554516810898
 10
52.5374742124119
 20
-21.56068769524404
 10
52.57455492629371
 20
-21.67538713444304
 10
52.613048214371
 20
-21.78962667939797
 10
52.6529457308321
 20
-21.90338953727501
 10
52.6942359533742
 20
-22.01665898208903
 10
52.74233660182111
 20
-22.14347652466102
 10
52.79216626037101
 20
-22.26962466323997
 10
52.84370712284061
 20
-22.39507961237301
 10
52.8969413830465
 20
-22.51981758660702
 10
52.9518512348055
 20
-22.64381480048804
 10
53.00841887193399
 20
-22.76704746856201
 10
53.06662648824879
 20
-22.88949180537805
 10
53.1264562775666
 20
-23.01112402548103
 10
53.1878904337039
 20
-23.13192034341802
 10
53.25091115047751
 20
-23.25185697373605
 10
53.315500621704
 20
-23.37091013098104
 10
53.38163609866139
 20
-23.48904733652403
  0
LWPOLYLINE
  5
968
330
1E
100
AcDbEntity
  8
1
100
AcDbPolyline
 90
        5
 70
     0
 43
0.0
 10
57.36218092710001
 20
123.4007246082999
 10
57.32767357586052
 20
123.4017043564409
 10
57.20774570085861
 20
123.4059539678109
 10
57.20012006502142
 20
123.4063199710839
 10
57.19631881993413
 20
123.4065346236949
  0
LWPOLYLINE
  5
96F
330
1E
100
AcDbEntity
  8
1
100
AcDbPolyline
 90
      190
 70
     0
 43
0.0
 10
57.1963088377
 20
123.4065352194999
 10
57.19623351926109
 20
123.4065396264419
 10
57.1961571644644
 20
123.406543918831
 10
57.1960797859997
 20
123.4065480989139
 10
57.1960013965569
 20
123.406552168941
 10
57.19590200739769
 20
123.4065571051349
 10
57.19580108319783
 20
123.4065618772729
 10
57.19569864874229
 20
123.4065664897459
 10
57.19559472881609
 20
123.4065709469478
 10
57.19548934820393
 20
123.4065752532719
 10
57.19538253169059
 20
123.4065794131079
 10
57.19527430406111
 20
123.40658343085
 10
57.19516469010032
 20
123.4065873108906
 10
57.19505371459302
 20
123.4065910576209
 10
57.19494140232421
 20
123.4065946754349
 10
57.19482777807861
 20
123.4065981687239
 10
57.19471286664122
 20
123.406601541881
 10
57.19459669279689
 20
123.4066047992979
 10
57.19447928133039
 20
123.4066079453679
 10
57.19436065702669
 20
123.4066109844819
 10
57.1942408446706
 20
123.4066139210338
 10
57.19409553651132
 20
123.4066173156979
 10
57.19394859607501
 20
123.406620576587
 10
57.19380006619002
 20
123.4066237112898
 10
57.19364998968462
 20
123.4066267273989
 10
57.19349840938702
 20
123.4066296325029
 10
57.19334536812549
 20
123.4066324341919
 10
57.19319090872841
 20
123.4066351400559
 10
57.19303507402379
 20
123.4066377576859
 10
57.19285158577012
 20
123.4066407101938
 10
57.19266635187389
 20
123.406643564989
 10
57.19247944034481
 20
123.4066463341229
 10
57.1922909191926
 20
123.4066490296489
 10
57.1920735827229
 20
123.4066520355789
 10
57.19185433423602
 20
123.406654979101
 10
57.1916332752509
 20
123.4066578782079
 10
57.19138254618421
 20
123.4066611090119
 10
57.19112979873571
 20
123.4066643319889
 10
57.1908467768068
 20
123.4066679350509
 10
57.19053301737901
 20
123.4066719657229
 10
57.19018812563811
 20
123.4066764965769
 10
57.18978275651309
 20
123.4066820378528
 10
57.189286934656
 20
123.4066892688546
 10
57.18855257939361
 20
123.406701247851
 10
57.18716516781618
 20
123.4067298675059
 10
57.186312017368
 20
123.4067528025009
 10
57.1857862214694
 20
123.4067695289529
 10
57.18538015576811
 20
123.4067840175409
 10
57.1850345634705
 20
123.4067975468349
 10
57.18472007794481
 20
123.4068109040149
 10
57.18443632626938
 20
123.4068238804519
 10
57.18415482163162
 20
123.4068376870519
 10
57.18390355255239
 20
123.406850851824
 10
57.1836819819275
 20
123.4068631629579
 10
57.18346219203272
 20
123.4068760661169
 10
57.18324428438698
 20
123.4068895792929
 10
57.18305523903659
 20
123.406901917869
 10
57.18286778051822
 20
123.4069147493169
 10
57.18268197684132
 20
123.4069280856879
 10
57.18249789601578
 20
123.4069419390359
 10
57.18231560605111
 20
123.4069563214129
 10
57.18216083444172
 20
123.4069690793659
 10
57.1820074713614
 20
123.406982242438
 10
57.18185555963852
 20
123.4069958182199
 10
57.18170514210132
 20
123.4070098143019
 10
57.1815562615779
 20
123.407024238274
 10
57.18140896089671
 20
123.407039097726
 10
57.18126328288589
 20
123.4070544002479
 10
57.18111927037379
 20
123.4070701534299
 10
57.18100056310142
 20
123.407083630812
 10
57.18088306695213
 20
123.4070974308159
 10
57.1807668067106
 20
123.4071115578339
 10
57.18065180716189
 20
123.4071260162579
 10
57.18053809309082
 20
123.4071408104819
 10
57.18042568928211
 20
123.4071559448958
 10
57.18031462052088
 20
123.4071714238949
 10
57.1802049115918
 20
123.4071872518699
 10
57.18009658727989
 20
123.407203433213
 10
57.1799896723699
 20
123.4072199723169
 10
57.17988419164672
 20
123.4072368735749
 10
57.17978016989532
 20
123.4072541413776
 10
57.17967763190038
 20
123.4072717801199
 10
57.179576602447
 20
123.4072897941919
 10
57.17947710631992
 20
123.4073081879869
 10
57.1793986300686
 20
123.4073231793749
 10
57.17932116369821
 20
123.4073384188459
 10
57.17924471989881
 20
123.4073539086489
 10
57.17916931136009
 20
123.4073696510319
 10
57.1790949507719
 20
123.407385648245
 10
57.17902165082422
 20
123.4074019025359
 10
57.17894942420683
 20
123.4074184161539
 10
57.1788782836094
 20
123.4074351913489
 10
57.17880824172211
 20
123.4074522303679
 10
57.1787393112346
 20
123.4074695354619
 10
57.17867150483681
 20
123.4074871088788
 10
57.1786048352185
 20
123.4075049528668
 10
57.17853931506962
 20
123.4075230696759
 10
57.17847495707999
 20
123.4075414615549
 10
57.17841177393942
 20
123.4075601307529
 10
57.17834977833788
 20
123.407579079517
 10
57.17828898296509
 20
123.4075983100989
 10
57.178229400511
 20
123.4076178247449
 10
57.17817104366542
 20
123.407637625706
 10
57.17811392511819
 20
123.4076577152299
 10
57.17805805755922
 20
123.4076780955659
 10
57.17800345367829
 20
123.4076987689629
 10
57.17795012616528
 20
123.4077197376689
 10
57.17789808771011
 20
123.4077410039349
 10
57.1778473510025
 20
123.4077625700079
 10
57.17779792873241
 20
123.4077844381369
 10
57.17774983358971
 20
123.4078066105718
 10
57.17770307826411
 20
123.4078290895618
 10
57.17765767544562
 20
123.4078518773549
 10
57.177613637824
 20
123.4078749762
 10
57.17757097808911
 20
123.4078983883459
 10
57.17752970893092
 20
123.4079221160419
 10
57.1774898430391
 20
123.4079461615367
 10
57.1774513931036
 20
123.4079705270799
 10
57.1774143718143
 20
123.4079952149188
 10
57.17737879186102
 20
123.4080202273049
 10
57.17734466593359
 20
123.4080455664839
 10
57.1773120067219
 20
123.4080712347079
 10
57.17728082691579
 20
123.4080972342229
 10
57.17725113920518
 20
123.4081235672799
 10
57.17722986024352
 20
123.4081435373129
 10
57.1772094330771
 20
123.4081636971749
 10
57.17718986305952
 20
123.4081840478179
 10
57.17717115554432
 20
123.408204590188
 10
57.17715331588482
 20
123.408225325236
 10
57.17713634943478
 20
123.408246253909
 10
57.17712026154771
 20
123.4082673771569
 10
57.177105057577
 20
123.4082886959289
 10
57.17709074287632
 20
123.4083102111719
 10
57.17707732279912
 20
123.408331923836
 10
57.17706480269892
 20
123.4083538348698
 10
57.17705318792932
 20
123.4083759452219
 10
57.17704248384389
 20
123.408398255841
 10
57.177032695796
 20
123.4084207676759
 10
57.17702382913939
 20
123.4084434816759
 10
57.17701588922739
 20
123.4084663987889
 10
57.17700888141372
 20
123.408489519964
 10
57.17700281105171
 20
123.4085128461499
 10
57.176997683495
 20
123.4085363782949
 10
57.17699350409723
 20
123.4085601173489
 10
57.17699027821169
 20
123.4085840642609
 10
57.17698801119214
 20
123.4086082199777
 10
57.17698670839189
 20
123.40863258545
 10
57.17698637516472
 20
123.408657161625
 10
57.176987016864
 20
123.4086819494519
 10
57.17698863884329
 20
123.4087069498809
 10
57.17699124645609
 20
123.4087321638589
 10
57.17699484505612
 20
123.408757592335
 10
57.17699943999662
 20
123.4087832362589
 10
57.17700503663131
 20
123.4088090965789
 10
57.1770116403136
 20
123.4088351742429
 10
57.17701925639722
 20
123.4088614702009
 10
57.17702789023562
 20
123.4088879854019
 10
57.17703754718218
 20
123.408914720793
 10
57.1770482325905
 20
123.4089416773239
 10
57.17705995181431
 20
123.4089688559439
 10
57.17707271020691
 20
123.4089962576009
 10
57.17708651312189
 20
123.4090238832439
 10
57.17710136591279
 20
123.4090517338219
 10
57.17711727393322
 20
123.4090798102829
 10
57.17713424253672
 20
123.4091081135769
 10
57.17715227707659
 20
123.409136644652
 10
57.17717138290662
 20
123.4091654044568
 10
57.1771915653801
 20
123.4091943939399
 10
57.17721282985078
 20
123.4092236140509
 10
57.17723518167222
 20
123.409253065737
 10
57.17725862619777
 20
123.409282749949
 10
57.177283168781
 20
123.4093126676339
 10
57.1773088147755
 20
123.409342819742
 10
57.17733556953479
 20
123.409373207221
 10
57.17736343841252
 20
123.4094038310199
 10
57.17739242676191
 20
123.4094346920869
 10
57.1774225399368
 20
123.4094657913719
 10
57.17745378329052
 20
123.4094971298229
 10
57.17748616217672
 20
123.4095287083899
 10
57.17751968194892
 20
123.4095605280189
 10
57.1775543479606
 20
123.4095925896619
 10
57.17759016556533
 20
123.4096248942649
 10
57.1776271401166
 20
123.409657442779
 10
57.17766527696801
 20
123.409690236151
 10
57.17770458147303
 20
123.4097232753309
 10
57.17774505898518
 20
123.4097565612669
 10
57.17778671485799
 20
123.4097900949079
 10
57.17782955444511
 20
123.409823877203
 10
57.1778735831
 20
123.4098579090999
 10
57.17786566117871
 20
123.4098518349678
  0
LWPOLYLINE
  5
A2F
330
1E
100
AcDbEntity
  8
1
100
AcDbPolyline
 90
       72
 70
     0
 43
0.0
 10
47.4182443496
 20
121.0715864149999
 10
47.35526518674721
 20
121.0945243742139
 10
47.28878242250727
 20
121.1197018816678
 10
47.22425314156371
 20
121.1450831820549
 10
47.161519144537
 20
121.1706394660239
 10
47.1004386085038
 20
121.1963407084559
 10
47.04088524760839
 20
121.2221557864479
 10
46.98274749192272
 20
121.248052594731
 10
46.92592768455378
 20
121.2739981585219
 10
46.87034129699831
 20
121.2999587438149
 10
46.81455239132062
 20
121.3265563589289
 10
46.75984887820828
 20
121.3531304298399
 10
46.7061761901925
 20
121.3796451834257
 10
46.65209822368978
 20
121.4067675424089
 10
46.60600140424439
 20
121.4302151079619
 10
46.5738447228704
 20
121.4469208311929
 10
46.5474024438071
 20
121.4610242084759
 10
46.52392197648771
 20
121.4739226529446
 10
46.50340140833002
 20
121.4855549938039
 10
46.48445983477181
 20
121.4966488981149
 10
46.46708827180289
 20
121.5071746153049
 10
46.45257608932779
 20
121.5162627767139
 10
46.43825508496917
 20
121.5255286605029
 10
46.42541768890009
 20
121.53411520849
 10
46.41402404911729
 20
121.5419825586339
 10
46.4027926693785
 20
121.5499879627699
 10
46.39295375306939
 20
121.5572244027739
 10
46.3832583912227
 20
121.564578466549
 10
46.37371380689518
 20
121.5720541748339
 10
46.36549165857428
 20
121.578698366933
 10
46.35739531832811
 20
121.5854414650709
 10
46.3494296250404
 20
121.5922861628319
 10
46.34159941759492
 20
121.599235153797
 10
46.3339095348754
 20
121.6062911315469
 10
46.32743356181539
 20
121.6124263070069
 10
46.32106728679779
 20
121.6186437602109
 10
46.31481375704971
 20
121.62494518741
 10
46.30867601979811
 20
121.6313322848538
 10
46.3026571222701
 20
121.6378067487929
 10
46.2967601116929
 20
121.6443702754749
 10
46.29098803529351
 20
121.6510245611519
 10
46.2853439402989
 20
121.6577713020738
 10
46.27983087393629
 20
121.664612194489
 10
46.27533894170741
 20
121.6703860832099
 10
46.2709418811556
 20
121.6762275144898
 10
46.26664145572241
 20
121.6821374699549
 10
46.26243942884942
 20
121.6881169312319
 10
46.2583375639783
 20
121.6941668799469
 10
46.2543376245506
 20
121.7002882977259
 10
46.250441374008
 20
121.7064821661949
 10
46.24665057579199
 20
121.7127494669796
 10
46.24296699334426
 20
121.7190911817066
 10
46.23939239010629
 20
121.7255082920019
 10
46.2359285295199
 20
121.7320017794919
 10
46.23257717502641
 20
121.7385726258016
 10
46.22934009006761
 20
121.7452218125588
 10
46.22621894914717
 20
121.7519499466859
 10
46.22321458698749
 20
121.7587540970359
 10
46.22032737639099
 20
121.7656293863559
 10
46.21755768536822
 20
121.7725709172029
 10
46.2149058819294
 20
121.779573792132
 10
46.21237233408492
 20
121.7866331137009
 10
46.20995740984511
 20
121.7937439844649
 10
46.20766147722028
 20
121.8009015069809
 10
46.20548490422089
 20
121.8081007838059
 10
46.20342805885718
 20
121.8153369174959
 10
46.2014913091395
 20
121.8226050106067
 10
46.19967502307811
 20
121.8299001656949
 10
46.1979795686836
 20
121.8372174853179
 10
46.196405313966
 20
121.8445520720299
 10
46.1949526269359
 20
121.8518990283899
 10
46.1941412849818
 20
121.8563012592209
  0
LWPOLYLINE
  5
A79
330
1E
100
AcDbEntity
  8
1
100
AcDbPolyline
 90
       77
 70
     0
 43
0.0
 10
61.60000000000001
 20
112.2362941656999
 10
61.59986997496648
 20
112.2545295162499
 10
61.59948354323329
 20
112.2727632204309
 10
61.59884616985092
 20
112.2909931035809
 10
61.59796331987038
 20
112.3092169910379
 10
61.59684045834229
 20
112.3274327081409
 10
61.59548305031758
 20
112.3456380802269
 10
61.59389656084679
 20
112.3638309326349
 10
61.5920864549809
 20
112.3820090907029
 10
61.5896993294779
 20
112.4031954685419
 10
61.58702395405422
 20
112.4243554325119
 10
61.58406900700819
 20
112.4454855293299
 10
61.58084316663802
 20
112.4665823057159
 10
61.57735511124172
 20
112.4876423083839
 10
61.5736135191177
 20
112.508662084055
 10
61.56903809320781
 20
112.5326309974048
 10
61.56415580640064
 20
112.5565377042049
 10
61.5589796128905
 20
112.5803770497009
 10
61.55282117506089
 20
112.6071094053049
 10
61.54632197759162
 20
112.6337452275989
 10
61.53949056412539
 20
112.6602842381799
 10
61.53233482611341
 20
112.6867266237689
 10
61.5248626550071
 20
112.7130725710898
 10
61.51619871563159
 20
112.7422329663839
 10
61.50716468568378
 20
112.7712747887449
 10
61.49777139020002
 20
112.800198294305
 10
61.48802965421642
 20
112.8290037392009
 10
61.47692421553783
 20
112.8605536742159
 10
61.46542467027153
 20
112.891961406667
 10
61.45354542654072
 20
112.9232272774679
 10
61.4401701358081
 20
112.9571741079159
 10
61.42637677911412
 20
112.9909526815789
 10
61.41217596510561
 20
113.024562340768
 10
61.39634295570889
 20
113.060781250947
 10
61.38005496023613
 20
113.0967999424489
 10
61.36332404807202
 20
113.132617386312
 10
61.3448246536062
 20
113.1709637739969
 10
61.32584065261102
 20
113.209074283551
 10
61.30638711945671
 20
113.246947629825
 10
61.28504013747871
 20
113.2872615764018
 10
61.26318930390322
 20
113.3273002575069
 10
61.23934018421778
 20
113.3697034524419
 10
61.21494348074739
 20
113.4117908829827
 10
61.19001086807392
 20
113.4535613219769
 10
61.1629458280927
 20
113.4975937121769
 10
61.13530297959852
 20
113.541265391379
 10
61.1070963258189
 20
113.584574887663
 10
61.0766314590082
 20
113.6300355855729
 10
61.04556402906641
 20
113.6750856955417
 10
61.01390311202578
 20
113.7197203838819
 10
60.9816573021509
 20
113.7639346198729
 10
60.94699501825461
 20
113.8101435046318
 10
60.91170073160579
 20
113.8558724005809
 10
60.87578454989628
 20
113.9011153910989
 10
60.8373170406876
 20
113.948207924906
 10
60.79817919862062
 20
113.9947449600779
 10
60.75837605104378
 20
114.0407137883879
 10
60.71791255847323
 20
114.0861016442078
 10
60.67679368142512
 20
114.1308957619139
 10
60.63502438041551
 20
114.1750833758789
 10
60.5926095945693
 20
114.2186516938759
 10
60.54955203722131
 20
114.261585155928
 10
60.505850281344
 20
114.3038630535539
 10
60.46373521366952
 20
114.343400467194
 10
60.42103545139568
 20
114.3823088022208
 10
60.38004224133064
 20
114.4185725179039
 10
60.33852144930562
 20
114.4542397587829
 10
60.2988217079222
 20
114.487363655394
 10
60.25864917826178
 20
114.5199225443128
 10
60.22040715224862
 20
114.5500268050299
 10
60.1841737025294
 20
114.5777545076289
 10
60.14757047319473
 20
114.6049845867489
 10
60.1105969385668
 20
114.6316988949239
 10
60.07575374484472
 20
114.656150900007
 10
60.0405870887485
 20
114.6801230482619
 10
60.00764233222739
 20
114.701940335693
 10
60.00000839000001
 20
114.7069078408859
  0
LWPOLYLINE
  5
AC8
330
1E
100
AcDbEntity
  8
1
100
AcDbPolyline
 90
       11
 70
     0
 43
0.0
 10
58.0662517628
 20
-9.509958365200027
 10
57.9608768556878
 20
-9.525576816212042
 10
57.855645031903
 20
-9.542276210385015
 10
57.7515653871815
 20
-9.559887766847003
 10
57.64766262930709
 20
-9.578567934629012
 10
57.54395491704521
 20
-9.598320678404043
 10
57.44144500872478
 20
-9.618946498744042
 10
57.3391619079533
 20
-9.640632304335046
 10
57.23810318075621
 20
-9.663158123488022
 10
57.13730136833039
 20
-9.686731162717027
 10
57.0796925887436
 20
-9.700704962647026
  0
LWPOLYLINE
  5
AD5
330
1E
100
AcDbEntity
  8
1
100
AcDbPolyline
 90
       16
 70
     0
 43
0.0
 10
57.0796828777
 20
-9.700707349200007
 10
56.9793802563695
 20
-9.725919167922032
 10
56.8807393006161
 20
-9.751821750379015
 10
56.7823624629942
 20
-9.778768511440038
 10
56.68566719463729
 20
-9.80635741540903
 10
56.5892636142412
 20
-9.834971151622033
 10
56.4931691267628
 20
-9.864614820228046
 10
56.3987866651368
 20
-9.894841486877004
 10
56.3047379653907
 20
-9.926078284128042
 10
56.21103968665849
 20
-9.958330093581999
 10
56.1190782664048
 20
-9.991105094749007
 10
56.0274890141504
 20
-10.02487564739003
 10
55.93764535685821
 20
-10.05912471692101
 10
55.84819175940427
 20
-10.094359285101
 10
55.7604886098552
 20
-10.13003320715001
 10
55.69733367987989
 20
-10.15643152908199
  0
LWPOLYLINE
  5
AE7
330
1E
100
AcDbEntity
  8
1
100
AcDbPolyline
 90
       15
 70
     0
 43
0.0
 10
55.69732446919999
 20
-10.1564354231
 10
55.612421496775
 20
-10.19288441824498
 10
55.5289819673836
 20
-10.229805791582
 10
55.4470026636698
 20
-10.26717407017802
 10
55.36543659752361
 20
-10.305460194591
 10
55.28533322319161
 20
-10.34416494633201
 10
55.2066944581522
 20
-10.38326410428402
 10
55.12952944359978
 20
-10.42273563845099
 10
55.053846032093
 20
-10.46255710593702
 10
54.97965028499289
 20
-10.50270551003301
 10
54.9069465403753
 20
-10.54315733457201
 10
54.83573748002561
 20
-10.583888577816
 10
54.76602419551618
 20
-10.62487478587502
 10
54.697806253366
 20
-10.66609108566898
 10
54.67027816903931
 20
-10.683044580981
  0
LWPOLYLINE
  5
AF8
330
1E
100
AcDbEntity
  8
1
100
AcDbPolyline
 90
       22
 70
     0
 43
0.0
 10
60.0
 20
114.7069132821998
 10
59.2145454485474
 20
115.2095432344419
 10
58.45894206892431
 20
115.6802326227968
 10
57.72186283922261
 20
116.1271808557669
 10
57.00382086367172
 20
116.5509375294459
 10
56.30531498050149
 20
116.9520837096819
 10
55.61445252044071
 20
117.338046909517
 10
54.94392203537172
 20
117.7023360440509
 10
54.29418199285859
 20
118.0455639194416
 10
53.65306848820761
 20
118.3747448171438
 10
53.0334751228823
 20
118.6838601682799
 10
52.4230732064541
 20
118.9796722082869
 10
51.82206506884611
 20
119.2624319342519
 10
51.23065117295161
 20
119.5324028671969
 10
50.66201010618411
 20
119.7841889915659
 10
50.10355002952589
 20
120.023977556116
 10
49.5554938308716
 20
120.2520294677629
 10
49.01805529162952
 20
120.4686195497619
 10
48.49143936364221
 20
120.674035131077
 10
47.9758424395145
 20
120.8685746693349
 10
47.47145261634742
 20
121.0525464073699
 10
47.4182537669106
 20
121.0715830513318
  0
LWPOLYLINE
  5
B10
330
1E
100
AcDbEntity
  8
1
100
AcDbPolyline
 90
       10
 70
     0
 43
0.0
 10
58.065482654
 20
123.0837207680999
 10
58.03898169954242
 20
123.102928950702
 10
58.01357028269849
 20
123.1208618519049
 10
57.98889805285353
 20
123.1378175167189
 10
57.96499035158291
 20
123.1538189643209
 10
57.94187143307381
 20
123.1688906225379
 10
57.91936633799052
 20
123.183182241177
 10
57.89729343487791
 20
123.196835079817
 10
57.87566585911551
 20
123.2098623030987
 10
57.87064685941922
 20
123.2128358944589
  0
LWPOLYLINE
  5
B1C
330
1E
100
AcDbEntity
  8
1
100
AcDbPolyline
 90
       16
 70
     0
 43
0.0
 10
57.87063824899999
 20
123.2128409797999
 10
57.84925822423692
 20
123.2252986741789
 10
57.82826291127522
 20
123.2372027445239
 10
57.80766325152781
 20
123.2485654124316
 10
57.78746988381989
 20
123.2593993787489
 10
57.76769314635751
 20
123.2697177629079
 10
57.74806973708489
 20
123.2796707321998
 10
57.72888018080791
 20
123.2891290848489
 10
57.7098591582066
 20
123.2982370286489
 10
57.69129086532071
 20
123.3068719536799
 10
57.67290635021211
 20
123.3151724056529
 10
57.65471137356779
 20
123.3231436328719
 10
57.6367114914494
 20
123.3307911091669
 10
57.6191952102356
 20
123.3380057374799
 10
57.60188696395079
 20
123.3449144537636
 10
57.59649029944999
 20
123.3470238095449
  0
LWPOLYLINE
  5
B2E
330
1E
100
AcDbEntity
  8
1
100
AcDbPolyline
 90
       11
 70
     0
 43
0.0
 10
57.59648097940001
 20
123.3470274339999
 10
57.57937666155338
 20
123.3535719306239
 10
57.56250739875492
 20
123.3598167173439
 10
57.54587956299181
 20
123.3657682497129
 10
57.52949919070792
 20
123.3714331822919
 10
57.51337199494882
 20
123.3768183510179
 10
57.49734599869238
 20
123.381980531529
 10
57.48158268536662
 20
123.3868737632209
 10
57.46608695299471
 20
123.3915053449409
 10
57.45070461617912
 20
123.3959274530199
 10
57.43990516840129
 20
123.3989272747389
  0
LWPOLYLINE
  5
B3B
330
1E
100
AcDbEntity
  8
1
100
AcDbPolyline
 90
        4
 70
     0
 43
0.0
 10
61.6
 20
-37.41112812020004
 10
58.69608145235121
 20
-32.611073757349
 10
55.7828948170452
 20
-27.66591993636104
 10
53.38164598374289
 20
-23.48906472287405
  0
LWPOLYLINE
  5
B41
330
1E
100
AcDbEntity
  8
1
100
AcDbPolyline
 90
        2
 70
     0
 43
0.0
 10
57.4398955233
 20
123.3989299151999
 10
57.36219092448203
 20
123.4007243794918
  0
LWPOLYLINE
  5
B45
330
1E
100
AcDbEntity
  8
1
100
AcDbPolyline
 90
       87
 70
     0
 43
0.0
 10
61.1236641186
 20
-1.252302535100005
 10
61.1396753812788
 20
-1.257012954637052
 10
61.15621865784389
 20
-1.26206867096102
 10
61.1727327829735
 20
-1.267306587003027
 10
61.18975739545239
 20
-1.272906463429029
 10
61.20673175275161
 20
-1.27869261525405
 10
61.224190651133
 20
-1.284856345206043
 10
61.2421168902501
 20
-1.29141099319401
 10
61.26049098247181
 20
-1.298369559169039
 10
61.27929099136441
 20
-1.305744633263038
 10
61.2984923652802
 20
-1.313548323807997
 10
61.3180677660501
 20
-1.321792183244049
 10
61.33798689278339
 20
-1.330487131905049
 10
61.3582163007718
 20
-1.339643379690022
 10
61.3777006699788
 20
-1.348784789262031
 10
61.39292158547231
 20
-1.356178177953045
 10
61.40499994993479
 20
-1.36223916672305
 10
61.4154995992496
 20
-1.367670527267029
 10
61.4249457809705
 20
-1.372702194839014
 10
61.4333559269876
 20
-1.377309396220034
 10
61.4412364687881
 20
-1.381744596572054
 10
61.4485946339527
 20
-1.38599651259205
 10
61.4554369220915
 20
-1.390052466599008
 10
61.46225541867671
 20
-1.394197976366007
 10
61.4685661466005
 20
-1.39813189916402
 10
61.4748574446931
 20
-1.402151282157041
 10
61.4806480028669
 20
-1.405940765663053
 10
61.48642286091989
 20
-1.409809569255008
 10
61.49170303938699
 20
-1.413428318530016
 10
61.496970686721
 20
-1.417118745065014
 10
61.50222611921011
 20
-1.420883252767005
 10
61.50699345159839
 20
-1.424371840631016
 10
61.5117511881005
 20
-1.427925445394016
 10
61.51649956634849
 20
-1.431545873148029
 10
61.52123882397429
 20
-1.435234929985034
 10
61.52596919860989
 20
-1.438994421996033
 10
61.53021913722788
 20
-1.442439679616034
 10
61.53446224633938
 20
-1.445944769303995
 10
61.538698699178
 20
-1.449511007699021
 10
61.54292606369168
 20
-1.453139644633045
 10
61.5471303906891
 20
-1.456831634580004
 10
61.55129454947839
 20
-1.460587850428004
 10
61.55540140926111
 20
-1.464409165063051
 10
61.5585450531909
 20
-1.467426864010014
 10
61.56119765880809
 20
-1.47004553856204
 10
61.56380618696228
 20
-1.472694094227001
 10
61.56636556186128
 20
-1.475372789638021
 10
61.56845716471838
 20
-1.477628245822024
 10
61.57050817113521
 20
-1.479904961661024
 10
61.5725156437319
 20
-1.482203086829036
 10
61.5744766451289
 20
-1.484522770996028
 10
61.5760100130635
 20
-1.486394141389046
 10
61.5775102555689
 20
-1.48827948196402
 10
61.5789758687066
 20
-1.490178869352013
 10
61.58040534853821
 20
-1.492092380185004
 10
61.5817971911253
 20
-1.49402009109503
 10
61.58314989252961
 20
-1.495962078714005
 10
61.5844619488125
 20
-1.497918419674028
 10
61.58573185603561
 20
-1.499889190606046
 10
61.5869581102607
 20
-1.501874468143006
 10
61.58813920754919
 20
-1.503874328916999
 10
61.58899449156299
 20
-1.50538384084405
 10
61.58982289436071
 20
-1.50690163127701
 10
61.5906237814681
 20
-1.508427732544028
 10
61.5913965184113
 20
-1.509962176974004
 10
61.59214047071628
 20
-1.511504996896013
 10
61.59285500390911
 20
-1.513056224639005
 10
61.5935394835155
 20
-1.514615892531998
 10
61.59419327506171
 20
-1.516184032905023
 10
61.5948157440736
 20
-1.517760678087036
 10
61.5954062560772
 20
-1.519345860405003
 10
61.59596417659838
 20
-1.520939612191004
 10
61.5964888711633
 20
-1.522541965771044
 10
61.59697970529778
 20
-1.524152953477033
 10
61.59743604452789
 20
-1.525772607636048
 10
61.5978572543797
 20
-1.527400960579035
 10
61.598242700379
 20
-1.529038044633017
 10
61.5985917480518
 20
-1.53068389212803
 10
61.5989037629242
 20
-1.53233853539303
 10
61.5991781105221
 20
-1.534002006757025
 10
61.59941415637149
 20
-1.535674338549034
 10
61.59961126599849
 20
-1.537355563099032
 10
61.59976880492889
 20
-1.53904571273501
 10
61.59988613868871
 20
-1.540744819786033
 10
61.59996263280401
 20
-1.542452916582026
 10
61.59999765280068
 20
-1.544170035451037
 10
61.5999999992886
 20
-1.544734419052026
  0
LWPOLYLINE
  5
B9E
330
1E
100
AcDbEntity
  8
1
100
AcDbPolyline
 90
      145
 70
     0
 43
0.0
 10
47.4182443496
 20
-24.11583427860001
 10
47.34400654482178
 20
-23.980292085078
 10
47.27181681950489
 20
-23.84357709547298
 10
47.2103507491203
 20
-23.72301822518103
 10
47.15048903137989
 20
-23.60161403314003
 10
47.0922486024602
 20
-23.47938906613301
 10
47.03564639853738
 20
-23.35636787094501
 10
46.9806993557881
 20
-23.23257499435901
 10
46.92742441038869
 20
-23.10803498316102
 10
46.8758384985155
 20
-22.98277238413298
 10
46.82595855634509
 20
-22.85681174406102
 10
46.7778015200538
 20
-22.73017760972801
 10
46.731384325818
 20
-22.60289452791802
 10
46.6867239098142
 20
-22.47498704541602
 10
46.64383720821878
 20
-22.34647970900601
 10
46.6027403479295
 20
-22.21739704974602
 10
46.56344462297439
 20
-22.08776350479105
 10
46.52595954101188
 20
-21.95760347658
 10
46.49029460683521
 20
-21.82694136750198
 10
46.45645932523779
 20
-21.69580157994203
 10
46.42446320101279
 20
-21.56420851628604
 10
46.39431573895371
 20
-21.43218657892203
 10
46.36602644385368
 20
-21.29976017023501
 10
46.3396048205061
 20
-21.16695369261202
 10
46.31506037370439
 20
-21.03379154843902
 10
46.2924026082417
 20
-20.90029814010198
 10
46.27449051554728
 20
-20.78563005687403
 10
46.2579775247209
 20
-20.67075189127803
 10
46.2428696212883
 20
-20.55567901041303
 10
46.22917279077539
 20
-20.440426781381
 10
46.21689243977439
 20
-20.32501095070803
 10
46.20603125218109
 20
-20.20944904934002
 10
46.196591112208
 20
-20.09375913232601
 10
46.1885739039606
 20
-19.97795925478602
 10
46.1819815115447
 20
-19.86206747183803
 10
46.17681581906569
 20
-19.74610183860205
 10
46.17307871062929
 20
-19.63008041019597
 10
46.17077207034099
 20
-19.51402124174103
 10
46.16989778230641
 20
-19.39794238835402
 10
46.1704577306312
 20
-19.28186190515599
 10
46.17245379942079
 20
-19.16579784726399
 10
46.1758878727809
 20
-19.04976826979902
 10
46.18076183481711
 20
-18.93379122788003
 10
46.18707756963489
 20
-18.81788477662398
 10
46.19483696134
 20
-18.70206697115305
 10
46.20404189403789
 20
-18.58635586658404
 10
46.21469407862877
 20
-18.47076950961303
 10
46.2267924623429
 20
-18.35532581253603
 10
46.2403337733794
 20
-18.24004257973301
 10
46.25531467730771
 20
-18.12493761253904
 10
46.27173183969699
 20
-18.01002871228901
 10
46.28958192611667
 20
-17.89533368031704
 10
46.30886160213609
 20
-17.78087031795803
 10
46.32956753332439
 20
-17.66665642654704
 10
46.35169638525098
 20
-17.55270980741901
 10
46.37524482348529
 20
-17.43904826190902
 10
46.4002095135964
 20
-17.32568959134999
 10
46.42658712115371
 20
-17.212651597079
 10
46.45437431172658
 20
-17.09995208043
 10
46.48356775088418
 20
-16.98760884273701
 10
46.51416410419599
 20
-16.87563968533504
 10
46.5461600372313
 20
-16.76406240956004
 10
46.5795521107521
 20
-16.65289478123401
 10
46.62026630015629
 20
-16.523739578262
 10
46.66286034572419
 20
-16.39519085251702
 10
46.7073214736279
 20
-16.26727433777403
 10
46.7536369100395
 20
-16.14001576780703
 10
46.8017938811311
 20
-16.01344087639001
 10
46.85177961307489
 20
-15.88757539729702
 10
46.9035813320429
 20
-15.76244506430201
 10
46.95718626420728
 20
-15.63807561117902
 10
47.0125816357402
 20
-15.51449277170303
 10
47.06975467281369
 20
-15.39172227964701
 10
47.12869260159989
 20
-15.26978986878503
 10
47.18938264827101
 20
-15.14872127289202
 10
47.251812038999
 20
-15.02854222574103
 10
47.3159679408724
 20
-14.90927840869401
 10
47.381835196816
 20
-14.79095344133003
 10
47.4493956147035
 20
-14.67358825081503
 10
47.51863079796559
 20
-14.55720358295502
 10
47.58952235003301
 20
-14.44182018355201
 10
47.66205187433629
 20
-14.32745879841101
 10
47.73620097430639
 20
-14.21414017333602
 10
47.81195125337389
 20
-14.101885054131
 10
47.90046002924809
 20
-13.97492235410402
 10
47.99100865214611
 20
-13.84940678702599
 10
48.08356966129951
 20
-13.72536932039502
 10
48.1781155959404
 20
-13.60284092170801
 10
48.2746189953004
 20
-13.48185255846201
 10
48.373052397927
 20
-13.36243519675599
 10
48.47338744103129
 20
-13.24461795861503
 10
48.5755930858148
 20
-13.12842449114002
 10
48.6796377991482
 20
-13.01387743006301
 10
48.7854900479021
 20
-12.90099941111702
 10
48.906695134991
 20
-12.77603485086802
 10
49.0301030772229
 20
-12.65324354981101
 10
49.1556689768412
 20
-12.53265773733903
 10
49.26905843243609
 20
-12.427347924429
 10
49.38408593288071
 20
-12.32382882071703
 10
49.5007199450457
 20
-12.22212306193699
 10
49.6189289358015
 20
-12.12225328382201
 10
49.7386813685044
 20
-12.02424211111599
 10
49.8599450451252
 20
-11.92811010032799
 10
49.9826863311077
 20
-11.83387331577103
 10
50.106871403445
 20
-11.74154723245202
 10
50.23246643913021
 20
-11.65114732537402
 10
50.35943761515639
 20
-11.56268906954298
 10
50.48775110851661
 20
-11.47618793996301
 10
50.61737309620379
 20
-11.39165941163801
 10
50.74826975521109
 20
-11.30911895957501
 10
50.88040726253151
 20
-11.22858205877703
 10
51.01375179515819
 20
-11.150064184249
 10
51.1482695300841
 20
-11.07358081099601
 10
51.28392664430229
 20
-10.99914741402302
 10
51.4035347272962
 20
-10.93571180756501
 10
51.52396740029029
 20
-10.87386519296803
 10
51.64520328226618
 20
-10.81361360604903
 10
51.76722100433881
 20
-10.75496304149296
 10
51.889999197623
 20
-10.69791949399002
 10
52.01351649323381
 20
-10.64248895822504
 10
52.13775152228599
 20
-10.58867742888701
 10
52.2626829158946
 20
-10.536490900663
 10
52.3882893051746
 20
-10.48593536823901
 10
52.51454932124071
 20
-10.43701682630501
 10
52.64144159520791
 20
-10.389741269546
 10
52.7689447581913
 20
-10.34411469265001
 10
52.8970374413056
 20
-10.300143090305
 10
53.0256982756657
 20
-10.25783245719799
 10
53.1549058923867
 20
-10.217188788016
 10
53.28463846664829
 20
-10.17821777903201
 10
53.41487116449211
 20
-10.14092315701002
 10
53.5455779324454
 20
-10.105307850527
 10
53.67673271356618
 20
-10.07137478589003
 10
53.8083094509126
 20
-10.039126889406
 10
53.9402820875428
 20
-10.00856708738399
 10
54.0726245665147
 20
-9.979698306131016
 10
54.20531083088651
 20
-9.95252347195305
 10
54.3383148237163
 20
-9.927045511159015
 10
54.4716104880621
 20
-9.903267350056019
 10
54.6051717669821
 20
-9.881191914951042
 10
54.73897260353432
 20
-9.860822132152014
 10
54.8729869407769
 20
-9.842160927966011
 10
55.00718872176779
 20
-9.825211228700032
 10
55.14155188956531
 20
-9.809975960663003
 10
55.1607483376814
 20
-9.807940663289008
  0
LWPOLYLINE
  5
C31
330
1E
100
AcDbEntity
  8
1
100
AcDbPolyline
 90
       26
 70
     0
 43
0.0
 10
57.1778735831
 20
123.4098579090999
 10
57.17871974983552
 20
123.4103387388578
 10
57.17959138956128
 20
123.410768739214
 10
57.18047343887828
 20
123.4111693728249
 10
57.18136544607499
 20
123.4115418171779
 10
57.1822669594399
 20
123.4118872497609
 10
57.18317752726171
 20
123.4122068480627
 10
57.18409669782882
 20
123.4125017895689
 10
57.1850240194299
 20
123.4127732517689
 10
57.1859590403534
 20
123.4130224121489
 10
57.18690130888791
 20
123.4132504481979
 10
57.18832731284152
 20
123.4135554699029
 10
57.189767083043
 20
123.4138195852289
 10
57.19121909496621
 20
123.414046768199
 10
57.19268182408502
 20
123.4142409928309
 10
57.19415374587331
 20
123.4144062331476
 10
57.19563333580492
 20
123.4145464631689
 10
57.19761541561982
 20
123.4147014003049
 10
57.20010286919811
 20
123.4148568316699
 10
57.21697012311089
 20
123.4156776333719
 10
57.2341390048999
 20
123.4164546269007
 10
57.25986388827799
 20
123.4175131184819
 10
57.30659849675269
 20
123.419079543247
 10
57.36229342665722
 20
123.4203492269599
 10
57.51868959907072
 20
123.422105946336
 10
57.66354146472299
 20
123.4226333079019
  0
LWPOLYLINE
  5
C4D
330
1E
100
AcDbEntity
  8
1
100
AcDbPolyline
 90
        2
 70
     0
 43
0.0
 10
57.66355146470003
 20
123.422633287
 10
57.76340093584678
 20
123.4224139453796
  0
LWPOLYLINE
  5
C51
330
1E
100
AcDbEntity
  8
1
100
AcDbPolyline
 90
        2
 70
     0
 43
0.0
 10
57.76341093580001
 20
123.4224139147999
 10
57.86462492097443
 20
123.4218607904359
  0
LWPOLYLINE
  5
C55
330
1E
100
AcDbEntity
  8
1
100
AcDbPolyline
 90
       85
 70
     0
 43
0.0
 10
61.6
 20
-47.43876865970004
 10
61.59991943635649
 20
-47.44410582859304
 10
61.59967694445439
 20
-47.44958943496299
 10
61.59927132283609
 20
-47.45519270028103
 10
61.59870137004418
 20
-47.46088884601801
 10
61.59796588462119
 20
-47.46665109364704
 10
61.59706366510961
 20
-47.47245266463904
 10
61.595993510052
 20
-47.478266780466
 10
61.59475421799068
 20
-47.48406666259906
 10
61.59334458746839
 20
-47.48982553250999
 10
61.5917634170276
 20
-47.49551661167003
 10
61.59000950521079
 20
-47.501113121552
 10
61.58808165056039
 20
-47.506588283626
 10
61.58597865161897
 20
-47.51191531936499
 10
61.5836993069292
 20
-47.51706745024002
 10
61.5812424150333
 20
-47.52201789772299
 10
61.57860677447409
 20
-47.52673988328502
 10
61.57579118379378
 20
-47.53120662839802
 10
61.57279444153509
 20
-47.53539135453304
 10
61.56961534624048
 20
-47.53926728316304
 10
61.5662526964525
 20
-47.54280763575803
 10
61.56270529071361
 20
-47.54598563379203
 10
61.55897192756628
 20
-47.54877449873403
 10
61.5550514055532
 20
-47.55114745205704
 10
61.55094419668149
 20
-47.55308341432403
 10
61.54665969332589
 20
-47.554591684986
 10
61.54221024821071
 20
-47.55569164515399
 10
61.53760821601077
 20
-47.55640268258303
 10
61.53286595140099
 20
-47.55674418502603
 10
61.52799580905631
 20
-47.55673554023901
 10
61.52301014365161
 20
-47.55639613597399
 10
61.5179213098616
 20
-47.55574535998801
 10
61.51274166236131
 20
-47.55480260003303
 10
61.5074835558256
 20
-47.55358724386502
 10
61.50215934492928
 20
-47.55211867923703
 10
61.49678138434719
 20
-47.550416293904
 10
61.49136202875439
 20
-47.54849947562003
 10
61.48591363282559
 20
-47.54638761213999
 10
61.48044855123578
 20
-47.54410009121706
 10
61.47497913865979
 20
-47.54165630060703
 10
61.46951774977249
 20
-47.53907562806301
 10
61.46407673924867
 20
-47.53637746134002
 10
61.45598045874609
 20
-47.53215232038104
 10
61.44799952460758
 20
-47.527771873638
 10
61.4401755695634
 20
-47.52330146975402
 10
61.43253634650577
 20
-47.51878810315004
 10
61.4250785175195
 20
-47.51423765481399
 10
61.417794518761
 20
-47.50965041751203
 10
61.41067678638689
 20
-47.50502668400804
 10
61.40371775655388
 20
-47.50036674706804
 10
61.39690986541861
 20
-47.49567089945703
 10
61.3902455491377
 20
-47.49093943394
 10
61.38371724386781
 20
-47.48617264328204
 10
61.37731738576549
 20
-47.48137082024801
 10
61.36897097502499
 20
-47.47491440074401
 10
61.36082153886179
 20
-47.46839691589401
 10
61.35285114816599
 20
-47.46181905965904
 10
61.34504187382719
 20
-47.455181526003
 10
61.33547953690199
 20
-47.44680174476603
 10
61.32610591225681
 20
-47.43833115726499
 10
61.3150573578391
 20
-47.42804849639401
 10
61.29876713406748
 20
-47.41238811113204
 10
61.28263450748139
 20
-47.39645107948804
 10
61.2646800348545
 20
-47.37842995492804
 10
61.24665557332459
 20
-47.36009990810203
 10
61.2267779982957
 20
-47.33960935142301
 10
61.20507134882227
 20
-47.316901984816
 10
61.1797748334883
 20
-47.28999826060799
 10
61.1491938707477
 20
-47.256825988772
 10
61.10826753989687
 20
-47.21127025036805
 10
61.07851219401322
 20
-47.17725759359303
 10
61.04926164280867
 20
-47.143053245479
 10
61.0171202307686
 20
-47.104612654702
 10
60.98218962474859
 20
-47.06187125556703
 10
60.93966872243228
 20
-47.00859358730201
 10
60.88180414361018
 20
-46.93419129381704
 10
60.79793457558559
 20
-46.82339449978003
 10
60.70449798723711
 20
-46.696382421372
 10
60.61421009979721
 20
-46.570159896184
 10
60.52252969810701
 20
-46.43858176958502
 10
60.42069672134728
 20
-46.28859474288502
 10
60.3033383999231
 20
-46.11110492545702
 10
60.17531225307639
 20
-45.91228703263403
 10
60.04410274177878
 20
-45.70300939430103
 10
60.0000052286161
 20
-45.631429116376
  0
LWPOLYLINE
  5
CAC
330
1E
100
AcDbEntity
  8
1
100
AcDbPolyline
 90
        2
 70
     0
 43
0.0
 10
55.16075828289999
 20
123.0597693011
 10
58.06547265432921
 20
123.0837206869568
  0
LWPOLYLINE
  5
CB0
330
1E
100
AcDbEntity
  8
1
100
AcDbPolyline
 90
       12
 70
     0
 43
0.0
 10
54.73576744729999
 20
-11.30621959580003
 10
55.3487890630712
 20
-10.96308506400702
 10
55.60300442755512
 20
-10.82534024806999
 10
55.8206537321357
 20
-10.710641299889
 10
56.0147796760685
 20
-10.61116585043702
 10
56.1941548114953
 20
-10.52183389507501
 10
56.3631324013197
 20
-10.44007385069201
 10
56.52613575914228
 20
-10.36346456242603
 10
56.68306133983939
 20
-10.29185725688803
 10
56.83380886937531
 20
-10.22509272216501
 10
56.9806171742585
 20
-10.16201510359501
 10
56.99462574206339
 20
-10.15609759670603
  0
LWPOLYLINE
  5
CBE
330
1E
100
AcDbEntity
  8
1
100
AcDbPolyline
 90
        2
 70
     0
 43
0.0
 10
57.86463492060001
 20
123.4218607038998
 10
57.9737566416965
 20
123.4228411612509
  0
LWPOLYLINE
  5
CC2
330
1E
100
AcDbEntity
  8
1
100
AcDbPolyline
 90
        5
 70
     0
 43
0.0
 10
60.0
 20
-45.63142059220002
 10
56.46353098045938
 20
-39.78862175528401
 10
52.91978075284021
 20
-33.77596660997705
 10
49.38411943210851
 20
-27.61442873730505
 10
47.41824922010649
 20
-24.11584301233697
  0
LWPOLYLINE
  5
CC9
330
1E
100
AcDbEntity
  8
1
100
AcDbPolyline
 90
       66
 70
     0
 43
0.0
 10
46.1941395203
 20
121.8563111022999
 10
46.19125468605811
 20
121.8747964148999
 10
46.18918154987509
 20
121.8935841314749
 10
46.18795035211749
 20
121.9125711951899
 10
46.18759133315228
 20
121.9316545492119
 10
46.18813473334602
 20
121.950731136704
 10
46.18961079306551
 20
121.9696979008308
 10
46.19204975267749
 20
121.98845178476
 10
46.19548185254871
 20
122.0068897316529
 10
46.19993733304602
 20
122.0249086846769
 10
46.20544643453601
 20
122.0424055869969
 10
46.21203722420772
 20
122.0592808163679
 10
46.2196972248041
 20
122.0754988288869
 10
46.22837805392817
 20
122.0910808268089
 10
46.23803008816381
 20
122.1060499737569
 10
46.24860370409479
 20
122.1204294333509
 10
46.26004927830511
 20
122.134242369214
 10
46.27231718737852
 20
122.147511944965
 10
46.2853578078989
 20
122.1602613242279
 10
46.29912151645002
 20
122.1725136706239
 10
46.31355868961581
 20
122.1842921477739
 10
46.32861970398018
 20
122.1956199192989
 10
46.34425493612678
 20
122.2065201488209
 10
46.36041476263971
 20
122.2170159999619
 10
46.3770495601026
 20
122.227130636342
 10
46.39410970509951
 20
122.2368872215839
 10
46.42038889799798
 20
122.2509014239839
 10
46.44734599113188
 20
122.2642403066919
 10
46.47481350547179
 20
122.2769820469329
 10
46.50262396198811
 20
122.2892048219259
 10
46.53994856635679
 20
122.3048296971046
 10
46.5771926020673
 20
122.3198544430029
 10
46.6233274892084
 20
122.3379531558039
 10
46.66901589350529
 20
122.3553304815059
 10
46.71430208296071
 20
122.3720165822459
 10
46.75923032557729
 20
122.3880416201619
 10
46.80384488935778
 20
122.4034357573879
 10
46.84819004230512
 20
122.4182291560609
 10
46.90111093288964
 20
122.4352307278659
 10
46.95378411290671
 20
122.4514627898029
 10
47.00628607746527
 20
122.466977462042
 10
47.0674240246367
 20
122.4842407458989
 10
47.12855451828679
 20
122.5006812889126
 10
47.1985646362101
 20
122.5185692138839
 10
47.2777297931914
 20
122.5376916878099
 10
47.3664489674531
 20
122.5578820677899
 10
47.46497385245368
 20
122.5789183231539
 10
47.57344167374792
 20
122.6005506818629
 10
47.68279479462552
 20
122.6209039324419
 10
47.80208827880019
 20
122.6416224704019
 10
47.9405646178094
 20
122.6639659927339
 10
48.09823053493849
 20
122.6874941333849
 10
48.28415892801431
 20
122.7130936142929
 10
48.50704168097461
 20
122.741420294563
 10
48.75712785490971
 20
122.7706230019049
 10
49.0252069330384
 20
122.7991340329659
 10
49.32995097092701
 20
122.8283763453469
 10
49.6902343338534
 20
122.8591577340349
 10
50.12533405490142
 20
122.8917479213126
 10
50.61703392364162
 20
122.9233975463668
 10
51.21156094778181
 20
122.9555139257879
 10
51.954794296957
 20
122.9881438174849
 10
52.82798731326221
 20
123.0175896076799
 10
53.89659689432839
 20
123.0428328127179
 10
55.13287197844822
 20
123.0595327795559
 10
55.16074828325081
 20
123.059769217334
  0
DIMENSION
  5
D22
330
1E
100
AcDbEntity
  8
2
100
AcDbDimension
  2
*D0
 10
73.53856680723834
 20
115.0
 30
0.0
 11
71.16356680723832
 21
120.0
 31
0.0
 70
    32
 71
     5
 42
10.0
  3
ISO-25
100
AcDbAlignedDimension
 13
62.21809842389848
 23
125.0
 33
0.0
 14
63.50000000000001
 24
115.0
 34
0.0
 50
270.0
100
AcDbRotatedDimension
  0
DIMENSION
  5
D97
330
1E
100
AcDbEntity
  8
SK2
100
AcDbDimension
  2
*D5
 10
-25.87122676663767
 20
50.80000000000001
 30
0.0
 11
-25.87122676663768
 21
-0.9033696839325639
 31
0.0
 70
   160
  1
%%c<>
 71
     5
 42
101.6
  3
ISO-25
100
AcDbAlignedDimension
 13
-3.952356856195283
 23
-50.80000000000001
 33
0.0
 14
-3.952356856195271
 24
50.80000000000001
 34
0.0
 50
270.0
100
AcDbRotatedDimension
  0
LINE
  5
D98
330
1E
100
AcDbEntity
  8
SK4
100
AcDbLine
 10
36.17016982152238
 20
-50.80000000000001
 30
0.0
 11
-3.952356856195283
 21
-50.80000000000001
 31
0.0
  0
LINE
  5
D99
330
1E
100
AcDbEntity
  8
SK4
100
AcDbLine
 10
35.18629295945528
 20
50.8
 30
0.0
 11
-3.952356856195271
 21
50.80000000000001
 31
0.0
  0
TEXT
  5
331D
330
1E
100
AcDbEntity
  8
6
100
AcDbText
 10
117.3353772179643
 20
-139.6366347805554
 30
0.0
 40
5.0
  1
6F2B250R00
100
AcDbText
  0
TEXT
  5
3382
330
1E
100
AcDbEntity
  8
6
100
AcDbText
 10
119.6922446622761
 20
-0.6319819853399622
 30
0.0
 40
3.5
  1
Z=12
 50
90.0
100
AcDbText
  0
TEXT
  5
3383
330
1E
100
AcDbEntity
  8
6
100
AcDbText
 10
110.2997875946182
 20
120.796038595003
 30
0.0
 40
2.5
  1
YDA323L101
100
AcDbText
  0
SPLINE
  5
33FD
330
1E
100
AcDbEntity
  8
CUT
100
AcDbSpline
210
0.0
220
0.0
230
1.0
 70
     8
 71
     3
 72
    36
 73
    32
 74
    30
 42
0.0000000001
 43
0.0000000001
 44
0.0000000001
 12
-0.6840629230113337
 22
-0.7294230030381481
 32
0.0
 13
-0.6838693016685009
 23
-0.7296045355090915
 33
0.0
 40
0.0
 40
0.0
 40
0.0
 40
0.0
 40
0.0258050533229516
 40
0.051610152140808
 40
0.0774159349423485
 40
0.1032210337602194
 40
0.1290268620941545
 40
0.1548326448956949
 40
0.1806384732295477
 40
0.2064443015633946
 40
0.2322501298973199
 40
0.2580559582312501
 40
0.2838617865651755
 40
0.3096676605089168
 40
0.335473488842919
 40
0.3612800467110255
 40
0.3870859206547564
 40
0.4128924785228679
 40
0.4386990820381782
 40
0.4645056399062943
 40
0.4903122434216724
 40
0.5161188469370658
 40
0.541925450452506
 40
0.5677320539679089
 40
0.593538657483287
 40
0.619345990588368
 40
0.6451525941037351
 40
0.6709599272088888
 40
0.6967672603140418
 40
0.7225739095541979
 40
0.7483819722672385
 40
0.7483819722672385
 40
0.7483819722672385
 40
0.7483819722672385
 10
58.61674599999997
 20
124.6292509999999
 30
0.0
 10
58.61086190659845
 20
124.6229767335037
 30
0.0
 10
58.59909481776242
 20
124.6104271500597
 30
0.0
 10
58.58144505457365
 20
124.5916016362991
 30
0.0
 10
58.56379401790971
 20
124.5727772957453
 30
0.0
 10
58.54614364313794
 20
124.5539520012457
 30
0.0
 10
58.52849441163326
 20
124.5351256348652
 30
0.0
 10
58.51084260630148
 20
124.5163013483201
 30
0.0
 10
58.49319310087485
 20
124.4974749054211
 30
0.0
 10
58.47554297981847
 20
124.4786490189226
 30
0.0
 10
58.45789297985151
 20
124.4598230188882
 30
0.0
 10
58.44024310077595
 20
124.4409969055245
 30
0.0
 10
58.42259260664649
 20
124.4221713479226
 30
0.0
 10
58.40494441025008
 20
124.4033436362359
 30
0.0
 10
58.38729364841393
 20
124.3845179962821
 30
0.0
 10
58.36964399815272
 20
124.3656913142139
 30
0.0
 10
58.35199512815472
 20
124.3468635673781
 30
0.0
 10
58.33434454330132
 20
124.3280374072688
 30
0.0
 10
58.31669648027588
 20
124.3092085706298
 30
0.0
 10
58.29904558762663
 20
124.290382365716
 30
0.0
 10
58.28139710678013
 20
124.2715538999008
 30
0.0
 10
58.26374797484728
 20
124.2527260235792
 30
0.0
 10
58.24609899383083
 20
124.233898005782
 30
0.0
 10
58.22845004982959
 20
124.215069953292
 30
0.0
 10
58.21080064052774
 20
124.1962420036198
 30
0.0
 10
58.193152390148
 20
124.177412967626
 30
0.0
 10
58.17550263047303
 20
124.1585850130443
 30
0.0
 10
58.15785409005066
 20
124.1397559155924
 30
0.0
 10
58.14020499890589
 20
124.1209273134608
 30
0.0
 10
58.12255668336103
 20
124.1020976510189
 30
0.0
 10
58.11079111394162
 20
124.0895445598692
 30
0.0
 10
58.10490799999996
 20
124.0832679999999
 30
0.0
 11
58.61674599999997
 21
124.6292509999999
 31
0.0
 11
58.59909499999996
 21
124.6104269999999
 31
0.0
 11
58.58144499999998
 21
124.5916019999999
 31
0.0
 11
58.56379399999998
 21
124.5727769999999
 31
0.0
 11
58.54614399999997
 21
124.5539519999999
 31
0.0
 11
58.52849399999996
 21
124.5351259999999
 31
0.0
 11
58.51084299999996
 21
124.5163009999999
 31
0.0
 11
58.49319299999996
 21
124.4974749999999
 31
0.0
 11
58.47554300000006
 21
124.478649
 31
0.0
 11
58.45789300000006
 21
124.459823
 31
0.0
 11
58.44024300000007
 21
124.4409969999999
 31
0.0
 11
58.42259300000007
 21
124.4221709999999
 31
0.0
 11
58.40494400000006
 21
124.4033439999999
 31
0.0
 11
58.38729400000005
 21
124.3845179999998
 31
0.0
 11
58.36964400000005
 21
124.3656909999999
 31
0.0
 11
58.35199500000005
 21
124.3468639999999
 31
0.0
 11
58.33434500000004
 21
124.3280369999999
 31
0.0
 11
58.31669600000004
 21
124.309209
 31
0.0
 11
58.29904600000002
 21
124.290382
 31
0.0
 11
58.28139700000003
 21
124.271554
 31
0.0
 11
58.26374800000002
 21
124.2527259999999
 31
0.0
 11
58.24609900000002
 21
124.2338979999999
 31
0.0
 11
58.22845
 21
124.2150699999998
 31
0.0
 11
58.210801
 21
124.1962419999999
 31
0.0
 11
58.19315200000001
 21
124.1774129999999
 31
0.0
 11
58.17550299999999
 21
124.158585
 31
0.0
 11
58.15785399999999
 21
124.139756
 31
0.0
 11
58.14020499999998
 21
124.120927
 31
0.0
 11
58.12255699999997
 21
124.1020979999998
 31
0.0
 11
58.10490799999996
 21
124.0832679999999
 31
0.0
  0
SPLINE
  5
33FE
330
1E
100
AcDbEntity
  8
CUT
100
AcDbSpline
210
0.0
220
0.0
230
1.0
 70
     8
 71
     3
 72
    36
 73
    32
 74
    30
 42
0.0000000001
 43
0.0000000001
 44
0.0000000001
 12
0.7353111355727564
 22
-0.6777296908817731
 32
0.0
 13
0.7350966370695886
 23
-0.6779623397866446
 33
0.0
 40
0.0
 40
0.0
 40
0.0
 40
0.0
 40
0.0240162655297592
 40
0.048031795775893
 40
0.0720459129779826
 40
0.0960600301802167
 40
0.1200734121160614
 40
0.1440867940519682
 40
0.1680987629425587
 40
0.1921099965843518
 40
0.2161212302261917
 40
0.2401310508210331
 40
0.2641415492332448
 40
0.2881506345968485
 40
0.3121590421450363
 40
0.3361673922966632
 40
0.360174329398188
 40
0.384181266499873
 40
0.4081874684068833
 40
0.4321936703138306
 40
0.4561984591693711
 40
0.4802025128478109
 40
0.5042065665263077
 40
0.5282092071519516
 40
0.5522118477774512
 40
0.57621375324349
 40
0.6002156587095911
 40
0.6242168290351819
 40
0.6482165863047709
 40
0.6722163435744014
 40
0.6962153657210966
 40
0.6962153657210966
 40
0.6962153657210966
 40
0.6962153657210966
 10
58.10320500000006
 20
112.1590109999999
 30
0.0
 10
58.10909147582637
 20
112.1535854879286
 30
0.0
 10
58.1208638963476
 20
112.1427342491709
 30
0.0
 10
58.13852163133756
 20
112.1264572950068
 30
0.0
 10
58.15617897382146
 20
112.110180971601
 30
0.0
 10
58.17383594684177
 20
112.0939053039391
 30
0.0
 10
58.19149197737266
 20
112.0776289754528
 30
0.0
 10
58.20914761714925
 20
112.0613532796185
 30
0.0
 10
58.22680294959694
 20
112.045078306912
 30
0.0
 10
58.24445697676278
 20
112.0288029747924
 30
0.0
 10
58.2621106168505
 20
112.0125282792973
 30
0.0
 10
58.27976429777932
 20
111.9962539896686
 30
0.0
 10
58.29741666224397
 20
111.9799793285363
 30
0.0
 10
58.31506862916253
 20
111.9637049310848
 30
0.0
 10
58.33272129791141
 20
111.9474323513647
 30
0.0
 10
58.35037156831758
 20
111.9311582266566
 30
0.0
 10
58.36802199072357
 20
111.9148849899408
 30
0.0
 10
58.38567194231961
 20
111.8986122989693
 30
0.0
 10
58.40332097880615
 20
111.8823389770128
 30
0.0
 10
58.4209696160051
 20
111.8660662783889
 30
0.0
 10
58.43861795300156
 20
111.8497943105391
 30
0.0
 10
58.45626496456707
 20
111.8335219615719
 30
0.0
 10
58.47391166229472
 20
111.8172503285918
 30
0.0
 10
58.49155796231349
 20
111.8009789591299
 30
0.0
 10
58.50920396201701
 20
111.7847083202995
 30
0.0
 10
58.52684892854756
 20
111.7684369225137
 30
0.0
 10
58.54449396349598
 20
111.7521663218863
 30
0.0
 10
58.56213761020423
 20
111.735895272105
 30
0.0
 10
58.57978099173332
 20
111.7196249910356
 30
0.0
 10
58.59742389646209
 20
111.7033552491837
 30
0.0
 10
58.60918546650903
 20
111.6925084777357
 30
0.0
 10
58.61506600000002
 20
111.687085
 30
0.0
 11
58.10320500000006
 21
112.1590109999999
 31
0.0
 11
58.12086400000004
 21
112.142734
 31
0.0
 11
58.13852200000003
 21
112.1264569999999
 31
0.0
 11
58.15617900000001
 21
112.110181
 31
0.0
 11
58.17383599999999
 21
112.0939049999999
 31
0.0
 11
58.19149199999998
 21
112.077629
 31
0.0
 11
58.20914799999997
 21
112.0613529999999
 31
0.0
 11
58.22680299999996
 21
112.0450779999998
 31
0.0
 11
58.24445700000007
 21
112.0288029999999
 31
0.0
 11
58.26211100000007
 21
112.0125279999999
 31
0.0
 11
58.27976400000006
 21
111.996254
 31
0.0
 11
58.29741700000004
 21
111.9799789999998
 31
0.0
 11
58.31506900000005
 21
111.963705
 31
0.0
 11
58.33272100000005
 21
111.947432
 31
0.0
 11
58.35037200000005
 21
111.9311579999999
 31
0.0
 11
58.36802200000004
 21
111.914885
 31
0.0
 11
58.38567200000007
 21
111.8986119999999
 31
0.0
 11
58.40332100000007
 21
111.8823389999999
 31
0.0
 11
58.42097000000006
 21
111.8660659999999
 31
0.0
 11
58.43861799999996
 21
111.8497939999999
 31
0.0
 11
58.45626499999998
 21
111.833522
 31
0.0
 11
58.47391199999998
 21
111.81725
 31
0.0
 11
58.491558
 21
111.8009789999999
 31
0.0
 11
58.50920400000001
 21
111.784708
 31
0.0
 11
58.52684900000003
 21
111.768437
 31
0.0
 11
58.54449400000003
 21
111.7521659999999
 31
0.0
 11
58.56213800000007
 21
111.735895
 31
0.0
 11
58.57978099999996
 21
111.7196249999999
 31
0.0
 11
58.59742399999999
 21
111.7033549999999
 31
0.0
 11
58.61506600000002
 21
111.687085
 31
0.0
  0
SPLINE
  5
33FF
330
1E
100
AcDbEntity
  8
CUT
100
AcDbSpline
210
0.0
220
0.0
230
1.0
 70
     8
 71
     3
 72
    36
 73
    32
 74
    30
 42
0.0000000001
 43
0.0000000001
 44
0.0000000001
 12
0.0024853493229246
 22
-0.9999969115146022
 32
0.0
 13
-0.0027650598518854
 23
-0.999996177214701
 33
0.0
 40
0.0
 40
0.0
 40
0.0
 40
0.0
 40
0.4104921769900061
 40
0.821032183325493
 40
1.23161803238752
 40
1.642252735689717
 40
2.052935308633714
 40
2.463666763092819
 40
2.874448114093469
 40
3.285279373864452
 40
3.696161557060532
 40
4.107094676263759
 40
4.518086745755267
 40
4.929137778871695
 40
5.340243788723172
 40
5.751403789034482
 40
6.162612793267022
 40
6.573869814773045
 40
6.985171867367006
 40
7.3965159640306
 40
7.807900118066715
 40
8.219322343821476
 40
8.630790653717861
 40
9.042306062451263
 40
9.453869582074892
 40
9.865480227638158
 40
10.27714001082081
 40
10.68884794702438
 40
11.1006060475556
 40
11.51241332567478
 40
11.92427079730431
 40
11.92427079730431
 40
11.92427079730431
 40
11.92427079730431
 10
58.10490799999996
 20
124.0832679999999
 30
0.0
 10
58.10524807215134
 20
123.9464376969362
 30
0.0
 10
58.10590338844306
 20
123.6727610852889
 30
0.0
 10
58.1068123041209
 20
123.2622227452367
 30
0.0
 10
58.10764769073099
 20
122.8516367398537
 30
0.0
 10
58.10840721494928
 20
122.4410030649387
 30
0.0
 10
58.10909370348202
 20
122.0303207261981
 30
0.0
 10
58.10970420260991
 20
121.619589384855
 30
0.0
 10
58.11024169475999
 20
121.2088083791678
 30
0.0
 10
58.11070320077836
 20
120.7979770381313
 30
0.0
 10
58.11109165977457
 20
120.3870950321368
 30
0.0
 10
58.11140429251369
 20
119.976159358123
 30
0.0
 10
58.11164328683337
 20
119.5651673515257
 30
0.0
 10
58.11180864662826
 20
119.1541176783293
 30
0.0
 10
58.11189817825074
 20
118.7430120047539
 30
0.0
 10
58.11191466125777
 20
118.3318536646971
 30
0.0
 10
58.11185516914515
 20
117.9206449913962
 30
0.0
 10
58.11172262880187
 20
117.5093889844138
 30
0.0
 10
58.11151425984279
 20
117.0980879779734
 30
0.0
 10
58.11123225659102
 20
116.6867446380652
 30
0.0
 10
58.11087662077523
 20
116.2753612973358
 30
0.0
 10
58.11044514767623
 20
115.8639366247966
 30
0.0
 10
58.10994063365392
 20
115.4524682837163
 30
0.0
 10
58.1093601313638
 20
115.0409529448304
 30
0.0
 10
58.10870662549719
 20
114.6293902701203
 30
0.0
 10
58.10797712741223
 20
114.2177795981934
 30
0.0
 10
58.10717459236086
 20
113.8061209232602
 30
0.0
 10
58.10629620615967
 20
113.3944132513705
 30
0.0
 10
58.10534425068746
 20
112.9826565779923
 30
0.0
 10
58.10431843519158
 20
112.5708502367686
 30
0.0
 10
58.1035846035199
 20
112.2962962990621
 30
0.0
 10
58.10320500000006
 20
112.1590109999999
 30
0.0
 11
58.10490799999996
 21
124.0832679999999
 31
0.0
 11
58.10589099999997
 21
123.6727769999999
 31
0.0
 11
58.10679999999996
 21
123.2622379999999
 31
0.0
 11
58.10763500000001
 21
122.851653
 31
0.0
 11
58.10839500000003
 21
122.4410189999999
 31
0.0
 11
58.109081
 21
122.030337
 31
0.0
 11
58.10969200000005
 21
121.6196059999999
 31
0.0
 11
58.11022900000007
 21
121.208825
 31
0.0
 11
58.11069100000003
 21
120.7979939999999
 31
0.0
 11
58.11107900000006
 21
120.387112
 31
0.0
 11
58.11139199999995
 21
119.9761789999999
 31
0.0
 11
58.11163100000005
 21
119.565187
 31
0.0
 11
58.11179599999997
 21
119.1541359999999
 31
0.0
 11
58.11188599999997
 21
118.7430299999999
 31
0.0
 11
58.11190200000003
 21
118.3318699999999
 31
0.0
 11
58.11184299999997
 21
117.920661
 31
0.0
 11
58.11171000000006
 21
117.509404
 31
0.0
 11
58.11150200000003
 21
117.0981019999999
 31
0.0
 11
58.11122000000007
 21
116.686758
 31
0.0
 11
58.11086400000005
 21
116.275374
 31
0.0
 11
58.11043299999999
 21
115.8639519999999
 31
0.0
 11
58.10992800000001
 21
115.452484
 31
0.0
 11
58.10934800000001
 21
115.0409689999999
 31
0.0
 11
58.10869400000006
 21
114.629406
 31
0.0
 11
58.10796499999998
 21
114.2177959999999
 31
0.0
 11
58.10716200000006
 21
113.806137
 31
0.0
 11
58.10628400000002
 21
113.39443
 31
0.0
 11
58.10533200000002
 21
112.9826729999999
 31
0.0
 11
58.10430600000001
 21
112.5708669999999
 31
0.0
 11
58.10320500000006
 21
112.1590109999999
 31
0.0
  0
SPLINE
  5
3400
330
1E
100
AcDbEntity
  8
CUT
100
AcDbSpline
210
0.0
220
0.0
230
1.0
 70
     8
 71
     3
 72
    36
 73
    32
 74
    30
 42
0.0000000001
 43
0.0000000001
 44
0.0000000001
 12
0.0023777533777374
 22
-0.9999971731404418
 32
0.0
 13
-0.0028528928579086
 23
-0.9999959304928903
 33
0.0
 40
0.0
 40
0.0
 40
0.0
 40
0.0
 40
0.4085510699103882
 40
0.8171529770547286
 40
1.225805732949024
 40
1.634509354878269
 40
2.043264855911588
 40
2.452073246345191
 40
2.860934542367464
 40
3.269848754990452
 40
3.678817899666427
 40
4.087842988780774
 40
4.496930035734108
 40
4.906080054222335
 40
5.315289057037626
 40
5.724556057801185
 40
6.133876070016561
 40
6.543247106571314
 40
6.952666181078222
 40
7.362130306119621
 40
7.771636496623495
 40
8.181184764020636
 40
8.590783123945433
 40
9.000430587095044
 40
9.410130168131056
 40
9.819879880390875
 40
10.22968273515511
 40
10.6395367498396
 40
11.04944493330766
 40
11.4594053011018
 40
11.86941986652367
 40
11.86941986652367
 40
11.86941986652367
 40
11.86941986652367
 10
62.99360900000005
 20
123.9135039999998
 30
0.0
 10
62.99393281122886
 20
123.7773206950019
 30
0.0
 10
62.99455638920036
 20
123.5049370813982
 30
0.0
 10
62.99541769808968
 20
123.0963360759814
 30
0.0
 10
62.99620312582028
 20
122.6876840668127
 30
0.0
 10
62.99691607895169
 20
122.2789807269914
 30
0.0
 10
62.99755681604409
 20
121.8702253890462
 30
0.0
 10
62.99812089017578
 20
121.461417380163
 30
0.0
 10
62.99861382842651
 20
121.0525563753934
 30
0.0
 10
62.99902997327379
 20
120.6436417004123
 30
0.0
 10
62.99937443133488
 20
120.2346723612241
 30
0.0
 10
62.99964442849827
 20
119.8256453544177
 30
0.0
 10
62.99983995927867
 20
119.416558014185
 30
0.0
 10
62.99996380756344
 20
119.0074093412189
 30
0.0
 10
63.00001084778518
 20
118.5982006676853
 30
0.0
 10
62.99998680632224
 20
118.1889353275666
 30
0.0
 10
62.99988590271849
 20
117.7796159878989
 30
0.0
 10
62.99971353196595
 20
117.3702459809186
 30
0.0
 10
62.99946589567701
 20
116.9608279749321
 30
0.0
 10
62.99914679196319
 20
116.5513649669989
 30
0.0
 10
62.99875082550527
 20
116.1418589618985
 30
0.0
 10
62.99828376996709
 20
115.732308286731
 30
0.0
 10
62.99773991265453
 20
115.3227106153525
 30
0.0
 10
62.99712436899465
 20
114.9130626076775
 30
0.0
 10
62.99643436485986
 20
114.5033642675822
 30
0.0
 10
62.99566990164051
 20
114.0936142625795
 30
0.0
 10
62.99483372042725
 20
113.683812919508
 30
0.0
 10
62.99392088556871
 20
113.2739589161648
 30
0.0
 10
62.99293636499765
 20
112.8640525743527
 30
0.0
 10
62.99187726089193
 20
112.454092901349
 30
0.0
 10
62.99112190920848
 20
112.1807689656214
 30
0.0
 10
62.99073200000004
 20
112.0440979999999
 30
0.0
 11
62.99360900000005
 21
123.9135039999998
 31
0.0
 11
62.99454399999996
 21
123.504954
 31
0.0
 11
62.99540500000007
 21
123.096353
 31
0.0
 11
62.99619100000001
 21
122.687701
 31
0.0
 11
62.99690400000002
 21
122.2789979999999
 31
0.0
 11
62.99754400000001
 21
121.8702429999999
 31
0.0
 11
62.99810900000005
 21
121.461435
 31
0.0
 11
62.99860100000007
 21
121.052574
 31
0.0
 11
62.99901800000004
 21
120.6436599999999
 31
0.0
 11
62.99936199999996
 21
120.2346909999999
 31
0.0
 11
62.99963199999996
 21
119.8256659999999
 31
0.0
 11
62.99982800000003
 21
119.4165789999999
 31
0.0
 11
62.99995100000007
 21
119.007429
 31
0.0
 11
62.99999900000006
 21
118.5982199999999
 31
0.0
 11
62.99997400000001
 21
118.1889529999998
 31
0.0
 11
62.99987400000002
 21
117.7796329999999
 31
0.0
 11
62.99970100000002
 21
117.370262
 31
0.0
 11
62.99945400000006
 21
116.9608429999998
 31
0.0
 11
62.99913399999997
 21
116.551379
 31
0.0
 11
62.99873900000005
 21
116.141873
 31
0.0
 11
62.99827099999999
 21
115.732325
 31
0.0
 11
62.99772799999999
 21
115.3227269999999
 31
0.0
 11
62.99711200000007
 21
114.91308
 31
0.0
 11
62.996422
 21
114.5033809999999
 31
0.0
 11
62.99565799999999
 21
114.0936319999999
 31
0.0
 11
62.99482100000004
 21
113.6838299999999
 31
0.0
 11
62.99390899999997
 21
113.273977
 31
0.0
 11
62.99292400000006
 21
112.8640699999998
 31
0.0
 11
62.99186500000002
 21
112.454111
 31
0.0
 11
62.99073200000004
 21
112.0440979999999
 31
0.0
  0
SPLINE
  5
3401
330
1E
100
AcDbEntity
  8
CUT
100
AcDbSpline
210
0.0
220
0.0
230
1.0
 70
     8
 71
     3
 72
    36
 73
    32
 74
    30
 42
0.0000000001
 43
0.0000000001
 44
0.0000000001
 12
-0.9966313760203327
 22
-0.0820115865705449
 32
0.0
 13
-0.9967431092397987
 23
-0.0806422605274592
 33
0.0
 40
0.0
 40
0.0
 40
0.0
 40
0.0
 40
0.1514237193837695
 40
0.3028447898461963
 40
0.4542632936725639
 40
0.6056791493316979
 40
0.7570925208052663
 40
0.9085032448144687
 40
1.059911321762238
 40
1.211315837035056
 40
1.362718784261968
 40
1.51411817041991
 40
1.665514910969356
 40
1.816910084449226
 40
1.968301697813389
 40
2.119690666675057
 40
2.27107707275568
 40
2.422460835088382
 40
2.57384203529823
 40
2.725220673692198
 40
2.876595753873892
 40
3.027969188468519
 40
3.179339981176414
 40
3.330707297661889
 40
3.482071972959607
 40
3.633435004195734
 40
3.784794479171762
 40
3.936151394917247
 40
4.087505751739223
 40
4.23885746923533
 40
4.390206628466528
 40
4.390206628466528
 40
4.390206628466528
 40
4.390206628466528
 10
62.99073200000004
 20
112.0440979999999
 30
0.0
 10
62.94042745672951
 20
112.0399585001762
 30
0.0
 10
62.83981898665711
 20
112.0316827752131
 30
0.0
 10
62.68890693429894
 20
112.019277076934
 30
0.0
 10
62.53799700460445
 20
112.0068775522128
 30
0.0
 10
62.38708888355933
 20
111.994487357845
 30
0.0
 10
62.23618299745182
 20
111.9821016350613
 30
0.0
 10
62.08527898805018
 20
111.9697247469141
 30
0.0
 10
61.93437726895918
 20
111.9573560511324
 30
0.0
 10
61.78347761926693
 20
111.9449938420429
 30
0.0
 10
61.63258026686283
 20
111.9326390731475
 30
0.0
 10
61.48168499461552
 20
111.9202906578235
 30
0.0
 10
61.33079161089572
 20
111.9079509382632
 30
0.0
 10
61.17990026783497
 20
111.8956180556169
 30
0.0
 10
61.02901099630138
 20
111.8832916301206
 30
0.0
 10
60.87812393118588
 20
111.8709740922579
 30
0.0
 10
60.72723899586946
 20
111.8586626306605
 30
0.0
 10
60.57635593630966
 20
111.8463600254733
 30
0.0
 10
60.42547494686556
 20
111.8340638941428
 30
0.0
 10
60.2745962674335
 20
111.821775049007
 30
0.0
 10
60.12371965634796
 20
111.8094926974798
 30
0.0
 10
59.97284499411534
 20
111.7972186401581
 30
0.0
 10
59.821972212963
 20
111.7849533799196
 30
0.0
 10
59.67110199379297
 20
111.7726926399489
 30
0.0
 10
59.52023365555607
 20
111.760440697509
 30
0.0
 10
59.36936726659002
 20
111.7481970475716
 30
0.0
 10
59.2185029453556
 20
111.7359598965478
 30
0.0
 10
59.06764093571351
 20
111.7237300136458
 30
0.0
 10
58.91678099028787
 20
111.7115066711763
 30
0.0
 10
58.76592294162207
 20
111.6992919365377
 30
0.0
 10
58.66535141051766
 20
111.6911533794431
 30
0.0
 10
58.61506600000002
 20
111.687085
 30
0.0
 11
62.99073200000004
 21
112.0440979999999
 31
0.0
 11
62.83981799999998
 21
112.031684
 31
0.0
 11
62.68890600000003
 21
112.0192779999999
 31
0.0
 11
62.53799599999997
 21
112.0068789999999
 31
0.0
 11
62.38708800000001
 21
111.994488
 31
0.0
 11
62.23618200000004
 21
111.982103
 31
0.0
 11
62.08527800000006
 21
111.9697259999999
 31
0.0
 11
61.93437599999999
 21
111.957357
 31
0.0
 11
61.783477
 21
111.9449949999999
 31
0.0
 11
61.63257900000002
 21
111.93264
 31
0.0
 11
61.48168400000002
 21
111.9202919999999
 31
0.0
 11
61.33079100000003
 21
111.907952
 31
0.0
 11
61.17989900000003
 21
111.895619
 31
0.0
 11
61.02901000000002
 21
111.8832929999999
 31
0.0
 11
60.87812300000002
 21
111.870975
 31
0.0
 11
60.727238
 21
111.8586639999999
 31
0.0
 11
60.57635499999998
 21
111.846361
 31
0.0
 11
60.42547400000007
 21
111.8340649999999
 31
0.0
 11
60.27459500000002
 21
111.821776
 31
0.0
 11
60.12371899999998
 21
111.8094939999999
 31
0.0
 11
59.97284400000006
 21
111.79722
 31
0.0
 11
59.82197100000002
 21
111.7849539999999
 31
0.0
 11
59.67110099999996
 21
111.772694
 31
0.0
 11
59.52023300000002
 21
111.7604419999999
 31
0.0
 11
59.36936600000006
 21
111.7481979999999
 31
0.0
 11
59.218502
 21
111.7359609999999
 31
0.0
 11
59.06764000000004
 21
111.7237309999999
 31
0.0
 11
58.91678000000006
 21
111.7115079999999
 31
0.0
 11
58.76592199999999
 21
111.699293
 31
0.0
 11
58.61506600000002
 21
111.687085
 31
0.0
  0
SPLINE
  5
3402
330
1E
100
AcDbEntity
  8
CUT
100
AcDbSpline
210
0.0
220
0.0
230
1.0
 70
     8
 71
     3
 72
    36
 73
    32
 74
    30
 42
0.0000000001
 43
0.0000000001
 44
0.0000000001
 12
-0.0030105002261921
 22
0.9999954684339266
 32
0.0
 13
-0.9969657195062449
 23
-0.0778418533270839
 33
0.0
 40
0.0
 40
0.0
 40
0.0
 40
0.0
 40
0.0569284851810729
 40
0.1135524400410771
 40
0.1701369583213416
 40
0.2269067060484562
 40
0.2834603904554145
 40
0.3399978716868858
 40
0.3964589205790492
 40
0.4526884780820951
 40
0.5089564034571134
 40
0.564983399744547
 40
0.6210207200320587
 40
0.6770045697210332
 40
0.7329799144452643
 40
0.7891037211764677
 40
0.8452481461001511
 40
0.9016925799797196
 40
0.9581727227292949
 40
1.014834554468131
 40
1.071667527969405
 40
1.128472739006756
 40
1.185522507332332
 40
1.242559826361126
 40
1.299808186093109
 40
1.357177427372771
 40
1.414630708784706
 40
1.472347079573289
 40
1.530028991998242
 40
1.587868238898554
 40
1.646090347173747
 40
1.646090347173747
 40
1.646090347173747
 40
1.646090347173747
 10
62.99360900000005
 20
123.9135039999998
 30
0.0
 10
62.99355187226088
 20
123.9324800757352
 30
0.0
 10
62.99233803128804
 20
123.9703368994367
 30
0.0
 10
62.98719428831541
 20
124.0268470437386
 30
0.0
 10
62.97870583853722
 20
124.0829014979183
 30
0.0
 10
62.96691195731465
 20
124.1383287597098
 30
0.0
 10
62.95192015200534
 20
124.1929627549762
 30
0.0
 10
62.93369582054506
 20
124.2464964472019
 30
0.0
 10
62.91243974051151
 20
124.2987817032838
 30
0.0
 10
62.88819137274533
 20
124.3496504191935
 30
0.0
 10
62.86105589043472
 20
124.3988722074183
 30
0.0
 10
62.83119841733664
 20
124.4464164177561
 30
0.0
 10
62.79865412262776
 20
124.4920475711844
 30
0.0
 10
62.76358018418487
 20
124.5357403985507
 30
0.0
 10
62.72604201067522
 20
124.5773745866261
 30
0.0
 10
62.68616157260876
 20
124.6168466072015
 30
0.0
 10
62.64398436082585
 20
124.6540909054187
 30
0.0
 10
62.59968083041776
 20
124.688970130613
 30
0.0
 10
62.55335317538747
 20
124.7214149197874
 30
0.0
 10
62.50514811812836
 20
124.7512443217908
 30
0.0
 10
62.45527566652629
 20
124.7784199585961
 30
0.0
 10
62.40383913745201
 20
124.8028087078933
 30
0.0
 10
62.35106975392376
 20
124.8243398335111
 30
0.0
 10
62.29705298778227
 20
124.8429754956707
 30
0.0
 10
62.24198561426135
 20
124.8586215240629
 30
0.0
 10
62.18601216222999
 20
124.8712755045496
 30
0.0
 10
62.12926947780633
 20
124.8808318429136
 30
0.0
 10
62.07198974279633
 20
124.887316045197
 30
0.0
 10
62.01431010480362
 20
124.8906440272481
 30
0.0
 10
61.95636864203891
 20
124.8908026205256
 30
0.0
 10
61.91771048202255
 20
124.8888177056041
 30
0.0
 10
61.89836199999996
 20
124.8873069999999
 30
0.0
 11
62.99360900000005
 21
123.9135039999998
 31
0.0
 11
62.99177700000001
 21
123.970403
 31
0.0
 11
62.98663500000003
 21
124.0267929999999
 31
0.0
 11
62.97816500000005
 21
124.0827399999999
 31
0.0
 11
62.96636100000007
 21
124.138269
 31
0.0
 11
62.95137500000004
 21
124.192801
 31
0.0
 11
62.93317500000007
 21
124.246329
 31
0.0
 11
62.91190399999999
 21
124.29863
 31
0.0
 11
62.88770500000004
 21
124.3493859999999
 31
0.0
 11
62.86055600000003
 21
124.3986709999999
 31
0.0
 11
62.83074400000003
 21
124.4461079999999
 31
0.0
 11
62.79822000000006
 21
124.491741
 31
0.0
 11
62.76317099999999
 21
124.5353959999998
 31
0.0
 11
62.72569200000003
 21
124.5769719999999
 31
0.0
 11
62.68580300000002
 21
124.6164529999999
 31
0.0
 11
62.64372199999996
 21
124.6536199999999
 31
0.0
 11
62.59937600000006
 21
124.6885399999999
 31
0.0
 11
62.55310900000001
 21
124.720934
 31
0.0
 11
62.50493499999999
 21
124.750764
 31
0.0
 11
62.45502600000003
 21
124.77795
 31
0.0
 11
62.403702
 21
124.8022949999999
 31
0.0
 11
62.35088100000002
 21
124.82385
 31
0.0
 11
62.29696200000006
 21
124.8424509999999
 31
0.0
 11
62.24189600000006
 21
124.8581069999999
 31
0.0
 11
62.18593700000003
 21
124.870749
 31
0.0
 11
62.12928400000004
 21
124.880305
 31
0.0
 11
62.071933
 21
124.8867889999999
 31
0.0
 11
62.014347
 21
124.8901139999999
 31
0.0
 11
61.95650800000003
 21
124.8902829999999
 31
0.0
 11
61.89836199999996
 21
124.8873069999999
 31
0.0
  0
SPLINE
  5
3403
330
1E
100
AcDbEntity
  8
CUT
100
AcDbSpline
210
0.0
220
0.0
230
1.0
 70
     8
 71
     3
 72
    36
 73
    32
 74
    30
 42
0.0000000001
 43
0.0000000001
 44
0.0000000001
 12
-0.9968863873134392
 22
-0.0788513207825965
 32
0.0
 13
-0.9969581856895151
 23
-0.0779382831904217
 33
0.0
 40
0.0
 40
0.0
 40
0.0
 40
0.0
 40
0.1135242698369516
 40
0.227048224428016
 40
0.3405709457836671
 40
0.4540923552402861
 40
0.5676134498306534
 40
0.6811323145624512
 40
0.794649867764567
 40
0.9081671850866168
 40
1.021682194208856
 40
1.135196889081345
 40
1.248710351445941
 40
1.362222502887959
 40
1.47573342199709
 40
1.589243030418581
 40
1.702751406682167
 40
1.816258472493088
 40
1.92976522491335
 40
2.043269748523655
 40
2.156773958983015
 40
2.270276859496606
 40
2.383778528405048
 40
2.497278887602738
 40
2.610778015370325
 40
2.724275833662146
 40
2.837772420698838
 40
2.951267698494911
 40
3.064762664136571
 40
3.17825540184699
 40
3.291747827642763
 40
3.291747827642763
 40
3.291747827642763
 40
3.291747827642763
 10
61.89836300000006
 20
124.8873069999999
 30
0.0
 10
61.86063940025668
 20
124.884323153794
 30
0.0
 10
61.78519215712535
 20
124.878357345755
 30
0.0
 10
61.67202144038515
 20
124.8694126453839
 30
0.0
 10
61.558851490636
 20
124.8604703421324
 30
0.0
 10
61.44568216309253
 20
124.8515322678005
 30
0.0
 10
61.33251376632525
 20
124.8425987374201
 30
0.0
 10
61.21934649892861
 20
124.8336672345821
 30
0.0
 10
61.10618010808023
 20
124.8247406296236
 30
0.0
 10
60.99301482027503
 20
124.815816385063
 30
0.0
 10
60.87985016276722
 20
124.8068962678516
 30
0.0
 10
60.76668643622667
 20
124.7979806938626
 30
0.0
 10
60.65352349934712
 20
124.7890672250854
 30
0.0
 10
60.54036143484264
 20
124.7801587104178
 30
0.0
 10
60.42720049903417
 20
124.77125222746
 30
0.0
 10
60.31404043683396
 20
124.7623506840801
 30
0.0
 10
60.20088149083652
 20
124.7534513301652
 30
0.0
 10
60.08772316173246
 20
124.7445562753232
 30
0.0
 10
59.97456576735935
 20
124.7356657182546
 30
0.0
 10
59.86140916161899
 20
124.7267772753102
 30
0.0
 10
59.74825349057192
 20
124.7178933300633
 30
0.0
 10
59.63509843660145
 20
124.7090136839014
 30
0.0
 10
59.52194449850534
 20
124.7001362274315
 30
0.0
 10
59.40879143451034
 20
124.691263709527
 30
0.0
 10
59.29563949839057
 20
124.6823932272906
 30
0.0
 10
59.18248843641562
 20
124.6735276841816
 30
0.0
 10
59.06933849033856
 20
124.6646643285431
 30
0.0
 10
58.95618916069922
 20
124.6558052803293
 30
0.0
 10
58.84304076846611
 20
124.6469506989824
 30
0.0
 10
58.72989315549052
 20
124.6380983454954
 30
0.0
 10
58.65446173430359
 20
124.6321994682737
 30
0.0
 10
58.61674599999997
 20
124.6292509999999
 30
0.0
 11
61.89836300000006
 21
124.8873069999999
 31
0.0
 11
61.785192
 21
124.878358
 31
0.0
 11
61.67202100000003
 21
124.869413
 31
0.0
 11
61.55885100000006
 21
124.8604709999999
 31
0.0
 11
61.44568199999998
 21
124.851533
 31
0.0
 11
61.33251300000001
 21
124.8425989999999
 31
0.0
 11
61.21934600000003
 21
124.8336679999999
 31
0.0
 11
61.10618000000004
 21
124.8247409999999
 31
0.0
 11
60.99301400000006
 21
124.8158169999999
 31
0.0
 11
60.87984999999997
 21
124.806897
 31
0.0
 11
60.76668599999999
 21
124.797981
 31
0.0
 11
60.653523
 21
124.789068
 31
0.0
 11
60.54036100000002
 21
124.780159
 31
0.0
 11
60.42720000000002
 21
124.771253
 31
0.0
 11
60.31404000000002
 21
124.7623509999999
 31
0.0
 11
60.20088100000004
 21
124.753452
 31
0.0
 11
60.08772300000003
 21
124.7445569999999
 31
0.0
 11
59.97456500000004
 21
124.7356659999999
 31
0.0
 11
59.86140900000004
 21
124.7267779999999
 31
0.0
 11
59.74825300000002
 21
124.7178939999999
 31
0.0
 11
59.63509800000003
 21
124.709014
 31
0.0
 11
59.52194400000002
 21
124.700137
 31
0.0
 11
59.408791
 21
124.6912639999999
 31
0.0
 11
59.29563899999998
 21
124.6823939999999
 31
0.0
 11
59.18248799999997
 21
124.673528
 31
0.0
 11
59.06933800000008
 21
124.6646649999999
 31
0.0
 11
58.95618900000004
 21
124.6558059999999
 31
0.0
 11
58.84304000000003
 21
124.646951
 31
0.0
 11
58.729893
 21
124.638099
 31
0.0
 11
58.61674599999997
 21
124.6292509999999
 31
0.0
  0
LINE
  5
3415
330
1E
100
AcDbEntity
  8
NOCUT
100
AcDbLine
 10
61.5999999999999
 20
0.0
 30
0.0
 11
0.0
 21
0.0
 31
0.0
  0
LINE
  5
3416
330
1E
100
AcDbEntity
  8
NOCUT
100
AcDbLine
 10
32.57132034349989
 20
122.5713203436
 30
0.0
 11
20.87867965639997
 21
110.8786796564001
 31
0.0
  0
LINE
  5
3417
330
1E
100
AcDbEntity
  8
NOCUT
100
AcDbLine
 10
0.0
 20
105.0
 30
0.0
 11
0.0
 21
0.0
 31
0.0
  0
ARC
  5
341A
330
1E
100
AcDbEntity
  8
NOCUT
100
AcDbCircle
 10
5.0
 20
105.0
 30
0.0
 40
5.0
100
AcDbArc
 50
90.0
 51
180.0
  0
LINE
  5
341B
330
1E
100
AcDbEntity
  8
NOCUT
100
AcDbLine
 10
18.7573593129
 20
110.0
 30
0.0
 11
5.0
 21
110.0
 31
0.0
  0
ARC
  5
341C
330
1E
100
AcDbEntity
  8
NOCUT
100
AcDbCircle
 10
18.7573593129
 20
113.0
 30
0.0
 40
3.0
100
AcDbArc
 50
270.0
 51
314.9999999539014
  0
LINE
  5
341D
330
1E
100
AcDbEntity
  8
NOCUT
100
AcDbLine
 10
61.5999999999999
 20
0.0
 30
0.0
 11
61.5999999999999
 21
121.8499999999999
 31
0.0
  0
LINE
  5
341E
330
1E
100
AcDbEntity
  8
NOCUT
100
AcDbLine
 10
59.99999999999989
 20
123.45
 30
0.0
 11
34.69264068709992
 21
123.45
 31
0.0
  0
ARC
  5
341F
330
1E
100
AcDbEntity
  8
NOCUT
100
AcDbCircle
 10
34.69264068709992
 20
120.45
 30
0.0
 40
3.0
100
AcDbArc
 50
90.0
 51
134.999998688902
  0
ARC
  5
3420
330
1E
100
AcDbEntity
  8
NOCUT
100
AcDbCircle
 10
59.99999999999989
 20
121.8499999999999
 30
0.0
 40
1.6
100
AcDbArc
 50
0.0000045897010106
 51
90.0
  0
LWPOLYLINE
  5
3489
330
1E
100
AcDbEntity
  8
1
100
AcDbPolyline
 90
        3
 70
     1
 43
0.0
 10
0.0
 20
2.950972054112583
 10
0.0
 20
0.0
 10
2.950972054112639
 20
0.0
 42
0.4142135623730966
  0
CIRCLE
  5
348A
330
1E
100
AcDbEntity
  8
1
100
AcDbCircle
 10
0.0
 20
0.0
 30
0.0
 40
2.950972054112601
  0
HATCH
  5
348B
330
1E
100
AcDbEntity
  8
1
100
AcDbHatch
 10
0.0
 20
0.0
 30
0.0
210
0.0
220
0.0
230
1.0
  2
SOLID
 70
     1
 71
     0
 91
        2
 92
        7
 72
     1
 73
     1
 93
        3
 10
0.0
 20
0.0
 42
0.0
 10
2.950972054112639
 20
0.0
 42
0.4142135623730966
 10
0.0
 20
2.950972054112583
 42
0.0
 97
        0
 92
        7
 72
     1
 73
     1
 93
        3
 10
0.0
 20
-2.950972054112583
 42
0.0
 10
0.0
 20
0.0
 42
0.0
 10
-2.950972054112639
 20
0.0
 42
0.4142135623730953
 97
        0
 75
     0
 76
     1
 47
0.1190009775223266
 98
        2
 10
0.7445530588120164
 20
0.9212244733764691
 10
-1.279464601852851
 20
-1.696796923046349
  0
LINE
  5
348C
330
1E
100
AcDbEntity
  8
1
100
AcDbLine
 10
-2.950972054112753
 20
0.0
 30
0.0
 11
2.950972054112526
 21
0.0
 31
0.0
  0
LINE
  5
348D
330
1E
100
AcDbEntity
  8
1
100
AcDbLine
 10
0.0
 20
2.950972054112583
 30
0.0
 11
0.0
 21
-2.950972054112639
 31
0.0
  0
LWPOLYLINE
  5
348E
330
1E
100
AcDbEntity
  8
1
100
AcDbPolyline
 90
        3
 70
     1
 43
0.0
 10
0.0
 20
0.0
 10
-2.950972054112639
 20
0.0
 42
0.4142135623730966
 10
0.0
 20
-2.950972054112611
  0
LINE
  5
348F
330
1E
100
AcDbEntity
  8
1
100
AcDbLine
 10
62.99999999999998
 20
125.4637693698488
 30
0.0
 11
62.99999999999998
 21
124.5362306301512
 31
0.0
  0
CIRCLE
  5
3490
330
1E
100
AcDbEntity
  8
1
100
AcDbCircle
 10
62.99999999999998
 20
125.0
 30
0.0
 40
0.463769369848821
  0
LINE
  5
3491
330
1E
100
AcDbEntity
  8
1
100
AcDbLine
 10
62.53623063015115
 20
125.0
 30
0.0
 11
63.4637693698488
 21
125.0
 31
0.0
  0
ENDSEC
  0
SECTION
  2
OBJECTS
  0
DICTIONARY
  5
C
330
0
100
AcDbDictionary
281
     1
  3
ACAD_COLOR
350
31F2
  3
ACAD_GROUP
350
D
  3
ACAD_LAYOUT
350
19
  3
ACAD_MATERIAL
350
31F1
  3
ACAD_MLINESTYLE
350
16
  3
ACAD_PLOTSETTINGS
350
18
  3
ACAD_PLOTSTYLENAME
350
31EF
  3
ACAD_TABLESTYLE
350
31F3
  3
AcDbVariableDictionary
350
322E
1001
ACAD
1000
TREAT_AS_HARD
1070
     0
1000
TREAT_AS_HARD
1070
     0
  0
DICTIONARY
  5
DEA
330
1E
100
AcDbDictionary
281
     1
  3
ACAD_LAYOUTSELFREF
350
25F0
1001
ACAD
1000
TREAT_AS_HARD
1070
     0
  0
DICTIONARY
  5
DE8
330
1A
100
AcDbDictionary
281
     1
  3
ACAD_LAYOUTSELFREF
350
25EF
1001
ACAD
1000
TREAT_AS_HARD
1070
     0
  0
DICTIONARY
  5
31F2
102
{ACAD_REACTORS
330
C
102
}
330
C
100
AcDbDictionary
281
     1
  0
DICTIONARY
  5
D
102
{ACAD_REACTORS
330
C
102
}
330
C
100
AcDbDictionary
281
     1
1001
ACAD
1000
TREAT_AS_HARD
1070
     0
1000
TREAT_AS_HARD
1070
     0
  0
DICTIONARY
  5
19
102
{ACAD_REACTORS
330
C
102
}
330
C
100
AcDbDictionary
281
     1
  3
Layout1
350
31F6
  3
Model
350
31F5
1001
ACAD
1000
TREAT_AS_HARD
1070
     0
1000
TREAT_AS_HARD
1070
     0
  0
DICTIONARY
  5
31F1
102
{ACAD_REACTORS
330
C
102
}
330
C
100
AcDbDictionary
281
     1
  0
DICTIONARY
  5
16
102
{ACAD_REACTORS
330
C
102
}
330
C
100
AcDbDictionary
281
     1
  3
STANDARD
350
17
1001
ACAD
1000
TREAT_AS_HARD
1070
     0
1000
TREAT_AS_HARD
1070
     0
  0
DICTIONARY
  5
18
102
{ACAD_REACTORS
330
C
102
}
330
C
100
AcDbDictionary
281
     1
1001
ACAD
1000
TREAT_AS_HARD
1070
     0
1000
TREAT_AS_HARD
1070
     0
  0
ACDBDICTIONARYWDFLT
  5
31EF
102
{ACAD_REACTORS
330
C
102
}
330
C
100
AcDbDictionary
281
     1
  3
Normal
350
31F0
100
AcDbDictionaryWithDefault
340
31F0
  0
DICTIONARY
  5
31F3
102
{ACAD_REACTORS
330
C
102
}
330
C
100
AcDbDictionary
281
     1
  3
Standard
350
31F4
  0
DICTIONARY
  5
322E
102
{ACAD_REACTORS
330
C
102
}
330
C
100
AcDbDictionary
281
     1
  3
CTABLESTYLE
350
322F
  3
DIMASSOC
350
3230
  3
PROJECTNAME
350
3231
  0
XRECORD
  5
25F0
102
{ACAD_REACTORS
330
DEA
102
}
330
DEA
100
AcDbXrecord
280
     1
340
1E
  0
XRECORD
  5
25EF
102
{ACAD_REACTORS
330
DE8
102
}
330
DE8
100
AcDbXrecord
280
     1
340
1A
  0
LAYOUT
  5
31F6
102
{ACAD_XDICTIONARY
360
3242
102
}
102
{ACAD_REACTORS
330
19
102
}
330
19
100
AcDbPlotSettings
  1

  2
\\ingdom02\ITB3
  4

  6

 40
0.0
 41
0.0
 42
0.0
 43
0.0
 44
0.0
 45
0.0
 46
0.0
 47
0.0
 48
0.0
 49
0.0
140
0.0
141
0.0
142
1.0
143
1.0
 70
   688
 72
     0
 73
     0
 74
     5
  7
^A
 75
    16
147
1.0
148
0.0
149
0.0
100
AcDbLayout
  1
Layout1
 70
     1
 71
     1
 10
0.0
 20
0.0
 11
12.0
 21
9.0
 12
0.0
 22
0.0
 32
0.0
 14
100.0
 24
100.0
 34
100.0
 15
-100.0
 25
-100.0
 35
-100.0
146
0.0
 13
0.0
 23
0.0
 33
0.0
 16
1.0
 26
0.0
 36
0.0
 17
0.0
 27
1.0
 37
0.0
 76
     0
330
1A
  0
LAYOUT
  5
31F5
102
{ACAD_XDICTIONARY
360
3240
102
}
102
{ACAD_REACTORS
330
19
102
}
330
19
100
AcDbPlotSettings
  1

  2
\\ingdom02\ITB3
  4

  6

 40
0.0
 41
0.0
 42
0.0
 43
0.0
 44
0.0
 45
0.0
 46
0.0
 47
0.0
 48
0.0
 49
0.0
140
0.0
141
0.0
142
1.0
143
1.0
 70
  1712
 72
     0
 73
     0
 74
     0
  7
^A
 75
     0
147
1.0
148
0.0
149
0.0
100
AcDbLayout
  1
Model
 70
     1
 71
     0
 10
0.0
 20
0.0
 11
12.0
 21
9.0
 12
0.0
 22
0.0
 32
0.0
 14
0.0
 24
0.0
 34
0.0
 15
0.0
 25
0.0
 35
0.0
146
0.0
 13
0.0
 23
0.0
 33
0.0
 16
1.0
 26
0.0
 36
0.0
 17
0.0
 27
1.0
 37
0.0
 76
     0
330
1E
  0
MLINESTYLE
  5
17
102
{ACAD_REACTORS
330
16
102
}
330
16
100
AcDbMlineStyle
  2
STANDARD
 70
     0
  3

 62
   256
 51
90.0
 52
90.0
 71
     2
 49
0.5
 62
   256
  6
BYLAYER
 49
-0.5
 62
   256
  6
BYLAYER
  0
ACDBPLACEHOLDER
  5
31F0
102
{ACAD_REACTORS
330
31EF
102
}
330
31EF
  0
TABLESTYLE
  5
31F4
102
{ACAD_REACTORS
330
31F3
102
}
330
31F3
100
AcDbTableStyle
  3
Standard
 70
     0
 71
     0
 40
0.06
 41
0.06
280
     0
281
     0
  7
STANDARD
140
0.18
170
     2
 62
     0
 63
     7
283
     0
274
    -2
284
     1
 64
     0
275
    -2
285
     1
 65
     0
276
    -2
286
     1
 66
     0
277
    -2
287
     1
 67
     0
278
    -2
288
     1
 68
     0
279
    -2
289
     1
 69
     0
  7
STANDARD
140
0.25
170
     5
 62
     0
 63
     7
283
     0
274
    -2
284
     1
 64
     0
275
    -2
285
     1
 65
     0
276
    -2
286
     1
 66
     0
277
    -2
287
     1
 67
     0
278
    -2
288
     1
 68
     0
279
    -2
289
     1
 69
     0
  7
STANDARD
140
0.18
170
     5
 62
     0
 63
     7
283
     0
274
    -2
284
     1
 64
     0
275
    -2
285
     1
 65
     0
276
    -2
286
     1
 66
     0
277
    -2
287
     1
 67
     0
278
    -2
288
     1
 68
     0
279
    -2
289
     1
 69
     0
  0
DICTIONARYVAR
  5
322F
102
{ACAD_REACTORS
330
322E
102
}
330
322E
100
DictionaryVariables
280
     0
  1
STANDARD
  0
DICTIONARYVAR
  5
3230
102
{ACAD_REACTORS
330
322E
102
}
330
322E
100
DictionaryVariables
280
     0
  1
1
  0
DICTIONARYVAR
  5
3231
102
{ACAD_REACTORS
330
322E
102
}
330
322E
100
DictionaryVariables
280
     0
  1

  0
DICTIONARY
  5
3242
330
31F6
100
AcDbDictionary
280
     1
281
     1
  3
ACAD_XREC_ROUNDTRIP
360
3243
  0
DICTIONARY
  5
3240
330
31F5
100
AcDbDictionary
280
     1
281
     1
  3
ACAD_XREC_ROUNDTRIP
360
3241
  0
XRECORD
  5
3243
102
{ACAD_REACTORS
330
3242
102
}
330
3242
100
AcDbXrecord
280
     1
102
SHADEPLOT
 70
     0
102
SHADEPLOTRESLEVEL
 70
     2
102
SHADEPLOTCUSTOMDPI
 70
   300
  0
XRECORD
  5
3241
102
{ACAD_REACTORS
330
3240
102
}
330
3240
100
AcDbXrecord
280
     1
102
SHADEPLOT
 70
     0
102
SHADEPLOTRESLEVEL
 70
     2
102
SHADEPLOTCUSTOMDPI
 70
   300
  0
ENDSEC
  0
EOF
