  0
SECTION
  2
HEADER
  9
$ACADVER
  1
AC1015
  9
$ACADMAINTVER
 70
    10
  9
$DWGCODEPAGE
  3
ANSI_1252
  9
$INSBASE
 10
0.0
 20
0.0
 30
0.0
  9
$EXTMIN
 10
-36.69618101845435
 20
-118.8969597233858
 30
-0.0000000000000058
  9
$EXTMAX
 10
138.6743134063508
 20
104.3286763718094
 30
0.0000000000000104
  9
$LIMMIN
 10
0.0
 20
0.0
  9
$LIMMAX
 10
841.0
 20
594.0
  9
$ORTHOMODE
 70
     0
  9
$REGENMODE
 70
     1
  9
$FILLMODE
 70
     1
  9
$QTEXTMODE
 70
     0
  9
$MIRRTEXT
 70
     1
  9
$LTSCALE
 40
10.0
  9
$ATTMODE
 70
     1
  9
$TEXTSIZE
 40
0.2
  9
$TRACEWID
 40
0.05
  9
$TEXTSTYLE
  7
STANDARD
  9
$CLAYER
  8
0
  9
$CELTYPE
  6
BYLAYER
  9
$CECOLOR
 62
   256
  9
$CELTSCALE
 40
1.0
  9
$DISPSILH
 70
     0
  9
$DIMSCALE
 40
1.0
  9
$DIMASZ
 40
3.5
  9
$DIMEXO
 40
0.625
  9
$DIMDLI
 40
3.75
  9
$DIMRND
 40
0.0
  9
$DIMDLE
 40
0.0
  9
$DIMEXE
 40
1.25
  9
$DIMTP
 40
0.0
  9
$DIMTM
 40
0.0
  9
$DIMTXT
 40
3.5
  9
$DIMCEN
 40
2.5
  9
$DIMTSZ
 40
0.0
  9
$DIMTOL
 70
     0
  9
$DIMLIM
 70
     0
  9
$DIMTIH
 70
     0
  9
$DIMTOH
 70
     0
  9
$DIMSE1
 70
     0
  9
$DIMSE2
 70
     0
  9
$DIMTAD
 70
     1
  9
$DIMZIN
 70
     8
  9
$DIMBLK
  1

  9
$DIMASO
 70
     1
  9
$DIMSHO
 70
     1
  9
$DIMPOST
  1

  9
$DIMAPOST
  1

  9
$DIMALT
 70
     0
  9
$DIMALTD
 70
     3
  9
$DIMALTF
 40
0.03937007874016
  9
$DIMLFAC
 40
1.0
  9
$DIMTOFL
 70
     1
  9
$DIMTVP
 40
0.0
  9
$DIMTIX
 70
     0
  9
$DIMSOXD
 70
     0
  9
$DIMSAH
 70
     0
  9
$DIMBLK1
  1

  9
$DIMBLK2
  1

  9
$DIMSTYLE
  2
ISO-25
  9
$DIMCLRD
 70
   256
  9
$DIMCLRE
 70
   256
  9
$DIMCLRT
 70
   256
  9
$DIMTFAC
 40
1.0
  9
$DIMGAP
 40
0.625
  9
$DIMJUST
 70
     0
  9
$DIMSD1
 70
     0
  9
$DIMSD2
 70
     0
  9
$DIMTOLJ
 70
     0
  9
$DIMTZIN
 70
     8
  9
$DIMALTZ
 70
     0
  9
$DIMALTTZ
 70
     0
  9
$DIMUPT
 70
     0
  9
$DIMDEC
 70
     2
  9
$DIMTDEC
 70
     2
  9
$DIMALTU
 70
     2
  9
$DIMALTTD
 70
     3
  9
$DIMTXSTY
  7
STANDARD
  9
$DIMAUNIT
 70
     0
  9
$DIMADEC
 70
     0
  9
$DIMALTRND
 40
0.0
  9
$DIMAZIN
 70
     0
  9
$DIMDSEP
 70
    46
  9
$DIMATFIT
 70
     3
  9
$DIMFRAC
 70
     0
  9
$DIMLDRBLK
  1

  9
$DIMLUNIT
 70
     2
  9
$DIMLWD
 70
    -2
  9
$DIMLWE
 70
    -2
  9
$DIMTMOVE
 70
     0
  9
$LUNITS
 70
     2
  9
$LUPREC
 70
     4
  9
$SKETCHINC
 40
0.1
  9
$FILLETRAD
 40
0.0
  9
$AUNITS
 70
     0
  9
$AUPREC
 70
     0
  9
$MENU
  1

  9
$ELEVATION
 40
0.0
  9
$PELEVATION
 40
0.0
  9
$THICKNESS
 40
0.0
  9
$LIMCHECK
 70
     0
  9
$CHAMFERA
 40
0.0
  9
$CHAMFERB
 40
0.0
  9
$CHAMFERC
 40
0.0
  9
$CHAMFERD
 40
0.0
  9
$SKPOLY
 70
     0
  9
$TDCREATE
 40
2453431.609784398
  9
$TDUCREATE
 40
2453431.568117731
  9
$TDUPDATE
 40
2453777.541685439
  9
$TDUUPDATE
 40
2453777.500018773
  9
$TDINDWG
 40
0.0548548958
  9
$TDUSRTIMER
 40
0.0454686806
  9
$USRTIMER
 70
     1
  9
$ANGBASE
 50
0.0
  9
$ANGDIR
 70
     0
  9
$PDMODE
 70
     0
  9
$PDSIZE
 40
0.3125
  9
$PLINEWID
 40
0.0
  9
$SPLFRAME
 70
     0
  9
$SPLINETYPE
 70
     6
  9
$SPLINESEGS
 70
     8
  9
$HANDSEED
  5
4D43
  9
$SURFTAB1
 70
     6
  9
$SURFTAB2
 70
     6
  9
$SURFTYPE
 70
     6
  9
$SURFU
 70
     6
  9
$SURFV
 70
     6
  9
$UCSBASE
  2

  9
$UCSNAME
  2

  9
$UCSORG
 10
0.0
 20
0.0
 30
0.0
  9
$UCSXDIR
 10
1.0
 20
0.0
 30
0.0
  9
$UCSYDIR
 10
0.0
 20
1.0
 30
0.0
  9
$UCSORTHOREF
  2

  9
$UCSORTHOVIEW
 70
     0
  9
$UCSORGTOP
 10
0.0
 20
0.0
 30
0.0
  9
$UCSORGBOTTOM
 10
0.0
 20
0.0
 30
0.0
  9
$UCSORGLEFT
 10
0.0
 20
0.0
 30
0.0
  9
$UCSORGRIGHT
 10
0.0
 20
0.0
 30
0.0
  9
$UCSORGFRONT
 10
0.0
 20
0.0
 30
0.0
  9
$UCSORGBACK
 10
0.0
 20
0.0
 30
0.0
  9
$PUCSBASE
  2

  9
$PUCSNAME
  2

  9
$PUCSORG
 10
0.0
 20
0.0
 30
0.0
  9
$PUCSXDIR
 10
1.0
 20
0.0
 30
0.0
  9
$PUCSYDIR
 10
0.0
 20
1.0
 30
0.0
  9
$PUCSORTHOREF
  2

  9
$PUCSORTHOVIEW
 70
     0
  9
$PUCSORGTOP
 10
0.0
 20
0.0
 30
0.0
  9
$PUCSORGBOTTOM
 10
0.0
 20
0.0
 30
0.0
  9
$PUCSORGLEFT
 10
0.0
 20
0.0
 30
0.0
  9
$PUCSORGRIGHT
 10
0.0
 20
0.0
 30
0.0
  9
$PUCSORGFRONT
 10
0.0
 20
0.0
 30
0.0
  9
$PUCSORGBACK
 10
0.0
 20
0.0
 30
0.0
  9
$USERI1
 70
     0
  9
$USERI2
 70
     0
  9
$USERI3
 70
     0
  9
$USERI4
 70
     0
  9
$USERI5
 70
     0
  9
$USERR1
 40
0.0
  9
$USERR2
 40
0.0
  9
$USERR3
 40
0.0
  9
$USERR4
 40
0.0
  9
$USERR5
 40
0.0
  9
$WORLDVIEW
 70
     1
  9
$SHADEDGE
 70
     3
  9
$SHADEDIF
 70
    70
  9
$TILEMODE
 70
     1
  9
$MAXACTVP
 70
    64
  9
$PINSBASE
 10
0.0
 20
0.0
 30
0.0
  9
$PLIMCHECK
 70
     0
  9
$PEXTMIN
 10
100.0
 20
100.0
 30
100.0
  9
$PEXTMAX
 10
-100.0
 20
-100.0
 30
-100.0
  9
$PLIMMIN
 10
0.0
 20
0.0
  9
$PLIMMAX
 10
12.0
 20
9.0
  9
$UNITMODE
 70
     0
  9
$VISRETAIN
 70
     1
  9
$PLINEGEN
 70
     1
  9
$PSLTSCALE
 70
     1
  9
$TREEDEPTH
 70
  3020
  9
$CMLSTYLE
  2
STANDARD
  9
$CMLJUST
 70
     0
  9
$CMLSCALE
 40
1.0
  9
$PROXYGRAPHICS
 70
     1
  9
$MEASUREMENT
 70
     0
  9
$CELWEIGHT
370
    -1
  9
$ENDCAPS
280
     0
  9
$JOINSTYLE
280
     0
  9
$LWDISPLAY
290
     0
  9
$INSUNITS
 70
     0
  9
$HYPERLINKBASE
  1

  9
$STYLESHEET
  1

  9
$XEDIT
290
     1
  9
$CEPSNTYPE
380
     0
  9
$PSTYLEMODE
290
     1
  9
$FINGERPRINTGUID
  2
{A35900B3-DB47-4F3E-86C9-F0A1E65A8BB8}
  9
$VERSIONGUID
  2
{1063666A-F21C-4FB8-BC63-931786FC074D}
  9
$EXTNAMES
290
     1
  9
$PSVPSCALE
 40
0.0
  9
$OLESTARTUP
290
     0
  0
ENDSEC
  0
SECTION
  2
CLASSES
  0
CLASS
  1
ACDBDICTIONARYWDFLT
  2
AcDbDictionaryWithDefault
  3
AutoCAD 2000
 90
        0
280
     0
281
     0
  0
CLASS
  1
ACDBPLACEHOLDER
  2
AcDbPlaceHolder
  3
AutoCAD 2000
 90
        0
280
     0
281
     0
  0
CLASS
  1
LAYOUT
  2
AcDbLayout
  3
AutoCAD 2000
 90
        0
280
     0
281
     0
  0
CLASS
  1
TABLESTYLE
  2
AcDbTableStyle
  3
ObjectDBX Classes
 90
     2047
280
     0
281
     0
  0
CLASS
  1
DICTIONARYVAR
  2
AcDbDictionaryVar
  3
AutoCAD 2000
 90
        0
280
     0
281
     0
  0
ENDSEC
  0
SECTION
  2
TABLES
  0
TABLE
  2
VPORT
  5
8
330
0
100
AcDbSymbolTable
 70
     5
  0
VPORT
  5
4D42
330
8
100
AcDbSymbolTableRecord
100
AcDbViewportTableRecord
  2
*Active
 70
     0
 10
0.0
 20
0.0
 11
1.0
 21
1.0
 12
50.98906619394826
 22
-7.284141675788191
 13
0.0
 23
0.0
 14
1.0
 24
1.0
 15
0.0
 25
0.0
 16
0.0
 26
0.0
 36
1.0
 17
0.0
 27
0.0
 37
0.0
 40
225.0043264226471
 41
1.636968085106382
 42
50.0
 43
0.0
 44
0.0
 50
0.0
 51
0.0
 71
     0
 72
   100
 73
     1
 74
     1
 75
     0
 76
     0
 77
     0
 78
     0
281
     0
 65
     1
110
0.0
120
0.0
130
0.0
111
1.0
121
0.0
131
0.0
112
0.0
122
1.0
132
0.0
 79
     0
146
0.0
  0
ENDTAB
  0
TABLE
  2
LTYPE
  5
5
330
0
100
AcDbSymbolTable
 70
     4
  0
LTYPE
  5
13
330
5
100
AcDbSymbolTableRecord
100
AcDbLinetypeTableRecord
  2
BYBLOCK
 70
     0
  3

 72
    65
 73
     0
 40
0.0
  0
LTYPE
  5
14
330
5
100
AcDbSymbolTableRecord
100
AcDbLinetypeTableRecord
  2
BYLAYER
 70
     0
  3

 72
    65
 73
     0
 40
0.0
  0
LTYPE
  5
15
330
5
100
AcDbSymbolTableRecord
100
AcDbLinetypeTableRecord
  2
CONTINUOUS
 70
     0
  3
Solid line
 72
    65
 73
     0
 40
0.0
  0
LTYPE
  5
2C
330
5
100
AcDbSymbolTableRecord
100
AcDbLinetypeTableRecord
  2
CENTER
 70
     0
  3
____ _ ____ _ ____ _ ____ _ ____ _ ____ _ ____
 72
    65
 73
     4
 40
0.6
 49
0.375
 74
     0
 49
-0.075
 74
     0
 49
0.075
 74
     0
 49
-0.075
 74
     0
  0
LTYPE
  5
2D
330
5
100
AcDbSymbolTableRecord
100
AcDbLinetypeTableRecord
  2
HIDDEN
 70
     0
  3
- - - - - - - - - - - - - - - - - - - -
 72
    65
 73
     2
 40
0.2
 49
0.1
 74
     0
 49
-0.1
 74
     0
  0
ENDTAB
  0
TABLE
  2
LAYER
  5
2
330
0
100
AcDbSymbolTable
 70
    13
  0
LAYER
  5
10
330
2
100
AcDbSymbolTableRecord
100
AcDbLayerTableRecord
  2
1
 70
     0
 62
     4
  6
CONTINUOUS
370
    -3
390
4A68
  0
LAYER
  5
31
330
2
100
AcDbSymbolTableRecord
100
AcDbLayerTableRecord
  2
2
 70
     0
 62
     7
  6
CONTINUOUS
370
    -3
390
4A68
  0
LAYER
  5
33
330
2
100
AcDbSymbolTableRecord
100
AcDbLayerTableRecord
  2
4
 70
     0
 62
     2
  6
CENTER
370
    -3
390
4A68
  0
LAYER
  5
36
330
2
100
AcDbSymbolTableRecord
100
AcDbLayerTableRecord
  2
0
 70
     0
 62
     7
  6
CONTINUOUS
370
    -3
390
4A68
  0
LAYER
  5
37
330
2
100
AcDbSymbolTableRecord
100
AcDbLayerTableRecord
  2
DEFPOINTS
 70
     0
 62
     7
  6
CONTINUOUS
290
     0
370
    -3
390
4A68
  0
LAYER
  5
4AB8
330
2
100
AcDbSymbolTableRecord
100
AcDbLayerTableRecord
  2
NOCUT
 70
     0
 62
     7
  6
CONTINUOUS
370
    -3
390
4A68
  0
LAYER
  5
4AD3
330
2
100
AcDbSymbolTableRecord
100
AcDbLayerTableRecord
  2
CUT
 70
     0
 62
     1
  6
CONTINUOUS
370
    -3
390
4A68
  0
LAYER
  5
4B24
330
2
100
AcDbSymbolTableRecord
100
AcDbLayerTableRecord
  2
6
 70
     0
 62
     5
  6
CONTINUOUS
370
    -3
390
4A68
  0
LAYER
  5
4B25
330
2
100
AcDbSymbolTableRecord
100
AcDbLayerTableRecord
  2
SK2
 70
     0
 62
     7
  6
CONTINUOUS
370
    -3
390
4A68
  0
LAYER
  5
4CCB
330
2
100
AcDbSymbolTableRecord
100
AcDbLayerTableRecord
  2
SK4
 70
     0
 62
     2
  6
CENTER
370
    -3
390
4A68
  0
LAYER
  5
4D0C
330
2
100
AcDbSymbolTableRecord
100
AcDbLayerTableRecord
  2
SK3
 70
     0
 62
     1
  6
HIDDEN
370
    -3
390
4A68
  0
ENDTAB
  0
TABLE
  2
STYLE
  5
3
330
0
100
AcDbSymbolTable
 70
     1
  0
STYLE
  5
11
330
3
100
AcDbSymbolTableRecord
100
AcDbTextStyleTableRecord
  2
STANDARD
 70
     0
 40
0.0
 41
0.8
 50
0.0
 71
     0
 42
0.2
  3
ISOCP
  4

  0
ENDTAB
  0
TABLE
  2
VIEW
  5
6
330
0
100
AcDbSymbolTable
 70
     0
  0
ENDTAB
  0
TABLE
  2
UCS
  5
7
330
0
100
AcDbSymbolTable
 70
     0
  0
ENDTAB
  0
TABLE
  2
APPID
  5
9
330
0
100
AcDbSymbolTable
 70
     1
  0
APPID
  5
12
330
9
100
AcDbSymbolTableRecord
100
AcDbRegAppTableRecord
  2
ACAD
 70
     0
  0
ENDTAB
  0
TABLE
  2
DIMSTYLE
  5
A
330
0
100
AcDbSymbolTable
 70
     2
100
AcDbDimStyleTable
 71
     0
  0
DIMSTYLE
105
D5D
102
{ACAD_REACTORS
330
7C
330
7A
330
7B
330
7D
330
DC0
330
DF4
102
}
330
A
100
AcDbSymbolTableRecord
100
AcDbDimStyleTableRecord
  2
ISO-25
 70
     0
 41
3.5
 42
0.625
 43
3.75
 44
1.25
 73
     0
 74
     0
 77
     1
 78
     8
140
3.5
141
2.5
143
0.03937007874016
147
0.625
171
     3
172
     1
176
   256
177
   256
178
   256
271
     2
272
     2
274
     3
283
     0
284
     8
340
11
  0
DIMSTYLE
105
4AB9
330
A
100
AcDbSymbolTableRecord
100
AcDbDimStyleTableRecord
  2
STANDARD
 70
     0
 41
2.5
 47
0.01
 48
0.01
 71
     1
 73
     0
 74
     0
 77
     1
 78
     8
140
3.5
178
     5
271
     3
272
     3
284
     8
340
11
341
4AB4
342
4AB4
343
4AB4
344
4AB4
  0
ENDTAB
  0
TABLE
  2
BLOCK_RECORD
  5
1
330
0
100
AcDbSymbolTable
 70
    13
  0
BLOCK_RECORD
  5
1E
102
{ACAD_XDICTIONARY
360
3E56
102
}
330
1
100
AcDbSymbolTableRecord
100
AcDbBlockTableRecord
  2
*MODEL_SPACE
340
4A6D
  0
BLOCK_RECORD
  5
1A
102
{ACAD_XDICTIONARY
360
3E54
102
}
330
1
100
AcDbSymbolTableRecord
100
AcDbBlockTableRecord
  2
*PAPER_SPACE
340
4A6E
  0
BLOCK_RECORD
  5
D7D
330
1
100
AcDbSymbolTableRecord
100
AcDbBlockTableRecord
  2
*D0
340
0
  0
BLOCK_RECORD
  5
D89
330
1
100
AcDbSymbolTableRecord
100
AcDbBlockTableRecord
  2
*D1
340
0
  0
BLOCK_RECORD
  5
D95
330
1
100
AcDbSymbolTableRecord
100
AcDbBlockTableRecord
  2
*D2
340
0
  0
BLOCK_RECORD
  5
DA1
330
1
100
AcDbSymbolTableRecord
100
AcDbBlockTableRecord
  2
*D3
340
0
  0
BLOCK_RECORD
  5
DC3
330
1
100
AcDbSymbolTableRecord
100
AcDbBlockTableRecord
  2
*D4
340
0
  0
BLOCK_RECORD
  5
DF6
330
1
100
AcDbSymbolTableRecord
100
AcDbBlockTableRecord
  2
*D5
340
0
  0
BLOCK_RECORD
  5
4AB4
330
1
100
AcDbSymbolTableRecord
100
AcDbBlockTableRecord
  2
_FILLED
340
0
  0
ENDTAB
  0
ENDSEC
  0
SECTION
  2
BLOCKS
  0
BLOCK
  5
3A
330
1E
100
AcDbEntity
  8
0
100
AcDbBlockBegin
  2
*MODEL_SPACE
 70
     0
 10
0.0
 20
0.0
 30
0.0
  3
*MODEL_SPACE
  1

  0
ENDBLK
  5
3B
330
1E
100
AcDbEntity
  8
0
100
AcDbBlockEnd
  0
BLOCK
  5
38
330
1A
100
AcDbEntity
 67
     1
  8
0
100
AcDbBlockBegin
  2
*PAPER_SPACE
 70
     0
 10
0.0
 20
0.0
 30
0.0
  3
*PAPER_SPACE
  1

  0
ENDBLK
  5
39
330
1A
100
AcDbEntity
 67
     1
  8
0
100
AcDbBlockEnd
  0
BLOCK
  5
D87
330
D7D
100
AcDbEntity
  8
0
100
AcDbBlockBegin
  2
*D0
 70
     1
 10
0.0
 20
0.0
 30
0.0
  3
*D0
  1

  0
LINE
  5
4C9D
330
D7D
100
AcDbEntity
  8
SK2
370
    -2
100
AcDbLine
 10
-1.12499999999999
 20
80.0
 30
0.0
 11
-33.77728254592646
 21
80.00000000000001
 31
0.0
  0
LINE
  5
4C9E
330
D7D
100
AcDbEntity
  8
SK2
370
    -2
100
AcDbLine
 10
-1.125000000000009
 20
-80.0
 30
0.0
 11
-33.77728254592651
 21
-79.99999999999999
 31
0.0
  0
LINE
  5
4C9F
330
D7D
100
AcDbEntity
  8
SK2
370
    -2
100
AcDbLine
 10
-32.52728254592646
 20
76.50000000000002
 30
0.0
 11
-32.52728254592649
 21
-76.49999999999998
 31
0.0
  0
SOLID
  5
4CA0
330
D7D
100
AcDbEntity
  8
SK2
100
AcDbTrace
 10
-33.11061587925981
 20
76.50000000000002
 30
0.0
 11
-31.94394921259314
 21
76.5
 31
0.0
 12
-32.52728254592646
 22
80.00000000000001
 32
0.0
 13
-32.52728254592646
 23
80.00000000000001
 33
0.0
  0
SOLID
  5
4CA1
330
D7D
100
AcDbEntity
  8
SK2
100
AcDbTrace
 10
-33.11061587925983
 20
-76.49999999999998
 30
0.0
 11
-31.94394921259317
 21
-76.5
 31
0.0
 12
-32.52728254592651
 22
-79.99999999999999
 32
0.0
 13
-32.52728254592651
 23
-79.99999999999999
 33
0.0
  0
MTEXT
  5
4CA2
330
D7D
100
AcDbEntity
  8
SK2
100
AcDbMText
 10
-34.90228254592649
 20
1.004731402647397
 30
0.0
 40
3.5
 41
0.0
 71
     5
 72
     1
  1
%%c160
 11
0.0000000000000001
 21
1.0
 31
0.0
 73
     1
 44
1.0
  0
POINT
  5
4CA3
330
D7D
100
AcDbEntity
  8
DEFPOINTS
 62
     0
100
AcDbPoint
 10
-0.4999999999999904
 20
80.0
 30
0.0
  0
POINT
  5
4CA4
330
D7D
100
AcDbEntity
  8
DEFPOINTS
 62
     0
100
AcDbPoint
 10
-0.5000000000000098
 20
-80.0
 30
0.0
  0
POINT
  5
4CA5
330
D7D
100
AcDbEntity
  8
DEFPOINTS
 62
     0
100
AcDbPoint
 10
-32.52728254592651
 20
-79.99999999999999
 30
0.0
  0
ENDBLK
  5
D88
330
D7D
100
AcDbEntity
  8
0
100
AcDbBlockEnd
  0
BLOCK
  5
D93
330
D89
100
AcDbEntity
  8
0
100
AcDbBlockBegin
  2
*D1
 70
     1
 10
0.0
 20
0.0
 30
0.0
  3
*D1
  1

  0
LINE
  5
4CB5
330
D89
100
AcDbEntity
  8
2
370
    -2
100
AcDbLine
 10
62.04609347748476
 20
100.0
 30
0.0
 11
81.87500000000003
 21
100.0
 31
0.0
  0
LINE
  5
4CB6
330
D89
100
AcDbEntity
  8
2
370
    -2
100
AcDbLine
 10
64.12499999999997
 20
-100.0
 30
0.0
 11
81.87499999999998
 21
-100.0
 31
0.0
  0
LINE
  5
4CB7
330
D89
100
AcDbEntity
  8
2
370
    -2
100
AcDbLine
 10
80.62500000000003
 20
96.5
 30
0.0
 11
80.62499999999998
 21
-96.5
 31
0.0
  0
SOLID
  5
4CB8
330
D89
100
AcDbEntity
  8
2
100
AcDbTrace
 10
80.04166666666669
 20
96.5
 30
0.0
 11
81.20833333333335
 21
96.5
 31
0.0
 12
80.62500000000003
 22
100.0
 32
0.0
 13
80.62500000000003
 23
100.0
 33
0.0
  0
SOLID
  5
4CB9
330
D89
100
AcDbEntity
  8
2
100
AcDbTrace
 10
80.04166666666664
 20
-96.5
 30
0.0
 11
81.2083333333333
 21
-96.5
 31
0.0
 12
80.62499999999998
 22
-100.0
 32
0.0
 13
80.62499999999998
 23
-100.0
 33
0.0
  0
MTEXT
  5
4CBA
330
D89
100
AcDbEntity
  8
2
100
AcDbMText
 10
78.24965551181103
 20
-0.0000000000000096
 30
0.0
 40
3.5
 41
0.0
 71
     5
 72
     1
  1
%%c200
 11
0.0000000000000001
 21
1.0
 31
0.0
 73
     1
 44
1.0
  0
POINT
  5
4CBB
330
D89
100
AcDbEntity
  8
DEFPOINTS
 62
     0
100
AcDbPoint
 10
61.42109347748476
 20
100.0
 30
0.0
  0
POINT
  5
4CBC
330
D89
100
AcDbEntity
  8
DEFPOINTS
 62
     0
100
AcDbPoint
 10
63.49999999999997
 20
-100.0
 30
0.0
  0
POINT
  5
4CBD
330
D89
100
AcDbEntity
  8
DEFPOINTS
 62
     0
100
AcDbPoint
 10
80.62499999999998
 20
-100.0
 30
0.0
  0
ENDBLK
  5
D94
330
D89
100
AcDbEntity
  8
0
100
AcDbBlockEnd
  0
BLOCK
  5
D9F
330
D95
100
AcDbEntity
  8
0
100
AcDbBlockBegin
  2
*D2
 70
     1
 10
0.0
 20
0.0
 30
0.0
  3
*D2
  1

  0
LINE
  5
4A79
330
D95
100
AcDbEntity
  8
2
370
    -2
100
AcDbLine
 10
62.99999999999998
 20
-106.8992298259
 30
0.0
 11
62.99999999999998
 21
-118.8749999999999
 31
0.0
  0
LINE
  5
4A7A
330
D95
100
AcDbEntity
  8
2
370
    -2
100
AcDbLine
 10
-0.0000000000000105
 20
-86.39600600519996
 30
0.0
 11
-0.0000000000000125
 21
-118.8749999999999
 31
0.0
  0
LINE
  5
4A7B
330
D95
100
AcDbEntity
  8
2
370
    -2
100
AcDbLine
 10
59.49999999999999
 20
-117.625
 30
0.0
 11
3.499999999999986
 21
-117.625
 31
0.0
  0
SOLID
  5
4A7C
330
D95
100
AcDbEntity
  8
2
100
AcDbTrace
 10
59.49999999999999
 20
-117.0416666666665
 30
0.0
 11
59.49999999999999
 21
-118.2083333333332
 31
0.0
 12
62.99999999999998
 22
-117.625
 32
0.0
 13
62.99999999999998
 23
-117.625
 33
0.0
  0
SOLID
  5
4A7D
330
D95
100
AcDbEntity
  8
2
100
AcDbTrace
 10
3.499999999999986
 20
-117.0416666666665
 30
0.0
 11
3.499999999999986
 21
-118.2083333333332
 31
0.0
 12
-0.0000000000000125
 22
-117.625
 32
0.0
 13
-0.0000000000000125
 23
-117.625
 33
0.0
  0
MTEXT
  5
4A7E
330
D95
100
AcDbEntity
  8
2
100
AcDbMText
 10
31.49999999999999
 20
-115.25
 30
0.0
 40
3.5
 41
0.0
 71
     5
 72
     1
  1
63
 73
     1
 44
1.0
1001
ACAD
1000
MTEXTBEGIN
1070
    73
1070
     1
1070
    44
1040
1.0
1070
    74
1070
     0
1000
MTEXTEND
  0
POINT
  5
4A7F
330
D95
100
AcDbEntity
  8
DEFPOINTS
 62
     0
100
AcDbPoint
 10
62.99999999999998
 20
-106.2742298259
 30
0.0
  0
POINT
  5
4A80
330
D95
100
AcDbEntity
  8
DEFPOINTS
 62
     0
100
AcDbPoint
 10
-0.0000000000000105
 20
-85.77100600519996
 30
0.0
  0
POINT
  5
4A81
330
D95
100
AcDbEntity
  8
DEFPOINTS
 62
     0
100
AcDbPoint
 10
-0.0000000000000125
 20
-117.625
 30
0.0
  0
ENDBLK
  5
DA0
330
D95
100
AcDbEntity
  8
0
100
AcDbBlockEnd
  0
BLOCK
  5
DAB
330
DA1
100
AcDbEntity
  8
0
100
AcDbBlockBegin
  2
*D3
 70
     1
 10
0.0
 20
0.0
 30
0.0
  3
*D3
  1

  0
LINE
  5
4C94
330
DA1
100
AcDbEntity
  8
SK2
370
    -2
100
AcDbLine
 10
0.9749999999999932
 20
30.0
 30
0.0
 11
-13.62499999999999
 21
30.0
 31
0.0
  0
LINE
  5
4C95
330
DA1
100
AcDbEntity
  8
SK2
370
    -2
100
AcDbLine
 10
0.9749999999999856
 20
-30.0
 30
0.0
 11
-13.625
 21
-30.0
 31
0.0
  0
LINE
  5
4C96
330
DA1
100
AcDbEntity
  8
SK2
370
    -2
100
AcDbLine
 10
-12.37499999999999
 20
26.5
 30
0.0
 11
-12.375
 21
-26.49999999999999
 31
0.0
  0
SOLID
  5
4C97
330
DA1
100
AcDbEntity
  8
SK2
100
AcDbTrace
 10
-12.95833333333332
 20
26.5
 30
0.0
 11
-11.79166666666666
 21
26.5
 31
0.0
 12
-12.37499999999999
 22
30.0
 32
0.0
 13
-12.37499999999999
 23
30.0
 33
0.0
  0
SOLID
  5
4C98
330
DA1
100
AcDbEntity
  8
SK2
100
AcDbTrace
 10
-12.95833333333334
 20
-26.49999999999999
 30
0.0
 11
-11.79166666666666
 21
-26.49999999999999
 31
0.0
 12
-12.375
 22
-30.0
 32
0.0
 13
-12.375
 23
-30.0
 33
0.0
  0
MTEXT
  5
4C99
330
DA1
100
AcDbEntity
  8
SK2
100
AcDbMText
 10
-14.75
 20
0.0000000000000018
 30
0.0
 40
3.5
 41
0.0
 71
     5
 72
     1
  1
%%c60
 11
0.0000000000000001
 21
1.0
 31
0.0
 73
     1
 44
1.0
  0
POINT
  5
4C9A
330
DA1
100
AcDbEntity
  8
DEFPOINTS
 62
     0
100
AcDbPoint
 10
1.599999999999993
 20
30.0
 30
0.0
  0
POINT
  5
4C9B
330
DA1
100
AcDbEntity
  8
DEFPOINTS
 62
     0
100
AcDbPoint
 10
1.599999999999984
 20
-30.0
 30
0.0
  0
POINT
  5
4C9C
330
DA1
100
AcDbEntity
  8
DEFPOINTS
 62
     0
100
AcDbPoint
 10
-12.375
 20
-30.0
 30
0.0
  0
ENDBLK
  5
DAC
330
DA1
100
AcDbEntity
  8
0
100
AcDbBlockEnd
  0
BLOCK
  5
DCD
330
DC3
100
AcDbEntity
  8
0
100
AcDbBlockBegin
  2
*D4
 70
     1
 10
0.0
 20
0.0
 30
0.0
  3
*D4
  1

  0
LINE
  5
4C8B
330
DC3
100
AcDbEntity
  8
SK2
370
    -2
100
AcDbLine
 10
-4.57735685619532
 20
-50.80000000000001
 30
0.0
 11
-23.62500000000001
 21
-50.8
 31
0.0
  0
LINE
  5
4C8C
330
DC3
100
AcDbEntity
  8
SK2
370
    -2
100
AcDbLine
 10
-4.577356856195306
 20
50.80000000000001
 30
0.0
 11
-23.62499999999998
 21
50.80000000000001
 31
0.0
  0
LINE
  5
4C8D
330
DC3
100
AcDbEntity
  8
SK2
370
    -2
100
AcDbLine
 10
-22.37500000000001
 20
-47.29999999999999
 30
0.0
 11
-22.37499999999998
 21
47.30000000000002
 31
0.0
  0
SOLID
  5
4C8E
330
DC3
100
AcDbEntity
  8
SK2
100
AcDbTrace
 10
-22.95833333333333
 20
-47.29999999999999
 30
0.0
 11
-21.79166666666668
 21
-47.29999999999999
 31
0.0
 12
-22.37500000000001
 22
-50.8
 32
0.0
 13
-22.37500000000001
 23
-50.8
 33
0.0
  0
SOLID
  5
4C8F
330
DC3
100
AcDbEntity
  8
SK2
100
AcDbTrace
 10
-22.95833333333332
 20
47.30000000000002
 30
0.0
 11
-21.79166666666664
 21
47.30000000000002
 31
0.0
 12
-22.37499999999998
 22
50.80000000000001
 32
0.0
 13
-22.37499999999998
 23
50.80000000000001
 33
0.0
  0
MTEXT
  5
4C90
330
DC3
100
AcDbEntity
  8
SK2
100
AcDbMText
 10
-24.75
 20
0.0000000000000243
 30
0.0
 40
3.5
 41
0.0
 71
     5
 72
     1
  1
%%c101.6
 11
0.0000000000000001
 21
1.0
 31
0.0
 73
     1
 44
1.0
  0
POINT
  5
4C91
330
DC3
100
AcDbEntity
  8
DEFPOINTS
 62
     0
100
AcDbPoint
 10
-3.952356856195321
 20
-50.80000000000001
 30
0.0
  0
POINT
  5
4C92
330
DC3
100
AcDbEntity
  8
DEFPOINTS
 62
     0
100
AcDbPoint
 10
-3.952356856195308
 20
50.80000000000001
 30
0.0
  0
POINT
  5
4C93
330
DC3
100
AcDbEntity
  8
DEFPOINTS
 62
     0
100
AcDbPoint
 10
-22.37499999999998
 20
50.80000000000001
 30
0.0
  0
ENDBLK
  5
DCE
330
DC3
100
AcDbEntity
  8
0
100
AcDbBlockEnd
  0
BLOCK
  5
E00
330
DF6
100
AcDbEntity
  8
0
100
AcDbBlockBegin
  2
*D5
 70
     1
 10
0.0
 20
0.0
 30
0.0
  3
*D5
  1

  0
LINE
  5
4CAC
330
DF6
100
AcDbEntity
  8
2
370
    -2
100
AcDbLine
 10
62.04609347748476
 20
100.0
 30
0.0
 11
74.78856680723835
 21
100.0
 31
0.0
  0
LINE
  5
4CAD
330
DF6
100
AcDbEntity
  8
2
370
    -2
100
AcDbLine
 10
64.125
 20
89.99999999999998
 30
0.0
 11
74.78856680723834
 21
89.99999999999998
 31
0.0
  0
LINE
  5
4CAE
330
DF6
100
AcDbEntity
  8
2
370
    -2
100
AcDbLine
 10
73.53856680723835
 20
96.5
 30
0.0
 11
73.53856680723834
 21
93.49999999999999
 31
0.0
  0
SOLID
  5
4CAF
330
DF6
100
AcDbEntity
  8
2
100
AcDbTrace
 10
72.95523347390503
 20
96.5
 30
0.0
 11
74.12190014057168
 21
96.5
 31
0.0
 12
73.53856680723835
 22
100.0
 32
0.0
 13
73.53856680723835
 23
100.0
 33
0.0
  0
SOLID
  5
4CB0
330
DF6
100
AcDbEntity
  8
2
100
AcDbTrace
 10
72.95523347390501
 20
93.49999999999999
 30
0.0
 11
74.12190014057166
 21
93.49999999999999
 31
0.0
 12
73.53856680723834
 22
89.99999999999998
 32
0.0
 13
73.53856680723834
 23
89.99999999999998
 33
0.0
  0
MTEXT
  5
4CB1
330
DF6
100
AcDbEntity
  8
2
100
AcDbMText
 10
71.16356680723832
 20
95.0
 30
0.0
 40
3.5
 41
0.0
 71
     5
 72
     1
  1
10
 11
0.0000000000000001
 21
1.0
 31
0.0
 73
     1
 44
1.0
  0
POINT
  5
4CB2
330
DF6
100
AcDbEntity
  8
DEFPOINTS
 62
     0
100
AcDbPoint
 10
61.42109347748476
 20
100.0
 30
0.0
  0
POINT
  5
4CB3
330
DF6
100
AcDbEntity
  8
DEFPOINTS
 62
     0
100
AcDbPoint
 10
63.50000000000001
 20
89.99999999999998
 30
0.0
  0
POINT
  5
4CB4
330
DF6
100
AcDbEntity
  8
DEFPOINTS
 62
     0
100
AcDbPoint
 10
73.53856680723834
 20
89.99999999999998
 30
0.0
  0
ENDBLK
  5
E01
330
DF6
100
AcDbEntity
  8
0
100
AcDbBlockEnd
  0
BLOCK
  5
4AB6
330
4AB4
100
AcDbEntity
  8
0
100
AcDbBlockBegin
  2
_FILLED
 70
     0
 10
0.0
 20
0.0
 30
0.0
  3
_FILLED
  1

  0
SOLID
  5
4AB5
330
4AB4
100
AcDbEntity
  8
0
  6
ByBlock
 62
     0
100
AcDbTrace
 10
0.0
 20
0.0
 30
0.0
 11
-1.0
 21
0.132
 31
0.0
 12
-1.0
 22
-0.132
 32
0.0
 13
-1.0
 23
-0.132
 33
0.0
  0
ENDBLK
  5
4AB7
330
4AB4
100
AcDbEntity
  8
0
  6
ByBlock
 62
     0
100
AcDbBlockEnd
  0
ENDSEC
  0
SECTION
  2
ENTITIES
  0
DIMENSION
  5
7A
330
1E
100
AcDbEntity
  8
2
100
AcDbDimension
  2
*D1
 10
80.62499999999998
 20
-100.0
 30
0.0
 11
80.625
 21
-0.0000000000000099
 31
0.0
 70
   160
  1
%%c<>
 71
     5
 42
200.0
  3
ISO-25
100
AcDbAlignedDimension
 13
61.42109347748476
 23
100.0
 33
0.0
 14
63.49999999999997
 24
-100.0
 34
0.0
 50
270.0
100
AcDbRotatedDimension
  0
DIMENSION
  5
7B
330
1E
100
AcDbEntity
  8
2
100
AcDbDimension
  2
*D2
 10
-0.0000000000000125
 20
-117.625
 30
0.0
 11
31.49999999999999
 21
-117.625
 31
0.0
 70
   160
 71
     5
 42
62.99999999999999
  3
ISO-25
100
AcDbAlignedDimension
 13
62.99999999999998
 23
-106.2742298259
 33
0.0
 14
-0.0000000000000105
 24
-85.77100600519996
 34
0.0
 50
180.0
100
AcDbRotatedDimension
  0
DIMENSION
  5
7C
330
1E
100
AcDbEntity
  8
SK2
100
AcDbDimension
  2
*D0
 10
-32.52728254592651
 20
-79.99999999999999
 30
0.0
 11
-32.52728254592649
 21
1.004731402647397
 31
0.0
 70
   160
  1
%%c<>
 71
     5
 42
160.0
  3
ISO-25
100
AcDbAlignedDimension
 13
-0.4999999999999904
 23
80.0
 33
0.0
 14
-0.5000000000000098
 24
-80.0
 34
0.0
 50
270.0
100
AcDbRotatedDimension
  0
DIMENSION
  5
7D
330
1E
100
AcDbEntity
  8
SK2
100
AcDbDimension
  2
*D3
 10
-12.375
 20
-30.0
 30
0.0
 11
-12.375
 21
0.0000000000000015
 31
0.0
 70
   160
  1
%%c<>
 71
     5
 42
60.0
  3
ISO-25
100
AcDbAlignedDimension
 13
1.599999999999993
 23
30.0
 33
0.0
 14
1.599999999999984
 24
-30.0
 34
0.0
 50
270.0
100
AcDbRotatedDimension
  0
LINE
  5
7E
330
1E
100
AcDbEntity
  8
1
100
AcDbLine
 10
0.5522741324999993
 20
-32.63883253779997
 30
0.0
 11
0.5519961152999962
 21
-32.6388451230001
 31
0.0
  0
LINE
  5
7F
330
1E
100
AcDbEntity
  8
1
100
AcDbLine
 10
0.5525393172999836
 20
-35.33183065939999
 30
0.0
 11
0.5511996577999938
 21
-35.33187589460001
 31
0.0
  0
LINE
  5
80
330
1E
100
AcDbEntity
  8
1
100
AcDbLine
 10
61.96402594610001
 20
99.5348212762
 30
0.0
 11
61.8983016359
 21
99.5328060964
 31
0.0
  0
LINE
  5
81
330
1E
100
AcDbEntity
  8
1
100
AcDbLine
 10
61.96271898970001
 20
99.53484223209992
 30
0.0
 11
61.96380799279999
 21
99.53484219519999
 31
0.0
  0
LINE
  5
82
330
1E
100
AcDbEntity
  8
1
100
AcDbLine
 10
57.1763096618
 20
98.50000000000001
 30
0.0
 11
27.41303078760001
 21
98.50000000000001
 31
0.0
  0
LINE
  5
83
330
1E
100
AcDbEntity
  8
1
100
AcDbLine
 10
13.26794919250001
 20
80.0
 30
0.0
 11
5.000000000000007
 21
80.0
 31
0.0
  0
LINE
  5
84
330
1E
100
AcDbEntity
  8
SK3
100
AcDbLine
 10
58.92841383710001
 20
76.49999999999998
 30
0.0
 11
43.60000000000001
 21
76.5
 31
0.0
  0
LWPOLYLINE
  5
85
330
1E
100
AcDbEntity
  8
1
100
AcDbPolyline
 90
       17
 70
     0
 43
0.0
 10
61.696963043
 20
-80.21711630209997
 10
61.73717222469999
 20
-80.15340824269998
 10
61.77796128669997
 20
-80.16571262639997
 10
61.81777658619998
 20
-80.25356078310002
 10
61.85573657319999
 20
-80.41708738110003
 10
61.8890676023
 20
-80.64434392459999
 10
61.91719286399997
 20
-80.92891332360002
 10
61.93904107579998
 20
-81.25995641810002
 10
61.95397477220002
 20
-81.63160434900008
 10
61.96090278389999
 20
-82.01670169440012
 10
61.95988884849999
 20
-82.40683921420002
 10
61.95097158629999
 20
-82.78715669150008
 10
61.93413103539999
 20
-83.14921963779999
 10
61.91059769439998
 20
-83.46657298290002
 10
61.88103851139999
 20
-83.73374135560002
 10
61.8465793865
 20
-83.94054839550014
 10
61.80782955459998
 20
-84.08093479370011
  0
LINE
  5
98
330
1E
100
AcDbEntity
  8
SK3
100
AcDbLine
 10
44.10000000000001
 20
65.8461144244999
 30
0.0
 11
32.00000000000001
 21
65.0
 31
0.0
  0
LWPOLYLINE
  5
99
330
1E
100
AcDbEntity
  8
1
100
AcDbPolyline
 90
        7
 70
     0
 43
0.0
 10
61.696963043
 20
-80.21711630209997
 10
61.67892160699999
 20
-80.2719624887001
 10
61.66148495609999
 20
-80.34225916200002
 10
61.64479661489998
 20
-80.42742769580002
 10
61.62899394850001
 20
-80.52676705059999
 10
61.61366027020001
 20
-80.64404829519999
 10
61.59994823029999
 20
-80.7707240308
  0
LINE
  5
A2
330
1E
100
AcDbEntity
  8
1
100
AcDbLine
 10
62.46585634189999
 20
-3.640818075800046
 30
0.0
 11
62.9928485033
 21
-8.654814799300037
 31
0.0
  0
LINE
  5
A3
330
1E
100
AcDbEntity
  8
1
100
AcDbLine
 10
62.01223461449998
 20
0.6689251021999706
 30
0.0
 11
62.4658656168
 21
-3.640960971700005
 31
0.0
  0
LINE
  5
A4
330
1E
100
AcDbEntity
  8
1
100
AcDbLine
 10
62.9928514779
 20
-8.654845455999987
 30
0.0
 11
62.995432027
 21
-8.716025304899977
 31
0.0
  0
LINE
  5
A6
330
1E
100
AcDbEntity
  8
1
100
AcDbLine
 10
61.60000000000001
 20
86.04681458420001
 30
0.0
 11
61.6
 21
0.5863322215000075
 31
0.0
  0
LINE
  5
A7
330
1E
100
AcDbEntity
  8
1
100
AcDbLine
 10
61.6
 20
-8.444781074100047
 30
0.0
 11
61.59999999999999
 21
-96.89796571709999
 31
0.0
  0
LWPOLYLINE
  5
A8
330
1E
100
AcDbEntity
  8
1
100
AcDbPolyline
 90
        4
 70
     0
 43
0.0
 10
61.9614531793
 20
6.2505664797
 10
61.9568760273
 20
6.204135130299952
 10
61.94245595219999
 20
6.064146590899942
 10
61.9193217499
 20
5.841559088999977
  0
LINE
  5
AE
330
1E
100
AcDbEntity
  8
1
100
AcDbLine
 10
62.53509187529999
 20
4.32112869859997
 30
0.0
 11
62.8340486409
 21
7.187020744999972
 31
0.0
  0
LINE
  5
AF
330
1E
100
AcDbEntity
  8
1
100
AcDbLine
 10
61.9193217499
 20
5.841559088999977
 30
0.0
 11
61.8504882426
 21
5.182908832999991
 31
0.0
  0
LINE
  5
B0
330
1E
100
AcDbEntity
  8
1
100
AcDbLine
 10
61.696963043
 20
3.747077526599912
 30
0.0
 11
61.59995289779999
 21
2.820371894499931
 31
0.0
  0
LINE
  5
B1
330
1E
100
AcDbEntity
  8
1
100
AcDbLine
 10
61.7981287343
 20
4.685939933399929
 30
0.0
 11
61.9248681958
 21
5.902483494899962
 31
0.0
  0
LINE
  5
B2
330
1E
100
AcDbEntity
  8
1
100
AcDbLine
 10
61.6834185346
 20
3.628675430299941
 30
0.0
 11
61.6409597288
 21
3.223739374199952
 31
0.0
  0
LINE
  5
B3
330
1E
100
AcDbEntity
  8
1
100
AcDbLine
 10
62.4655116986
 20
3.637541367600011
 30
0.0
 11
62.9928485033
 21
8.654814799299963
 31
0.0
  0
LINE
  5
B4
330
1E
100
AcDbEntity
  8
1
100
AcDbLine
 10
62.49919589560001
 20
3.979462477199989
 30
0.0
 11
62.53509187529999
 21
4.32112869859997
 31
0.0
  0
LINE
  5
B5
330
1E
100
AcDbEntity
  8
1
100
AcDbLine
 10
62.5283771436
 20
4.32183388169993
 30
0.0
 11
62.0783852157
 21
0.0404456226999552
 31
0.0
  0
LINE
  5
B6
330
1E
100
AcDbEntity
  8
1
100
AcDbLine
 10
61.77053129359999
 20
4.420684611999932
 30
0.0
 11
61.8504882426
 21
5.182908832999991
 31
0.0
  0
LINE
  5
B7
330
1E
100
AcDbEntity
  8
1
100
AcDbLine
 10
61.696963043
 20
3.747077526599912
 30
0.0
 11
61.7386282337
 21
4.143928913699982
 31
0.0
  0
LINE
  5
B8
330
1E
100
AcDbEntity
  8
1
100
AcDbLine
 10
62.98165422770001
 20
8.628300351499992
 30
0.0
 11
62.5283771436
 21
4.32183388169993
 31
0.0
  0
LINE
  5
B9
330
1E
100
AcDbEntity
  8
1
100
AcDbLine
 10
61.6953899894
 20
3.706252996499968
 30
0.0
 11
61.77053129359999
 21
4.420684611999932
 31
0.0
  0
LINE
  5
BA
330
1E
100
AcDbEntity
  8
1
100
AcDbLine
 10
61.7386282337
 20
4.143928913699982
 30
0.0
 11
61.82192089429999
 21
4.935635220699952
 31
0.0
  0
LINE
  5
BB
330
1E
100
AcDbEntity
  8
1
100
AcDbLine
 10
61.6886721013
 20
3.644963525500021
 30
0.0
 11
61.7981287343
 21
4.685939933399929
 31
0.0
  0
LINE
  5
BC
330
1E
100
AcDbEntity
  8
1
100
AcDbLine
 10
61.9592111492
 20
6.250802984499942
 30
0.0
 11
61.6834185346
 21
3.628675430299941
 31
0.0
  0
LINE
  5
BD
330
1E
100
AcDbEntity
  8
1
100
AcDbLine
 10
61.64724419529999
 20
3.252333610999971
 30
0.0
 11
61.6886721013
 21
3.644963525500021
 31
0.0
  0
LWPOLYLINE
  5
BE
330
1E
100
AcDbEntity
  8
1
100
AcDbPolyline
 90
        6
 70
     0
 43
0.0
 10
61.82192089429999
 20
4.935635220699952
 10
61.894505495
 20
5.623386449499941
 10
61.9224352862
 20
5.887072845899909
 10
61.9437144475
 20
6.087123688000009
 10
61.9567548316
 20
6.208608395599973
 10
61.9614531793
 20
6.2505664797
  0
LINE
  5
C6
330
1E
100
AcDbEntity
  8
1
100
AcDbLine
 10
62.1598402013
 20
0.7723545042999753
 30
0.0
 11
62.49919589560001
 21
3.979462477199989
 31
0.0
  0
LWPOLYLINE
  5
C7
330
1E
100
AcDbEntity
  8
1
100
AcDbPolyline
 90
        3
 70
     0
 43
0.0
 10
61.5999379701
 20
2.8018583593
 10
61.6276793805
 20
3.064200033599991
 10
61.6953899894
 20
3.706252996499968
  0
LINE
  5
CC
330
1E
100
AcDbEntity
  8
1
100
AcDbLine
 10
61.6
 20
2.806448779099912
 30
0.0
 11
61.64724419529999
 21
3.252333610999971
 31
0.0
  0
LINE
  5
CD
330
1E
100
AcDbEntity
  8
1
100
AcDbLine
 10
62.1442105138
 20
7.996137290999961
 30
0.0
 11
61.9592111492
 21
6.250802984499942
 31
0.0
  0
LINE
  5
CE
330
1E
100
AcDbEntity
  8
1
100
AcDbLine
 10
62.1574377873
 20
8.115843654299961
 30
0.0
 11
62.1442105138
 21
7.996137290999961
 31
0.0
  0
LINE
  5
CF
330
1E
100
AcDbEntity
  8
1
100
AcDbLine
 10
62.995432027
 20
8.716025304899963
 30
0.0
 11
62.98165422770001
 21
8.628300351499992
 31
0.0
  0
LINE
  5
D0
330
1E
100
AcDbEntity
  8
SK3
100
AcDbLine
 10
1.599999999999993
 20
30.0
 30
0.0
 11
30.4
 21
30.0
 31
0.0
  0
LINE
  5
D1
330
1E
100
AcDbEntity
  8
1
100
AcDbLine
 10
62.01223461449998
 20
0.6689251021999706
 30
0.0
 11
61.99838524739998
 21
0.7566425441999556
 31
0.0
  0
LINE
  5
D2
330
1E
100
AcDbEntity
  8
1
100
AcDbLine
 10
57.91079127879999
 20
-1.080151674800055
 30
0.0
 11
58.61654164419999
 21
-7.785300448899997
 31
0.0
  0
LINE
  5
D3
330
1E
100
AcDbEntity
  8
1
100
AcDbLine
 10
57.4277940564
 20
-1.271356795700004
 30
0.0
 11
57.43837036470001
 21
-1.371839521700005
 31
0.0
  0
LINE
  5
D4
330
1E
100
AcDbEntity
  8
1
100
AcDbLine
 10
57.8833298474
 20
-5.599282646299974
 30
0.0
 11
58.1043264325
 21
-7.698913130800017
 31
0.0
  0
LINE
  5
D5
330
1E
100
AcDbEntity
  8
1
100
AcDbLine
 10
57.8833298474
 20
-5.599282646299974
 30
0.0
 11
57.43910632
 21
-1.371762058700035
 31
0.0
  0
LINE
  5
D6
330
1E
100
AcDbEntity
  8
1
100
AcDbLine
 10
57.0695377036
 20
-7.524222032000015
 30
0.0
 11
57.1156662753
 21
-7.966486337699967
 31
0.0
  0
LINE
  5
D7
330
1E
100
AcDbEntity
  8
1
100
AcDbLine
 10
57.1156662753
 20
-7.966486337699967
 30
0.0
 11
57.18482952279998
 21
-8.638485729300048
 31
0.0
  0
LINE
  5
D8
330
1E
100
AcDbEntity
  8
1
100
AcDbLine
 10
54.6600672196
 20
-8.505176319400057
 30
0.0
 11
54.72228631490001
 21
-9.128673937700007
 31
0.0
  0
LINE
  5
D9
330
1E
100
AcDbEntity
  8
1
100
AcDbLine
 10
58.1043264325
 20
-7.698913130800017
 30
0.0
 11
58.107338062
 21
-7.765875714900013
 31
0.0
  0
LINE
  5
DA
330
1E
100
AcDbEntity
  8
1
100
AcDbLine
 10
58.06450963279999
 20
98.227344987
 30
0.0
 11
58.05884211230001
 21
90.10922123950001
 31
0.0
  0
LINE
  5
DB
330
1E
100
AcDbEntity
  8
1
100
AcDbLine
 10
57.8637470157
 20
98.3488558117
 30
0.0
 11
57.8638517945
 21
98.49894048270002
 31
0.0
  0
LINE
  5
DC
330
1E
100
AcDbEntity
  8
1
100
AcDbLine
 10
57.4146549892
 20
-1.189035668600017
 30
0.0
 11
57.4277940564
 21
-1.271356795700004
 31
0.0
  0
LWPOLYLINE
  5
DD
330
1E
100
AcDbEntity
  8
1
100
AcDbPolyline
 90
        7
 70
     0
 43
0.0
 10
61.59994192520001
 20
-83.50779218799997
 10
61.62768401960001
 20
-83.74620132880002
 10
61.66002221469999
 20
-83.93726301270001
 10
61.6953955506
 20
-84.06956847390002
 10
61.7326417633
 20
-84.13877054400002
 10
61.77053705199998
 20
-84.1425954466001
 10
61.80782954929999
 20
-84.08093480739998
  0
LINE
  5
E6
330
1E
100
AcDbEntity
  8
1
100
AcDbLine
 10
57.43910632
 20
-1.371762058700035
 30
0.0
 11
57.3613923058
 21
-1.308829959600025
 31
0.0
  0
LINE
  5
E7
330
1E
100
AcDbEntity
  8
1
100
AcDbLine
 10
58.0269988981
 20
-0.5646372016000854
 30
0.0
 11
58.13349679489999
 21
-0.6510459859000621
 31
0.0
  0
LINE
  5
E8
330
1E
100
AcDbEntity
  8
1
100
AcDbLine
 10
58.13349679489999
 20
-0.6510459859000621
 30
0.0
 11
58.3225794864
 21
-0.804870632800039
 31
0.0
  0
LINE
  5
E9
330
1E
100
AcDbEntity
  8
SK3
100
AcDbLine
 10
44.09999999999999
 20
-70.5
 30
0.0
 11
44.10000000000001
 21
70.5
 31
0.0
  0
LINE
  5
EA
330
1E
100
AcDbEntity
  8
SK3
100
AcDbLine
 10
43.59999999999998
 20
-76.5
 30
0.0
 11
43.60000000000001
 21
76.5
 31
0.0
  0
LINE
  5
EB
330
1E
100
AcDbEntity
  8
1
100
AcDbLine
 10
58.3159710297
 20
-0.807659625500044
 30
0.0
 11
61.60234004229999
 21
0.5873214334999866
 31
0.0
  0
LINE
  5
EC
330
1E
100
AcDbEntity
  8
1
100
AcDbLine
 10
57.412496583
 20
-1.189951530200014
 30
0.0
 11
58.31553572349999
 21
-0.8066341085000271
 31
0.0
  0
LINE
  5
ED
330
1E
100
AcDbEntity
  8
1
100
AcDbLine
 10
61.61451153379999
 20
0.5936982192999875
 30
0.0
 11
61.99636987489999
 21
0.7557874888999474
 31
0.0
  0
LINE
  5
EE
330
1E
100
AcDbEntity
  8
1
100
AcDbLine
 10
60.0
 20
0.4498778783999387
 30
0.0
 11
61.0776548242
 21
0.9074103508999575
 31
0.0
  0
LINE
  5
EF
330
1E
100
AcDbEntity
  8
1
100
AcDbLine
 10
57.8638517945
 20
-0.4568629937999801
 30
0.0
 11
60.0
 21
0.4498778783999387
 31
0.0
  0
LINE
  5
F0
330
1E
100
AcDbEntity
  8
1
100
AcDbLine
 10
12.4
 20
12.85
 30
0.0
 11
1.599999999999989
 21
12.85
 31
0.0
  0
LINE
  5
F1
330
1E
100
AcDbEntity
  8
SK3
100
AcDbLine
 10
31.99999999999999
 20
-65.0
 30
0.0
 11
32.00000000000001
 21
65.0
 31
0.0
  0
LINE
  5
F2
330
1E
100
AcDbEntity
  8
SK3
100
AcDbLine
 10
-0.0000000000000039
 20
-31.6
 30
0.0
 11
1.599999999999984
 21
-30.0
 31
0.0
  0
LINE
  5
F3
330
1E
100
AcDbEntity
  8
1
100
AcDbLine
 10
61.6
 20
8.44478107409991
 30
0.0
 11
62.9932148038
 21
8.715594731599932
 31
0.0
  0
LINE
  5
F4
330
1E
100
AcDbEntity
  8
4
100
AcDbLine
 10
68.9611943867
 20
-0.0000000000000084
 30
0.0
 11
-6.099700636100007
 21
0.0000000000000007
 31
0.0
  0
LINE
  5
F5
330
1E
100
AcDbEntity
  8
SK3
100
AcDbLine
 10
0.0000000000000039
 20
31.6
 30
0.0
 11
1.599999999999993
 21
30.0
 31
0.0
  0
LINE
  5
F6
330
1E
100
AcDbEntity
  8
SK3
100
AcDbLine
 10
30.4
 20
-30.0
 30
0.0
 11
30.4
 21
30.0
 31
0.0
  0
LINE
  5
F7
330
1E
100
AcDbEntity
  8
1
100
AcDbLine
 10
57.1853855453
 20
-0.8361583702999908
 30
0.0
 11
58.22668692389999
 21
-0.7267132096000142
 31
0.0
  0
LINE
  5
F8
330
1E
100
AcDbEntity
  8
1
100
AcDbLine
 10
58.10499621329999
 20
-7.765420823400066
 30
0.0
 11
62.9932148038
 21
-8.715594731600056
 31
0.0
  0
LINE
  5
F9
330
1E
100
AcDbEntity
  8
1
100
AcDbLine
 10
62.98165422770001
 20
86.61690093069998
 30
0.0
 11
62.5283771436
 21
85.69649296500001
 31
0.0
  0
LINE
  5
FA
330
1E
100
AcDbEntity
  8
1
100
AcDbLine
 10
-0.0000000000000018
 20
-14.45
 30
0.0
 11
1.599999999999988
 21
-12.85
 31
0.0
  0
LINE
  5
FB
330
1E
100
AcDbEntity
  8
1
100
AcDbLine
 10
55.14797911439999
 20
-7.630384429999994
 30
0.0
 11
58.06450963279999
 21
-7.323844400900044
 31
0.0
  0
LINE
  5
FC
330
1E
100
AcDbEntity
  8
1
100
AcDbLine
 10
57.11427860829999
 20
-7.966630848300044
 30
0.0
 11
55.3420887093
 21
-8.134998395699994
 31
0.0
  0
LINE
  5
FD
330
1E
100
AcDbEntity
  8
1
100
AcDbLine
 10
12.4
 20
-12.85
 30
0.0
 11
1.599999999999988
 21
-12.85
 31
0.0
  0
LINE
  5
FE
330
1E
100
AcDbEntity
  8
1
100
AcDbLine
 10
0.0000000000000018
 20
14.45
 30
0.0
 11
1.599999999999989
 21
12.85
 31
0.0
  0
LINE
  5
FF
330
1E
100
AcDbEntity
  8
1
100
AcDbLine
 10
62.98165422770001
 20
-86.61690093069998
 30
0.0
 11
62.5283771436
 21
-85.69649296500003
 31
0.0
  0
LINE
  5
100
330
1E
100
AcDbEntity
  8
1
100
AcDbLine
 10
14.0
 20
-11.25
 30
0.0
 11
14.0
 21
11.25
 31
0.0
  0
LINE
  5
101
330
1E
100
AcDbEntity
  8
1
100
AcDbLine
 10
57.88332686890002
 20
98.33920583280001
 30
0.0
 11
58.10432643250002
 21
98.78795951089998
 31
0.0
  0
LINE
  5
102
330
1E
100
AcDbEntity
  8
1
100
AcDbLine
 10
62.01223461449998
 20
-97.61374933270005
 30
0.0
 11
62.46551169859998
 21
-98.53415729830002
 31
0.0
  0
LINE
  5
103
330
1E
100
AcDbEntity
  8
1
100
AcDbLine
 10
58.20856621339998
 20
-98.50000000000013
 30
0.0
 11
58.61654164419997
 21
-99.32842007570002
 31
0.0
  0
LINE
  5
104
330
1E
100
AcDbEntity
  8
1
100
AcDbLine
 10
57.96251383159997
 20
-98.5000000000001
 30
0.0
 11
58.10432643249999
 21
-98.78795951090012
 31
0.0
  0
LINE
  5
105
330
1E
100
AcDbEntity
  8
SK3
100
AcDbLine
 10
30.4
 20
30.0
 30
0.0
 11
32.00000000000001
 21
31.6
 31
0.0
  0
LINE
  5
106
330
1E
100
AcDbEntity
  8
SK3
100
AcDbLine
 10
30.4
 20
-30.0
 30
0.0
 11
32.0
 21
-31.60000000000001
 31
0.0
  0
LINE
  5
107
330
1E
100
AcDbEntity
  8
SK3
100
AcDbLine
 10
1.599999999999984
 20
-30.0
 30
0.0
 11
1.599999999999988
 21
-12.85
 31
0.0
  0
LINE
  5
108
330
1E
100
AcDbEntity
  8
SK3
100
AcDbLine
 10
1.599999999999989
 20
12.85
 30
0.0
 11
1.599999999999993
 21
30.0
 31
0.0
  0
LINE
  5
109
330
1E
100
AcDbEntity
  8
1
100
AcDbLine
 10
-0.0000000000000092
 20
-75.0
 30
0.0
 11
-0.0000000000000018
 21
-14.4446911193
 31
0.0
  0
LINE
  5
10A
330
1E
100
AcDbEntity
  8
1
100
AcDbLine
 10
0.0000000000000018
 20
14.4446911191
 30
0.0
 11
0.0000000000000092
 21
75.0
 31
0.0
  0
LINE
  5
10B
330
1E
100
AcDbEntity
  8
SK3
100
AcDbLine
 10
1.599999999999984
 20
-30.0
 30
0.0
 11
30.4
 21
-30.0
 31
0.0
  0
LINE
  5
10C
330
1E
100
AcDbEntity
  8
1
100
AcDbLine
 10
24.81495457620001
 20
97.0
 30
0.0
 11
15.86602540380001
 21
81.5
 31
0.0
  0
LINE
  5
10D
330
1E
100
AcDbEntity
  8
1
100
AcDbLine
 10
24.81495457619999
 20
-97.00000000000008
 30
0.0
 11
15.86602540379999
 21
-81.5
 31
0.0
  0
LINE
  5
10E
330
1E
100
AcDbEntity
  8
SK3
100
AcDbLine
 10
44.09999999999999
 20
-65.8461144245
 30
0.0
 11
31.99999999999999
 21
-65.0
 31
0.0
  0
LINE
  5
10F
330
1E
100
AcDbEntity
  8
SK3
100
AcDbLine
 10
58.92841383709999
 20
-76.50000000000002
 30
0.0
 11
43.59999999999998
 21
-76.5
 31
0.0
  0
LINE
  5
110
330
1E
100
AcDbEntity
  8
1
100
AcDbLine
 10
13.26794919249999
 20
-80.0
 30
0.0
 11
4.99999999999999
 21
-80.0
 31
0.0
  0
LINE
  5
112
330
1E
100
AcDbEntity
  8
1
100
AcDbLine
 10
58.94015440659998
 20
-98.50000000000013
 30
0.0
 11
27.4130307876
 21
-98.5000000000001
 31
0.0
  0
ARC
  5
115
330
1E
100
AcDbEntity
  8
1
100
AcDbCircle
 10
54.45124877009999
 20
-41.2867335605001
 30
0.0
 40
50.0
100
AcDbArc
 50
81.13401804659991
 51
81.77989986820005
  0
ARC
  5
116
330
1E
100
AcDbEntity
  8
1
100
AcDbCircle
 10
54.45124877010001
 20
41.2867335605
 30
0.0
 40
50.0
100
AcDbArc
 50
273.1340153965999
 51
277.3630574494999
  0
ARC
  5
118
330
1E
100
AcDbEntity
  8
1
100
AcDbCircle
 10
57.60729268409999
 20
-0.9271329681000178
 30
0.0
 40
0.5
100
AcDbArc
 50
61.38501315360004
 51
237.2091800361
  0
ARC
  5
119
330
1E
100
AcDbEntity
  8
1
100
AcDbCircle
 10
12.4
 20
-11.25
 30
0.0
 40
1.6
100
AcDbArc
 50
270.0
 51
0.0
  0
ARC
  5
11A
330
1E
100
AcDbEntity
  8
1
100
AcDbCircle
 10
12.4
 20
11.25
 30
0.0
 40
1.6
100
AcDbArc
 50
0.0
 51
90.0
  0
ARC
  5
11B
330
1E
100
AcDbEntity
  8
1
100
AcDbCircle
 10
57.60729268409999
 20
-0.9271329681000178
 30
0.0
 40
0.5
100
AcDbArc
 50
39.14633343660002
 51
58.91315189150004
  0
ARC
  5
11C
330
1E
100
AcDbEntity
  8
1
100
AcDbCircle
 10
4.999999999999991
 20
-75.0
 30
0.0
 40
5.0
100
AcDbArc
 50
180.0
 51
270.0
  0
ARC
  5
11D
330
1E
100
AcDbEntity
  8
1
100
AcDbCircle
 10
5.000000000000006
 20
75.0
 30
0.0
 40
5.0
100
AcDbArc
 50
90.0
 51
180.0
  0
ARC
  5
11E
330
1E
100
AcDbEntity
  8
1
100
AcDbCircle
 10
13.26794919249999
 20
-83.0
 30
0.0
 40
3.0
100
AcDbArc
 50
30.00000000000005
 51
90.0
  0
ARC
  5
11F
330
1E
100
AcDbEntity
  8
1
100
AcDbCircle
 10
13.26794919250001
 20
83.0
 30
0.0
 40
3.0
100
AcDbArc
 50
270.0
 51
330.0000000000001
  0
ARC
  5
120
330
1E
100
AcDbEntity
  8
1
100
AcDbCircle
 10
27.4130307876
 20
-95.50000000000007
 30
0.0
 40
3.0
100
AcDbArc
 50
210.0
 51
270.0
  0
ARC
  5
121
330
1E
100
AcDbEntity
  8
1
100
AcDbCircle
 10
27.41303078760001
 20
95.5
 30
0.0
 40
3.0
100
AcDbArc
 50
90.0
 51
150.0
  0
LWPOLYLINE
  5
122
330
1E
100
AcDbEntity
  8
SK3
100
AcDbPolyline
 90
        2
 70
     0
 43
0.0
 10
58.92841383709999
 20
-76.50000000000002
 10
61.59999000019801
 20
-76.49159432412919
  0
LWPOLYLINE
  5
126
330
1E
100
AcDbEntity
  8
1
100
AcDbPolyline
 90
       23
 70
     0
 43
0.0
 10
62.5283771436
 20
4.32183388169993
 10
62.50334650430271
 20
4.095238131014471
 10
62.47597205545201
 20
3.868910572569732
 10
62.4467119354394
 20
3.646357166370642
 10
62.4156364303861
 20
3.427593343958301
 10
62.38335407510279
 20
3.21609736192815
 10
62.3500177299221
 20
3.011869295499371
 10
62.31577439657879
 20
2.814907471364941
 10
62.28075848375478
 20
2.625210665962009
 10
62.24510223802401
 20
2.442775332254381
 10
62.2096558500791
 20
2.27103000172511
 10
62.17388917870028
 20
2.1065225463093
 10
62.1387210053701
 20
1.952661943234421
 10
62.1035475508217
 20
1.80600661465967
 10
62.06936242484459
 20
1.669942940378049
 10
62.0354928430246
 20
1.541040276518732
 10
62.0030117803051
 20
1.42265952484304
 10
61.9711808430113
 20
1.311380977997802
 10
61.9401342615592
 20
1.207180679808842
 10
61.91001625290478
 20
1.110028629369929
 10
61.880970715636
 20
1.019895108544712
 10
61.8531515766743
 20
0.9367430247167224
 10
61.8371624117125
 20
0.8903281054172666
  0
LWPOLYLINE
  5
13F
330
1E
100
AcDbEntity
  8
1
100
AcDbPolyline
 90
        3
 70
     0
 43
0.0
 10
61.8371591232
 20
0.8903186615999553
 10
61.81228524207188
 20
0.8200777550162163
 10
61.8035543385832
 20
0.7959811461302296
  0
LWPOLYLINE
  5
144
330
1E
100
AcDbEntity
  8
1
100
AcDbPolyline
 90
        4
 70
     0
 43
0.0
 10
61.803550914
 20
0.7959717507999855
 10
61.77986690182359
 20
0.7320447192028256
 10
61.757111759985
 20
0.6725905995744066
 10
61.74843596182359
 20
0.6504243327076046
  0
LWPOLYLINE
  5
14A
330
1E
100
AcDbEntity
  8
1
100
AcDbPolyline
 90
        2
 70
     0
 43
0.0
 10
62.98165422770001
 20
8.628300351499992
 10
61.6000097341348
 20
8.357403556858121
  0
LWPOLYLINE
  5
14E
330
1E
100
AcDbEntity
  8
1
100
AcDbPolyline
 90
       32
 70
     0
 43
0.0
 10
62.9928502543
 20
-8.654829320400047
 10
62.99213473087711
 20
-8.652949303666096
 10
62.99051171024149
 20
-8.651669169034445
 10
62.9882448449277
 20
-8.650826092339757
 10
62.9855977874705
 20
-8.650257249416657
 10
62.98148506210949
 20
-8.649565645993762
 10
62.97888914872221
 20
-8.649062134204127
 10
62.976418898716
 20
-8.648515844474385
 10
62.9740613590825
 20
-8.647931717765667
 10
62.97180357681289
 20
-8.647314695039074
 10
62.9696325988986
 20
-8.646669717255727
 10
62.967535472331
 20
-8.646001725376747
 10
62.9654992441014
 20
-8.645315660363245
 10
62.9625307514345
 20
-8.644263484068206
 10
62.9586650106476
 20
-8.642843442007757
 10
62.95383537133879
 20
-8.641096428279794
 10
62.950867121138
 20
-8.640090489437307
 10
62.9478325094195
 20
-8.639120862478343
 10
62.94473742903679
 20
-8.638184623285638
 10
62.9415877828407
 20
-8.637278843792257
 10
62.93731357688272
 20
-8.636113458699185
 10
62.9329668509328
 20
-8.634990078127316
 10
62.92745277810639
 20
-8.633634347695457
 10
62.9185082561408
 20
-8.631545301298487
 10
62.90057045823679
 20
-8.627463702296827
 10
62.88952662630769
 20
-8.624876620989365
 10
62.8742522665045
 20
-8.621213790050857
 10
62.8146622102451
 20
-8.606997080243237
 10
62.6876801887428
 20
-8.578713180372787
 10
62.45974521326071
 20
-8.530171438181177
 10
62.09075832789829
 20
-8.455415242279254
 10
61.8983114552056
 20
-8.417862458915942
  0
LWPOLYLINE
  5
170
330
1E
100
AcDbEntity
  8
1
100
AcDbPolyline
 90
        2
 70
     0
 43
0.0
 10
57.4277940564
 20
-1.271356795700004
 10
57.9107819775276
 20
-1.080155347174136
  0
LWPOLYLINE
  5
174
330
1E
100
AcDbEntity
  8
1
100
AcDbPolyline
 90
        2
 70
     0
 43
0.0
 10
58.61654164419999
 20
-7.785300448899997
 10
58.1043362913583
 20
-7.698914804990247
  0
LWPOLYLINE
  5
178
330
1E
100
AcDbEntity
  8
1
100
AcDbPolyline
 90
       86
 70
     0
 43
0.0
 10
62.4658712983
 20
-3.640960374600016
 10
62.48884209122128
 20
-3.871083916696487
 10
62.50897467437839
 20
-4.096428921926055
 10
62.5267707509265
 20
-4.321969384847116
 10
62.5418690843932
 20
-4.542666111301896
 10
62.5543735578332
 20
-4.758489407572158
 10
62.5641589144711
 20
-4.964387120045778
 10
62.57162390108288
 20
-5.165351109428486
 10
62.57672978302871
 20
-5.356330084711976
 10
62.57975708223739
 20
-5.542325296342004
 10
62.5807617224
 20
-5.718287010848515
 10
62.5799628896756
 20
-5.884194797417046
 10
62.5775749397746
 20
-6.040030982694705
 10
62.573817422092
 20
-6.185782191212825
 10
62.568698652136
 20
-6.326461044306816
 10
62.5625470191596
 20
-6.457033359703387
 10
62.5555875771744
 20
-6.577494395036237
 10
62.5476840847979
 20
-6.692858700015483
 10
62.53933405157138
 20
-6.798107394183757
 10
62.53030395765009
 20
-6.898253395292598
 10
62.52067592943309
 20
-6.993291494713997
 10
62.5111312431015
 20
-7.078226625782407
 10
62.5012848233737
 20
-7.158064027145988
 10
62.4912359236911
 20
-7.232806116974798
 10
62.4810926891047
 20
-7.302459034981627
 10
62.4709616458816
 20
-7.367028893735897
 10
62.4600940162616
 20
-7.431479011773856
 10
62.44936121112821
 20
-7.490849667525745
 10
62.4388832716252
 20
-7.545153068951305
 10
62.4287889080714
 20
-7.594406858760076
 10
62.41811520526059
 20
-7.643539210035496
 10
62.4079744607989
 20
-7.687638719260298
 10
62.3972899335306
 20
-7.731609584666036
 10
62.38730614654489
 20
-7.770574436507176
 10
62.37682944118819
 20
-7.809410012634145
 10
62.3672272665491
 20
-7.843270499104477
 10
62.35719156112949
 20
-7.877005318857187
 10
62.34669469228919
 20
-7.910600997370907
 10
62.3373021131849
 20
-7.939271150856847
 10
62.32751702372191
 20
-7.967809287543738
 10
62.31731321546368
 20
-7.996200641381165
 10
62.30847106084439
 20
-8.019737131132313
 10
62.29929966743871
 20
-8.043148385319437
 10
62.2897745277633
 20
-8.066417601692347
 10
62.2798709547442
 20
-8.089527819242114
 10
62.2695642613073
 20
-8.112462076959817
 10
62.26101160703
 20
-8.130670856621696
 10
62.2521667108107
 20
-8.148740743370613
 10
62.24300866689969
 20
-8.166653457080757
 10
62.233516529966
 20
-8.184390671675446
 10
62.22366935467849
 20
-8.201934061078057
 10
62.21344614307739
 20
-8.219265202921016
 10
62.20551715536579
 20
-8.232109212762557
 10
62.1973488579309
 20
-8.244802672911387
 10
62.1889272485736
 20
-8.257328400392243
 10
62.1802383250952
 20
-8.269669212229896
 10
62.1712680852966
 20
-8.281807925449097
 10
62.1620025269791
 20
-8.293727357074605
 10
62.15242713107969
 20
-8.305407746544096
 10
62.1425245666897
 20
-8.316815310694206
 10
62.1322765513173
 20
-8.327911520842127
 10
62.12166480171579
 20
-8.338657844540342
 10
62.1106710346385
 20
-8.349015749341386
 10
62.09927696745659
 20
-8.358946701706338
 10
62.0914507167633
 20
-8.365308971342146
 10
62.083439174479
 20
-8.371442053052643
 10
62.07524259420529
 20
-8.377324510123775
 10
62.066861229544
 20
-8.382934905841466
 10
62.05829533409669
 20
-8.388251803491657
 10
62.0495451614653
 20
-8.393253766360276
 10
62.0406109652513
 20
-8.397919357733266
 10
62.03149307307739
 20
-8.402227159848077
 10
62.0221975937626
 20
-8.406157235098916
 10
62.0127404664129
 20
-8.409692162723445
 10
62.0031385862217
 20
-8.412814766745796
 10
61.9934088483823
 20
-8.415507871190127
 10
61.98356814808811
 20
-8.417754300080584
 10
61.97363338053239
 20
-8.419536877441336
 10
61.96362151748211
 20
-8.420838665778937
 10
61.953553007103
 20
-8.421653554569596
 10
61.94345312589439
 20
-8.421990470752785
 10
61.93334750649629
 20
-8.421859450440047
 10
61.92326178154861
 20
-8.421270529742876
 10
61.91322158369139
 20
-8.420233744772827
 10
61.9032525455645
 20
-8.418759131641401
 10
61.89831254096
 20
-8.417862668005666
  0
LWPOLYLINE
  5
1D0
330
1E
100
AcDbEntity
  8
1
100
AcDbPolyline
 90
        2
 70
     0
 43
0.0
 10
61.8983027216
 20
-8.417860775800026
 10
58.6165514634095
 20
-7.785302341814396
  0
LWPOLYLINE
  5
1D4
330
1E
100
AcDbEntity
  8
1
100
AcDbPolyline
 90
        2
 70
     0
 43
0.0
 10
62.01223461449998
 20
0.6689251021999706
 10
58.35855014938029
 20
-0.8891866050164461
  0
LWPOLYLINE
  5
1D8
330
1E
100
AcDbEntity
  8
1
100
AcDbPolyline
 90
        2
 70
     0
 43
0.0
 10
58.358540951
 20
-0.8891905280000358
 10
57.9108004771502
 20
-1.080147751746056
  0
LWPOLYLINE
  5
1DC
330
1E
100
AcDbEntity
  8
1
100
AcDbPolyline
 90
        2
 70
     0
 43
0.0
 10
62.99285147789998
 20
-98.53413941950002
 10
62.98165426315669
 20
-86.61691093063707
  0
LWPOLYLINE
  5
1E0
330
1E
100
AcDbEntity
  8
1
100
AcDbPolyline
 90
       53
 70
     0
 43
0.0
 10
62.5283771436
 20
-85.69649296500003
 10
62.52026480855439
 20
-85.68028535370322
 10
62.51194521489271
 20
-85.66418086083203
 10
62.50342333178021
 20
-85.6481805280986
 10
62.4940739089096
 20
-85.63115408382769
 10
62.48450408226051
 20
-85.61424968824653
 10
62.47471996368859
 20
-85.59746862261548
 10
62.46405413617868
 20
-85.57970612284199
 10
62.45315733896079
 20
-85.56208600561888
 10
62.44203483259266
 20
-85.54460847862578
 10
62.42997573244009
 20
-85.52619506817611
 10
62.41767405342189
 20
-85.50794309796922
 10
62.40439132502522
 20
-85.48879371957871
 10
62.39085053010271
 20
-85.46982604286531
 10
62.37705776832739
 20
-85.45104067817669
 10
62.36223207857829
 20
-85.43141015442042
 10
62.34713951348779
 20
-85.41198418471131
 10
62.33097191022178
 20
-85.39175757877599
 10
62.31452325724929
 20
-85.37175924124552
 10
62.2969569026736
 20
-85.35100753726132
 10
62.27909558485959
 20
-85.33050930976601
 10
62.2600754171832
 20
-85.30930792238494
 10
62.24074711149611
 20
-85.28838721436299
 10
62.22021859975689
 20
-85.26681726958749
 10
62.1993693623801
 20
-85.24555740759481
 10
62.17820686321019
 20
-85.22460959147542
 10
62.15673796699629
 20
-85.20397600352941
 10
62.13496951140689
 20
-85.18365883819692
 10
62.11290792037758
 20
-85.16366054317622
 10
62.09055904187778
 20
-85.14398391873049
 10
62.0679286776455
 20
-85.12463179448628
 10
62.04602394840071
 20
-85.106427547011
 10
62.02387115732139
 20
-85.08852608347391
 10
62.00147468671421
 20
-85.07093051123289
 10
61.97883876209649
 20
-85.05364415060094
 10
61.95701194940268
 20
-85.03743544108102
 10
61.9349738613937
 20
-85.0215152277426
 10
61.912727767593
 20
-85.00588701621571
 10
61.89027672689389
 20
-84.99055476528743
 10
61.86870701221489
 20
-84.9762314636426
 10
61.84695671776109
 20
-84.9621838905692
 10
61.82502827354038
 20
-84.94841612062442
 10
61.80292408397789
 20
-84.93493231086487
 10
61.78176450522738
 20
-84.92238962230549
 10
61.76045052219489
 20
-84.9101112383863
 10
61.73898417151518
 20
-84.89810141730393
 10
61.71850890159991
 20
-84.88697534721671
 10
61.69790026100471
 20
-84.87609824798402
 10
61.67715977824879
 20
-84.86547429729752
 10
61.6562890204581
 20
-84.85510772263863
 10
61.63645996866071
 20
-84.845557751983
 10
61.61651853817097
 20
-84.83624610564442
 10
61.6000223375275
 20
-84.82876385820089
  0
LWPOLYLINE
  5
217
330
1E
100
AcDbEntity
  8
1
100
AcDbPolyline
 90
        8
 70
     0
 43
0.0
 10
61.96279178529998
 20
-99.5348422288
 10
61.95272601834738
 20
-99.53479166405223
 10
61.94253120708648
 20
-99.53463763439957
 10
61.93214430297159
 20
-99.53437580982921
 10
61.92163142984367
 20
-99.53400453049972
 10
61.91092985197979
 20
-99.53351831055799
 10
61.90004153622819
 20
-99.53291304614609
 10
61.89831270226967
 20
-99.53280678548832
  0
LWPOLYLINE
  5
221
330
1E
100
AcDbEntity
  8
1
100
AcDbPolyline
 90
        2
 70
     0
 43
0.0
 10
61.89830272159998
 20
-99.53280616400014
 10
58.61655162485917
 20
-99.32842069734508
  0
LWPOLYLINE
  5
225
330
1E
100
AcDbEntity
  8
1
100
AcDbPolyline
 90
       76
 70
     0
 43
0.0
 10
62.49466908979997
 20
-88.89032593400003
 10
62.48212530734527
 20
-88.89252591703622
 10
62.47067227752038
 20
-88.89848807031389
 10
62.46024897898259
 20
-88.90728266378372
 10
62.45079439038939
 20
-88.91797996739644
 10
62.44224749039808
 20
-88.92965025110269
 10
62.43454436524598
 20
-88.94150524097062
 10
62.42760835390328
 20
-88.95338007832409
 10
62.42135928476727
 20
-88.96528159185939
 10
62.41571698612789
 20
-88.97721661552782
 10
62.41060128627488
 20
-88.98919198328069
 10
62.40593201349819
 20
-89.00121452906942
 10
62.40162899608758
 20
-89.01329108684533
 10
62.39568582316718
 20
-89.03152214525372
 10
62.38829876965368
 20
-89.05608251294102
 10
62.37943002375128
 20
-89.0872044488506
 10
62.36927368063311
 20
-89.12506798111698
 10
62.35966328190379
 20
-89.16335938294333
 10
62.35061534181299
 20
-89.20193427460294
 10
62.34214637461017
 20
-89.24064827636923
 10
62.33426131728878
 20
-89.27938031553308
 10
62.32691433732739
 20
-89.31811152719419
 10
62.31894322407319
 20
-89.36330909414669
 10
62.3105088960326
 20
-89.41499594568401
 10
62.30077180900218
 20
-89.47968499691167
 10
62.28818908601057
 20
-89.57046494768903
 10
62.27579415737249
 20
-89.6679916747483
 10
62.26371519994398
 20
-89.77222865207847
 10
62.25141072351899
 20
-89.88963160721123
 10
62.23916203031208
 20
-90.02016628347281
 10
62.22616513991868
 20
-90.17692441883744
 10
62.21293495233968
 20
-90.35996818778702
 10
62.20002280778397
 20
-90.5693313638587
 10
62.18829978629958
 20
-90.7984570922265
 10
62.17787959275918
 20
-91.0538807455552
 10
62.16929641428368
 20
-91.33560534105304
 10
62.16323381742718
 20
-91.63706617350049
 10
62.16015897850446
 20
-91.95168147603558
 10
62.16035133826109
 20
-92.27286611128759
 10
62.16380184619659
 20
-92.58747749714741
 10
62.17022164918308
 20
-92.88893094554458
 10
62.17913440701559
 20
-93.17064536486432
 10
62.18984696655548
 20
-93.42605683231091
 10
62.20220308063509
 20
-93.66171337259087
 10
62.21541033954949
 20
-93.87105812908979
 10
62.22889847840647
 20
-94.05408298642958
 10
62.24211643097317
 20
-94.21082260990022
 10
62.2545491692523
 20
-94.34134001056603
 10
62.26701895718798
 20
-94.45872575234409
 10
62.27924448704919
 20
-94.56294565473543
 10
62.2917764483256
 20
-94.66045457936244
 10
62.30448676394146
 20
-94.75121616663642
 10
62.31431534967057
 20
-94.81589113389809
 10
62.32282297895178
 20
-94.86756608909372
 10
62.33085811107438
 20
-94.9127527273721
 10
62.33825975417707
 20
-94.9514741479585
 10
62.34619917917899
 20
-94.9901959730124
 10
62.35472195258108
 20
-95.02889890105043
 10
62.36382297589448
 20
-95.06746140212142
 10
62.37348576097378
 20
-95.10573896497779
 10
62.38369381967328
 20
-95.1435870783723
 10
62.39260516833327
 20
-95.17469486346682
 10
62.40002661548209
 20
-95.19924311068786
 10
62.40599665474949
 20
-95.21746480948872
 10
62.41031777693939
 20
-95.22953499893022
 10
62.41500507662038
 20
-95.24155106809201
 10
62.42013852580559
 20
-95.25351984628299
 10
62.42579809650809
 20
-95.26544816281228
 10
62.43206376074081
 20
-95.27734284698912
 10
62.43901549051678
 20
-95.28921072812259
 10
62.44673325768488
 20
-95.30105862765543
 10
62.4552934069359
 20
-95.31271965003599
 10
62.46475929481508
 20
-95.32340485307932
 10
62.47519137186039
 20
-95.33218611595669
 10
62.4866500886095
 20
-95.33813531783982
 10
62.49918589593388
 20
-95.34032433687512
  0
LWPOLYLINE
  5
273
330
1E
100
AcDbEntity
  8
1
100
AcDbPolyline
 90
        2
 70
     0
 43
0.0
 10
58.61654164419997
 20
-99.32842007570002
 10
58.10433331094448
 20
-98.78796676948132
  0
LWPOLYLINE
  5
277
330
1E
100
AcDbEntity
  8
1
100
AcDbPolyline
 90
      118
 70
     0
 43
0.0
 10
62.99285147789998
 20
-98.53413941950002
 10
62.99274666833778
 20
-98.54687869584921
 10
62.99247482198558
 20
-98.55961850997992
 10
62.99203613731997
 20
-98.57235628843971
 10
62.9914308128179
 20
-98.58508945777643
 10
62.99065904695588
 20
-98.5978154445376
 10
62.98972103821078
 20
-98.6105316752711
 10
62.98861698505938
 20
-98.62323557652473
 10
62.98734708597839
 20
-98.63592457484594
 10
62.98591153944459
 20
-98.64859609678251
 10
62.98431054393459
 20
-98.66124756888222
 10
62.98254429820209
 20
-98.67387641815806
 10
62.98061309169359
 20
-98.68648022404414
 10
62.97851743478227
 20
-98.69905693727069
 10
62.97625787084371
 20
-98.71160456403259
 10
62.97383494325318
 20
-98.72412111052412
 10
62.97124919538589
 20
-98.73660458293972
 10
62.96850117061729
 20
-98.74905298747412
 10
62.96559141232268
 20
-98.76146433032179
 10
62.96252046387738
 20
-98.77383661767709
 10
62.95928886865677
 20
-98.78616785573472
 10
62.95589717003628
 20
-98.79845605068908
 10
62.95234591321039
 20
-98.81069920875351
 10
62.94863575819888
 20
-98.82289533732013
 10
62.94476754633677
 20
-98.83504244564321
 10
62.94074213495267
 20
-98.84713854314099
 10
62.93656038137498
 20
-98.8591816392322
 10
62.93222314293227
 20
-98.87116974333501
 10
62.92773127695308
 20
-98.88310086486789
 10
62.92308564076578
 20
-98.89497301324922
 10
62.91828709169918
 20
-98.90678419789743
 10
62.91333648708159
 20
-98.91853242823081
 10
62.90823468424149
 20
-98.93021571366801
 10
62.90298254632618
 20
-98.94183206839592
 10
62.89758106628628
 20
-98.95337961298359
 10
62.89203136468048
 20
-98.96485657258223
 10
62.88633456744648
 20
-98.97626117675194
 10
62.87975124723971
 20
-98.98900266468849
 10
62.87298478728557
 20
-99.00164781626957
 10
62.86603679072587
 20
-99.01419411069262
 10
62.85890886070259
 20
-99.02663902715531
 10
62.85160260035769
 20
-99.03898004485505
 10
62.84411961283288
 20
-99.05121464298952
 10
62.83646150917589
 20
-99.06334030817282
 10
62.82863005560198
 20
-99.07535467258934
 10
62.82062715998627
 20
-99.08725550132073
 10
62.81245473540078
 20
-99.09904056432452
 10
62.80411469491768
 20
-99.11070763155771
 10
62.79560895160899
 20
-99.12225447297799
 10
62.7869394185468
 20
-99.13367885854242
 10
62.77711683176718
 20
-99.14622628686352
 10
62.76709702147428
 20
-99.15861672293305
 10
62.75688261320008
 20
-99.17084710947591
 10
62.74647634406669
 20
-99.18291454210487
 10
62.73588114732771
 20
-99.19481638515094
 10
62.72509997614028
 20
-99.20655003021444
 10
62.71413578366178
 20
-99.21811286889614
 10
62.70299152304938
 20
-99.22950229279649
 10
62.69167014746049
 20
-99.24071569351605
 10
62.68017461005207
 20
-99.2517504626555
 10
62.66850786398158
 20
-99.26260399181522
 10
62.65667287573478
 20
-99.2732736967681
 10
62.64467275688689
 20
-99.28375725641584
 10
62.63251070814249
 20
-99.29405251130241
 10
62.62018993150327
 20
-99.30415730432372
 10
62.6077136289706
 20
-99.31406947837531
 10
62.59508500254598
 20
-99.32378687635299
 10
62.582307254231
 20
-99.33330734115251
 10
62.57068242798546
 20
-99.34170559875802
 10
62.55894174088888
 20
-99.34994102070582
 10
62.54708753857276
 20
-99.35801206487379
 10
62.53512224496188
 20
-99.36591739848294
 10
62.52304831694107
 20
-99.37365577688192
 10
62.51086821150988
 20
-99.38122595572702
 10
62.49858438566787
 20
-99.38862669067423
 10
62.48619929641488
 20
-99.39585673737973
 10
62.47371540075029
 20
-99.40291485149963
 10
62.46113515567389
 20
-99.40979978869002
 10
62.44846101818517
 20
-99.41651030460722
 10
62.43569544537849
 20
-99.42304515519424
 10
62.42284092211418
 20
-99.4294031806126
 10
62.40989999949338
 20
-99.43558342194222
 10
62.39687523828558
 20
-99.4415849495872
 10
62.38376919926007
 20
-99.44740683395181
 10
62.37058444318619
 20
-99.45304814544044
 10
62.35732353083317
 20
-99.45850795445732
 10
62.3439890229705
 20
-99.46378533140659
 10
62.33058348036738
 20
-99.46887934669263
 10
62.31860987855498
 20
-99.4732526755344
 10
62.30658397232687
 20
-99.47747973983609
 10
62.29450755782599
 20
-99.48155996693429
 10
62.28238242744648
 20
-99.48549291121182
 10
62.27021037324377
 20
-99.48927813853003
 10
62.25799318727329
 20
-99.4929152147502
 10
62.24573266159048
 20
-99.49640370573352
 10
62.23343058825068
 20
-99.49974317734145
 10
62.22108875930929
 20
-99.50293319543511
 10
62.20870896682189
 20
-99.50597332587582
 10
62.19629300284378
 20
-99.50886313452492
 10
62.18384265943051
 20
-99.51160218724371
 10
62.17135973089359
 20
-99.51419005207624
 10
62.15884609426319
 20
-99.51662637708523
 10
62.14630373121739
 20
-99.5189109115671
 10
62.13373463015329
 20
-99.5210434113178
 10
62.12114077946768
 20
-99.523023632133
 10
62.10852416755748
 20
-99.52485132980854
 10
62.09588678281968
 20
-99.52652626014002
 10
62.08323061365129
 20
-99.52804817892351
 10
62.07055764844898
 20
-99.52941684195472
 10
62.0578698756099
 20
-99.53063200502931
 10
62.04516928353076
 20
-99.53169342394314
 10
62.03245785758937
 20
-99.53260085967432
 10
62.01973749831186
 20
-99.53335421884485
 10
62.00701001181021
 20
-99.53395357013359
 10
61.99427719925778
 20
-99.5343989906965
 10
61.98154086182818
 20
-99.53469055768923
 10
61.96880280069499
 20
-99.53482834826751
 10
61.96403595099988
 20
-99.53484038736499
  0
LWPOLYLINE
  5
2EF
330
1E
100
AcDbEntity
  8
1
100
AcDbPolyline
 90
       76
 70
     0
 43
0.0
 10
62.49921975239998
 20
-95.34032432930002
 10
62.5117635348548
 20
-95.33812434626382
 10
62.52321656467987
 20
-95.332162192986
 10
62.5336398632178
 20
-95.32336759951599
 10
62.54309445181107
 20
-95.31267029590308
 10
62.55164135180239
 20
-95.3010000121967
 10
62.55934447695459
 20
-95.28914502232879
 10
62.56628048829728
 20
-95.27727018497506
 10
62.57252955743329
 20
-95.26536867143972
 10
62.57817185607269
 20
-95.25343364777114
 10
62.58328755592568
 20
-95.24145828001811
 10
62.58795682870239
 20
-95.22943573422919
 10
62.59225984611298
 20
-95.21735917645322
 10
62.59820301903328
 20
-95.19912811804449
 10
62.60559007254689
 20
-95.17456775035688
 10
62.61445881844927
 20
-95.14344581444692
 10
62.62461516156759
 20
-95.10558228218007
 10
62.63422556029698
 20
-95.06729088035331
 10
62.64327350038779
 20
-95.02871598869331
 10
62.65174246759069
 20
-94.99000198692661
 10
62.65962752491208
 20
-94.95126994776232
 10
62.66697450487349
 20
-94.91253873610078
 10
62.67494561812778
 20
-94.8673411691478
 10
62.68337994616839
 20
-94.81565431760982
 10
62.69311703319878
 20
-94.75096526638152
 10
62.70569975619048
 20
-94.66018531560308
 10
62.71809468482868
 20
-94.56265858854271
 10
62.73017364225719
 20
-94.45842161121143
 10
62.742478118682
 20
-94.34101865607741
 10
62.75472681188849
 20
-94.21048397981428
 10
62.7677237022821
 20
-94.05372584444789
 10
62.78095388986328
 20
-93.87068207549651
 10
62.79386603442189
 20
-93.66131889942257
 10
62.80558905590567
 20
-93.4321931710523
 10
62.81600924944228
 20
-93.17676951772059
 10
62.82459242791708
 20
-92.8950449222196
 10
62.83065502477477
 20
-92.59358408976899
 10
62.83372986369609
 20
-92.27896878723042
 10
62.83353750393928
 20
-91.95778415197471
 10
62.83008699600308
 20
-91.64317276611162
 10
62.82366719301089
 20
-91.34171931771152
 10
62.81475443518678
 20
-91.06000489838811
 10
62.80404187565949
 20
-90.80459343093762
 10
62.79168576153907
 20
-90.56893689065807
 10
62.77847850255611
 20
-90.35959213416171
 10
62.76499036368649
 20
-90.17656727681972
 10
62.75177241116447
 20
-90.01982765334281
 10
62.73933967292888
 20
-89.88931025267202
 10
62.72686988501188
 20
-89.77192451089221
 10
62.71464435514899
 20
-89.6677046085009
 10
62.70211239386639
 20
-89.57019568387309
 10
62.68940207824979
 20
-89.47943409659583
 10
62.67957349252418
 20
-89.41475912933041
 10
62.67106586324509
 20
-89.36308417413261
 10
62.66303073112188
 20
-89.3178975358538
 10
62.65562908801548
 20
-89.27917611526899
 10
62.64768966300596
 20
-89.2404542902187
 10
62.6391668895923
 20
-89.20175136218658
 10
62.6300658662661
 20
-89.16318886112211
 10
62.6204030811766
 20
-89.12491129827008
 10
62.61019502247297
 20
-89.08706318487579
 10
62.60128367381689
 20
-89.05595539977651
 10
62.59386222667629
 20
-89.03140715254732
 10
62.58789218741506
 20
-89.01318545373902
 10
62.58357106522848
 20
-89.00111526429268
 10
62.57888376554977
 20
-88.98909919512702
 10
62.57375031636527
 20
-88.97713041693341
 10
62.56809074566167
 20
-88.9652021004032
 10
62.56182508142551
 20
-88.95330741622791
 10
62.55487335164318
 20
-88.94143953509868
 10
62.54715558446577
 20
-88.92959163557362
 10
62.53859543520259
 20
-88.9179306132066
 10
62.52912954730998
 20
-88.90724541018169
 10
62.51869747025228
 20
-88.89846414732287
 10
62.50723875349418
 20
-88.8925149454544
 10
62.49470294616609
 20
-88.89032592642491
  0
LWPOLYLINE
  5
33D
330
1E
100
AcDbEntity
  8
1
100
AcDbPolyline
 90
      141
 70
     0
 43
0.0
 10
62.46551169859998
 20
-98.53415729830002
 10
62.47309711931571
 20
-98.54980701642858
 10
62.4804838906494
 20
-98.56555426110503
 10
62.48712115299468
 20
-98.58017547592504
 10
62.49357971657127
 20
-98.5948773927501
 10
62.49985505239187
 20
-98.60965886076158
 10
62.5059426314694
 20
-98.62451872914121
 10
62.51135410513388
 20
-98.63820816482151
 10
62.51660039740889
 20
-98.65196160660211
 10
62.52167738859418
 20
-98.66577807003473
 10
62.52658082202319
 20
-98.67965654940059
 10
62.5313064410276
 20
-98.69359603898113
 10
62.53544457466137
 20
-98.7063203986996
 10
62.5394290382199
 20
-98.71909359329919
 10
62.54325663360528
 20
-98.73191486716844
 10
62.54692407548978
 20
-98.74478338609144
 10
62.55042753835437
 20
-98.7576978290761
 10
62.55343712039747
 20
-98.76935884723051
 10
62.55630767381538
 20
-98.7810547441812
 10
62.55903625894497
 20
-98.79278442098252
 10
62.56161993612349
 20
-98.80454677868851
 10
62.56405576568758
 20
-98.81634071835371
 10
62.56634078626649
 20
-98.82816511384852
 10
62.56824268494018
 20
-98.83870005502831
 10
62.57002041784247
 20
-98.84925664263482
 10
62.57167154583669
 20
-98.8598336358595
 10
62.57319362978619
 20
-98.87042979389358
 10
62.57458423055448
 20
-98.88104387592861
 10
62.575840909005
 20
-98.89167464115573
 10
62.5769612256661
 20
-98.90232084801141
 10
62.57794266062859
 20
-98.91298107365493
 10
62.57868536481478
 20
-98.92231882774801
 10
62.57931783841239
 20
-98.93166463725462
 10
62.57983825256648
 20
-98.94101723186762
 10
62.58024477842248
 20
-98.95037534127979
 10
62.58053558712558
 20
-98.95973769518423
 10
62.58070884982098
 20
-98.96910302327372
 10
62.58076273554728
 20
-98.97847003773001
 10
62.58069537954508
 20
-98.98783716980499
 10
62.58050488982238
 20
-98.99720262439014
 10
62.5801893736126
 20
-99.00656459993944
 10
62.57974693814919
 20
-99.01592129490659
 10
62.57917569066568
 20
-99.02527090774583
 10
62.57858209136259
 20
-99.03327785920872
 10
62.57789127225177
 20
-99.04127714875592
 10
62.577102066309
 20
-99.04926753310533
 10
62.57621335910119
 20
-99.0572475394206
 10
62.57522404291258
 20
-99.0652156655458
 10
62.57413301002749
 20
-99.07317040932532
 10
62.57293915272999
 20
-99.08111026860332
 10
62.57164136330429
 20
-99.08903374122393
 10
62.57023853403461
 20
-99.09693932503152
 10
62.56872956440789
 20
-99.10482550751154
 10
62.56711347929428
 20
-99.112690595827
 10
62.56538940996597
 20
-99.12053274411682
 10
62.56355649106959
 20
-99.12835010166659
 10
62.56161385725189
 20
-99.13614081776245
 10
62.55956064315938
 20
-99.14390304168987
 10
62.55739598343878
 20
-99.15163492273482
 10
62.55511901809828
 20
-99.15933460671112
 10
62.55272906361489
 20
-99.16700012515899
 10
62.55022564875868
 20
-99.17462937214708
 10
62.54760831490289
 20
-99.18222023358239
 10
62.54487660342069
 20
-99.18977059537219
 10
62.54203005568547
 20
-99.19727834342371
 10
62.53906821307047
 20
-99.20474136364401
 10
62.53599064930321
 20
-99.2121575351638
 10
62.5327972596045
 20
-99.2195246697782
 10
62.52948812331129
 20
-99.22684054071957
 10
62.52606332193359
 20
-99.23410292076551
 10
62.52252293698171
 20
-99.24130958269319
 10
62.51886704996557
 20
-99.24845829928024
 10
62.51509574542079
 20
-99.2555468437041
 10
62.5112093230981
 20
-99.26257301763129
 10
62.50720843730608
 20
-99.26953466966049
 10
62.50309377544297
 20
-99.27642965277122
 10
62.49886602490718
 20
-99.28325581994242
 10
62.49452587309688
 20
-99.29001102415329
 10
62.49007400768539
 20
-99.29669311851405
 10
62.48551125967797
 20
-99.30330002438594
 10
62.48083883770668
 20
-99.30982984294672
 10
62.47605801186189
 20
-99.31628070463892
 10
62.47117005223389
 20
-99.32265073990507
 10
62.46617622891267
 20
-99.32893807918803
 10
62.46107781214789
 20
-99.33514085307631
 10
62.45587618448288
 20
-99.34125729531871
 10
62.45057303758898
 20
-99.34728592364599
 10
62.44517011587059
 20
-99.35322530423331
 10
62.43966916373228
 20
-99.35907400325532
 10
62.43312981389777
 20
-99.36578096115194
 10
62.42646218564058
 20
-99.37236027566605
 10
62.41966927569489
 20
-99.37881005597454
 10
62.41374952719088
 20
-99.38423422758894
 10
62.40774217191228
 20
-99.38956124408159
 10
62.40164926223119
 20
-99.39479019608853
 10
62.39547285051969
 20
-99.3999201742455
 10
62.38921499855821
 20
-99.40495031002527
 10
62.38287784453198
 20
-99.4098800665388
 10
62.37646356375779
 20
-99.41470906806879
 10
62.36997433179959
 20
-99.41943693996893
 10
62.36341232422081
 20
-99.42406330759279
 10
62.35677971658528
 20
-99.42858779629411
 10
62.35007868082128
 20
-99.43301006943832
 10
62.34331136028011
 20
-99.43733008919382
 10
62.33647988480377
 20
-99.44154795898093
 10
62.32958638415428
 20
-99.44566378305971
 10
62.32263298809349
 20
-99.44967766568964
 10
62.3156218263831
 20
-99.45358971113073
 10
62.30855502119236
 20
-99.45740004013593
 10
62.30143459686638
 20
-99.4611089859557
 10
62.29426250978137
 20
-99.46471702948429
 10
62.28704071494147
 20
-99.46822465459739
 10
62.27977116735078
 20
-99.47163234517049
 10
62.27245582201317
 20
-99.47494058507931
 10
62.26509663320918
 20
-99.47814985892431
 10
62.25769547201577
 20
-99.481260734673
 10
62.25025405020389
 20
-99.48427393991243
 10
62.24277406155608
 20
-99.48719022025279
 10
62.23400092362209
 20
-99.49047103973612
 10
62.22518028702967
 20
-99.49362213252262
 10
62.21631484144218
 20
-99.49664468261431
 10
62.20740719673749
 20
-99.49953991497153
 10
62.19845966367639
 20
-99.5023092081071
 10
62.18947448293678
 20
-99.50495397651152
 10
62.18045389519637
 20
-99.50747563467512
 10
62.17140014113299
 20
-99.50987559708828
 10
62.16231546142427
 20
-99.51215527824132
 10
62.15320204040119
 20
-99.51431610076644
 10
62.14406171772989
 20
-99.51635953709759
 10
62.13489620280117
 20
-99.51828707849294
 10
62.125707204763
 20
-99.52010021624545
 10
62.11649643276299
 20
-99.52180044164832
 10
62.10726559594888
 20
-99.52338924599459
 10
62.09669369006789
 20
-99.52507050102752
 10
62.08610025395959
 20
-99.52661036707
 10
62.07548756101028
 20
-99.52801098342987
 10
62.06485786832796
 20
-99.52927448433262
 10
62.05421343302067
 20
-99.53040300400322
 10
62.04355651219638
 20
-99.5313986766672
 10
62.03288936177048
 20
-99.5322636365956
 10
62.0262279297106
 20
-99.53273814364905
  0
LWPOLYLINE
  5
3CC
330
1E
100
AcDbEntity
  8
1
100
AcDbPolyline
 90
        8
 70
     0
 43
0.0
 10
62.02621795239998
 20
-99.53273881690002
 10
62.01709644285927
 20
-99.53330785532852
 10
62.00784197107768
 20
-99.53379134240783
 10
61.998455676057
 20
-99.53418670157901
 10
61.98893880819928
 20
-99.53449140938015
 10
61.97929273321658
 20
-99.53470299905422
 10
61.96945547073968
 20
-99.53481949774179
 10
61.9628017852996
 20
-99.53484222839151
  0
LWPOLYLINE
  5
3D6
330
1E
100
AcDbEntity
  8
1
100
AcDbPolyline
 90
        2
 70
     0
 43
0.0
 10
62.01223461449998
 20
-97.61374933270005
 10
61.40637932581707
 20
-97.65534203878701
  0
LWPOLYLINE
  5
3DA
330
1E
100
AcDbEntity
  8
1
100
AcDbPolyline
 90
       61
 70
     0
 43
0.0
 10
62.4261435856
 20
-95.25944309809998
 10
62.4314135334631
 20
-95.24794273318859
 10
62.43628502302128
 20
-95.2362714146975
 10
62.44080622033417
 20
-95.224452365168
 10
62.44502529146139
 20
-95.2125088071414
 10
62.45089277480929
 20
-95.19441081597852
 10
62.45635140832456
 20
-95.17616330749159
 10
62.46494737755011
 20
-95.14561432007742
 10
62.47312382674067
 20
-95.11499043695751
 10
62.48241242266499
 20
-95.07814742601199
 10
62.49115822586798
 20
-95.0412029820365
 10
62.49939078689409
 20
-95.00415868855851
 10
62.50713965628747
 20
-94.96701612910543
 10
62.51560852643756
 20
-94.92356169015151
 10
62.52351242337038
 20
-94.8799873038593
 10
62.53192597039447
 20
-94.83006211754192
 10
62.54070209311008
 20
-94.77376513943728
 10
62.55060653563589
 20
-94.70481840812771
 10
62.56301829165257
 20
-94.61065848730543
 10
62.57515547017497
 20
-94.51011478852379
 10
62.58758129490249
 20
-94.39688364678032
 10
62.60002673865109
 20
-94.27093422214531
 10
62.6127844205691
 20
-94.12593577930357
 10
62.62545415601368
 20
-93.96186744606019
 10
62.63851228767638
 20
-93.76610135516129
 10
62.65093990438089
 20
-93.54494267447201
 10
62.66220211589189
 20
-93.29837882567671
 10
62.67178043153498
 20
-93.02640921198772
 10
62.67901658557849
 20
-92.7353743957637
 10
62.68352703983488
 20
-92.42529751651579
 10
62.68486726306099
 20
-92.10886180271039
 10
62.68295016926899
 20
-91.79242905956602
 10
62.67787045296397
 20
-91.4823609780719
 10
62.67009361565679
 20
-91.1913400286542
 10
62.66026641851368
 20
-90.925712354961
 10
62.64859027691158
 20
-90.67916778338579
 10
62.63578389013819
 20
-90.45803054803
 10
62.62238322219399
 20
-90.262287313269
 10
62.60941524354548
 20
-90.09824264995559
 10
62.59638476988238
 20
-89.953269060516
 10
62.58369453052567
 20
-89.82734422296998
 10
62.57104036688769
 20
-89.71413750200801
 10
62.55869356066067
 20
-89.61361758541952
 10
62.54607521510128
 20
-89.51948333802723
 10
62.53599817278299
 20
-89.45056271880799
 10
62.52706630184058
 20
-89.39429237276458
 10
62.51850371081208
 20
-89.34439488191822
 10
62.51046146532439
 20
-89.30084786294619
 10
62.50184716655359
 20
-89.25742355592161
 10
62.4939686911598
 20
-89.22030792603512
 10
62.48560175107238
 20
-89.18329147254828
 10
62.47671641784009
 20
-89.1463759371121
 10
62.46728276301137
 20
-89.10956306137698
 10
62.45898093531259
 20
-89.0789653420512
 10
62.45024013737498
 20
-89.04845105985989
 10
62.44463498158388
 20
-89.03025352050031
 10
62.43856671257319
 20
-89.0122324531717
 10
62.43418405104458
 20
-89.00035511459831
 10
62.42947576581908
 20
-88.9886142074816
 10
62.42439393865708
 20
-88.97703293159848
 10
62.42170231855117
 20
-88.9713184114565
  0
LWPOLYLINE
  5
419
330
1E
100
AcDbEntity
  8
1
100
AcDbPolyline
 90
        2
 70
     0
 43
0.0
 10
62.01223461449998
 20
-97.61374933270005
 10
62.00103734763749
 20
-85.69652084378608
  0
LWPOLYLINE
  5
41D
330
1E
100
AcDbEntity
  8
1
100
AcDbPolyline
 90
       74
 70
     0
 43
0.0
 10
62.0010373643
 20
-85.69651084380003
 10
62.0009858055539
 20
-85.68429833876752
 10
62.00079048128896
 20
-85.67208483486039
 10
62.00045146108809
 20
-85.65987233277112
 10
61.99996881453379
 20
-85.64766283319231
 10
61.99934261120866
 20
-85.63545833681661
 10
61.99857292069559
 20
-85.62326084433648
 10
61.99765981257709
 20
-85.61107235644469
 10
61.99660335643578
 20
-85.59889487383371
 10
61.99540362185448
 20
-85.58673039719622
 10
61.99406067841569
 20
-85.5745809272247
 10
61.99257459570219
 20
-85.56244846461172
 10
61.99094545375221
 20
-85.55033498699708
 10
61.989173437311
 20
-85.53824224115631
 10
61.98725879145579
 20
-85.52617184084203
 10
61.98520176198949
 20
-85.5141253982066
 10
61.98300259471489
 20
-85.5021045254027
 10
61.98066153543499
 20
-85.4901108345828
 10
61.97817882995271
 20
-85.47814593789931
 10
61.97555472407088
 20
-85.4662114475048
 10
61.97278946359238
 20
-85.45430897555181
 10
61.96988329432029
 20
-85.44244013419278
 10
61.96683646205737
 20
-85.43060653558011
 10
61.96364921529998
 20
-85.41880979333049
 10
61.96032188621511
 20
-85.40705156654011
 10
61.95685490485
 20
-85.39533356750856
 10
61.9532487068092
 20
-85.3836575115563
 10
61.94950372769719
 20
-85.3720251140035
 10
61.9456204031185
 20
-85.36043809017057
 10
61.94159916867771
 20
-85.34889815537791
 10
61.93744045997919
 20
-85.33740702494583
 10
61.93314471262771
 20
-85.32596641419461
 10
61.92871236222759
 20
-85.31457803844459
 10
61.9241438443834
 20
-85.3032436130163
 10
61.91943959524071
 20
-85.29196485309622
 10
61.91460011454979
 20
-85.28074345814408
 10
61.90962602461461
 20
-85.26958109731799
 10
61.9045179616836
 20
-85.25847943632753
 10
61.89927656200559
 20
-85.2474401408827
 10
61.89390246182929
 20
-85.23646487669322
 10
61.88796729442169
 20
-85.22471888093122
 10
61.88187975840159
 20
-85.21305115853072
 10
61.87564064842839
 20
-85.2014637899232
 10
61.86925075916128
 20
-85.18995885553989
 10
61.86271088525959
 20
-85.17853843581219
 10
61.8560218322586
 20
-85.1672046102392
 10
61.84918456874079
 20
-85.1559594443403
 10
61.8422001889639
 20
-85.14480499285992
 10
61.83506979042729
 20
-85.13374331026431
 10
61.8277944706306
 20
-85.1227764510201
 10
61.82037532707319
 20
-85.11190646959354
 10
61.81281345725468
 20
-85.10113542045109
 10
61.80455431830538
 20
-85.08970712931612
 10
61.79613394519499
 20
-85.07839729375252
 10
61.78755368779999
 20
-85.06720844066441
 10
61.77881490915609
 20
-85.05614308650692
 10
61.76991912025957
 20
-85.04520363025692
 10
61.76086792523469
 20
-85.03439239694872
 10
61.75166292965639
 20
-85.0237117104646
 10
61.7423057390996
 20
-85.01316389468703
 10
61.7321587921786
 20
-85.00206196259192
 10
61.72184245655389
 20
-84.99111667222839
 10
61.71135868079899
 20
-84.98033084392899
 10
61.70070941348689
 20
-84.96970729802619
 10
61.68989663502239
 20
-84.9592488610309
 10
61.67892288069509
 20
-84.94895846715541
 10
61.66849146065159
 20
-84.93946653082032
 10
61.65792369011128
 20
-84.9301274434164
 10
61.64722205876221
 20
-84.92094370042948
 10
61.63638905629239
 20
-84.91191779734542
 10
61.62542717238978
 20
-84.90305222964989
 10
61.61508199738989
 20
-84.89492455940121
 10
61.60462874534539
 20
-84.88694076185881
 10
61.6001242207923
 20
-84.88356964794672
  0
LWPOLYLINE
  5
469
330
1E
100
AcDbEntity
  8
1
100
AcDbPolyline
 90
        2
 70
     0
 43
0.0
 10
62.99285147790001
 20
98.53413941950002
 10
62.98165426315669
 20
86.61691093063707
  0
LWPOLYLINE
  5
46D
330
1E
100
AcDbEntity
  8
1
100
AcDbPolyline
 90
        8
 70
     0
 43
0.0
 10
61.96279178530001
 20
99.5348422288
 10
61.95272601834741
 20
99.53479166405228
 10
61.94253120708649
 20
99.53463763439952
 10
61.9321443029716
 20
99.53437580982921
 10
61.92163142984369
 20
99.53400453049972
 10
61.91092985197972
 20
99.53351831055798
 10
61.90004153622822
 20
99.53291304614609
 10
61.89831270226971
 20
99.53280678548829
  0
LWPOLYLINE
  5
477
330
1E
100
AcDbEntity
  8
1
100
AcDbPolyline
 90
       36
 70
     0
 43
0.0
 10
62.5283771436
 20
85.69649296500001
 10
62.52082346933371
 20
85.68138500029448
 10
62.5130894903406
 20
85.66636653583598
 10
62.5047791604631
 20
85.65069439540058
 10
62.4962791352717
 20
85.63512283469661
 10
62.48717596024221
 20
85.61891871267619
 10
62.47787505725201
 20
85.60282717103339
 10
62.46794576928468
 20
85.58612577782469
 10
62.45736642428201
 20
85.56883162497667
 10
62.44656901998701
 20
85.55167393650902
 10
62.4350951510603
 20
85.53394665985171
 10
62.42339557231479
 20
85.5163678749489
 10
62.41099455526021
 20
85.49824368818498
 10
62.3983615245298
 20
85.48028061780248
 10
62.38500272896311
 20
85.46179768628332
 10
62.37089700403391
 20
85.44281486953028
 10
62.3565407862921
 20
85.42402071924971
 10
62.34141451880059
 20
85.40475493524196
 10
62.32549799290818
 20
85.38503927017767
 10
62.3093144582715
 20
85.36554244257478
 10
62.29231752547089
 20
85.34562642015627
 10
62.27448739327019
 20
85.32531476558178
 10
62.25637481646749
 20
85.30525485993837
 10
62.23740700471771
 20
85.28483305527981
 10
62.21756431301201
 20
85.26407524732737
 10
62.1968274951268
 20
85.24300836434901
 10
62.17578278171639
 20
85.22224926465218
 10
62.15443691355551
 20
85.20180011526781
 10
62.1327966038477
 20
85.18166309438177
 10
62.11149849025559
 20
85.16240257313928
 10
62.08993343156601
 20
85.14344128952417
 10
62.06810650218922
 20
85.12478168218269
 10
62.04667589579461
 20
85.10696206983068
 10
62.0250079442037
 20
85.08943254346117
 10
62.00310723037249
 20
85.07219638040858
 10
61.9856988202499
 20
85.05883106403658
  0
LWPOLYLINE
  5
49D
330
1E
100
AcDbEntity
  8
1
100
AcDbPolyline
 90
        2
 70
     0
 43
0.0
 10
61.89830272160001
 20
99.53280616399998
 10
58.6165516248592
 20
99.32842069734508
  0
LWPOLYLINE
  5
4A1
330
1E
100
AcDbEntity
  8
1
100
AcDbPolyline
 90
        2
 70
     0
 43
0.0
 10
58.61654164419999
 20
99.32842007569998
 10
58.10433331094451
 20
98.78796676948127
  0
LWPOLYLINE
  5
4A5
330
1E
100
AcDbEntity
  8
1
100
AcDbPolyline
 90
      118
 70
     0
 43
0.0
 10
62.99285147790001
 20
98.53413941950002
 10
62.99274666833781
 20
98.54687869584921
 10
62.99247482198561
 20
98.55961850997978
 10
62.99203613731999
 20
98.57235628843959
 10
62.99143081281792
 20
98.58508945777629
 10
62.99065904695591
 20
98.5978154445376
 10
62.98972103821091
 20
98.61053167527108
 10
62.98861698505952
 20
98.62323557652461
 10
62.98734708597842
 20
98.63592457484578
 10
62.9859115394446
 20
98.64859609678241
 10
62.98431054393462
 20
98.66124756888218
 10
62.98254429820211
 20
98.67387641815801
 10
62.98061309169352
 20
98.686480224044
 10
62.97851743478228
 20
98.69905693727069
 10
62.97625787084371
 20
98.71160456403249
 10
62.97383494325321
 20
98.72412111052401
 10
62.97124919538589
 20
98.73660458293969
 10
62.96850117061731
 20
98.74905298747407
 10
62.96559141232272
 20
98.76146433032172
 10
62.96252046387749
 20
98.77383661767709
 10
62.95928886865691
 20
98.78616785573472
 10
62.95589717003632
 20
98.79845605068908
 10
62.9523459132104
 20
98.81069920875342
 10
62.94863575819888
 20
98.82289533732
 10
62.94476754633681
 20
98.83504244564308
 10
62.94074213495271
 20
98.84713854314099
 10
62.93656038137501
 20
98.8591816392322
 10
62.93222314293231
 20
98.87116974333501
 10
62.9277312769531
 20
98.88310086486781
 10
62.92308564076581
 20
98.89497301324908
 10
62.91828709169919
 20
98.90678419789741
 10
62.91333648708161
 20
98.91853242823081
 10
62.90823468424152
 20
98.93021571366793
 10
62.9029825463262
 20
98.94183206839581
 10
62.89758106628632
 20
98.9533796129835
 10
62.89203136468049
 20
98.96485657258221
 10
62.88633456744651
 20
98.9762611767518
 10
62.87975124723972
 20
98.98900266468849
 10
62.87298478728562
 20
99.00164781626957
 10
62.86603679072591
 20
99.01419411069261
 10
62.85890886070261
 20
99.02663902715524
 10
62.85160260035771
 20
99.03898004485501
 10
62.84411961283289
 20
99.0512146429895
 10
62.83646150917592
 20
99.06334030817278
 10
62.82863005560201
 20
99.07535467258933
 10
62.82062715998629
 20
99.08725550132073
 10
62.81245473540082
 20
99.0990405643245
 10
62.8041146949177
 20
99.11070763155777
 10
62.79560895160901
 20
99.12225447297799
 10
62.7869394185468
 20
99.13367885854242
 10
62.77711683176722
 20
99.14622628686348
 10
62.76709702147432
 20
99.15861672293301
 10
62.7568826132001
 20
99.17084710947591
 10
62.74647634406671
 20
99.18291454210486
 10
62.73588114732771
 20
99.19481638515094
 10
62.72509997614029
 20
99.2065500302144
 10
62.71413578366182
 20
99.21811286889608
 10
62.7029915230495
 20
99.22950229279638
 10
62.6916701474605
 20
99.24071569351601
 10
62.68017461005221
 20
99.25175046265541
 10
62.66850786398172
 20
99.26260399181522
 10
62.65667287573491
 20
99.27327369676808
 10
62.64467275688692
 20
99.28375725641581
 10
62.6325107081426
 20
99.29405251130241
 10
62.62018993150331
 20
99.30415730432372
 10
62.60771362897061
 20
99.3140694783753
 10
62.59508500254611
 20
99.32378687635299
 10
62.58230725423103
 20
99.33330734115241
 10
62.57068242798549
 20
99.341705598758
 10
62.55894174088891
 20
99.34994102070568
 10
62.54708753857279
 20
99.35801206487377
 10
62.53512224496191
 20
99.36591739848292
 10
62.52304831694111
 20
99.3736557768819
 10
62.51086821150989
 20
99.38122595572693
 10
62.49858438566789
 20
99.38862669067413
 10
62.48619929641492
 20
99.39585673737958
 10
62.47371540075032
 20
99.40291485149948
 10
62.46113515567389
 20
99.40979978868998
 10
62.44846101818521
 20
99.41651030460713
 10
62.43569544537852
 20
99.42304515519408
 10
62.42284092211421
 20
99.4294031806126
 10
62.40989999949341
 20
99.43558342194208
 10
62.39687523828571
 20
99.4415849495872
 10
62.38376919926011
 20
99.44740683395181
 10
62.37058444318622
 20
99.45304814544041
 10
62.35732353083321
 20
99.45850795445721
 10
62.3439890229705
 20
99.46378533140659
 10
62.33058348036742
 20
99.46887934669261
 10
62.31860987855501
 20
99.47325267553438
 10
62.30658397232691
 20
99.47747973983609
 10
62.294507557826
 20
99.48155996693429
 10
62.28238242744652
 20
99.48549291121178
 10
62.2702103732438
 20
99.48927813853002
 10
62.25799318727339
 20
99.4929152147502
 10
62.24573266159051
 20
99.49640370573357
 10
62.23343058825069
 20
99.49974317734138
 10
62.22108875930939
 20
99.50293319543511
 10
62.208708966822
 20
99.50597332587593
 10
62.19629300284389
 20
99.508863134525
 10
62.18384265943051
 20
99.51160218724369
 10
62.17135973089362
 20
99.51419005207618
 10
62.15884609426321
 20
99.51662637708521
 10
62.1463037312175
 20
99.51891091156708
 10
62.13373463015329
 20
99.52104341131772
 10
62.12114077946772
 20
99.52302363213293
 10
62.10852416755749
 20
99.52485132980841
 10
62.09588678281981
 20
99.52652626013993
 10
62.08323061365131
 20
99.5280481789234
 10
62.070557648449
 20
99.52941684195451
 10
62.05786987560991
 20
99.5306320050291
 10
62.04516928353079
 20
99.53169342394303
 10
62.03245785758941
 20
99.53260085967414
 10
62.01973749831189
 20
99.53335421884457
 10
62.00701001181021
 20
99.53395357013349
 10
61.99427719925783
 20
99.53439899069643
 10
61.98154086182821
 20
99.5346905576892
 10
61.96880280069501
 20
99.53482834826738
 10
61.9640359509999
 20
99.5348403873649
  0
LWPOLYLINE
  5
51D
330
1E
100
AcDbEntity
  8
1
100
AcDbPolyline
 90
        2
 70
     0
 43
0.0
 10
62.98165422770001
 20
86.61690093069998
 10
61.52613512392409
 20
86.52523062479181
  0
LWPOLYLINE
  5
521
330
1E
100
AcDbEntity
  8
1
100
AcDbPolyline
 90
        2
 70
     0
 43
0.0
 10
58.10432643250002
 20
98.78795951089998
 10
58.1032028682346
 20
90.07701649947927
  0
LWPOLYLINE
  5
525
330
1E
100
AcDbEntity
  8
1
100
AcDbPolyline
 90
       53
 70
     0
 43
0.0
 10
62.1442105138
 20
-81.1432982128
 10
62.13418736631809
 20
-80.84584478293722
 10
62.1223318123372
 20
-80.57529494628642
 10
62.10918311042199
 20
-80.33165281939631
 10
62.09527167724861
 20
-80.1149149468147
 10
62.08113569752947
 20
-79.92506942299342
 10
62.06709211451789
 20
-79.75942409844401
 10
62.05337364388999
 20
-79.61528611634992
 10
62.04013092151011
 20
-79.48996345438608
 10
62.02743206934218
 20
-79.38076664608768
 10
62.0156126471081
 20
-79.28766885008062
 10
62.00427262189688
 20
-79.20532607781701
 10
61.99362539565728
 20
-79.13371844758549
 10
61.98346603493238
 20
-79.07017442069231
 10
61.97395816504239
 20
-79.01467574496892
 10
61.96528091884388
 20
-78.96719879137672
 10
61.9571002337043
 20
-78.92508510867111
 10
61.94953091809539
 20
-78.88831782895493
 10
61.94211146059278
 20
-78.85425955245981
 10
61.93550112204508
 20
-78.82551527061798
 10
61.92919255736849
 20
-78.79945470190843
 10
61.92324178573218
 20
-78.77606782978698
 10
61.91699887565668
 20
-78.75275725400491
 10
61.91117404596958
 20
-78.73211232218429
 10
61.90583653909548
 20
-78.71411767821502
 10
61.9010623247103
 20
-78.69875392035902
 10
61.89608132225472
 20
-78.6834560339146
 10
61.89086981567289
 20
-78.66823487589981
 10
61.88632907452299
 20
-78.65561988389494
 10
61.88158539255027
 20
-78.6430798323436
 10
61.87762882983768
 20
-78.63310993238401
 10
61.87351070082799
 20
-78.6232057150024
 10
61.86921226041249
 20
-78.61337842200781
 10
61.86471341795201
 20
-78.60364046144951
 10
61.8611905541146
 20
-78.59640753016531
 10
61.85752495524449
 20
-78.58924593530232
 10
61.8537025894455
 20
-78.5821658048983
 10
61.84970402012027
 20
-78.57518330956891
 10
61.8455051309488
 20
-78.56831985196611
 10
61.84108136194979
 20
-78.5615974572997
 10
61.83799156020988
 20
-78.55721064567891
 10
61.83477473566711
 20
-78.55291666485252
 10
61.8314182088255
 20
-78.5487304459794
 10
61.82790898513609
 20
-78.54466802085122
 10
61.82423063020589
 20
-78.54075743828691
 10
61.82036459173149
 20
-78.53703414598552
 10
61.81629230195858
 20
-78.53353386188661
 10
61.81199653718468
 20
-78.53030628704601
 10
61.80746243515539
 20
-78.5274256903289
 10
61.80267611216137
 20
-78.52496911089258
 10
61.7976531469052
 20
-78.52302468285379
 10
61.79244782045118
 20
-78.52169511487031
 10
61.78713224874018
 20
-78.52107247964891
  0
LWPOLYLINE
  5
55C
330
1E
100
AcDbEntity
  8
1
100
AcDbPolyline
 90
       29
 70
     0
 43
0.0
 10
61.70666386209999
 20
-80.55520042160003
 10
61.7049075126405
 20
-80.55980176939462
 10
61.70293435596228
 20
-80.56519881278163
 10
61.7010367632135
 20
-80.5706235913002
 10
61.69895227066819
 20
-80.57685287503629
 10
61.6969482723142
 20
-80.58310873073493
 10
61.69477855982738
 20
-80.59017235312309
 10
61.69246355198378
 20
-80.59804866943258
 10
61.69002366909371
 20
-80.60674282444272
 10
61.68747647729118
 20
-80.61625866438673
 10
61.68483572949429
 20
-80.62659839068192
 10
61.68192608428288
 20
-80.63856303749409
 10
61.67896912741349
 20
-80.65136035154852
 10
61.67580232019068
 20
-80.66579326178642
 10
61.67245856900669
 20
-80.68186676420749
 10
61.66881699688211
 20
-80.7003924487464
 10
61.66493002264179
 20
-80.72137820587512
 10
61.66084746080839
 20
-80.7448307502617
 10
61.65648635904169
 20
-80.77156607239009
 10
61.6519109619996
 20
-80.80159144380992
 10
61.64695819739169
 20
-80.83653933580462
 10
61.64172980372979
 20
-80.87642026644997
 10
61.63613013497158
 20
-80.92287292518282
 10
61.630293276665
 20
-80.9759084659368
 10
61.62418681256109
 20
-81.03716913517748
 10
61.61790222347369
 20
-81.10748244581698
 10
61.6114911787745
 20
-81.18849382150783
 10
61.60511204157129
 20
-81.28103079237192
 10
61.5999774230497
 20
-81.36705742849931
  0
LWPOLYLINE
  5
57B
330
1E
100
AcDbEntity
  8
1
100
AcDbPolyline
 90
        9
 70
     0
 43
0.0
 10
61.61384443119999
 20
-83.12282801900011
 10
61.62031630449149
 20
-83.20167068223609
 10
61.62665512804978
 20
-83.2703548082601
 10
61.63273611462058
 20
-83.3296672738008
 10
61.63854500969559
 20
-83.38117025272493
 10
61.64406904308329
 20
-83.42603620868919
 10
61.649279414485
 20
-83.46504937238448
 10
61.6541689131785
 20
-83.49899247702749
 10
61.65585840412139
 20
-83.51015652719352
  0
LWPOLYLINE
  5
586
330
1E
100
AcDbEntity
  8
1
100
AcDbPolyline
 90
       75
 70
     0
 43
0.0
 10
61.65585991890001
 20
-83.51016641180001
 10
61.66028065028078
 20
-83.53808152775281
 10
61.66446663505078
 20
-83.56285324466602
 10
61.66835321386149
 20
-83.58448960120702
 10
61.67199519886429
 20
-83.60361622476148
 10
61.67546608454721
 20
-83.62085657276981
 10
61.67866218001909
 20
-83.63590915734262
 10
61.68167580530049
 20
-83.64939434962291
 10
61.68454630839811
 20
-83.66162375107592
 10
61.687171665044
 20
-83.67229734238481
 10
61.68967707999929
 20
-83.68202958774693
 10
61.6920437456341
 20
-83.6908242715148
 10
61.69433677647727
 20
-83.69898829390882
 10
61.69645486717399
 20
-83.70622270425181
 10
61.69847066655549
 20
-83.71283192390672
 10
61.70037119150319
 20
-83.71881886098341
 10
61.70224185810239
 20
-83.72448515725428
 10
61.70407701352869
 20
-83.72983208936473
 10
61.70576414106249
 20
-83.73456553963649
 10
61.7072887331702
 20
-83.73868978247022
 10
61.7087490014622
 20
-83.74250273392922
 10
61.71013826832709
 20
-83.74600651210281
 10
61.71157014905629
 20
-83.74949360432083
 10
61.71292258462139
 20
-83.7526742412759
 10
61.71431544021249
 20
-83.75583857723079
 10
61.71561935988059
 20
-83.75869938342189
 10
61.7168268888532
 20
-83.76125848542072
 10
61.71792979967859
 20
-83.76351873317721
 10
61.71906271108769
 20
-83.76576350890642
 10
61.72022772277549
 20
-83.76799106929022
 10
61.72127509090149
 20
-83.76992469218361
 10
61.72235005001419
 20
-83.77184263196348
 10
61.72345400674529
 20
-83.77374372074312
 10
61.7244244013606
 20
-83.775358928112
 10
61.72541831802071
 20
-83.77695988696391
 10
61.72643817348889
 20
-83.77854445262597
 10
61.72730984052688
 20
-83.77985064287512
 10
61.72820300259189
 20
-83.78114234562222
 10
61.7291192423958
 20
-83.78241815025708
 10
61.7300601426503
 20
-83.7836766461695
 10
61.73083168196079
 20
-83.784670032689
 10
61.73162082724378
 20
-83.78565071660302
 10
61.73242838884767
 20
-83.78661797567913
 10
61.733255177121
 20
-83.78757108768473
 10
61.73410200241221
 20
-83.78850933038751
 10
61.7349696750697
 20
-83.78943198155472
 10
61.73585903896839
 20
-83.79033767740828
 10
61.7367710700662
 20
-83.79122252668471
 10
61.73747057540317
 20
-83.7918697678595
 10
61.738183823763
 20
-83.79250083975369
 10
61.73891124059828
 20
-83.79311383818981
 10
61.73965325136212
 20
-83.7937068589901
 10
61.7404102815071
 20
-83.7942779979773
 10
61.7411827564862
 20
-83.79482535097379
 10
61.74197110175221
 20
-83.79534701380192
 10
61.74277574275798
 20
-83.79584108228431
 10
61.74332143338411
 20
-83.7961541907458
 10
61.74387468171151
 20
-83.79645362455178
 10
61.74443561380011
 20
-83.79673881950152
 10
61.7450043557103
 20
-83.797009211394
 10
61.74558103349689
 20
-83.79726423602992
 10
61.74616562572219
 20
-83.79750336248442
 10
61.74675757703338
 20
-83.7977261802853
 10
61.74735621130539
 20
-83.79793230620732
 10
61.7479608524129
 20
-83.79812135702492
 10
61.74857082423049
 20
-83.79829294951292
 10
61.74918545063288
 20
-83.79844670044581
 10
61.74980405549479
 20
-83.79858222659812
 10
61.75042596269101
 20
-83.79869914474459
 10
61.75105049609618
 20
-83.79879707165983
 10
61.75167697958489
 20
-83.79887562411841
 10
61.75230473703201
 20
-83.79893441889482
 10
61.7529330923121
 20
-83.79897307276381
 10
61.75356136929999
 20
-83.79899120250001
 10
61.75355136996419
 20
-83.7989910766147
  0
LWPOLYLINE
  5
5D3
330
1E
100
AcDbEntity
  8
1
100
AcDbPolyline
 90
       83
 70
     0
 43
0.0
 10
61.75123122709999
 20
-80.49905989630003
 10
61.75093146949
 20
-80.49905861961162
 10
61.75063158478669
 20
-80.49906221241672
 10
61.75033170144449
 20
-80.49907072988148
 10
61.75003194791769
 20
-80.49908422717248
 10
61.7497324526607
 20
-80.49910275945592
 10
61.74943334412789
 20
-80.49912638189828
 10
61.7491347507735
 20
-80.49915514966592
 10
61.748836801052
 20
-80.49918911792522
 10
61.7485396231997
 20
-80.49922834154271
 10
61.74824331371539
 20
-80.49927283173429
 10
61.74794790433999
 20
-80.49932251065021
 10
61.74765341891919
 20
-80.49937728958218
 10
61.74735988129919
 20
-80.49943707982199
 10
61.74706731532578
 20
-80.49950179266152
 10
61.7467757448449
 20
-80.49957133939242
 10
61.7464851937026
 20
-80.4996456313067
 10
61.7461956857446
 20
-80.499724579696
 10
61.74590724481689
 20
-80.49980809585219
 10
61.74561989476551
 20
-80.49989609106711
 10
61.74533365943628
 20
-80.49998847663252
 10
61.74504856267528
 20
-80.50008516384011
 10
61.74476462832819
 20
-80.50018606398181
 10
61.74448188024109
 20
-80.50029108834952
 10
61.74413014963819
 20
-80.50042803336031
 10
61.74378035639978
 20
-80.50057111060928
 10
61.74343254710009
 20
-80.5007201468384
 10
61.7430867683131
 20
-80.50087496878921
 10
61.74274306661289
 20
-80.50103540320369
 10
61.74240148857359
 20
-80.5012012768236
 10
61.74206208076919
 20
-80.50137241639081
 10
61.7417248897739
 20
-80.50154864864692
 10
61.74138996216171
 20
-80.50172980033392
 10
61.74099110226911
 20
-80.50195343205942
 10
61.74059564919488
 20
-80.50218359888342
 10
61.7402036834191
 20
-80.50242000141563
 10
61.73981528542179
 20
-80.50266234026599
 10
61.73943053568279
 20
-80.50291031604421
 10
61.73898637934938
 20
-80.50320634615159
 10
61.7385474260427
 20
-80.50350916582042
 10
61.73805230011438
 20
-80.50386294932172
 10
61.73756428648419
 20
-80.50422433034929
 10
61.73708330825859
 20
-80.50459299019541
 10
61.73660921109829
 20
-80.5049687232737
 10
61.73608388456147
 20
-80.50539962185322
 10
61.73556685160248
 20
-80.50583891984263
 10
61.7350578923726
 20
-80.50628632466262
 10
61.7345567870227
 20
-80.5067415437338
 10
61.73400894724379
 20
-80.50725615170703
 10
61.73347023061859
 20
-80.50777964435182
 10
61.73294033557088
 20
-80.50831162032499
 10
61.73241896052479
 20
-80.50885167828353
 10
61.73185492864472
 20
-80.50945459772751
 10
61.7313004396616
 20
-80.51006627656041
 10
61.73070595455879
 20
-80.5107429249058
 10
61.73012182747211
 20
-80.51142866839903
 10
61.72950010745299
 20
-80.51218101644613
 10
61.7288427137672
 20
-80.5130012531699
 10
61.7281971132447
 20
-80.51383080153263
 10
61.7275175450371
 20
-80.51472868523083
 10
61.72680550743248
 20
-80.51569545004879
 10
61.72606289554489
 20
-80.51673218176167
 10
61.72533421078999
 20
-80.5177783502563
 10
61.72457736299579
 20
-80.51889589460644
 10
61.72383513349409
 20
-80.52002308557829
 10
61.72306696234149
 20
-80.52122283345703
 10
61.72227467902621
 20
-80.52249613967999
 10
61.72146003813819
 20
-80.52384389795172
 10
61.72062469303339
 20
-80.5252668695604
 10
61.71977016817978
 20
-80.52676565746052
 10
61.7188978301877
 20
-80.52834067912142
 10
61.71797369798829
 20
-80.53005840814352
 10
61.71700106216871
 20
-80.53191997662089
 10
61.71601656659079
 20
-80.53385917580511
 10
61.71498866206769
 20
-80.53594375017151
 10
61.71395296941299
 20
-80.53810745197782
 10
61.71287941101229
 20
-80.54041875518079
 10
61.71177124857149
 20
-80.5428788968692
 10
61.71063145835328
 20
-80.54548888925181
 10
61.70943381565789
 20
-80.54831864407551
 10
61.70818273708118
 20
-80.55136947405742
 10
61.70682730187177
 20
-80.55478166765231
 10
61.70666749230928
 20
-80.55519110378583
  0
LWPOLYLINE
  5
628
330
1E
100
AcDbEntity
  8
1
100
AcDbPolyline
 90
       20
 70
     0
 43
0.0
 10
61.98562918020001
 20
-85.05890775759999
 10
61.99559657761721
 20
-84.99693079389031
 10
62.00604298642177
 20
-84.9270874644494
 10
62.01734206049839
 20
-84.84547579626081
 10
62.02924325225009
 20
-84.75207082566248
 10
62.04195260200521
 20
-84.6429551075373
 10
62.055143268958
 20
-84.51810329155412
 10
62.06886735276871
 20
-84.37359019483983
 10
62.0827323333706
 20
-84.20939460670778
 10
62.09664410134359
 20
-84.0215892654543
 10
62.11037336369249
 20
-83.80624330452031
 10
62.12336060275729
 20
-83.56334380293509
 10
62.13505566325159
 20
-83.29288680653382
 10
62.14490098599289
 20
-82.99487638111022
 10
62.1522400420662
 20
-82.67324714529619
 10
62.15649276774639
 20
-82.33586768250502
 10
62.1573224048112
 20
-81.99061576449592
 10
62.15467028632149
 20
-81.64929646274442
 10
62.14877068334878
 20
-81.3197896424158
 10
62.14421080061539
 20
-81.143308208686
  0
LWPOLYLINE
  5
63E
330
1E
100
AcDbEntity
  8
1
100
AcDbPolyline
 90
        2
 70
     0
 43
0.0
 10
61.60001972159999
 20
-78.51213309370011
 10
61.78711263429378
 20
-78.52106393319282
  0
LWPOLYLINE
  5
642
330
1E
100
AcDbEntity
  8
1
100
AcDbPolyline
 90
       68
 70
     0
 43
0.0
 10
61.79812873429999
 20
-83.7428506772
 10
61.80157919551997
 20
-83.73363047332441
 10
61.80480510395788
 20
-83.72432740064644
 10
61.80783916516211
 20
-83.71495880513109
 10
61.81071223725929
 20
-83.70554081372558
 10
61.81432497693172
 20
-83.69292071648731
 10
61.81772041022279
 20
-83.6802406992747
 10
61.82170821492228
 20
-83.66432452394631
 10
61.82544885863171
 20
-83.64834818176211
 10
61.82965891445478
 20
-83.62911347439661
 10
61.83360846067138
 20
-83.6098240835548
 10
61.83793042641679
 20
-83.58726319624111
 10
61.84254704430749
 20
-83.56141983623222
 10
61.84738444144219
 20
-83.53228460861663
 10
61.85238047048429
 20
-83.49985174341522
 10
61.85792259313089
 20
-83.46086528556792
 10
61.86344784323408
 20
-83.41856473493612
 10
61.86929249229679
 20
-83.36969016138468
 10
61.87566131693889
 20
-83.3109672592411
 10
61.88202957668718
 20
-83.24564671846571
 10
61.88856041784378
 20
-83.17045511460719
 10
61.89529263204409
 20
-83.08211062063561
 10
61.90194266766379
 20
-82.9806016290164
 10
61.90823857111588
 20
-82.8659217744328
 10
61.91391436556879
 20
-82.73806919326863
 10
61.91870119296419
 20
-82.59704594636287
 10
61.92225633395339
 20
-82.44613887452421
 10
61.92434710920949
 20
-82.28864081857919
 10
61.92483926019369
 20
-82.12784814445852
 10
61.92368921857799
 20
-81.96705883412541
 10
61.92094199795989
 20
-81.80957087169311
 10
61.91684272047859
 20
-81.6619603260735
 10
61.91158936537378
 20
-81.52423750725189
 10
61.905533535412
 20
-81.39968763313339
 10
61.89894234784738
 20
-81.28831144186719
 10
61.89208261964459
 20
-81.19010563030192
 10
61.88522896393671
 20
-81.10506220365911
 10
61.87835214771428
 20
-81.02990146185032
 10
61.87164897737821
 20
-80.96461445002018
 10
61.86533289582749
 20
-80.90918738960292
 10
61.85920749684889
 20
-80.8603471823064
 10
61.85340817469549
 20
-80.81808331382083
 10
61.84808396693699
 20
-80.78238122678358
 10
61.8428564092682
 20
-80.74998478525108
 10
61.83778187888049
 20
-80.72088996364442
 10
61.83355254099811
 20
-80.69831162182952
 10
61.82903498497939
 20
-80.67578898348541
 10
61.82489657183698
 20
-80.65653899199132
 10
61.8212285229502
 20
-80.64054613551737
 10
61.81733156470999
 20
-80.6246071931965
 10
61.81402047716371
 20
-80.61190485994732
 10
61.81051100221889
 20
-80.59925523525919
 10
61.80677177211638
 20
-80.58667080953991
 10
61.80378783011859
 20
-80.5772882621148
 10
61.80062637502009
 20
-80.56796432549608
 10
61.7972589530942
 20
-80.55871245683659
 10
61.79363778349479
 20
-80.54955615988232
 10
61.79105751374399
 20
-80.54351749074703
 10
61.7883240082277
 20
-80.53754278427183
 10
61.78540481945328
 20
-80.53165784419109
 10
61.78226251615779
 20
-80.52589374768258
 10
61.77885862638789
 20
-80.52028253042619
 10
61.77512072712668
 20
-80.51488747932323
 10
61.7709356471121
 20
-80.50980938915511
 10
61.76618578054927
 20
-80.50519000997558
 10
61.76073617399599
 20
-80.50150304931131
 10
61.7545067095255
 20
-80.49937659940042
 10
61.75124122643579
 20
-80.49906002218532
  0
LWPOLYLINE
  5
688
330
1E
100
AcDbEntity
  8
1
100
AcDbPolyline
 90
       83
 70
     0
 43
0.0
 10
61.75356136929999
 20
-83.79899120250001
 10
61.75386112691001
 20
-83.79899247918832
 10
61.75416101161321
 20
-83.79898888638331
 10
61.75446089495538
 20
-83.79898036891852
 10
61.7547606484821
 20
-83.79896687162752
 10
61.75506014373899
 20
-83.79894833934411
 10
61.75535925227189
 20
-83.79892471690181
 10
61.75565784562619
 20
-83.79889594913413
 10
61.75595579534761
 20
-83.79886198087492
 10
61.75625297319989
 20
-83.79882275725739
 10
61.7565492826841
 20
-83.79877826706572
 10
61.75684469205949
 20
-83.79872858814989
 10
61.7571391774801
 20
-83.79867380921792
 10
61.75743271510008
 20
-83.79861401897812
 10
61.75772528107339
 20
-83.79854930613861
 10
61.75801685155409
 20
-83.7984797594076
 10
61.75830740269649
 20
-83.79840546749342
 10
61.7585969106544
 20
-83.7983265191041
 10
61.75888535158189
 20
-83.7982430029479
 10
61.75917270163321
 20
-83.79815500773302
 10
61.75945893696229
 20
-83.79806262216758
 10
61.75974403372329
 20
-83.79796593496003
 10
61.76002796807019
 20
-83.79786503481831
 10
61.76031071615721
 20
-83.79776001045058
 10
61.76066244675999
 20
-83.79762306543979
 10
61.76101223999829
 20
-83.7974799881907
 10
61.76136004929788
 20
-83.7973309519617
 10
61.76170582808478
 20
-83.79717613001091
 10
61.76204952978499
 20
-83.79701569559641
 10
61.76239110782419
 20
-83.7968498219765
 10
61.76273051562849
 20
-83.79667868240941
 10
61.76306770662371
 20
-83.79650245015332
 10
61.76340263423589
 20
-83.79632129846639
 10
61.76380149412839
 20
-83.79609766674091
 10
61.7641969472026
 20
-83.795867499917
 10
61.76458891297841
 20
-83.79563109738491
 10
61.7649773109758
 20
-83.79538875853462
 10
61.76536206071478
 20
-83.79514078275652
 10
61.76580621704829
 20
-83.79484475264931
 10
61.7662451703552
 20
-83.79454193298071
 10
61.76674029628378
 20
-83.79418814947959
 10
61.7672283099143
 20
-83.7938267684523
 10
61.76770928814018
 20
-83.79345810860652
 10
61.76818338530098
 20
-83.7930823755286
 10
61.7687087118383
 20
-83.79265147694949
 10
61.76922574479778
 20
-83.7922121789605
 10
61.76973470402829
 20
-83.79176477414102
 10
61.77023580937881
 20
-83.79130955507021
 10
61.7707836491582
 20
-83.79079494709747
 10
61.77132236578398
 20
-83.79027145445322
 10
61.77185226083209
 20
-83.78973947848031
 10
61.7723736358787
 20
-83.78919942052231
 10
61.7729376677591
 20
-83.78859650107861
 10
61.77349215674239
 20
-83.78798482224603
 10
61.77408664184509
 20
-83.78730817390069
 10
61.77467076893149
 20
-83.78662243040748
 10
61.77529248894979
 20
-83.78587008236008
 10
61.77594988263459
 20
-83.78504984563582
 10
61.77659548315529
 20
-83.78422029727238
 10
61.77727505136051
 20
-83.78332241357302
 10
61.77798708896172
 20
-83.7823556487533
 10
61.77872970084479
 20
-83.781318917038
 10
61.77945838559449
 20
-83.78027274854067
 10
61.78021523338268
 20
-83.77915520418731
 10
61.78095746287789
 20
-83.77802801321179
 10
61.78172563402339
 20
-83.77682826532931
 10
61.7825179173311
 20
-83.77555495910211
 10
61.78333255821119
 20
-83.77420720082588
 10
61.78416790330819
 20
-83.7727842292128
 10
61.78502242815461
 20
-83.77128544130853
 10
61.78589476614028
 20
-83.76971041964393
 10
61.78681889833459
 20
-83.76799269061868
 10
61.7877915341517
 20
-83.7661311221395
 10
61.78877602973049
 20
-83.76419192295529
 10
61.78980393425799
 20
-83.76210734859078
 10
61.79083962692029
 20
-83.75994364678803
 10
61.79191318533139
 20
-83.7576323435899
 10
61.7930213477846
 20
-83.75517220190781
 10
61.79416113801649
 20
-83.75256220953202
 10
61.79535878072539
 20
-83.74973245471521
 10
61.7966098593131
 20
-83.74668162473922
 10
61.7979652945281
 20
-83.7432694311477
 10
61.79812510409069
 20
-83.74285999501431
  0
LWPOLYLINE
  5
6DD
330
1E
100
AcDbEntity
  8
1
100
AcDbPolyline
 90
       79
 70
     0
 43
0.0
 10
61.78712226049999
 20
-78.52107199450002
 10
61.78605927409821
 20
-78.52103478859411
 10
61.7849949260866
 20
-78.5210261019262
 10
61.78393013677339
 20
-78.52104598284592
 10
61.78286582646679
 20
-78.52109447970298
 10
61.781802915475
 20
-78.5211716408472
 10
61.78074232410609
 20
-78.5212775146283
 10
61.77968497266828
 20
-78.52141214939599
 10
61.77863178116579
 20
-78.5215755929904
 10
61.77758354107599
 20
-78.52176767786289
 10
61.7765407164446
 20
-78.52198768774342
 10
61.77550371993588
 20
-78.52223482025642
 10
61.77447296421458
 20
-78.52250827302622
 10
61.77344886194538
 20
-78.52280724367711
 10
61.77243182579259
 20
-78.52313092983361
 10
61.77142226842099
 20
-78.52347852911989
 10
61.77042060249499
 20
-78.52384923916051
 10
61.76942724067928
 20
-78.52424225757951
 10
61.7679536708662
 20
-78.52487185822122
 10
61.76650110653929
 20
-78.52554713935152
 10
61.76507088381069
 20
-78.52626541476459
 10
61.76366341886758
 20
-78.5270243525727
 10
61.762278380688
 20
-78.52782190868281
 10
61.76091541663178
 20
-78.52865604732881
 10
61.75957417405859
 20
-78.5295247327441
 10
61.75825430032799
 20
-78.53042592916252
 10
61.75695544279978
 20
-78.53135760081769
 10
61.75567724883372
 20
-78.53231771194329
 10
61.7544193657892
 20
-78.53330422677291
 10
61.75277317344489
 20
-78.53465713534061
 10
61.7511615387874
 20
-78.53604920322931
 10
61.74958331755289
 20
-78.53747793689918
 10
61.74803733114388
 20
-78.5389411024483
 10
61.74652240096261
 20
-78.54043646597492
 10
61.74503734841128
 20
-78.54196179357701
 10
61.74322125261939
 20
-78.5439071868512
 10
61.74144769711699
 20
-78.54589154543231
 10
61.7397143827929
 20
-78.54791051577122
 10
61.73801926389939
 20
-78.54996059614672
 10
61.73636074453908
 20
-78.55203979727348
 10
61.73473727505749
 20
-78.55414628533829
 10
61.73283319560578
 20
-78.55670750776531
 10
61.730974678674
 20
-78.55930221386303
 10
61.72915904645909
 20
-78.56192723480211
 10
61.72738362116189
 20
-78.5645794017596
 10
61.72535986274838
 20
-78.56770419308981
 10
61.72338480395699
 20
-78.57085953604332
 10
61.72145602040149
 20
-78.57404327930942
 10
61.7193052498917
 20
-78.57771385923578
 10
61.71720813505128
 20
-78.58141551228609
 10
61.71490851018178
 20
-78.58561301563331
 10
61.7126673552492
 20
-78.58984153762961
 10
61.7102416751295
 20
-78.5945731451592
 10
61.70788002438438
 20
-78.59933700275139
 10
61.70535140070299
 20
-78.6046111002846
 10
61.70289011456179
 20
-78.60991699309379
 10
61.700275808792
 20
-78.61573720606229
 10
61.69752139962059
 20
-78.62207647999061
 10
61.69463988554038
 20
-78.62893959099172
 10
61.69164310517209
 20
-78.63633039292832
 10
61.68854127067689
 20
-78.6442515383097
 10
61.68534410471028
 20
-78.65270536034102
 10
61.68206196694947
 20
-78.66169475165668
 10
61.67852995416581
 20
-78.6717242095613
 10
61.67477190475938
 20
-78.68280037174992
 10
61.67097384490158
 20
-78.69442338142531
 10
61.66698523540969
 20
-78.70710195012382
 10
61.6626749709334
 20
-78.72135025617048
 10
61.65822453258169
 20
-78.73666586120582
 10
61.65351208755961
 20
-78.75356518518946
 10
61.64843397552799
 20
-78.77256883856309
 10
61.64316600444889
 20
-78.79317131486651
 10
61.63748737789831
 20
-78.81641097239742
 10
61.63157255643879
 20
-78.84178042172752
 10
61.62523235764859
 20
-78.870324286267
 10
61.6184241781875
 20
-78.90257437402651
 10
61.6112230761761
 20
-78.93854279498622
 10
61.6035062347198
 20
-78.97928509468631
 10
61.5999897991985
 20
-78.99862808948042
  0
LWPOLYLINE
  5
72E
330
1E
100
AcDbEntity
  8
1
100
AcDbPolyline
 90
       53
 70
     0
 43
0.0
 10
62.14421051380001
 20
81.14329821269988
 10
62.13418736631479
 20
80.84584478284829
 10
62.1223318123334
 20
80.57529494620769
 10
62.1091831104179
 20
80.33165281932669
 10
62.09527167724431
 20
80.11491494675318
 10
62.0811356975251
 20
79.92506942293896
 10
62.06709211451361
 20
79.75942409839587
 10
62.0533736438857
 20
79.6152861163073
 10
62.0401309215059
 20
79.48996345434818
 10
62.02743206933811
 20
79.3807666460538
 10
62.01561264710401
 20
79.28766885005028
 10
62.00427262189299
 20
79.20532607778977
 10
61.99362539565349
 20
79.13371844756099
 10
61.98346603492871
 20
79.07017442067019
 10
61.97395816503878
 20
79.01467574494889
 10
61.9652809188404
 20
78.96719879135857
 10
61.957100233701
 20
78.92508510865457
 10
61.94953091809221
 20
78.88831782893969
 10
61.94211146058972
 20
78.85425955244595
 10
61.93550112204211
 20
78.82551527060527
 10
61.92919255736558
 20
78.79945470189658
 10
61.92324178572938
 20
78.77606782977608
 10
61.91699887565401
 20
78.75275725399498
 10
61.91117404596699
 20
78.73211232217521
 10
61.905836539093
 20
78.71411767820656
 10
61.90106232470778
 20
78.69875392035119
 10
61.89608132225229
 20
78.68345603390739
 10
61.89086981567061
 20
78.66823487589309
 10
61.8863290745207
 20
78.6556198838888
 10
61.88158539254811
 20
78.64307983233797
 10
61.87762882983562
 20
78.63310993237877
 10
61.87351070082591
 20
78.62320571499758
 10
61.86921226041061
 20
78.61337842200352
 10
61.86471341795011
 20
78.6036404614455
 10
61.86119055411278
 20
78.59640753016154
 10
61.8575249552428
 20
78.58924593529889
 10
61.85370258944382
 20
78.58216580489528
 10
61.8497040201187
 20
78.57518330956619
 10
61.8455051309473
 20
78.56831985196369
 10
61.84108136194829
 20
78.56159745729747
 10
61.8379915602085
 20
78.55721064567699
 10
61.83477473566579
 20
78.55291666485069
 10
61.83141820882431
 20
78.54873044597778
 10
61.8279089851349
 20
78.54466802084978
 10
61.82423063020481
 20
78.54075743828578
 10
61.82036459173051
 20
78.53703414598452
 10
61.8162923019577
 20
78.5335338618858
 10
61.81199653718389
 20
78.53030628704551
 10
61.80746243515471
 20
78.52742569032848
 10
61.80267611216081
 20
78.5249691108923
 10
61.79765314690491
 20
78.52302468285349
 10
61.79244782045101
 20
78.52169511487004
 10
61.78713224874019
 20
78.52107247964887
  0
LWPOLYLINE
  5
765
330
1E
100
AcDbEntity
  8
1
100
AcDbPolyline
 90
        2
 70
     0
 43
0.0
 10
61.79211369299999
 20
85.59588650519998
 10
61.60003035150239
 20
85.60531751091357
  0
LWPOLYLINE
  5
769
330
1E
100
AcDbEntity
  8
1
100
AcDbPolyline
 90
       50
 70
     0
 43
0.0
 10
61.79211333040001
 20
85.59587912239988
 10
61.80100679647821
 20
85.59440708760048
 10
61.80943816315402
 20
85.59111457718447
 10
61.817184407261
 20
85.58646257788877
 10
61.82425694553971
 20
85.5808392784
 10
61.830731573858
 20
85.57454547188378
 10
61.83669593212581
 20
85.56776370686469
 10
61.8422296964851
 20
85.56063205956759
 10
61.84739554144801
 20
85.55322871128806
 10
61.8522511435178
 20
85.54562043851481
 10
61.85683689743671
 20
85.53784708500137
 10
61.86118730915431
 20
85.52993931987158
 10
61.8653332443414
 20
85.52192373928498
 10
61.87121446901872
 20
85.50973201168181
 10
61.87674777876321
 20
85.49737888599308
 10
61.8819820597471
 20
85.48489657336368
 10
61.88695540092879
 20
85.47230793386637
 10
61.8917008398046
 20
85.45963215533957
 10
61.89771437891701
 20
85.44261698049655
 10
61.90341583780828
 20
85.42549507721927
 10
61.90884259890911
 20
85.40828411453608
 10
61.91528864044889
 20
85.38666724567653
 10
61.92140438603981
 20
85.36495463822058
 10
61.92836351138371
 20
85.33879578376092
 10
61.93495835097791
 20
85.3125427017054
 10
61.94225058789839
 20
85.28181620285819
 10
61.95012051297979
 20
85.24659336290218
 10
61.95845955183691
 20
85.20685627757497
 10
61.96717057997591
 20
85.16259132017088
 10
61.97616722173271
 20
85.11378835626407
 10
61.98537350594712
 20
85.06044026003058
 10
61.99541732080572
 20
84.99808465734048
 10
62.00609920671912
 20
84.92669740806908
 10
62.01723767413191
 20
84.84626023340991
 10
62.02921747289851
 20
84.75228196173452
 10
62.04175435318131
 20
84.64473742030348
 10
62.05504112820671
 20
84.51911994350648
 10
62.06870436774971
 20
84.37540434099998
 10
62.08275756876671
 20
84.20907657578231
 10
62.09674571922811
 20
84.02011643677566
 10
62.11050443224969
 20
83.80400866551587
 10
62.12348652237281
 20
83.56074136841197
 10
62.13515399004331
 20
83.29031135384019
 10
62.14496118879241
 20
82.99272319301589
 10
62.15225329941571
 20
82.67249971496431
 10
62.1565054647424
 20
82.33417453297127
 10
62.15732428039971
 20
81.99131222854308
 10
62.15465950130661
 20
81.64845931682881
 10
62.148652494282
 20
81.3146728294579
 10
62.14421080061541
 20
81.14330820858603
  0
LWPOLYLINE
  5
79D
330
1E
100
AcDbEntity
  8
1
100
AcDbPolyline
 90
        2
 70
     0
 43
0.0
 10
61.60001972159999
 20
78.51213309369987
 10
61.78711263429378
 20
78.52106393319282
  0
LWPOLYLINE
  5
7A1
330
1E
100
AcDbEntity
  8
1
100
AcDbPolyline
 90
        2
 70
     0
 43
0.0
 10
62.98165399999999
 20
-87.04559200000002
 10
61.60000996982379
 20
-86.93254231116808
  0
LWPOLYLINE
  5
7A5
330
1E
100
AcDbEntity
  8
1
100
AcDbPolyline
 90
        2
 70
     0
 43
0.0
 10
58.10432599999998
 20
-99.08750799999999
 10
58.10529880784928
 20
-98.50001000028832
  0
LWPOLYLINE
  5
7A9
330
1E
100
AcDbEntity
  8
1
100
AcDbPolyline
 90
        2
 70
     0
 43
0.0
 10
58.61654199999999
 20
-99.63305600000014
 10
58.10433284420389
 20
-99.08751529087602
  0
LWPOLYLINE
  5
7AD
330
1E
100
AcDbEntity
  8
1
100
AcDbPolyline
 90
        2
 70
     0
 43
0.0
 10
61.89830299999999
 20
-99.88813700000001
 10
58.61655197037277
 20
-99.63305676919882
  0
LWPOLYLINE
  5
7B1
330
1E
100
AcDbEntity
  8
1
100
AcDbPolyline
 90
      124
 70
     0
 43
0.0
 10
62.99285099999998
 20
-98.913513
 10
62.99275719499918
 20
-98.92503571163892
 10
62.99252726975808
 20
-98.93655736885023
 10
62.99216095374998
 20
-98.9480760500146
 10
62.99165797644779
 20
-98.95958983351272
 10
62.99101806732479
 20
-98.97109679773599
 10
62.99024095571739
 20
-98.98259508188672
 10
62.98932637050619
 20
-98.99408302876025
 10
62.98827404047597
 20
-99.00555902370967
 10
62.98708369441168
 20
-99.01702145208851
 10
62.98575506138728
 20
-99.02846869920431
 10
62.98428801036799
 20
-99.03989912830942
 10
62.98268277460778
 20
-99.05131104522171
 10
62.98093964590528
 20
-99.06270274652888
 10
62.97905891605898
 20
-99.07407252881874
 10
62.97704087832138
 20
-99.08541868922874
 10
62.97488603163611
 20
-99.09673960267411
 10
62.97259529152857
 20
-99.1080338015918
 10
62.97016962386359
 20
-99.11929983745359
 10
62.967233453839
 20
-99.13213896346469
 10
62.96412369867109
 20
-99.14493723424612
 10
62.96084055555648
 20
-99.15769212119641
 10
62.95738309276398
 20
-99.17040076338729
 10
62.95421404860977
 20
-99.18148063073722
 10
62.95091013924749
 20
-99.19252096605859
 10
62.94747105318139
 20
-99.20351994725621
 10
62.94337668584528
 20
-99.21603782102659
 10
62.93910967460078
 20
-99.22849802444133
 10
62.93467238979199
 20
-99.24089869259553
 10
62.93006714275788
 20
-99.25323794349054
 10
62.92529519120718
 20
-99.26551358988433
 10
62.92035688447548
 20
-99.27772318137371
 10
62.91525254214549
 20
-99.28986425893569
 10
62.90998248551987
 20
-99.30193436370352
 10
62.90454720911128
 20
-99.313931052518
 10
62.89894752652561
 20
-99.3258519111572
 10
62.89318428572548
 20
-99.33769452851493
 10
62.8872583346736
 20
-99.34945649348492
 10
62.8811707761853
 20
-99.36113555704388
 10
62.87492373418579
 20
-99.37273011958112
 10
62.86851958830329
 20
-99.38423874410959
 10
62.8619607181659
 20
-99.39565999364219
 10
62.85524935970128
 20
-99.40699234521192
 10
62.84838639552688
 20
-99.41823346612782
 10
62.84137196543639
 20
-99.42938057924671
 10
62.83420620156968
 20
-99.44043090284582
 10
62.82688927707138
 20
-99.45138168195299
 10
62.81847866915498
 20
-99.46357980522613
 10
62.80988177987078
 20
-99.47564751164769
 10
62.80110212776339
 20
-99.4875830131955
 10
62.7921431571886
 20
-99.49938447596432
 10
62.78300735030259
 20
-99.51104947096373
 10
62.77369651758529
 20
-99.52257515379699
 10
62.76421245579609
 20
-99.53395867158144
 10
62.75455704953778
 20
-99.54519724066749
 10
62.74473272386646
 20
-99.5562885033607
 10
62.7336218904545
 20
-99.56843669109884
 10
62.72230937010398
 20
-99.58039729631479
 10
62.71079869849518
 20
-99.59216728664252
 10
62.69909327881928
 20
-99.60374359223948
 10
62.68719650012337
 20
-99.61512313926279
 10
62.67511179843658
 20
-99.62630291012771
 10
62.66284289516377
 20
-99.63728022897242
 10
62.65164655417098
 20
-99.64698461391101
 10
62.6403069030611
 20
-99.65652109409504
 10
62.62882681270427
 20
-99.66588798664192
 10
62.61720929530007
 20
-99.67508391739393
 10
62.60545737775219
 20
-99.68410754431268
 10
62.59357407227907
 20
-99.69295750425231
 10
62.58156199917228
 20
-99.70163187071824
 10
62.5694233540986
 20
-99.71012810686962
 10
62.55716031148811
 20
-99.71844364533994
 10
62.54477511584169
 20
-99.7265760335536
 10
62.53227085594389
 20
-99.73452420205212
 10
62.51965117972646
 20
-99.74228799737939
 10
62.50691974511138
 20
-99.74986728244573
 10
62.49408008196297
 20
-99.7572617188552
 10
62.48113486541388
 20
-99.76446962458179
 10
62.46808642065698
 20
-99.77148876749659
 10
62.45640302124346
 20
-99.77756773227673
 10
62.44464159735188
 20
-99.78349434806453
 10
62.43280426517028
 20
-99.78926795146202
 10
62.4208932927846
 20
-99.7948881633151
 10
62.40891094851178
 20
-99.80035460490228
 10
62.39685949440328
 20
-99.8056668905852
 10
62.38474108053978
 20
-99.81082451111229
 10
62.37255776041958
 20
-99.81582685060814
 10
62.36031158437468
 20
-99.82067328970105
 10
62.3480046026615
 20
-99.82536320872149
 10
62.33563885359309
 20
-99.82989594073451
 10
62.3232163505795
 20
-99.834270720253
 10
62.31073910391597
 20
-99.83848676946394
 10
62.29820912389797
 20
-99.84254331055391
 10
62.28562844462658
 20
-99.8464396714877
 10
62.27299923175799
 20
-99.85017576478142
 10
62.26032369614209
 20
-99.853751703763
 10
62.2476040486697
 20
-99.85716760194252
 10
62.23484249251539
 20
-99.86042354204421
 10
62.22204108629019
 20
-99.86351903001128
 10
62.20920176025669
 20
-99.8664530597026
 10
62.19632644021899
 20
-99.86922460718808
 10
62.18341705230898
 20
-99.87183265041879
 10
62.17047560286617
 20
-99.87427662739079
 10
62.15750428273898
 20
-99.87655703438459
 10
62.14450530862507
 20
-99.87867451594581
 10
62.13148089722238
 20
-99.88062971661989
 10
62.11843324026599
 20
-99.88242314533444
 10
62.10536435977467
 20
-99.88405438897224
 10
62.0922762071185
 20
-99.88552265059242
 10
62.07917073343497
 20
-99.88682713199171
 10
62.06604989239948
 20
-99.88796704748642
 10
62.05291571508138
 20
-99.88894199324871
 10
62.03977032227887
 20
-99.88975200816392
 10
62.02661583981159
 20
-99.89039715589131
 10
62.01345439349058
 20
-99.89087750011842
 10
62.00028806981678
 20
-99.89119323837343
 10
61.98711882512507
 20
-99.89134501136421
 10
61.97394858884496
 20
-99.89133355140442
 10
61.9607792904059
 20
-99.89115959080791
 10
61.94761287597597
 20
-99.89082386318209
 10
61.93445148318668
 20
-99.89032711693399
 10
61.92129737172511
 20
-99.88967010990451
 10
61.90815280324738
 20
-99.88885360008708
 10
61.89831197026419
 20
-99.88813777060954
  0
LWPOLYLINE
  5
82F
330
1E
100
AcDbEntity
  8
1
100
AcDbPolyline
 90
        2
 70
     0
 43
0.0
 10
62.99285099999998
 20
-98.913513
 10
62.98165403553529
 20
-87.04560199993681
  0
LWPOLYLINE
  5
833
330
1E
100
AcDbEntity
  8
1
100
AcDbPolyline
 90
        2
 70
     0
 43
0.0
 10
58.10432600000002
 20
99.08750799999999
 10
58.10484027806431
 20
98.78851139268629
  0
LWPOLYLINE
  5
837
330
1E
100
AcDbEntity
  8
1
100
AcDbPolyline
 90
        2
 70
     0
 43
0.0
 10
58.61654200000002
 20
99.63305599999998
 10
58.1043328442039
 20
99.08751529087593
  0
LWPOLYLINE
  5
83B
330
1E
100
AcDbEntity
  8
1
100
AcDbPolyline
 90
        2
 70
     0
 43
0.0
 10
61.89830300000002
 20
99.88813700000001
 10
58.6165519703728
 20
99.63305676919873
  0
LWPOLYLINE
  5
83F
330
1E
100
AcDbEntity
  8
1
100
AcDbPolyline
 90
      124
 70
     0
 43
0.0
 10
62.99285100000002
 20
98.91351299999998
 10
62.9927571949992
 20
98.92503571163892
 10
62.99252726975812
 20
98.93655736885023
 10
62.99216095375001
 20
98.94807605001458
 10
62.9916579764478
 20
98.9595898335127
 10
62.99101806732481
 20
98.97109679773588
 10
62.99024095571749
 20
98.98259508188672
 10
62.98932637050621
 20
98.99408302876013
 10
62.98827404047599
 20
99.0055590237096
 10
62.98708369441172
 20
99.01702145208842
 10
62.98575506138732
 20
99.0284686992042
 10
62.984288010368
 20
99.0398991283093
 10
62.98268277460781
 20
99.05131104522158
 10
62.98093964590531
 20
99.06270274652881
 10
62.97905891605901
 20
99.07407252881858
 10
62.97704087832141
 20
99.08541868922858
 10
62.97488603163601
 20
99.09673960267401
 10
62.9725952915286
 20
99.1080338015918
 10
62.97016962386361
 20
99.11929983745359
 10
62.96723345383901
 20
99.13213896346457
 10
62.96412369867113
 20
99.14493723424598
 10
62.96084055555651
 20
99.15769212119641
 10
62.9573830927641
 20
99.17040076338729
 10
62.95421404860981
 20
99.18148063073708
 10
62.95091013924754
 20
99.19252096605859
 10
62.9474710531814
 20
99.20351994725606
 10
62.94337668584532
 20
99.21603782102657
 10
62.93910967460082
 20
99.22849802444128
 10
62.93467238979202
 20
99.24089869259553
 10
62.9300671427579
 20
99.25323794349052
 10
62.92529519120719
 20
99.26551358988433
 10
62.92035688447551
 20
99.2777231813736
 10
62.91525254214551
 20
99.28986425893556
 10
62.90998248551988
 20
99.30193436370348
 10
62.90454720911132
 20
99.31393105251792
 10
62.89894752652562
 20
99.32585191115713
 10
62.8931842857254
 20
99.33769452851478
 10
62.88725833467362
 20
99.34945649348481
 10
62.8811707761853
 20
99.3611355570438
 10
62.87492373418579
 20
99.37273011958112
 10
62.86851958830322
 20
99.38423874410949
 10
62.86196071816579
 20
99.39565999364209
 10
62.85524935970131
 20
99.40699234521177
 10
62.84838639552689
 20
99.41823346612771
 10
62.84137196543643
 20
99.42938057924658
 10
62.8342062015697
 20
99.44043090284573
 10
62.82688927707141
 20
99.45138168195292
 10
62.81847866915502
 20
99.463579805226
 10
62.80988177987079
 20
99.47564751164756
 10
62.80110212776341
 20
99.48758301319548
 10
62.79214315718872
 20
99.49938447596421
 10
62.78300735030262
 20
99.51104947096373
 10
62.7736965175854
 20
99.52257515379699
 10
62.76421245579618
 20
99.53395867158141
 10
62.75455704953791
 20
99.54519724066758
 10
62.74473272386651
 20
99.55628850336069
 10
62.7336218904546
 20
99.56843669109881
 10
62.72230937010403
 20
99.58039729631478
 10
62.71079869849522
 20
99.59216728664237
 10
62.69909327881928
 20
99.60374359223948
 10
62.68719650012338
 20
99.6151231392627
 10
62.67511179843661
 20
99.62630291012761
 10
62.66284289516381
 20
99.63728022897228
 10
62.65164655417103
 20
99.64698461391087
 10
62.64030690306111
 20
99.65652109409488
 10
62.62882681270429
 20
99.6658879866419
 10
62.61720929530021
 20
99.67508391739393
 10
62.6054573777522
 20
99.68410754431268
 10
62.59357407227922
 20
99.69295750425231
 10
62.58156199917229
 20
99.70163187071822
 10
62.56942335409862
 20
99.71012810686961
 10
62.55716031148821
 20
99.71844364533993
 10
62.5447751158418
 20
99.72657603355358
 10
62.5322708559439
 20
99.73452420205212
 10
62.51965117972649
 20
99.74228799737929
 10
62.50691974511141
 20
99.74986728244561
 10
62.49408008196291
 20
99.75726171885513
 10
62.48113486541391
 20
99.76446962458178
 10
62.46808642065699
 20
99.77148876749659
 10
62.4564030212435
 20
99.77756773227669
 10
62.44464159735191
 20
99.78349434806448
 10
62.4328042651704
 20
99.789267951462
 10
62.4208932927846
 20
99.794888163315
 10
62.40891094851182
 20
99.80035460490221
 10
62.39685949440332
 20
99.80566689058512
 10
62.38474108053981
 20
99.81082451111229
 10
62.37255776041973
 20
99.81582685060812
 10
62.36031158437469
 20
99.82067328970101
 10
62.34800460266153
 20
99.82536320872149
 10
62.33563885359312
 20
99.82989594073458
 10
62.3232163505795
 20
99.83427072025309
 10
62.31073910391611
 20
99.83848676946388
 10
62.2982091238981
 20
99.84254331055401
 10
62.28562844462661
 20
99.8464396714877
 10
62.272999231758
 20
99.8501757647814
 10
62.26032369614213
 20
99.85375170376292
 10
62.2476040486697
 20
99.85716760194241
 10
62.2348424925155
 20
99.86042354204409
 10
62.2220410862902
 20
99.8635190300112
 10
62.20920176025671
 20
99.86645305970249
 10
62.19632644021902
 20
99.86922460718801
 10
62.18341705230901
 20
99.87183265041872
 10
62.17047560286632
 20
99.87427662739072
 10
62.15750428273899
 20
99.87655703438448
 10
62.1445053086251
 20
99.87867451594581
 10
62.13148089722239
 20
99.88062971661978
 10
62.11843324026601
 20
99.8824231453343
 10
62.10536435977473
 20
99.8840543889722
 10
62.09227620711851
 20
99.88552265059229
 10
62.0791707334351
 20
99.88682713199169
 10
62.0660498923995
 20
99.88796704748629
 10
62.05291571508141
 20
99.8889419932486
 10
62.03977032227889
 20
99.88975200816378
 10
62.02661583981162
 20
99.89039715589122
 10
62.01345439349061
 20
99.89087750011828
 10
62.00028806981681
 20
99.89119323837329
 10
61.98711882512522
 20
99.89134501136408
 10
61.973948588845
 20
99.89133355140438
 10
61.9607792904059
 20
99.89115959080791
 10
61.947612875976
 20
99.89082386318209
 10
61.93445148318668
 20
99.89032711693397
 10
61.92129737172511
 20
99.8896701099045
 10
61.9081528032474
 20
99.88885360008721
 10
61.89831197026421
 20
99.88813777060952
  0
LWPOLYLINE
  5
8BD
330
1E
100
AcDbEntity
  8
1
100
AcDbPolyline
 90
      119
 70
     0
 43
0.0
 10
57.13785338680001
 20
-8.201528607699977
 10
57.01766065395958
 20
-8.267342087718626
 10
56.89835807864859
 20
-8.334773797250386
 10
56.7799680308253
 20
-8.403819347918217
 10
56.6625128804479
 20
-8.474474351345046
 10
56.5460149974749
 20
-8.546734419153846
 10
56.4304967538735
 20
-8.620595157609525
 10
56.31598141536748
 20
-8.696049789161056
 10
56.2024945438789
 20
-8.773085411868747
 10
56.0900620649784
 20
-8.851688153874414
 10
55.9787099042364
 20
-8.931844143319876
 10
55.8562838537065
 20
-9.022711191739055
 10
55.7352590993723
 20
-9.115459675227167
 10
55.6156712044309
 20
-9.210070565172156
 10
55.49755573207889
 20
-9.306524832961967
 10
55.3809482455134
 20
-9.404803449984527
 10
55.2658843079312
 20
-9.504887387627793
 10
55.15239948252929
 20
-9.606757617279717
 10
55.04052933250449
 20
-9.710395110328226
 10
54.9303087413307
 20
-9.815780188702104
 10
54.821769059436
 20
-9.922889798588784
 10
54.71494049294021
 20
-10.03169979281649
 10
54.60985324737659
 20
-10.14218602365277
 10
54.5065375282784
 20
-10.25432434336557
 10
54.40502354117899
 20
-10.36809060422227
 10
54.3053414916114
 20
-10.48346065849081
 10
54.20752158510899
 20
-10.60041035843868
 10
54.12110076645078
 20
-10.70699572734689
 10
54.036234769991
 20
-10.8148234458954
 10
53.9529456155634
 20
-10.92387591038731
 10
53.8712553230018
 20
-11.0341355171257
 10
53.79118566472589
 20
-11.145584131181
 10
53.7127564895394
 20
-11.2581994873446
 10
53.6359867454148
 20
-11.37195738619489
 10
53.56089537517779
 20
-11.48683361725977
 10
53.4875013216542
 20
-11.60280397006689
 10
53.41582352766971
 20
-11.71984423414401
 10
53.3458809360501
 20
-11.8379301990188
 10
53.2851817702291
 20
-11.94375380133527
 10
53.22588189982178
 20
-12.05036750333051
 10
53.16799462898029
 20
-12.15775430121569
 10
53.11153326185639
 20
-12.26589719120259
 10
53.05651110260221
 20
-12.3747791695027
 10
53.0029414553697
 20
-12.4843832323274
 10
52.9508376243107
 20
-12.5946923758884
 10
52.90021226873889
 20
-12.7056891477756
 10
52.8510747567173
 20
-12.81735380581831
 10
52.80343340897239
 20
-12.92966587920149
 10
52.75729654579031
 20
-13.04260489680409
 10
52.712672487457
 20
-13.15615038750459
 10
52.6695695542587
 20
-13.27028188018181
 10
52.6279960664814
 20
-13.38497890371449
 10
52.5879603444112
 20
-13.50022098698119
 10
52.549470708334
 20
-13.61598765886069
 10
52.5125354785361
 20
-13.73225844823179
 10
52.4771629753034
 20
-13.84901288397309
 10
52.443361518922
 20
-13.9662304949633
 10
52.411139429678
 20
-14.0838908100811
 10
52.38050502785739
 20
-14.20197335820531
 10
52.3514665932925
 20
-14.32045765896381
 10
52.3240300957348
 20
-14.4393227037368
 10
52.2981979900971
 20
-14.5585466801631
 10
52.27397243650099
 20
-14.6781077084714
 10
52.2513555950678
 20
-14.79798390889039
 10
52.23034962591899
 20
-14.91815340164871
 10
52.21095668917599
 20
-15.03859430697509
 10
52.19317894496009
 20
-15.15928474509831
 10
52.17701855339289
 20
-15.28020283624691
 10
52.16247767459578
 20
-15.4013267006495
 10
52.1495584686901
 20
-15.52263445853498
 10
52.1395861402088
 20
-15.62891239640118
 10
52.1308585059906
 20
-15.73529971827791
 10
52.123377013148
 20
-15.8417817664275
 10
52.11714310879379
 20
-15.9483438831128
 10
52.1121582077851
 20
-16.05497141335919
 10
52.1084220551311
 20
-16.16164984523661
 10
52.1059319496716
 20
-16.26836487636019
 10
52.1046081721953
 20
-16.39035140164089
 10
52.10490378004401
 20
-16.51234574668951
 10
52.10681445061051
 20
-16.63432658706359
 10
52.11033586128749
 20
-16.75627259832091
 10
52.115463689468
 20
-16.87816245601898
 10
52.1221936125447
 20
-16.99997483571559
 10
52.1305213079105
 20
-17.12168841296841
 10
52.1404424529583
 20
-17.243281863335
 10
52.15195272508069
 20
-17.3647338623733
 10
52.1650478016707
 20
-17.4860230856407
 10
52.179723360121
 20
-17.6071282086951
 10
52.19597507782459
 20
-17.72802790709398
 10
52.2137986090405
 20
-17.84870087660738
 10
52.2331879751641
 20
-17.96912723966139
 10
52.2541345148242
 20
-18.08928946265309
 10
52.27662931716871
 20
-18.20917022995461
 10
52.3006634713455
 20
-18.32875222593807
 10
52.3262280665025
 20
-18.44801813497561
 10
52.35331419178749
 20
-18.56695064143939
 10
52.3819129363486
 20
-18.6855324297016
 10
52.41201538933349
 20
-18.8037461841343
 10
52.44361263989009
 20
-18.92157458910959
 10
52.47669577716649
 20
-19.0390003289996
 10
52.5112558903103
 20
-19.15600608817658
 10
52.54728406846972
 20
-19.27257455101258
 10
52.58477140079239
 20
-19.3886884018798
 10
52.62370897642629
 20
-19.50433032515021
 10
52.6640878826064
 20
-19.61948300543521
 10
52.7058980413706
 20
-19.73412927297711
 10
52.74912623299051
 20
-19.84825235068949
 10
52.7937587135291
 20
-19.96183552700351
 10
52.8456317054212
 20
-20.08895044160511
 10
52.89924503680222
 20
-20.21533709851869
 10
52.9545791386681
 20
-20.3409717033426
 10
53.0116144420151
 20
-20.46583046167528
 10
53.0703313778394
 20
-20.58988957911521
 10
53.130710377137
 20
-20.7131252612607
 10
53.19273187090409
 20
-20.83551371371008
 10
53.25637629013669
 20
-20.95703114206199
 10
53.3216240658312
 20
-21.0776537519146
 10
53.3884556289835
 20
-21.19735774886651
 10
53.4491702070166
 20
-21.3029622450711
  0
LWPOLYLINE
  5
936
330
1E
100
AcDbEntity
  8
1
100
AcDbPolyline
 90
        2
 70
     0
 43
0.0
 10
57.3613923058
 20
98.49130400260001
 10
57.23276322483901
 20
98.4932686135235
  0
LWPOLYLINE
  5
93A
330
1E
100
AcDbEntity
  8
1
100
AcDbPolyline
 90
      186
 70
     0
 43
0.0
 10
57.23275322600002
 20
98.4932687659
 10
57.23252788766409
 20
98.4932716420459
 10
57.2322994655672
 20
98.4932734588043
 10
57.23206799717322
 20
98.4932742294278
 10
57.23183351994602
 20
98.4932739671686
 10
57.23153624931411
 20
98.4932722070426
 10
57.2312344090891
 20
98.49326887962799
 10
57.23092807244281
 20
98.4932640108083
 10
57.23061731254671
 20
98.49325762646721
 10
57.2303022025726
 20
98.49324975248821
 10
57.22998281569189
 20
98.49324041475501
 10
57.22965922507641
 20
98.49322963915099
 10
57.22933150389771
 20
98.4932174515599
 10
57.2289997253274
 20
98.4932038778653
 10
57.22866396253722
 20
98.49318894395089
 10
57.22832428869871
 20
98.4931726757
 10
57.22798077698339
 20
98.49315509899641
 10
57.22763350056311
 20
98.49313623972372
 10
57.22728253260941
 20
98.49311612376531
 10
57.22692794629391
 20
98.4930947770051
 10
57.22656981478831
 20
98.4930722253264
 10
57.22613548035622
 20
98.49304360926382
 10
57.22569627265791
 20
98.49301334011792
 10
57.2252523181342
 20
98.4929814626156
 10
57.22480374322561
 20
98.4929480214838
 10
57.22435067437261
 20
98.49291306144912
 10
57.22389323801579
 20
98.4928766272386
 10
57.22343156059579
 20
98.49283876357901
 10
57.2229657685532
 20
98.4927995151972
 10
57.22241731276278
 20
98.4927520349538
 10
57.22186362939641
 20
98.49270280185221
 10
57.221304919237
 20
98.49265188691731
 10
57.22074138306768
 20
98.49259936117348
 10
57.22009168989551
 20
98.49253745044322
 10
57.21943625532141
 20
98.49247363458523
 10
57.21877537905651
 20
98.4924080196186
 10
57.2180257619127
 20
98.49233218429079
 10
57.21727006368761
 20
98.4922543570998
 10
57.21642378589152
 20
98.4921657299084
 10
57.21548551628231
 20
98.49206586213313
 10
57.21445403944692
 20
98.49195438871433
 10
57.21332843338728
 20
98.49183105428259
 10
57.2119332598319
 20
98.49167624320628
 10
57.21000137688431
 20
98.49145941747423
 10
57.20188600794759
 20
98.490550059678
 10
57.20049052795401
 20
98.49039922950002
 10
57.19927834383792
 20
98.4902708003856
 10
57.19824718970279
 20
98.49016380565629
 10
57.1973092526785
 20
98.4900685537557
 10
57.1964633077578
 20
98.48998454647379
 10
57.19570793397739
 20
98.48991122218151
 10
57.19495866482661
 20
98.48984021657559
 10
57.19429811765781
 20
98.4897791690655
 10
57.193643030786
 20
98.4897201788946
 10
57.19299370392221
 20
98.4896633520821
 10
57.19243050353561
 20
98.4896154865963
 10
57.19187214340431
 20
98.48956942962729
 10
57.19131882431131
 20
98.48952525219972
 10
57.19077074703961
 20
98.489483025338
 10
57.19030529077969
 20
98.48944843721421
 10
57.18984395960851
 20
98.4894153790675
 10
57.18938687996629
 20
98.4893838956246
 10
57.18893417829391
 20
98.48935403161242
 10
57.18848598103181
 20
98.48932583175781
 10
57.18804241462059
 20
98.48929934078752
 10
57.18760360550079
 20
98.4892746034284
 10
57.1871696801131
 20
98.4892516644075
 10
57.18681189747261
 20
98.4892339545553
 10
57.18645766729031
 20
98.489217550493
 10
57.18610706273778
 20
98.4892024781039
 10
57.18576015698682
 20
98.48918876327187
 10
57.1854170232088
 20
98.48917643188039
 10
57.1850777345756
 20
98.489165509813
 10
57.18474236425861
 20
98.48915602295342
 10
57.18441098542971
 20
98.489147997185
 10
57.18408367126039
 20
98.4891414583916
 10
57.18376049492231
 20
98.48913643245658
 10
57.18344152958701
 20
98.4891329452637
 10
57.18312684842628
 20
98.4891310226965
 10
57.18281652461172
 20
98.48913069063861
 10
57.18251063131489
 20
98.48913197497351
 10
57.18220924170751
 20
98.4891349015848
 10
57.18191242896111
 20
98.48913949635621
 10
57.18167832327521
 20
98.48914439064223
 10
57.18144723107421
 20
98.4891503823686
 10
57.18121918982182
 20
98.48915748478772
 10
57.18099423698191
 20
98.48916571115188
 10
57.18077241001851
 20
98.48917507471359
 10
57.18055374639529
 20
98.48918558872533
 10
57.18033828357629
 20
98.4891972664392
 10
57.18012605902529
 20
98.48921012110778
 10
57.17991711020618
 20
98.4892241659835
 10
57.17971147458293
 20
98.4892394143187
 10
57.17950918961931
 20
98.48925587936578
 10
57.1793102927792
 20
98.48927357437709
 10
57.17911482152661
 20
98.48929251260521
 10
57.17892281332521
 20
98.48931270730231
 10
57.17873430563901
 20
98.489334171721
 10
57.17854933593182
 20
98.4893569191135
 10
57.17836794166761
 20
98.48938096273229
 10
57.17819016031011
 20
98.48940631582969
 10
57.17801602932333
 20
98.48943299165831
 10
57.17784558617111
 20
98.48946100347028
 10
57.17767886831722
 20
98.48949036451813
 10
57.17751591322571
 20
98.48952108805432
 10
57.17735675836031
 20
98.48955318733112
 10
57.17720144118501
 20
98.4895866756009
 10
57.1770499991636
 20
98.4896215661163
 10
57.17690246976001
 20
98.48965787212939
 10
57.1767588904381
 20
98.4896956068929
 10
57.17661929866171
 20
98.489734783659
 10
57.17648373189479
 20
98.48977541568013
 10
57.17635222760122
 20
98.4898175162087
 10
57.17622482324472
 20
98.48986109849713
 10
57.1761015562893
 20
98.48990617579779
 10
57.17598246419881
 20
98.48995276136308
 10
57.17586758443712
 20
98.49000086844542
 10
57.17575695446811
 20
98.4900505102972
 10
57.17565061175569
 20
98.4901017001709
 10
57.17554859376372
 20
98.4901544513187
 10
57.175450937956
 20
98.4902087769932
 10
57.17535768179652
 20
98.49026469044673
 10
57.17526886274902
 20
98.4903222049316
 10
57.1752051828551
 20
98.49036639944428
 10
57.1751440357152
 20
98.4904115075826
 10
57.1750854371344
 20
98.49045753493721
 10
57.17502940291772
 20
98.49050448709901
 10
57.1749759488704
 20
98.49055236965881
 10
57.17492509079732
 20
98.49060118820759
 10
57.17487684450372
 20
98.49065094833619
 10
57.17483122579452
 20
98.49070165563542
 10
57.1747882504749
 20
98.4907533156962
 10
57.17474793434991
 20
98.49080593410921
 10
57.17471029322461
 20
98.4908595164655
 10
57.17467534290399
 20
98.49091406835579
 10
57.17464309919328
 20
98.49096959537099
 10
57.17461357789751
 20
98.491026103102
 10
57.17458679482171
 20
98.49108359713973
 10
57.17456276577092
 20
98.49114208307481
 10
57.17454150655022
 20
98.49120156649821
 10
57.17452303296481
 20
98.49126205300088
 10
57.17450736081961
 20
98.4913235481736
 10
57.17449450591971
 20
98.4913860576071
 10
57.17448448407029
 20
98.49144958689251
 10
57.1744773110764
 20
98.49151414162044
 10
57.17447300274301
 20
98.4915797273819
 10
57.17447157487518
 20
98.49164634976759
 10
57.1744730432782
 20
98.4917140143685
 10
57.17447742375689
 20
98.49178272677541
 10
57.17448473211651
 20
98.49185249257928
 10
57.174494984162
 20
98.49192331737093
 10
57.17450819569851
 20
98.49199520674101
 10
57.17452438253102
 20
98.4920681662807
 10
57.17454356046481
 20
98.4921422015806
 10
57.17456574530469
 20
98.4922173182317
 10
57.1745909528559
 20
98.49229352182481
 10
57.17461919892341
 20
98.49237081795081
 10
57.17465049931242
 20
98.49244921220059
 10
57.17468486982792
 20
98.4925287101649
 10
57.174722326275
 20
98.4926093174346
 10
57.17476288445872
 20
98.4926910396007
 10
57.17480656018421
 20
98.49277388225392
 10
57.17485336925641
 20
98.49285785098508
 10
57.17490332748051
 20
98.49294295138522
 10
57.17495645066161
 20
98.49302918904498
 10
57.17501275460461
 20
98.4931165695553
 10
57.17507225511479
 20
98.49320509850713
 10
57.1751349679971
 20
98.49329478149121
 10
57.17520090905662
 20
98.4933856240984
 10
57.17527009409841
 20
98.49347763191959
 10
57.17534253892761
 20
98.4935708105457
 10
57.17541825934929
 20
98.49366516556742
 10
57.17549727116839
 20
98.4937607025758
 10
57.17557959019021
 20
98.49385742716151
 10
57.17566523221972
 20
98.4939553449155
 10
57.17575421306182
 20
98.4940544614286
 10
57.17584654852181
 20
98.4941547822917
 10
57.17594225440462
 20
98.49425631309571
 10
57.17604134651551
 20
98.49435905943131
 10
57.17614384065932
 20
98.49446302688953
 10
57.17624975264119
 20
98.49456822106112
 10
57.17635909826642
 20
98.49467464753693
 10
57.17647189333971
 20
98.4947823119079
 10
57.17658815366641
 20
98.49489121976482
 10
57.17670789505151
 20
98.4950013766986
 10
57.17682369321822
 20
98.49510611577793
  0
LWPOLYLINE
  5
9F6
330
1E
100
AcDbEntity
  8
1
100
AcDbPolyline
 90
       71
 70
     0
 43
0.0
 10
47.45608664149999
 20
96.0270571298
 10
47.38194634548889
 20
96.0575757366074
 10
47.3128547955055
 20
96.08708087840852
 10
47.24717668423521
 20
96.11610672257281
 10
47.18476444381301
 20
96.14459128506441
 10
47.12549416540631
 20
96.17246793522348
 10
47.0678597473251
 20
96.20035466153828
 10
47.01318749667771
 20
96.2275223533941
 10
46.96000834517461
 20
96.2546161929211
 10
46.908269266573
 20
96.28160720348541
 10
46.8579246716526
 20
96.30846459866173
 10
46.8089359248876
 20
96.33515598802
 10
46.76127087418261
 20
96.36164757735059
 10
46.71490339366989
 20
96.38790436332701
 10
46.66981293957152
 20
96.41389032260761
 10
46.62884661420781
 20
96.437910236365
 10
46.59642543116031
 20
96.4573538652689
 10
46.56980634385731
 20
96.4737385843626
 10
46.54618965175742
 20
96.48868436895641
 10
46.52419200872789
 20
96.503026716518
 10
46.50381792378628
 20
96.5167392145485
 10
46.4863882897584
 20
96.52884905183301
 10
46.47051212229821
 20
96.54022610934179
 10
46.45615725930169
 20
96.55083236713799
 10
46.44328634716829
 20
96.56062894063587
 10
46.4305987364659
 20
96.5705792657382
 10
46.41934689562378
 20
96.57967128592053
 10
46.40826268230632
 20
96.58889765794711
 10
46.39735516915999
 20
96.59826303010241
 10
46.3878152772521
 20
96.6067082545528
 10
46.37842854081521
 20
96.61527024362259
 10
46.3692013318588
 20
96.62395226195052
 10
46.36126339565449
 20
96.63165005592793
 10
46.35345674499641
 20
96.63944443384778
 10
46.34578564863311
 20
96.64733758276328
 10
46.33825437531339
 20
96.65533168972713
 10
46.33086719378598
 20
96.66342894179209
 10
46.32362837279972
 20
96.6716315260113
 10
46.31654218110321
 20
96.67994162943749
 10
46.3105930187477
 20
96.68715180956741
 10
46.30476181661199
 20
96.69444396748421
 10
46.29905126288799
 20
96.7018194804573
 10
46.29346404576709
 20
96.70927972575633
 10
46.28800285344111
 20
96.71682608065053
 10
46.28267037410161
 20
96.72445992240939
 10
46.2774692959402
 20
96.73218262830239
 10
46.27240230714838
 20
96.73999557559909
 10
46.26747209591798
 20
96.74790014156879
 10
46.26268135044059
 20
96.75589770348102
 10
46.25879753827931
 20
96.7626343706069
 10
46.25501399980151
 20
96.76943737171653
 10
46.25133229067381
 20
96.7763075038407
 10
46.24775396656239
 20
96.7832455640103
 10
46.2442805831339
 20
96.79025234925653
 10
46.24091368715022
 20
96.7973286168775
 10
46.2376544217169
 20
96.8044733230414
 10
46.2345033696577
 20
96.81168292391511
 10
46.23146107250689
 20
96.81895369143113
 10
46.22852807179881
 20
96.82628189752172
 10
46.22570490906791
 20
96.83366381411943
 10
46.22299212584841
 20
96.84109571315659
 10
46.22039026367469
 20
96.84857386656581
 10
46.2178998640811
 20
96.85609454627929
 10
46.21552146860198
 20
96.86365402422961
 10
46.21325561877172
 20
96.8712485723492
 10
46.2111028561246
 20
96.8788744625705
 10
46.2090637221951
 20
96.88652796682587
 10
46.2071387585173
 20
96.89420535704782
 10
46.20532850662581
 20
96.90190290516873
 10
46.20363350805488
 20
96.909616883121
 10
46.20236281480129
 20
96.91578758351059
  0
LWPOLYLINE
  5
A3F
330
1E
100
AcDbEntity
  8
1
100
AcDbPolyline
 90
       68
 70
     0
 43
0.0
 10
61.07765482419999
 20
-98.07845206420005
 10
61.09423669421627
 20
-98.06316095664193
 10
61.1115624446084
 20
-98.04671034523153
 10
61.12864578703849
 20
-98.02999669382591
 10
61.14548237169929
 20
-98.01302450203429
 10
61.16206784878368
 20
-97.99579826946592
 10
61.17839786848428
 20
-97.97832249572971
 10
61.1944680809939
 20
-97.96060168043522
 10
61.21027413650548
 20
-97.94264032319132
 10
61.22495560618489
 20
-97.92546000620873
 10
61.23939391005428
 20
-97.90807293585281
 10
61.25358538374399
 20
-97.89048290268922
 10
61.26752636288479
 20
-97.87269369728392
 10
61.28041517721097
 20
-97.85577236768382
 10
61.29307582904917
 20
-97.83868112748933
 10
61.30550589441048
 20
-97.82142315476992
 10
61.31770350676789
 20
-97.80400164336432
 10
61.32966682066638
 20
-97.78641978770764
 10
61.34139399065109
 20
-97.76868078223451
 10
61.35288317126688
 20
-97.75078782137994
 10
61.36413251705906
 20
-97.73274409957874
 10
61.37514018257249
 20
-97.71455281126579
 10
61.38523873307647
 20
-97.69736729885952
 10
61.39512172668318
 20
-97.68005752906583
 10
61.40478764278435
 20
-97.66262613401792
 10
61.41423496077209
 20
-97.64507574584902
 10
61.42346216003828
 20
-97.62740899669232
 10
61.43246771997489
 20
-97.60962851868114
 10
61.44125011997378
 20
-97.59173694394874
 10
61.44980783942719
 20
-97.57373690462813
 10
61.45813937185859
 20
-97.55563103852594
 10
61.46624346517446
 20
-97.53742208557
 10
61.47411908768258
 20
-97.51911287416808
 10
61.48126263355198
 20
-97.50193631918831
 10
61.48820543072009
 20
-97.48467719634994
 10
61.49494664631138
 20
-97.46733780763294
 10
61.50148544745029
 20
-97.44992045501751
 10
61.50782100126137
 20
-97.43242744048394
 10
61.51395247486918
 20
-97.41486106601243
 10
61.51987903539818
 20
-97.39722363358307
 10
61.52559984997278
 20
-97.37951744517623
 10
61.53111408571759
 20
-97.36174480277206
 10
61.53642090975708
 20
-97.34390800835059
 10
61.54151948921569
 20
-97.32600936389223
 10
61.54640899121808
 20
-97.30805117137714
 10
61.55108858288858
 20
-97.29003573278545
 10
61.55555743135177
 20
-97.27196535009746
 10
61.55981470373209
 20
-97.25384232529323
 10
61.56385957307787
 20
-97.23566896739562
 10
61.56769144875918
 20
-97.21744786637943
 10
61.57131005067338
 20
-97.19918198139151
 10
61.57471511983047
 20
-97.1808742966786
 10
61.57790639724069
 20
-97.16252779648742
 10
61.58088362391408
 20
-97.14414546506482
 10
61.58364654086089
 20
-97.12573028665756
 10
61.58619488909109
 20
-97.10728524551221
 10
61.58852840961499
 20
-97.08881332587573
 10
61.59064684344247
 20
-97.0703175119948
 10
61.59254993158389
 20
-97.05180078811622
 10
61.5942374150492
 20
-97.0332661384868
 10
61.59570903484858
 20
-97.01471654735314
 10
61.59696453199217
 20
-96.99615499896211
 10
61.59800364749009
 20
-96.97758447756054
 10
61.5987745641804
 20
-96.96033499596342
 10
61.5993584762262
 20
-96.94308273994025
 10
61.59975517626559
 20
-96.925830098846
 10
61.59996445693698
 20
-96.90857946203562
 10
61.59999999996838
 20
-96.89797571710101
  0
LWPOLYLINE
  5
A85
330
1E
100
AcDbEntity
  8
1
100
AcDbPolyline
 90
       63
 70
     0
 43
0.0
 10
60.0
 20
-98.49897263370005
 10
60.01771148339939
 20
-98.4988389227751
 10
60.03542726856668
 20
-98.4985066694486
 10
60.05314474725659
 20
-98.49797619761343
 10
60.07086131122399
 20
-98.49724783116222
 10
60.0885743522236
 20
-98.49632189398754
 10
60.10628126201017
 20
-98.49519870998221
 10
60.12397943233846
 20
-98.49387860303892
 10
60.14166625496351
 20
-98.49236189705024
 10
60.15933912163967
 20
-98.49064891590902
 10
60.17699542412207
 20
-98.4887399835078
 10
60.19463255416539
 20
-98.48663542373943
 10
60.21224790352428
 20
-98.48433556049652
 10
60.22983886395369
 20
-98.48184071767171
 10
60.24740282720828
 20
-98.47915121915779
 10
60.26493718504289
 20
-98.47626738884741
 10
60.28243932921228
 20
-98.47318955063322
 10
60.29990665147129
 20
-98.46991802840799
 10
60.31733654357458
 20
-98.4664531460644
 10
60.33472639727698
 20
-98.46279522749521
 10
60.35207360433329
 20
-98.45894459659294
 10
60.36937555649818
 20
-98.45490157725031
 10
60.38662964552658
 20
-98.45066649336018
 10
60.40383327061427
 20
-98.44623967316094
 10
60.42098414255438
 20
-98.44162162687553
 10
60.43808039033049
 20
-98.43681310896551
 10
60.45625410494348
 20
-98.43147495050795
 10
60.47436133886339
 20
-98.42592189200708
 10
60.49239985697628
 20
-98.42015486989581
 10
60.5103674241683
 20
-98.41417482060681
 10
60.52826180532559
 20
-98.40798268057312
 10
60.54608076533439
 20
-98.40157938622724
 10
60.56382206908079
 20
-98.39496587400223
 10
60.58148348145098
 20
-98.38814308033079
 10
60.59906276733109
 20
-98.38111194164572
 10
60.61655769160728
 20
-98.37387339437993
 10
60.63396601916577
 20
-98.36642837496611
 10
60.65128551489267
 20
-98.35877781983715
 10
60.66851394367407
 20
-98.35092266542581
 10
60.68564907039629
 20
-98.34286384816493
 10
60.70268865994538
 20
-98.3346023044873
 10
60.72068604341958
 20
-98.32560333378999
 10
60.73857037021197
 20
-98.31637768433509
 10
60.75633895938628
 20
-98.30692647933894
 10
60.77398912301468
 20
-98.29725086588863
 10
60.79151801444789
 20
-98.28735253296482
 10
60.80892262946719
 20
-98.27723370750844
 10
60.82619995709251
 20
-98.26689663954461
 10
60.84334698634359
 20
-98.25634357909859
 10
60.86135729744068
 20
-98.24493682659582
 10
60.87921458025387
 20
-98.23329311677412
 10
60.89691526058487
 20
-98.22141512053642
 10
60.9144557642355
 20
-98.20930550878593
 10
60.93183251700757
 20
-98.19696695242541
 10
60.949993046076
 20
-98.18369749533392
 10
60.96796293835168
 20
-98.1701790658788
 10
60.98573799022958
 20
-98.15641480530231
 10
61.00331399810428
 20
-98.14240785484642
 10
61.02068675837069
 20
-98.12816135575324
 10
61.03874967849939
 20
-98.11290970188373
 10
61.05657783290928
 20
-98.09739976455192
 10
61.07416631872228
 20
-98.08163520754794
 10
61.0776474472086
 20
-98.07845881549759
  0
LWPOLYLINE
  5
AC6
330
1E
100
AcDbEntity
  8
1
100
AcDbPolyline
 90
       72
 70
     0
 43
0.0
 10
61.60000000000001
 20
86.04681458420001
 10
61.599857155638
 20
86.06586995519794
 10
61.5994335070372
 20
86.08492322429944
 10
61.5987363809253
 20
86.1039718876071
 10
61.59777310402989
 20
86.12301344122368
 10
61.59655100307862
 20
86.14204538125219
 10
61.59507740479921
 20
86.16106520379542
 10
61.59335963591921
 20
86.18007040495617
 10
61.5914050231665
 20
86.1990584808373
 10
61.58883507190591
 20
86.22118625111969
 10
61.585964356881
 20
86.24328332781557
 10
61.5828045126639
 20
86.2653457348289
 10
61.57936717382689
 20
86.28736949606368
 10
61.5756639749421
 20
86.30935063542407
 10
61.57112112954511
 20
86.33441464696845
 10
61.5662636003077
 20
86.35941186149208
 10
61.56110660285011
 20
86.38433766669628
 10
61.5549577681611
 20
86.41229314001988
 10
61.5484515007504
 20
86.4401577230152
 10
61.54159839717781
 20
86.46793165391638
 10
61.53440905400361
 20
86.49561517095767
 10
61.5260394281957
 20
86.52626888314911
 10
61.5172823096891
 20
86.55681159420328
 10
61.50815223423141
 20
86.58724363091613
 10
61.49769573436439
 20
86.62059143246668
 10
61.48682489192161
 20
86.65380614845252
 10
61.47555898856349
 20
86.68688820926449
 10
61.4628365602755
 20
86.72282663251172
 10
61.44967579868779
 20
86.75860712635738
 10
61.43608935890512
 20
86.79422938411819
 10
61.42090502741528
 20
86.83264124263528
 10
61.40525205729002
 20
86.87086664367681
 10
61.38788936907172
 20
86.91182348948741
 10
61.37002192721471
 20
86.9525631495402
 10
61.35034094867201
 20
86.99597122231519
 10
61.33012630328151
 20
87.03912895836756
 10
61.30939286005482
 20
87.08203645079377
 10
61.28671996806572
 20
87.12752887404697
 10
61.26348729255472
 20
87.17273710870831
 10
61.23820682213359
 20
87.22045977943789
 10
61.21233105337331
 20
87.26786226847087
 10
61.18430529479208
 20
87.3177045162444
 10
61.15565291008522
 20
87.36718784270356
 10
61.12638701151809
 20
87.41631023718651
 10
61.09484310785322
 20
87.4677676007011
 10
61.06264353773241
 20
87.51881766138209
 10
61.02805667034489
 20
87.57211163587347
 10
60.99277586584341
 20
87.62494827311057
 10
60.9568148694287
 20
87.6773232643888
 10
60.91833308140441
 20
87.7318130887984
 10
60.87912001937361
 20
87.78577909701208
 10
60.83918492567089
 20
87.83921355718367
 10
60.79853704263101
 20
87.8921087374668
 10
60.75718497442149
 20
87.94445628491207
 10
60.71311300826581
 20
87.9986953862827
 10
60.66827545651229
 20
88.05230293469739
 10
60.622674977881
 20
88.10526228555778
 10
60.57631423109221
 20
88.15755679426571
 10
60.5291956920557
 20
88.2091696030656
 10
60.48131758098342
 20
88.26007889205097
 10
60.43490161149261
 20
88.30799321049161
 10
60.38778258919162
 20
88.35521856531071
 10
60.33995507596531
 20
88.40173144291156
 10
60.29374140006821
 20
88.44534551407511
 10
60.2468752403452
 20
88.4882693986597
 10
60.20174234718741
 20
88.52837534144741
 10
60.158431270751
 20
88.56573479153068
 10
60.11702729564552
 20
88.60042382767067
 10
60.077612215156
 20
88.63252180208688
 10
60.0377605312029
 20
88.66406484653861
 10
60.0
 20
88.69311409589998
 10
60.0000079671769
 20
88.69310805238319
  0
LWPOLYLINE
  5
B10
330
1E
100
AcDbEntity
  8
1
100
AcDbPolyline
 90
       38
 70
     0
 43
0.0
 10
58.0565861121
 20
-7.332031244599996
 10
57.9456795007697
 20
-7.348499362812856
 10
57.83850927942769
 20
-7.365574830776057
 10
57.73151136278089
 20
-7.383775517978334
 10
57.6247017232683
 20
-7.403106671226415
 10
57.5180963333285
 20
-7.423573537326986
 10
57.4117111654004
 20
-7.445181363086737
 10
57.3055621919228
 20
-7.467935395312384
 10
57.1996653853344
 20
-7.491840880810606
 10
57.09403671807399
 20
-7.516903066388135
 10
56.9921989044915
 20
-7.542234292440046
 10
56.8906413057714
 20
-7.568656789677776
 10
56.7893791987204
 20
-7.596177437064737
 10
56.6884279206406
 20
-7.624803266025357
 10
56.5878028088346
 20
-7.654541307984056
 10
56.4875192006046
 20
-7.685398594365266
 10
56.39103207629791
 20
-7.716260449504694
 10
56.29489141222628
 20
-7.748178574334766
 10
56.1991110131566
 20
-7.781159297685227
 10
56.103704683856
 20
-7.815208948385846
 10
56.0086870159494
 20
-7.850334527142455
 10
55.9174482915461
 20
-7.885234317396487
 10
55.8266060149063
 20
-7.921154515926168
 10
55.73617796763709
 20
-7.958105411491936
 10
55.6461819313459
 20
-7.996097292854237
 10
55.55994398671099
 20
-8.033675538901025
 10
55.47413901183639
 20
-8.072237816775656
 10
55.38878288486699
 20
-8.111793313860797
 10
55.30389148395761
 20
-8.152351217544527
 10
55.2227205509711
 20
-8.192304362284856
 10
55.1420218659414
 20
-8.233208446078727
 10
55.061823109491
 20
-8.275079011921917
 10
54.98532833080999
 20
-8.316198449322497
 10
54.9093442868128
 20
-8.358236672452596
 10
54.8338954675426
 20
-8.401207432760157
 10
54.76211524835999
 20
-8.443275532517855
 10
54.6908706273458
 20
-8.486224809521996
 10
54.6600757221984
 20
-8.505171055768155
  0
LWPOLYLINE
  5
B38
330
1E
100
AcDbEntity
  8
1
100
AcDbPolyline
 90
       12
 70
     0
 43
0.0
 10
58.06450963279999
 20
98.227344987
 10
58.0439157595621
 20
98.24176648915262
 10
58.02419159488541
 20
98.25521291488341
 10
58.00500910485062
 20
98.26794591175094
 10
57.98638684698389
 20
98.2799818543412
 10
57.96834254299373
 20
98.29133818954193
 10
57.95071067837652
 20
98.30214356183487
 10
57.93350361635771
 20
98.31241055380258
 10
57.91673324709902
 20
98.3221523841588
 10
57.9004109962466
 20
98.33138281112519
 10
57.88436064008511
 20
98.34021769628401
 10
57.88399500367301
 20
98.34041616522521
  0
LWPOLYLINE
  5
B46
330
1E
100
AcDbEntity
  8
1
100
AcDbPolyline
 90
       22
 70
     0
 43
0.0
 10
57.8839862143
 20
98.34042093459999
 10
57.86775023433971
 20
98.34910816513479
 10
57.85196584676141
 20
98.35731833956041
 10
57.83636457119641
 20
98.3652052775665
 10
57.82095207639211
 20
98.37277428521959
 10
57.80601645712311
 20
98.37989816373969
 10
57.79128350383451
 20
98.3867219877146
 10
57.77675828827949
 20
98.39325185956207
 10
57.76244573183412
 20
98.39949408769459
 10
57.74835061253313
 20
98.405455168892
 10
57.73418829164342
 20
98.41125874471993
 10
57.72025151464799
 20
98.41678874667699
 10
57.70654587726279
 20
98.42205251035109
 10
57.69278328165482
 20
98.4271646284586
 10
57.67925990854461
 20
98.4320190324758
 10
57.6659806827658
 20
98.43662334517469
 10
57.65265359533739
 20
98.44108274934081
 10
57.63957774940442
 20
98.44530109689031
 10
57.62645882886372
 20
98.4493772703572
 10
57.61359772040351
 20
98.45322171673421
 10
57.60069797833161
 20
98.45692698500281
 10
57.59559733461852
 20
98.45835043311772
  0
LWPOLYLINE
  5
B5E
330
1E
100
AcDbEntity
  8
1
100
AcDbPolyline
 90
       15
 70
     0
 43
0.0
 10
57.59558769689999
 20
98.45835310040001
 10
57.583097037548
 20
98.46173883336399
 10
57.57072159345749
 20
98.4649532003446
 10
57.55846479721959
 20
98.4679992315606
 10
57.54632991479741
 20
98.4708800317502
 10
57.53432005019432
 20
98.47359877593021
 10
57.5224381500641
 20
98.47615870520748
 10
57.5106870082611
 20
98.47856312264559
 10
57.49906927033173
 20
98.48081538918441
 10
57.4874300143221
 20
98.4829469127785
 10
57.47592851894292
 20
98.4849299107935
 10
57.46456708251352
 20
98.4867679059004
 10
57.45334786903962
 20
98.48846446593299
 10
57.4422729124686
 20
98.49002320002192
 10
57.43911623331801
 20
98.4904462882687
  0
LWPOLYLINE
  5
B6F
330
1E
100
AcDbEntity
  8
1
100
AcDbPolyline
 90
        2
 70
     0
 43
0.0
 10
57.43910632000002
 20
98.49044760209991
 10
57.361402305221
 20
98.4913038949945
  0
LWPOLYLINE
  5
B73
330
1E
100
AcDbEntity
  8
1
100
AcDbPolyline
 90
        2
 70
     0
 43
0.0
 10
58.94015440659998
 20
-98.50000000000013
 10
59.99999000001878
 20
-98.49897265308712
  0
LWPOLYLINE
  5
B77
330
1E
100
AcDbEntity
  8
1
100
AcDbPolyline
 90
        5
 70
     0
 43
0.0
 10
61.6
 20
-34.6187874017
 10
59.46520828039918
 20
-31.2580307389443
 10
57.296473969674
 20
-27.75269596964621
 10
55.1046486866951
 20
-24.1151107453383
 10
53.4491802777876
 20
-21.30297952452639
  0
LWPOLYLINE
  5
B7E
330
1E
100
AcDbEntity
  8
1
100
AcDbPolyline
 90
       24
 70
     0
 43
0.0
 10
60.0
 20
88.69311409589998
 10
59.2535143490512
 20
89.25184615094272
 10
58.53515612129362
 20
89.77528326326638
 10
57.83391770537821
 20
90.2727089451101
 10
57.16243235448722
 20
90.73644772549767
 10
56.50943801189431
 20
91.1755769592934
 10
55.87549291116631
 20
91.59070316851419
 10
55.24880601928161
 20
91.99021391699622
 10
54.64205181549502
 20
92.3666632080932
 10
54.05574752191039
 20
92.72067580506201
 10
53.47778941238001
 20
93.06021098339419
 10
52.92110571395181
 20
93.378339960149
 10
52.37340287042081
 20
93.6827653267016
 10
51.83490629527423
 20
93.97375115952291
 10
51.3058403439464
 20
94.2515753007415
 10
50.79947358649511
 20
94.50995029386049
 10
50.30319686920632
 20
94.7559755029165
 10
49.81725672892971
 20
94.98991725262667
 10
49.34189044470901
 20
95.212058512106
 10
48.87732625938228
 20
95.4226970026319
 10
48.4237835951917
 20
95.6221433565499
 10
47.98147326340489
 20
95.81071932732179
 10
47.53710171781871
 20
95.99424191300713
 10
47.456095832292
 20
96.02705341205194
  0
LWPOLYLINE
  5
B98
330
1E
100
AcDbEntity
  8
1
100
AcDbPolyline
 90
       70
 70
     0
 43
0.0
 10
46.20236085550001
 20
96.91579738969998
 10
46.19905153664912
 20
96.9342606842934
 10
46.19645230822682
 20
96.95301294419209
 10
46.19459239832891
 20
96.9719739007526
 10
46.1935010350511
 20
96.9910632853314
 10
46.19320744648949
 20
97.01020082928501
 10
46.1937408607396
 20
97.0293062639698
 10
46.19513050589751
 20
97.04829932074233
 10
46.197405610059
 20
97.06709973095913
 10
46.20059540131989
 20
97.08562722597648
 10
46.20472910777588
 20
97.10380153715099
 10
46.209835957523
 20
97.1215423958392
 10
46.21594460794599
 20
97.1387702905727
 10
46.22305528389239
 20
97.15544343197041
 10
46.23112719080281
 20
97.171574452022
 10
46.2401163395449
 20
97.18718022102899
 10
46.24997874098671
 20
97.20227760929262
 10
46.26067040599568
 20
97.21688348711444
 10
46.27214734543971
 20
97.23101472479559
 10
46.28436557018662
 20
97.24468819263769
 10
46.297281091104
 20
97.2579207609421
 10
46.31084991905971
 20
97.27072930001021
 10
46.3250280649215
 20
97.28313068014342
 10
46.33977153955711
 20
97.29514177164311
 10
46.35503635383421
 20
97.3067794448106
 10
46.37077851862072
 20
97.31806056994749
 10
46.38695404478418
 20
97.32900201735501
 10
46.4119336603847
 20
97.34481419650819
 10
46.4376409002148
 20
97.35995699621588
 10
46.46392730095301
 20
97.3744873537452
 10
46.490644399278
 20
97.38846220636341
 10
46.5176437318686
 20
97.4019384913377
 10
46.55382526979759
 20
97.4192297317267
 10
46.58992440627081
 20
97.43586106776049
 10
46.62585277080451
 20
97.45188642753701
 10
46.6616249707384
 20
97.46732807543828
 10
46.69725607942702
 20
97.48220813255571
 10
46.73276117022471
 20
97.49654871998052
 10
46.76815531648609
 20
97.51037195880421
 10
46.81226494687201
 20
97.52695718596328
 10
46.8562542186817
 20
97.54281182539493
 10
46.90015257206069
 20
97.55797908235528
 10
46.9439894471544
 20
97.57250216210122
 10
46.9965539976551
 20
97.5891403768743
 10
47.0491232858059
 20
97.60498785071121
 10
47.10174818417811
 20
97.6201192422952
 10
47.16328205343532
 20
97.6369670865915
 10
47.23388757607691
 20
97.65530480900759
 10
47.32273828652011
 20
97.67710648053601
 10
47.42132496139221
 20
97.69987018866119
 10
47.5207184274459
 20
97.7214331895389
 10
47.62995285040421
 20
97.74366662472241
 10
47.74909495318929
 20
97.7663332141863
 10
47.8781572998292
 20
97.78921723772931
 10
48.01708396286561
 20
97.81213445493293
 10
48.17503497769571
 20
97.8363168248601
 10
48.35177081132081
 20
97.861388686295
 10
48.55618485140322
 20
97.88822401142631
 10
48.77887426194329
 20
97.91507218090151
 10
49.01989271932682
 20
97.94156886043531
 10
49.29788811276671
 20
97.96918224053682
 10
49.6316499886706
 20
97.99875999703459
 10
50.04028656799803
 20
98.03065361170752
 10
50.50553340554801
 20
98.0620340639428
 10
51.04592862270661
 20
98.09284622358049
 10
51.72634967457081
 20
98.12466585578279
 10
52.52790174795102
 20
98.15396541212649
 10
53.53472372669402
 20
98.1804929907553
 10
54.72842653506081
 20
98.19992141923581
 10
55.1481124616334
 20
98.2040093612373
  0
LWPOLYLINE
  5
BE0
330
1E
100
AcDbEntity
  8
1
100
AcDbPolyline
 90
      145
 70
     0
 43
0.0
 10
47.45608642439999
 20
-21.93294969520001
 10
47.381045170431
 20
-21.797892454625
 10
47.30803538527989
 20
-21.66165471493469
 10
47.2458388876534
 20
-21.5415065707731
 10
47.1852353965959
 20
-21.4205062053423
 10
47.12624248829309
 20
-21.29867769787979
 10
47.0688777389309
 20
-21.17604512762298
 10
47.0131587246951
 20
-21.0526325738094
 10
46.9591030217713
 20
-20.92846411567641
 10
46.9067282063453
 20
-20.8035638324616
 10
46.8560518546031
 20
-20.67795580340229
 10
46.8070915427302
 20
-20.5516641077361
 10
46.7598648469126
 20
-20.42471282470041
 10
46.71438934333589
 20
-20.29712603353269
 10
46.6706826081859
 20
-20.16892781347041
 10
46.6287615721939
 20
-20.04014226847989
 10
46.5886385106662
 20
-19.9107936808882
 10
46.550323656458
 20
-19.78090641127351
 10
46.5138272336988
 20
-19.6505048205484
 10
46.47915946651809
 20
-19.51961326962528
 10
46.4463305790454
 20
-19.3882561194168
 10
46.41535079541029
 20
-19.2564577308354
 10
46.3862303397421
 20
-19.1242424647936
 10
46.3589794361705
 20
-18.99163468220401
 10
46.333608308825
 20
-18.85865874397889
 10
46.313365526737
 20
-18.7444048125231
 10
46.2945177548577
 20
-18.62991363817211
 10
46.27707143170598
 20
-18.51520056190869
 10
46.26103299580067
 20
-18.40028092471571
 10
46.24640888566069
 20
-18.28517006757589
 10
46.23320530753409
 20
-18.16988349128839
 10
46.22142598467628
 20
-18.054438405098
 10
46.21107313583929
 20
-17.9388530534373
 10
46.20214895873528
 20
-17.82314569521548
 10
46.1946556510762
 20
-17.7073345893421
 10
46.18859541057399
 20
-17.5914379947264
 10
46.18397043494059
 20
-17.4754741702777
 10
46.1807829218882
 20
-17.3594613749053
 10
46.1790350691286
 20
-17.2434178675186
 10
46.17872907437389
 20
-17.12736190702679
 10
46.1798671353361
 20
-17.0113117523394
 10
46.1824514497271
 20
-16.89528566236569
 10
46.1864842152591
 20
-16.77930189601499
 10
46.19196762964379
 20
-16.66337871219661
 10
46.19890389059339
 20
-16.5475343698199
 10
46.2072951958199
 20
-16.4317871277942
 10
46.21714370693927
 20
-16.3161552439161
 10
46.2284495292275
 20
-16.20065691259259
 10
46.2412096420053
 20
-16.08531023186858
 10
46.2554207627413
 20
-15.9701332917169
 10
46.2710796089042
 20
-15.8551441821105
 10
46.2881828979628
 20
-15.7403609930222
 10
46.30672734738547
 20
-15.62580181442497
 10
46.3267096746412
 20
-15.5114847362918
 10
46.3481265971984
 20
-15.3974278485954
 10
46.3709748325259
 20
-15.2836492413088
 10
46.3952510980922
 20
-15.17016700440477
 10
46.42095211136608
 20
-15.05699922785639
 10
46.44807458981619
 20
-14.9441640016364
 10
46.47661525091121
 20
-14.8316794157178
 10
46.5065708121197
 20
-14.7195635600734
 10
46.53793799091038
 20
-14.60783452467619
 10
46.5707134838921
 20
-14.49651039241141
 10
46.6048922904797
 20
-14.3856086695031
 10
46.6404664850688
 20
-14.2751458683315
 10
46.6837223677076
 20
-14.1468492466372
 10
46.72885330159338
 20
-14.0191984523736
 10
46.77584624149067
 20
-13.892219550406
 10
46.824688142164
 20
-13.7659386055993
 10
46.87536595837769
 20
-13.6403816828185
 10
46.9278666448963
 20
-13.51557484692881
 10
46.9821771564841
 20
-13.3915441627953
 10
47.03828444790559
 20
-13.26831569528289
 10
47.0961754739252
 20
-13.1459155092567
 10
47.15583718930739
 20
-13.02436966958181
 10
47.21725654881661
 20
-12.90370424112319
 10
47.28042050721721
 20
-12.78394528874599
 10
47.34531518232587
 20
-12.66511811524799
 10
47.41192287054979
 20
-12.54724454391229
 10
47.4802247782522
 20
-12.4303454055031
 10
47.55020211171479
 20
-12.31444153071008
 10
47.6218360772192
 20
-12.1995537502228
 10
47.6951078810468
 20
-12.085702894731
 10
47.76999872947938
 20
-11.9729097949241
 10
47.84648982879839
 20
-11.86119528149188
 10
47.93584361034159
 20
-11.73486899144918
 10
48.0272349149968
 20
-11.6100097689221
 10
48.120635689167
 20
-11.486648708118
 10
48.216017879255
 20
-11.36481690324389
 10
48.3133534316636
 20
-11.24454544850729
 10
48.4126141398265
 20
-11.12586510434039
 10
48.5137696423592
 20
-11.0088019294142
 10
48.61678798508799
 20
-10.89337850697247
 10
48.7216371765044
 20
-10.77961733879529
 10
48.82828522509988
 20
-10.6675409266624
 10
48.9503746430645
 20
-10.54349679032489
 10
49.0746546999836
 20
-10.4216454408383
 10
49.1869280930549
 20
-10.31519988876659
 10
49.3008643793939
 20
-10.21053472530381
 10
49.416431567492
 20
-10.1076724522296
 10
49.5335976658406
 20
-10.0066355713239
 10
49.6523306829312
 20
-9.907446584366571
 10
49.77259854508759
 20
-9.810127705221825
 10
49.89436804655429
 20
-9.714697180942152
 10
50.01760515736929
 20
-9.621170370557043
 10
50.14227582892869
 20
-9.529562567774434
 10
50.26834601262859
 20
-9.439889066302264
 10
50.39578165986521
 20
-9.352165159848473
 10
50.5245487220345
 20
-9.266406142120985
 10
50.65461315053268
 20
-9.182627306827725
 10
50.78594089675579
 20
-9.100843947676647
 10
50.91849791210011
 20
-9.021071358375671
 10
51.0522501479615
 20
-8.943324832632747
 10
51.1871635557362
 20
-8.867619664155784
 10
51.3061385446495
 20
-8.803064215506326
 10
51.4259538823867
 20
-8.740093014617652
 10
51.54658790858029
 20
-8.678712822589535
 10
51.668019234824
 20
-8.618929576150963
 10
51.79022647273599
 20
-8.560749211955515
 10
51.91318823393469
 20
-8.504177666656767
 10
52.0368831300384
 20
-8.449220876908297
 10
52.1612897726656
 20
-8.395884779363697
 10
52.28638677343449
 20
-8.344175310676526
 10
52.41215274396349
 20
-8.294098407500374
 10
52.538566295871
 20
-8.245660006488817
 10
52.6656060407753
 20
-8.198866044295446
 10
52.7932505902948
 20
-8.153722457573817
 10
52.92147855604779
 20
-8.110235182977525
 10
53.0502685496528
 20
-8.068410157160146
 10
53.17959917953301
 20
-8.028253314725755
 10
53.3094478532434
 20
-7.989769819937784
 10
53.4397889798685
 20
-7.952962913582556
 10
53.57059650820501
 20
-7.917835541177965
 10
53.70184438704949
 20
-7.884390648241892
 10
53.83350656519859
 20
-7.852631180292254
 10
53.9655569914489
 20
-7.822560082846934
 10
54.097969614597
 20
-7.794180301423843
 10
54.2307183834397
 20
-7.767494781540855
 10
54.36377724677338
 20
-7.742506468715883
 10
54.4971201533949
 20
-7.719218308466817
 10
54.63072105210059
 20
-7.697633246311557
 10
54.7645538916873
 20
-7.677754227767995
 10
54.89859262095159
 20
-7.659584198354036
 10
55.0328111886901
 20
-7.643126103587555
 10
55.1479691195956
 20
-7.630385003623956
  0
LWPOLYLINE
  5
C73
330
1E
100
AcDbEntity
  8
1
100
AcDbPolyline
 90
       12
 70
     0
 43
0.0
 10
54.72228631490001
 20
-9.128673937700007
 10
55.3327485028256
 20
-8.786781025742147
 10
55.58681815356639
 20
-8.649030984600775
 10
55.8043431732329
 20
-8.534325450669577
 10
55.9983593979377
 20
-8.434843054211077
 10
56.1776345110745
 20
-8.345504064569947
 10
56.3465185177184
 20
-8.263736304978131
 10
56.5094320852918
 20
-8.187118496905551
 10
56.66627169537928
 20
-8.115502032064636
 10
56.8169370939079
 20
-8.048727851094126
 10
56.9636658594011
 20
-7.985640072655653
 10
56.98000250215439
 20
-7.978735963695736
  0
LWPOLYLINE
  5
C81
330
1E
100
AcDbEntity
  8
1
100
AcDbPolyline
 90
       79
 70
     0
 43
0.0
 10
61.6
 20
-44.5595747276
 10
61.59996348649979
 20
-44.56477672584038
 10
61.5998475066085
 20
-44.57011243115981
 10
61.59950340803769
 20
-44.57831254404739
 10
61.59914650366761
 20
-44.58387422533511
 10
61.59867632610549
 20
-44.5894829803183
 10
61.59808321626539
 20
-44.595114056602
 10
61.59735751506151
 20
-44.60074270179068
 10
61.5964895634076
 20
-44.6063441634893
 10
61.59546970221788
 20
-44.61189368930259
 10
61.59428827240638
 20
-44.61736652683529
 10
61.59293561488698
 20
-44.62273792369201
 10
61.59140207057389
 20
-44.62798312747771
 10
61.58967798038101
 20
-44.63307738579699
 10
61.58775368522249
 20
-44.6379959462546
 10
61.58561952601219
 20
-44.64271405645539
 10
61.58326584366428
 20
-44.6472069640041
 10
61.58068297909268
 20
-44.65144991650539
 10
61.57786127321159
 20
-44.65541816156417
 10
61.57479106693479
 20
-44.65908694678501
 10
61.5714627011766
 20
-44.6624315197728
 10
61.56786651685077
 20
-44.66542712813221
 10
61.56399479685251
 20
-44.6680514761321
 10
61.55985888391879
 20
-44.67030637931427
 10
61.55548093084759
 20
-44.67220732827139
 10
61.55088321421898
 20
-44.67376997018448
 10
61.54608801061288
 20
-44.6750099522347
 10
61.5411175966097
 20
-44.6759429216032
 10
61.53599424878922
 20
-44.67658452547111
 10
61.53074024373179
 20
-44.67695041101939
 10
61.52537785801738
 20
-44.67705622542941
 10
61.51992936822619
 20
-44.67691761588199
 10
61.51441705093829
 20
-44.67655022955849
 10
61.50886318273379
 20
-44.67596971364
 10
61.50329004019269
 20
-44.67519171530748
 10
61.49771989989528
 20
-44.67423188174221
 10
61.49217503842159
 20
-44.67310586012509
 10
61.48667773235178
 20
-44.6718292976375
 10
61.48125025826589
 20
-44.67041784146039
 10
61.4759134451453
 20
-44.66888646052498
 10
61.47067305126499
 20
-44.66724306261591
 10
61.46552588620679
 20
-44.66549136274589
 10
61.46046864163249
 20
-44.66363502067831
 10
61.4530441386891
 20
-44.66066230918871
 10
61.44580334743278
 20
-44.65747473892309
 10
61.43873510222249
 20
-44.6540846615825
 10
61.43182823741718
 20
-44.65050442886811
 10
61.42507158737569
 20
-44.64674639248101
 10
61.41845398645688
 20
-44.64282290412231
 10
61.41196426901958
 20
-44.63874631549309
 10
61.40559126942291
 20
-44.6345289782944
 10
61.39932382202548
 20
-44.63018324422741
 10
61.39111211916678
 20
-44.6242105522954
 10
61.3830417479291
 20
-44.61806083595028
 10
61.37311221110318
 20
-44.61016935330279
 10
61.36136089236309
 20
-44.60047536216031
 10
61.33613643962879
 20
-44.57905171407509
 10
61.30523649825398
 20
-44.55226590260472
 10
61.274568780997
 20
-44.5250198418949
 10
61.2461119585637
 20
-44.49904366316768
 10
61.2180186654081
 20
-44.47263425082041
 10
61.19219429491238
 20
-44.44758233459401
 10
61.16860310345939
 20
-44.42396582303151
 10
61.1435997544731
 20
-44.39817551432271
 10
61.11548416269918
 20
-44.3682935130367
 10
61.08436685187829
 20
-44.3342225734124
 10
61.0469488063077
 20
-44.29203816637129
 10
60.99507917773109
 20
-44.23184495727929
 10
60.93081790044099
 20
-44.15525869092451
 10
60.86435019237811
 20
-44.07383142771879
 10
60.79579027893679
 20
-43.98750262190879
 10
60.72368224458639
 20
-43.89419121857208
 10
60.64355629845231
 20
-43.78765433432248
 10
60.55118717158928
 20
-43.66147124419721
 10
60.44849918128921
 20
-43.51744693115949
 10
60.33884683891789
 20
-43.35951673877779
 10
60.22111006342299
 20
-43.18537202686629
 10
60.09846513754339
 20
-42.99909419652069
 10
60.00000537167179
 20
-42.84602939325799
  0
LWPOLYLINE
  5
CD2
330
1E
100
AcDbEntity
  8
1
100
AcDbPolyline
 90
       85
 70
     0
 43
0.0
 10
61.0776548242
 20
0.9074103508999575
 10
61.0978542151018
 20
0.9026508546703215
 10
61.1174048123585
 20
0.8978207073369697
 10
61.136309842866
 20
0.8929332869862767
 10
61.1551609541459
 20
0.8878400670760035
 10
61.17337004446739
 20
0.8827048152027783
 10
61.19094077307281
 20
0.8775421596393233
 10
61.2078769039245
 20
0.8723669879340713
 10
61.2247637557368
 20
0.8670063979213015
 10
61.24102042904321
 20
0.8616510619605913
 10
61.2572289873769
 20
0.8561157328574216
 10
61.2728121003272
 20
0.8506043456271804
 10
61.28834851850641
 20
0.8449191856872422
 10
61.3038351416289
 20
0.839057949082685
 10
61.3192629614688
 20
0.8330206534662114
 10
61.334621958372
 20
0.8268077139452662
 10
61.3499021126846
 20
0.8204195456272973
 10
61.3650934047526
 20
0.8138565636197533
 10
61.380185814922
 20
0.8071191830300794
 10
61.3951693235387
 20
0.8002078189657243
 10
61.4100339109489
 20
0.7931228865341346
 10
61.4247695574985
 20
0.7858648008427566
 10
61.4393662435335
 20
0.7784339769990379
 10
61.4538139493892
 20
0.7708308300027335
 10
61.46546811568359
 20
0.7644991298950755
 10
61.4743944702441
 20
0.7594941702253305
 10
61.4822090436598
 20
0.7549754117474036
 10
61.4889322092896
 20
0.7509678584341626
 10
61.49509543722849
 20
0.7471834608073828
 10
61.50070747186649
 20
0.7436351529503206
 10
61.5057769625093
 20
0.7403379136691406
 10
61.5108145998759
 20
0.7369674730951605
 10
61.5153204109984
 20
0.7338674091594566
 10
61.5197988792553
 20
0.7307004543509316
 10
61.5237561950521
 20
0.7278263186539407
 10
61.5276908166924
 20
0.7248939596069416
 10
61.531602231274
 20
0.7219008495382424
 10
61.53548992589478
 20
0.7188444607761486
 10
61.5388717976984
 20
0.7161162252204854
 10
61.54223477261189
 20
0.7133359133239936
 10
61.545578507031
 20
0.7105018317441134
 10
61.5489026573512
 20
0.7076122871382854
 10
61.5522068799682
 20
0.7046655861639496
 10
61.5554908312776
 20
0.7016600354785455
 10
61.55828925192139
 20
0.6990357260275375
 10
61.5610723105351
 20
0.6963658696042076
 10
61.56383947087469
 20
0.6936494371727735
 10
61.56658462319628
 20
0.6908860500846484
 10
61.56929692513109
 20
0.6880758819543016
 10
61.57196538403379
 20
0.6852191239324016
 10
61.5741476779302
 20
0.6828030406527624
 10
61.5762855300106
 20
0.6803548466448906
 10
61.57795953864959
 20
0.6783732460506356
 10
61.57959777609611
 20
0.6763712220240917
 10
61.5811969852699
 20
0.6743488312024935
 10
61.582753909091
 20
0.6723061302230775
 10
61.58426529047929
 20
0.6702431757230786
 10
61.58536697996169
 20
0.6686827025460346
 10
61.5864398456375
 20
0.6671108925159416
 10
61.5874825134259
 20
0.6655277695266335
 10
61.58849360924619
 20
0.6639333574719446
 10
61.5894717590179
 20
0.6623276802457077
 10
61.5904155886602
 20
0.6607107617417566
 10
61.59132372409249
 20
0.6590826258539267
 10
61.5921947912341
 20
0.6574432964760497
 10
61.5930274160044
 20
0.6557927975019604
 10
61.59382022432261
 20
0.6541311528254925
 10
61.59457184210809
 20
0.6524583863404804
 10
61.5952808952803
 20
0.6507745219407566
 10
61.5959460097585
 20
0.6490795835201566
 10
61.5965658114619
 20
0.6473735949725126
 10
61.59713892631
 20
0.6456565801916585
 10
61.5976639802221
 20
0.6439285630714286
 10
61.59813959911748
 20
0.6421895675056576
 10
61.59856440891561
 20
0.6404396173881775
 10
61.5989370355356
 20
0.6386787366128229
 10
61.599256104897
 20
0.6369069490734276
 10
61.5994383852136
 20
0.6357197098665655
 10
61.5995958444666
 20
0.6345276409081545
 10
61.5997280755209
 20
0.6333307492778496
 10
61.5998346712416
 20
0.6321290420553054
 10
61.5999152244937
 20
0.6309225263201757
 10
61.5999693281421
 20
0.6297112091521147
 10
61.5999965750518
 20
0.6284950976307777
 10
61.59999999907871
 20
0.6278952460395657
  0
LWPOLYLINE
  5
D29
330
1E
100
AcDbEntity
  8
1
100
AcDbPolyline
 90
        2
 70
     0
 43
0.0
 10
57.8638517945
 20
98.49894048270002
 10
57.96206535171602
 20
98.49912502490852
  0
LWPOLYLINE
  5
D2D
330
1E
100
AcDbEntity
  8
1
100
AcDbPolyline
 90
        6
 70
     0
 43
0.0
 10
60.0
 20
-42.8460209585
 10
57.22282395380599
 20
-38.42694402689911
 10
54.40907448509759
 20
-33.82962751986591
 10
51.5746419780384
 20
-29.07387510705349
 10
48.73472380996759
 20
-24.17986252033319
 10
47.45609137472071
 20
-21.9329584475877
  0
LWPOLYLINE
  5
D35
330
1E
100
AcDbEntity
  8
1
100
AcDbPolyline
 90
       14
 70
     0
 43
0.0
 10
57.1768311333
 20
98.4951127883
 10
57.17778860217971
 20
98.4953525342461
 10
57.17984540463479
 20
98.49553638176727
 10
57.18187460988722
 20
98.49570976255913
 10
57.18437621134321
 20
98.4959125629828
 10
57.18684370014711
 20
98.49610083976999
 10
57.18976670425071
 20
98.49630903267271
 10
57.19361378721082
 20
98.49655940586641
 10
57.20073902092922
 20
98.4969585834567
 10
57.2107186043569
 20
98.49740451248829
 10
57.22223200925001
 20
98.4977868336702
 10
57.23578909948611
 20
98.49808627023771
 10
57.25386365215443
 20
98.49828956244172
 10
57.66484002750239
 20
98.4991029432318
  0
LWPOLYLINE
  5
D45
330
1E
100
AcDbEntity
  8
1
100
AcDbPolyline
 90
        2
 70
     0
 43
0.0
 10
57.66485002750002
 20
98.49910293459998
 10
57.76390366820152
 20
98.4990472864785
  0
LWPOLYLINE
  5
D49
330
1E
100
AcDbEntity
  8
1
100
AcDbPolyline
 90
        2
 70
     0
 43
0.0
 10
57.7639136682
 20
98.49904728110001
 10
57.86384179451761
 20
98.49894050149579
  0
LWPOLYLINE
  5
D4D
330
1E
100
AcDbEntity
  8
1
100
AcDbPolyline
 90
        2
 70
     0
 43
0.0
 10
55.14812246129999
 20
98.2040094429
 10
58.06449963310702
 20
98.22734490863659
  0
DIMENSION
  5
DC0
330
1E
100
AcDbEntity
  8
SK2
100
AcDbDimension
  2
*D4
 10
-22.37499999999998
 20
50.80000000000001
 30
0.0
 11
-22.375
 21
0.000000000000024
 31
0.0
 70
   160
  1
%%c<>
 71
     5
 42
101.6
  3
ISO-25
100
AcDbAlignedDimension
 13
-3.952356856195321
 23
-50.80000000000001
 33
0.0
 14
-3.952356856195308
 24
50.80000000000001
 34
0.0
 50
270.0
100
AcDbRotatedDimension
  0
LINE
  5
DC1
330
1E
100
AcDbEntity
  8
SK4
100
AcDbLine
 10
36.58491617946059
 20
-50.80000000000001
 30
0.0
 11
-3.952356856195321
 21
-50.80000000000001
 31
0.0
  0
LINE
  5
DC2
330
1E
100
AcDbEntity
  8
SK4
100
AcDbLine
 10
36.61969453526625
 20
50.8
 30
0.0
 11
-3.952356856195308
 21
50.80000000000001
 31
0.0
  0
DIMENSION
  5
DF4
330
1E
100
AcDbEntity
  8
2
100
AcDbDimension
  2
*D5
 10
73.53856680723834
 20
89.99999999999998
 30
0.0
 11
71.16356680723832
 21
95.0
 31
0.0
 70
    32
 71
     5
 42
10.00000000000001
  3
ISO-25
100
AcDbAlignedDimension
 13
61.42109347748476
 23
100.0
 33
0.0
 14
63.50000000000001
 24
89.99999999999998
 34
0.0
 50
270.0
100
AcDbRotatedDimension
  0
LINE
  5
4AC8
330
1E
100
AcDbEntity
  8
NOCUT
100
AcDbLine
 10
61.59999999999978
 20
0.0
 30
0.0
 11
0.0
 21
0.0
 31
0.0
  0
LINE
  5
4AC9
330
1E
100
AcDbEntity
  8
NOCUT
100
AcDbLine
 10
24.81495457619995
 20
97.0
 30
0.0
 11
15.86602540379988
 21
81.5
 31
0.0
  0
LINE
  5
4ACA
330
1E
100
AcDbEntity
  8
NOCUT
100
AcDbLine
 10
0.0
 20
75.0
 30
0.0
 11
0.0
 21
0.0
 31
0.0
  0
ARC
  5
4ACB
330
1E
100
AcDbEntity
  8
NOCUT
100
AcDbCircle
 10
5.0
 20
75.0
 30
0.0
 40
5.0
100
AcDbArc
 50
90.0
 51
180.0
  0
LINE
  5
4ACC
330
1E
100
AcDbEntity
  8
NOCUT
100
AcDbLine
 10
13.26794919239989
 20
80.0
 30
0.0
 11
5.0
 21
80.0
 31
0.0
  0
ARC
  5
4ACD
330
1E
100
AcDbEntity
  8
NOCUT
100
AcDbCircle
 10
13.26794919239989
 20
83.0
 30
0.0
 40
3.0
100
AcDbArc
 50
270.0
 51
329.9999999350004
  0
LINE
  5
4ACE
330
1E
100
AcDbEntity
  8
NOCUT
100
AcDbLine
 10
61.59999999999978
 20
0.0
 30
0.0
 11
61.5999999999999
 21
96.90000000000004
 31
0.0
  0
LINE
  5
4ACF
330
1E
100
AcDbEntity
  8
NOCUT
100
AcDbLine
 10
59.99999999999989
 20
98.50000000000001
 30
0.0
 11
27.41303078759995
 21
98.50000000000001
 31
0.0
  0
ARC
  5
4AD0
330
1E
100
AcDbEntity
  8
NOCUT
100
AcDbCircle
 10
27.41303078759995
 20
95.5
 30
0.0
 40
3.0
100
AcDbArc
 50
90.0
 51
149.9999985004994
  0
ARC
  5
4AD1
330
1E
100
AcDbEntity
  8
NOCUT
100
AcDbCircle
 10
59.99999999999989
 20
96.90000000000004
 30
0.0
 40
1.6
100
AcDbArc
 50
0.0000044363992928
 51
90.0
  0
SPLINE
  5
4AE0
330
1E
100
AcDbEntity
  8
CUT
100
AcDbSpline
210
0.0
220
0.0
230
1.0
 70
     8
 71
     3
 72
    36
 73
    32
 74
    30
 42
0.0000000001
 43
0.0000000001
 44
0.0000000001
 12
0.0016769060107539
 22
-0.9999985939921272
 32
0.0
 13
-0.0035535300986825
 23
-0.9999936861919868
 33
0.0
 40
0.0
 40
0.0
 40
0.0
 40
0.0
 40
0.4085435139039889
 40
0.8171329170913514
 40
1.225769222986949
 40
1.634452445012284
 40
2.043184597445837
 40
2.451965691975637
 40
2.860795743372325
 40
3.269676764357684
 40
3.678607768192067
 40
4.087591768505014
 40
4.496635778627434
 40
4.905738811901408
 40
5.314898881121296
 40
5.724113000825113
 40
6.133377182854326
 40
6.542691441335461
 40
6.95205078832783
 40
7.361452239796925
 40
7.770894807793951
 40
8.18037650382686
 40
8.589906342888685
 40
8.999484338315699
 40
9.409111503436607
 40
9.818787851577436
 40
10.22851539330728
 40
10.63829314743385
 40
11.04812312140843
 40
11.45800533145906
 40
11.86793979088401
 40
11.86793979088401
 40
11.86793979088401
 40
11.86793979088401
 10
62.99285100000003
 20
98.91351300000003
 30
0.0
 10
62.99307936302473
 20
98.77733202017051
 30
0.0
 10
62.99351136764662
 20
98.50495472195726
 30
0.0
 10
62.99408533865243
 20
98.09636538200251
 30
0.0
 10
62.99458546221086
 20
97.68772937536347
 30
0.0
 10
62.99501097259944
 20
97.27904570129261
 30
0.0
 10
62.99536478664716
 20
96.8703136958377
 30
0.0
 10
62.99564199414494
 20
96.46153268808413
 30
0.0
 10
62.99584732378735
 20
96.05270201526719
 30
0.0
 10
62.99597877324043
 20
95.64382134191451
 30
0.0
 10
62.99603361765012
 20
95.23488933507497
 30
0.0
 10
62.99601876371408
 20
94.82590299511615
 30
0.0
 10
62.99592730425661
 20
94.41685932169651
 30
0.0
 10
62.99576196387666
 20
94.00775698216742
 30
0.0
 10
62.99552475636992
 20
93.59859797456881
 30
0.0
 10
62.99521090190093
 20
93.18938530237423
 30
0.0
 10
62.99482550669421
 20
92.78012129491836
 30
0.0
 10
62.99436491793925
 20
92.37080895603133
 30
0.0
 10
62.99383265692748
 20
91.96145094755351
 30
0.0
 10
62.99322427757623
 20
91.55205027508557
 30
0.0
 10
62.99254203896641
 20
91.14260893618746
 30
0.0
 10
62.99178735394917
 20
90.73312492841514
 30
0.0
 10
62.9909582714778
 20
90.32359592188239
 30
0.0
 10
62.99005525390782
 20
89.91401858195269
 30
0.0
 10
62.98907837512493
 20
89.50439257494684
 30
0.0
 10
62.98802687859268
 20
89.09471690390686
 30
0.0
 10
62.98690370552407
 20
88.68499122644989
 30
0.0
 10
62.98570386945284
 20
88.27521455749815
 30
0.0
 10
62.98443234623391
 20
87.86538654846372
 30
0.0
 10
62.98308624519101
 20
87.45550654219432
 30
0.0
 10
62.98213957148001
 20
87.18223595705914
 30
0.0
 10
62.98165399999999
 20
87.045592
 30
0.0
 11
62.99285100000003
 21
98.91351300000003
 31
0.0
 11
62.99349899999999
 21
98.50497000000002
 31
0.0
 11
62.99407300000002
 21
98.096381
 31
0.0
 11
62.994573
 21
97.68774500000001
 31
0.0
 11
62.99499899999995
 21
97.27906199999999
 31
0.0
 11
62.99535199999997
 21
96.87033000000004
 31
0.0
 11
62.99562999999995
 21
96.46154900000006
 31
0.0
 11
62.995835
 21
96.05271900000005
 31
0.0
 11
62.995966
 21
95.64383799999999
 31
0.0
 11
62.99602199999998
 21
95.23490700000001
 31
0.0
 11
62.99600600000002
 21
94.82592300000003
 31
0.0
 11
62.99591500000001
 21
94.41687899999999
 31
0.0
 11
62.99574999999999
 21
94.00777600000003
 31
0.0
 11
62.99551200000002
 21
93.598616
 31
0.0
 11
62.995199
 21
93.18940200000005
 31
0.0
 11
62.99481299999996
 21
92.780138
 31
0.0
 11
62.99435299999998
 21
92.37082400000003
 31
0.0
 11
62.99381999999997
 21
91.96146500000002
 31
0.0
 11
62.99321200000003
 21
91.55206400000002
 31
0.0
 11
62.99253000000003
 21
91.14262200000002
 31
0.0
 11
62.99177500000002
 21
90.73314100000002
 31
0.0
 11
62.99094599999995
 21
90.32361200000002
 31
0.0
 11
62.99004299999996
 21
89.91403500000002
 31
0.0
 11
62.98906600000004
 21
89.50440900000002
 31
0.0
 11
62.98801499999996
 21
89.09473400000001
 31
0.0
 11
62.98689099999997
 21
88.68500800000004
 31
0.0
 11
62.98569200000002
 21
88.27523200000001
 31
0.0
 11
62.98441999999994
 21
87.86540400000001
 31
0.0
 11
62.98307400000004
 21
87.45552400000002
 31
0.0
 11
62.98165399999999
 21
87.045592
 31
0.0
  0
SPLINE
  5
4AE1
330
1E
100
AcDbEntity
  8
CUT
100
AcDbSpline
210
0.0
220
0.0
230
1.0
 70
     8
 71
     3
 72
    36
 73
    32
 74
    30
 42
0.0000000001
 43
0.0000000001
 44
0.0000000001
 12
0.0017863886603844
 22
-0.9999984044065042
 32
0.0
 13
-0.0034565874402977
 23
-0.9999940259837893
 33
0.0
 40
0.0
 40
0.0
 40
0.0
 40
0.0
 40
0.4105685899335194
 40
0.8211790595284501
 40
1.231832422506317
 40
1.642530693732226
 40
2.053271886559306
 40
2.464059013546036
 40
2.874892089003707
 40
3.285771125846692
 40
3.696697138014293
 40
4.107671138774678
 40
4.518701141695387
 40
4.929785160096765
 40
5.340923207774165
 40
5.752110297738115
 40
6.163344444137713
 40
6.574623660637856
 40
6.985944958489062
 40
7.397305353398443
 40
7.808702859022877
 40
8.220136487266838
 40
8.631614251402389
 40
9.04313616681523
 40
9.454703244847454
 40
9.866316501233811
 40
10.27797594694712
 40
10.68968259524175
 40
11.10143746237636
 40
11.51323956196421
 40
11.92508990085932
 40
11.92508990085932
 40
11.92508990085932
 40
11.92508990085932
 10
58.10432599999995
 20
99.08750799999999
 30
0.0
 10
58.10457047835773
 20
98.95065202172235
 30
0.0
 10
58.10503453358339
 20
98.67692606011559
 30
0.0
 10
58.10565558144687
 20
98.26631572008304
 30
0.0
 10
58.10620132383062
 20
97.85566204581915
 30
0.0
 10
58.1066732885107
 20
97.44496470583577
 30
0.0
 10
58.10707166029182
 20
97.03422269970596
 30
0.0
 10
58.10739419027604
 20
96.62343569232991
 30
0.0
 10
58.10764367457203
 20
96.21260268606071
 30
0.0
 10
58.10781718255559
 20
95.80172334561469
 30
0.0
 10
58.10791764212751
 20
95.39079700573793
 30
0.0
 10
58.10794227092366
 20
94.97982033222376
 30
0.0
 10
58.10789326911621
 20
94.56879099230178
 30
0.0
 10
58.1077706186979
 20
94.15770698530574
 30
0.0
 10
58.10757219360246
 20
93.74657064558762
 30
0.0
 10
58.10730052242043
 20
93.33538430512874
 30
0.0
 10
58.10695361065742
 20
92.92415096479158
 30
0.0
 10
58.10653090890134
 20
92.51287295960011
 30
0.0
 10
58.10603661317795
 20
92.10155295134745
 30
0.0
 10
58.10546648635285
 20
91.69019361128396
 30
0.0
 10
58.10482127655544
 20
91.2787969387441
 30
0.0
 10
58.10410222256641
 20
90.8673612655785
 30
0.0
 10
58.10330959460692
 20
90.45588425744865
 30
0.0
 10
58.10244113096832
 20
90.04436291908026
 30
0.0
 10
58.10149958351356
 20
89.63279657723544
 30
0.0
 10
58.10048220607144
 20
89.22118457222737
 30
0.0
 10
58.09939123645246
 20
88.80952623223592
 30
0.0
 10
58.09822646009877
 20
88.3978208906152
 30
0.0
 10
58.09698650266543
 20
87.98606821694569
 30
0.0
 10
58.09567108751281
 20
87.57426788051372
 30
0.0
 10
58.09474553223623
 20
87.29971862616485
 30
0.0
 10
58.09427099999999
 20
87.16243600000002
 30
0.0
 11
58.10432599999995
 21
99.08750799999999
 31
0.0
 11
58.10502200000001
 21
98.67694
 31
0.0
 11
58.10564300000003
 21
98.26633000000004
 31
0.0
 11
58.10618900000003
 21
97.85567700000001
 31
0.0
 11
58.10666099999997
 21
97.44497900000006
 31
0.0
 11
58.10705899999999
 21
97.03423800000004
 31
0.0
 11
58.10738199999997
 21
96.62345100000003
 31
0.0
 11
58.10763100000002
 21
96.21261800000002
 31
0.0
 11
58.10780500000004
 21
95.801739
 31
0.0
 11
58.10790500000002
 21
95.39081300000004
 31
0.0
 11
58.10792999999995
 21
94.97983900000004
 31
0.0
 11
58.10788099999996
 21
94.56880900000005
 31
0.0
 11
58.10775800000005
 21
94.157725
 31
0.0
 11
58.10755999999997
 21
93.74658700000003
 31
0.0
 11
58.10728799999998
 21
93.33540000000001
 31
0.0
 11
58.10694099999995
 21
92.92416600000001
 31
0.0
 11
58.10651899999999
 21
92.51288700000003
 31
0.0
 11
58.10602399999999
 21
92.10156600000003
 31
0.0
 11
58.10545399999995
 21
91.69020600000003
 31
0.0
 11
58.10480899999999
 21
91.27880900000002
 31
0.0
 11
58.10408999999999
 21
90.86737600000004
 31
0.0
 11
58.10329699999993
 21
90.45589900000004
 31
0.0
 11
58.10242899999997
 21
90.04437799999998
 31
0.0
 11
58.10148699999996
 21
89.632812
 31
0.0
 11
58.10047000000003
 21
89.22120000000003
 31
0.0
 11
58.09937899999994
 21
88.80954200000003
 31
0.0
 11
58.09821400000004
 21
88.39783700000003
 31
0.0
 11
58.09697399999999
 21
87.98608399999999
 31
0.0
 11
58.09565900000001
 21
87.57428400000003
 31
0.0
 11
58.09427099999999
 21
87.16243600000002
 31
0.0
  0
SPLINE
  5
4AE2
330
1E
100
AcDbEntity
  8
CUT
100
AcDbSpline
210
0.0
220
0.0
230
1.0
 70
     8
 71
     3
 72
    36
 73
    32
 74
    30
 42
0.0000000001
 43
0.0000000001
 44
0.0000000001
 12
-0.99664683317347
 22
-0.0818235291666985
 32
0.0
 13
-0.9967894999734422
 23
-0.0800668017513797
 33
0.0
 40
0.0
 40
0.0
 40
0.0
 40
0.0
 40
0.1514284030062106
 40
0.3028530801661092
 40
0.4542760252999799
 40
0.6056951639845768
 40
0.7571125717355132
 40
0.9085261742320859
 40
1.059938046887493
 40
1.211346196856352
 40
1.362751540015004
 40
1.51415407699835
 40
1.665553970819395
 40
1.816951059605798
 40
1.968345343992615
 40
2.119736905620065
 40
2.271125664053443
 40
2.422510784976875
 40
2.573894019745465
 40
2.725273537187586
 40
2.87665133128226
 40
3.028025328421815
 40
3.179396606559412
 40
3.330765166207737
 40
3.482130846957967
 40
3.633493890759994
 40
3.784854137327525
 40
3.936211587296178
 40
4.087566321513467
 40
4.238917263555535
 40
4.390266487712743
 40
4.390266487712743
 40
4.390266487712743
 40
4.390266487712743
 10
62.98165399999999
 20
87.045592
 30
0.0
 10
62.93134712056377
 20
87.04146186454998
 30
0.0
 10
62.83073435667931
 20
87.03320465232266
 30
0.0
 10
62.67981569182457
 20
87.02082762728386
 30
0.0
 10
62.52889940627309
 20
87.00845937390964
 30
0.0
 10
62.37798468561114
 20
86.99610169648272
 30
0.0
 10
62.22707240543989
 20
86.9837523766707
 30
0.0
 10
62.0761616917529
 20
86.97141361472858
 30
0.0
 10
61.92525335140365
 20
86.95908369763243
 30
0.0
 10
61.77434706727062
 20
86.94676242494479
 30
0.0
 10
61.62344307610765
 20
86.93445131237529
 30
0.0
 10
61.47254096502519
 20
86.92215100539213
 30
0.0
 10
61.32164107501774
 20
86.90985731889517
 30
0.0
 10
61.17074306825291
 20
86.89757439764335
 30
0.0
 10
61.01984701054476
 20
86.88530177062986
 30
0.0
 10
60.86895308482778
 20
86.87303718615773
 30
0.0
 10
60.71806128257976
 20
86.86078418604152
 30
0.0
 10
60.56717180253255
 20
86.84853688297343
 30
0.0
 10
60.4162843374918
 20
86.83630283615697
 30
0.0
 10
60.2653986921426
 20
86.82407657036094
 30
0.0
 10
60.11451539853839
 20
86.81185940927461
 30
0.0
 10
59.96363402034673
 20
86.79965262671894
 30
0.0
 10
59.812755008512
 20
86.78745477035599
 30
0.0
 10
59.66187812803427
 20
86.77526495315328
 30
0.0
 10
59.51100295433882
 20
86.76308810139289
 30
0.0
 10
59.36013007347208
 20
86.75091728830746
 30
0.0
 10
59.20925906286107
 20
86.73875741552809
 30
0.0
 10
59.05839001113358
 20
86.72660772117167
 30
0.0
 10
58.90752339809909
 20
86.71446638450552
 30
0.0
 10
58.7566586895072
 20
86.7023355688199
 30
0.0
 10
58.65608277248966
 20
86.69425434944198
 30
0.0
 10
58.605795
 20
86.69021500000004
 30
0.0
 11
62.98165399999999
 21
87.045592
 31
0.0
 11
62.83073299999995
 21
87.03320600000003
 31
0.0
 11
62.67981500000002
 21
87.02082900000004
 31
0.0
 11
62.52889799999997
 21
87.00846100000003
 31
0.0
 11
62.37798400000002
 21
86.99610300000001
 31
0.0
 11
62.22707099999997
 21
86.98375400000003
 31
0.0
 11
62.076161
 21
86.97141500000004
 31
0.0
 11
61.92525199999995
 21
86.95908500000001
 31
0.0
 11
61.77434599999997
 21
86.94676400000004
 31
0.0
 11
61.62344200000001
 21
86.93445300000002
 31
0.0
 11
61.47254000000003
 21
86.92215200000005
 31
0.0
 11
61.32163999999995
 21
86.90985900000004
 31
0.0
 11
61.17074199999996
 21
86.89757600000001
 31
0.0
 11
61.01984599999997
 21
86.88530300000001
 31
0.0
 11
60.86895199999998
 21
86.87303900000001
 31
0.0
 11
60.71805999999998
 21
86.86078500000002
 31
0.0
 11
60.56717099999997
 21
86.84853900000002
 31
0.0
 11
60.41628299999996
 21
86.83630400000003
 31
0.0
 11
60.26539799999993
 21
86.82407800000005
 31
0.0
 11
60.11451400000003
 21
86.81186100000003
 31
0.0
 11
59.96363300000002
 21
86.79965400000003
 31
0.0
 11
59.81275399999998
 21
86.78745600000002
 31
0.0
 11
59.66187699999995
 21
86.77526700000004
 31
0.0
 11
59.51100200000002
 21
86.76308900000003
 31
0.0
 11
59.36012899999997
 21
86.75091900000003
 31
0.0
 11
59.20925800000002
 21
86.73875900000002
 31
0.0
 11
59.05838899999999
 21
86.726609
 31
0.0
 11
58.90752200000003
 21
86.71446800000003
 31
0.0
 11
58.75665799999996
 21
86.702337
 31
0.0
 11
58.605795
 21
86.69021500000004
 31
0.0
  0
SPLINE
  5
4AE3
330
1E
100
AcDbEntity
  8
CUT
100
AcDbSpline
210
0.0
220
0.0
230
1.0
 70
     8
 71
     3
 72
    36
 73
    32
 74
    30
 42
0.0000000001
 43
0.0000000001
 44
0.0000000001
 12
0.7348022248695347
 22
-0.6782814241351315
 32
0.0
 13
0.7347145315183538
 23
-0.6783764126027424
 33
0.0
 40
0.0
 40
0.0
 40
0.0
 40
0.0
 40
0.024014167901468
 40
0.0480290706287614
 40
0.0720425602751883
 40
0.0960553150942866
 40
0.1200666568309737
 40
0.1440779985677392
 40
0.1680893403045632
 40
0.1920999472314851
 40
0.2161091410746925
 40
0.24011833491784
 40
0.2641267939687732
 40
0.2881338399344997
 40
0.3121415642123908
 40
0.336147931888407
 40
0.360153508323894
 40
0.3841591412045564
 40
0.4081633045518035
 40
0.4321667895695737
 40
0.4561709529168111
 40
0.480172968436359
 40
0.5041750403677121
 40
0.5281763211668893
 40
0.5521776583379618
 40
0.5761768476784485
 40
0.6001767153864406
 40
0.6241751700033165
 40
0.648173624620261
 40
0.672170666146191
 40
0.6961677076722105
 40
0.6961677076722105
 40
0.6961677076722105
 40
0.6961677076722105
 10
58.09427099999999
 20
87.16243600000002
 30
0.0
 10
58.10015288800078
 20
87.15700654533213
 30
0.0
 10
58.11191710331924
 20
87.14614775079898
 30
0.0
 10
58.12956363019067
 20
87.12986029381486
 30
0.0
 10
58.14720995300842
 20
87.11357331022535
 30
0.0
 10
58.16485460559686
 20
87.09728626717051
 30
0.0
 10
58.18249902178759
 20
87.0810000236043
 30
0.0
 10
58.20014296113109
 20
87.06471395789108
 30
0.0
 10
58.21778695370195
 20
87.04842831096092
 30
0.0
 10
58.23542961807998
 20
87.03214228069674
 30
0.0
 10
58.25307197122901
 20
87.0158569688334
 30
0.0
 10
58.27071397091437
 20
86.99957232958968
 30
0.0
 10
58.28835453920535
 20
86.98328719525894
 30
0.0
 10
58.30599543570172
 20
86.96700313863876
 30
0.0
 10
58.32363420256519
 20
86.95071780283377
 30
0.0
 10
58.3412754004389
 20
86.93443582260131
 30
0.0
 10
58.3589125206411
 20
86.91815045300995
 30
0.0
 10
58.37655206004429
 20
86.90186878718462
 30
0.0
 10
58.39418856741422
 20
86.88558486475796
 30
0.0
 10
58.41182631360036
 20
86.86930300635856
 30
0.0
 10
58.42946264897051
 20
86.85302067520723
 30
0.0
 10
58.44709758831145
 20
86.83673752636025
 30
0.0
 10
58.46473437471406
 20
86.82045779461855
 30
0.0
 10
58.48236758414221
 20
86.80417452187814
 30
0.0
 10
58.50000266555979
 20
86.78789469317964
 30
0.0
 10
58.51763625127389
 20
86.77161393881194
 30
0.0
 10
58.53526862020477
 20
86.75533328301325
 30
0.0
 10
58.55290101154053
 20
86.73905301249888
 30
0.0
 10
58.57053264148743
 20
86.72277330606304
 30
0.0
 10
58.58816400000002
 20
86.70649400000007
 30
0.0
 10
58.59991800829245
 20
86.69564134231453
 30
0.0
 10
58.605795
 20
86.69021500000004
 30
0.0
 11
58.09427099999999
 21
87.16243600000002
 31
0.0
 11
58.11191700000001
 21
87.14614800000004
 31
0.0
 11
58.129564
 21
87.12985999999999
 31
0.0
 11
58.14721000000003
 21
87.11357300000004
 31
0.0
 11
58.16485500000005
 21
87.097286
 31
0.0
 11
58.18249899999995
 21
87.08100000000001
 31
0.0
 11
58.20014299999996
 21
87.06471400000003
 31
0.0
 11
58.21778699999999
 21
87.04842799999999
 31
0.0
 11
58.23543
 21
87.03214200000003
 31
0.0
 11
58.25307200000003
 21
87.01585700000004
 31
0.0
 11
58.27071399999994
 21
86.999572
 31
0.0
 11
58.28835499999996
 21
86.98328700000002
 31
0.0
 11
58.30599499999999
 21
86.96700300000003
 31
0.0
 11
58.32363500000003
 21
86.95071799999999
 31
0.0
 11
58.34127499999993
 21
86.93443499999998
 31
0.0
 11
58.35891299999997
 21
86.91815100000004
 31
0.0
 11
58.376552
 21
86.90186800000004
 31
0.0
 11
58.39418900000004
 21
86.88558500000004
 31
0.0
 11
58.41182599999996
 21
86.869303
 31
0.0
 11
58.429463
 21
86.85302000000001
 31
0.0
 11
58.44709800000003
 21
86.83673800000002
 31
0.0
 11
58.46473399999997
 21
86.82045700000003
 31
0.0
 11
58.48236800000001
 21
86.80417500000004
 31
0.0
 11
58.50000299999994
 21
86.78789399999997
 31
0.0
 11
58.51763599999998
 21
86.77161400000001
 31
0.0
 11
58.53526900000002
 21
86.75533300000003
 31
0.0
 11
58.55290099999996
 21
86.73905300000001
 31
0.0
 11
58.57053300000001
 21
86.72277300000002
 31
0.0
 11
58.58816399999994
 21
86.70649400000002
 31
0.0
 11
58.605795
 21
86.69021500000004
 31
0.0
  0
SPLINE
  5
4AE4
330
1E
100
AcDbEntity
  8
CUT
100
AcDbSpline
210
0.0
220
0.0
230
1.0
 70
     8
 71
     3
 72
    36
 73
    32
 74
    30
 42
0.0000000001
 43
0.0000000001
 44
0.0000000001
 12
-0.9969485548840996
 22
-0.0780613791481128
 32
0.0
 13
-0.9970372782548279
 23
-0.0769198659008504
 33
0.0
 40
0.0
 40
0.0
 40
0.0
 40
0.0
 40
0.1135231923882381
 40
0.2270449977473381
 40
0.340565494244627
 40
0.4540846820148598
 40
0.5676024054283993
 40
0.6811188982961382
 40
0.7946350020348462
 40
0.9081487229191267
 40
1.021662132827345
 40
1.135173160256383
 40
1.248683877019248
 40
1.362193286272374
 40
1.475701310574602
 40
1.58920795013809
 40
1.702713282664785
 40
1.81621723083411
 40
1.92972086926916
 40
2.043222204107118
 40
2.156723152142796
 40
2.270221719578688
 40
2.383719977900121
 40
2.497216853011294
 40
2.610712422303664
 40
2.724206608767119
 40
2.837699489715662
 40
2.951192062309643
 40
3.064682178575353
 40
3.178172063820708
 40
3.291659570137387
 40
3.291659570137387
 40
3.291659570137387
 40
3.291659570137387
 10
61.898303
 20
99.88813700000005
 30
0.0
 10
61.86057740580091
 20
99.88518307434567
 30
0.0
 10
61.78512652472943
 20
99.87927722077087
 30
0.0
 10
61.67195048577463
 20
99.8704233842553
 30
0.0
 10
61.55877547273366
 20
99.86157355041283
 30
0.0
 10
61.44560158929071
 20
99.85272672416707
 30
0.0
 10
61.33242842040522
 20
99.84388788501791
 30
0.0
 10
61.21925620759873
 20
99.83505000742129
 30
0.0
 10
61.10608485522771
 20
99.82621824969497
 30
0.0
 10
60.99291414730108
 20
99.81739144441204
 30
0.0
 10
60.87974486261928
 20
99.80856815256203
 30
0.0
 10
60.76657615111869
 20
99.79975039341585
 30
0.0
 10
60.65340848188501
 20
99.79093642560705
 30
0.0
 10
60.54024152648992
 20
99.78212618487592
 30
0.0
 10
60.42707552867471
 20
99.77332115527339
 30
0.0
 10
60.31391047476519
 20
99.76452151418172
 30
0.0
 10
60.20074653309688
 20
99.75572509593666
 30
0.0
 10
60.08758315060955
 20
99.74693439408298
 30
0.0
 10
59.97442081063567
 20
99.73814747887603
 30
0.0
 10
59.861259197265
 20
99.72936412441521
 30
0.0
 10
59.74809885685759
 20
99.72058621407681
 30
0.0
 10
59.63493914468787
 20
99.71181346668238
 30
0.0
 10
59.52178053435201
 20
99.70304407189203
 30
0.0
 10
59.40862247245632
 20
99.6942805366093
 30
0.0
 10
59.29546553290113
 20
99.68552008807478
 30
0.0
 10
59.18230948076914
 20
99.67676542723005
 30
0.0
 10
59.06915414319955
 20
99.66801448141424
 30
0.0
 10
58.95599991400169
 20
99.65926679924344
 30
0.0
 10
58.84284609444758
 20
99.65052677703866
 30
0.0
 10
58.72969385262119
 20
99.64178825822402
 30
0.0
 10
58.65425909147133
 20
99.6359658145891
 30
0.0
 10
58.61654200000003
 20
99.63305599999999
 30
0.0
 11
61.898303
 21
99.88813700000005
 31
0.0
 11
61.78512599999994
 21
99.87927800000001
 31
0.0
 11
61.67194999999998
 21
99.87042399999999
 31
0.0
 11
61.55877500000002
 21
99.86157400000003
 31
0.0
 11
61.44560099999996
 21
99.85272800000002
 31
0.0
 11
61.33242799999999
 21
99.84388800000001
 31
0.0
 11
61.21925600000003
 21
99.83505100000002
 31
0.0
 11
61.10608399999995
 21
99.82621900000005
 31
0.0
 11
60.99291399999998
 21
99.81739200000005
 31
0.0
 11
60.87974400000002
 21
99.80856900000004
 31
0.0
 11
60.76657600000004
 21
99.79975100000002
 31
0.0
 11
60.65340799999995
 21
99.79093700000005
 31
0.0
 11
60.54024099999998
 21
99.782127
 31
0.0
 11
60.427075
 21
99.77332199999999
 31
0.0
 11
60.31391000000002
 21
99.764522
 31
0.0
 11
60.20074600000004
 21
99.75572600000004
 31
0.0
 11
60.08758299999993
 21
99.746935
 31
0.0
 11
59.97441999999995
 21
99.73814800000004
 31
0.0
 11
59.86125899999996
 21
99.72936500000002
 31
0.0
 11
59.74809799999997
 21
99.72058700000005
 31
0.0
 11
59.63493899999997
 21
99.711814
 31
0.0
 11
59.52177999999998
 21
99.70304500000004
 31
0.0
 11
59.40862199999997
 21
99.69428100000003
 31
0.0
 11
59.29546499999998
 21
99.685521
 31
0.0
 11
59.18230899999997
 21
99.67676600000004
 31
0.0
 11
59.06915399999997
 21
99.66801500000002
 31
0.0
 11
58.95599899999997
 21
99.65926800000001
 31
0.0
 11
58.84284599999995
 21
99.65052700000001
 31
0.0
 11
58.72969299999994
 21
99.64178900000002
 31
0.0
 11
58.61654200000003
 21
99.63305599999999
 31
0.0
  0
SPLINE
  5
4AE5
330
1E
100
AcDbEntity
  8
CUT
100
AcDbSpline
210
0.0
220
0.0
230
1.0
 70
     8
 71
     3
 72
    36
 73
    32
 74
    30
 42
0.0000000001
 43
0.0000000001
 44
0.0000000001
 12
-0.6846268977586125
 22
-0.7288936896869246
 32
0.0
 13
-0.6844203843922255
 23
-0.7290876061409893
 33
0.0
 40
0.0
 40
0.0
 40
0.0
 40
0.0
 40
0.0258030110064979
 40
0.051606066426343
 40
0.0774098063877873
 40
0.1032135908001616
 40
0.1290173307616691
 40
0.1548211151740531
 40
0.180624170593861
 40
0.206427955006318
 40
0.2322317394186301
 40
0.2580362528416816
 40
0.2838400372540089
 40
0.3096445506771376
 40
0.3354476505877579
 40
0.3612521640108142
 40
0.3870566774337987
 40
0.4128605063745791
 40
0.438665748826419
 40
0.4644695777670752
 40
0.4902741357559199
 40
0.5160793782078365
 40
0.5418839361966765
 40
0.5676884941854949
 40
0.593493052174324
 40
0.6192983392295886
 40
0.6451028972183968
 40
0.6709081842735636
 40
0.6967127869056503
 40
0.7225180739607854
 40
0.7483233610160453
 40
0.7483233610160453
 40
0.7483233610160453
 40
0.7483233610160453
 10
58.61654200000003
 20
99.63305599999999
 30
0.0
 10
58.61065352154063
 20
99.6267867827008
 30
0.0
 10
58.59887781811661
 20
99.61424715046286
 30
0.0
 10
58.58121513221617
 20
99.59543656283594
 30
0.0
 10
58.56355053933926
 20
99.57662741224503
 30
0.0
 10
58.54588849336225
 20
99.55781555704739
 30
0.0
 10
58.52822353792534
 20
99.53900641357195
 30
0.0
 10
58.51056146040822
 20
99.52019490100887
 30
0.0
 10
58.49289760830746
 20
99.50138503446478
 30
0.0
 10
58.47523510834067
 20
99.48257389827084
 30
0.0
 10
58.45757162565624
 20
99.46376301815636
 30
0.0
 10
58.43990939101248
 20
99.44495096619318
 30
0.0
 10
58.42224564197599
 20
99.42614000283233
 30
0.0
 10
58.40458336557356
 20
99.40732830306101
 30
0.0
 10
58.38692066446138
 20
99.38851666873732
 30
0.0
 10
58.36925804150538
 20
99.3697049610307
 30
0.0
 10
58.3515950031813
 20
99.35089330997834
 30
0.0
 10
58.33393271647421
 20
99.33208061990246
 30
0.0
 10
58.31627035208214
 20
99.31326831573224
 30
0.0
 10
58.29860764389107
 20
99.29445600099718
 30
0.0
 10
58.28094607436242
 20
99.27564261723681
 30
0.0
 10
58.26328295535687
 20
99.25683035486162
 30
0.0
 10
58.2456210411887
 20
99.23801696132953
 30
0.0
 10
58.22795903604699
 20
99.21920396616002
 30
0.0
 10
58.21029664828407
 20
99.20039099685546
 30
0.0
 10
58.19263537280755
 20
99.18157698334319
 30
0.0
 10
58.17497269215845
 20
99.1627639556691
 30
0.0
 10
58.15731101669121
 20
99.1439502972427
 30
0.0
 10
58.13965001160965
 20
99.12513567618828
 30
0.0
 10
58.12198799999965
 20
99.10632199999961
 30
0.0
 10
58.11021322149518
 20
99.09377943832163
 30
0.0
 10
58.10432599999995
 20
99.08750799999999
 30
0.0
 11
58.61654200000003
 21
99.63305599999999
 31
0.0
 11
58.59887799999995
 21
99.61424700000003
 31
0.0
 11
58.58121499999999
 21
99.59543700000001
 31
0.0
 11
58.56355100000001
 21
99.57662700000005
 31
0.0
 11
58.54588800000005
 21
99.55781600000001
 31
0.0
 11
58.52822399999997
 21
99.53900600000004
 31
0.0
 11
58.510561
 21
99.520195
 31
0.0
 11
58.49289800000001
 21
99.50138500000004
 31
0.0
 11
58.47523499999994
 21
99.48257400000001
 31
0.0
 11
58.45757199999997
 21
99.46376300000004
 31
0.0
 11
58.439909
 21
99.44495100000001
 31
0.0
 11
58.42224600000003
 21
99.42614000000004
 31
0.0
 11
58.40458299999993
 21
99.40732800000001
 31
0.0
 11
58.38692099999997
 21
99.38851700000004
 31
0.0
 11
58.36925799999999
 21
99.36970500000001
 31
0.0
 11
58.35159500000003
 21
99.35089300000004
 31
0.0
 11
58.33393299999993
 21
99.33208100000001
 31
0.0
 11
58.31626999999997
 21
99.313268
 31
0.0
 11
58.29860799999999
 21
99.29445600000002
 31
0.0
 11
58.28094600000003
 21
99.275643
 31
0.0
 11
58.26328299999993
 21
99.25683000000004
 31
0.0
 11
58.24562099999997
 21
99.23801700000002
 31
0.0
 11
58.227959
 21
99.21920400000004
 31
0.0
 11
58.21029700000003
 21
99.20039100000003
 31
0.0
 11
58.19263499999993
 21
99.18157700000001
 31
0.0
 11
58.17497299999995
 21
99.16276400000004
 31
0.0
 11
58.15731099999999
 21
99.14395000000002
 31
0.0
 11
58.13965000000002
 21
99.125136
 31
0.0
 11
58.12198800000004
 21
99.10632200000003
 31
0.0
 11
58.10432599999995
 21
99.08750799999999
 31
0.0
  0
SPLINE
  5
4AE6
330
1E
100
AcDbEntity
  8
CUT
100
AcDbSpline
210
0.0
220
0.0
230
1.0
 70
     8
 71
     3
 72
    36
 73
    32
 74
    30
 42
0.0000000001
 43
0.0000000001
 44
0.0000000001
 12
-0.0022421150211947
 22
0.9999974864569571
 32
0.0
 13
-0.9970260309037701
 23
-0.077065515636208
 33
0.0
 40
0.0
 40
0.0
 40
0.0
 40
0.0
 40
0.0569271805203688
 40
0.1135495989869223
 40
0.1701340766199133
 40
0.2269027832460204
 40
0.2834557900007197
 40
0.3399924139183042
 40
0.3964534324355571
 40
0.4526819532501156
 40
0.5089496474627602
 40
0.5649768783866572
 40
0.6210146043397602
 40
0.6769985549327905
 40
0.7329738817295403
 40
0.789098202847915
 40
0.8452435901651353
 40
0.9016889795959317
 40
0.9581695522736472
 40
1.014833024616971
 40
1.071666149201164
 40
1.128471827544035
 40
1.185523215362441
 40
1.242561014005082
 40
1.299810569688863
 40
1.357179549338203
 40
1.414633430991236
 40
1.472349906602676
 40
1.530030437321372
 40
1.587868836927569
 40
1.646089610788757
 40
1.646089610788757
 40
1.646089610788757
 40
1.646089610788757
 10
62.99285100000003
 20
98.91351300000003
 30
0.0
 10
62.99280845423784
 20
98.93248867914387
 30
0.0
 10
62.99162126530136
 20
98.97034548698888
 30
0.0
 10
62.98651562193247
 20
99.02685804841906
 30
0.0
 10
62.97806882208854
 20
99.08291794320019
 30
0.0
 10
62.96631124702671
 20
99.13835233063672
 30
0.0
 10
62.95135959145143
 20
99.19299639060481
 30
0.0
 10
62.93317268179154
 20
99.24654228349865
 30
0.0
 10
62.91195415577671
 20
99.29884209732332
 30
0.0
 10
62.88774122128295
 20
99.34972719964745
 30
0.0
 10
62.86064125028985
 20
99.3989681755054
 30
0.0
 10
62.83081608942914
 20
99.44653279215003
 30
0.0
 10
62.79830578604586
 20
99.49218845892049
 30
0.0
 10
62.76326220759152
 20
99.53590586733126
 30
0.0
 10
62.72575438441839
 20
99.57756767236425
 30
0.0
 10
62.68590129922142
 20
99.61706794357727
 30
0.0
 10
62.64375229298047
 20
99.65434542084008
 30
0.0
 10
62.59947174762308
 20
99.689255112473
 30
0.0
 10
62.55316833441195
 20
99.72173611498218
 30
0.0
 10
62.50498497784086
 20
99.75160206576033
 30
0.0
 10
62.45513180622094
 20
99.7788145902161
 30
0.0
 10
62.40371317520906
 20
99.80324274919128
 30
0.0
 10
62.35095943145704
 20
99.82481441250834
 30
0.0
 10
62.29695618099544
 20
99.84349251183269
 30
0.0
 10
62.24190051891246
 20
99.85918151837188
 30
0.0
 10
62.18593620911825
 20
99.87187808090165
 30
0.0
 10
62.12920109774962
 20
99.88148004827797
 30
0.0
 10
62.07192664089117
 20
99.8880089722072
 30
0.0
 10
62.01425033963038
 20
99.8913818541537
 30
0.0
 10
61.95631022419241
 20
99.89158677791202
 30
0.0
 10
61.91765120902632
 20
99.88963260465283
 30
0.0
 10
61.898302
 20
99.88813700000005
 30
0.0
 11
62.99285100000003
 21
98.91351300000003
 31
0.0
 11
62.99106
 21
98.97041200000003
 31
0.0
 11
62.98595700000003
 21
99.02680400000004
 31
0.0
 11
62.97752699999995
 21
99.08275700000002
 31
0.0
 11
62.96576099999999
 21
99.13829300000003
 31
0.0
 11
62.95081399999998
 21
99.192835
 31
0.0
 11
62.93265200000002
 21
99.24637500000001
 31
0.0
 11
62.91141799999997
 21
99.29869100000004
 31
0.0
 11
62.88725500000004
 21
99.349463
 31
0.0
 11
62.86014099999993
 21
99.39876700000002
 31
0.0
 11
62.83036199999997
 21
99.44622500000004
 31
0.0
 11
62.79787100000003
 21
99.49188200000003
 31
0.0
 11
62.76285300000001
 21
99.53556200000004
 31
0.0
 11
62.72540399999996
 21
99.57716500000003
 31
0.0
 11
62.68554299999999
 21
99.61667500000004
 31
0.0
 11
62.64348899999998
 21
99.65387400000004
 31
0.0
 11
62.59916700000001
 21
99.688826
 31
0.0
 11
62.55292400000001
 21
99.72125500000004
 31
0.0
 11
62.50477099999995
 21
99.75112199999999
 31
0.0
 11
62.45488199999993
 21
99.778345
 31
0.0
 11
62.40357599999999
 21
99.80272900000001
 31
0.0
 11
62.35076999999995
 21
99.82432500000005
 31
0.0
 11
62.29686499999997
 21
99.84296800000004
 31
0.0
 11
62.24181000000005
 21
99.85866700000002
 31
0.0
 11
62.18586099999999
 21
99.871352
 31
0.0
 11
62.12921499999999
 21
99.88095300000004
 31
0.0
 11
62.07186899999993
 21
99.88748200000003
 31
0.0
 11
62.01428700000001
 21
99.89085199999999
 31
0.0
 11
61.95644899999996
 21
99.89106700000002
 31
0.0
 11
61.898302
 21
99.88813700000005
 31
0.0
  0
LINE
  5
4AE7
330
1E
100
AcDbEntity
  8
CUT
100
AcDbLine
 10
62.99999999999993
 20
95.20000000000003
 30
0.0
 11
62.90000000000002
 21
95.20000000000003
 31
0.0
  0
TEXT
  5
4BBB
330
1E
100
AcDbEntity
  8
6
100
AcDbText
 10
103.3942889790334
 20
-115.2637353777682
 30
0.0
 40
5.0
  1
6F2B200R00
100
AcDbText
  0
TEXT
  5
4C20
330
1E
100
AcDbEntity
  8
6
100
AcDbText
 10
97.96496023224449
 20
-3.756501373438823
 30
0.0
 40
3.5
  1
Z=3
 50
90.0
100
AcDbText
  0
TEXT
  5
4C21
330
1E
100
AcDbEntity
  8
6
100
AcDbText
 10
95.51042673235656
 20
101.7904227735836
 30
0.0
 40
2.5
  1
YDA323L101
100
AcDbText
  0
LWPOLYLINE
  5
4CE1
330
1E
100
AcDbEntity
  8
1
100
AcDbPolyline
 90
        3
 70
     1
 43
0.0
 10
0.0
 20
2.950972054112583
 10
0.0
 20
0.0
 10
2.950972054112639
 20
0.0
 42
0.4142135623730966
  0
CIRCLE
  5
4CE2
330
1E
100
AcDbEntity
  8
1
100
AcDbCircle
 10
0.0
 20
0.0
 30
0.0
 40
2.950972054112601
  0
HATCH
  5
4CE3
330
1E
100
AcDbEntity
  8
1
100
AcDbHatch
 10
0.0
 20
0.0
 30
0.0
210
0.0
220
0.0
230
1.0
  2
SOLID
 70
     1
 71
     0
 91
        2
 92
        7
 72
     1
 73
     1
 93
        3
 10
0.0
 20
0.0
 42
0.0
 10
2.950972054112639
 20
0.0
 42
0.4142135623730966
 10
0.0
 20
2.950972054112583
 42
0.0
 97
        0
 92
        7
 72
     1
 73
     1
 93
        3
 10
0.0
 20
-2.950972054112583
 42
0.0
 10
0.0
 20
0.0
 42
0.0
 10
-2.950972054112639
 20
0.0
 42
0.4142135623730953
 97
        0
 75
     0
 76
     1
 47
0.1190009775223266
 98
        2
 10
0.7445530588120164
 20
0.9212244733764691
 10
-1.279464601852851
 20
-1.696796923046349
  0
LINE
  5
4CE4
330
1E
100
AcDbEntity
  8
1
100
AcDbLine
 10
-2.950972054112753
 20
0.0
 30
0.0
 11
2.950972054112526
 21
0.0
 31
0.0
  0
LINE
  5
4CE5
330
1E
100
AcDbEntity
  8
1
100
AcDbLine
 10
0.0
 20
2.950972054112583
 30
0.0
 11
0.0
 21
-2.950972054112639
 31
0.0
  0
LWPOLYLINE
  5
4CE6
330
1E
100
AcDbEntity
  8
1
100
AcDbPolyline
 90
        3
 70
     1
 43
0.0
 10
0.0
 20
0.0
 10
-2.950972054112639
 20
0.0
 42
0.4142135623730966
 10
0.0
 20
-2.950972054112611
  0
LINE
  5
4CE7
330
1E
100
AcDbEntity
  8
1
100
AcDbLine
 10
62.99999999999998
 20
100.4637693698488
 30
0.0
 11
62.99999999999998
 21
99.5362306301512
 31
0.0
  0
CIRCLE
  5
4CE8
330
1E
100
AcDbEntity
  8
1
100
AcDbCircle
 10
62.99999999999998
 20
100.0
 30
0.0
 40
0.463769369848821
  0
LINE
  5
4CE9
330
1E
100
AcDbEntity
  8
1
100
AcDbLine
 10
62.53623063015115
 20
100.0
 30
0.0
 11
63.4637693698488
 21
100.0
 31
0.0
  0
ENDSEC
  0
SECTION
  2
OBJECTS
  0
DICTIONARY
  5
C
330
0
100
AcDbDictionary
281
     1
  3
ACAD_COLOR
350
4A6A
  3
ACAD_GROUP
350
D
  3
ACAD_LAYOUT
350
19
  3
ACAD_MATERIAL
350
4A69
  3
ACAD_MLINESTYLE
350
16
  3
ACAD_PLOTSETTINGS
350
18
  3
ACAD_PLOTSTYLENAME
350
4A67
  3
ACAD_TABLESTYLE
350
4A6B
  3
AcDbVariableDictionary
350
4AA6
1001
ACAD
1000
TREAT_AS_HARD
1070
     0
  0
DICTIONARY
  5
3E56
330
1E
100
AcDbDictionary
281
     1
  3
ACAD_LAYOUTSELFREF
350
3E57
  0
DICTIONARY
  5
3E54
330
1A
100
AcDbDictionary
281
     1
  3
ACAD_LAYOUTSELFREF
350
3E55
  0
DICTIONARY
  5
4A6A
102
{ACAD_REACTORS
330
C
102
}
330
C
100
AcDbDictionary
281
     1
  0
DICTIONARY
  5
D
102
{ACAD_REACTORS
330
C
102
}
330
C
100
AcDbDictionary
281
     1
1001
ACAD
1000
TREAT_AS_HARD
1070
     0
  0
DICTIONARY
  5
19
102
{ACAD_REACTORS
330
C
102
}
330
C
100
AcDbDictionary
281
     1
  3
Layout1
350
4A6E
  3
Model
350
4A6D
1001
ACAD
1000
TREAT_AS_HARD
1070
     0
  0
DICTIONARY
  5
4A69
102
{ACAD_REACTORS
330
C
102
}
330
C
100
AcDbDictionary
281
     1
  0
DICTIONARY
  5
16
102
{ACAD_REACTORS
330
C
102
}
330
C
100
AcDbDictionary
281
     1
  3
STANDARD
350
17
1001
ACAD
1000
TREAT_AS_HARD
1070
     0
  0
DICTIONARY
  5
18
102
{ACAD_REACTORS
330
C
102
}
330
C
100
AcDbDictionary
281
     1
1001
ACAD
1000
TREAT_AS_HARD
1070
     0
  0
ACDBDICTIONARYWDFLT
  5
4A67
102
{ACAD_REACTORS
330
C
102
}
330
C
100
AcDbDictionary
281
     1
  3
Normal
350
4A68
100
AcDbDictionaryWithDefault
340
4A68
  0
DICTIONARY
  5
4A6B
102
{ACAD_REACTORS
330
C
102
}
330
C
100
AcDbDictionary
281
     1
  3
Standard
350
4A6C
  0
DICTIONARY
  5
4AA6
102
{ACAD_REACTORS
330
C
102
}
330
C
100
AcDbDictionary
281
     1
  3
CTABLESTYLE
350
4AA7
  3
DIMASSOC
350
4AA8
  3
PROJECTNAME
350
4AA9
  0
XRECORD
  5
3E57
102
{ACAD_REACTORS
330
3E56
102
}
330
3E56
100
AcDbXrecord
280
     1
340
1E
  0
XRECORD
  5
3E55
102
{ACAD_REACTORS
330
3E54
102
}
330
3E54
100
AcDbXrecord
280
     1
340
1A
  0
LAYOUT
  5
4A6E
102
{ACAD_XDICTIONARY
360
4AAE
102
}
102
{ACAD_REACTORS
330
19
102
}
330
19
100
AcDbPlotSettings
  1

  2
\\ingdom02\ITB3
  4

  6

 40
0.0
 41
0.0
 42
0.0
 43
0.0
 44
0.0
 45
0.0
 46
0.0
 47
0.0
 48
0.0
 49
0.0
140
0.0
141
0.0
142
1.0
143
1.0
 70
   688
 72
     0
 73
     0
 74
     5
  7
^A
 75
    16
147
1.0
148
0.0
149
0.0
100
AcDbLayout
  1
Layout1
 70
     1
 71
     1
 10
0.0
 20
0.0
 11
12.0
 21
9.0
 12
0.0
 22
0.0
 32
0.0
 14
100.0
 24
100.0
 34
100.0
 15
-100.0
 25
-100.0
 35
-100.0
146
0.0
 13
0.0
 23
0.0
 33
0.0
 16
1.0
 26
0.0
 36
0.0
 17
0.0
 27
1.0
 37
0.0
 76
     0
330
1A
  0
LAYOUT
  5
4A6D
102
{ACAD_XDICTIONARY
360
4AAC
102
}
102
{ACAD_REACTORS
330
19
102
}
330
19
100
AcDbPlotSettings
  1

  2
\\ingdom02\ITB3
  4

  6

 40
0.0
 41
0.0
 42
0.0
 43
0.0
 44
0.0
 45
0.0
 46
0.0
 47
0.0
 48
0.0
 49
0.0
140
0.0
141
0.0
142
1.0
143
1.0
 70
  1712
 72
     0
 73
     0
 74
     0
  7
^A
 75
     0
147
1.0
148
0.0
149
0.0
100
AcDbLayout
  1
Model
 70
     1
 71
     0
 10
0.0
 20
0.0
 11
12.0
 21
9.0
 12
0.0
 22
0.0
 32
0.0
 14
0.0
 24
0.0
 34
0.0
 15
0.0
 25
0.0
 35
0.0
146
0.0
 13
0.0
 23
0.0
 33
0.0
 16
1.0
 26
0.0
 36
0.0
 17
0.0
 27
1.0
 37
0.0
 76
     0
330
1E
  0
MLINESTYLE
  5
17
102
{ACAD_REACTORS
330
16
102
}
330
16
100
AcDbMlineStyle
  2
STANDARD
 70
     0
  3

 62
   256
 51
90.0
 52
90.0
 71
     2
 49
0.5
 62
   256
  6
BYLAYER
 49
-0.5
 62
   256
  6
BYLAYER
  0
ACDBPLACEHOLDER
  5
4A68
102
{ACAD_REACTORS
330
4A67
102
}
330
4A67
  0
TABLESTYLE
  5
4A6C
102
{ACAD_REACTORS
330
4A6B
102
}
330
4A6B
100
AcDbTableStyle
  3
Standard
 70
     0
 71
     0
 40
0.06
 41
0.06
280
     0
281
     0
  7
STANDARD
140
0.18
170
     2
 62
     0
 63
     7
283
     0
274
    -2
284
     1
 64
     0
275
    -2
285
     1
 65
     0
276
    -2
286
     1
 66
     0
277
    -2
287
     1
 67
     0
278
    -2
288
     1
 68
     0
279
    -2
289
     1
 69
     0
  7
STANDARD
140
0.25
170
     5
 62
     0
 63
     7
283
     0
274
    -2
284
     1
 64
     0
275
    -2
285
     1
 65
     0
276
    -2
286
     1
 66
     0
277
    -2
287
     1
 67
     0
278
    -2
288
     1
 68
     0
279
    -2
289
     1
 69
     0
  7
STANDARD
140
0.18
170
     5
 62
     0
 63
     7
283
     0
274
    -2
284
     1
 64
     0
275
    -2
285
     1
 65
     0
276
    -2
286
     1
 66
     0
277
    -2
287
     1
 67
     0
278
    -2
288
     1
 68
     0
279
    -2
289
     1
 69
     0
  0
DICTIONARYVAR
  5
4AA7
102
{ACAD_REACTORS
330
4AA6
102
}
330
4AA6
100
DictionaryVariables
280
     0
  1
STANDARD
  0
DICTIONARYVAR
  5
4AA8
102
{ACAD_REACTORS
330
4AA6
102
}
330
4AA6
100
DictionaryVariables
280
     0
  1
1
  0
DICTIONARYVAR
  5
4AA9
102
{ACAD_REACTORS
330
4AA6
102
}
330
4AA6
100
DictionaryVariables
280
     0
  1

  0
DICTIONARY
  5
4AAE
330
4A6E
100
AcDbDictionary
280
     1
281
     1
  3
ACAD_XREC_ROUNDTRIP
360
4AAF
  0
DICTIONARY
  5
4AAC
330
4A6D
100
AcDbDictionary
280
     1
281
     1
  3
ACAD_XREC_ROUNDTRIP
360
4AAD
  0
XRECORD
  5
4AAF
102
{ACAD_REACTORS
330
4AAE
102
}
330
4AAE
100
AcDbXrecord
280
     1
102
SHADEPLOT
 70
     0
102
SHADEPLOTRESLEVEL
 70
     2
102
SHADEPLOTCUSTOMDPI
 70
   300
  0
XRECORD
  5
4AAD
102
{ACAD_REACTORS
330
4AAC
102
}
330
4AAC
100
AcDbXrecord
280
     1
102
SHADEPLOT
 70
     0
102
SHADEPLOTRESLEVEL
 70
     2
102
SHADEPLOTCUSTOMDPI
 70
   300
  0
ENDSEC
  0
EOF
