  0
SECTION
  2
HEADER
  9
$ACADVER
  1
AC1015
  9
$ACADMAINTVER
 70
    10
  9
$DWGCODEPAGE
  3
ANSI_1252
  9
$INSBASE
 10
0.0
 20
0.0
 30
0.0
  9
$EXTMIN
 10
-36.77048162124401
 20
-98.91456738420766
 30
-0.0000000000000058
  9
$EXTMAX
 10
129.9092097785203
 20
83.41189517807221
 30
0.0000000000000104
  9
$LIMMIN
 10
0.0
 20
0.0
  9
$LIMMAX
 10
841.0
 20
594.0
  9
$ORTHOMODE
 70
     0
  9
$REGENMODE
 70
     1
  9
$FILLMODE
 70
     1
  9
$QTEXTMODE
 70
     0
  9
$MIRRTEXT
 70
     1
  9
$LTSCALE
 40
10.0
  9
$ATTMODE
 70
     1
  9
$TEXTSIZE
 40
0.2
  9
$TRACEWID
 40
0.05
  9
$TEXTSTYLE
  7
STANDARD
  9
$CLAYER
  8
0
  9
$CELTYPE
  6
BYLAYER
  9
$CECOLOR
 62
   256
  9
$CELTSCALE
 40
1.0
  9
$DISPSILH
 70
     0
  9
$DIMSCALE
 40
1.0
  9
$DIMASZ
 40
3.5
  9
$DIMEXO
 40
0.625
  9
$DIMDLI
 40
3.75
  9
$DIMRND
 40
0.0
  9
$DIMDLE
 40
0.0
  9
$DIMEXE
 40
1.25
  9
$DIMTP
 40
0.0
  9
$DIMTM
 40
0.0
  9
$DIMTXT
 40
3.5
  9
$DIMCEN
 40
2.5
  9
$DIMTSZ
 40
0.0
  9
$DIMTOL
 70
     0
  9
$DIMLIM
 70
     0
  9
$DIMTIH
 70
     0
  9
$DIMTOH
 70
     0
  9
$DIMSE1
 70
     0
  9
$DIMSE2
 70
     0
  9
$DIMTAD
 70
     1
  9
$DIMZIN
 70
     8
  9
$DIMBLK
  1

  9
$DIMASO
 70
     1
  9
$DIMSHO
 70
     1
  9
$DIMPOST
  1

  9
$DIMAPOST
  1

  9
$DIMALT
 70
     0
  9
$DIMALTD
 70
     3
  9
$DIMALTF
 40
0.03937007874016
  9
$DIMLFAC
 40
1.0
  9
$DIMTOFL
 70
     1
  9
$DIMTVP
 40
0.0
  9
$DIMTIX
 70
     0
  9
$DIMSOXD
 70
     0
  9
$DIMSAH
 70
     0
  9
$DIMBLK1
  1

  9
$DIMBLK2
  1

  9
$DIMSTYLE
  2
ISO-25
  9
$DIMCLRD
 70
   256
  9
$DIMCLRE
 70
   256
  9
$DIMCLRT
 70
   256
  9
$DIMTFAC
 40
1.0
  9
$DIMGAP
 40
0.625
  9
$DIMJUST
 70
     0
  9
$DIMSD1
 70
     0
  9
$DIMSD2
 70
     0
  9
$DIMTOLJ
 70
     0
  9
$DIMTZIN
 70
     8
  9
$DIMALTZ
 70
     0
  9
$DIMALTTZ
 70
     0
  9
$DIMUPT
 70
     0
  9
$DIMDEC
 70
     2
  9
$DIMTDEC
 70
     2
  9
$DIMALTU
 70
     2
  9
$DIMALTTD
 70
     3
  9
$DIMTXSTY
  7
STANDARD
  9
$DIMAUNIT
 70
     0
  9
$DIMADEC
 70
     0
  9
$DIMALTRND
 40
0.0
  9
$DIMAZIN
 70
     0
  9
$DIMDSEP
 70
    46
  9
$DIMATFIT
 70
     3
  9
$DIMFRAC
 70
     0
  9
$DIMLDRBLK
  1

  9
$DIMLUNIT
 70
     2
  9
$DIMLWD
 70
    -2
  9
$DIMLWE
 70
    -2
  9
$DIMTMOVE
 70
     0
  9
$LUNITS
 70
     2
  9
$LUPREC
 70
     4
  9
$SKETCHINC
 40
0.1
  9
$FILLETRAD
 40
0.0
  9
$AUNITS
 70
     0
  9
$AUPREC
 70
     0
  9
$MENU
  1

  9
$ELEVATION
 40
0.0
  9
$PELEVATION
 40
0.0
  9
$THICKNESS
 40
0.0
  9
$LIMCHECK
 70
     0
  9
$CHAMFERA
 40
0.0
  9
$CHAMFERB
 40
0.0
  9
$CHAMFERC
 40
0.0
  9
$CHAMFERD
 40
0.0
  9
$SKPOLY
 70
     0
  9
$TDCREATE
 40
2453431.455538946
  9
$TDUCREATE
 40
2453431.413872280
  9
$TDUPDATE
 40
2453777.544651273
  9
$TDUUPDATE
 40
2453777.502984606
  9
$TDINDWG
 40
0.1327157986
  9
$TDUSRTIMER
 40
0.0139459722
  9
$USRTIMER
 70
     1
  9
$ANGBASE
 50
0.0
  9
$ANGDIR
 70
     0
  9
$PDMODE
 70
     0
  9
$PDSIZE
 40
0.3125
  9
$PLINEWID
 40
0.0
  9
$SPLFRAME
 70
     0
  9
$SPLINETYPE
 70
     6
  9
$SPLINESEGS
 70
     8
  9
$HANDSEED
  5
4075
  9
$SURFTAB1
 70
     6
  9
$SURFTAB2
 70
     6
  9
$SURFTYPE
 70
     6
  9
$SURFU
 70
     6
  9
$SURFV
 70
     6
  9
$UCSBASE
  2

  9
$UCSNAME
  2

  9
$UCSORG
 10
0.0
 20
0.0
 30
0.0
  9
$UCSXDIR
 10
1.0
 20
0.0
 30
0.0
  9
$UCSYDIR
 10
0.0
 20
1.0
 30
0.0
  9
$UCSORTHOREF
  2

  9
$UCSORTHOVIEW
 70
     0
  9
$UCSORGTOP
 10
0.0
 20
0.0
 30
0.0
  9
$UCSORGBOTTOM
 10
0.0
 20
0.0
 30
0.0
  9
$UCSORGLEFT
 10
0.0
 20
0.0
 30
0.0
  9
$UCSORGRIGHT
 10
0.0
 20
0.0
 30
0.0
  9
$UCSORGFRONT
 10
0.0
 20
0.0
 30
0.0
  9
$UCSORGBACK
 10
0.0
 20
0.0
 30
0.0
  9
$PUCSBASE
  2

  9
$PUCSNAME
  2

  9
$PUCSORG
 10
0.0
 20
0.0
 30
0.0
  9
$PUCSXDIR
 10
1.0
 20
0.0
 30
0.0
  9
$PUCSYDIR
 10
0.0
 20
1.0
 30
0.0
  9
$PUCSORTHOREF
  2

  9
$PUCSORTHOVIEW
 70
     0
  9
$PUCSORGTOP
 10
0.0
 20
0.0
 30
0.0
  9
$PUCSORGBOTTOM
 10
0.0
 20
0.0
 30
0.0
  9
$PUCSORGLEFT
 10
0.0
 20
0.0
 30
0.0
  9
$PUCSORGRIGHT
 10
0.0
 20
0.0
 30
0.0
  9
$PUCSORGFRONT
 10
0.0
 20
0.0
 30
0.0
  9
$PUCSORGBACK
 10
0.0
 20
0.0
 30
0.0
  9
$USERI1
 70
     0
  9
$USERI2
 70
     0
  9
$USERI3
 70
     0
  9
$USERI4
 70
     0
  9
$USERI5
 70
     0
  9
$USERR1
 40
0.0
  9
$USERR2
 40
0.0
  9
$USERR3
 40
0.0
  9
$USERR4
 40
0.0
  9
$USERR5
 40
0.0
  9
$WORLDVIEW
 70
     1
  9
$SHADEDGE
 70
     3
  9
$SHADEDIF
 70
    70
  9
$TILEMODE
 70
     1
  9
$MAXACTVP
 70
    64
  9
$PINSBASE
 10
0.0
 20
0.0
 30
0.0
  9
$PLIMCHECK
 70
     0
  9
$PEXTMIN
 10
100.0
 20
100.0
 30
100.0
  9
$PEXTMAX
 10
-100.0
 20
-100.0
 30
-100.0
  9
$PLIMMIN
 10
0.0
 20
0.0
  9
$PLIMMAX
 10
12.0
 20
9.0
  9
$UNITMODE
 70
     0
  9
$VISRETAIN
 70
     1
  9
$PLINEGEN
 70
     1
  9
$PSLTSCALE
 70
     1
  9
$TREEDEPTH
 70
  3020
  9
$CMLSTYLE
  2
STANDARD
  9
$CMLJUST
 70
     0
  9
$CMLSCALE
 40
1.0
  9
$PROXYGRAPHICS
 70
     1
  9
$MEASUREMENT
 70
     0
  9
$CELWEIGHT
370
    -1
  9
$ENDCAPS
280
     0
  9
$JOINSTYLE
280
     0
  9
$LWDISPLAY
290
     0
  9
$INSUNITS
 70
     0
  9
$HYPERLINKBASE
  1

  9
$STYLESHEET
  1

  9
$XEDIT
290
     1
  9
$CEPSNTYPE
380
     0
  9
$PSTYLEMODE
290
     1
  9
$FINGERPRINTGUID
  2
{D504E841-03C3-4263-AD1D-470C6E074426}
  9
$VERSIONGUID
  2
{BB009A59-E6B9-4DE6-AE7A-B6DE19F8C424}
  9
$EXTNAMES
290
     1
  9
$PSVPSCALE
 40
0.0
  9
$OLESTARTUP
290
     0
  0
ENDSEC
  0
SECTION
  2
CLASSES
  0
CLASS
  1
ACDBDICTIONARYWDFLT
  2
AcDbDictionaryWithDefault
  3
AutoCAD 2000
 90
        0
280
     0
281
     0
  0
CLASS
  1
ACDBPLACEHOLDER
  2
AcDbPlaceHolder
  3
AutoCAD 2000
 90
        0
280
     0
281
     0
  0
CLASS
  1
LAYOUT
  2
AcDbLayout
  3
AutoCAD 2000
 90
        0
280
     0
281
     0
  0
CLASS
  1
TABLESTYLE
  2
AcDbTableStyle
  3
ObjectDBX Classes
 90
     2047
280
     0
281
     0
  0
CLASS
  1
DICTIONARYVAR
  2
AcDbDictionaryVar
  3
AutoCAD 2000
 90
        0
280
     0
281
     0
  0
ENDSEC
  0
SECTION
  2
TABLES
  0
TABLE
  2
VPORT
  5
8
330
0
100
AcDbSymbolTable
 70
     3
  0
VPORT
  5
4074
330
8
100
AcDbSymbolTableRecord
100
AcDbViewportTableRecord
  2
*Active
 70
     0
 10
0.0
 20
0.0
 11
1.0
 21
1.0
 12
46.56936407863817
 22
-7.751336103067728
 13
0.0
 23
0.0
 14
1.0
 24
1.0
 15
0.0
 25
0.0
 16
0.0
 26
0.0
 36
1.0
 17
0.0
 27
0.0
 37
0.0
 40
183.779263060784
 41
1.636968085106382
 42
50.0
 43
0.0
 44
0.0
 50
0.0
 51
0.0
 71
     0
 72
   100
 73
     1
 74
     1
 75
     0
 76
     0
 77
     0
 78
     0
281
     0
 65
     1
110
0.0
120
0.0
130
0.0
111
1.0
121
0.0
131
0.0
112
0.0
122
1.0
132
0.0
 79
     0
146
0.0
  0
ENDTAB
  0
TABLE
  2
LTYPE
  5
5
330
0
100
AcDbSymbolTable
 70
     3
  0
LTYPE
  5
13
330
5
100
AcDbSymbolTableRecord
100
AcDbLinetypeTableRecord
  2
BYBLOCK
 70
     0
  3

 72
    65
 73
     0
 40
0.0
  0
LTYPE
  5
14
330
5
100
AcDbSymbolTableRecord
100
AcDbLinetypeTableRecord
  2
BYLAYER
 70
     0
  3

 72
    65
 73
     0
 40
0.0
  0
LTYPE
  5
15
330
5
100
AcDbSymbolTableRecord
100
AcDbLinetypeTableRecord
  2
CONTINUOUS
 70
     0
  3
Solid line
 72
    65
 73
     0
 40
0.0
  0
LTYPE
  5
2C
330
5
100
AcDbSymbolTableRecord
100
AcDbLinetypeTableRecord
  2
CENTER
 70
     0
  3
____ _ ____ _ ____ _ ____ _ ____ _ ____ _ ____
 72
    65
 73
     4
 40
0.6
 49
0.375
 74
     0
 49
-0.075
 74
     0
 49
0.075
 74
     0
 49
-0.075
 74
     0
  0
LTYPE
  5
2D
330
5
100
AcDbSymbolTableRecord
100
AcDbLinetypeTableRecord
  2
HIDDEN
 70
     0
  3
- - - - - - - - - - - - - - - - - - - -
 72
    65
 73
     2
 40
0.2
 49
0.1
 74
     0
 49
-0.1
 74
     0
  0
ENDTAB
  0
TABLE
  2
LAYER
  5
2
330
0
100
AcDbSymbolTable
 70
    12
  0
LAYER
  5
10
330
2
100
AcDbSymbolTableRecord
100
AcDbLayerTableRecord
  2
1
 70
     0
 62
     4
  6
CONTINUOUS
370
    -3
390
3DAC
  0
LAYER
  5
31
330
2
100
AcDbSymbolTableRecord
100
AcDbLayerTableRecord
  2
2
 70
     0
 62
     7
  6
CONTINUOUS
370
    -3
390
3DAC
  0
LAYER
  5
33
330
2
100
AcDbSymbolTableRecord
100
AcDbLayerTableRecord
  2
4
 70
     0
 62
     2
  6
CENTER
370
    -3
390
3DAC
  0
LAYER
  5
36
330
2
100
AcDbSymbolTableRecord
100
AcDbLayerTableRecord
  2
0
 70
     0
 62
     7
  6
CONTINUOUS
370
    -3
390
3DAC
  0
LAYER
  5
37
330
2
100
AcDbSymbolTableRecord
100
AcDbLayerTableRecord
  2
DEFPOINTS
 70
     0
 62
     7
  6
CONTINUOUS
290
     0
370
    -3
390
3DAC
  0
LAYER
  5
3E34
330
2
100
AcDbSymbolTableRecord
100
AcDbLayerTableRecord
  2
6
 70
     0
 62
     5
  6
CONTINUOUS
370
    -3
390
3DAC
  0
LAYER
  5
3E35
330
2
100
AcDbSymbolTableRecord
100
AcDbLayerTableRecord
  2
CUT
 70
     0
 62
     1
  6
CONTINUOUS
370
    -3
390
3DAC
  0
LAYER
  5
3E36
330
2
100
AcDbSymbolTableRecord
100
AcDbLayerTableRecord
  2
NOCUT
 70
     0
 62
     7
  6
CONTINUOUS
370
    -3
390
3DAC
  0
LAYER
  5
3E37
330
2
100
AcDbSymbolTableRecord
100
AcDbLayerTableRecord
  2
SK2
 70
     0
 62
     7
  6
CONTINUOUS
370
    -3
390
3DAC
  0
LAYER
  5
4007
330
2
100
AcDbSymbolTableRecord
100
AcDbLayerTableRecord
  2
SK3
 70
     0
 62
     1
  6
HIDDEN
370
    -3
390
3DAC
  0
LAYER
  5
4008
330
2
100
AcDbSymbolTableRecord
100
AcDbLayerTableRecord
  2
SK4
 70
     0
 62
     2
  6
CENTER
370
    -3
390
3DAC
  0
ENDTAB
  0
TABLE
  2
STYLE
  5
3
330
0
100
AcDbSymbolTable
 70
     1
  0
STYLE
  5
11
330
3
100
AcDbSymbolTableRecord
100
AcDbTextStyleTableRecord
  2
STANDARD
 70
     0
 40
0.0
 41
0.8
 50
0.0
 71
     0
 42
0.2
  3
ISOCP
  4

  0
ENDTAB
  0
TABLE
  2
VIEW
  5
6
330
0
100
AcDbSymbolTable
 70
     0
  0
ENDTAB
  0
TABLE
  2
UCS
  5
7
330
0
100
AcDbSymbolTable
 70
     0
  0
ENDTAB
  0
TABLE
  2
APPID
  5
9
330
0
100
AcDbSymbolTable
 70
     1
  0
APPID
  5
12
330
9
100
AcDbSymbolTableRecord
100
AcDbRegAppTableRecord
  2
ACAD
 70
     0
  0
ENDTAB
  0
TABLE
  2
DIMSTYLE
  5
A
330
0
100
AcDbSymbolTable
 70
     2
100
AcDbDimStyleTable
 71
     0
  0
DIMSTYLE
105
D2A
102
{ACAD_REACTORS
330
D32
330
7A
330
7D
330
7C
330
7B
330
1992
102
}
330
A
100
AcDbSymbolTableRecord
100
AcDbDimStyleTableRecord
  2
ISO-25
 70
     0
 41
3.5
 42
0.625
 43
3.75
 44
1.25
 73
     0
 74
     0
 77
     1
 78
     8
140
3.5
141
2.5
143
0.03937007874016
147
0.625
171
     3
172
     1
176
   256
177
   256
178
   256
271
     2
272
     2
274
     3
283
     0
284
     8
340
11
  0
DIMSTYLE
105
3FA1
330
A
100
AcDbSymbolTableRecord
100
AcDbDimStyleTableRecord
  2
STANDARD
 70
     0
 41
2.5
 47
0.01
 48
0.01
 71
     1
 73
     0
 74
     0
 77
     1
 78
     8
140
3.5
178
     5
271
     3
272
     3
284
     8
340
11
341
3F9D
342
3F9D
343
3F9D
344
3F9D
  0
ENDTAB
  0
TABLE
  2
BLOCK_RECORD
  5
1
330
0
100
AcDbSymbolTable
 70
    10
  0
BLOCK_RECORD
  5
1E
102
{ACAD_XDICTIONARY
360
31AF
102
}
330
1
100
AcDbSymbolTableRecord
100
AcDbBlockTableRecord
  2
*MODEL_SPACE
340
3DB1
  0
BLOCK_RECORD
  5
1A
102
{ACAD_XDICTIONARY
360
31AD
102
}
330
1
100
AcDbSymbolTableRecord
100
AcDbBlockTableRecord
  2
*PAPER_SPACE
340
3DB2
  0
BLOCK_RECORD
  5
D33
330
1
100
AcDbSymbolTableRecord
100
AcDbBlockTableRecord
  2
*D0
340
0
  0
BLOCK_RECORD
  5
D48
330
1
100
AcDbSymbolTableRecord
100
AcDbBlockTableRecord
  2
*D1
340
0
  0
BLOCK_RECORD
  5
D54
330
1
100
AcDbSymbolTableRecord
100
AcDbBlockTableRecord
  2
*D2
340
0
  0
BLOCK_RECORD
  5
D60
330
1
100
AcDbSymbolTableRecord
100
AcDbBlockTableRecord
  2
*D3
340
0
  0
BLOCK_RECORD
  5
D6C
330
1
100
AcDbSymbolTableRecord
100
AcDbBlockTableRecord
  2
*D4
340
0
  0
BLOCK_RECORD
  5
1994
330
1
100
AcDbSymbolTableRecord
100
AcDbBlockTableRecord
  2
*D5
340
0
  0
BLOCK_RECORD
  5
3F9D
330
1
100
AcDbSymbolTableRecord
100
AcDbBlockTableRecord
  2
_FILLED
340
0
  0
ENDTAB
  0
ENDSEC
  0
SECTION
  2
BLOCKS
  0
BLOCK
  5
3A
330
1E
100
AcDbEntity
  8
0
100
AcDbBlockBegin
  2
*MODEL_SPACE
 70
     0
 10
0.0
 20
0.0
 30
0.0
  3
*MODEL_SPACE
  1

  0
ENDBLK
  5
3B
330
1E
100
AcDbEntity
  8
0
100
AcDbBlockEnd
  0
BLOCK
  5
38
330
1A
100
AcDbEntity
 67
     1
  8
0
100
AcDbBlockBegin
  2
*PAPER_SPACE
 70
     0
 10
0.0
 20
0.0
 30
0.0
  3
*PAPER_SPACE
  1

  0
ENDBLK
  5
39
330
1A
100
AcDbEntity
 67
     1
  8
0
100
AcDbBlockEnd
  0
BLOCK
  5
D3D
330
D33
100
AcDbEntity
  8
0
100
AcDbBlockBegin
  2
*D0
 70
     1
 10
0.0
 20
0.0
 30
0.0
  3
*D0
  1

  0
LINE
  5
406A
330
D33
100
AcDbEntity
  8
2
370
    -2
100
AcDbLine
 10
62.14698608307208
 20
79.99999999999996
 30
0.0
 11
74.78856680723834
 21
79.99999999999996
 31
0.0
  0
LINE
  5
406B
330
D33
100
AcDbEntity
  8
2
370
    -2
100
AcDbLine
 10
64.12500000000001
 20
69.99999999999996
 30
0.0
 11
74.78856680723834
 21
69.99999999999996
 31
0.0
  0
LINE
  5
406C
330
D33
100
AcDbEntity
  8
2
370
    -2
100
AcDbLine
 10
73.53856680723834
 20
76.49999999999995
 30
0.0
 11
73.53856680723834
 21
73.49999999999996
 31
0.0
  0
SOLID
  5
406D
330
D33
100
AcDbEntity
  8
2
100
AcDbTrace
 10
72.95523347390501
 20
76.49999999999995
 30
0.0
 11
74.12190014057166
 21
76.49999999999995
 31
0.0
 12
73.53856680723834
 22
79.99999999999996
 32
0.0
 13
73.53856680723834
 23
79.99999999999996
 33
0.0
  0
SOLID
  5
406E
330
D33
100
AcDbEntity
  8
2
100
AcDbTrace
 10
72.95523347390501
 20
73.49999999999996
 30
0.0
 11
74.12190014057166
 21
73.49999999999996
 31
0.0
 12
73.53856680723834
 22
69.99999999999996
 32
0.0
 13
73.53856680723834
 23
69.99999999999996
 33
0.0
  0
MTEXT
  5
406F
330
D33
100
AcDbEntity
  8
2
100
AcDbMText
 10
71.16356680723832
 20
74.99999999999997
 30
0.0
 40
3.5
 41
0.0
 71
     5
 72
     1
  1
10
 11
0.0000000000000001
 21
1.0
 31
0.0
 73
     1
 44
1.0
  0
POINT
  5
4070
330
D33
100
AcDbEntity
  8
DEFPOINTS
 62
     0
100
AcDbPoint
 10
61.52198608307208
 20
79.99999999999996
 30
0.0
  0
POINT
  5
4071
330
D33
100
AcDbEntity
  8
DEFPOINTS
 62
     0
100
AcDbPoint
 10
63.50000000000001
 20
69.99999999999996
 30
0.0
  0
POINT
  5
4072
330
D33
100
AcDbEntity
  8
DEFPOINTS
 62
     0
100
AcDbPoint
 10
73.53856680723834
 20
69.99999999999996
 30
0.0
  0
ENDBLK
  5
D3E
330
D33
100
AcDbEntity
  8
0
100
AcDbBlockEnd
  0
BLOCK
  5
D52
330
D48
100
AcDbEntity
  8
0
100
AcDbBlockBegin
  2
*D1
 70
     1
 10
0.0
 20
0.0
 30
0.0
  3
*D1
  1

  0
LINE
  5
403D
330
D48
100
AcDbEntity
  8
2
370
    -2
100
AcDbLine
 10
62.14698608307208
 20
79.99999999999996
 30
0.0
 11
81.87500000000001
 21
79.99999999999996
 31
0.0
  0
LINE
  5
403E
330
D48
100
AcDbEntity
  8
2
370
    -2
100
AcDbLine
 10
64.125
 20
-80.00000000000005
 30
0.0
 11
81.87499999999998
 21
-80.00000000000005
 31
0.0
  0
LINE
  5
403F
330
D48
100
AcDbEntity
  8
2
370
    -2
100
AcDbLine
 10
80.62500000000001
 20
76.49999999999995
 30
0.0
 11
80.62499999999998
 21
-76.50000000000004
 31
0.0
  0
SOLID
  5
4040
330
D48
100
AcDbEntity
  8
2
100
AcDbTrace
 10
80.04166666666668
 20
76.49999999999995
 30
0.0
 11
81.20833333333335
 21
76.49999999999995
 31
0.0
 12
80.62500000000001
 22
79.99999999999996
 32
0.0
 13
80.62500000000001
 23
79.99999999999996
 33
0.0
  0
SOLID
  5
4041
330
D48
100
AcDbEntity
  8
2
100
AcDbTrace
 10
80.04166666666666
 20
-76.50000000000004
 30
0.0
 11
81.20833333333331
 21
-76.50000000000004
 31
0.0
 12
80.62499999999998
 22
-80.00000000000005
 32
0.0
 13
80.62499999999998
 23
-80.00000000000005
 33
0.0
  0
MTEXT
  5
4042
330
D48
100
AcDbEntity
  8
2
100
AcDbMText
 10
78.25
 20
-0.0000000000000096
 30
0.0
 40
3.5
 41
0.0
 71
     5
 72
     1
  1
%%c160
 11
0.0000000000000001
 21
1.0
 31
0.0
 73
     1
 44
1.0
  0
POINT
  5
4043
330
D48
100
AcDbEntity
  8
DEFPOINTS
 62
     0
100
AcDbPoint
 10
61.52198608307208
 20
79.99999999999996
 30
0.0
  0
POINT
  5
4044
330
D48
100
AcDbEntity
  8
DEFPOINTS
 62
     0
100
AcDbPoint
 10
63.49999999999999
 20
-80.00000000000005
 30
0.0
  0
POINT
  5
4045
330
D48
100
AcDbEntity
  8
DEFPOINTS
 62
     0
100
AcDbPoint
 10
80.62499999999998
 20
-80.00000000000005
 30
0.0
  0
ENDBLK
  5
D53
330
D48
100
AcDbEntity
  8
0
100
AcDbBlockEnd
  0
BLOCK
  5
D5E
330
D54
100
AcDbEntity
  8
0
100
AcDbBlockBegin
  2
*D2
 70
     1
 10
0.0
 20
0.0
 30
0.0
  3
*D2
  1

  0
LINE
  5
4058
330
D54
100
AcDbEntity
  8
SK2
370
    -2
100
AcDbLine
 10
0.9749999999999909
 20
19.99999999999997
 30
0.0
 11
-13.62499999999999
 21
19.99999999999997
 31
0.0
  0
LINE
  5
4059
330
D54
100
AcDbEntity
  8
SK2
370
    -2
100
AcDbLine
 10
0.974999999999987
 20
-20.00000000000003
 30
0.0
 11
-13.625
 21
-20.00000000000002
 31
0.0
  0
LINE
  5
405A
330
D54
100
AcDbEntity
  8
SK2
370
    -2
100
AcDbLine
 10
-12.37499999999999
 20
16.49999999999997
 30
0.0
 11
-12.375
 21
-16.50000000000002
 31
0.0
  0
SOLID
  5
405B
330
D54
100
AcDbEntity
  8
SK2
100
AcDbTrace
 10
-12.95833333333333
 20
16.49999999999997
 30
0.0
 11
-11.79166666666666
 21
16.49999999999997
 31
0.0
 12
-12.37499999999999
 22
19.99999999999997
 32
0.0
 13
-12.37499999999999
 23
19.99999999999997
 33
0.0
  0
SOLID
  5
405C
330
D54
100
AcDbEntity
  8
SK2
100
AcDbTrace
 10
-12.95833333333333
 20
-16.50000000000002
 30
0.0
 11
-11.79166666666666
 21
-16.50000000000002
 31
0.0
 12
-12.375
 22
-20.00000000000002
 32
0.0
 13
-12.375
 23
-20.00000000000002
 33
0.0
  0
MTEXT
  5
405D
330
D54
100
AcDbEntity
  8
SK2
100
AcDbMText
 10
-14.75
 20
0.0000000000000018
 30
0.0
 40
3.5
 41
0.0
 71
     5
 72
     1
  1
%%c40
 11
0.0000000000000001
 21
1.0
 31
0.0
 73
     1
 44
1.0
  0
POINT
  5
405E
330
D54
100
AcDbEntity
  8
DEFPOINTS
 62
     0
100
AcDbPoint
 10
1.59999999999999
 20
19.99999999999997
 30
0.0
  0
POINT
  5
405F
330
D54
100
AcDbEntity
  8
DEFPOINTS
 62
     0
100
AcDbPoint
 10
1.599999999999987
 20
-20.00000000000003
 30
0.0
  0
POINT
  5
4060
330
D54
100
AcDbEntity
  8
DEFPOINTS
 62
     0
100
AcDbPoint
 10
-12.375
 20
-20.00000000000002
 30
0.0
  0
ENDBLK
  5
D5F
330
D54
100
AcDbEntity
  8
0
100
AcDbBlockEnd
  0
BLOCK
  5
D6A
330
D60
100
AcDbEntity
  8
0
100
AcDbBlockBegin
  2
*D3
 70
     1
 10
0.0
 20
0.0
 30
0.0
  3
*D3
  1

  0
LINE
  5
404F
330
D60
100
AcDbEntity
  8
SK2
370
    -2
100
AcDbLine
 10
-1.124999999999992
 20
64.99999999999997
 30
0.0
 11
-34.04176469793581
 21
64.99999999999999
 31
0.0
  0
LINE
  5
4050
330
D60
100
AcDbEntity
  8
SK2
370
    -2
100
AcDbLine
 10
-1.125000000000007
 20
-65.00000000000003
 30
0.0
 11
-34.04176469793585
 21
-65.00000000000001
 31
0.0
  0
LINE
  5
4051
330
D60
100
AcDbEntity
  8
SK2
370
    -2
100
AcDbLine
 10
-32.79176469793581
 20
61.49999999999998
 30
0.0
 11
-32.79176469793585
 21
-61.50000000000002
 31
0.0
  0
SOLID
  5
4052
330
D60
100
AcDbEntity
  8
SK2
100
AcDbTrace
 10
-33.37509803126915
 20
61.49999999999998
 30
0.0
 11
-32.20843136460248
 21
61.49999999999998
 31
0.0
 12
-32.79176469793581
 22
64.99999999999999
 32
0.0
 13
-32.79176469793581
 23
64.99999999999999
 33
0.0
  0
SOLID
  5
4053
330
D60
100
AcDbEntity
  8
SK2
100
AcDbTrace
 10
-33.37509803126918
 20
-61.50000000000002
 30
0.0
 11
-32.20843136460251
 21
-61.50000000000002
 31
0.0
 12
-32.79176469793585
 22
-65.00000000000001
 32
0.0
 13
-32.79176469793585
 23
-65.00000000000001
 33
0.0
  0
MTEXT
  5
4054
330
D60
100
AcDbEntity
  8
SK2
100
AcDbMText
 10
-35.16676469793583
 20
0.4652480000408774
 30
0.0
 40
3.5
 41
0.0
 71
     5
 72
     1
  1
%%c130
 11
0.0000000000000001
 21
1.0
 31
0.0
 73
     1
 44
1.0
  0
POINT
  5
4055
330
D60
100
AcDbEntity
  8
DEFPOINTS
 62
     0
100
AcDbPoint
 10
-0.4999999999999921
 20
64.99999999999997
 30
0.0
  0
POINT
  5
4056
330
D60
100
AcDbEntity
  8
DEFPOINTS
 62
     0
100
AcDbPoint
 10
-0.500000000000008
 20
-65.00000000000003
 30
0.0
  0
POINT
  5
4057
330
D60
100
AcDbEntity
  8
DEFPOINTS
 62
     0
100
AcDbPoint
 10
-32.79176469793585
 20
-65.00000000000001
 30
0.0
  0
ENDBLK
  5
D6B
330
D60
100
AcDbEntity
  8
0
100
AcDbBlockEnd
  0
BLOCK
  5
D76
330
D6C
100
AcDbEntity
  8
0
100
AcDbBlockBegin
  2
*D4
 70
     1
 10
0.0
 20
0.0
 30
0.0
  3
*D4
  1

  0
LINE
  5
4061
330
D6C
100
AcDbEntity
  8
2
370
    -2
100
AcDbLine
 10
62.99999999999999
 20
-80.66293887880005
 30
0.0
 11
62.99999999999999
 21
-98.87500000000002
 31
0.0
  0
LINE
  5
4062
330
D6C
100
AcDbEntity
  8
2
370
    -2
100
AcDbLine
 10
-0.000000000000008
 20
-65.74382820610003
 30
0.0
 11
-0.0000000000000101
 21
-98.87500000000002
 31
0.0
  0
LINE
  5
4063
330
D6C
100
AcDbEntity
  8
2
370
    -2
100
AcDbLine
 10
59.49999999999999
 20
-97.62500000000002
 30
0.0
 11
3.49999999999999
 21
-97.62500000000002
 31
0.0
  0
SOLID
  5
4064
330
D6C
100
AcDbEntity
  8
2
100
AcDbTrace
 10
59.49999999999999
 20
-97.04166666666671
 30
0.0
 11
59.49999999999999
 21
-98.20833333333336
 31
0.0
 12
62.99999999999999
 22
-97.62500000000002
 32
0.0
 13
62.99999999999999
 23
-97.62500000000002
 33
0.0
  0
SOLID
  5
4065
330
D6C
100
AcDbEntity
  8
2
100
AcDbTrace
 10
3.49999999999999
 20
-97.04166666666671
 30
0.0
 11
3.49999999999999
 21
-98.20833333333336
 31
0.0
 12
-0.00000000000001
 22
-97.62500000000002
 32
0.0
 13
-0.00000000000001
 23
-97.62500000000002
 33
0.0
  0
MTEXT
  5
4066
330
D6C
100
AcDbEntity
  8
2
100
AcDbMText
 10
31.49999999999999
 20
-95.25000000000003
 30
0.0
 40
3.5
 41
0.0
 71
     5
 72
     1
  1
63
 73
     1
 44
1.0
  0
POINT
  5
4067
330
D6C
100
AcDbEntity
  8
DEFPOINTS
 62
     0
100
AcDbPoint
 10
62.99999999999999
 20
-80.03793887880005
 30
0.0
  0
POINT
  5
4068
330
D6C
100
AcDbEntity
  8
DEFPOINTS
 62
     0
100
AcDbPoint
 10
-0.000000000000008
 20
-65.11882820610003
 30
0.0
  0
POINT
  5
4069
330
D6C
100
AcDbEntity
  8
DEFPOINTS
 62
     0
100
AcDbPoint
 10
-0.00000000000001
 20
-97.62500000000002
 30
0.0
  0
ENDBLK
  5
D77
330
D6C
100
AcDbEntity
  8
0
100
AcDbBlockEnd
  0
BLOCK
  5
199E
330
1994
100
AcDbEntity
  8
0
100
AcDbBlockBegin
  2
*D5
 70
     1
 10
0.0
 20
0.0
 30
0.0
  3
*D5
  1

  0
LINE
  5
4046
330
1994
100
AcDbEntity
  8
SK2
370
    -2
100
AcDbLine
 10
-5.03348123002917
 20
33.3500000000001
 30
0.0
 11
-23.28498515178123
 21
33.35000000000011
 31
0.0
  0
LINE
  5
4047
330
1994
100
AcDbEntity
  8
SK2
370
    -2
100
AcDbLine
 10
-9.248995083199966
 20
-33.34999999999991
 30
0.0
 11
-23.28498515178125
 21
-33.3499999999999
 31
0.0
  0
LINE
  5
4048
330
1994
100
AcDbEntity
  8
SK2
370
    -2
100
AcDbLine
 10
-22.03498515178123
 20
29.8500000000001
 30
0.0
 11
-22.03498515178125
 21
-29.8499999999999
 31
0.0
  0
SOLID
  5
4049
330
1994
100
AcDbEntity
  8
SK2
100
AcDbTrace
 10
-22.61831848511457
 20
29.8500000000001
 30
0.0
 11
-21.4516518184479
 21
29.8500000000001
 31
0.0
 12
-22.03498515178123
 22
33.35000000000011
 32
0.0
 13
-22.03498515178123
 23
33.35000000000011
 33
0.0
  0
SOLID
  5
404A
330
1994
100
AcDbEntity
  8
SK2
100
AcDbTrace
 10
-22.61831848511458
 20
-29.8499999999999
 30
0.0
 11
-21.45165181844791
 21
-29.8499999999999
 31
0.0
 12
-22.03498515178125
 22
-33.3499999999999
 32
0.0
 13
-22.03498515178125
 23
-33.3499999999999
 33
0.0
  0
MTEXT
  5
404B
330
1994
100
AcDbEntity
  8
SK2
100
AcDbMText
 10
-24.40998515178124
 20
0.0000000000000976
 30
0.0
 40
3.5
 41
0.0
 71
     5
 72
     1
  1
%%c66.7
 11
0.0000000000000001
 21
1.0
 31
0.0
 73
     1
 44
1.0
  0
POINT
  5
404C
330
1994
100
AcDbEntity
  8
DEFPOINTS
 62
     0
100
AcDbPoint
 10
-4.40848123002917
 20
33.3500000000001
 30
0.0
  0
POINT
  5
404D
330
1994
100
AcDbEntity
  8
DEFPOINTS
 62
     0
100
AcDbPoint
 10
-8.623995083199966
 20
-33.34999999999991
 30
0.0
  0
POINT
  5
404E
330
1994
100
AcDbEntity
  8
DEFPOINTS
 62
     0
100
AcDbPoint
 10
-22.03498515178125
 20
-33.3499999999999
 30
0.0
  0
ENDBLK
  5
199F
330
1994
100
AcDbEntity
  8
0
100
AcDbBlockEnd
  0
BLOCK
  5
3F9F
330
3F9D
100
AcDbEntity
  8
0
100
AcDbBlockBegin
  2
_FILLED
 70
     0
 10
0.0
 20
0.0
 30
0.0
  3
_FILLED
  1

  0
SOLID
  5
3F9E
330
3F9D
100
AcDbEntity
  8
0
  6
ByBlock
 62
     0
100
AcDbTrace
 10
0.0
 20
0.0
 30
0.0
 11
-1.0
 21
0.132
 31
0.0
 12
-1.0
 22
-0.132
 32
0.0
 13
-1.0
 23
-0.132
 33
0.0
  0
ENDBLK
  5
3FA0
330
3F9D
100
AcDbEntity
  8
0
  6
ByBlock
 62
     0
100
AcDbBlockEnd
  0
ENDSEC
  0
SECTION
  2
ENTITIES
  0
DIMENSION
  5
7A
330
1E
100
AcDbEntity
  8
2
100
AcDbDimension
  2
*D1
 10
80.62499999999998
 20
-80.00000000000005
 30
0.0
 11
80.625
 21
-0.0000000000000099
 31
0.0
 70
   160
  1
%%c<>
 71
     5
 42
160.0
  3
ISO-25
100
AcDbAlignedDimension
 13
61.52198608307208
 23
79.99999999999996
 33
0.0
 14
63.49999999999999
 24
-80.00000000000005
 34
0.0
 50
270.0
100
AcDbRotatedDimension
  0
DIMENSION
  5
7B
330
1E
100
AcDbEntity
  8
2
100
AcDbDimension
  2
*D4
 10
-0.00000000000001
 20
-97.62500000000002
 30
0.0
 11
31.49999999999999
 21
-97.62500000000002
 31
0.0
 70
   160
 71
     5
 42
63.0
  3
ISO-25
100
AcDbAlignedDimension
 13
62.99999999999999
 23
-80.03793887880005
 33
0.0
 14
-0.000000000000008
 24
-65.11882820610003
 34
0.0
 50
180.0
100
AcDbRotatedDimension
  0
DIMENSION
  5
7C
330
1E
100
AcDbEntity
  8
SK2
100
AcDbDimension
  2
*D3
 10
-32.79176469793585
 20
-65.00000000000001
 30
0.0
 11
-32.79176469793583
 21
0.465248000040877
 31
0.0
 70
   160
  1
%%c<>
 71
     5
 42
130.0
  3
ISO-25
100
AcDbAlignedDimension
 13
-0.4999999999999921
 23
64.99999999999997
 33
0.0
 14
-0.500000000000008
 24
-65.00000000000003
 34
0.0
 50
270.0
100
AcDbRotatedDimension
  0
DIMENSION
  5
7D
330
1E
100
AcDbEntity
  8
SK2
100
AcDbDimension
  2
*D2
 10
-12.375
 20
-20.00000000000002
 30
0.0
 11
-12.375
 21
0.0000000000000015
 31
0.0
 70
   160
  1
%%c<>
 71
     5
 42
40.0
  3
ISO-25
100
AcDbAlignedDimension
 13
1.59999999999999
 23
19.99999999999997
 33
0.0
 14
1.599999999999987
 24
-20.00000000000003
 34
0.0
 50
270.0
100
AcDbRotatedDimension
  0
LINE
  5
80
330
1E
100
AcDbEntity
  8
1
100
AcDbLine
 10
61.9634524819
 20
79.61024497389992
 30
0.0
 11
61.9645528748
 21
79.61024497389992
 31
0.0
  0
LINE
  5
81
330
1E
100
AcDbEntity
  8
1
100
AcDbLine
 10
61.96477058300001
 20
79.61022418479996
 30
0.0
 11
61.89836239249999
 21
79.60816380969996
 31
0.0
  0
LINE
  5
82
330
1E
100
AcDbEntity
  8
1
100
AcDbLine
 10
57.47893455749998
 20
78.64999999999999
 30
0.0
 11
29.61288198200001
 21
78.64999999999999
 31
0.0
  0
LINE
  5
83
330
1E
100
AcDbEntity
  8
1
100
AcDbLine
 10
18.26794919240001
 20
64.99999999999997
 30
0.0
 11
5.000000000000006
 21
64.99999999999997
 31
0.0
  0
LWPOLYLINE
  5
84
330
1E
100
AcDbEntity
  8
1
100
AcDbPolyline
 90
       17
 70
     0
 43
0.0
 10
61.7105085152
 20
-60.29266429080002
 10
61.75076218249999
 20
-60.22895758050004
 10
61.79154266339999
 20
-60.24126334990002
 10
61.83129664209999
 20
-60.32911287600003
 10
61.86914247419998
 20
-60.49264079740003
 10
61.9023148556
 20
-60.71989852150003
 10
61.93024145649999
 20
-61.00446893730002
 10
61.95185856129999
 20
-61.33551284630004
 10
61.96653280169999
 20
-61.70716136610002
 10
61.97319196619999
 20
-62.09225903199993
 10
61.97190566309999
 20
-62.48239660420004
 10
61.96272288709999
 20
-62.86271386390003
 10
61.94562956479998
 20
-63.22477631970004
 10
61.92187466409999
 20
-63.54212893760002
 10
61.89212895579998
 20
-63.80929636750003
 10
61.85752544479999
 20
-64.01610228510005
 10
61.8186775961
 20
-64.15648740080003
  0
LINE
  5
97
330
1E
100
AcDbEntity
  8
SK3
100
AcDbLine
 10
61.60000000000001
 20
56.54999999999996
 30
0.0
 11
43.0
 21
56.54999999999996
 31
0.0
  0
LWPOLYLINE
  5
98
330
1E
100
AcDbEntity
  8
1
100
AcDbPolyline
 90
        7
 70
     0
 43
0.0
 10
61.7105085152
 20
-60.29266429080002
 10
61.68969634469999
 20
-60.35733204489992
 10
61.6690550905
 20
-60.44563729519993
 10
61.6495314463
 20
-60.55475269690003
 10
61.63135380109999
 20
-60.68340181000002
 10
61.61524452449999
 20
-60.82508377720002
 10
61.599970084
 20
-60.99183215910003
  0
LINE
  5
A1
330
1E
100
AcDbEntity
  8
SK3
100
AcDbLine
 10
44.00000000000001
 20
49.49999999999996
 30
0.0
 11
43.0
 21
49.49999999999996
 31
0.0
  0
LINE
  5
A2
330
1E
100
AcDbEntity
  8
SK3
100
AcDbLine
 10
44.00000000000001
 20
44.89981861639993
 30
0.0
 11
28.00000000000001
 21
43.49999999999996
 31
0.0
  0
LINE
  5
A3
330
1E
100
AcDbEntity
  8
1
100
AcDbLine
 10
62.0043664306
 20
2.500361222099962
 30
0.0
 11
62.9999999567
 21
-6.972459008099985
 31
0.0
  0
LINE
  5
A5
330
1E
100
AcDbEntity
  8
1
100
AcDbLine
 10
61.60000000000001
 20
65.88997072980006
 30
0.0
 11
61.6
 21
2.328719822099962
 31
0.0
  0
LINE
  5
A6
330
1E
100
AcDbEntity
  8
1
100
AcDbLine
 10
61.6
 20
-6.700326986999983
 30
0.0
 11
61.6
 21
-77.01330687150008
 31
0.0
  0
LINE
  5
A7
330
1E
100
AcDbEntity
  8
1
100
AcDbLine
 10
62.9999999567
 20
6.972459008099961
 30
0.0
 11
62.2671649848
 21
-0.0000000000000076
 31
0.0
  0
LINE
  5
A8
330
1E
100
AcDbEntity
  8
1
100
AcDbLine
 10
62.16969784829998
 20
6.37150281219998
 30
0.0
 11
61.75154512169999
 21
2.393045373300011
 31
0.0
  0
LINE
  5
A9
330
1E
100
AcDbEntity
  8
1
100
AcDbLine
 10
57.91199581019999
 20
0.6630835278999645
 30
0.0
 11
58.6167458581
 21
-6.042165277100035
 31
0.0
  0
LINE
  5
AA
330
1E
100
AcDbEntity
  8
1
100
AcDbLine
 10
57.9399756892
 20
-4.386513355200014
 30
0.0
 11
57.4398955233
 21
0.3714315989999975
 31
0.0
  0
LINE
  5
AB
330
1E
100
AcDbEntity
  8
1
100
AcDbLine
 10
57.42063504789999
 20
0.5546827818000036
 30
0.0
 11
57.4398955233
 21
0.3714315989999975
 31
0.0
  0
LINE
  5
AC
330
1E
100
AcDbEntity
  8
1
100
AcDbLine
 10
57.9399756892
 20
-4.386513355200014
 30
0.0
 11
58.111904808
 21
-6.022309652200023
 31
0.0
  0
LINE
  5
AD
330
1E
100
AcDbEntity
  8
1
100
AcDbLine
 10
57.0799935974
 20
-5.780062772100002
 30
0.0
 11
57.19708837169999
 21
-6.894145130900035
 31
0.0
  0
LINE
  5
AE
330
1E
100
AcDbEntity
  8
1
100
AcDbLine
 10
54.67026966729999
 20
-6.761041422300034
 30
0.0
 11
54.73576744729999
 21
-7.384211172099984
 31
0.0
  0
LWPOLYLINE
  5
AF
330
1E
100
AcDbEntity
  8
1
100
AcDbPolyline
 90
        7
 70
     0
 43
0.0
 10
61.599941378
 20
-63.45696860190003
 10
61.62754653089999
 20
-63.73488556210001
 10
61.6608204064
 20
-63.96078122460003
 10
61.69804694989998
 20
-64.12054536379992
 10
61.73780821379999
 20
-64.20809261300004
 10
61.7778615113
 20
-64.22054357540004
 10
61.81867759779999
 20
-64.15648739640004
  0
LINE
  5
B8
330
1E
100
AcDbEntity
  8
1
100
AcDbLine
 10
58.0654826541
 20
78.45176251969994
 30
0.0
 11
58.0654826541
 21
70.02742248169994
 31
0.0
  0
LINE
  5
B9
330
1E
100
AcDbEntity
  8
1
100
AcDbLine
 10
57.86463492060001
 20
78.56144823149996
 30
0.0
 11
57.86463492060001
 21
78.63948025609997
 31
0.0
  0
LINE
  5
BA
330
1E
100
AcDbEntity
  8
1
100
AcDbLine
 10
57.57859862350001
 20
0.9482402470999812
 30
0.0
 11
57.5426789826
 21
0.6064876923999738
 31
0.0
  0
LINE
  5
BB
330
1E
100
AcDbEntity
  8
SK3
100
AcDbLine
 10
1.59999999999999
 20
19.99999999999997
 30
0.0
 11
26.40000000000001
 21
19.99999999999997
 31
0.0
  0
LINE
  5
BC
330
1E
100
AcDbEntity
  8
1
100
AcDbLine
 10
58.02826739930001
 20
1.178604402099941
 30
0.0
 11
58.3248119889
 21
0.9384673283999443
 31
0.0
  0
LINE
  5
BD
330
1E
100
AcDbEntity
  8
1
100
AcDbLine
 10
57.4398955233
 20
0.3714315989999975
 30
0.0
 11
57.3621809272
 21
0.4343636380999596
 31
0.0
  0
LINE
  5
BE
330
1E
100
AcDbEntity
  8
SK3
100
AcDbLine
 10
43.99999999999999
 20
-49.50000000000003
 30
0.0
 11
44.00000000000001
 21
49.49999999999996
 31
0.0
  0
LINE
  5
BF
330
1E
100
AcDbEntity
  8
SK3
100
AcDbLine
 10
42.99999999999999
 20
-56.55000000000004
 30
0.0
 11
43.0
 21
56.54999999999996
 31
0.0
  0
LINE
  5
C0
330
1E
100
AcDbEntity
  8
1
100
AcDbLine
 10
57.4184560043
 20
0.5537581665999417
 30
0.0
 11
58.31820349
 21
0.9356783151999291
 31
0.0
  0
LINE
  5
C1
330
1E
100
AcDbEntity
  8
1
100
AcDbLine
 10
58.31820349
 20
0.9356783151999291
 30
0.0
 11
61.601501133
 21
2.329355478699982
 31
0.0
  0
LINE
  5
C2
330
1E
100
AcDbEntity
  8
1
100
AcDbLine
 10
61.6175875561
 20
2.336183760199952
 30
0.0
 11
62.002317111
 21
2.499491767300001
 31
0.0
  0
LINE
  5
C3
330
1E
100
AcDbEntity
  8
1
100
AcDbLine
 10
57.86463492060001
 20
1.286330068799931
 30
0.0
 11
61.11313179719999
 21
2.665235183399932
 31
0.0
  0
LINE
  5
C4
330
1E
100
AcDbEntity
  8
1
100
AcDbLine
 10
7.400000000000001
 20
8.199999999999988
 30
0.0
 11
1.599999999999988
 21
8.199999999999988
 31
0.0
  0
LINE
  5
C5
330
1E
100
AcDbEntity
  8
1
100
AcDbLine
 10
61.6
 20
6.700326986999912
 30
0.0
 11
62.9978146496
 21
6.972034630699951
 31
0.0
  0
LINE
  5
C6
330
1E
100
AcDbEntity
  8
4
100
AcDbLine
 10
68.9611943866
 20
-0.0000000000000084
 30
0.0
 11
-6.099700636100007
 21
0.0000000000000007
 31
0.0
  0
LINE
  5
C7
330
1E
100
AcDbEntity
  8
SK3
100
AcDbLine
 10
28.0
 20
-43.50000000000003
 30
0.0
 11
28.00000000000001
 21
43.49999999999996
 31
0.0
  0
LINE
  5
C8
330
1E
100
AcDbEntity
  8
SK3
100
AcDbLine
 10
26.4
 20
-20.00000000000003
 30
0.0
 11
26.40000000000001
 21
19.99999999999997
 31
0.0
  0
LINE
  5
C9
330
1E
100
AcDbEntity
  8
1
100
AcDbLine
 10
62.99073173260001
 20
66.69300345429997
 30
0.0
 11
62.53809711510001
 21
65.77257991609994
 31
0.0
  0
LINE
  5
CA
330
1E
100
AcDbEntity
  8
1
100
AcDbLine
 10
57.1861386963
 20
0.9069910465999486
 30
0.0
 11
58.22840338159998
 21
1.016537479199932
 31
0.0
  0
LINE
  5
CB
330
1E
100
AcDbEntity
  8
1
100
AcDbLine
 10
58.1095811435
 20
-6.021858290700043
 30
0.0
 11
62.9978146496
 21
-6.972034630700024
 31
0.0
  0
LINE
  5
CC
330
1E
100
AcDbEntity
  8
1
100
AcDbLine
 10
62.9907317326
 20
-66.69300345430002
 30
0.0
 11
62.53809711509999
 21
-65.77257991610003
 31
0.0
  0
LINE
  5
CD
330
1E
100
AcDbEntity
  8
1
100
AcDbLine
 10
57.94025240189999
 20
78.52589484289997
 30
0.0
 11
58.1049080796
 21
78.86071890539999
 31
0.0
  0
LINE
  5
CE
330
1E
100
AcDbEntity
  8
SK3
100
AcDbLine
 10
-0.0000000000000026
 20
-21.60000000000003
 30
0.0
 11
1.599999999999987
 21
-20.00000000000003
 31
0.0
  0
LINE
  5
CF
330
1E
100
AcDbEntity
  8
1
100
AcDbLine
 10
55.1079886672
 20
-5.891477504499964
 30
0.0
 11
58.0654826541
 21
-5.580632360700013
 31
0.0
  0
LINE
  5
D0
330
1E
100
AcDbEntity
  8
1
100
AcDbLine
 10
57.1264742427
 20
-6.222296571400022
 30
0.0
 11
55.3522885832
 21
-6.390853772600054
 31
0.0
  0
LINE
  5
D1
330
1E
100
AcDbEntity
  8
1
100
AcDbLine
 10
7.399999999999997
 20
-8.200000000000045
 30
0.0
 11
1.599999999999988
 21
-8.200000000000045
 31
0.0
  0
LINE
  5
D2
330
1E
100
AcDbEntity
  8
SK3
100
AcDbLine
 10
0.0000000000000026
 20
21.59999999999997
 30
0.0
 11
1.59999999999999
 21
19.99999999999997
 31
0.0
  0
LINE
  5
D3
330
1E
100
AcDbEntity
  8
1
100
AcDbLine
 10
62.0136346548
 20
-77.68982143570001
 30
0.0
 11
62.4662692723
 21
-78.61024497390001
 31
0.0
  0
LINE
  5
D4
330
1E
100
AcDbEntity
  8
1
100
AcDbLine
 10
58.24059708029999
 20
-78.63663980349994
 30
0.0
 11
58.6167458581
 21
-79.4015308998
 31
0.0
  0
LINE
  5
D5
330
1E
100
AcDbEntity
  8
1
100
AcDbLine
 10
57.99562337339999
 20
-78.63849061800003
 30
0.0
 11
58.10490807959999
 21
-78.86071890540006
 31
0.0
  0
LINE
  5
D6
330
1E
100
AcDbEntity
  8
1
100
AcDbLine
 10
-0.0000000000000012
 20
-9.800000000000009
 30
0.0
 11
1.599999999999988
 21
-8.200000000000045
 31
0.0
  0
LINE
  5
D7
330
1E
100
AcDbEntity
  8
SK3
100
AcDbLine
 10
26.40000000000001
 20
19.99999999999997
 30
0.0
 11
28.00000000000001
 21
21.59999999999997
 31
0.0
  0
LINE
  5
D8
330
1E
100
AcDbEntity
  8
1
100
AcDbLine
 10
0.0000000000000012
 20
9.799999999999952
 30
0.0
 11
1.599999999999988
 21
8.199999999999988
 31
0.0
  0
LINE
  5
D9
330
1E
100
AcDbEntity
  8
SK3
100
AcDbLine
 10
26.4
 20
-20.00000000000003
 30
0.0
 11
28.0
 21
-21.60000000000003
 31
0.0
  0
LINE
  5
DA
330
1E
100
AcDbEntity
  8
1
100
AcDbLine
 10
9.0
 20
-6.600000000000015
 30
0.0
 11
9.0
 21
6.599999999999958
 31
0.0
  0
LINE
  5
DB
330
1E
100
AcDbEntity
  8
SK3
100
AcDbLine
 10
1.599999999999987
 20
-20.00000000000003
 30
0.0
 11
26.4
 21
-20.00000000000003
 31
0.0
  0
LINE
  5
DC
330
1E
100
AcDbEntity
  8
SK3
100
AcDbLine
 10
1.599999999999987
 20
-20.00000000000003
 30
0.0
 11
1.599999999999988
 21
-8.200000000000045
 31
0.0
  0
LINE
  5
DD
330
1E
100
AcDbEntity
  8
SK3
100
AcDbLine
 10
1.599999999999988
 20
8.199999999999988
 30
0.0
 11
1.59999999999999
 21
19.99999999999997
 31
0.0
  0
LINE
  5
DE
330
1E
100
AcDbEntity
  8
1
100
AcDbLine
 10
-0.0000000000000073
 20
-60.00000000000003
 30
0.0
 11
-0.0000000000000012
 21
-9.794804204199978
 31
0.0
  0
LINE
  5
DF
330
1E
100
AcDbEntity
  8
1
100
AcDbLine
 10
0.0000000000000012
 20
9.799999999999954
 30
0.0
 11
0.0000000000000073
 21
59.99999999999997
 31
0.0
  0
LINE
  5
E0
330
1E
100
AcDbEntity
  8
1
100
AcDbLine
 10
27.01480577070001
 20
77.14999999999998
 30
0.0
 11
20.86602540379999
 21
66.49999999999997
 31
0.0
  0
LINE
  5
E1
330
1E
100
AcDbEntity
  8
SK3
100
AcDbLine
 10
43.99999999999999
 20
-44.89981861640002
 30
0.0
 11
28.0
 21
-43.50000000000003
 31
0.0
  0
LINE
  5
E2
330
1E
100
AcDbEntity
  8
1
100
AcDbLine
 10
27.01480577069999
 20
-77.15000000000003
 30
0.0
 11
20.86602540379998
 21
-66.50000000000003
 31
0.0
  0
LINE
  5
E3
330
1E
100
AcDbEntity
  8
SK3
100
AcDbLine
 10
43.99999999999999
 20
-49.50000000000003
 30
0.0
 11
42.99999999999999
 21
-49.50000000000003
 31
0.0
  0
LINE
  5
E4
330
1E
100
AcDbEntity
  8
SK3
100
AcDbLine
 10
61.6
 20
-56.55000000000004
 30
0.0
 11
42.99999999999999
 21
-56.55000000000004
 31
0.0
  0
LINE
  5
E5
330
1E
100
AcDbEntity
  8
1
100
AcDbLine
 10
18.26794919239999
 20
-65.00000000000003
 30
0.0
 11
4.999999999999992
 21
-65.00000000000003
 31
0.0
  0
LINE
  5
E7
330
1E
100
AcDbEntity
  8
1
100
AcDbLine
 10
57.1770729688
 20
-78.65000000000005
 30
0.0
 11
29.61288198199998
 21
-78.65000000000005
 31
0.0
  0
ARC
  5
EA
330
1E
100
AcDbEntity
  8
1
100
AcDbCircle
 10
54.46350707659998
 20
-43.03107416000004
 30
0.0
 40
50.0
100
AcDbArc
 50
81.13401601739992
 51
81.79409019589998
  0
ARC
  5
EB
330
1E
100
AcDbEntity
  8
1
100
AcDbCircle
 10
54.46350707659998
 20
43.03107415999995
 30
0.0
 40
50.0
100
AcDbArc
 50
273.1340160174
 51
277.3548819019
  0
ARC
  5
ED
330
1E
100
AcDbEntity
  8
1
100
AcDbCircle
 10
7.399999999999997
 20
-6.600000000000015
 30
0.0
 40
1.6
100
AcDbArc
 50
270.0
 51
0.0
  0
ARC
  5
EE
330
1E
100
AcDbEntity
  8
1
100
AcDbCircle
 10
7.400000000000001
 20
6.599999999999958
 30
0.0
 40
1.6
100
AcDbArc
 50
0.0
 51
90.0
  0
ARC
  5
EF
330
1E
100
AcDbEntity
  8
1
100
AcDbCircle
 10
57.6768411227
 20
0.8229366187999215
 30
0.0
 40
0.5
100
AcDbArc
 50
45.34368484939999
 51
230.9999999999999
  0
ARC
  5
F0
330
1E
100
AcDbEntity
  8
1
100
AcDbCircle
 10
4.999999999999992
 20
-60.00000000000003
 30
0.0
 40
5.0
100
AcDbArc
 50
180.0
 51
270.0
  0
ARC
  5
F1
330
1E
100
AcDbEntity
  8
1
100
AcDbCircle
 10
5.000000000000006
 20
59.99999999999997
 30
0.0
 40
5.0
100
AcDbArc
 50
90.0
 51
180.0
  0
ARC
  5
F2
330
1E
100
AcDbEntity
  8
1
100
AcDbCircle
 10
18.26794919239999
 20
-68.00000000000003
 30
0.0
 40
3.0
100
AcDbArc
 50
30.00000000000005
 51
90.0
  0
ARC
  5
F3
330
1E
100
AcDbEntity
  8
1
100
AcDbCircle
 10
18.26794919240001
 20
67.99999999999997
 30
0.0
 40
3.0
100
AcDbArc
 50
270.0
 51
330.0000000000001
  0
ARC
  5
F4
330
1E
100
AcDbEntity
  8
1
100
AcDbCircle
 10
29.61288198199998
 20
-75.65000000000004
 30
0.0
 40
3.0
100
AcDbArc
 50
210.0
 51
270.0
  0
ARC
  5
F5
330
1E
100
AcDbEntity
  8
1
100
AcDbCircle
 10
29.61288198200001
 20
75.64999999999999
 30
0.0
 40
3.0
100
AcDbArc
 50
90.0
 51
150.0
  0
LWPOLYLINE
  5
F6
330
1E
100
AcDbEntity
  8
1
100
AcDbPolyline
 90
       12
 70
     0
 43
0.0
 10
62.5380971151
 20
2.577747030299961
 10
62.51345964228828
 20
2.354259958721683
 10
62.4865424728651
 20
2.131033012716592
 10
62.45761300623049
 20
1.910178056652802
 10
62.42700419018829
 20
1.693794663258472
 10
62.395125486391
 20
1.483968652585341
 10
62.3621086204887
 20
1.280702912045942
 10
62.32807926877271
 20
1.083999105240093
 10
62.2935411495801
 20
0.8959236239440587
 10
62.25866945373589
 20
0.7164641060064631
 10
62.2236313030709
 20
0.5456107474719731
 10
62.2144842342336
 20
0.5024521435752911
  0
LWPOLYLINE
  5
104
330
1E
100
AcDbEntity
  8
1
100
AcDbPolyline
 90
        2
 70
     0
 43
0.0
 10
62.9907317326
 20
6.884277746199972
 10
61.6000097425103
 20
6.611582867682963
  0
LWPOLYLINE
  5
108
330
1E
100
AcDbEntity
  8
1
100
AcDbPolyline
 90
       86
 70
     0
 43
0.0
 10
62.4662692723
 20
-1.894350756000003
 10
62.48925693489838
 20
-2.124637041787863
 10
62.5094029669119
 20
-2.350141581117334
 10
62.527209604816
 20
-2.575841776683683
 10
62.542315673014
 20
-2.796694797604593
 10
62.5548252961587
 20
-3.012670950610924
 10
62.56461347064949
 20
-3.218714494173175
 10
62.5720792671474
 20
-3.419820794596505
 10
62.57718420480021
 20
-3.610934970925143
 10
62.5802090053455
 20
-3.797061813401845
 10
62.581209852477
 20
-3.973148009885313
 10
62.58040620684628
 20
-4.139173124956136
 10
62.578012603582
 20
-4.295119469302156
 10
62.57424884752579
 20
-4.440973677801534
 10
62.5691231253641
 20
-4.581751908046462
 10
62.5629642613642
 20
-4.712416443759546
 10
62.55599742662059
 20
-4.832962534942084
 10
62.54808622877281
 20
-4.948408292637666
 10
62.5397286031495
 20
-5.053731294435813
 10
62.53069076017371
 20
-5.153948002118064
 10
62.5210549362956
 20
-5.249053224516736
 10
62.5115028363174
 20
-5.334048347285973
 10
62.50164914110699
 20
-5.413942182943534
 10
62.4915930760547
 20
-5.488737125080084
 10
62.48144286919039
 20
-5.558439333119566
 10
62.47130513760549
 20
-5.623054940679226
 10
62.4604305217022
 20
-5.687550751732415
 10
62.4496910694706
 20
-5.746963569267196
 10
62.4392068631123
 20
-5.801305603443454
 10
62.4291065880245
 20
-5.850594470311135
 10
62.418426828597
 20
-5.899761891723554
 10
62.40828052449799
 20
-5.943892968025586
 10
62.3975902660367
 20
-5.987895370556266
 10
62.387601230523
 20
-6.026888229837645
 10
62.3771192175366
 20
-6.065751844655415
 10
62.3675123043362
 20
-6.099636865346695
 10
62.3574717227075
 20
-6.133396191959894
 10
62.3469698620564
 20
-6.167016372769225
 10
62.3375729752299
 20
-6.195707573701345
 10
62.3277835052505
 20
-6.224266770205575
 10
62.31757519716129
 20
-6.252679166080345
 10
62.3087291878117
 20
-6.276233173028983
 10
62.2995539265184
 20
-6.299662006830185
 10
62.2900248819231
 20
-6.322948848932756
 10
62.2801173238282
 20
-6.346076704978024
 10
62.26980652203589
 20
-6.369028580607314
 10
62.26125049519871
 20
-6.387251454290364
 10
62.25240221998149
 20
-6.405335524352916
 10
62.2432407614447
 20
-6.423262484016243
 10
62.2337451381502
 20
-6.441013972513836
 10
62.2238943686602
 20
-6.458571629079205
 10
62.2136674255904
 20
-6.475917008874996
 10
62.20573559498419
 20
-6.488771780382295
 10
62.1975644170631
 20
-6.501476088219855
 10
62.18913986549829
 20
-6.514012717828064
 10
62.1804479139611
 20
-6.526364454647335
 10
62.1714745361227
 20
-6.538514084118085
 10
62.1622057056542
 20
-6.550444391680712
 10
62.1526269013424
 20
-6.562135695518624
 10
62.1427207958256
 20
-6.573554323704483
 10
62.13246907385951
 20
-6.584661679202116
 10
62.12185341910011
 20
-6.595419159492906
 10
62.1108555152036
 20
-6.605788162058195
 10
62.09945704617972
 20
-6.615730083753895
 10
62.0916276508103
 20
-6.622099641079814
 10
62.0836127463909
 20
-6.628240026631345
 10
62.07541258451978
 20
-6.634129762007265
 10
62.06702741679549
 20
-6.639747368806394
 10
62.0584574948165
 20
-6.645071368627543
 10
62.04970307018121
 20
-6.650080283069515
 10
62.040764394488
 20
-6.654752633731105
 10
62.03164178649939
 20
-6.659066959368005
 10
62.02234124969368
 20
-6.663003250882253
 10
62.01287871095701
 20
-6.666544034085255
 10
62.0032710954643
 20
-6.669672089798946
 10
61.99353532839118
 20
-6.672370198845264
 10
61.98368833491278
 20
-6.674621142046175
 10
61.9737470402046
 20
-6.676407700223605
 10
61.9637284432258
 20
-6.677712883725895
 10
61.9536530013584
 20
-6.678530461335463
 10
61.94354603931738
 20
-6.678869343095673
 10
61.93343324774041
 20
-6.678739577357825
 10
61.92334031726449
 20
-6.678151212473215
 10
61.9132929385272
 20
-6.677114296793141
 10
61.90331680216569
 20
-6.675638878668916
 10
61.89837329753671
 20
-6.674741763626545
  0
LWPOLYLINE
  5
160
330
1E
100
AcDbEntity
  8
1
100
AcDbPolyline
 90
        2
 70
     0
 43
0.0
 10
61.8983634782
 20
-6.674739871300015
 10
58.61675567728621
 20
-6.042167170135384
  0
LWPOLYLINE
  5
164
330
1E
100
AcDbEntity
  8
1
100
AcDbPolyline
 90
        2
 70
     0
 43
0.0
 10
62.0136346548
 20
2.412179959899951
 10
58.3606629400319
 20
0.8544289861625365
  0
LWPOLYLINE
  5
168
330
1E
100
AcDbEntity
  8
1
100
AcDbPolyline
 90
        2
 70
     0
 43
0.0
 10
58.3606537416
 20
0.8544250633000203
 10
57.9120050086018
 20
0.6630874508330265
  0
LWPOLYLINE
  5
16C
330
1E
100
AcDbEntity
  8
1
100
AcDbPolyline
 90
       32
 70
     0
 43
0.0
 10
62.9936091802
 20
-6.911654830900045
 10
62.9928532581466
 20
-6.909777358987203
 10
62.99122218810119
 20
-6.908497674881143
 10
62.98896785862921
 20
-6.907654797319594
 10
62.9863421582962
 20
-6.907087745040283
 10
62.98225371524122
 20
-6.906405067017615
 10
62.97966618637921
 20
-6.905908302652085
 10
62.9772002670874
 20
-6.905367924887734
 10
62.9748434979125
 20
-6.904788919743996
 10
62.972583419401
 20
-6.904176273240243
 10
62.9704075720997
 20
-6.903534971395915
 10
62.9683034965551
 20
-6.902870000230394
 10
62.9662587333139
 20
-6.902186345763114
 10
62.9632755439668
 20
-6.901136739788813
 10
62.95938926300109
 20
-6.899718409781345
 10
62.95453798284991
 20
-6.897971286708996
 10
62.9515608155027
 20
-6.896964674113546
 10
62.9485193289981
 20
-6.895994607296565
 10
62.9454191868748
 20
-6.895058159079866
 10
62.9412042590604
 20
-6.893856777757556
 10
62.93690866360759
 20
-6.892702972514574
 10
62.9325458913831
 20
-6.891589777453104
 10
62.92701851126
 20
-6.890244779584065
 10
62.91581749573289
 20
-6.887658070349125
 10
62.9012553322274
 20
-6.884351077222035
 10
62.8902067773976
 20
-6.881768773917675
 10
62.8749201976135
 20
-6.878110961678144
 10
62.8141848986077
 20
-6.863652544100245
 10
62.6838402858189
 20
-6.834674457647876
 10
62.45026300776451
 20
-6.785039650701706
 10
62.0744334501161
 20
-6.709059959646376
 10
61.8983722117823
 20
-6.674741554536784
  0
LWPOLYLINE
  5
18E
330
1E
100
AcDbEntity
  8
1
100
AcDbPolyline
 90
        2
 70
     0
 43
0.0
 10
57.42933460799999
 20
0.4719119967999678
 10
57.9119865095799
 20
0.6630798538740345
  0
LWPOLYLINE
  5
192
330
1E
100
AcDbEntity
  8
1
100
AcDbPolyline
 90
        2
 70
     0
 43
0.0
 10
58.6167458581
 20
-6.042165277100035
 10
58.10491793813429
 20
-5.955741904096735
  0
LWPOLYLINE
  5
196
330
1E
100
AcDbEntity
  8
1
100
AcDbPolyline
 90
       76
 70
     0
 43
0.0
 10
62.50218319369999
 20
-68.96641244500004
 10
62.48963796470499
 20
-68.96860328409694
 10
62.47818102530378
 20
-68.97455642471374
 10
62.4677518750995
 20
-68.98334280184004
 10
62.45829001369489
 20
-68.99403335046473
 10
62.44973494069277
 20
-69.00569900557742
 10
62.44202322244021
 20
-69.01755072822133
 10
62.43507837909039
 20
-69.02942227092724
 10
62.42882030502659
 20
-69.04132047110763
 10
62.4231688944878
 20
-69.05325217305821
 10
62.41804404171301
 20
-69.06522422107464
 10
62.41336564094119
 20
-69.07724345945263
 10
62.4090535864115
 20
-69.08931673248765
 10
62.4030971724686
 20
-69.10754292891905
 10
62.39569330608
 20
-69.13209700267493
 10
62.38680352284371
 20
-69.16321169101664
 10
62.3766212942549
 20
-69.20106747129692
 10
62.36698441595029
 20
-69.23935204429383
 10
62.35790951315251
 20
-69.27792091608013
 10
62.34941321108401
 20
-69.31662959272805
 10
62.34150063742738
 20
-69.35535671728816
 10
62.33412610616339
 20
-69.39408318733632
 10
62.3261228404732
 20
-69.43927543172693
 10
62.3176518053404
 20
-69.49095646315081
 10
62.30786898288579
 20
-69.55563860986593
 10
62.2952224638627
 20
-69.64640959357142
 10
62.28275890914478
 20
-69.74392770446325
 10
62.2706064893876
 20
-69.84815648430743
 10
62.25821917939771
 20
-69.96555122163105
 10
62.24587834051849
 20
-70.09607767294543
 10
62.23277083261359
 20
-70.25282703429474
 10
62.21941158210809
 20
-70.43586191562574
 10
62.20635177511798
 20
-70.64521654401582
 10
62.19446715157022
 20
-70.87433463768412
 10
62.1838668003027
 20
-71.12975162425323
 10
62.17508494545989
 20
-71.41147091549071
 10
62.16880975763221
 20
-71.71292827949175
 10
62.16551306352169
 20
-72.02754225543393
 10
62.16547895976781
 20
-72.34872788447154
 10
62.16870765465369
 20
-72.66334254329231
 10
62.17491495109371
 20
-72.96480132299014
 10
62.18362914647928
 20
-73.24652278128282
 10
62.19416169043679
 20
-73.50194248207834
 10
62.20635177511789
 20
-73.73760834597894
 10
62.21941158210809
 20
-73.94696297436893
 10
62.23277083261299
 20
-74.12999785570021
 10
62.2458783405171
 20
-74.28674721704971
 10
62.2582191793965
 20
-74.41727366836405
 10
62.2706064893881
 20
-74.53466840568715
 10
62.28275890914689
 20
-74.63889718553064
 10
62.29522246386429
 20
-74.73641529642264
 10
62.30786898288349
 20
-74.82718628012955
 10
62.31765180533368
 20
-74.89186842684604
 10
62.32612284046428
 20
-74.94354945827064
 10
62.33412610615459
 20
-74.98874170266112
 10
62.34150063742109
 20
-75.02746817270853
 10
62.34941321108318
 20
-75.06619529726684
 10
62.35790951315999
 20
-75.10490397391193
 10
62.36698441596721
 20
-75.14347284569514
 10
62.3766212942796
 20
-75.18175741868943
 10
62.38680352287229
 20
-75.21961319896847
 10
62.395693306107
 20
-75.25072788731084
 10
62.40309717249068
 20
-75.27528196106861
 10
62.40905358642899
 20
-75.29350815750224
 10
62.4133656409556
 20
-75.30558143053905
 10
62.4180440417242
 20
-75.31760066891873
 10
62.42316889449589
 20
-75.32957271693693
 10
62.42882030503199
 20
-75.34150441888924
 10
62.4350783790935
 20
-75.35340261907106
 10
62.44202322244138
 20
-75.36527416177813
 10
62.44973494069277
 20
-75.37712588442271
 10
62.45829001369429
 20
-75.38879153953574
 10
62.46775187509888
 20
-75.39948208816051
 10
62.47818102530349
 20
-75.40826846528651
 10
62.4896379647049
 20
-75.41422160590323
 10
62.50217319403422
 20
-75.41641244363521
  0
LWPOLYLINE
  5
1E4
330
1E
100
AcDbEntity
  8
1
100
AcDbPolyline
 90
        2
 70
     0
 43
0.0
 10
62.99360918019999
 20
-78.61024497390001
 10
62.99073176107548
 20
-66.69301345425942
  0
LWPOLYLINE
  5
1E8
330
1E
100
AcDbEntity
  8
1
100
AcDbPolyline
 90
       54
 70
     0
 43
0.0
 10
62.53809711509999
 20
-65.77257991610003
 10
62.53051456922438
 20
-65.75739384119294
 10
62.522145118803
 20
-65.74114064135604
 10
62.51356947621829
 20
-65.72499326437682
 10
62.5047927445123
 20
-65.70895278192544
 10
62.49517175367529
 20
-65.69188638847115
 10
62.48533205533699
 20
-65.67494525391244
 10
62.474602294518
 20
-65.65701420226314
 10
62.46363704341479
 20
-65.63922788608945
 10
62.45244171424289
 20
-65.62158652613025
 10
62.44030061145179
 20
-65.60300164328821
 10
62.4279123279016
 20
-65.58458088772915
 10
62.41528332192839
 20
-65.56632451175534
 10
62.40165568373869
 20
-65.54717380800453
 10
62.38777114853021
 20
-65.52820842516192
 10
62.37284341827781
 20
-65.50839116610344
 10
62.35764369275269
 20
-65.48878185419413
 10
62.34135798695549
 20
-65.46836594549311
 10
62.3247860144716
 20
-65.44818211186783
 10
62.30793454291279
 20
-65.42823117618254
 10
62.28994709106409
 20
-65.40753425046213
 10
62.27166658824488
 20
-65.38709600531894
 10
62.25220857296998
 20
-65.36596331737794
 10
62.23244369018829
 20
-65.34511740817754
 10
62.21146030010479
 20
-65.32363223458393
 10
62.19015734324019
 20
-65.30246413759326
 10
62.16854188419739
 20
-65.28161534960682
 10
62.14662094759888
 20
-65.26108811878673
 10
62.12440118607251
 20
-65.24088492044592
 10
62.1018886204644
 20
-65.22100861568275
 10
62.0800863715392
 20
-65.20230505557252
 10
62.05802668063419
 20
-65.18390596343514
 10
62.03571410360549
 20
-65.16581447278113
 10
62.01315313899771
 20
-65.14803376912481
 10
61.990348147961
 20
-65.13056722421215
 10
61.9683557937185
 20
-65.11419120797625
 10
61.94614819040078
 20
-65.09810835188284
 10
61.92372870230318
 20
-65.08232223034984
 10
61.9011004727551
 20
-65.06683689020154
 10
61.87935855009229
 20
-65.05237236446382
 10
61.85743274530979
 20
-65.03818811623755
 10
61.8353255544077
 20
-65.02428831848895
 10
61.81415796221958
 20
-65.01135086624834
 10
61.79283100709828
 20
-64.99867774607455
 10
61.77134677567419
 20
-64.98627319687464
 10
61.74970734830498
 20
-64.97414158145175
 10
61.72906554602048
 20
-64.96290425266543
 10
61.70828793733729
 20
-64.95192001389604
 10
61.68737611364671
 20
-64.94119316045561
 10
61.66633170144889
 20
-64.93072803782464
 10
61.64633652376608
 20
-64.92108908808106
 10
61.62622687733911
 20
-64.91169251668513
 10
61.60600471231349
 20
-64.90254283229524
 10
61.60004495231289
 20
-64.89990340549415
  0
LWPOLYLINE
  5
220
330
1E
100
AcDbEntity
  8
1
100
AcDbPolyline
 90
        8
 70
     0
 43
0.0
 10
61.96351537119999
 20
-79.61024497220001
 10
61.95347639931078
 20
-79.61019429936971
 10
61.94324185650279
 20
-79.61003929075094
 10
61.93287840324571
 20
-79.60977752412855
 10
61.92238762770777
 20
-79.60940664856181
 10
61.91170612109729
 20
-79.60892109921491
 10
61.90083584241018
 20
-79.60831670951282
 10
61.89837345844189
 20
-79.60816450642221
  0
LWPOLYLINE
  5
22A
330
1E
100
AcDbEntity
  8
1
100
AcDbPolyline
 90
        2
 70
     0
 43
0.0
 10
61.8983634782
 20
-79.60816387810004
 10
58.61675583833118
 20
-79.40153152827905
  0
LWPOLYLINE
  5
22E
330
1E
100
AcDbEntity
  8
1
100
AcDbPolyline
 90
        2
 70
     0
 43
0.0
 10
58.6167458581
 20
-79.4015308998
 10
58.10491495301609
 20
-78.86072616874293
  0
LWPOLYLINE
  5
232
330
1E
100
AcDbEntity
  8
1
100
AcDbPolyline
 90
      118
 70
     0
 43
0.0
 10
62.99360918019999
 20
-78.61024497390001
 10
62.99349556110049
 20
-78.62297875978322
 10
62.99321504735689
 20
-78.63571296754445
 10
62.99276783907348
 20
-78.64844502718653
 10
62.99215413635459
 20
-78.66117236871254
 10
62.99137413930449
 20
-78.67389242212545
 10
62.99042804802748
 20
-78.68660261742802
 10
62.98931606262799
 20
-78.69930038462334
 10
62.9880383832102
 20
-78.71198315371424
 10
62.98659520987849
 20
-78.72464835470366
 10
62.98498674273709
 20
-78.73729341759454
 10
62.9832131821444
 20
-78.74991577281744
 10
62.98127481792739
 20
-78.76251300142364
 10
62.97917216074861
 20
-78.77508305624063
 10
62.97690575474318
 20
-78.78762394644734
 10
62.97447614404579
 20
-78.80013368122201
 10
62.97188387279169
 20
-78.81261026974354
 10
62.96912948511568
 20
-78.82505172119033
 10
62.96621352515279
 20
-78.83745604474113
 10
62.96313653703789
 20
-78.84982124957445
 10
62.95989906490619
 20
-78.86214534486895
 10
62.9565016528925
 20
-78.87442633980322
 10
62.95294484679779
 20
-78.88666224357414
 10
62.94922930514712
 20
-78.89885106662247
 10
62.94535586894959
 20
-78.91099082140184
 10
62.9413253958556
 20
-78.92307952054962
 10
62.93713874351529
 20
-78.93511517670325
 10
62.93279676957911
 20
-78.94709580250005
 10
62.92830033169721
 20
-78.95901941057734
 10
62.92365028751999
 20
-78.97088401357243
 10
62.9188474946978
 20
-78.98268762412273
 10
62.91389281088078
 20
-78.99442825486561
 10
62.90878709371939
 20
-79.00610391843847
 10
62.90353120620401
 20
-79.01771263186204
 10
62.89812613853049
 20
-79.02925251657473
 10
62.89257301058399
 20
-79.04072180047148
 10
62.8868729480866
 20
-79.05211871623804
 10
62.88028614672739
 20
-79.06485154343193
 10
62.87351640890388
 20
-79.07748802660314
 10
62.86656533745059
 20
-79.09002564940012
 10
62.8594345352022
 20
-79.10246189547175
 10
62.85212560499338
 20
-79.11479424846655
 10
62.84464014965887
 20
-79.12702019203312
 10
62.83697977921288
 20
-79.13913721656554
 10
62.82914625538859
 20
-79.15114295500524
 10
62.82114148454351
 20
-79.16303517617414
 10
62.8129673787941
 20
-79.17481165430562
 10
62.8046258502573
 20
-79.1864701636331
 10
62.79611881104959
 20
-79.19800847839005
 10
62.78744817328789
 20
-79.20942437280962
 10
62.77762458214851
 20
-79.22196241338344
 10
62.76760400105448
 20
-79.23434351670045
 10
62.75738905398939
 20
-79.24656463102701
 10
62.74698247221517
 20
-79.25862285183725
 10
62.73638718533329
 20
-79.27051554676582
 10
62.7256061443947
 20
-79.28224011288097
 10
62.71464230045078
 20
-79.29379394725112
 10
62.70349860455278
 20
-79.30517444694483
 10
62.69217800775188
 20
-79.31637900903047
 10
62.68068346109929
 20
-79.32740503057634
 10
62.66901791564639
 20
-79.33824990865099
 10
62.65718433448059
 20
-79.34891106218415
 10
62.64518582267939
 20
-79.35938616799955
 10
62.63302557791821
 20
-79.36967307110484
 10
62.6207067994607
 20
-79.37976961939298
 10
62.60823268657079
 20
-79.38967366075665
 10
62.59560643851227
 20
-79.39938304308874
 10
62.58283125454889
 20
-79.40889561428223
 10
62.57120889297478
 20
-79.41728687611622
 10
62.55947081698469
 20
-79.42551540883491
 10
62.54761936901569
 20
-79.43357967082613
 10
62.53565696833739
 20
-79.44147832645484
 10
62.52358606930997
 20
-79.44921013415845
 10
62.5114091264736
 20
-79.45677385285671
 10
62.49912859436859
 20
-79.46416824146983
 10
62.48674692753509
 20
-79.47139205891755
 10
62.4742665805132
 20
-79.47844406411984
 10
62.46169000784329
 20
-79.48532301599661
 10
62.44901966406549
 20
-79.49202767346804
 10
62.43625800377071
 20
-79.49855679560734
 10
62.42340750716879
 20
-79.50490921913034
 10
62.41047072164761
 20
-79.51108398434512
 10
62.39745020547228
 20
-79.51708016452563
 10
62.38434851690789
 20
-79.52289683294513
 10
62.37116821421979
 20
-79.52853306287746
 10
62.35791185567299
 20
-79.53398792759604
 10
62.34458199953269
 20
-79.53926050037464
 10
62.33118120406409
 20
-79.54434985448672
 10
62.31921190000149
 20
-79.54871916242922
 10
62.30719036318199
 20
-79.55294232268814
 10
62.2951183878875
 20
-79.55701875801914
 10
62.28299776400047
 20
-79.56094802232264
 10
62.2708302809436
 20
-79.56472968321874
 10
62.25861772813919
 20
-79.56836330832733
 10
62.24636189500968
 20
-79.57184846526844
 10
62.23406457097759
 20
-79.57518472166184
 10
62.22172754546527
 20
-79.57837164512762
 10
62.2093526078954
 20
-79.58140880328572
 10
62.19694154769019
 20
-79.58429576375611
 10
62.18449615427209
 20
-79.58703209415874
 10
62.17201821865419
 20
-79.58961736363054
 10
62.15950960945939
 20
-79.59205121534184
 10
62.14697230635
 20
-79.59433339838371
 10
62.13440829753398
 20
-79.59646366999963
 10
62.12181957121939
 20
-79.59844178743274
 10
62.10920811561461
 20
-79.60026750792654
 10
62.0965759189276
 20
-79.60194058872424
 10
62.08392496936649
 20
-79.60346078706921
 10
62.0712572551395
 20
-79.60482786020484
 10
62.05857476445468
 20
-79.60604156537434
 10
62.04587948552021
 20
-79.60710165982114
 10
62.03317340431778
 20
-79.60800790443155
 10
62.02045842412768
 20
-79.60876019541524
 10
62.00773634297308
 20
-79.60935860121224
 10
61.99500895205749
 20
-79.60980320142184
 10
61.98227804258419
 20
-79.61009407564325
 10
61.96954540575646
 20
-79.61023130347593
 10
61.9647805872
 20
-79.61024316591495
  0
LWPOLYLINE
  5
2AA
330
1E
100
AcDbEntity
  8
1
100
AcDbPolyline
 90
        2
 70
     0
 43
0.0
 10
62.0136346548
 20
-77.68982143570001
 10
62.01075718355617
 20
-65.77258991607203
  0
LWPOLYLINE
  5
2AE
330
1E
100
AcDbEntity
  8
1
100
AcDbPolyline
 90
       77
 70
     0
 43
0.0
 10
62.50218319369999
 20
-75.41641244500005
 10
62.51472842269509
 20
-75.41422160590323
 10
62.52618536209659
 20
-75.40826846528651
 10
62.53661451230109
 20
-75.39948208816051
 10
62.54607637370568
 20
-75.38879153953574
 10
62.55463144670719
 20
-75.37712588442271
 10
62.56234316495858
 20
-75.36527416177813
 10
62.5692880083065
 20
-75.35340261907106
 10
62.57554608236799
 20
-75.34150441888924
 10
62.581197492904
 20
-75.32957271693693
 10
62.58632234567578
 20
-75.31760066891873
 10
62.59100074644439
 20
-75.30558143053905
 10
62.59531280097089
 20
-75.29350815750224
 10
62.60126921490929
 20
-75.27528196106873
 10
62.60867308129299
 20
-75.25072788731084
 10
62.6175628645277
 20
-75.21961319896854
 10
62.62774509312048
 20
-75.18175741868965
 10
62.63738197143299
 20
-75.14347284569523
 10
62.64645687424009
 20
-75.10490397391215
 10
62.65495317631678
 20
-75.06619529726704
 10
62.66286574997838
 20
-75.02746817270871
 10
62.67024028124429
 20
-74.98874170266134
 10
62.678243546934
 20
-74.94354945827085
 10
62.68671458206428
 20
-74.89186842684623
 10
62.6964974045155
 20
-74.82718628012984
 10
62.70914392353919
 20
-74.73641529642346
 10
62.72160747826209
 20
-74.63889718553204
 10
62.73375989801968
 20
-74.53466840568845
 10
62.746147207991
 20
-74.41727366836374
 10
62.75848804682889
 20
-74.28674721704604
 10
62.77159555469159
 20
-74.12999785569282
 10
62.7849548052082
 20
-73.94696297436195
 10
62.79801461226119
 20
-73.73760834597622
 10
62.80989923584609
 20
-73.50849025231084
 10
62.82049958710189
 20
-73.25307326574113
 10
62.8292814419349
 20
-72.97135397450313
 10
62.83555662976649
 20
-72.66989661050273
 10
62.838853323878
 20
-72.35528263456084
 10
62.83888742763338
 20
-72.0340970055232
 10
62.83565873274818
 20
-71.71948234670274
 10
62.82945143630261
 20
-71.41802356700556
 10
62.8207372409242
 20
-71.13630210871251
 10
62.81020469697878
 20
-70.88088240791643
 10
62.7980146122611
 20
-70.64521654401852
 10
62.7849548052082
 20
-70.43586191563273
 10
62.77159555469099
 20
-70.25282703430203
 10
62.75848804682739
 20
-70.09607767294913
 10
62.74614720798979
 20
-69.96555122163134
 10
62.73375989802019
 20
-69.84815648430604
 10
62.72160747826429
 20
-69.74392770446181
 10
62.70914392354088
 20
-69.64640959357054
 10
62.6964974045131
 20
-69.55563860986552
 10
62.68671458205758
 20
-69.49095646315054
 10
62.678243546925
 20
-69.43927543172671
 10
62.6702402812355
 20
-69.39408318733613
 10
62.66286574997199
 20
-69.35535671728785
 10
62.65495317631589
 20
-69.31662959272772
 10
62.64645687424771
 20
-69.27792091607982
 10
62.63738197144989
 20
-69.23935204429364
 10
62.62774509314528
 20
-69.20106747129664
 10
62.61756286455629
 20
-69.16321169101642
 10
62.60867308131988
 20
-69.13209700267481
 10
62.60126921493128
 20
-69.10754292891884
 10
62.59531280098839
 20
-69.08931673248753
 10
62.5910007464587
 20
-69.07724345945253
 10
62.5863223456869
 20
-69.06522422107464
 10
62.58119749291211
 20
-69.05325217305814
 10
62.57554608237328
 20
-69.04132047110754
 10
62.56928800830948
 20
-69.02942227092714
 10
62.56234316495968
 20
-69.01755072822133
 10
62.55463144670709
 20
-69.00569900557742
 10
62.54607637370509
 20
-68.99403335046473
 10
62.53661451230049
 20
-68.98334280183994
 10
62.5261853620961
 20
-68.97455642471374
 10
62.514728422695
 20
-68.96860328409694
 10
62.50218319369999
 20
-68.96641244500004
 10
62.50219319336578
 20
-68.96641244636484
  0
LWPOLYLINE
  5
2FD
330
1E
100
AcDbEntity
  8
1
100
AcDbPolyline
 90
       61
 70
     0
 43
0.0
 10
62.42915953759999
 20
-75.33548013840004
 10
62.43443780229378
 20
-75.32398357499824
 10
62.43931808704259
 20
-75.31231591863384
 10
62.44384843386018
 20
-75.30050038053234
 10
62.44807688476019
 20
-75.28856017191893
 10
62.45395859817017
 20
-75.27046687634411
 10
62.45943128209319
 20
-75.25222363525964
 10
62.46804962134329
 20
-75.22168090891724
 10
62.47624791685299
 20
-75.19106280938922
 10
62.4855623161368
 20
-75.15422624139874
 10
62.49433365176559
 20
-75.11728777238961
 10
62.50259166356409
 20
-75.08024906485747
 10
62.51036609135678
 20
-75.04311178129754
 10
62.5188651451385
 20
-74.99966319858375
 10
62.52679964510459
 20
-74.95609437212611
 10
62.535248551556
 20
-74.90617519014282
 10
62.54406476190471
 20
-74.84988454160123
 10
62.5540183383827
 20
-74.78094496947922
 10
62.56649678848789
 20
-74.68679389713694
 10
62.57870490066178
 20
-74.58625876612356
 10
62.59121046948671
 20
-74.47303635707664
 10
62.60374461296638
 20
-74.34709569184173
 10
62.61660459656757
 20
-74.20210628520745
 10
62.62939020112729
 20
-74.03804695984671
 10
62.64258649060099
 20
-73.84229013525132
 10
62.65517014002028
 20
-73.62114026498374
 10
62.66660629051768
 20
-73.37458441050566
 10
62.67637651105928
 20
-73.10262161887641
 10
62.68381800193919
 20
-72.81159197324395
 10
62.68854722893021
 20
-72.50151834433454
 10
62.69011070717528
 20
-72.18508364559504
 10
62.68841686463598
 20
-71.86864962046733
 10
62.68355591266439
 20
-71.55857802428404
 10
62.67598439900099
 20
-71.26755165156314
 10
62.6663446260787
 20
-71.00191709973784
 10
62.6548424029902
 20
-70.75536435172164
 10
62.64219202739629
 20
-70.53421813708554
 10
62.62892949736261
 20
-70.33846548066114
 10
62.61607736309088
 20
-70.17441167280832
 10
62.6031491577955
 20
-70.02942892228121
 10
62.59054758892748
 20
-69.90349521205603
 10
62.57797315008978
 20
-69.79027964775411
 10
62.56569726498931
 20
-69.68975105780853
 10
62.55314561999838
 20
-69.59560784844071
 10
62.54311769467379
 20
-69.52667997675654
 10
62.53422586891911
 20
-69.47040322246974
 10
62.52569857823811
 20
-69.42049965581865
 10
62.51768686776109
 20
-69.37694701345894
 10
62.50910267350729
 20
-69.33351678643854
 10
62.50124971364579
 20
-69.29639581676553
 10
62.4929082131412
 20
-69.25937370020284
 10
62.48404843216879
 20
-69.22245209924574
 10
62.47464063090411
 20
-69.18563267638984
 10
62.46636071409
 20
-69.15502907613431
 10
62.45764249308678
 20
-69.12450834943874
 10
62.45205148175659
 20
-69.10630638598134
 10
62.44599739367399
 20
-69.08828048066215
 10
62.44162400006699
 20
-69.07639970590153
 10
62.4369246895355
 20
-69.06465520726543
 10
62.43185142006589
 20
-69.05307019597914
 10
62.4291638774131
 20
-69.04735376081244
  0
LWPOLYLINE
  5
33C
330
1E
100
AcDbEntity
  8
1
100
AcDbPolyline
 90
      141
 70
     0
 43
0.0
 10
62.4662692723
 20
-78.61024497390001
 10
62.47384445433079
 20
-78.62589630952903
 10
62.48122090674119
 20
-78.64164507060404
 10
62.4878485701059
 20
-78.65626759244904
 10
62.4942974614006
 20
-78.67097072448351
 10
62.50056304927049
 20
-78.68575331316782
 10
62.5066408023607
 20
-78.70061420496184
 10
62.51204319829549
 20
-78.71430449100905
 10
62.51728034307428
 20
-78.72805869686934
 10
62.52234811436549
 20
-78.74187583523324
 10
62.52724225307699
 20
-78.75575489741504
 10
62.53153721327759
 20
-78.76842511343413
 10
62.53568195564679
 20
-78.78114491469673
 10
62.5396732802648
 20
-78.79391354336201
 10
62.54350798721159
 20
-78.80673024158962
 10
62.54718281604539
 20
-78.81959419691473
 10
62.55069399303868
 20
-78.83250413361152
 10
62.55371079728099
 20
-78.84416114341222
 10
62.55658883621748
 20
-78.85585307417205
 10
62.55932516878278
 20
-78.86757882438745
 10
62.56191685391151
 20
-78.87933729255471
 10
62.56436095053839
 20
-78.89112737717038
 10
62.5666545053235
 20
-78.90294796132893
 10
62.56856424892671
 20
-78.91347959361661
 10
62.57035007408171
 20
-78.92403294959113
 10
62.57200954081671
 20
-78.93460678588898
 10
62.57354020916029
 20
-78.94519985914654
 10
62.57493963914079
 20
-78.95581092600044
 10
62.57620539078659
 20
-78.96643874308697
 10
62.57733502410927
 20
-78.97708206700511
 10
62.57832603992721
 20
-78.98773952053175
 10
62.57917574691241
 20
-78.99840929204943
 10
62.5798011767857
 20
-79.00775395338854
 10
62.58031449768639
 20
-79.01710531871924
 10
62.58071388056219
 20
-79.02646211545532
 10
62.58099749636089
 20
-79.03582307101061
 10
62.58116351603028
 20
-79.04518691279894
 10
62.5812101083661
 20
-79.05455235012943
 10
62.58113540850889
 20
-79.06391780919962
 10
62.58093752492899
 20
-79.07328149184943
 10
62.5806145653652
 20
-79.08264159376395
 10
62.58016463755589
 20
-79.09199631062833
 10
62.5795858492399
 20
-79.10134383812795
 10
62.57898574815778
 20
-79.10934891470654
 10
62.57828839235378
 20
-79.11734624672615
 10
62.57749261582111
 20
-79.12533458696905
 10
62.57659730529899
 20
-79.13331245975683
 10
62.57560135407559
 20
-79.14127836104734
 10
62.57450365543878
 20
-79.14923078679804
 10
62.57330310267689
 20
-79.15716823296664
 10
62.5719985890776
 20
-79.16508919551084
 10
62.5705890079292
 20
-79.17299217038814
 10
62.56907326013418
 20
-79.18087564264904
 10
62.56745037382678
 20
-79.18873791509932
 10
62.56571948236079
 20
-79.19657713982833
 10
62.56387972225327
 20
-79.20439146439523
 10
62.5619302300211
 20
-79.21217903635934
 10
62.55987014218078
 20
-79.21993800327953
 10
62.55769859524948
 20
-79.22766651271534
 10
62.5554147315351
 20
-79.23536270849155
 10
62.55301787308059
 20
-79.24302461854354
 10
62.5505075520931
 20
-79.25065013529662
 10
62.54788331270359
 20
-79.25823714348744
 10
62.5451446990429
 20
-79.26578352785323
 10
62.54229125524189
 20
-79.27328717313073
 10
62.53932252543147
 20
-79.28074596405702
 10
62.53623808776128
 20
-79.28815777831271
 10
62.53303784510489
 20
-79.29552042622344
 10
62.52972188050121
 20
-79.30283168074452
 10
62.52629027891199
 20
-79.31008931443234
 10
62.52274312529909
 20
-79.31729109984323
 10
62.51908050462422
 20
-79.32443480953384
 10
62.51530250525039
 20
-79.33151821651714
 10
62.51140943582981
 20
-79.33853912338985
 10
62.5074019561287
 20
-79.34549537990071
 10
62.50328075727539
 20
-79.35238484001054
 10
62.49904653039808
 20
-79.35920535767971
 10
62.49469996662501
 20
-79.36595478686903
 10
62.49024175744049
 20
-79.37263098170932
 10
62.48567274216821
 20
-79.37923186706604
 10
62.4809941356327
 20
-79.38575554746423
 10
62.47620721138959
 20
-79.39220015552921
 10
62.47131324299438
 20
-79.39856382388613
 10
62.46631350400249
 20
-79.40484468516034
 10
62.46120926818259
 20
-79.41104087217343
 10
62.45600192515599
 20
-79.41715062457754
 10
62.45069317170739
 20
-79.42317246526584
 10
62.4452847549531
 20
-79.42910496354395
 10
62.43977842200971
 20
-79.43494668871723
 10
62.43323294256239
 20
-79.44164539893751
 10
62.4265593487147
 20
-79.44821635139944
 10
62.4197606447975
 20
-79.45465766760671
 10
62.4138360692712
 20
-79.46007450850574
 10
62.40782401722221
 20
-79.46539412817414
 10
62.4017265426556
 20
-79.47061562087984
 10
62.39554569957668
 20
-79.47573808089105
 10
62.38928355178739
 20
-79.48076064540382
 10
62.38294223936089
 20
-79.48568278582444
 10
62.37652393812961
 20
-79.49050413025034
 10
62.3700308241311
 20
-79.49522430767894
 10
62.363465073403
 20
-79.49984294710751
 10
62.35682886198309
 20
-79.50435967753346
 10
62.3501243620095
 20
-79.50877416780433
 10
62.3433537161939
 20
-79.51308638748054
 10
62.33651905381849
 20
-79.51729644336542
 10
62.32962250409658
 20
-79.52140444296405
 10
62.32266619624149
 20
-79.52541049378144
 10
62.3156522594666
 20
-79.52931470332291
 10
62.30858281491759
 20
-79.53311719651221
 10
62.30145988438639
 20
-79.53681831279164
 10
62.29428542281787
 20
-79.54041853593475
 10
62.28706138391239
 20
-79.54391835240205
 10
62.27978972137059
 20
-79.54731824865364
 10
62.27247238889288
 20
-79.55061871114994
 10
62.26511133935339
 20
-79.55382022717564
 10
62.25770844031759
 20
-79.55692336910434
 10
62.25026540103919
 20
-79.55992886721455
 10
62.24278391357048
 20
-79.56283746894183
 10
62.2340091746587
 20
-79.56610936851913
 10
62.22518709347589
 20
-79.56925158559541
 10
62.21632035693637
 20
-79.57226530707173
 10
62.20741156998609
 20
-79.57515176169684
 10
62.19846303848189
 20
-79.57791233091545
 10
62.1894770000827
 20
-79.58054843098951
 10
62.18045569244759
 20
-79.58306147818112
 10
62.1714013532356
 20
-79.58545288875251
 10
62.16231622010571
 20
-79.58772407896574
 10
62.1532024727821
 20
-79.58987647334774
 10
62.14406194544021
 20
-79.59191154572195
 10
62.13489634467818
 20
-79.59383078811185
 10
62.12570737689129
 20
-79.59563569257014
 10
62.11649674847461
 20
-79.59732775114914
 10
62.10726616582329
 20
-79.59890845590144
 10
62.09669468219749
 20
-79.60058053752061
 10
62.08610180359658
 20
-79.60211131939093
 10
62.07548979865079
 20
-79.60350294114935
 10
62.06486092013339
 20
-79.60475753744764
 10
62.05421742081778
 20
-79.60587724293734
 10
62.04356155347721
 20
-79.60686419227032
 10
62.03289556955039
 20
-79.60772052014771
 10
62.02623491963759
 20
-79.60818968630492
  0
LWPOLYLINE
  5
3CB
330
1E
100
AcDbEntity
  8
1
100
AcDbPolyline
 90
        8
 70
     0
 43
0.0
 10
62.02622494179999
 20
-79.60819035170006
 10
62.01708094557688
 20
-79.60875347272933
 10
62.007805462125
 20
-79.60923046408362
 10
61.99839964705799
 20
-79.60961879478995
 10
61.98886476686099
 20
-79.60991598746855
 10
61.97920220272688
 20
-79.61011962186884
 10
61.96935070726379
 20
-79.61022771215825
 10
61.9635253711996
 20
-79.61024497213573
  0
LWPOLYLINE
  5
3D5
330
1E
100
AcDbEntity
  8
1
100
AcDbPolyline
 90
       76
 70
     0
 43
0.0
 10
62.01075720719999
 20
-65.77257991610003
 10
62.01072127619061
 20
-65.76115374628884
 10
62.01055949383587
 20
-65.74972650145574
 10
62.01027191612539
 20
-65.73829982021354
 10
62.00985859904829
 20
-65.72687534117505
 10
62.00931959859389
 20
-65.71545470295321
 10
62.00865497075149
 20
-65.70403954416095
 10
62.00786477151039
 20
-65.69263150341102
 10
62.00694905685999
 20
-65.68123221931634
 10
62.00590788278939
 20
-65.66984333048974
 10
62.0047413052881
 20
-65.65846647554415
 10
62.00344938034529
 20
-65.64710329309234
 10
62.00203216395038
 20
-65.63575542174715
 10
62.0004897315596
 20
-65.62442445723103
 10
61.99882225426909
 20
-65.61311178454833
 10
61.9970299324976
 20
-65.60181872409884
 10
61.99494759950749
 20
-65.58960823854405
 10
61.9927192376943
 20
-65.57742399849093
 10
61.99034510188218
 20
-65.56526768269032
 10
61.98782544689579
 20
-65.55314096989325
 10
61.98516052755929
 20
-65.54104553885014
 10
61.9823505986973
 20
-65.52898306831206
 10
61.9793959151341
 20
-65.51695523702965
 10
61.97629673169418
 20
-65.50496372375374
 10
61.9730533099177
 20
-65.49301021089373
 10
61.96966601665089
 20
-65.48109643823115
 10
61.96613530234289
 20
-65.46922419109475
 10
61.96246161974539
 20
-65.45739525606769
 10
61.95864542160989
 20
-65.44561141973331
 10
61.9546871606877
 20
-65.43387446867473
 10
61.9505872897306
 20
-65.42218618947514
 10
61.94634626148999
 20
-65.41054836871781
 10
61.94196452871739
 20
-65.39896279298584
 10
61.93744254416439
 20
-65.38743124886264
 10
61.93278076058249
 20
-65.37595552293113
 10
61.92797963650529
 20
-65.36453740030484
 10
61.92303973629109
 20
-65.35317863919414
 10
61.9179617169247
 20
-65.34188097426192
 10
61.91274623851897
 20
-65.33064613937604
 10
61.90739396118678
 20
-65.31947586840414
 10
61.9019055450409
 20
-65.30837189521403
 10
61.89628165019399
 20
-65.29733595367344
 10
61.89052293675889
 20
-65.28636977765012
 10
61.88417122907829
 20
-65.27464006019513
 10
61.87766475378479
 20
-65.26299543066274
 10
61.87100433534318
 20
-65.25143805461201
 10
61.86419083375422
 20
-65.23997009526334
 10
61.8572253190538
 20
-65.22859370201484
 10
61.85010893816841
 20
-65.21731101920464
 10
61.84284283813939
 20
-65.20612419116314
 10
61.83542816600798
 20
-65.19503536222085
 10
61.82786606881588
 20
-65.18404667670832
 10
61.82015769360429
 20
-65.17316027895605
 10
61.81230418741471
 20
-65.16237831329444
 10
61.80372996871069
 20
-65.15094453108641
 10
61.7949918731352
 20
-65.13963573169265
 10
61.78609134903251
 20
-65.12845451423553
 10
61.77702999961788
 20
-65.11740331976255
 10
61.76780946804549
 20
-65.10648454855571
 10
61.75843139746949
 20
-65.09570060089746
 10
61.74889743104409
 20
-65.08505387706964
 10
61.73920921192328
 20
-65.07454677735445
 10
61.72870694214728
 20
-65.06349580556106
 10
61.71803303080738
 20
-65.05260933902146
 10
61.70718947208388
 20
-65.04189029078914
 10
61.69617840766438
 20
-65.03134160656421
 10
61.6857059890016
 20
-65.02160971003354
 10
61.67509151021469
 20
-65.01203289889414
 10
61.66433757514848
 20
-65.00261378605064
 10
61.65344678764738
 20
-64.99335498440754
 10
61.642421751556
 20
-64.98425910686934
 10
61.63201289285028
 20
-64.97591891994844
 10
61.62149147396601
 20
-64.96772505854394
 10
61.61085961192511
 20
-64.95967964704414
 10
61.60011927390001
 20
-64.95178466960005
 10
61.60012737223939
 20
-64.95179053619104
  0
LWPOLYLINE
  5
423
330
1E
100
AcDbEntity
  8
1
100
AcDbPolyline
 90
        2
 70
     0
 43
0.0
 10
62.0136346548
 20
-77.68982143570001
 10
61.42397840521301
 20
-77.72987090714844
  0
LWPOLYLINE
  5
427
330
1E
100
AcDbEntity
  8
1
100
AcDbPolyline
 90
        2
 70
     0
 43
0.0
 10
62.9936091802
 20
78.61024497389994
 10
62.99073176107549
 20
66.69301345425935
  0
LWPOLYLINE
  5
42B
330
1E
100
AcDbEntity
  8
1
100
AcDbPolyline
 90
        8
 70
     0
 43
0.0
 10
61.96351537119999
 20
79.61024497219992
 10
61.95347639931081
 20
79.61019429936975
 10
61.9432418565028
 20
79.61003929075086
 10
61.93287840324572
 20
79.60977752412846
 10
61.92238762770781
 20
79.60940664856185
 10
61.91170612109729
 20
79.60892109921494
 10
61.90083584241021
 20
79.60831670951286
 10
61.89837345844189
 20
79.60816450642214
  0
LWPOLYLINE
  5
435
330
1E
100
AcDbEntity
  8
1
100
AcDbPolyline
 90
       36
 70
     0
 43
0.0
 10
62.53809711510001
 20
65.77257991609994
 10
62.5305528112396
 20
65.75746929637905
 10
62.52282811033079
 20
65.74244809563936
 10
62.51452742615029
 20
65.72677299692344
 10
62.50603695121149
 20
65.71119839304646
 10
62.4969436823768
 20
65.69499099451258
 10
62.48765258812849
 20
65.67889608859974
 10
62.47773345449989
 20
65.66219108729725
 10
62.4671645989618
 20
65.64489307220056
 10
62.45637757890541
 20
65.62773142345796
 10
62.4449144190499
 20
65.60999991886558
 10
62.43322544352022
 20
65.59241680292825
 10
62.42083534608259
 20
65.57428800431143
 10
62.40821312894791
 20
65.55632021431657
 10
62.39486545361859
 20
65.53783226925844
 10
62.38077114724188
 20
65.51884413370884
 10
62.36642623666689
 20
65.50004454433976
 10
62.35131156721281
 20
65.48077300174026
 10
62.33540692104611
 20
65.46105124669615
 10
62.31923514908149
 20
65.44154819476526
 10
62.30225025216459
 20
65.42162560011935
 10
62.28443242174249
 20
65.40130701240679
 10
62.26633202488151
 20
65.38124002333647
 10
62.24737664898761
 20
65.36081075670056
 10
62.2275466413826
 20
65.34004509367055
 10
62.20682274781672
 20
65.31896994771315
 10
62.18579082554249
 20
65.29820240565114
 10
62.1644576181216
 20
65.27774463353846
 10
62.142829841351
 20
65.25759880863676
 10
62.12154378081489
 20
65.23832956075985
 10
62.0999906567771
 20
65.21935937741064
 10
62.07817554555061
 20
65.20069069575544
 10
62.05675629925551
 20
65.18286210890545
 10
62.03509959867989
 20
65.16532344158156
 10
62.01321002635379
 20
65.14807796858004
 10
61.99581031275799
 20
65.13470520030615
  0
LWPOLYLINE
  5
45B
330
1E
100
AcDbEntity
  8
1
100
AcDbPolyline
 90
        2
 70
     0
 43
0.0
 10
61.8983634782
 20
79.60816387809996
 10
58.61675583833122
 20
79.40153152827895
  0
LWPOLYLINE
  5
45F
330
1E
100
AcDbEntity
  8
1
100
AcDbPolyline
 90
      118
 70
     0
 43
0.0
 10
62.9936091802
 20
78.61024497389994
 10
62.99349556110051
 20
78.62297875978317
 10
62.9932150473569
 20
78.63571296754436
 10
62.99276783907349
 20
78.64844502718645
 10
62.99215413635461
 20
78.66117236871246
 10
62.9913741393045
 20
78.67389242212536
 10
62.99042804802749
 20
78.68660261742796
 10
62.98931606262801
 20
78.69930038462325
 10
62.9880383832102
 20
78.71198315371415
 10
62.9865952098785
 20
78.72464835470357
 10
62.98498674273711
 20
78.73729341759446
 10
62.98321318214441
 20
78.74991577281736
 10
62.98127481792739
 20
78.76251300142356
 10
62.97917216074861
 20
78.77508305624058
 10
62.97690575474311
 20
78.78762394644716
 10
62.97447614404581
 20
78.80013368122192
 10
62.9718838727917
 20
78.81261026974346
 10
62.96912948511571
 20
78.82505172119028
 10
62.9662135251528
 20
78.83745604474107
 10
62.96313653703801
 20
78.84982124957435
 10
62.95989906490621
 20
78.86214534486886
 10
62.9565016528925
 20
78.87442633980317
 10
62.9529448467978
 20
78.88666224357416
 10
62.94922930514712
 20
78.89885106662245
 10
62.94535586894969
 20
78.91099082140188
 10
62.94132539585561
 20
78.92307952054967
 10
62.93713874351531
 20
78.93511517670328
 10
62.93279676957912
 20
78.94709580249996
 10
62.92830033169721
 20
78.95901941057726
 10
62.92365028752
 20
78.97088401357236
 10
62.9188474946978
 20
78.98268762412266
 10
62.91389281088078
 20
78.99442825486552
 10
62.9087870937194
 20
79.00610391843838
 10
62.90353120620391
 20
79.01771263186195
 10
62.8981261385304
 20
79.02925251657466
 10
62.89257301058401
 20
79.04072180047139
 10
62.8868729480866
 20
79.05211871623795
 10
62.88028614672739
 20
79.06485154343184
 10
62.8735164089038
 20
79.07748802660295
 10
62.8665653374505
 20
79.09002564940003
 10
62.85943453520211
 20
79.10246189547166
 10
62.85212560499338
 20
79.11479424846645
 10
62.84464014965891
 20
79.12702019203301
 10
62.83697977921289
 20
79.13913721656546
 10
62.82914625538861
 20
79.15114295500519
 10
62.82114148454351
 20
79.16303517617406
 10
62.81296737879411
 20
79.17481165430551
 10
62.8046258502573
 20
79.18647016363305
 10
62.79611881104962
 20
79.19800847838996
 10
62.7874481732879
 20
79.20942437280942
 10
62.77762458214851
 20
79.22196241338335
 10
62.76760400105449
 20
79.23434351670029
 10
62.75738905398942
 20
79.24656463102694
 10
62.74698247221522
 20
79.25862285183727
 10
62.7363871853333
 20
79.27051554676575
 10
62.72560614439471
 20
79.28224011288088
 10
62.71464230045079
 20
79.29379394725103
 10
62.70349860455279
 20
79.30517444694477
 10
62.69217800775189
 20
79.31637900903045
 10
62.68068346109931
 20
79.32740503057639
 10
62.66901791564641
 20
79.33824990865094
 10
62.65718433448061
 20
79.34891106218415
 10
62.6451858226795
 20
79.35938616799946
 10
62.63302557791821
 20
79.36967307110475
 10
62.6207067994607
 20
79.37976961939289
 10
62.60823268657079
 20
79.38967366075653
 10
62.5956064385123
 20
79.39938304308878
 10
62.5828312545489
 20
79.40889561428216
 10
62.57120889297478
 20
79.41728687611616
 10
62.55947081698479
 20
79.42551540883485
 10
62.5476193690158
 20
79.43357967082606
 10
62.5356569683374
 20
79.44147832645488
 10
62.52358606931
 20
79.44921013415836
 10
62.51140912647372
 20
79.45677385285664
 10
62.49912859436861
 20
79.46416824146976
 10
62.4867469275351
 20
79.47139205891746
 10
62.47426658051328
 20
79.47844406411975
 10
62.46169000784341
 20
79.48532301599664
 10
62.44901966406561
 20
79.49202767346796
 10
62.43625800377081
 20
79.49855679560726
 10
62.42340750716881
 20
79.50490921913026
 10
62.41047072164761
 20
79.51108398434516
 10
62.39745020547228
 20
79.51708016452555
 10
62.38434851690801
 20
79.52289683294505
 10
62.37116821421981
 20
79.52853306287735
 10
62.357911855673
 20
79.53398792759596
 10
62.34458199953269
 20
79.53926050037456
 10
62.33118120406411
 20
79.54434985448675
 10
62.3192119000015
 20
79.54871916242925
 10
62.30719036318201
 20
79.55294232268812
 10
62.2951183878875
 20
79.55701875801904
 10
62.28299776400049
 20
79.56094802232264
 10
62.27083028094361
 20
79.56472968321877
 10
62.25861772813921
 20
79.56836330832736
 10
62.24636189500969
 20
79.57184846526835
 10
62.23406457097761
 20
79.57518472166189
 10
62.2217275454653
 20
79.57837164512753
 10
62.20935260789532
 20
79.58140880328565
 10
62.1969415476901
 20
79.58429576375603
 10
62.18449615427211
 20
79.58703209415853
 10
62.17201821865409
 20
79.58961736363048
 10
62.1595096094594
 20
79.59205121534177
 10
62.14697230635001
 20
79.59433339838362
 10
62.1344082975339
 20
79.59646366999955
 10
62.1218195712194
 20
79.59844178743266
 10
62.10920811561461
 20
79.60026750792646
 10
62.09657591892749
 20
79.60194058872416
 10
62.08392496936641
 20
79.60346078706912
 10
62.0712572551394
 20
79.60482786020477
 10
62.05857476445459
 20
79.60604156537425
 10
62.0458794855201
 20
79.60710165982106
 10
62.0331734043177
 20
79.60800790443146
 10
62.0204584241276
 20
79.60876019541515
 10
62.00773634297309
 20
79.60935860121214
 10
61.99500895205741
 20
79.60980320142176
 10
61.98227804258412
 20
79.61009407564327
 10
61.96954540575649
 20
79.61023130347595
 10
61.96478058720001
 20
79.61024316591494
  0
LWPOLYLINE
  5
4D7
330
1E
100
AcDbEntity
  8
1
100
AcDbPolyline
 90
        2
 70
     0
 43
0.0
 10
58.6167458581
 20
79.40153089979993
 10
58.10491495301611
 20
78.86072616874296
  0
LWPOLYLINE
  5
4DB
330
1E
100
AcDbEntity
  8
1
100
AcDbPolyline
 90
        2
 70
     0
 43
0.0
 10
58.1049080796
 20
78.86071890539999
 10
58.10965385553051
 20
69.99490339059005
  0
LWPOLYLINE
  5
4DF
330
1E
100
AcDbEntity
  8
1
100
AcDbPolyline
 90
        2
 70
     0
 43
0.0
 10
62.99073173260001
 20
66.69300345429997
 10
61.45812121149121
 20
66.59542435752566
  0
LWPOLYLINE
  5
4E3
330
1E
100
AcDbEntity
  8
1
100
AcDbPolyline
 90
       53
 70
     0
 43
0.0
 10
62.15710948729999
 20
-61.21886157090004
 10
62.14729476635088
 20
-60.92142784364982
 10
62.13562908800838
 20
-60.65089401432653
 10
62.12265162133268
 20
-60.40726457625764
 10
62.1088927129892
 20
-60.19053644558632
 10
62.09489049354939
 20
-60.00069809451652
 10
62.08096374997899
 20
-59.83505783725863
 10
62.06734705465239
 20
-59.69092322176063
 10
62.05419291012109
 20
-59.56560257275582
 10
62.04157131135368
 20
-59.45640671302112
 10
62.02981781283129
 20
-59.36330903739605
 10
62.01853614693838
 20
-59.28096575813284
 10
62.00793971531961
 20
-59.20935714388324
 10
61.997825467426
 20
-59.14581175295374
 10
61.98835703172688
 20
-59.09031144841363
 10
61.97971354823948
 20
-59.04283272713544
 10
61.97156283586889
 20
-59.00071714410575
 10
61.96401970732689
 20
-58.96394791282694
 10
61.95662452828727
 20
-58.92988754883203
 10
61.95003469643538
 20
-58.90114126693044
 10
61.94374473714218
 20
-58.87507867034582
 10
61.93781067777077
 20
-58.85168978008331
 10
61.93158443649089
 20
-58.82837698247732
 10
61.925774386394
 20
-58.80772988028734
 10
61.92044977069429
 20
-58.78973316979752
 10
61.91568657321488
 20
-58.77436750019224
 10
61.91071655377199
 20
-58.75906755533655
 10
61.9055159793347
 20
-58.74384418137513
 10
61.9009843165961
 20
-58.73122719889464
 10
61.8962496641711
 20
-58.71868501852024
 10
61.89230028677378
 20
-58.70871330314614
 10
61.88818931315539
 20
-58.69880715086464
 10
61.88389797560429
 20
-58.68897780259604
 10
61.87940618074221
 20
-58.67923764706542
 10
61.87588857011159
 20
-58.67200295709732
 10
61.87222817623778
 20
-58.66483950956532
 10
61.86841095688638
 20
-58.65775742533002
 10
61.86441749112439
 20
-58.65077283369681
 10
61.86022363207751
 20
-58.64390714323235
 10
61.85580479193239
 20
-58.63718237768452
 10
61.85271823200721
 20
-58.63279386420024
 10
61.84950459794629
 20
-58.62849808793303
 10
61.84615118973399
 20
-58.62430999326075
 10
61.84264500088048
 20
-58.62024559513253
 10
61.83896959948949
 20
-58.61633287408163
 10
61.83510640724559
 20
-58.61260730848314
 10
61.83103682754429
 20
-58.60910464457563
 10
61.82674360084039
 20
-58.60587446561871
 10
61.8222118535537
 20
-58.60299104685793
 10
61.81742767096999
 20
-58.60053148458355
 10
61.8124064099855
 20
-58.59858383391223
 10
61.80720239954139
 20
-58.59725074047542
 10
61.80188776220279
 20
-58.59662441904283
  0
LWPOLYLINE
  5
51A
330
1E
100
AcDbEntity
  8
1
100
AcDbPolyline
 90
       31
 70
     0
 43
0.0
 10
61.7199733092
 20
-60.63074881450002
 10
61.717994016524
 20
-60.63593793750865
 10
61.7160906613525
 20
-60.64115586933854
 10
61.71389861570529
 20
-60.64745102967393
 10
61.71179734193341
 20
-60.65377780732625
 10
61.70944706761959
 20
-60.66119183181434
 10
61.70719272111981
 20
-60.66863451273632
 10
61.70472343652541
 20
-60.67717135875305
 10
61.70206918824669
 20
-60.68680995651353
 10
61.6992556700676
 20
-60.69755585796081
 10
61.69630531408961
 20
-60.70941306386624
 10
61.69324228592198
 20
-60.72238610179883
 10
61.69008661480759
 20
-60.73647777930662
 10
61.68662889664521
 20
-60.75277693000303
 10
61.68292195535348
 20
-60.77129279240974
 10
61.67901234202737
 20
-60.79203228868453
 10
61.67494169140089
 20
-60.81500053764562
 10
61.67057293654229
 20
-60.84129865262905
 10
61.66597221882379
 20
-60.87093427807424
 10
61.66104873840499
 20
-60.90501410617943
 10
61.655748447867
 20
-60.94464859034184
 10
61.65018557913518
 20
-60.98984857895392
 10
61.64434582940879
 20
-61.04172642786113
 10
61.63824895922459
 20
-61.10139645461424
 10
61.6318522651132
 20
-61.17108086239724
 10
61.62536039198418
 20
-61.25079102517492
 10
61.6188918903641
 20
-61.34164257893814
 10
61.61253731229189
 20
-61.44585949953042
 10
61.6066221420777
 20
-61.56233807221674
 10
61.60134570014839
 20
-61.69218855352823
 10
61.59998113958459
 20
-61.73214230033752
  0
LWPOLYLINE
  5
53B
330
1E
100
AcDbEntity
  8
1
100
AcDbPolyline
 90
        2
 70
     0
 43
0.0
 10
61.59998064049999
 20
-62.71699380260005
 10
61.60473828585189
 20
-62.84405984305254
  0
LWPOLYLINE
  5
53F
330
1E
100
AcDbEntity
  8
1
100
AcDbPolyline
 90
        2
 70
     0
 43
0.0
 10
61.622292839
 20
-63.15689336400003
 10
61.62536055293659
 20
-63.19836386517163
  0
LWPOLYLINE
  5
543
330
1E
100
AcDbEntity
  8
1
100
AcDbPolyline
 90
        7
 70
     0
 43
0.0
 10
61.62536131489999
 20
-63.19837383610003
 10
61.63176703184639
 20
-63.27708837040143
 10
61.63803754990198
 20
-63.34557598569375
 10
61.64410257239548
 20
-63.40515746611902
 10
61.64985596736369
 20
-63.45649901490463
 10
61.6553313498366
 20
-63.50124716923742
 10
61.65853122901228
 20
-63.5257084868368
  0
LWPOLYLINE
  5
54C
330
1E
100
AcDbEntity
  8
1
100
AcDbPolyline
 90
       72
 70
     0
 43
0.0
 10
61.6585325575
 20
-63.52571839820003
 10
61.6634873874964
 20
-63.56133423536523
 10
61.66814233758029
 20
-63.59245222817444
 10
61.6725252609422
 20
-63.61982203181252
 10
61.67662491084439
 20
-63.64382173458683
 10
61.68043767995477
 20
-63.66482946887424
 10
61.68404632373719
 20
-63.68358899060843
 10
61.68748030319822
 20
-63.70047418500493
 10
61.6906229773722
 20
-63.71512429033043
 10
61.69359216275569
 20
-63.72827830184363
 10
61.69644344473137
 20
-63.74030636847104
 10
61.69906393362428
 20
-63.75084872398903
 10
61.70151640221888
 20
-63.76027427642462
 10
61.70387564528189
 20
-63.76894963971093
 10
61.70612586882378
 20
-63.77687829720833
 10
61.70825253694101
 20
-63.78406289827723
 10
61.71024047567089
 20
-63.79050645788774
 10
61.71218868618359
 20
-63.79656947985991
 10
61.71409030920279
 20
-63.80225343008824
 10
61.71581232692808
 20
-63.80720721729925
 10
61.71746498410799
 20
-63.81178826897723
 10
61.71904179919439
 20
-63.81599810438842
 10
61.72053473459119
 20
-63.81983913715943
 10
61.72193464296249
 20
-63.82331445687092
 10
61.72337811992758
 20
-63.82677260245332
 10
61.72471682570328
 20
-63.82986910348664
 10
61.72609534781719
 20
-63.83294935227272
 10
61.72735739003471
 20
-63.83567119265223
 10
61.72865767199978
 20
-63.83837475015944
 10
61.72982959251009
 20
-63.84072303807592
 10
61.731035912954
 20
-63.84305307843742
 10
61.73209909353039
 20
-63.84503422901971
 10
61.73319080928139
 20
-63.84699926728421
 10
61.73431256563209
 20
-63.84894694433014
 10
61.73546586800739
 20
-63.85087601125714
 10
61.73645241303738
 20
-63.85246819627993
 10
61.73746454563548
 20
-63.85404424615614
 10
61.73850495765161
 20
-63.85560176462792
 10
61.73935945737468
 20
-63.85683282650343
 10
61.74023515694699
 20
-63.85804926778141
 10
61.74113343460028
 20
-63.85924986157363
 10
61.74205566856649
 20
-63.86043338099193
 10
61.74300323707739
 20
-63.86159859914783
 10
61.74397751836488
 20
-63.86274428915313
 10
61.74497989066072
 20
-63.86386922411963
 10
61.74575093369939
 20
-63.86469856680024
 10
61.7465391413619
 20
-63.86551489664991
 10
61.74734518196178
 20
-63.86631601394543
 10
61.74816977640539
 20
-63.86709870059031
 10
61.74901364651688
 20
-63.86785972072232
 10
61.74987751412021
 20
-63.86859583847942
 10
61.75076210103928
 20
-63.86930381799963
 10
61.75166812909822
 20
-63.86998042342085
 10
61.75228441600479
 20
-63.87041246569012
 10
61.75291076699129
 20
-63.87082816698052
 10
61.75354739593139
 20
-63.87122656851824
 10
61.75419451669899
 20
-63.87160671152902
 10
61.75485234316779
 20
-63.87196763723931
 10
61.7555210892117
 20
-63.87230838687482
 10
61.75620096870429
 20
-63.87262800166193
 10
61.75689217992728
 20
-63.87292552638431
 10
61.7575943476632
 20
-63.87320013668865
 10
61.75830637005109
 20
-63.87345117402893
 10
61.75902709847071
 20
-63.87367799052912
 10
61.75975538430138
 20
-63.87387993831302
 10
61.76049007892289
 20
-63.87405636950442
 10
61.76123003371468
 20
-63.87420663622714
 10
61.76197410005639
 20
-63.87433009060504
 10
61.76272112932749
 20
-63.87442608476192
 10
61.76346997290759
 20
-63.87449397082164
 10
61.76421948217629
 20
-63.87453310090812
 10
61.76458412825379
 20
-63.87454154715892
  0
LWPOLYLINE
  5
596
330
1E
100
AcDbEntity
  8
1
100
AcDbPolyline
 90
       83
 70
     0
 43
0.0
 10
61.76459198259999
 20
-60.57461001470002
 10
61.76429209637189
 20
-60.57460852828882
 10
61.76399207877119
 20
-60.57461191226724
 10
61.76369205825897
 20
-60.57462022179342
 10
61.76339216329617
 20
-60.57463351202503
 10
61.7630925223441
 20
-60.57465183811982
 10
61.7627932638635
 20
-60.57467525523594
 10
61.76249451631568
 20
-60.57470381853103
 10
61.76219640816159
 20
-60.57473758316305
 10
61.76189906773249
 20
-60.57477660411124
 10
61.7616025940967
 20
-60.57482089609774
 10
61.76130702015768
 20
-60.57487038282253
 10
61.76101236972949
 20
-60.57492497548092
 10
61.76071866662589
 20
-60.57498458526821
 10
61.760425934661
 20
-60.57504912337964
 10
61.76013419764849
 20
-60.57511850101043
 10
61.75984347940238
 20
-60.57519262935581
 10
61.75955380373672
 20
-60.57527141961124
 10
61.7592651944652
 20
-60.57535478297174
 10
61.75897767540178
 20
-60.57544263063274
 10
61.75869127036047
 20
-60.57553487378953
 10
61.7584060031551
 20
-60.57563142363722
 10
61.7581218975997
 20
-60.57573219137124
 10
61.75783897750799
 20
-60.57583708818674
 10
61.75748703073089
 20
-60.57597388043864
 10
61.75713701996179
 20
-60.57611681217622
 10
61.75678899171209
 20
-60.57626570995282
 10
61.75644299249348
 20
-60.57642040032173
 10
61.7560990688176
 20
-60.57658070983613
 10
61.75575726719571
 20
-60.57674646504932
 10
61.7554176341396
 20
-60.57691749251453
 10
61.75508021616078
 20
-60.57709361878504
 10
61.75474505977069
 20
-60.57727467041412
 10
61.7543459228881
 20
-60.57749818962924
 10
61.7539501900419
 20
-60.57772825188141
 10
61.7535579416041
 20
-60.57796455745474
 10
61.75316925794669
 20
-60.57820680663303
 10
61.7527842194416
 20
-60.57845469970053
 10
61.75233972214439
 20
-60.57875064167532
 10
61.75190042332739
 20
-60.57905338172584
 10
61.75140489674308
 20
-60.57940708399664
 10
61.7509164780904
 20
-60.57976839062124
 10
61.75043509354328
 20
-60.58013697829482
 10
61.74996058886629
 20
-60.58051264147663
 10
61.7494348025329
 20
-60.58094346425935
 10
61.74891730845589
 20
-60.58138268958313
 10
61.74840788688769
 20
-60.58183002500182
 10
61.74790631808039
 20
-60.58228517806884
 10
61.74735796215979
 20
-60.58279971684953
 10
61.7468187282752
 20
-60.58332314484203
 10
61.74628831498949
 20
-60.58385506088513
 10
61.74576642086559
 20
-60.58439506381803
 10
61.74520181719569
 20
-60.58499792861592
 10
61.74464675575979
 20
-60.58560955920003
 10
61.74405164562378
 20
-60.58628616249174
 10
61.74346689317479
 20
-60.58697186914793
 10
61.74284449558689
 20
-60.58772418692612
 10
61.7421863724444
 20
-60.58854440270963
 10
61.74154004307909
 20
-60.58937394270873
 10
61.74085969508237
 20
-60.59027183197043
 10
61.7401468252655
 20
-60.59123861658363
 10
61.73940332554739
 20
-60.59227537982552
 10
61.73867374946339
 20
-60.59332159028833
 10
61.73791595437389
 20
-60.59443919007925
 10
61.73717277423278
 20
-60.59556644741724
 10
61.73640359632829
 20
-60.59676627675954
 10
61.73561024999149
 20
-60.59803968088562
 10
61.73479448974671
 20
-60.59938755477873
 10
61.7339579689901
 20
-60.60081066092182
 10
61.73310221235318
 20
-60.60230960335903
 10
61.73222858674859
 20
-60.60388480052142
 10
61.73130305782271
 20
-60.60560273500242
 10
61.7303289167296
 20
-60.60746454122693
 10
61.72934286063459
 20
-60.60940400181153
 10
61.72831328526089
 20
-60.61148887030483
 10
61.72727586518348
 20
-60.61365289120643
 10
61.7262004687322
 20
-60.61596455014964
 10
61.72509035749679
 20
-60.61842508663485
 10
61.72394850772529
 20
-60.62103551524024
 10
61.72274864054347
 20
-60.62386576227214
 10
61.72149517267389
 20
-60.62691714423834
 10
61.72013707505128
 20
-60.63032998000892
 10
61.71997694509681
 20
-60.63073949890363
  0
LWPOLYLINE
  5
5EB
330
1E
100
AcDbEntity
  8
1
100
AcDbPolyline
 90
       20
 70
     0
 43
0.0
 10
61.99574172709999
 20
-65.13478187710004
 10
62.0057559494791
 20
-65.07280555345281
 10
62.0162546587889
 20
-65.00296230830764
 10
62.02761435729261
 20
-64.92135001865803
 10
62.0395844316091
 20
-64.82794353677002
 10
62.0523737245486
 20
-64.71882514279164
 10
62.06565532960059
 20
-64.59396925070954
 10
62.07948412215309
 20
-64.44945029258414
 10
62.09346751717339
 20
-64.28524677887914
 10
62.10751415890062
 20
-64.09743095947034
 10
62.12139748332929
 20
-63.88207138295832
 10
62.13455788625699
 20
-63.63915473491013
 10
62.14644512725909
 20
-63.36867667664463
 10
62.15650155391927
 20
-63.07064088588163
 10
62.16406775924939
 20
-62.74898195027624
 10
62.1685580448161
 20
-62.41156890377283
 10
62.16963004288839
 20
-62.06628014193632
 10
62.16721675948248
 20
-61.72492198221252
 10
62.161546937286
 20
-61.39537531667103
 10
62.1571097671422
 20
-61.21887156698373
  0
LWPOLYLINE
  5
601
330
1E
100
AcDbEntity
  8
1
100
AcDbPolyline
 90
        2
 70
     0
 43
0.0
 10
61.6000200725
 20
-58.58686819650003
 10
61.80186815204598
 20
-58.59661589224684
  0
LWPOLYLINE
  5
605
330
1E
100
AcDbEntity
  8
1
100
AcDbPolyline
 90
       68
 70
     0
 43
0.0
 10
61.80921280089999
 20
-63.81840288019993
 10
61.81266893709871
 20
-63.80918490474332
 10
61.81590071228988
 20
-63.79988397247614
 10
61.81894078730659
 20
-63.79051743052214
 10
61.82181998285179
 20
-63.78110141025593
 10
61.82544102988609
 20
-63.76848382746593
 10
61.8288448977255
 20
-63.75580620477431
 10
61.8328433798435
 20
-63.73989287374431
 10
61.83659482585738
 20
-63.72391923010713
 10
61.8408179638428
 20
-63.70468758761681
 10
61.84478070033309
 20
-63.68540109853974
 10
61.84911815856079
 20
-63.66284341303873
 10
61.85375259144759
 20
-63.63700350229933
 10
61.8586101386251
 20
-63.60787191974864
 10
61.86362866280941
 20
-63.57544285196713
 10
61.86919789114321
 20
-63.53646064515392
 10
61.87475261533779
 20
-63.49416437493722
 10
61.8806313798623
 20
-63.44529437709923
 10
61.88704125884819
 20
-63.38657652199414
 10
61.89345524831558
 20
-63.32126109936353
 10
61.90003879106058
 20
-63.24607483108973
 10
61.90683298801638
 20
-63.15773594971874
 10
61.91355430443438
 20
-63.05623264810283
 10
61.91993079696612
 20
-62.94155836904592
 10
61.92569649319739
 20
-62.81371106103843
 10
61.93058253665849
 20
-62.67269259498064
 10
61.9342438944745
 20
-62.52178953669413
 10
61.93644556787179
 20
-62.36429452960464
 10
61.93705097275529
 20
-62.20350381154224
 10
61.93601421401147
 20
-62.04271530042162
 10
61.93337797699749
 20
-61.88522697881132
 10
61.92938274385369
 20
-61.73761502242231
 10
61.9242264818301
 20
-61.59988988055724
 10
61.91825847245529
 20
-61.47533698606273
 10
61.91174582813679
 20
-61.36395726538501
 10
61.9049553650301
 20
-61.26574760339042
 10
61.89816169842146
 20
-61.18070019897813
 10
61.89133790618551
 20
-61.10553536436742
 10
61.88468079897699
 20
-61.04024428352692
 10
61.87840382826589
 20
-60.98481332831194
 10
61.87231289682659
 20
-60.93596929459003
 10
61.86654340247438
 20
-60.89370176424764
 10
61.86124439298999
 20
-60.85799628492952
 10
61.85603970610319
 20
-60.82559648524414
 10
61.85098571245688
 20
-60.79649838218404
 10
61.84677231885679
 20
-60.77391728721763
 10
61.84227066100678
 20
-60.75139169531864
 10
61.83814584539319
 20
-60.73213898110423
 10
61.83448908794661
 20
-60.71614370362304
 10
61.8306033868561
 20
-60.70020217810543
 10
61.82730127678419
 20
-60.68749764051275
 10
61.8238007281187
 20
-60.67484567850005
 10
61.8200703912154
 20
-60.66225874434223
 10
61.81709308288517
 20
-60.65287418729762
 10
61.81393820454829
 20
-60.64354812580653
 10
61.81057732990899
 20
-60.63429397974381
 10
61.80696264727229
 20
-60.62513522910684
 10
61.80438663130688
 20
-60.61909482462062
 10
61.80165733153469
 20
-60.61311826368513
 10
61.79874231091528
 20
-60.60723130439604
 10
61.7956040847924
 20
-60.60146504296322
 10
61.79220414914411
 20
-60.59585151322653
 10
61.78847013619709
 20
-60.59045387598763
 10
61.78428866973339
 20
-60.58537298628652
 10
61.7795419306206
 20
-60.58075035488485
 10
61.77409496071889
 20
-60.57705935987974
 10
61.76786723268219
 20
-60.57492886043732
 10
61.76460198184619
 20
-60.57461014754113
  0
LWPOLYLINE
  5
64B
330
1E
100
AcDbEntity
  8
1
100
AcDbPolyline
 90
       83
 70
     0
 43
0.0
 10
61.76459412749998
 20
-63.87454168000004
 10
61.76489401372799
 20
-63.87454316641164
 10
61.76519403132878
 20
-63.87453978243403
 10
61.76549405184119
 20
-63.87453147290933
 10
61.76579394680409
 20
-63.87451818267942
 10
61.7660935877565
 20
-63.87449985658653
 10
61.76639284623719
 20
-63.87447643947242
 10
61.76669159378509
 20
-63.87444787617943
 10
61.76698970193911
 20
-63.87441411154924
 10
61.76728704236809
 20
-63.87437509060271
 10
61.76758351600359
 20
-63.87433079861743
 10
61.76787908994221
 20
-63.87428131189343
 10
61.76817374036978
 20
-63.87422671923544
 10
61.76846744347259
 20
-63.87416710944825
 10
61.76876017543666
 20
-63.87410257133653
 10
61.7690519124482
 20
-63.87403319370513
 10
61.76934263069321
 20
-63.87395906535881
 10
61.76963230635768
 20
-63.87388027510224
 10
61.76992091562789
 20
-63.87379691174024
 10
61.77020843468988
 20
-63.87370906407742
 10
61.77049483972979
 20
-63.87361682091874
 10
61.77078010693359
 20
-63.87352027106881
 10
61.77106421248748
 20
-63.87341950333241
 10
61.7713471325775
 20
-63.87331460651434
 10
61.7716990793526
 20
-63.87317781425903
 10
61.77204909011958
 20
-63.87303488251773
 10
61.77239711836708
 20
-63.87288598473724
 10
61.7727431175836
 20
-63.87273129436432
 10
61.77308704125739
 20
-63.87257098484584
 10
61.77342884287721
 20
-63.87240522962844
 10
61.77376847593129
 20
-63.87223420215893
 10
61.7741058939082
 20
-63.87205807588414
 10
61.77444105029649
 20
-63.87187702425094
 10
61.77484018717699
 20
-63.87165350503074
 10
61.77523592002128
 20
-63.87142344277364
 10
61.7756281684575
 20
-63.87118713719572
 10
61.7760168521135
 20
-63.87094488801303
 10
61.77640189061751
 20
-63.87069699494154
 10
61.77684638791388
 20
-63.87040105296232
 10
61.7772856867305
 20
-63.87009831290824
 10
61.77778121331511
 20
-63.86974461063423
 10
61.77826963196878
 20
-63.86938330400752
 10
61.77875101651761
 20
-63.86901471633281
 10
61.77922552119709
 20
-63.86863905315093
 10
61.77975130753377
 20
-63.86820823036934
 10
61.78026880161489
 20
-63.86776900504763
 10
61.78077822318789
 20
-63.86732166963224
 10
61.78127979200028
 20
-63.86686651656924
 10
61.78182814792728
 20
-63.86635197779393
 10
61.78236738181869
 20
-63.86582854980773
 10
61.78289779511139
 20
-63.86529663377143
 10
61.78341968924271
 20
-63.86475663084613
 10
61.78398429292059
 20
-63.86415376605693
 10
61.78453935436468
 20
-63.86354213548181
 10
61.78513446450928
 20
-63.86286553220024
 10
61.7857192169665
 20
-63.86217982555392
 10
61.7863416145628
 20
-63.86142750778624
 10
61.78699973771308
 20
-63.86060729201314
 10
61.78764606708488
 20
-63.85977775202323
 10
61.78832641508659
 20
-63.85887986276972
 10
61.78903928490639
 20
-63.85791307816303
 10
61.789782784625
 20
-63.85687631492533
 10
61.790512360707
 20
-63.85583010446423
 10
61.79127015579211
 20
-63.85471250467293
 10
61.79201333592668
 20
-63.85358524733235
 10
61.79278251382259
 20
-63.85238541798543
 10
61.79357586014868
 20
-63.85111201385284
 10
61.79439162038121
 20
-63.84976413995143
 10
61.79522814112399
 20
-63.84834103379853
 10
61.79608389774659
 20
-63.84684209135052
 10
61.79695752333671
 20
-63.84526689417703
 10
61.79788305224889
 20
-63.84354895968513
 10
61.79885719333049
 20
-63.84168715345081
 10
61.79984324941809
 20
-63.83974769285974
 10
61.80087282478868
 20
-63.83766282436293
 10
61.80191024486727
 20
-63.83549880346103
 10
61.80298564132339
 20
-63.83318714452024
 10
61.80409575256689
 20
-63.83072660804002
 10
61.80523760234859
 20
-63.82811617944123
 10
61.8064374695416
 20
-63.82528593241683
 10
61.80769093742089
 20
-63.82223455045752
 10
61.8090490350486
 20
-63.81882171469093
 10
61.80920916500317
 20
-63.81841219579642
  0
LWPOLYLINE
  5
6A0
330
1E
100
AcDbEntity
  8
1
100
AcDbPolyline
 90
       77
 70
     0
 43
0.0
 10
61.80187777429999
 20
-58.59662392700002
 10
61.8006436006641
 20
-58.59658254728291
 10
61.79940776075019
 20
-58.59657961631482
 10
61.7981716947261
 20
-58.59661520671284
 10
61.79693684275979
 20
-58.59668939109414
 10
61.79570464501939
 20
-58.59680224207582
 10
61.79447654167271
 20
-58.59695383227514
 10
61.79325397148058
 20
-58.59714423196193
 10
61.79203813804459
 20
-58.59737311911414
 10
61.7908297483517
 20
-58.59763934325991
 10
61.78962944633769
 20
-58.59794164874542
 10
61.78843787593838
 20
-58.59827877991693
 10
61.78725568108927
 20
-58.59864948112063
 10
61.78608350572648
 20
-58.59905249670272
 10
61.78492199378549
 20
-58.59948657100932
 10
61.78377178920209
 20
-58.59995044838682
 10
61.78263353591218
 20
-58.60044287318132
 10
61.78150787785138
 20
-58.60096258973914
 10
61.78039545778349
 20
-58.60150834286062
 10
61.77875239486729
 20
-58.60237330126164
 10
61.7771396437892
 20
-58.60329097907014
 10
61.77555665315009
 20
-58.60425819477533
 10
61.77400287155109
 20
-58.605271766866
 10
61.77247774759319
 20
-58.60632851383114
 10
61.77098072987739
 20
-58.60742525415973
 10
61.76951126700479
 20
-58.60855880634061
 10
61.76806880757628
 20
-58.60972598886274
 10
61.76665278271788
 20
-58.61092375281321
 10
61.7652624835265
 20
-58.61215011179641
 10
61.76344742734048
 20
-58.61382718798985
 10
61.76167488491429
 20
-58.61554898546733
 10
61.75994301537978
 20
-58.61731201362024
 10
61.75824997786909
 20
-58.61911278184013
 10
61.7565939315143
 20
-58.62094779951842
 10
61.75497303544728
 20
-58.62281357604664
 10
61.75299371952988
 20
-58.62518433380152
 10
61.75106399369939
 20
-58.62759471178353
 10
61.74918143789999
 20
-58.63004184403922
 10
61.74734363208159
 20
-58.63252286463392
 10
61.74554815619408
 20
-58.63503490763302
 10
61.7437925901873
 20
-58.63757510710183
 10
61.74173518678578
 20
-58.64065648122903
 10
61.73972809268448
 20
-58.64377011904273
 10
61.7377687666358
 20
-58.64691365549492
 10
61.73554007854929
 20
-58.65061607775643
 10
61.73336937594739
 20
-58.65435294956803
 10
61.73125287229161
 20
-58.65812090779623
 10
61.7288955243195
 20
-58.6624609017401
 10
61.72659911327738
 20
-58.66683291502681
 10
61.72408428800599
 20
-58.67178661300893
 10
61.72163776229118
 20
-58.67677444121074
 10
61.71899397883239
 20
-58.68235255803774
 10
61.7164226758301
 20
-58.68796436118753
 10
61.71367136720149
 20
-58.69417168073414
 10
61.71075627721979
 20
-58.70098074636362
 10
61.70792524517
 20
-58.70782526746742
 10
61.70494595313321
 20
-58.71527586110903
 10
61.70183093660528
 20
-58.72333603632873
 10
61.69859323088869
 20
-58.73200965043732
 10
61.69503969868968
 20
-58.74188227381384
 10
61.69140006060488
 20
-58.75237906541703
 10
61.68749087497478
 20
-58.76408775568612
 10
61.68352710024468
 20
-58.77642799668113
 10
61.6793370563151
 20
-58.78999117045072
 10
61.6749451132452
 20
-58.80478271952714
 10
61.67020993649329
 20
-58.82140270925575
 10
61.66517225561059
 20
-58.83986047801453
 10
61.66002309033479
 20
-58.85956596064442
 10
61.65448672074647
 20
-58.88172055577702
 10
61.64861420174589
 20
-58.90633415604631
 10
61.64232086638618
 20
-58.93401821338682
 10
61.63566906241588
 20
-58.96478347812651
 10
61.62859629409729
 20
-58.99924434625503
 10
61.62105901024322
 20
-59.03801791595691
 10
61.61303197106229
 20
-59.08172359621343
 10
61.60440544718511
 20
-59.13159137656082
 10
61.59998200760279
 20
-59.15837426122582
  0
LWPOLYLINE
  5
6EF
330
1E
100
AcDbEntity
  8
1
100
AcDbPolyline
 90
       53
 70
     0
 43
0.0
 10
62.15710948729999
 20
61.21886157089996
 10
62.1472947663508
 20
60.92142784364956
 10
62.13562908800839
 20
60.65089401432625
 10
62.1226516213327
 20
60.40726457625736
 10
62.1088927129892
 20
60.19053644558597
 10
62.09489049354939
 20
60.00069809451606
 10
62.08096374997889
 20
59.83505783725826
 10
62.06734705465231
 20
59.69092322176018
 10
62.05419291012109
 20
59.56560257275526
 10
62.0415713113536
 20
59.45640671302056
 10
62.02981781283121
 20
59.36330903739544
 10
62.01853614693841
 20
59.28096575813216
 10
62.00793971531961
 20
59.20935714388268
 10
61.99782546742589
 20
59.14581175295318
 10
61.98835703172689
 20
59.09031144841296
 10
61.9797135482394
 20
59.04283272713477
 10
61.97156283586849
 20
59.00071714410515
 10
61.96401970732761
 20
58.96394791282607
 10
61.95662452828742
 20
58.92988754883136
 10
61.95003469643129
 20
58.90114126693085
 10
61.94374473714351
 20
58.87507867034476
 10
61.93781067778871
 20
58.85168978007786
 10
61.93158443651561
 20
58.82837698247026
 10
61.9257743864064
 20
58.80772988028387
 10
61.9204497706945
 20
58.78973316979756
 10
61.91568657321202
 20
58.77436750019307
 10
61.9107165537709
 20
58.75906755533677
 10
61.90551597933531
 20
58.74384418137495
 10
61.9009843165967
 20
58.73122719889447
 10
61.8962496641712
 20
58.71868501852026
 10
61.89230028677361
 20
58.70871330314607
 10
61.88818931315521
 20
58.69880715086469
 10
61.8838979756043
 20
58.68897780259606
 10
61.87940618074222
 20
58.67923764706536
 10
61.8758885701116
 20
58.67200295709736
 10
61.87222817623779
 20
58.66483950956526
 10
61.86841095688651
 20
58.65775742533007
 10
61.86441749112439
 20
58.65077283369675
 10
61.86022363207751
 20
58.64390714323235
 10
61.8558047919324
 20
58.63718237768456
 10
61.85271823200721
 20
58.63279386420025
 10
61.84950459794631
 20
58.62849808793307
 10
61.846151189734
 20
58.62430999326068
 10
61.84264500088062
 20
58.62024559513247
 10
61.83896959948949
 20
58.61633287408157
 10
61.83510640724559
 20
58.61260730848316
 10
61.83103682754429
 20
58.60910464457557
 10
61.82674360084039
 20
58.60587446561865
 10
61.82221185355372
 20
58.60299104685787
 10
61.81742767096999
 20
58.60053148458357
 10
61.8124064099855
 20
58.59858383391225
 10
61.8072023995414
 20
58.59725074047546
 10
61.8018877622028
 20
58.59662441904276
  0
LWPOLYLINE
  5
726
330
1E
100
AcDbEntity
  8
1
100
AcDbPolyline
 90
        2
 70
     0
 43
0.0
 10
61.80187813939999
 20
65.67144023179996
 10
61.6000300550235
 20
65.68118796863216
  0
LWPOLYLINE
  5
72A
330
1E
100
AcDbEntity
  8
1
100
AcDbPolyline
 90
       50
 70
     0
 43
0.0
 10
61.80187778010001
 20
65.67143281329996
 10
61.81077272726279
 20
65.66996700669815
 10
61.81920673248489
 20
65.66668011724016
 10
61.82695663421941
 20
65.66203322100895
 10
61.83403338981129
 20
65.65641444901325
 10
61.84051268097739
 20
65.65012477300225
 10
61.84648199731672
 20
65.64334672615216
 10
61.85202096412121
 20
65.63621850942276
 10
61.85719217948121
 20
65.62881833379425
 10
61.86205327047861
 20
65.62121298782486
 10
61.86664463888138
 20
65.61344239802785
 10
61.87100073606071
 20
65.60553721399185
 10
61.87515242790088
 20
65.59752406992515
 10
61.88104240920011
 20
65.58533577490836
 10
61.88658456022452
 20
65.57298582038457
 10
61.89182778028079
 20
65.56050648106495
 10
61.89681011673791
 20
65.54792062341964
 10
61.90156461087211
 20
65.53524746924274
 10
61.90759029705879
 20
65.51823557463155
 10
61.9133039640738
 20
65.50111672809077
 10
61.9187429947526
 20
65.48390863276475
 10
61.92520442905379
 20
65.46229510620975
 10
61.93133563167068
 20
65.44058561176655
 10
61.93831336310651
 20
65.41443022295836
 10
61.94492686692822
 20
65.38818035109314
 10
61.9522409372029
 20
65.35745731470095
 10
61.96013587430471
 20
65.32223810405309
 10
61.96850311739662
 20
65.28250474001065
 10
61.9772455469786
 20
65.23824352672268
 10
61.98627678979311
 20
65.18944426829026
 10
61.9955208784729
 20
65.13609978582694
 10
62.00560885872929
 20
65.07374790822655
 10
62.01634128074711
 20
65.00236435468174
 10
62.02753666121921
 20
64.92193071846156
 10
62.03958291811638
 20
64.82795585946316
 10
62.0521958074616
 20
64.72041440450576
 10
62.06557131384659
 20
64.59479958443065
 10
62.07933600739971
 20
64.45108594572976
 10
62.09350655070631
 20
64.28475922145555
 10
62.10762792069811
 20
64.09579888004866
 10
62.12153888325491
 20
63.87968930809347
 10
62.13469222341472
 20
63.63641822707256
 10
62.1465499007226
 20
63.36598206736276
 10
62.15656621370071
 20
63.06838501740785
 10
62.16408310565181
 20
62.74814968672968
 10
62.1685724719099
 20
62.40980956166935
 10
62.16963133714161
 20
62.06692966856926
 10
62.16720621769979
 20
61.72405673158907
 10
62.16143209619922
 20
61.39024836604797
 10
62.15710976714221
 20
61.21887156698357
  0
LWPOLYLINE
  5
75E
330
1E
100
AcDbEntity
  8
1
100
AcDbPolyline
 90
        2
 70
     0
 43
0.0
 10
61.60002007250001
 20
58.58686819649997
 10
61.80186815204599
 20
58.59661589224675
  0
LWPOLYLINE
  5
762
330
1E
100
AcDbEntity
  8
1
100
AcDbPolyline
 90
        2
 70
     0
 43
0.0
 10
58.10490799999999
 20
-79.08529500000004
 10
58.1059758317296
 20
-78.63766689137384
  0
LWPOLYLINE
  5
766
330
1E
100
AcDbEntity
  8
1
100
AcDbPolyline
 90
        2
 70
     0
 43
0.0
 10
58.61674599999999
 20
-79.63109200000001
 10
58.10491484067809
 20
-79.08530229418423
  0
LWPOLYLINE
  5
76A
330
1E
100
AcDbEntity
  8
1
100
AcDbPolyline
 90
        2
 70
     0
 43
0.0
 10
61.89836299999999
 20
-79.88749500000004
 10
58.61675597015699
 20
-79.63109277199011
  0
LWPOLYLINE
  5
76E
330
1E
100
AcDbEntity
  8
1
100
AcDbPolyline
 90
      124
 70
     0
 43
0.0
 10
62.99360899999999
 20
-78.91350700000005
 10
62.99350649499539
 20
-78.92503006399583
 10
62.99326810385089
 20
-78.93655197293525
 10
62.99289351331671
 20
-78.94807080955144
 10
62.99238241014249
 20
-78.95958465657733
 10
62.99173448107839
 20
-78.97109159675633
 10
62.99094941269828
 20
-78.98258977127901
 10
62.99002689098789
 20
-78.99407751692371
 10
62.98896660180997
 20
-79.00555321133374
 10
62.9877682310272
 20
-79.01701523215284
 10
62.98643146485079
 20
-79.02846195698875
 10
62.98495615719889
 20
-79.03989174619251
 10
62.98334259834747
 20
-79.05130291521584
 10
62.98159114863549
 20
-79.06269377230104
 10
62.9797021684017
 20
-79.07406262569043
 10
62.977676019148
 20
-79.08540778412355
 10
62.97551322608669
 20
-79.09672762633523
 10
62.97321464555869
 20
-79.10802067263604
 10
62.97078117385588
 20
-79.11928546041784
 10
62.96783604023318
 20
-79.13212302509666
 10
62.96471717842959
 20
-79.14491957131914
 10
62.96142477630167
 20
-79.15767256939843
 10
62.95795798017318
 20
-79.17037917590082
 10
62.95478077255268
 20
-79.18145715594608
 10
62.95146876000249
 20
-79.19249551777634
 10
62.94802167412549
 20
-79.20349244889101
 10
62.94391827607289
 20
-79.21600788195312
 10
62.93964231590579
 20
-79.22846553092604
 10
62.93519612474028
 20
-79.24086352103393
 10
62.93058197636311
 20
-79.25319996090954
 10
62.925801123856
 20
-79.26547266379123
 10
62.92085394191746
 20
-79.27767918871163
 10
62.91574077658188
 20
-79.28981708640751
 10
62.9104619754651
 20
-79.30188390770682
 10
62.90501804434929
 20
-79.31387721254624
 10
62.89940977977488
 20
-79.32579457760704
 10
62.89363800950479
 20
-79.33763358136845
 10
62.88770356130179
 20
-79.34939180230995
 10
62.88160752894438
 20
-79.36106698782021
 10
62.87535206950879
 20
-79.37265756044084
 10
62.8689396057052
 20
-79.38416211138061
 10
62.86237256024368
 20
-79.39557923184844
 10
62.85565320407279
 20
-79.40690742170973
 10
62.84878238281328
 20
-79.41814432294491
 10
62.84176016143919
 20
-79.42928710767354
 10
62.83458659693888
 20
-79.44033294320904
 10
62.8272617904126
 20
-79.45127902579725
 10
62.81884222837349
 20
-79.46347162619362
 10
62.81023641134797
 20
-79.47553364272434
 10
62.8014479854227
 20
-79.48746338034893
 10
62.792480512433
 20
-79.49925909059064
 10
62.78333646439179
 20
-79.51091833375156
 10
62.77401755395878
 20
-79.52243818851314
 10
62.76452547835279
 20
-79.53381572376347
 10
62.75486204376427
 20
-79.54504809587044
 10
62.74502972550268
 20
-79.55613299835724
 10
62.73391017338209
 20
-79.56827404100123
 10
62.72258923476608
 20
-79.58022754137946
 10
62.71107048220829
 20
-79.59199049744154
 10
62.69935717760678
 20
-79.60355969337195
 10
62.68745254975399
 20
-79.61493189057484
 10
62.6753599120536
 20
-79.62610394804205
 10
62.66308309118361
 20
-79.63707331675884
 10
62.65187979764509
 20
-79.64677052646834
 10
62.64053350143039
 20
-79.65629997812346
 10
62.62904712370889
 20
-79.66566004589063
 10
62.61742356958099
 20
-79.67484922835004
 10
62.6056657424777
 20
-79.68386603700844
 10
62.59377653423089
 20
-79.69270896590465
 10
62.58175852758328
 20
-79.70137604361022
 10
62.56961397067989
 20
-79.70986479481364
 10
62.55734509495449
 20
-79.71817271903801
 10
62.5449541997181
 20
-79.72629742892713
 10
62.53244440160578
 20
-79.73423789923405
 10
62.51981935828959
 20
-79.74199400637647
 10
62.50708273709649
 20
-79.74956564286194
 10
62.49423807402928
 20
-79.75695249290144
 10
62.48128802895879
 20
-79.76415285104933
 10
62.46823490320279
 20
-79.77116444314844
 10
62.45654744742689
 20
-79.77723665935643
 10
62.44478205072399
 20
-79.78315646623534
 10
62.43294083089549
 20
-79.78892320560304
 10
62.42102606341139
 20
-79.79453651442884
 10
62.40904002398188
 20
-79.79999603013133
 10
62.39698498176359
 20
-79.80530138268273
 10
62.38486308873278
 20
-79.81045206891294
 10
62.37267639575839
 20
-79.81544747077176
 10
62.36042695039219
 20
-79.82028696643983
 10
62.34811680011246
 20
-79.82496993379505
 10
62.33574798076109
 20
-79.82949570255943
 10
62.32332250390559
 20
-79.83386350200572
 10
62.310842378076
 20
-79.83807254883652
 10
62.29830961180239
 20
-79.84212205975449
 10
62.2857262378482
 20
-79.84601135914214
 10
62.27309442299839
 20
-79.84974036691044
 10
62.26041638011327
 20
-79.85330920770434
 10
62.2476943220951
 20
-79.85671800635595
 10
62.23493045398878
 20
-79.85996685619834
 10
62.2221268334716
 20
-79.86305525978484
 10
62.20928538729711
 20
-79.86598219481077
 10
62.19640803766499
 20
-79.86874662071514
 10
62.18349670710821
 20
-79.87134749884193
 10
62.17055340004248
 20
-79.87378425840801
 10
62.1575803094112
 20
-79.87605740586435
 10
62.14457965459629
 20
-79.87816759873114
 10
62.1315536549801
 20
-79.88011549452834
 10
62.1185045047774
 20
-79.88190161606654
 10
62.10543422695288
 20
-79.88352556951022
 10
62.09234477312921
 20
-79.88498657915783
 10
62.07923809469378
 20
-79.88628386804712
 10
62.06611614552429
 20
-79.88741667078234
 10
62.052980955537
 20
-79.88838457514916
 10
62.03983464285369
 20
-79.88918757862473
 10
62.02667933053649
 20
-79.88982570163255
 10
62.0135171416394
 20
-79.89029896462671
 10
62.00035016084759
 20
-79.89060753501785
 10
61.987180345718
 20
-79.89075206713021
 10
61.97400962751299
 20
-79.89073331599874
 10
61.96083993749478
 20
-79.89055203665812
 10
61.94767322338759
 20
-79.89020898542451
 10
61.93451162128528
 20
-79.88970493327612
 10
61.92135738740371
 20
-79.88904066054061
 10
61.90821277989821
 20
-79.88821694769694
 10
61.89837196984861
 20
-79.88749577596784
  0
LWPOLYLINE
  5
7EC
330
1E
100
AcDbEntity
  8
1
100
AcDbPolyline
 90
        2
 70
     0
 43
0.0
 10
62.99360899999999
 20
-78.91350700000005
 10
62.99073202854189
 20
-67.04738099995925
  0
LWPOLYLINE
  5
7F0
330
1E
100
AcDbEntity
  8
1
100
AcDbPolyline
 90
        2
 70
     0
 43
0.0
 10
58.104908
 20
79.08529499999996
 10
58.1054533702461
 20
78.86130482797155
  0
LWPOLYLINE
  5
7F4
330
1E
100
AcDbEntity
  8
1
100
AcDbPolyline
 90
        2
 70
     0
 43
0.0
 10
58.616746
 20
79.63109199999994
 10
58.1049148406781
 20
79.08530229418416
  0
LWPOLYLINE
  5
7F8
330
1E
100
AcDbEntity
  8
1
100
AcDbPolyline
 90
        2
 70
     0
 43
0.0
 10
61.89836300000001
 20
79.88749499999996
 10
58.616755970157
 20
79.63109277199002
  0
LWPOLYLINE
  5
7FC
330
1E
100
AcDbEntity
  8
1
100
AcDbPolyline
 90
      124
 70
     0
 43
0.0
 10
62.99360899999999
 20
78.91350699999995
 10
62.99350649499531
 20
78.92503006399578
 10
62.99326810385091
 20
78.93655197293526
 10
62.99289351331672
 20
78.94807080955134
 10
62.99238241014251
 20
78.95958465657727
 10
62.9917344810784
 20
78.97109159675638
 10
62.99094941269832
 20
78.98258977127894
 10
62.9900268909879
 20
78.99407751692365
 10
62.98896660181
 20
79.00555321133366
 10
62.98776823102721
 20
79.01701523215277
 10
62.9864314648508
 20
79.02846195698867
 10
62.9849561571989
 20
79.03989174619244
 10
62.9833425983476
 20
79.05130291521577
 10
62.98159114863551
 20
79.06269377230096
 10
62.9797021684017
 20
79.07406262569036
 10
62.97767601914801
 20
79.08540778412346
 10
62.97551322608669
 20
79.09672762633516
 10
62.97321464555871
 20
79.10802067263595
 10
62.9707811738559
 20
79.11928546041775
 10
62.96783604023321
 20
79.13212302509666
 10
62.96471717842962
 20
79.14491957131916
 10
62.96142477630169
 20
79.15767256939827
 10
62.95795798017318
 20
79.17037917590075
 10
62.95478077255271
 20
79.18145715594599
 10
62.9514687600025
 20
79.19249551777625
 10
62.94802167412551
 20
79.20349244889094
 10
62.9439182760729
 20
79.21600788195303
 10
62.93964231590581
 20
79.22846553092594
 10
62.93519612474041
 20
79.24086352103386
 10
62.9305819763632
 20
79.25319996090945
 10
62.92580112385601
 20
79.26547266379126
 10
62.92085394191762
 20
79.27767918871154
 10
62.91574077658189
 20
79.28981708640744
 10
62.9104619754651
 20
79.30188390770675
 10
62.90501804434931
 20
79.31387721254615
 10
62.89940977977489
 20
79.32579457760695
 10
62.89363800950479
 20
79.33763358136838
 10
62.88770356130189
 20
79.34939180230988
 10
62.88160752894441
 20
79.36106698782012
 10
62.87535206950881
 20
79.37265756044076
 10
62.8689396057052
 20
79.38416211138054
 10
62.86237256024371
 20
79.39557923184835
 10
62.85565320407281
 20
79.40690742170966
 10
62.84878238281329
 20
79.41814432294485
 10
62.8417601614392
 20
79.42928710767346
 10
62.83458659693891
 20
79.44033294320895
 10
62.82726179041261
 20
79.45127902579717
 10
62.81884222837351
 20
79.46347162619355
 10
62.81023641134801
 20
79.47553364272427
 10
62.8014479854227
 20
79.48746338034884
 10
62.792480512433
 20
79.49925909059055
 10
62.78333646439179
 20
79.51091833375155
 10
62.77401755395882
 20
79.52243818851314
 10
62.7645254783528
 20
79.53381572376338
 10
62.75486204376431
 20
79.54504809587044
 10
62.74502972550269
 20
79.55613299835715
 10
62.73391017338211
 20
79.56827404100116
 10
62.72258923476609
 20
79.58022754137937
 10
62.7110704822083
 20
79.59199049744146
 10
62.69935717760679
 20
79.60355969337186
 10
62.68745254975399
 20
79.61493189057475
 10
62.6753599120536
 20
79.62610394804196
 10
62.66308309118361
 20
79.63707331675877
 10
62.65187979764511
 20
79.64677052646827
 10
62.6405335014304
 20
79.65629997812339
 10
62.6290471237089
 20
79.66566004589058
 10
62.6174235695811
 20
79.67484922834995
 10
62.60566574247778
 20
79.68386603700839
 10
62.5937765342309
 20
79.69270896590465
 10
62.58175852758339
 20
79.70137604361017
 10
62.56961397068002
 20
79.70986479481367
 10
62.5573450949545
 20
79.71817271903792
 10
62.54495419971811
 20
79.72629742892705
 10
62.53244440160578
 20
79.73423789923394
 10
62.51981935828961
 20
79.74199400637639
 10
62.50708273709651
 20
79.74956564286184
 10
62.49423807402919
 20
79.75695249290136
 10
62.4812880289588
 20
79.76415285104927
 10
62.46823490320281
 20
79.77116444314835
 10
62.4565474474269
 20
79.77723665935636
 10
62.444782050724
 20
79.78315646623525
 10
62.4329408308955
 20
79.78892320560295
 10
62.4210260634114
 20
79.79453651442874
 10
62.40904002398188
 20
79.79999603013125
 10
62.39698498176361
 20
79.80530138268266
 10
62.38486308873278
 20
79.81045206891292
 10
62.37267639575851
 20
79.81544747077177
 10
62.3604269503922
 20
79.82028696643988
 10
62.34811680011261
 20
79.82496993379496
 10
62.3357479807611
 20
79.82949570255934
 10
62.32332250390561
 20
79.83386350200567
 10
62.31084237807601
 20
79.83807254883647
 10
62.2983096118024
 20
79.84212205975426
 10
62.28572623784821
 20
79.84601135914203
 10
62.27309442299841
 20
79.84974036691025
 10
62.26041638011331
 20
79.85330920770427
 10
62.24769432209511
 20
79.85671800635586
 10
62.23493045398881
 20
79.85996685619825
 10
62.22212683347161
 20
79.86305525978477
 10
62.20928538729712
 20
79.86598219481068
 10
62.196408037665
 20
79.86874662071496
 10
62.18349670710821
 20
79.87134749884176
 10
62.17055340004249
 20
79.87378425840792
 10
62.1575803094112
 20
79.87605740586424
 10
62.1445796545964
 20
79.87816759873105
 10
62.1315536549801
 20
79.88011549452825
 10
62.11850450477751
 20
79.88190161606645
 10
62.10543422695288
 20
79.88352556951015
 10
62.09234477312921
 20
79.88498657915775
 10
62.07923809469378
 20
79.88628386804716
 10
62.06611614552429
 20
79.88741667078234
 10
62.052980955537
 20
79.88838457514916
 10
62.03983464285371
 20
79.88918757862466
 10
62.0266793305365
 20
79.88982570163244
 10
62.01351714163941
 20
79.89029896462665
 10
62.00035016084759
 20
79.89060753501779
 10
61.987180345718
 20
79.89075206713015
 10
61.974009627513
 20
79.89073331599866
 10
61.96083993749479
 20
79.89055203665805
 10
61.94767322338761
 20
79.89020898542442
 10
61.93451162128528
 20
79.88970493327605
 10
61.92135738740372
 20
79.88904066054056
 10
61.90821277989821
 20
79.88821694769699
 10
61.89837196984861
 20
79.88749577596776
  0
LWPOLYLINE
  5
87A
330
1E
100
AcDbEntity
  8
1
100
AcDbPolyline
 90
       67
 70
     0
 43
0.0
 10
47.7603814602
 20
75.89134790419999
 10
47.66125696595278
 20
75.93360666437047
 10
47.5698547064591
 20
75.97377111488807
 10
47.48615509964198
 20
76.01167062757056
 10
47.40650170103551
 20
76.04882992233296
 10
47.3326843715496
 20
76.08430152203967
 10
47.26108573563321
 20
76.11973623267757
 10
47.1934859000236
 20
76.15419336707837
 10
47.1298516165752
 20
76.18758212585607
 10
47.06839304724279
 20
76.22076649484438
 10
47.00910100611239
 20
76.25371082075645
 10
46.951962955296
 20
76.28637683301329
 10
46.89696331925991
 20
76.31872395995528
 10
46.84749370214681
 20
76.34864136638038
 10
46.80518399923959
 20
76.37495975926087
 10
46.76657845244021
 20
76.39966288087387
 10
46.7316303535243
 20
76.42267228246708
 10
46.7002826485722
 20
76.44389716244546
 10
46.67084326050821
 20
76.46438819227928
 10
46.64328697986689
 20
76.48410544847177
 10
46.6175853590009
 20
76.50300505189898
 10
46.59212339766041
 20
76.52225382575917
 10
46.56848182742018
 20
76.54063178646826
 10
46.54507264668572
 20
76.55934558372756
 10
46.52344302966829
 20
76.57712715058417
 10
46.502033575052
 20
76.59522485880355
 10
46.48235798202889
 20
76.61232290367568
 10
46.46288645244109
 20
76.62971247772998
 10
46.44362583754268
 20
76.64740269921697
 10
46.42603993586488
 20
76.66400686687538
 10
46.40864497493081
 20
76.68088214864226
 10
46.39144634343749
 20
76.69803571626848
 10
46.37585800352111
 20
76.71401041150217
 10
46.36044331354209
 20
76.73023049449676
 10
46.34521177954471
 20
76.74670161984455
 10
46.33020611345769
 20
76.76343025140997
 10
46.31813547457249
 20
76.77731358000638
 10
46.3075886487801
 20
76.78980583690595
 10
46.29723592889728
 20
76.80244341566226
 10
46.2883532940864
 20
76.81362255497129
 10
46.27964989067621
 20
76.82491669717847
 10
46.27234331540781
 20
76.83469024671236
 10
46.26518791657241
 20
76.84455067010147
 10
46.25819269242549
 20
76.85449906669827
 10
46.25136664122272
 20
76.86453653585487
 10
46.24581398634961
 20
76.87296992815255
 10
46.24039026880001
 20
76.88146657603299
 10
46.23510069589751
 20
76.89002711569546
 10
46.22995047496609
 20
76.89865218333918
 10
46.22494481332941
 20
76.90734241516345
 10
46.22008891831129
 20
76.91609844736747
 10
46.21538799723548
 20
76.92492091615047
 10
46.2108472574259
 20
76.93381045771186
 10
46.20733349541128
 20
76.94097081088715
 10
46.20392824824398
 20
76.94817482354217
 10
46.20063418207389
 20
76.95542282141087
 10
46.1974539630505
 20
76.96271513022726
 10
46.19439025732378
 20
76.97005207572537
 10
46.19144573104351
 20
76.97743398363927
 10
46.18862305035928
 20
76.98486117970287
 10
46.18592488142111
 20
76.99233398965029
 10
46.18335389037858
 20
76.99985273921557
 10
46.1809127433816
 20
77.00741775413256
 10
46.17860410657979
 20
77.01502936013547
 10
46.17643064612312
 20
77.02268788295815
 10
46.17439502816121
 20
77.03039364833488
 10
46.17391039386119
 20
77.03231780671266
  0
LWPOLYLINE
  5
8BF
330
1E
100
AcDbEntity
  8
1
100
AcDbPolyline
 90
        2
 70
     0
 43
0.0
 10
61.44103543199998
 20
-30.59283337470004
 10
61.59999389874188
 20
-30.80163510555454
  0
LWPOLYLINE
  5
8C3
330
1E
100
AcDbEntity
  8
1
100
AcDbPolyline
 90
      125
 70
     0
 43
0.0
 10
57.14807814130001
 20
-6.454454869800035
 10
57.02357256166139
 20
-6.522594972664993
 10
56.9000278039954
 20
-6.592477551901884
 10
56.77746756013039
 20
-6.664099256938105
 10
56.65591552189471
 20
-6.737456737201063
 10
56.5353954079002
 20
-6.812546593785105
 10
56.4159330793369
 20
-6.889361561325445
 10
56.2975580695781
 20
-6.967887747699255
 10
56.1803002728236
 20
-7.048110609642202
 10
56.0641895832733
 20
-7.130015603889965
 10
55.9492558951271
 20
-7.213588187178202
 10
55.83552910258489
 20
-7.298813816242593
 10
55.7230390998466
 20
-7.385677947818815
 10
55.61181578111209
 20
-7.474166038642523
 10
55.50188904058121
 20
-7.564263545449402
 10
55.38130525556709
 20
-7.666241784340315
 10
55.2624000979372
 20
-7.770169052288325
 10
55.14521412512361
 20
-7.876024986901594
 10
55.0297845022342
 20
-7.983786111948893
 10
54.91614684660039
 20
-8.093427530483525
 10
54.80433676764778
 20
-8.204924338301895
 10
54.6943898748019
 20
-8.318251631200377
 10
54.5863417774881
 20
-8.433384504975355
 10
54.4802280851319
 20
-8.550298055423221
 10
54.3864091094404
 20
-8.657022146057334
 10
54.2942118046703
 20
-8.765150257227125
 10
54.203662130093
 20
-8.874664233768152
 10
54.1147860449796
 20
-8.985545920515994
 10
54.02760918673039
 20
-9.097776085737832
 10
53.9421557155104
 20
-9.211330556762556
 10
53.85844936794889
 20
-9.326183744308915
 10
53.7765138806391
 20
-9.442310058976875
 10
53.6963729901748
 20
-9.559683911366375
 10
53.6266624072039
 20
-9.665042853406905
 10
53.5584052031035
 20
-9.771349313225677
 10
53.491618048842
 20
-9.878585318569161
 10
53.4263176153876
 20
-9.986732897183841
 10
53.3625205737086
 20
-10.09577407681613
 10
53.30024359477329
 20
-10.20569088521251
 10
53.23950334954989
 20
-10.31646535011953
 10
53.180316433043
 20
-10.42807942955692
 10
53.12269727516721
 20
-10.54051309421772
 10
53.06665787946378
 20
-10.65374408763801
 10
53.0122101210409
 20
-10.76775003546561
 10
52.959365875007
 20
-10.88250856334842
 10
52.90813701647021
 20
-10.99799729693433
 10
52.8585354205389
 20
-11.11419386187102
 10
52.8105729623212
 20
-11.23107588380662
 10
52.7642615169256
 20
-11.34862098838882
 10
52.7196129594603
 20
-11.46680680126562
 10
52.6766391650335
 20
-11.58561094808483
 10
52.64042025937739
 20
-11.69005421440141
 10
52.60550064144728
 20
-11.79493877321132
 10
52.57188826663799
 20
-11.90024963544684
 10
52.5395903760476
 20
-12.00597151745252
 10
52.50861119105129
 20
-12.11208789019244
 10
52.47895413517429
 20
-12.21858189558443
 10
52.4506226319369
 20
-12.32543667554452
 10
52.42362010485972
 20
-12.43263537198852
 10
52.3979499774631
 20
-12.54016112683252
 10
52.3736156732674
 20
-12.64799708199253
 10
52.3506206157933
 20
-12.75612637938444
 10
52.328968228561
 20
-12.86453216092411
 10
52.308661935091
 20
-12.97319756852771
 10
52.2897051589037
 20
-13.08210574411122
 10
52.2721013235197
 20
-13.19123982959041
 10
52.25585385245929
 20
-13.30058296688144
 10
52.24096616924288
 20
-13.41011829790021
 10
52.22744169295399
 20
-13.51982896468671
 10
52.2152825127527
 20
-13.62969814648284
 10
52.20448753182989
 20
-13.73970911165051
 10
52.1950551862196
 20
-13.84984514161961
 10
52.186983911956
 20
-13.96008951781984
 10
52.1802721450733
 20
-14.07042552168094
 10
52.17491832160551
 20
-14.18083643463261
 10
52.17092087758679
 20
-14.29130553810461
 10
52.1682782490513
 20
-14.40181611352682
 10
52.16698887203321
 20
-14.51235144232883
 10
52.1670511825665
 20
-14.62289480594052
 10
52.1684636166854
 20
-14.73342948579152
 10
52.1712246104241
 20
-14.84393876331163
 10
52.1753325998166
 20
-14.95440591993062
 10
52.18078602089721
 20
-15.06481423707813
 10
52.18758326261268
 20
-15.17514701247622
 10
52.1957208420385
 20
-15.28538819151122
 10
52.2051928204194
 20
-15.39552256928374
 10
52.2159930924156
 20
-15.5055349985319
 10
52.2281155526874
 20
-15.61541033199424
 10
52.24155409589489
 20
-15.72513342240883
 10
52.25630261669829
 20
-15.83468912251422
 10
52.2723550097579
 20
-15.94406228504873
 10
52.2897051697339
 20
-16.05323776275062
 10
52.30834699128648
 20
-16.16220040835832
 10
52.33122572470129
 20
-16.28644910457831
 10
52.35577443846629
 20
-16.41037742135402
 10
52.38198401907141
 20
-16.53396274819571
 10
52.4098453530064
 20
-16.65718247461352
 10
52.43934932676121
 20
-16.78001399011793
 10
52.47048645866139
 20
-16.90243522697592
 10
52.5032448420216
 20
-17.0244276924658
 10
52.5376115891484
 20
-17.14597434009202
 10
52.5735738095858
 20
-17.26705812743161
 10
52.61111861287798
 20
-17.38766201206143
 10
52.65023310856889
 20
-17.50776895155851
 10
52.6909044062026
 20
-17.62736190349993
 10
52.73311961532311
 20
-17.74642382546272
 10
52.7768658454746
 20
-17.86493767502373
 10
52.8221302062011
 20
-17.98288640976021
 10
52.8688998070465
 20
-18.10025298724891
 10
52.9171617575551
 20
-18.21702036506703
 10
52.9669031672708
 20
-18.33317150079153
 10
53.0181111457374
 20
-18.44868935199931
 10
53.0707721156999
 20
-18.56355709009132
 10
53.13173219375389
 20
-18.69198630794991
 10
53.19448651424789
 20
-18.81955001478591
 10
53.25901097010611
 20
-18.94622573630782
 10
53.3252814542531
 20
-19.071990998224
 10
53.3932738596132
 20
-19.19682332624301
 10
53.4629640791109
 20
-19.32070024607321
 10
53.5343280056705
 20
-19.44359928342312
 10
53.6073415322165
 20
-19.56549796400113
 10
53.6819805516732
 20
-19.68637381351563
 10
53.7667899169109
 20
-19.81945336131033
 10
53.8535432330075
 20
-19.95121157973462
 10
53.8887758479544
 20
-20.00352971127602
  0
LWPOLYLINE
  5
942
330
1E
100
AcDbEntity
  8
1
100
AcDbPolyline
 90
       67
 70
     0
 43
0.0
 10
61.11313179719996
 20
-78.15388824250004
 10
61.12951984278867
 20
-78.13792675404734
 10
61.14657496735919
 20
-78.12081441280051
 10
61.16337577841549
 20
-78.10343573291712
 10
61.17991782995229
 20
-78.08579570467532
 10
61.1961966759641
 20
-78.06789931835341
 10
61.2122078704456
 20
-78.04975156422983
 10
61.22712544941317
 20
-78.03233160639234
 10
61.2417950386542
 20
-78.01469476610382
 10
61.25621285786509
 20
-77.99684528644689
 10
61.26959510255889
 20
-77.97979602087185
 10
61.28274621805688
 20
-77.96256444541754
 10
61.29566301975138
 20
-77.94515413454664
 10
61.30834232303449
 20
-77.92756866272134
 10
61.32078094329849
 20
-77.90981160440395
 10
61.33226516524771
 20
-77.89294553678704
 10
61.34353071101839
 20
-77.87593362195764
 10
61.35457492558228
 20
-77.85877883996821
 10
61.36539515391128
 20
-77.84148417087114
 10
61.37598880956488
 20
-77.82405258864601
 10
61.38635408414621
 20
-77.80648699838383
 10
61.39648966221249
 20
-77.78879026152863
 10
61.40639423614128
 20
-77.77096523883232
 10
61.41546881267479
 20
-77.75414031446834
 10
61.42433813150288
 20
-77.73720751039611
 10
61.43300111517817
 20
-77.72016918380264
 10
61.44145668625289
 20
-77.70302769187445
 10
61.44970376727939
 20
-77.68578539179843
 10
61.45774128081009
 20
-77.66844464076145
 10
61.46556814939739
 20
-77.65100779595032
 10
61.47318329559349
 20
-77.63347721455175
 10
61.48058564195089
 20
-77.61585525375264
 10
61.48777411102189
 20
-77.59814427073983
 10
61.49474762535888
 20
-77.58034662270005
 10
61.50150510751427
 20
-77.56246466682
 10
61.50804548004039
 20
-77.54450076028671
 10
61.51436766548957
 20
-77.52645726028695
 10
61.52047058641421
 20
-77.50833652400733
 10
61.52596787012218
 20
-77.49135623197133
 10
61.53127233548509
 20
-77.47431262840561
 10
61.53638310649821
 20
-77.45720762979047
 10
61.54129930849469
 20
-77.44004315446511
 10
61.5460202435311
 20
-77.42282136629572
 10
61.5505455651537
 20
-77.40554491748405
 10
61.55487496847118
 20
-77.38821651797545
 10
61.55900814859196
 20
-77.37083887771524
 10
61.56294480062459
 20
-77.35341470664875
 10
61.56668461967772
 20
-77.33594671472143
 10
61.57022730085989
 20
-77.31843761187852
 10
61.57357253927949
 20
-77.30089010806533
 10
61.57672003004527
 20
-77.28330691322745
 10
61.57966946826559
 20
-77.26569073730994
 10
61.58242054904921
 20
-77.24804429025832
 10
61.58497296750449
 20
-77.23037028201781
 10
61.58732641874009
 20
-77.21267142253394
 10
61.5894805978645
 20
-77.19495042175189
 10
61.59143519998619
 20
-77.17720998961714
 10
61.5931899202139
 20
-77.15945283607495
 10
61.59474445365609
 20
-77.14168167107064
 10
61.59609849542128
 20
-77.12389920454961
 10
61.59725174061799
 20
-77.10610814645725
 10
61.59820388435488
 20
-77.08831120673884
 10
61.59895462174039
 20
-77.07051109533963
 10
61.5995036478831
 20
-77.05271052220523
 10
61.5998506578916
 20
-77.03491219728085
 10
61.5999953468744
 20
-77.01711883051174
 10
61.599999999968
 20
-77.01331687150132
  0
LWPOLYLINE
  5
987
330
1E
100
AcDbEntity
  8
1
100
AcDbPolyline
 90
       64
 70
     0
 43
0.0
 10
60.0
 20
-78.61942760340014
 10
60.01726474449949
 20
-78.6191286281406
 10
60.03453183683451
 20
-78.61864070261105
 10
60.05179889217978
 20
-78.61796421375874
 10
60.0690635257105
 20
-78.61709954853134
 10
60.08632335260159
 20
-78.61604709387662
 10
60.10357598802799
 20
-78.61480723674195
 10
60.12081904716478
 20
-78.61338036407504
 10
60.13805014518688
 20
-78.61176686282348
 10
60.15526689726929
 20
-78.60996711993471
 10
60.17369478832039
 20
-78.60783259239522
 10
60.19210053990597
 20
-78.60548518718655
 10
60.21048121879569
 20
-78.60292538023751
 10
60.22883389175899
 20
-78.60015364747673
 10
60.24715562556549
 20
-78.59717046483274
 10
60.26544348698469
 20
-78.59397630823412
 10
60.28369454278621
 20
-78.59057165360955
 10
60.30190585973929
 20
-78.58695697688762
 10
60.32007450461379
 20
-78.58313275399703
 10
60.33819754417909
 20
-78.57909946086623
 10
60.35627204520467
 20
-78.57485757342395
 10
60.37429507446027
 20
-78.57040756759883
 10
60.39226369871519
 20
-78.56574991931934
 10
60.41017498475099
 20
-78.56088510452062
 10
60.42802617111089
 20
-78.55581369173624
 10
60.44581510063078
 20
-78.55053657528005
 10
60.46353974897122
 20
-78.54505472107304
 10
60.4811980917923
 20
-78.53936909503613
 10
60.49878810475449
 20
-78.53348066309012
 10
60.51630776351819
 20
-78.52739039115606
 10
60.5337550437436
 20
-78.52109924515473
 10
60.55112792109119
 20
-78.51460819100704
 10
60.56842437122119
 20
-78.50791819463394
 10
60.58678739739299
 20
-78.50056400827945
 10
60.60505870632781
 20
-78.49298574115533
 10
60.62323584122709
 20
-78.48518456553184
 10
60.64131634529211
 20
-78.47716165367924
 10
60.65929776172438
 20
-78.46891817786772
 10
60.67717763372529
 20
-78.46045531036752
 10
60.69495350449621
 20
-78.45177422344884
 10
60.7126229172386
 20
-78.44287608938195
 10
60.73018341515389
 20
-78.43376208043704
 10
60.74763254144349
 20
-78.42443336888445
 10
60.76496783930871
 20
-78.41489112699412
 10
60.78218685195099
 20
-78.40513652703662
 10
60.7992871200892
 20
-78.39517075243122
 10
60.81732318704549
 20
-78.38435254284445
 10
60.83521910985149
 20
-78.37330033874434
 10
60.85297166973769
 20
-78.36201676741211
 10
60.87057764793459
 20
-78.35050445612894
 10
60.8880338256726
 20
-78.33876603217593
 10
60.90634998293989
 20
-78.32609357750566
 10
60.92449076838279
 20
-78.31317369046863
 10
60.9424523611455
 20
-78.30000948979154
 10
60.96023094037249
 20
-78.28660409420084
 10
60.97782268520798
 20
-78.27296062242313
 10
60.99618483503349
 20
-78.25830434280984
 10
61.01433006355518
 20
-78.24338994210044
 10
61.0322538770746
 20
-78.22822108822106
 10
61.04995178189329
 20
-78.21280144909784
 10
61.0683321590378
 20
-78.19630335069255
 10
61.08645200143679
 20
-78.17953571617344
 10
61.10430606786169
 20
-78.16250282362904
 10
61.1131246677186
 20
-78.15389525466932
  0
LWPOLYLINE
  5
9C9
330
1E
100
AcDbEntity
  8
1
100
AcDbPolyline
 90
       72
 70
     0
 43
0.0
 10
61.60000000000001
 20
65.88997072980006
 10
61.59986078957562
 20
65.90933517225119
 10
61.59944778935011
 20
65.92869761257036
 10
61.598767945895
 20
65.94805571451026
 10
61.59782820578179
 20
65.96740714182357
 10
61.59663551558221
 20
65.98674955826318
 10
61.5951968218674
 20
66.00608062758144
 10
61.59351907120921
 20
66.02539801353136
 10
61.59126882148211
 20
66.04791455274986
 10
61.58871367464691
 20
66.07040557761725
 10
61.58586466160201
 20
66.09286737825925
 10
61.58273281324571
 20
66.11529624480185
 10
61.57932916047641
 20
66.13768846737065
 10
61.5751206002904
 20
66.16322994968385
 10
61.57058790390991
 20
66.18871318715915
 10
61.56574753523071
 20
66.21413264322216
 10
61.55995187745071
 20
66.24264813659845
 10
61.55379620820752
 20
66.27107670646144
 10
61.54729038611449
 20
66.29941839578255
 10
61.54044426978511
 20
66.32767324753356
 10
61.53245035415371
 20
66.35896573298916
 10
61.52406201678361
 20
66.39015112356516
 10
61.51529278114979
 20
66.42122947820765
 10
61.50615617072721
 20
66.45220085586235
 10
61.4956977216489
 20
66.48614588321365
 10
61.4848291122264
 20
66.51996161819136
 10
61.4725258119391
 20
66.55670414566795
 10
61.45977784764419
 20
66.59329294953976
 10
61.4465992654021
 20
66.62972777937405
 10
61.43184936868872
 20
66.66902466878244
 10
61.41662115839061
 20
66.70813996518585
 10
61.40092870495941
 20
66.74707320703956
 10
61.38352609564801
 20
66.78879718478445
 10
61.36561896623121
 20
66.83030891060166
 10
61.34589285896541
 20
66.87454957010405
 10
61.32562937187699
 20
66.91854520228874
 10
61.30344573863871
 20
66.96520303110796
 10
61.28069035692241
 20
67.01158064763085
 10
61.25737609048851
 20
67.05767748083515
 10
61.23200668755721
 20
67.10634707250125
 10
61.2060362835713
 20
67.15469835709765
 10
61.17790027205511
 20
67.20554613033636
 10
61.1491260591541
 20
67.25603546692288
 10
61.1180810386303
 20
67.30893998047479
 10
61.08636220619629
 20
67.36144182595056
 10
61.05398018622439
 20
67.41353667390206
 10
61.02094511802382
 20
67.46522004474285
 10
60.98547699885311
 20
67.51917413659255
 10
60.94930834121988
 20
67.57266210982575
 10
60.9124509711155
 20
67.62567873967296
 10
60.8730219755817
 20
67.68083287292046
 10
60.83285406330102
 20
67.73545111851918
 10
60.79195160144411
 20
67.78952092372685
 10
60.7503189009645
 20
67.84302969657947
 10
60.70796027281549
 20
67.89596484511294
 10
60.6648800279505
 20
67.94831377736305
 10
60.62108244596121
 20
68.00006386944675
 10
60.57656875726621
 20
68.05119939412993
 10
60.53133463418621
 20
68.10169896732375
 10
60.48537515846261
 20
68.15154060386648
 10
60.4386854118366
 20
68.20070231859635
 10
60.39126047604951
 20
68.24916212635159
 10
60.34309543284271
 20
68.29689804197066
 10
60.29653115649391
 20
68.34166608408506
 10
60.25166315328259
 20
68.38353638411118
 10
60.20858281775371
 20
68.42257766828466
 10
60.16493870756061
 20
68.46097978345307
 10
60.12319676073451
 20
68.49663434508776
 10
60.0834424123165
 20
68.52962339189585
 10
60.04323057448568
 20
68.56203982052775
 10
60.0051131247658
 20
68.59189131018016
 10
60.00000792694262
 20
68.59582504010586
  0
LWPOLYLINE
  5
A13
330
1E
100
AcDbEntity
  8
1
100
AcDbPolyline
 90
        2
 70
     0
 43
0.0
 10
57.60914117090001
 20
78.63886424219997
 10
57.66538491370301
 20
78.63887514558356
  0
LWPOLYLINE
  5
A17
330
1E
100
AcDbEntity
  8
1
100
AcDbPolyline
 90
        2
 70
     0
 43
0.0
 10
57.6653949137
 20
78.63887515329998
 10
57.76455123793629
 20
78.63903088386426
  0
LWPOLYLINE
  5
A1B
330
1E
100
AcDbEntity
  8
1
100
AcDbPolyline
 90
        2
 70
     0
 43
0.0
 10
57.7645612379
 20
78.63903091079997
 10
57.8646249208197
 20
78.63948018981467
  0
LWPOLYLINE
  5
A1F
330
1E
100
AcDbEntity
  8
1
100
AcDbPolyline
 90
       15
 70
     0
 43
0.0
 10
57.17763059390001
 20
-78.64633904910002
 10
57.17898919214279
 20
-78.64600154656632
 10
57.18182593870438
 20
-78.64562142432683
 10
57.18462517476369
 20
-78.64528801781843
 10
57.18739217666717
 20
-78.64499637759952
 10
57.19081363794908
 20
-78.64468302100532
 10
57.1942032830179
 20
-78.64441752385753
 10
57.19891495628989
 20
-78.64410782598412
 10
57.2083212562951
 20
-78.64361011016663
 10
57.22253927515079
 20
-78.64300842324452
 10
57.24030389067439
 20
-78.64245546029241
 10
57.26580046133008
 20
-78.64194242292043
 10
57.52991034839689
 20
-78.63918890194843
 10
57.81653735847771
 20
-78.63920813800063
 10
57.86462492081989
 20
-78.63948018981433
  0
LWPOLYLINE
  5
A30
330
1E
100
AcDbEntity
  8
1
100
AcDbPolyline
 90
       38
 70
     0
 43
0.0
 10
58.0662517628
 20
-5.587949941600073
 10
57.9553608639947
 20
-5.604415772588034
 10
57.8482057272506
 20
-5.621488803826773
 10
57.7412227871721
 20
-5.639686854995533
 10
57.63442802713338
 20
-5.659015192989415
 10
57.5278374305085
 20
-5.679479084703515
 10
57.4214669806717
 20
-5.701083797032924
 10
57.315332660997
 20
-5.723834596872754
 10
57.20945045485867
 20
-5.747736751118084
 10
57.10383634563079
 20
-5.772795526664025
 10
57.0020125738309
 20
-5.798123397906862
 10
56.90046898138721
 20
-5.824542452144314
 10
56.7992208682045
 20
-5.852059585674344
 10
56.6982836058575
 20
-5.880681872579604
 10
56.5976725659208
 20
-5.910416386942754
 10
56.4974031199691
 20
-5.941270202846435
 10
56.400929787519
 20
-5.972128801389466
 10
56.3048030623824
 20
-6.004043801032621
 10
56.20903678017429
 20
-6.037021569001403
 10
56.11364477650909
 20
-6.071068472521301
 10
56.0186415527946
 20
-6.106191447303934
 10
55.9274167588107
 20
-6.141088779302783
 10
55.8365884908102
 20
-6.177006647188993
 10
55.74617460730699
 20
-6.213955416073644
 10
55.65619296681489
 20
-6.251945451067844
 10
55.56996917589249
 20
-6.289522255333282
 10
55.4841787098836
 20
-6.328083490337515
 10
55.39883751560719
 20
-6.367638411640764
 10
55.3139615398823
 20
-6.408196274803313
 10
55.23280572162478
 20
-6.448149817430974
 10
55.1521222680666
 20
-6.489054679058514
 10
55.07193896640329
 20
-6.530926501564443
 10
54.99545933335999
 20
-6.572047687642812
 10
54.9194908333532
 20
-6.614088279375831
 10
54.844058050734
 20
-6.657062115706742
 10
54.772293749572
 20
-6.699133908103406
 10
54.7010656686555
 20
-6.742087684807132
 10
54.6702781690393
 20
-6.761036157280531
  0
LWPOLYLINE
  5
A58
330
1E
100
AcDbEntity
  8
1
100
AcDbPolyline
 90
        2
 70
     0
 43
0.0
 10
57.86463492060001
 20
-78.63948025610003
 10
59.9999900007007
 20
-78.61942772178004
  0
LWPOLYLINE
  5
A5C
330
1E
100
AcDbEntity
  8
1
100
AcDbPolyline
 90
       23
 70
     0
 43
0.0
 10
60.0
 20
68.59583113629996
 10
59.27170164305199
 20
69.14846495238077
 10
58.57072653992251
 20
69.66627035096156
 10
57.88636939611978
 20
70.15846164691557
 10
57.2192341230107
 20
70.62558720491856
 10
56.56990968102171
 20
71.06823024558408
 10
55.93896950853981
 20
71.48700331671488
 10
55.3149215594846
 20
71.89021652942916
 10
54.71016285960081
 20
72.27051148897896
 10
54.1252182439447
 20
72.62852044355057
 10
53.54827890999072
 20
72.97213631861097
 10
52.99198914938259
 20
73.29450368323818
 10
52.44434908437851
 20
73.60325851790817
 10
51.90558827481529
 20
73.89866794206355
 10
51.37593747395289
 20
74.18100676363497
 10
50.85565273850622
 20
74.45052452244206
 10
50.35779786009012
 20
74.70112099638527
 10
49.86996471123269
 20
74.93971121863298
 10
49.39238787672231
 20
75.16657827020617
 10
48.92529303336091
 20
75.38201775352057
 10
48.45582448671851
 20
75.59209820717467
 10
47.99713848719771
 20
75.79107771694737
 10
47.76039068000311
 20
75.89134403183248
  0
LWPOLYLINE
  5
A75
330
1E
100
AcDbEntity
  8
1
100
AcDbPolyline
 90
        6
 70
     0
 43
0.0
 10
61.44103543199998
 20
-30.59283337470004
 10
59.6339005557627
 20
-28.15971705431614
 10
57.76579855206921
 20
-25.57774351075254
 10
55.8473440333183
 20
-22.85591348330583
 10
53.89607947533679
 20
-20.01430549773244
 10
53.8887870686495
 20
-20.00354626712113
  0
LWPOLYLINE
  5
A7D
330
1E
100
AcDbEntity
  8
1
100
AcDbPolyline
 90
       10
 70
     0
 43
0.0
 10
58.0654826541
 20
78.45176251969994
 10
58.04986062663001
 20
78.46219543588465
 10
58.03471733507872
 20
78.47204097660224
 10
58.02006866241871
 20
78.48131386470827
 10
58.005805197494
 20
78.49010534746257
 10
57.99193861833178
 20
78.49842721813388
 10
57.9783538744218
 20
78.50636459312806
 10
57.96505917773789
 20
78.51392588901276
 10
57.95206243251801
 20
78.52111994128676
 10
57.94092240116938
 20
78.52713044977896
  0
LWPOLYLINE
  5
A89
330
1E
100
AcDbEntity
  8
1
100
AcDbPolyline
 90
       45
 70
     0
 43
0.0
 10
57.94091357670001
 20
78.52713515389997
 10
57.9277027332104
 20
78.53407650611565
 10
57.91483786752318
 20
78.54064171146099
 10
57.90232697587669
 20
78.54684197673647
 10
57.88974260371389
 20
78.55289499765788
 10
57.87752254983139
 20
78.55859622038856
 10
57.86567423221029
 20
78.56395765391898
 10
57.85376248188761
 20
78.56918246468937
 10
57.84223203396321
 20
78.57408194097288
 10
57.83064291837028
 20
78.57884946879387
 10
57.81944428162801
 20
78.58330679498067
 10
57.8081915397388
 20
78.58763744908497
 10
57.79688475957073
 20
78.59183913781667
 10
57.7859794734669
 20
78.59574929961637
 10
57.77502450647117
 20
78.59953646447637
 10
57.76402007315631
 20
78.60319865061007
 10
57.75342912940839
 20
78.60658949714927
 10
57.74279603827829
 20
78.60986287774856
 10
57.73212269965419
 20
78.61301756748847
 10
57.72141101342438
 20
78.61605234144967
 10
57.71113092177611
 20
78.61884183061097
 10
57.70081914557279
 20
78.62151941205548
 10
57.69047734750978
 20
78.62408401378987
 10
57.680107190282
 20
78.62653456382097
 10
57.6697103365845
 20
78.62886999015568
 10
57.65976269085761
 20
78.63099088260637
 10
57.64979368154481
 20
78.63300497018207
 10
57.63980475475971
 20
78.63491132052638
 10
57.62979735661621
 20
78.63670900128326
 10
57.61977293322789
 20
78.63839708009635
 10
57.60973293070859
 20
78.63997462460956
 10
57.60015786266682
 20
78.64137343058297
 10
57.5905712247691
 20
78.64267032760896
 10
57.58097426622288
 20
78.64386451028336
 10
57.5713682362355
 20
78.64495517320165
 10
57.56175438401441
 20
78.64594151095957
 10
57.552133958767
 20
78.64682271815268
 10
57.54250820970071
 20
78.64759798937676
 10
57.53335995469421
 20
78.64823564027597
 10
57.5242090933899
 20
78.64877626655207
 10
57.51505669682721
 20
78.64921917767157
 10
57.5059038360451
 20
78.64956368310086
 10
57.49675158208299
 20
78.64980909230637
 10
57.48760100597991
 20
78.64995471475456
 10
57.47894455750221
 20
78.64999999993957
  0
LWPOLYLINE
  5
AB8
330
1E
100
AcDbEntity
  8
1
100
AcDbPolyline
 90
        2
 70
     0
 43
0.0
 10
57.86463492060001
 20
78.63948025609997
 10
57.99561381186228
 20
78.63855117633267
  0
LWPOLYLINE
  5
ABC
330
1E
100
AcDbEntity
  8
1
100
AcDbPolyline
 90
       84
 70
     0
 43
0.0
 10
61.6
 20
-39.94013341519993
 10
61.5999519988431
 20
-39.94492611494793
 10
61.59980425717119
 20
-39.94982035511093
 10
61.59955116768259
 20
-39.95479685740863
 10
61.5991871230755
 20
-39.95983634356081
 10
61.5987065160484
 20
-39.96491953528734
 10
61.59810373929949
 20
-39.97002715430763
 10
61.59737318552711
 20
-39.97513992234173
 10
61.59650924742949
 20
-39.98023856110924
 10
61.59550631770489
 20
-39.98530379232981
 10
61.59435878905171
 20
-39.99031633772334
 10
61.5930610541682
 20
-39.99525691900952
 10
61.59160750575259
 20
-40.00010625790803
 10
61.58999253650327
 20
-40.00484507613853
 10
61.58821053911861
 20
-40.00945409542092
 10
61.58625590629669
 20
-40.01391403747492
 10
61.58412303073599
 20
-40.01820562402021
 10
61.5818063051347
 20
-40.02230957677643
 10
61.57930012219111
 20
-40.02620661746354
 10
61.5765988746036
 20
-40.02987746780102
 10
61.57369695507039
 20
-40.03330284950882
 10
61.57058875628979
 20
-40.03646348430653
 10
61.5672686709601
 20
-40.03934009391391
 10
61.5637324260312
 20
-40.04191545649532
 10
61.55998782047199
 20
-40.04419095648123
 10
61.55604906917798
 20
-40.04617786699014
 10
61.55193044634098
 20
-40.04788755253232
 10
61.54764622615271
 20
-40.04933137761833
 10
61.54321068280489
 20
-40.05052070675843
 10
61.53863809048939
 20
-40.05146690446302
 10
61.53394272339799
 20
-40.05218133524254
 10
61.52913885572239
 20
-40.05267536360724
 10
61.52424076165429
 20
-40.05296035406752
 10
61.5192627153857
 20
-40.05304767113381
 10
61.51421899110821
 20
-40.05294867931642
 10
61.50912386301359
 20
-40.05267474312573
 10
61.50399160529371
 20
-40.05223722707213
 10
61.49883649214021
 20
-40.05164749566591
 10
61.49367279774499
 20
-40.05091691341763
 10
61.48851479629978
 20
-40.05005684483743
 10
61.4833767619964
 20
-40.04907865443592
 10
61.47827296902649
 20
-40.04799370672321
 10
61.47071270628238
 20
-40.04619097472412
 10
61.46329954276581
 20
-40.04420603702863
 10
61.45603510475029
 20
-40.04205029503142
 10
61.44891296855279
 20
-40.03973048887623
 10
61.44192671048998
 20
-40.03725335870692
 10
61.43506990687877
 20
-40.03462564466742
 10
61.4283361340361
 20
-40.03185408690141
 10
61.42171896827859
 20
-40.02894542555273
 10
61.41521198592329
 20
-40.02590640076523
 10
61.40880876328699
 20
-40.02274375268274
 10
61.40250287668639
 20
-40.01946422144902
 10
61.39628790243859
 20
-40.01607454720803
 10
61.38813158666099
 20
-40.01139529761742
 10
61.3801102464544
 20
-40.00654819735112
 10
61.37220865531039
 20
-40.0015492230461
 10
61.36441158672079
 20
-39.99641435133973
 10
61.35478903919239
 20
-39.98982899539422
 10
61.34338428235589
 20
-39.98172316743564
 10
61.32833503879739
 20
-39.97065876898732
 10
61.30400926478968
 20
-39.95232251568431
 10
61.27789234899108
 20
-39.93221605637723
 10
61.25004001819178
 20
-39.91027387631584
 10
61.2223653159781
 20
-39.88793209418973
 10
61.19309104357529
 20
-39.86367622002982
 10
61.16412243570999
 20
-39.83899868310413
 10
61.13373799479298
 20
-39.81233583145682
 10
61.1055593545462
 20
-39.78684368921303
 10
61.07432776743139
 20
-39.75773731389743
 10
61.04015219093409
 20
-39.72491448362863
 10
61.00312210983001
 20
-39.68828870479423
 10
60.95835603097118
 20
-39.64270181068391
 10
60.89794524440218
 20
-39.57933247614392
 10
60.82071033824089
 20
-39.49599525738674
 10
60.7414843616392
 20
-39.40800338938763
 10
60.66036694812961
 20
-39.31533000517573
 10
60.5774488152929
 20
-39.21796888814432
 10
60.48677943285719
 20
-39.10858751189381
 10
60.3871646849139
 20
-38.98511878991642
 10
60.27454178980649
 20
-38.84173783220253
 10
60.15801190902879
 20
-38.68939695513123
 10
60.03777165576799
 20
-38.52799301631723
 10
60.00000589277171
 20
-38.47642229270963
  0
LWPOLYLINE
  5
B12
330
1E
100
AcDbEntity
  8
1
100
AcDbPolyline
 90
      148
 70
     0
 43
0.0
 10
47.7603814602
 20
-20.64765878440004
 10
47.6750521190703
 20
-20.51369884828133
 10
47.591752109932
 20
-20.37839684470313
 10
47.51051270231489
 20
-20.24178775600151
 10
47.43136516574877
 20
-20.10390656451263
 10
47.3638516412284
 20
-19.98224450090451
 10
47.2979845943573
 20
-19.85965870238342
 10
47.23378497327749
 20
-19.7361726043813
 10
47.17127372613119
 20
-19.61180964233071
 10
47.1104718010604
 20
-19.4865932516636
 10
47.0514001462071
 20
-19.36054686781242
 10
46.99407970971349
 20
-19.23369392620922
 10
46.9385314397215
 20
-19.10605786228641
 10
46.884776268559
 20
-18.97766211360604
 10
46.83283307453208
 20
-18.84853039436304
 10
46.7827166688431
 20
-18.71868696650463
 10
46.73444138435299
 20
-18.58815615640063
 10
46.68802155392299
 20
-18.45696229042051
 10
46.643471510414
 20
-18.325129694934
 10
46.6008055866873
 20
-18.19268269631063
 10
46.5600381156038
 20
-18.05964562092014
 10
46.52118343002459
 20
-17.92604279513204
 10
46.4842558628107
 20
-17.79189854531592
 10
46.4541483558042
 20
-17.67650527024463
 10
46.42547624706899
 20
-17.56074740591963
 10
46.39824856254668
 20
-17.44464027157051
 10
46.3724743281791
 20
-17.32819918642743
 10
46.34816252372539
 20
-17.21143951878112
 10
46.3253205431293
 20
-17.09437832159
 10
46.30395383392921
 20
-16.97703471554661
 10
46.28406772441301
 20
-16.85942794802743
 10
46.26566754286868
 20
-16.74157726640892
 10
46.2487586175842
 20
-16.62350191806743
 10
46.2333462768475
 20
-16.50522115037964
 10
46.2194358489464
 20
-16.38675421072193
 10
46.2070326621688
 20
-16.26812034647072
 10
46.1961420448028
 20
-16.14933880500261
 10
46.18676932513618
 20
-16.03042883369412
 10
46.178919831457
 20
-15.91140967992151
 10
46.172598892053
 20
-15.79230059106152
 10
46.1678118352122
 20
-15.67312081449052
 10
46.1645639892226
 20
-15.55388959758503
 10
46.1628605972045
 20
-15.43462620259583
 10
46.1627043685546
 20
-15.31535033428703
 10
46.16409511128419
 20
-15.19608220414721
 10
46.1670324742806
 20
-15.07684205145612
 10
46.1715161064317
 20
-14.95765011549331
 10
46.177545656625
 20
-14.83852663553832
 10
46.1851207737481
 20
-14.71949185087072
 10
46.1942411066887
 20
-14.60056600077003
 10
46.20490630433439
 20
-14.48176932451592
 10
46.21711601557279
 20
-14.36312206138802
 10
46.23086988929158
 20
-14.2446444506657
 10
46.2461675743784
 20
-14.12635673162872
 10
46.26300871972071
 20
-14.00827914355662
 10
46.2813929742063
 20
-13.89043192572892
 10
46.30131998672279
 20
-13.77283531742521
 10
46.3227887317496
 20
-13.65550948165833
 10
46.34579443382399
 20
-13.53847415737132
 10
46.3703310216788
 20
-13.42174893696872
 10
46.39639242281011
 20
-13.30535341271511
 10
46.42397256471427
 20
-13.18930717687532
 10
46.45306537488759
 20
-13.07362982171373
 10
46.4836647808263
 20
-12.95834093949522
 10
46.51576471002679
 20
-12.84346012248442
 10
46.54935908998528
 20
-12.72900696294582
 10
46.58444184819809
 20
-12.61500105314422
 10
46.62100691216148
 20
-12.5014619853443
 10
46.65904820937178
 20
-12.38840935181062
 10
46.69855966732527
 20
-12.27586274480781
 10
46.73953521351829
 20
-12.16384175660072
 10
46.781968770182
 20
-12.05236597643361
 10
46.82585293042389
 20
-11.94145423112232
 10
46.8711772097949
 20
-11.83112358209652
 10
46.9258611194559
 20
-11.70316136203202
 10
46.9824729908864
 20
-11.57603965919612
 10
47.04099548542089
 20
-11.44978517084472
 10
47.10141126439419
 20
-11.3244245942336
 10
47.16370298914077
 20
-11.19998462661861
 10
47.22785332099538
 20
-11.07649196525561
 10
47.29384492129249
 20
-10.95397330740041
 10
47.3616604513667
 20
-10.83245535030882
 10
47.4312825725527
 20
-10.7119647912367
 10
47.50269394618507
 20
-10.59252832743992
 10
47.5758772324202
 20
-10.47417265472762
 10
47.6508139805057
 20
-10.35692310499451
 10
47.7274825652237
 20
-10.24080111269451
 10
47.8058607979887
 20
-10.12582742060931
 10
47.88592649021559
 20
-10.01202277152041
 10
47.96765745331877
 20
-9.899407908209642
 10
48.05103149871329
 20
-9.788003573458414
 10
48.14829959602921
 20
-9.662193222427674
 10
48.2476516578481
 20
-9.538022025522442
 10
48.3490545630164
 20
-9.415520945728651
 10
48.45247519038061
 20
-9.294720946032274
 10
48.5578804187869
 20
-9.175652989419253
 10
48.66523712326848
 20
-9.05834802674482
 10
48.77451139441451
 20
-8.942834513492215
 10
48.8856675842582
 20
-8.829135374673191
 10
48.9986698113886
 20
-8.71727279269648
 10
49.1134821943948
 20
-8.607268949970793
 10
49.2300688518656
 20
-8.499146028904823
 10
49.34839390239019
 20
-8.392926211907314
 10
49.4684214645574
 20
-8.288631681386954
 10
49.5901156569563
 20
-8.186284619752473
 10
49.71344059817579
 20
-8.085907209412582
 10
49.838360406805
 20
-7.987521632776001
 10
49.9648392011167
 20
-7.891150070744093
 10
50.0928407656717
 20
-7.796813113408585
 10
50.22232791852
 20
-7.704526743487854
 10
50.35326330374211
 20
-7.614306114385791
 10
50.4856095654186
 20
-7.5261663795063
 10
50.6193293476301
 20
-7.440122692253243
 10
50.73743150641501
 20
-7.366565792563413
 10
50.8565316406861
 20
-7.294635432759171
 10
50.9766047248958
 20
-7.22434176443726
 10
51.09762573349651
 20
-7.155694939194434
 10
51.2195696409406
 20
-7.088705108627435
 10
51.3424114216805
 20
-7.023382424332992
 10
51.46612605016867
 20
-6.959737037907864
 10
51.590688629683
 20
-6.897778803406331
 10
51.7160753812346
 20
-6.837514993302951
 10
51.84226309985799
 20
-6.778951554276624
 10
51.96922858528689
 20
-6.722094422151585
 10
52.0969486372554
 20
-6.666949532752084
 10
52.2254000554975
 20
-6.613522821902361
 10
52.354559639747
 20
-6.561820225426672
 10
52.484404189738
 20
-6.511847679149251
 10
52.6149105052045
 20
-6.463611118894344
 10
52.7460553858803
 20
-6.417116480486194
 10
52.87781563149939
 20
-6.372369699749052
 10
53.0101680417959
 20
-6.32937671250716
 10
53.14308941650359
 20
-6.288143454584764
 10
53.2765565402353
 20
-6.248675853272644
 10
53.4105445702767
 20
-6.210978917508623
 10
53.54502560678469
 20
-6.175055930993784
 10
53.67997141268189
 20
-6.140909987117153
 10
53.81535375089089
 20
-6.108544179267783
 10
53.95114438433441
 20
-6.077961600834711
 10
54.087315075935
 20
-6.049165345206973
 10
54.22383758861538
 20
-6.022158505773602
 10
54.3606836852984
 20
-5.996944175923653
 10
54.4978251289064
 20
-5.973525449046153
 10
54.6352336823623
 20
-5.951905418530145
 10
54.7728811085886
 20
-5.932087177764664
 10
54.910739170508
 20
-5.914073820138764
 10
55.04877963104309
 20
-5.897868439041461
 10
55.10797872198139
 20
-5.891478549789292
  0
LWPOLYLINE
  5
BA8
330
1E
100
AcDbEntity
  8
1
100
AcDbPolyline
 90
       75
 70
     0
 43
0.0
 10
46.17390797399999
 20
77.03232750949997
 10
46.16984007102479
 20
77.05064817875348
 10
46.1667304286492
 20
77.06918354758117
 10
46.16461189798889
 20
77.08786063035977
 10
46.16351733015989
 20
77.10660644146567
 10
46.16347295319441
 20
77.12535266162156
 10
46.16445942285522
 20
77.14406307985197
 10
46.1664382195284
 20
77.16271499534456
 10
46.169370756929
 20
77.18128575426047
 10
46.17321844877248
 20
77.19975270276068
 10
46.1779427087741
 20
77.21809318700618
 10
46.18350495064911
 20
77.23628455315818
 10
46.18986658811279
 20
77.25430414737757
 10
46.19698903488041
 20
77.27212931582545
 10
46.20483370466731
 20
77.28973740466297
 10
46.21336201118879
 20
77.30710576005107
 10
46.22253536816001
 20
77.32421172815077
 10
46.23231518929629
 20
77.34103265512317
 10
46.24266288831297
 20
77.35754588712937
 10
46.2535398789255
 20
77.37372877033038
 10
46.26490757484878
 20
77.38955865088716
 10
46.2767273897984
 20
77.40501287496087
 10
46.28896073748951
 20
77.42006878871247
 10
46.30156903163739
 20
77.43470373830305
 10
46.31451643390209
 20
77.44889858584357
 10
46.32778486193958
 20
77.46265691194776
 10
46.34136329204671
 20
77.47599132864438
 10
46.3552407185143
 20
77.48891447098417
 10
46.36940613563281
 20
77.50143897401827
 10
46.38384853769278
 20
77.51357747279758
 10
46.4060074125589
 20
77.53108910216294
 10
46.428727596428
 20
77.54780329411667
 10
46.45197194503089
 20
77.56376269195597
 10
46.47570331409839
 20
77.57900993897788
 10
46.49988455936109
 20
77.59358767847927
 10
46.52447853654989
 20
77.60753855375736
 10
46.54944810139538
 20
77.62090520810907
 10
46.57475610962849
 20
77.63373028483147
 10
46.60036541697979
 20
77.64605642722156
 10
46.62623887918019
 20
77.65792627857637
 10
46.66108353635199
 20
77.67311666545857
 10
46.69624372221271
 20
77.68767275899188
 10
46.74050353467371
 20
77.70512989056995
 10
46.7938449552044
 20
77.72525390654718
 10
46.8472774056066
 20
77.74467132158257
 10
46.9097178537479
 20
77.76647725705356
 10
46.97227229374139
 20
77.78740285315667
 10
47.03494441216419
 20
77.80748232405027
 10
47.09773789559331
 20
77.82674988389306
 10
47.16965521600378
 20
77.84781966537048
 10
47.2417413720901
 20
77.86792475134146
 10
47.31400186684781
 20
77.88711621366967
 10
47.39551016451761
 20
77.90767813348328
 10
47.47725390961689
 20
77.92722110375656
 10
47.56836596502959
 20
77.94782889565356
 10
47.66894072016451
 20
77.96925773168237
 10
47.76985760971999
 20
77.98947029785977
 10
47.88029914547418
 20
78.01022370992227
 10
48.0003070848945
 20
78.03129253267387
 10
48.12990597901769
 20
78.05247955463899
 10
48.26909820775731
 20
78.07362707045967
 10
48.43646960054711
 20
78.09715284105627
 10
48.64133402700301
 20
78.12363069526238
 10
48.8835961189063
 20
78.15235743033198
 10
49.14461890880398
 20
78.18052982687728
 10
49.43377642685621
 20
78.20867849879156
 10
49.76047997317071
 20
78.23703797752276
 10
50.1435402133884
 20
78.26628283816877
 10
50.58308953547751
 20
78.29527350627177
 10
51.10724041745378
 20
78.32439193047718
 10
51.78150858488041
 20
78.35486851425547
 10
52.5964740246821
 20
78.38340505258916
 10
53.60843177796279
 20
78.40850929084597
 10
54.83617953456679
 20
78.42661969984549
 10
55.10797866751171
 20
78.42903148984927
  0
LWPOLYLINE
  5
BF5
330
1E
100
AcDbEntity
  8
1
100
AcDbPolyline
 90
       88
 70
     0
 43
0.0
 10
61.11313179719999
 20
2.665235183399932
 10
61.1294352334552
 20
2.660785769606573
 10
61.1457217449798
 20
2.656158113635502
 10
61.16254372423199
 20
2.651186836059711
 10
61.1793305611394
 20
2.646032012435922
 10
61.1966308419697
 20
2.640516425216392
 10
61.2144300087154
 20
2.634625727908652
 10
61.2321586484128
 20
2.628539109937682
 10
61.2503563188696
 20
2.622061787494623
 10
61.2690031199987
 20
2.615180350094592
 10
61.2880767221759
 20
2.607881753145801
 10
61.30755220267261
 20
2.600153387108181
 10
61.32740187727701
 20
2.591983148686152
 10
61.3475951271054
 20
2.583359514055351
 10
61.368098220602
 20
2.574271614123521
 10
61.3852603136568
 20
2.566389111764152
 10
61.3986628526431
 20
2.560017957230002
 10
61.4099239816067
 20
2.554488550030392
 10
61.4195924039269
 20
2.549594066919601
 10
61.4287043012606
 20
2.544842602453832
 10
61.43676568298999
 20
2.540516109934561
 10
61.4442913458842
 20
2.536364600622422
 10
61.4512879977536
 20
2.532400604005993
 10
61.45825878628961
 20
2.528344950822832
 10
61.4647089261122
 20
2.524492238742402
 10
61.47064381339539
 20
2.520857941634512
 10
61.4765606894692
 20
2.517145350770641
 10
61.48245985907928
 20
2.513351095616162
 10
61.4878521368595
 20
2.509798409907132
 10
61.4932300270945
 20
2.506171675154202
 10
61.4985937645159
 20
2.502468295187461
 10
61.50345780559771
 20
2.499032891211513
 10
61.50831052048999
 20
2.495530047947802
 10
61.5131520855501
 20
2.491957814855482
 10
61.5179826771356
 20
2.488314241393651
 10
61.5223209730012
 20
2.484972417140042
 10
61.52665065176639
 20
2.481569805304743
 10
61.5309718419957
 20
2.478104983943422
 10
61.5352846722538
 20
2.474576531111803
 10
61.53958927110521
 20
2.470983024865582
 10
61.54388368751449
 20
2.467323102428803
 10
61.54768111356901
 20
2.464013255748353
 10
61.5514463040182
 20
2.460649503603642
 10
61.5551662273674
 20
2.457231220656153
 10
61.5583737826443
 20
2.454194999178801
 10
61.5610809724766
 20
2.451558595298472
 10
61.5637434577486
 20
2.448890594490172
 10
61.56592407986689
 20
2.446642933611783
 10
61.5680666578135
 20
2.444372994547132
 10
61.5701680100713
 20
2.442080624625672
 10
61.572224955123
 20
2.439765671176872
 10
61.5738363999963
 20
2.437897345683541
 10
61.57541575914979
 20
2.436014390856262
 10
61.5769614036465
 20
2.434116728527701
 10
61.57847170454971
 20
2.432204280530563
 10
61.5799450329226
 20
2.430276968697522
 10
61.5813797598282
 20
2.428334714861272
 10
61.5827742563297
 20
2.426377440854492
 10
61.58412689349028
 20
2.424405068509863
 10
61.58543604237309
 20
2.422417519660071
 10
61.58670007404118
 20
2.420414716137811
 10
61.5876175097129
 20
2.418902555594783
 10
61.58850796346659
 20
2.417381737352542
 10
61.58937074809459
 20
2.415852228434243
 10
61.59020517638929
 20
2.414313995863061
 10
61.5910105611428
 20
2.412767006662152
 10
61.5917862151474
 20
2.411211227854683
 10
61.5925314511954
 20
2.409646626463821
 10
61.593245582079
 20
2.408073169512731
 10
61.5939279205906
 20
2.406490824024573
 10
61.59457777952241
 20
2.404899557022501
 10
61.5951944716666
 20
2.403299335529702
 10
61.5957773098155
 20
2.401690126569331
 10
61.5963256067614
 20
2.400071897164543
 10
61.5968386752966
 20
2.398444614338511
 10
61.59731582821329
 20
2.396808245114392
 10
61.59775637830378
 20
2.395162756515363
 10
61.5981596383603
 20
2.393508115564581
 10
61.5985249211751
 20
2.391844289285211
 10
61.59885153954061
 20
2.390171244700413
 10
61.5991388062488
 20
2.388488948833351
 10
61.59938603409219
 20
2.386797368707191
 10
61.59959253586301
 20
2.385096471345112
 10
61.5997576243535
 20
2.383386223770252
 10
61.5998806123558
 20
2.381666593005791
 10
61.59996081266227
 20
2.379937546074892
 10
61.5999975380653
 20
2.378199050000711
 10
61.59999999927229
 20
2.377627445644372
  0
LWPOLYLINE
  5
C4F
330
1E
100
AcDbEntity
  8
1
100
AcDbPolyline
 90
        2
 70
     0
 43
0.0
 10
55.10798866720001
 20
78.42903156879997
 10
58.06547265437949
 20
78.45176244493656
  0
LWPOLYLINE
  5
C53
330
1E
100
AcDbEntity
  8
1
100
AcDbPolyline
 90
        6
 70
     0
 43
0.0
 10
60.0
 20
-38.47641421340002
 10
57.38449037807479
 20
-34.84279712007442
 10
54.70231067927539
 20
-31.01773456061483
 10
51.96959638581411
 20
-27.01725468245713
 10
49.21374471016349
 20
-22.87584863906403
 10
47.7603868969455
 20
-20.64766717736133
  0
LWPOLYLINE
  5
C5B
330
1E
100
AcDbEntity
  8
1
100
AcDbPolyline
 90
      178
 70
     0
 43
0.0
 10
57.36218092719999
 20
-78.64880055180001
 10
57.36089677251789
 20
-78.64879201554494
 10
57.35962798374538
 20
-78.64877807339482
 10
57.35819614166389
 20
-78.64875573214892
 10
57.3567830315174
 20
-78.64872679291233
 10
57.35538793979938
 20
-78.64869150249572
 10
57.35401015300349
 20
-78.64865010770983
 10
57.35247993924889
 20
-78.64859654925493
 10
57.35096970809428
 20
-78.64853592874353
 10
57.34931387423129
 20
-78.64846071738014
 10
57.34768006246721
 20
-78.64837770332721
 10
57.34590664182849
 20
-78.64827795109201
 10
57.34399828896649
 20
-78.64815978192163
 10
57.34195914412111
 20
-78.64802169706561
 10
57.3397925602789
 20
-78.64786246454492
 10
57.33734902715829
 20
-78.64766877674513
 10
57.334335093403
 20
-78.64741199764402
 10
57.33002333365068
 20
-78.64701813714283
 10
57.31598911276789
 20
-78.64568570123203
 10
57.31297528664409
 20
-78.64542355766452
 10
57.310531861155
 20
-78.64522450539853
 10
57.30836538718659
 20
-78.64505979665172
 10
57.30632635748449
 20
-78.64491597293444
 10
57.3044181221201
 20
-78.64479194755502
 10
57.30264481864279
 20
-78.64468635587463
 10
57.30101112123719
 20
-78.64459764207634
 10
57.2993554092071
 20
-78.64451635843512
 10
57.29784529409268
 20
-78.64444995435842
 10
57.29631520243239
 20
-78.64439031058712
 10
57.29493752924759
 20
-78.64434325330904
 10
57.29354255592428
 20
-78.64430206197953
 10
57.29212956895599
 20
-78.64426698340924
 10
57.29069785483638
 20
-78.64423826440892
 10
57.2894291819546
 20
-78.64421854614433
 10
57.28814514682571
 20
-78.64420405123373
 10
57.2868452714561
 20
-78.64419494502103
 10
57.28552907785227
 20
-78.64419139285011
 10
57.2841960880207
 20
-78.64419356006493
 10
57.28284582396771
 20
-78.64420161200913
 10
57.28147780769989
 20
-78.64421571402683
 10
57.28029073068618
 20
-78.64423274216853
 10
57.27908995903939
 20
-78.64425444086262
 10
57.27787519174897
 20
-78.64428091423213
 10
57.2766461278046
 20
-78.64431226640043
 10
57.27540246619571
 20
-78.64434860149081
 10
57.2741439059116
 20
-78.64439002362643
 10
57.27287014594189
 20
-78.64443663693063
 10
57.2715808852761
 20
-78.64448854552661
 10
57.27027582290369
 20
-78.64454585353762
 10
57.26895465781409
 20
-78.64460866508693
 10
57.26761708899688
 20
-78.64467708429782
 10
57.26648970052629
 20
-78.64473845905701
 10
57.26535053734728
 20
-78.64480386058993
 10
57.26419942526377
 20
-78.64487334915311
 10
57.26303619007989
 20
-78.64494698500308
 10
57.26186065759987
 20
-78.64502482839633
 10
57.26067265362769
 20
-78.64510693958944
 10
57.25947200396749
 20
-78.64519337883873
 10
57.25825853442339
 20
-78.64528420640095
 10
57.25703207079939
 20
-78.64537948253243
 10
57.25579243889979
 20
-78.64547926748973
 10
57.25453946452839
 20
-78.64558362152944
 10
57.25327297348957
 20
-78.645692604908
 10
57.25199279158739
 20
-78.64580627788203
 10
57.25069874462579
 20
-78.64592470070792
 10
57.24939065840909
 20
-78.64604793364222
 10
57.24806835874121
 20
-78.64617603694142
 10
57.24673167142618
 20
-78.64630907086208
 10
57.24538042226838
 20
-78.64644709566073
 10
57.24401443707168
 20
-78.64659017159373
 10
57.2426335416403
 20
-78.64673835891783
 10
57.24123756177829
 20
-78.64689171788933
 10
57.23982632328977
 20
-78.64705030876493
 10
57.23868622922819
 20
-78.64718098892862
 10
57.237536168972
 20
-78.64731508692642
 10
57.23637605333277
 20
-78.64745263360953
 10
57.23520579312239
 20
-78.64759365982952
 10
57.23402529915249
 20
-78.64773819643743
 10
57.23283454642309
 20
-78.64788625144121
 10
57.23133256940439
 20
-78.64807594975203
 10
57.2298171458409
 20
-78.64827022326682
 10
57.22798329834359
 20
-78.64850853055213
 10
57.22582639864169
 20
-78.64879236226413
 10
57.22272151159129
 20
-78.64920549850513
 10
57.21274959024611
 20
-78.65053446694883
 10
57.21059139422389
 20
-78.65081569025342
 10
57.20875614080469
 20
-78.65105116859552
 10
57.20723933777488
 20
-78.65124266639973
 10
57.20573579232191
 20
-78.65142920876573
 10
57.20454365174628
 20
-78.65157446419232
 10
57.2033619680166
 20
-78.65171584433702
 10
57.20219161757569
 20
-78.65185303639953
 10
57.20103347686659
 20
-78.65198572757904
 10
57.19988842233239
 20
-78.65211360507512
 10
57.19875733041589
 20
-78.65223635608723
 10
57.19791870168159
 20
-78.65232486692208
 10
57.19708878966837
 20
-78.65241018619673
 10
57.19626796412569
 20
-78.65249218194813
 10
57.19545659480271
 20
-78.65257072221393
 10
57.19465505144889
 20
-78.65264567503103
 10
57.19386370381359
 20
-78.65271690843695
 10
57.1930829216463
 20
-78.65278429046893
 10
57.19231307469629
 20
-78.65284768916403
 10
57.19155453271287
 20
-78.65290697255973
 10
57.19080766544569
 20
-78.65296200869322
 10
57.19007284264378
 20
-78.65301266560173
 10
57.18935043405679
 20
-78.65305881132252
 10
57.18864080943401
 20
-78.65310031389293
 10
57.1879443385248
 20
-78.65313704135023
 10
57.18726139107849
 20
-78.65316886173153
 10
57.18659233684459
 20
-78.65319564307412
 10
57.1859375455724
 20
-78.65321725341543
 10
57.1852973870112
 20
-78.65323356079262
 10
57.1846722309106
 20
-78.65324443324293
 10
57.18406244701969
 20
-78.65324973880362
 10
57.18346840508809
 20
-78.65324934551202
 10
57.18289047486511
 20
-78.65324312140533
 10
57.18232902610009
 20
-78.65323093452082
 10
57.1819640658812
 20
-78.65321943211002
 10
57.18160670464317
 20
-78.65320518182551
 10
57.18125705194149
 20
-78.65318814456742
 10
57.18091521733128
 20
-78.65316828123543
 10
57.18058131036809
 20
-78.65314555272963
 10
57.18025544060728
 20
-78.65311991994983
 10
57.17993771760419
 20
-78.65309134379613
 10
57.17962825091419
 20
-78.65305978516833
 10
57.1793271500926
 20
-78.65302520496633
 10
57.17903452469489
 20
-78.65298756409012
 10
57.17875048427639
 20
-78.65294682343973
 10
57.17847513839239
 20
-78.65290294391482
 10
57.17820859659838
 20
-78.65285588641562
 10
57.1779509684497
 20
-78.65280561184194
 10
57.17770236350169
 20
-78.65275208109351
 10
57.17746289130978
 20
-78.65269525507063
 10
57.17723266142929
 20
-78.65263509467293
 10
57.1770117834156
 20
-78.65257156080051
 10
57.17680036682407
 20
-78.65250461435332
 10
57.17659852121009
 20
-78.65243421623112
 10
57.17640635612898
 20
-78.65236032733392
 10
57.17622398113618
 20
-78.65228290856162
 10
57.17605150578711
 20
-78.65220192081432
 10
57.17588903963701
 20
-78.65211732499173
 10
57.17573669224139
 20
-78.65202908199393
 10
57.17559457315539
 20
-78.65193715272074
 10
57.17546279193469
 20
-78.65184149807212
 10
57.17534145813438
 20
-78.65174207894803
 10
57.17523068131009
 20
-78.65163885624844
 10
57.17513057101697
 20
-78.65153179087312
 10
57.17504123681049
 20
-78.65142084372212
 10
57.17496278824599
 20
-78.65130597569542
 10
57.17489533487889
 20
-78.65118714769282
 10
57.1748389862645
 20
-78.65106432061442
 10
57.17479385195828
 20
-78.65093745536
 10
57.17476004151546
 20
-78.65080651282953
 10
57.17473766449161
 20
-78.65067145392294
 10
57.17472683044189
 20
-78.65053223954011
 10
57.17472764892178
 20
-78.65038883058102
 10
57.17474022948668
 20
-78.65024118794562
 10
57.17476468169198
 20
-78.65008927253383
 10
57.17480111509289
 20
-78.64993304524562
 10
57.17484963924489
 20
-78.64977246698083
 10
57.1749103637034
 20
-78.64960749863943
 10
57.17498339802369
 20
-78.64943810112132
 10
57.17506885176121
 20
-78.64926423532653
 10
57.17516683447128
 20
-78.64908586215483
 10
57.17527745570929
 20
-78.64890294250622
 10
57.17540082503069
 20
-78.64871543728073
 10
57.17553705199069
 20
-78.64852330737811
 10
57.17568624614472
 20
-78.64832651369853
 10
57.1758485170482
 20
-78.64812501714162
 10
57.1760239742565
 20
-78.64791877860753
 10
57.17621272732499
 20
-78.64770775899613
 10
57.17641488580889
 20
-78.64749191920733
 10
57.17663055926379
 20
-78.64727122014113
 10
57.17685985724497
 20
-78.64704562269732
 10
57.17710288930788
 20
-78.64681508777593
 10
57.17735976500772
 20
-78.64657957627684
 10
57.17762307243739
 20
-78.64634563131403
  0
LWPOLYLINE
  5
D0F
330
1E
100
AcDbEntity
  8
1
100
AcDbPolyline
 90
       12
 70
     0
 43
0.0
 10
54.73576744729999
 20
-7.384211172099984
 10
55.34864605641129
 20
-7.041154289131675
 10
55.60280229799379
 20
-6.903441708261665
 10
55.82039875175159
 20
-6.788765491785055
 10
56.014478123271
 20
-6.689308914133186
 10
56.1938117847078
 20
-6.599994405321853
 10
56.3627494875587
 20
-6.518248927087764
 10
56.52571347257628
 20
-6.441652019742904
 10
56.6826005982843
 20
-6.370055506964746
 10
56.83331092088529
 20
-6.303300664363564
 10
56.9800829547209
 20
-6.240232170498826
 10
56.99408806490279
 20
-6.234315530136254
  0
DIMENSION
  5
D32
330
1E
100
AcDbEntity
  8
2
100
AcDbDimension
  2
*D0
 10
73.53856680723834
 20
69.99999999999996
 30
0.0
 11
71.16356680723832
 21
74.99999999999997
 31
0.0
 70
    32
 71
     5
 42
10.0
  3
ISO-25
100
AcDbAlignedDimension
 13
61.52198608307208
 23
79.99999999999996
 33
0.0
 14
63.50000000000001
 24
69.99999999999996
 34
0.0
 50
270.0
100
AcDbRotatedDimension
  0
LINE
  5
1991
330
1E
100
AcDbEntity
  8
SK4
100
AcDbLine
 10
34.50674578512142
 20
-33.34999999999991
 30
0.0
 11
-8.623995083199966
 21
-33.34999999999991
 31
0.0
  0
DIMENSION
  5
1992
330
1E
100
AcDbEntity
  8
SK2
100
AcDbDimension
  2
*D5
 10
-22.03498515178125
 20
-33.3499999999999
 30
0.0
 11
-24.40998515178124
 21
0.0000000000000976
 31
0.0
 70
    32
  1
%%c<>
 71
     5
 42
66.70000000000001
  3
ISO-25
100
AcDbAlignedDimension
 13
-4.40848123002917
 23
33.3500000000001
 33
0.0
 14
-8.623995083199966
 24
-33.34999999999991
 34
0.0
 50
270.0
100
AcDbRotatedDimension
  0
LINE
  5
1993
330
1E
100
AcDbEntity
  8
SK4
100
AcDbLine
 10
33.47727450117107
 20
33.35000000000009
 30
0.0
 11
-4.40848123002917
 21
33.3500000000001
 31
0.0
  0
TEXT
  5
3ECD
330
1E
100
AcDbEntity
  8
6
100
AcDbText
 10
95.63888650948737
 20
-95.27727638672379
 30
0.0
 40
5.0
  1
6F2B160R00
100
AcDbText
  0
TEXT
  5
3F32
330
1E
100
AcDbEntity
  8
6
100
AcDbText
 10
100.4001787173979
 20
-1.975818283207132
 30
0.0
 40
3.5
  1
Z=8
 50
90.0
100
AcDbText
  0
TEXT
  5
3F33
330
1E
100
AcDbEntity
  8
6
100
AcDbText
 10
94.12279609765608
 20
80.84281031516111
 30
0.0
 40
2.5
  1
YDA323L101
100
AcDbText
  0
SPLINE
  5
3FB7
330
1E
100
AcDbEntity
  8
CUT
100
AcDbSpline
210
0.0
220
0.0
230
1.0
 70
     8
 71
     3
 72
    36
 73
    32
 74
    30
 42
0.0000000001
 43
0.0000000001
 44
0.0000000001
 12
0.0023777860373292
 22
-0.9999971730627844
 32
0.0
 13
-0.0028541958287779
 23
-0.99999592677479
 33
0.0
 40
0.0
 40
0.0
 40
0.0
 40
0.0
 40
0.4085400699392662
 40
0.81712097713027
 40
1.225743733080023
 40
1.63440835506852
 40
2.043116856159447
 40
2.451870246645738
 40
2.860667542714332
 40
3.269511755373617
 40
3.678400900077887
 40
4.087338989211214
 40
4.496333036175189
 40
4.905382054668122
 40
5.314484057484007
 40
5.723635058247793
 40
6.132835070466755
 40
6.542079107032959
 40
6.951365181563973
 40
7.36069130664765
 40
7.77005349721853
 40
8.179452764713012
 40
8.588896124773958
 40
8.998385588102388
 40
9.407921169370924
 40
9.817503881921149
 40
10.22713473704444
 40
10.63681375216236
 40
11.0465419361502
 40
11.45632030455197
 40
11.8661498706804
 40
11.8661498706804
 40
11.8661498706804
 40
11.8661498706804
 10
62.99360899999999
 20
78.913507
 30
0.0
 10
62.99393280695799
 20
78.77732736165929
 30
0.0
 10
62.99455637821279
 20
78.50495441471084
 30
0.0
 10
62.9954176891522
 20
78.09637407596817
 30
0.0
 10
62.9962031174664
 20
77.68775206680317
 30
0.0
 10
62.99691607240872
 20
77.27908739365372
 30
0.0
 10
62.99755681026751
 20
76.87037905571142
 30
0.0
 10
62.99812088402153
 20
76.46162638016201
 30
0.0
 10
62.99861382560706
 20
76.05282837539729
 30
0.0
 10
62.99902996815796
 20
75.64398503374713
 30
0.0
 10
62.99937442894051
 20
75.23509469456162
 30
0.0
 10
62.99964442681748
 20
74.8261543544215
 30
0.0
 10
62.99983995763547
 20
74.41716068085449
 30
0.0
 10
62.99996380698447
 20
74.00811234122099
 30
0.0
 10
63.00001084767643
 20
73.5990116676857
 30
0.0
 10
62.99998680659502
 20
73.18986066089846
 30
0.0
 10
62.99988590390559
 20
72.78066232122833
 30
0.0
 10
62.99971353355376
 20
72.3714189809119
 30
0.0
 10
62.99946589728977
 20
71.96213364158944
 30
0.0
 10
62.99914679473917
 20
71.55280896698522
 30
0.0
 10
62.99875082788981
 20
71.14344662854907
 30
0.0
 10
62.99828377411731
 20
70.73404528670853
 30
0.0
 10
62.9977399141146
 20
70.32460161533098
 30
0.0
 10
62.99712437449686
 20
69.91511260764567
 30
0.0
 10
62.99643436679737
 20
69.50557726755238
 30
0.0
 10
62.99566990718876
 20
69.09599492920617
 30
0.0
 10
62.99483372287169
 20
68.68636491946877
 30
0.0
 10
62.99392089216067
 20
68.27668658277997
 30
0.0
 10
62.99293636686776
 20
67.86695924097395
 30
0.0
 10
62.99187726487083
 20
67.45718190129444
 30
0.0
 10
62.99112191127935
 20
67.18398029893342
 30
0.0
 10
62.99073199999997
 20
67.04737099999999
 30
0.0
 11
62.99360899999999
 21
78.913507
 31
0.0
 11
62.99454399999995
 21
78.50496800000001
 31
0.0
 11
62.99540499999999
 21
78.09638799999999
 31
0.0
 11
62.99619099999993
 21
77.68776600000002
 31
0.0
 11
62.99690399999996
 21
77.27910200000002
 31
0.0
 11
62.997544
 21
76.87039400000003
 31
0.0
 11
62.99810899999999
 21
76.46164099999999
 31
0.0
 11
62.99860099999993
 21
76.05284399999999
 31
0.0
 11
62.99901799999997
 21
75.644
 31
0.0
 11
62.99936199999995
 21
75.23511100000002
 31
0.0
 11
62.99963199999996
 21
74.826173
 31
0.0
 11
62.99982799999997
 21
74.41717900000003
 31
0.0
 11
62.99995099999993
 21
74.00812999999999
 31
0.0
 11
62.99999899999999
 21
73.59902800000003
 31
0.0
 11
62.99997399999995
 21
73.18987700000002
 31
0.0
 11
62.99987399999997
 21
72.78067700000002
 31
0.0
 11
62.99970099999995
 21
72.37143300000003
 31
0.0
 11
62.99945399999995
 21
71.96214700000002
 31
0.0
 11
62.99913399999996
 21
71.55282099999999
 31
0.0
 11
62.99873899999999
 21
71.143459
 31
0.0
 11
62.99827099999998
 21
70.73405999999998
 31
0.0
 11
62.99772799999999
 21
70.32461699999998
 31
0.0
 11
62.99711199999995
 21
69.91512799999998
 31
0.0
 11
62.99642199999999
 21
69.50559300000003
 31
0.0
 11
62.99565799999998
 21
69.09601100000003
 31
0.0
 11
62.99482099999998
 21
68.68638099999998
 31
0.0
 11
62.99390899999997
 21
68.276703
 31
0.0
 11
62.99292399999995
 21
67.86697600000002
 31
0.0
 11
62.99186499999995
 21
67.457199
 31
0.0
 11
62.99073199999997
 21
67.04737099999999
 31
0.0
  0
SPLINE
  5
3FB8
330
1E
100
AcDbEntity
  8
CUT
100
AcDbSpline
210
0.0
220
0.0
230
1.0
 70
     8
 71
     3
 72
    36
 73
    32
 74
    30
 42
0.0000000001
 43
0.0000000001
 44
0.0000000001
 12
0.0024842432257728
 22
-0.9999969142630368
 32
0.0
 13
-0.0027651509332242
 23
-0.9999961769628505
 33
0.0
 40
0.0
 40
0.0
 40
0.0
 40
0.0
 40
0.410668176485651
 40
0.8213731824168684
 40
1.232116031154399
 40
1.642897734204801
 40
2.053719306955063
 40
2.464580761270259
 40
2.875484112166826
 40
3.286428371866334
 40
3.697416555015225
 40
4.108447674189883
 40
4.519530743666147
 40
4.930664776775779
 40
5.341846786625443
 40
5.7530747869367
 40
6.164345791168702
 40
6.575658812671797
 40
6.987009865259454
 40
7.398396961912935
 40
7.809817115935596
 40
8.221271341672789
 40
8.632765651549599
 40
9.044302060262147
 40
9.455879579868065
 40
9.867501225414109
 40
10.27916600858723
 40
10.69087494478857
 40
11.10262904533035
 40
11.51442932347138
 40
11.9262757951401
 40
11.9262757951401
 40
11.9262757951401
 40
11.9262757951401
 10
58.10490799999996
 20
79.08529500000004
 30
0.0
 10
58.10524806654512
 20
78.94840603024282
 30
0.0
 10
58.10590337575106
 20
78.67461575189146
 30
0.0
 10
58.10681229621045
 20
78.26391141185587
 30
0.0
 10
58.1076476804177
 20
77.85316907314006
 30
0.0
 10
58.10840720835496
 20
77.44238773157132
 30
0.0
 10
58.10909369605468
 20
77.03156672616699
 30
0.0
 10
58.10970419727194
 20
76.62070505149857
 30
0.0
 10
58.11024168901603
 20
76.2098023791478
 30
0.0
 10
58.11070319740436
 20
75.79885737145113
 30
0.0
 10
58.1110916561923
 20
75.38786969879251
 30
0.0
 10
58.11140429028251
 20
74.97683569144931
 30
0.0
 10
58.11164328477556
 20
74.56575301818755
 30
0.0
 10
58.11180864559686
 20
74.15462001166026
 30
0.0
 10
58.11189817770819
 20
73.74343867141978
 30
0.0
 10
58.11191466146116
 20
73.33221166469755
 30
0.0
 10
58.11185516978939
 20
72.92094099139735
 30
0.0
 10
58.1117226303357
 20
72.50962931774856
 30
0.0
 10
58.11151426149561
 20
72.09827897797499
 30
0.0
 10
58.1112322595797
 20
71.68689297139906
 30
0.0
 10
58.11087662235721
 20
71.27547263067075
 30
0.0
 10
58.11044515141041
 20
70.86401662479542
 30
0.0
 10
58.10994063651063
 20
70.45252195038213
 30
0.0
 10
58.10936013733694
 20
70.04098627815716
 30
0.0
 10
58.10870662718191
 20
69.62940827011943
 30
0.0
 10
58.10797713371635
 20
69.21778759818318
 30
0.0
 10
58.10717459588873
 20
68.80612325658697
 30
0.0
 10
58.10629621225429
 20
68.39441491802348
 30
0.0
 10
58.10534425386792
 20
67.98266157798351
 30
0.0
 10
58.10431844035504
 20
67.57086257008679
 30
0.0
 10
58.10358460588514
 20
67.29631463238814
 30
0.0
 10
58.10320499999999
 20
67.15903300000002
 30
0.0
 11
58.10490799999996
 21
79.08529500000004
 31
0.0
 11
58.10589099999997
 21
78.67462799999998
 31
0.0
 11
58.10679999999996
 21
78.26392400000003
 31
0.0
 11
58.10763499999995
 21
77.853182
 31
0.0
 11
58.10839499999996
 21
77.44240100000002
 31
0.0
 11
58.10908099999998
 21
77.03158000000001
 31
0.0
 11
58.10969199999998
 21
76.62071900000002
 31
0.0
 11
58.11022900000001
 21
76.20981599999999
 31
0.0
 11
58.11069099999997
 21
75.79887200000001
 31
0.0
 11
58.11107899999996
 21
75.38788399999998
 31
0.0
 11
58.11139199999995
 21
74.97685300000002
 31
0.0
 11
58.11163099999998
 21
74.56576999999999
 31
0.0
 11
58.11179599999996
 21
74.15463599999999
 31
0.0
 11
58.11188599999996
 21
73.74345399999999
 31
0.0
 11
58.11190199999998
 21
73.33222599999999
 31
0.0
 11
58.11184299999997
 21
72.92095499999999
 31
0.0
 11
58.11170999999995
 21
72.50964199999998
 31
0.0
 11
58.11150199999996
 21
72.09829100000002
 31
0.0
 11
58.11122
 21
71.68690400000004
 31
0.0
 11
58.11086399999997
 21
71.27548400000001
 31
0.0
 11
58.11043299999999
 21
70.86403000000001
 31
0.0
 11
58.10992799999996
 21
70.45253600000002
 31
0.0
 11
58.10934799999993
 21
70.041
 31
0.0
 11
58.10869399999995
 21
69.62942300000005
 31
0.0
 11
58.10796499999997
 21
69.217802
 31
0.0
 11
58.10716199999995
 21
68.80613800000003
 31
0.0
 11
58.10628399999995
 21
68.39442999999999
 31
0.0
 11
58.10533199999997
 21
67.98267700000002
 31
0.0
 11
58.10430599999993
 21
67.57087799999999
 31
0.0
 11
58.10320499999999
 21
67.15903300000002
 31
0.0
  0
SPLINE
  5
3FB9
330
1E
100
AcDbEntity
  8
CUT
100
AcDbSpline
210
0.0
220
0.0
230
1.0
 70
     8
 71
     3
 72
    36
 73
    32
 74
    30
 42
0.0000000001
 43
0.0000000001
 44
0.0000000001
 12
-0.9965363044847729
 22
-0.0831588470568939
 32
0.0
 13
-0.9967244797520841
 23
-0.0808721921487056
 33
0.0
 40
0.0
 40
0.0
 40
0.0
 40
0.0
 40
0.1514381666456626
 40
0.3028734261726299
 40
0.4543056133885682
 40
0.6057348122670831
 40
0.7571610237266857
 40
0.9085842486857595
 40
1.06000440540207
 40
1.211420663531757
 40
1.362834851995085
 40
1.514245061112572
 40
1.665652288393825
 40
1.81705753136777
 40
1.968458715544125
 40
2.119857002829693
 40
2.271252229920867
 40
2.422644479848024
 40
2.57403367165844
 40
2.725419970014626
 40
2.876802215591834
 40
3.028182484415135
 40
3.179559699193285
 40
3.330933027279853
 40
3.482303303308525
 40
3.633671606364363
 40
3.785035862752675
 40
3.936397151396779
 40
4.087755473216258
 40
4.23911082913071
 40
4.390463139139558
 40
4.390463139139558
 40
4.390463139139558
 40
4.390463139139558
 10
62.99073199999997
 20
67.04737099999999
 30
0.0
 10
62.94042745635096
 20
67.04317319222043
 30
0.0
 10
62.83981911521792
 20
67.03478028745049
 30
0.0
 10
62.68890720974947
 20
67.02220181404891
 30
0.0
 10
62.53799714813315
 20
67.00963721461755
 30
0.0
 10
62.38708915943483
 20
66.99708407328907
 30
0.0
 10
62.23618314556633
 20
66.9845432348206
 30
0.0
 10
62.08527921450879
 20
66.97201373139001
 30
0.0
 10
61.93437741827722
 20
66.9594986214568
 30
0.0
 10
61.78347788476207
 20
66.94699267588446
 30
0.0
 10
61.63258047243107
 20
66.9345012903984
 30
0.0
 10
61.48168515713043
 20
66.92202106703923
 30
0.0
 10
61.33079181413638
 20
66.90955317845965
 30
0.0
 10
61.17990053957935
 20
66.89709679337548
 30
0.0
 10
61.02901108756092
 20
66.8846545605383
 30
0.0
 10
60.87812421171713
 20
66.87222171471107
 30
0.0
 10
60.72723913334669
 20
66.85980332735688
 30
0.0
 10
60.57635621079302
 20
66.84739571264961
 30
0.0
 10
60.42547508540637
 20
66.83500256680872
 30
0.0
 10
60.2745965386801
 20
66.82261876655957
 30
0.0
 10
60.12371980266724
 20
66.81024927281931
 30
0.0
 10
59.97284520869257
 20
66.79789071237578
 30
0.0
 10
59.82197241287502
 20
66.78554661855432
 30
0.0
 10
59.67110220716714
 20
66.77321171858562
 30
0.0
 10
59.52023380299998
 20
66.76089124617219
 30
0.0
 10
59.36936752757393
 20
66.74858186375897
 30
0.0
 10
59.21850313914761
 20
66.73628620006389
 30
0.0
 10
59.06764114781897
 20
66.72400208807141
 30
0.0
 10
58.91678114071874
 20
66.71173016963962
 30
0.0
 10
58.76592318463925
 20
66.6994699566322
 30
0.0
 10
58.66535151748422
 20
66.69130506436573
 30
0.0
 10
58.61506599999994
 20
66.68722500000001
 30
0.0
 11
62.99073199999997
 21
67.04737099999999
 31
0.0
 11
62.83981799999997
 21
67.03478200000001
 31
0.0
 11
62.68890599999997
 21
67.02220399999998
 31
0.0
 11
62.53799599999997
 21
67.00963899999999
 31
0.0
 11
62.387088
 21
66.99708600000002
 31
0.0
 11
62.23618199999997
 21
66.98454500000003
 31
0.0
 11
62.08527799999995
 21
66.97201599999999
 31
0.0
 11
61.93437599999998
 21
66.95949999999999
 31
0.0
 11
61.78347699999999
 21
66.94699500000002
 31
0.0
 11
61.63257899999996
 21
66.93450300000001
 31
0.0
 11
61.48168399999995
 21
66.92202300000002
 31
0.0
 11
61.33079099999997
 21
66.90955500000001
 31
0.0
 11
61.17989899999997
 21
66.89709900000003
 31
0.0
 11
61.02900999999996
 21
66.884656
 31
0.0
 11
60.87812299999995
 21
66.872224
 31
0.0
 11
60.72723799999999
 21
66.85980499999999
 31
0.0
 11
60.57635499999997
 21
66.84739799999999
 31
0.0
 11
60.42547399999993
 21
66.83500400000004
 31
0.0
 11
60.27459499999997
 21
66.82262100000004
 31
0.0
 11
60.12371899999997
 21
66.81025099999999
 31
0.0
 11
59.97284399999993
 21
66.79789299999999
 31
0.0
 11
59.82197099999996
 21
66.785548
 31
0.0
 11
59.67110099999995
 21
66.773214
 31
0.0
 11
59.52023299999996
 21
66.76089300000001
 31
0.0
 11
59.36936599999995
 21
66.74858399999999
 31
0.0
 11
59.21850199999999
 21
66.736288
 31
0.0
 11
59.06763999999999
 21
66.72400399999998
 31
0.0
 11
58.91677999999995
 21
66.71173199999998
 31
0.0
 11
58.76592199999998
 21
66.69947200000001
 31
0.0
 11
58.61506599999994
 21
66.68722500000001
 31
0.0
  0
SPLINE
  5
3FBA
330
1E
100
AcDbEntity
  8
CUT
100
AcDbSpline
210
0.0
220
0.0
230
1.0
 70
     8
 71
     3
 72
    36
 73
    32
 74
    30
 42
0.0000000001
 43
0.0000000001
 44
0.0000000001
 12
0.7354071612099081
 22
-0.6776254918767332
 32
0.0
 13
0.7352063375878667
 23
-0.6778433751027121
 33
0.0
 40
0.0
 40
0.0
 40
0.0
 40
0.0
 40
0.0240142323841537
 40
0.0480284071357278
 40
0.072040491135256
 40
0.0960532528465122
 40
0.1200646015174813
 40
0.144075272478527
 40
0.1680852081094258
 40
0.1920944084292978
 40
0.216103608749194
 40
0.2401113960275005
 40
0.2641191833058167
 40
0.2881255575426371
 40
0.3121319317795005
 40
0.33613757072123
 40
0.3601417966200014
 40
0.3841460225188061
 40
0.408148835374776
 40
0.432151648230767
 40
0.456153725807528
 40
0.4801550681241486
 40
0.5041557326566314
 40
0.528154984144956
 40
0.5521542356332774
 40
0.5761527518582326
 40
0.6001512680831932
 40
0.6241483712625659
 40
0.6481447391960302
 40
0.6721404293299247
 40
0.6961353842162672
 40
0.6961353842162672
 40
0.6961353842162672
 40
0.6961353842162672
 10
58.10320499999999
 20
67.15903300000002
 30
0.0
 10
58.10909174615541
 20
67.1536087813229
 30
0.0
 10
58.12086414549186
 20
67.14275918618199
 30
0.0
 10
58.1385212672824
 20
67.12648423333634
 30
0.0
 10
58.15617935013502
 20
67.11021104656649
 30
0.0
 10
58.17383563615577
 20
67.09393730023023
 30
0.0
 10
58.19149168085136
 20
67.07766398704951
 30
0.0
 10
58.20914795105597
 20
67.06139230857124
 30
0.0
 10
58.22680290691065
 20
67.04512026065289
 30
0.0
 10
58.24445697948046
 20
67.02884797773778
 30
0.0
 10
58.26211064860565
 20
67.01257631373832
 30
0.0
 10
58.27976400173246
 20
66.99630500187969
 30
0.0
 10
58.29741665178858
 20
66.98003431719126
 30
0.0
 10
58.31506896674744
 20
66.96376396392406
 30
0.0
 10
58.33272095465985
 20
66.94749431244684
 30
0.0
 10
58.35037160674954
 20
66.93122426832933
 30
0.0
 10
58.36802201382178
 20
66.91495501499527
 30
0.0
 10
58.38567164530107
 20
66.89868631015406
 30
0.0
 10
58.40332098065812
 20
66.88241797901617
 30
0.0
 10
58.42096990551992
 20
66.86615025912512
 30
0.0
 10
58.43861795556807
 20
66.84988231339774
 30
0.0
 10
58.45626466447841
 20
66.83361396935993
 30
0.0
 10
58.47391169718396
 20
66.8173473664376
 30
0.0
 10
58.49155795638856
 20
66.80108095269011
 30
0.0
 10
58.50920395073089
 20
66.78481530815552
 30
0.0
 10
58.52684897925828
 20
66.76854897749854
 30
0.0
 10
58.54449360572039
 20
66.75228326722138
 30
0.0
 10
58.56213799343395
 20
66.73601835446241
 30
0.0
 10
58.57978064674856
 20
66.71975295013959
 30
0.0
 10
58.59742389636762
 20
66.7034892491793
 30
0.0
 10
58.60918558569907
 20
66.69264660706854
 30
0.0
 10
58.61506599999994
 20
66.68722500000001
 30
0.0
 11
58.10320499999999
 21
67.15903300000002
 31
0.0
 11
58.12086399999998
 21
67.14275900000001
 31
0.0
 11
58.13852199999995
 21
67.126484
 31
0.0
 11
58.15617899999995
 21
67.11021099999999
 31
0.0
 11
58.17383599999999
 21
67.09393699999998
 31
0.0
 11
58.19149199999998
 21
67.07766400000001
 31
0.0
 11
58.20914799999997
 21
67.06139200000001
 31
0.0
 11
58.22680299999995
 21
67.04512
 31
0.0
 11
58.24445699999993
 21
67.02884799999998
 31
0.0
 11
58.262111
 21
67.01257600000002
 31
0.0
 11
58.27976399999999
 21
66.99630500000001
 31
0.0
 11
58.29741699999999
 21
66.98003399999997
 31
0.0
 11
58.31506899999999
 21
66.96376400000002
 31
0.0
 11
58.33272099999998
 21
66.947494
 31
0.0
 11
58.35037199999998
 21
66.93122399999999
 31
0.0
 11
58.36802199999999
 21
66.91495500000002
 31
0.0
 11
58.38567199999999
 21
66.898686
 31
0.0
 11
58.403321
 21
66.88241800000004
 31
0.0
 11
58.42096999999995
 21
66.86615
 31
0.0
 11
58.43861799999995
 21
66.84988199999998
 31
0.0
 11
58.45626499999998
 21
66.83361400000001
 31
0.0
 11
58.47391199999997
 21
66.81734699999998
 31
0.0
 11
58.49155799999999
 21
66.80108100000001
 31
0.0
 11
58.50920399999996
 21
66.78481499999998
 31
0.0
 11
58.52684899999996
 21
66.76854900000001
 31
0.0
 11
58.54449399999998
 21
66.75228300000004
 31
0.0
 11
58.56213799999999
 21
66.736018
 31
0.0
 11
58.57978099999996
 21
66.71975300000003
 31
0.0
 11
58.59742399999998
 21
66.70348899999999
 31
0.0
 11
58.61506599999994
 21
66.68722500000001
 31
0.0
  0
SPLINE
  5
3FBB
330
1E
100
AcDbEntity
  8
CUT
100
AcDbSpline
210
0.0
220
0.0
230
1.0
 70
     8
 71
     3
 72
    36
 73
    32
 74
    30
 42
0.0000000001
 43
0.0000000001
 44
0.0000000001
 12
-0.9969067180970508
 22
-0.0785938637106456
 32
0.0
 13
-0.9970157037657571
 23
-0.0771990054629729
 33
0.0
 40
0.0
 40
0.0
 40
0.0
 40
0.0
 40
0.1135219874781683
 40
0.2270435821903795
 40
0.3405637089565022
 40
0.4540823680835559
 40
0.5676006351818204
 40
0.6811164382799311
 40
0.7946307746079735
 40
0.9081447196411968
 40
1.021656279722084
 40
1.135167292654742
 40
1.248676918083642
 40
1.362185156220775
 40
1.475691929278588
 40
1.589197237564142
 40
1.702701081384513
 40
1.816203538890951
 40
1.92970560726416
 40
2.043205137272007
 40
2.156704278665239
 40
2.270202034682702
 40
2.38369825032447
 40
2.497193081101063
 40
2.610686527224564
 40
2.724178511443725
 40
2.837669034065678
 40
2.951158095397569
 40
3.06464677006163
 40
3.178132986991217
 40
3.291618817727955
 40
3.291618817727955
 40
3.291618817727955
 40
3.291618817727955
 10
61.89836299999996
 20
79.887495
 30
0.0
 10
61.86063938934372
 20
79.88452095612932
 30
0.0
 10
61.78519219577918
 20
79.8785741820934
 30
0.0
 10
61.67202156692465
 20
79.8696590337547
 30
0.0
 10
61.55885156937987
 20
79.86075000046338
 30
0.0
 10
61.44568218757217
 20
79.85184728170065
 30
0.0
 10
61.33251389876157
 20
79.84294904720222
 30
0.0
 10
61.21934656673222
 20
79.83405702854767
 30
0.0
 10
61.10618019510474
 20
79.82517118115386
 30
0.0
 10
60.99301484304034
 20
79.81629041875597
 30
0.0
 10
60.87985029242894
 20
79.80741360356635
 30
0.0
 10
60.76668651365405
 20
79.79854536507182
 30
0.0
 10
60.65352352341601
 20
79.78968123938622
 30
0.0
 10
60.54036156777471
 20
79.78082200433172
 30
0.0
 10
60.42720056137241
 20
79.77196908418024
 30
0.0
 10
60.31404056767476
 20
79.76312200156961
 30
0.0
 10
60.20088152209815
 20
79.75428124983962
 30
0.0
 10
60.08772318483255
 20
79.74544529907593
 30
0.0
 10
59.97456594805361
 20
79.73661372633464
 30
0.0
 10
59.86140918632877
 20
79.72779027639787
 30
0.0
 10
59.74825351461277
 20
79.71897134020666
 30
0.0
 10
59.63509861904948
 20
79.71015666382948
 30
0.0
 10
59.52194451318049
 20
79.70135035516765
 30
0.0
 10
59.40879152191472
 20
79.69254824180165
 30
0.0
 10
59.29563956635822
 20
79.68375100170113
 30
0.0
 10
59.1824885594044
 20
79.67496008922061
 30
0.0
 10
59.06933856765038
 20
79.6661749809456
 30
0.0
 10
58.95618918368748
 20
79.65739629852215
 30
0.0
 10
58.84304089955242
 20
79.64862199575597
 30
0.0
 10
58.72989319251303
 20
79.63985418158093
 30
0.0
 10
58.65446171846645
 20
79.63401233108903
 30
0.0
 10
58.61674599999997
 20
79.63109200000002
 30
0.0
 11
61.89836299999996
 21
79.887495
 31
0.0
 11
61.78519199999999
 21
79.87857500000003
 31
0.0
 11
61.67202099999997
 21
79.86966000000002
 31
0.0
 11
61.55885099999998
 21
79.86075099999999
 31
0.0
 11
61.44568199999997
 21
79.85184800000002
 31
0.0
 11
61.332513
 21
79.84295000000004
 31
0.0
 11
61.21934599999995
 21
79.83405800000004
 31
0.0
 11
61.10617999999998
 21
79.825172
 31
0.0
 11
60.99301399999995
 21
79.81629100000003
 31
0.0
 11
60.87984999999997
 21
79.80741499999999
 31
0.0
 11
60.76668599999997
 21
79.79854599999999
 31
0.0
 11
60.65352299999993
 21
79.78968200000001
 31
0.0
 11
60.54036099999995
 21
79.780823
 31
0.0
 11
60.42719999999996
 21
79.77197
 31
0.0
 11
60.31403999999997
 21
79.763123
 31
0.0
 11
60.20088099999997
 21
79.75428199999999
 31
0.0
 11
60.08772299999996
 21
79.74544600000001
 31
0.0
 11
59.97456499999998
 21
79.73661500000002
 31
0.0
 11
59.86140899999997
 21
79.72779100000003
 31
0.0
 11
59.74825299999997
 21
79.71897200000002
 31
0.0
 11
59.63509799999997
 21
79.71015800000003
 31
0.0
 11
59.52194399999996
 21
79.70135099999999
 31
0.0
 11
59.40879099999992
 21
79.69254899999999
 31
0.0
 11
59.29563899999998
 21
79.68375200000001
 31
0.0
 11
59.18248799999997
 21
79.67496099999999
 31
0.0
 11
59.06933799999995
 21
79.66617600000001
 31
0.0
 11
58.95618899999998
 21
79.657397
 31
0.0
 11
58.84303999999996
 21
79.64862299999999
 31
0.0
 11
58.729893
 21
79.63985500000003
 31
0.0
 11
58.61674599999997
 21
79.63109200000002
 31
0.0
  0
SPLINE
  5
3FBC
330
1E
100
AcDbEntity
  8
CUT
100
AcDbSpline
210
0.0
220
0.0
230
1.0
 70
     8
 71
     3
 72
    36
 73
    32
 74
    30
 42
0.0000000001
 43
0.0000000001
 44
0.0000000001
 12
-0.6841798741440276
 22
-0.729313307033584
 32
0.0
 13
-0.6840678345762071
 23
-0.7294183968739884
 33
0.0
 40
0.0
 40
0.0
 40
0.0
 40
0.0
 40
0.0258006768322202
 40
0.0516013989345161
 40
0.0774028051365105
 40
0.1032035272388211
 40
0.1290042493411164
 40
0.1548056555430797
 40
0.180607107052632
 40
0.206407829154948
 40
0.2322092806645106
 40
0.2580107321740725
 40
0.2838121836835921
 40
0.309612951133441
 40
0.3354144026429932
 40
0.3612165835779445
 40
0.387017351027783
 40
0.4128195319627289
 40
0.438621028857295
 40
0.46442320979222
 40
0.4902247066867862
 40
0.5160269330442143
 40
0.5418284299387749
 40
0.5676306562962175
 40
0.5934328826536274
 40
0.6192343795481678
 40
0.6450373353866056
 40
0.6708395617440337
 40
0.6966417881014619
 40
0.7224440599588043
 40
0.748246286316242
 40
0.748246286316242
 40
0.748246286316242
 40
0.748246286316242
 10
58.61674599999997
 20
79.63109200000002
 30
0.0
 10
58.610861898724
 20
79.62481974101862
 30
0.0
 10
58.59909481783597
 20
79.612274150144
 30
0.0
 10
58.58144506639693
 20
79.59345462509505
 30
0.0
 10
58.56379397027422
 20
79.5746363405149
 30
0.0
 10
58.5461439884921
 20
79.555817010793
 30
0.0
 10
58.52849407575779
 20
79.53699761631246
 30
0.0
 10
58.51084260615065
 20
79.51817934867904
 30
0.0
 10
58.49319343762946
 20
79.49935892289675
 30
0.0
 10
58.47554263093297
 20
79.48054001279968
 30
0.0
 10
58.45789304069221
 20
79.46171996183551
 30
0.0
 10
58.44024303997827
 20
79.44289996250896
 30
0.0
 10
58.42259295537806
 20
79.42408035444834
 30
0.0
 10
58.40494407438513
 20
79.40525961763924
 30
0.0
 10
58.38729364487014
 20
79.38643999971016
 30
0.0
 10
58.36964434817105
 20
79.36761931941706
 30
0.0
 10
58.35199472990083
 20
79.34879860736853
 30
0.0
 10
58.33434495439605
 20
79.32997835535063
 30
0.0
 10
58.31669606603502
 20
79.31115662548939
 30
0.0
 10
58.2990460016127
 20
79.2923363110755
 30
0.0
 10
58.28139669701712
 20
79.27351495077217
 30
0.0
 10
58.26374836835771
 20
79.25469298792346
 30
0.0
 10
58.24609866116517
 20
79.23587198439349
 30
0.0
 10
58.2284499890452
 20
79.21705001027177
 30
0.0
 10
58.210801382653
 20
79.19822797452026
 30
0.0
 10
58.19315131194695
 20
79.17940697850681
 30
0.0
 10
58.17550337369197
 20
79.16058398293586
 30
0.0
 10
58.15785402490155
 20
79.14176197665597
 30
0.0
 10
58.14020468265336
 20
79.12294027675411
 30
0.0
 10
58.12255718224156
 20
79.10411684994463
 30
0.0
 10
58.11079149103715
 20
79.09156853952852
 30
0.0
 10
58.10490799999996
 20
79.08529500000004
 30
0.0
 11
58.61674599999997
 21
79.63109200000002
 31
0.0
 11
58.59909499999996
 21
79.61227400000002
 31
0.0
 11
58.58144499999998
 21
79.59345500000001
 31
0.0
 11
58.56379399999998
 21
79.574636
 31
0.0
 11
58.54614399999996
 21
79.55581699999999
 31
0.0
 11
58.52849399999996
 21
79.53699799999999
 31
0.0
 11
58.51084299999996
 21
79.51817900000003
 31
0.0
 11
58.49319299999995
 21
79.49935900000004
 31
0.0
 11
58.47554299999995
 21
79.48054000000002
 31
0.0
 11
58.45789299999995
 21
79.46172000000001
 31
0.0
 11
58.44024299999993
 21
79.44290000000002
 31
0.0
 11
58.42259300000001
 21
79.42408
 31
0.0
 11
58.40494399999999
 21
79.40525999999998
 31
0.0
 11
58.38729399999999
 21
79.38644
 31
0.0
 11
58.36964399999999
 21
79.36761899999999
 31
0.0
 11
58.35199499999998
 21
79.34879899999998
 31
0.0
 11
58.33434499999998
 21
79.32997799999999
 31
0.0
 11
58.31669599999997
 21
79.31115699999999
 31
0.0
 11
58.29904599999997
 21
79.29233600000003
 31
0.0
 11
58.28139699999996
 21
79.27351500000003
 31
0.0
 11
58.26374799999996
 21
79.25469300000003
 31
0.0
 11
58.24609899999995
 21
79.23587200000004
 31
0.0
 11
58.22844999999993
 21
79.21705000000004
 31
0.0
 11
58.21080099999999
 21
79.19822800000002
 31
0.0
 11
58.19315199999999
 21
79.17940700000004
 31
0.0
 11
58.17550299999997
 21
79.16058400000004
 31
0.0
 11
58.15785399999998
 21
79.14176200000004
 31
0.0
 11
58.14020499999998
 21
79.12294000000004
 31
0.0
 11
58.12255699999997
 21
79.10411700000004
 31
0.0
 11
58.10490799999996
 21
79.08529500000004
 31
0.0
  0
SPLINE
  5
3FBD
330
1E
100
AcDbEntity
  8
CUT
100
AcDbSpline
210
0.0
220
0.0
230
1.0
 70
     8
 71
     3
 72
    36
 73
    32
 74
    30
 42
0.0000000001
 43
0.0000000001
 44
0.0000000001
 12
-0.0030084341962728
 22
0.9999954746516038
 32
0.0
 13
-0.9969844694353261
 23
-0.0776013382923342
 33
0.0
 40
0.0
 40
0.0
 40
0.0
 40
0.0
 40
0.0569274856989614
 40
0.113550444690827
 40
0.1701349629710083
 40
0.2269037325542566
 40
0.2834574169612678
 40
0.3399958449637859
 40
0.3964578201772034
 40
0.4526882803389493
 40
0.5089579575194799
 40
0.5649874938730807
 40
0.6210272571845161
 40
0.6770142260433274
 40
0.7329925418540153
 40
0.7891205695229106
 40
0.8452689665614814
 40
0.9017177313398272
 40
0.9582024628430707
 40
1.014868506643582
 40
1.071705785836036
 40
1.128515283290286
 40
1.185569208632874
 40
1.242610442227553
 40
1.299862084824037
 40
1.357233971641552
 40
1.414689416727268
 40
1.472407249413521
 40
1.530089970543873
 40
1.587929260045043
 40
1.646150654394573
 40
1.646150654394573
 40
1.646150654394573
 40
1.646150654394573
 10
62.99360899999999
 20
78.913507
 30
0.0
 10
62.99355191246843
 20
78.93248274269407
 30
0.0
 10
62.99233803133522
 20
78.9703389040651
 30
0.0
 10
62.98719419870078
 20
79.02684836579543
 30
0.0
 10
62.97870596664704
 20
79.08290219089763
 30
0.0
 10
62.96691182496506
 20
79.13832906733429
 30
0.0
 10
62.95191999893411
 20
79.19296303515058
 30
0.0
 10
62.93369583215831
 20
79.24649743903593
 30
0.0
 10
62.91243976334978
 20
79.29878370203889
 30
0.0
 10
62.88819116957244
 20
79.34965362976161
 30
0.0
 10
62.86105565104428
 20
79.3988773520193
 30
0.0
 10
62.83119851352827
 20
79.44642442765053
 30
0.0
 10
62.79865383053614
 20
79.49205860383293
 30
0.0
 10
62.76358034987477
 20
79.53575544834227
 30
0.0
 10
62.72604144367946
 20
79.57739357717116
 30
0.0
 10
62.68616176898049
 20
79.61687162537955
 30
0.0
 10
62.64398419109119
 20
79.65412182941971
 30
0.0
 10
62.59968070422323
 20
79.68900799850522
 30
0.0
 10
62.55335339149787
 20
79.72146090597455
 30
0.0
 10
62.50514804874566
 20
79.75129813966109
 30
0.0
 10
62.45527568013962
 20
79.77848279034657
 30
0.0
 10
62.4038392090689
 20
79.80288154915811
 30
0.0
 10
62.35106984868333
 20
79.82442356734665
 30
0.0
 10
62.29705331398623
 20
79.84307145641522
 30
0.0
 10
62.2419859337094
 20
79.858729522747
 30
0.0
 10
62.18601237783104
 20
79.87139516205937
 30
0.0
 10
62.12926985052131
 20
79.88096497975821
 30
0.0
 10
62.07199005304677
 20
79.88746170022081
 30
0.0
 10
62.01431049879837
 20
79.8908041123607
 30
0.0
 10
61.9563690152153
 20
79.89097667516972
 30
0.0
 10
61.91771060865173
 20
79.88900101937293
 30
0.0
 10
61.89836199999994
 20
79.887495
 30
0.0
 11
62.99360899999999
 21
78.913507
 31
0.0
 11
62.99177699999995
 21
78.97040500000004
 31
0.0
 11
62.98663499999997
 21
79.026794
 31
0.0
 11
62.97816499999998
 21
79.08274099999999
 31
0.0
 11
62.966361
 21
79.13826899999996
 31
0.0
 11
62.95137499999998
 21
79.19280100000003
 31
0.0
 11
62.933175
 21
79.24633
 31
0.0
 11
62.91190399999997
 21
79.29863199999999
 31
0.0
 11
62.88770499999998
 21
79.34938900000002
 31
0.0
 11
62.86055599999997
 21
79.39867600000003
 31
0.0
 11
62.83074399999997
 21
79.44611600000001
 31
0.0
 11
62.79821999999995
 21
79.49175200000002
 31
0.0
 11
62.76317099999999
 21
79.53541100000002
 31
0.0
 11
62.72569199999997
 21
79.57699100000002
 31
0.0
 11
62.68580299999996
 21
79.61647800000001
 31
0.0
 11
62.64372199999996
 21
79.65365100000003
 31
0.0
 11
62.59937599999993
 21
79.68857800000001
 31
0.0
 11
62.553109
 21
79.72097999999999
 31
0.0
 11
62.50493499999998
 21
79.75081799999999
 31
0.0
 11
62.45502599999997
 21
79.77801299999999
 31
0.0
 11
62.40370199999993
 21
79.802368
 31
0.0
 11
62.35088099999995
 21
79.82393399999999
 31
0.0
 11
62.29696199999994
 21
79.84254700000002
 31
0.0
 11
62.24189599999998
 21
79.85821500000004
 31
0.0
 11
62.18593699999996
 21
79.87086900000001
 31
0.0
 11
62.12928399999999
 21
79.88043800000004
 31
0.0
 11
62.071933
 21
79.886935
 31
0.0
 11
62.01434699999998
 21
79.89027400000003
 31
0.0
 11
61.95650799999998
 21
79.89045700000002
 31
0.0
 11
61.89836199999994
 21
79.887495
 31
0.0
  0
LINE
  5
3FBE
330
1E
100
AcDbEntity
  8
NOCUT
100
AcDbLine
 10
61.59999999999978
 20
-0.0000000000000296
 30
0.0
 11
0.0
 21
-0.0000000000000296
 31
0.0
  0
LINE
  5
3FBF
330
1E
100
AcDbEntity
  8
NOCUT
100
AcDbLine
 10
27.01480577059998
 20
77.15
 30
0.0
 11
20.86602540379988
 21
66.49999999999997
 31
0.0
  0
LINE
  5
3FC0
330
1E
100
AcDbEntity
  8
NOCUT
100
AcDbLine
 10
0.0
 20
59.99999999999997
 30
0.0
 11
0.0
 21
-0.0000000000000296
 31
0.0
  0
ARC
  5
3FC1
330
1E
100
AcDbEntity
  8
NOCUT
100
AcDbCircle
 10
5.0
 20
59.99999999999997
 30
0.0
 40
5.0
100
AcDbArc
 50
90.0
 51
180.0
  0
LINE
  5
3FC2
330
1E
100
AcDbEntity
  8
NOCUT
100
AcDbLine
 10
18.26794919239988
 20
64.99999999999997
 30
0.0
 11
5.0
 21
64.99999999999997
 31
0.0
  0
ARC
  5
3FC3
330
1E
100
AcDbEntity
  8
NOCUT
100
AcDbCircle
 10
18.26794919239988
 20
67.99999999999997
 30
0.0
 40
3.0
100
AcDbArc
 50
270.0
 51
329.9999999349988
  0
LINE
  5
3FC4
330
1E
100
AcDbEntity
  8
NOCUT
100
AcDbLine
 10
61.59999999999978
 20
-0.0000000000000296
 30
0.0
 11
61.5999999999999
 21
77.05
 31
0.0
  0
LINE
  5
3FC5
330
1E
100
AcDbEntity
  8
NOCUT
100
AcDbLine
 10
59.99999999999989
 20
78.65000000000001
 30
0.0
 11
29.61288198199996
 21
78.65000000000001
 31
0.0
  0
ARC
  5
3FC6
330
1E
100
AcDbEntity
  8
NOCUT
100
AcDbCircle
 10
29.61288198199996
 20
75.65000000000001
 30
0.0
 40
3.0
100
AcDbArc
 50
90.0
 51
149.9999996772013
  0
ARC
  5
3FC7
330
1E
100
AcDbEntity
  8
NOCUT
100
AcDbCircle
 10
59.99999999999989
 20
77.05
 30
0.0
 40
1.6
100
AcDbArc
 50
0.0000025934012855
 51
90.0
  0
LWPOLYLINE
  5
401E
102
{ACAD_REACTORS
330
403C
102
}
330
1E
100
AcDbEntity
  8
1
100
AcDbPolyline
 90
        3
 70
     1
 43
0.0
 10
0.0
 20
2.950972054112583
 10
0.0
 20
0.0
 10
2.950972054112639
 20
0.0
 42
0.4142135623730966
  0
CIRCLE
  5
401F
102
{ACAD_REACTORS
330
403C
102
}
330
1E
100
AcDbEntity
  8
1
100
AcDbCircle
 10
0.0
 20
0.0
 30
0.0
 40
2.950972054112601
  0
HATCH
  5
4020
102
{ACAD_REACTORS
330
403C
102
}
330
1E
100
AcDbEntity
  8
1
100
AcDbHatch
 10
0.0
 20
0.0
 30
0.0
210
0.0
220
0.0
230
1.0
  2
SOLID
 70
     1
 71
     0
 91
        2
 92
        7
 72
     1
 73
     1
 93
        3
 10
0.0
 20
0.0
 42
0.0
 10
2.950972054112639
 20
0.0
 42
0.4142135623730966
 10
0.0
 20
2.950972054112583
 42
0.0
 97
        0
 92
        7
 72
     1
 73
     1
 93
        3
 10
0.0
 20
-2.950972054112583
 42
0.0
 10
0.0
 20
0.0
 42
0.0
 10
-2.950972054112639
 20
0.0
 42
0.4142135623730953
 97
        0
 75
     0
 76
     1
 47
0.1190009775223266
 98
        2
 10
0.7445530588120164
 20
0.9212244733764691
 10
-1.279464601852851
 20
-1.696796923046349
  0
LINE
  5
4021
102
{ACAD_REACTORS
330
403C
102
}
330
1E
100
AcDbEntity
  8
1
100
AcDbLine
 10
-2.950972054112753
 20
0.0
 30
0.0
 11
2.950972054112526
 21
0.0
 31
0.0
  0
LINE
  5
4022
102
{ACAD_REACTORS
330
403C
102
}
330
1E
100
AcDbEntity
  8
1
100
AcDbLine
 10
0.0
 20
2.950972054112583
 30
0.0
 11
0.0
 21
-2.950972054112639
 31
0.0
  0
LWPOLYLINE
  5
4023
102
{ACAD_REACTORS
330
403C
102
}
330
1E
100
AcDbEntity
  8
1
100
AcDbPolyline
 90
        3
 70
     1
 43
0.0
 10
0.0
 20
0.0
 10
-2.950972054112639
 20
0.0
 42
0.4142135623730966
 10
0.0
 20
-2.950972054112611
  0
LINE
  5
4024
330
1E
100
AcDbEntity
  8
1
100
AcDbLine
 10
62.99999999999999
 20
80.46376936984882
 30
0.0
 11
62.99999999999999
 21
79.53623063015118
 31
0.0
  0
CIRCLE
  5
4025
330
1E
100
AcDbEntity
  8
1
100
AcDbCircle
 10
62.99999999999999
 20
80.0
 30
0.0
 40
0.463769369848821
  0
LINE
  5
4026
330
1E
100
AcDbEntity
  8
1
100
AcDbLine
 10
62.53623063015117
 20
80.0
 30
0.0
 11
63.46376936984881
 21
80.0
 31
0.0
  0
ENDSEC
  0
SECTION
  2
OBJECTS
  0
DICTIONARY
  5
C
330
0
100
AcDbDictionary
281
     1
  3
ACAD_COLOR
350
3DAE
  3
ACAD_GROUP
350
D
  3
ACAD_LAYOUT
350
19
  3
ACAD_MATERIAL
350
3DAD
  3
ACAD_MLINESTYLE
350
16
  3
ACAD_PLOTSETTINGS
350
18
  3
ACAD_PLOTSTYLENAME
350
3DAB
  3
ACAD_TABLESTYLE
350
3DAF
  3
AcDbVariableDictionary
350
3DEA
1001
ACAD
1000
TREAT_AS_HARD
1070
     0
  0
DICTIONARY
  5
31AF
330
1E
100
AcDbDictionary
281
     1
  3
ACAD_LAYOUTSELFREF
350
31B0
  0
DICTIONARY
  5
31AD
330
1A
100
AcDbDictionary
281
     1
  3
ACAD_LAYOUTSELFREF
350
31AE
  0
DICTIONARY
  5
3DAE
102
{ACAD_REACTORS
330
C
102
}
330
C
100
AcDbDictionary
281
     1
  0
DICTIONARY
  5
D
102
{ACAD_REACTORS
330
C
102
}
330
C
100
AcDbDictionary
281
     1
  3
*A1
350
403C
1001
ACAD
1000
TREAT_AS_HARD
1070
     0
  0
DICTIONARY
  5
19
102
{ACAD_REACTORS
330
C
102
}
330
C
100
AcDbDictionary
281
     1
  3
Layout1
350
3DB2
  3
Model
350
3DB1
1001
ACAD
1000
TREAT_AS_HARD
1070
     0
  0
DICTIONARY
  5
3DAD
102
{ACAD_REACTORS
330
C
102
}
330
C
100
AcDbDictionary
281
     1
  0
DICTIONARY
  5
16
102
{ACAD_REACTORS
330
C
102
}
330
C
100
AcDbDictionary
281
     1
  3
STANDARD
350
17
1001
ACAD
1000
TREAT_AS_HARD
1070
     0
  0
DICTIONARY
  5
18
102
{ACAD_REACTORS
330
C
102
}
330
C
100
AcDbDictionary
281
     1
1001
ACAD
1000
TREAT_AS_HARD
1070
     0
  0
ACDBDICTIONARYWDFLT
  5
3DAB
102
{ACAD_REACTORS
330
C
102
}
330
C
100
AcDbDictionary
281
     1
  3
Normal
350
3DAC
100
AcDbDictionaryWithDefault
340
3DAC
  0
DICTIONARY
  5
3DAF
102
{ACAD_REACTORS
330
C
102
}
330
C
100
AcDbDictionary
281
     1
  3
Standard
350
3DB0
  0
DICTIONARY
  5
3DEA
102
{ACAD_REACTORS
330
C
102
}
330
C
100
AcDbDictionary
281
     1
  3
CTABLESTYLE
350
3DEB
  3
DIMASSOC
350
3DEC
  3
PROJECTNAME
350
3DED
  0
XRECORD
  5
31B0
102
{ACAD_REACTORS
330
31AF
102
}
330
31AF
100
AcDbXrecord
280
     1
340
1E
  0
XRECORD
  5
31AE
102
{ACAD_REACTORS
330
31AD
102
}
330
31AD
100
AcDbXrecord
280
     1
340
1A
  0
GROUP
  5
403C
102
{ACAD_REACTORS
330
D
102
}
330
D
100
AcDbGroup
300

 70
     1
 71
     1
340
401E
340
4021
340
4020
340
401F
340
4022
340
4023
  0
LAYOUT
  5
3DB2
102
{ACAD_XDICTIONARY
360
3DF2
102
}
102
{ACAD_REACTORS
330
19
102
}
330
19
100
AcDbPlotSettings
  1

  2
\\ingdom02\ITB3
  4

  6

 40
0.0
 41
0.0
 42
0.0
 43
0.0
 44
0.0
 45
0.0
 46
0.0
 47
0.0
 48
0.0
 49
0.0
140
0.0
141
0.0
142
1.0
143
1.0
 70
   688
 72
     0
 73
     0
 74
     5
  7
^A
 75
    16
147
1.0
148
0.0
149
0.0
100
AcDbLayout
  1
Layout1
 70
     1
 71
     1
 10
0.0
 20
0.0
 11
12.0
 21
9.0
 12
0.0
 22
0.0
 32
0.0
 14
100.0
 24
100.0
 34
100.0
 15
-100.0
 25
-100.0
 35
-100.0
146
0.0
 13
0.0
 23
0.0
 33
0.0
 16
1.0
 26
0.0
 36
0.0
 17
0.0
 27
1.0
 37
0.0
 76
     0
330
1A
  0
LAYOUT
  5
3DB1
102
{ACAD_XDICTIONARY
360
3DF0
102
}
102
{ACAD_REACTORS
330
19
102
}
330
19
100
AcDbPlotSettings
  1

  2
\\ingdom02\ITB3
  4

  6

 40
0.0
 41
0.0
 42
0.0
 43
0.0
 44
0.0
 45
0.0
 46
0.0
 47
0.0
 48
0.0
 49
0.0
140
0.0
141
0.0
142
1.0
143
1.0
 70
  1712
 72
     0
 73
     0
 74
     0
  7
^A
 75
     0
147
1.0
148
0.0
149
0.0
100
AcDbLayout
  1
Model
 70
     1
 71
     0
 10
0.0
 20
0.0
 11
12.0
 21
9.0
 12
0.0
 22
0.0
 32
0.0
 14
0.0
 24
0.0
 34
0.0
 15
0.0
 25
0.0
 35
0.0
146
0.0
 13
0.0
 23
0.0
 33
0.0
 16
1.0
 26
0.0
 36
0.0
 17
0.0
 27
1.0
 37
0.0
 76
     0
330
1E
  0
MLINESTYLE
  5
17
102
{ACAD_REACTORS
330
16
102
}
330
16
100
AcDbMlineStyle
  2
STANDARD
 70
     0
  3

 62
   256
 51
90.0
 52
90.0
 71
     2
 49
0.5
 62
   256
  6
BYLAYER
 49
-0.5
 62
   256
  6
BYLAYER
  0
ACDBPLACEHOLDER
  5
3DAC
102
{ACAD_REACTORS
330
3DAB
102
}
330
3DAB
  0
TABLESTYLE
  5
3DB0
102
{ACAD_REACTORS
330
3DAF
102
}
330
3DAF
100
AcDbTableStyle
  3
Standard
 70
     0
 71
     0
 40
0.06
 41
0.06
280
     0
281
     0
  7
STANDARD
140
0.18
170
     2
 62
     0
 63
     7
283
     0
274
    -2
284
     1
 64
     0
275
    -2
285
     1
 65
     0
276
    -2
286
     1
 66
     0
277
    -2
287
     1
 67
     0
278
    -2
288
     1
 68
     0
279
    -2
289
     1
 69
     0
  7
STANDARD
140
0.25
170
     5
 62
     0
 63
     7
283
     0
274
    -2
284
     1
 64
     0
275
    -2
285
     1
 65
     0
276
    -2
286
     1
 66
     0
277
    -2
287
     1
 67
     0
278
    -2
288
     1
 68
     0
279
    -2
289
     1
 69
     0
  7
STANDARD
140
0.18
170
     5
 62
     0
 63
     7
283
     0
274
    -2
284
     1
 64
     0
275
    -2
285
     1
 65
     0
276
    -2
286
     1
 66
     0
277
    -2
287
     1
 67
     0
278
    -2
288
     1
 68
     0
279
    -2
289
     1
 69
     0
  0
DICTIONARYVAR
  5
3DEB
102
{ACAD_REACTORS
330
3DEA
102
}
330
3DEA
100
DictionaryVariables
280
     0
  1
STANDARD
  0
DICTIONARYVAR
  5
3DEC
102
{ACAD_REACTORS
330
3DEA
102
}
330
3DEA
100
DictionaryVariables
280
     0
  1
1
  0
DICTIONARYVAR
  5
3DED
102
{ACAD_REACTORS
330
3DEA
102
}
330
3DEA
100
DictionaryVariables
280
     0
  1

  0
DICTIONARY
  5
3DF2
330
3DB2
100
AcDbDictionary
280
     1
281
     1
  3
ACAD_XREC_ROUNDTRIP
360
3DF3
  0
DICTIONARY
  5
3DF0
330
3DB1
100
AcDbDictionary
280
     1
281
     1
  3
ACAD_XREC_ROUNDTRIP
360
3DF1
  0
XRECORD
  5
3DF3
102
{ACAD_REACTORS
330
3DF2
102
}
330
3DF2
100
AcDbXrecord
280
     1
102
SHADEPLOT
 70
     0
102
SHADEPLOTRESLEVEL
 70
     2
102
SHADEPLOTCUSTOMDPI
 70
   300
  0
XRECORD
  5
3DF1
102
{ACAD_REACTORS
330
3DF0
102
}
330
3DF0
100
AcDbXrecord
280
     1
102
SHADEPLOT
 70
     0
102
SHADEPLOTRESLEVEL
 70
     2
102
SHADEPLOTCUSTOMDPI
 70
   300
  0
ENDSEC
  0
EOF
