  0
SECTION
  2
HEADER
  9
$ACADVER
  1
AC1015
  9
$ACADMAINTVER
 70
    20
  9
$DWGCODEPAGE
  3
ANSI_1252
  9
$INSBASE
 10
0.0
 20
0.0
 30
0.0
  9
$EXTMIN
 10
-65.17883288229132
 20
-114.0012710303113
 30
-0.0015258207003583
  9
$EXTMAX
 10
101.99071022623
 20
130.2482309584611
 30
0.0000000349246037
  9
$LIMMIN
 10
-841.0
 20
0.0
  9
$LIMMAX
 10
0.0
 20
594.0
  9
$ORTHOMODE
 70
     0
  9
$REGENMODE
 70
     1
  9
$FILLMODE
 70
     1
  9
$QTEXTMODE
 70
     0
  9
$MIRRTEXT
 70
     1
  9
$LTSCALE
 40
8.0
  9
$ATTMODE
 70
     1
  9
$TEXTSIZE
 40
4.0
  9
$TRACEWID
 40
0.05
  9
$TEXTSTYLE
  7
STANDARD
  9
$CLAYER
  8
0
  9
$CELTYPE
  6
BYLAYER
  9
$CECOLOR
 62
   256
  9
$CELTSCALE
 40
1.0
  9
$DISPSILH
 70
     0
  9
$DIMSCALE
 40
1.0
  9
$DIMASZ
 40
0.18
  9
$DIMEXO
 40
0.0625
  9
$DIMDLI
 40
0.38
  9
$DIMRND
 40
0.0
  9
$DIMDLE
 40
0.0
  9
$DIMEXE
 40
0.18
  9
$DIMTP
 40
0.0
  9
$DIMTM
 40
0.0
  9
$DIMTXT
 40
3.5
  9
$DIMCEN
 40
0.09
  9
$DIMTSZ
 40
0.0
  9
$DIMTOL
 70
     0
  9
$DIMLIM
 70
     0
  9
$DIMTIH
 70
     1
  9
$DIMTOH
 70
     1
  9
$DIMSE1
 70
     0
  9
$DIMSE2
 70
     0
  9
$DIMTAD
 70
     0
  9
$DIMZIN
 70
     0
  9
$DIMBLK
  1

  9
$DIMASO
 70
     1
  9
$DIMSHO
 70
     1
  9
$DIMPOST
  1

  9
$DIMAPOST
  1

  9
$DIMALT
 70
     0
  9
$DIMALTD
 70
     2
  9
$DIMALTF
 40
25.4
  9
$DIMLFAC
 40
1.0
  9
$DIMTOFL
 70
     0
  9
$DIMTVP
 40
0.0
  9
$DIMTIX
 70
     0
  9
$DIMSOXD
 70
     0
  9
$DIMSAH
 70
     0
  9
$DIMBLK1
  1

  9
$DIMBLK2
  1

  9
$DIMSTYLE
  2
STANDARD
  9
$DIMCLRD
 70
     0
  9
$DIMCLRE
 70
     0
  9
$DIMCLRT
 70
     0
  9
$DIMTFAC
 40
1.0
  9
$DIMGAP
 40
0.09
  9
$DIMJUST
 70
     0
  9
$DIMSD1
 70
     0
  9
$DIMSD2
 70
     0
  9
$DIMTOLJ
 70
     1
  9
$DIMTZIN
 70
     0
  9
$DIMALTZ
 70
     0
  9
$DIMALTTZ
 70
     0
  9
$DIMUPT
 70
     0
  9
$DIMDEC
 70
     4
  9
$DIMTDEC
 70
     4
  9
$DIMALTU
 70
     2
  9
$DIMALTTD
 70
     2
  9
$DIMTXSTY
  7
STANDARD
  9
$DIMAUNIT
 70
     0
  9
$DIMADEC
 70
     0
  9
$DIMALTRND
 40
0.0
  9
$DIMAZIN
 70
     0
  9
$DIMDSEP
 70
    46
  9
$DIMATFIT
 70
     3
  9
$DIMFRAC
 70
     0
  9
$DIMLDRBLK
  1

  9
$DIMLUNIT
 70
     2
  9
$DIMLWD
 70
    -2
  9
$DIMLWE
 70
    -2
  9
$DIMTMOVE
 70
     0
  9
$LUNITS
 70
     2
  9
$LUPREC
 70
     6
  9
$SKETCHINC
 40
0.1
  9
$FILLETRAD
 40
0.5
  9
$AUNITS
 70
     0
  9
$AUPREC
 70
     4
  9
$MENU
  1
.
  9
$ELEVATION
 40
0.0
  9
$PELEVATION
 40
0.0
  9
$THICKNESS
 40
0.0
  9
$LIMCHECK
 70
     0
  9
$CHAMFERA
 40
0.0
  9
$CHAMFERB
 40
0.0
  9
$CHAMFERC
 40
0.0
  9
$CHAMFERD
 40
0.0
  9
$SKPOLY
 70
     0
  9
$TDCREATE
 40
2311949.301151898
  9
$TDUCREATE
 40
2311949.217818565
  9
$TDUPDATE
 40
2454225.645216435
  9
$TDUUPDATE
 40
2454225.561883102
  9
$TDINDWG
 40
0.0413471412
  9
$TDUSRTIMER
 40
0.0413469560
  9
$USRTIMER
 70
     1
  9
$ANGBASE
 50
0.0
  9
$ANGDIR
 70
     0
  9
$PDMODE
 70
     0
  9
$PDSIZE
 40
0.0
  9
$PLINEWID
 40
0.0
  9
$SPLFRAME
 70
     0
  9
$SPLINETYPE
 70
     6
  9
$SPLINESEGS
 70
     8
  9
$HANDSEED
  5
FAE
  9
$SURFTAB1
 70
     6
  9
$SURFTAB2
 70
     6
  9
$SURFTYPE
 70
     6
  9
$SURFU
 70
     6
  9
$SURFV
 70
     6
  9
$UCSBASE
  2

  9
$UCSNAME
  2

  9
$UCSORG
 10
0.0
 20
0.0
 30
0.0
  9
$UCSXDIR
 10
1.0
 20
0.0
 30
0.0
  9
$UCSYDIR
 10
0.0
 20
1.0
 30
0.0
  9
$UCSORTHOREF
  2

  9
$UCSORTHOVIEW
 70
     0
  9
$UCSORGTOP
 10
0.0
 20
0.0
 30
0.0
  9
$UCSORGBOTTOM
 10
0.0
 20
0.0
 30
0.0
  9
$UCSORGLEFT
 10
0.0
 20
0.0
 30
0.0
  9
$UCSORGRIGHT
 10
0.0
 20
0.0
 30
0.0
  9
$UCSORGFRONT
 10
0.0
 20
0.0
 30
0.0
  9
$UCSORGBACK
 10
0.0
 20
0.0
 30
0.0
  9
$PUCSBASE
  2

  9
$PUCSNAME
  2

  9
$PUCSORG
 10
0.0
 20
0.0
 30
0.0
  9
$PUCSXDIR
 10
1.0
 20
0.0
 30
0.0
  9
$PUCSYDIR
 10
0.0
 20
1.0
 30
0.0
  9
$PUCSORTHOREF
  2

  9
$PUCSORTHOVIEW
 70
     0
  9
$PUCSORGTOP
 10
0.0
 20
0.0
 30
0.0
  9
$PUCSORGBOTTOM
 10
0.0
 20
0.0
 30
0.0
  9
$PUCSORGLEFT
 10
0.0
 20
0.0
 30
0.0
  9
$PUCSORGRIGHT
 10
0.0
 20
0.0
 30
0.0
  9
$PUCSORGFRONT
 10
0.0
 20
0.0
 30
0.0
  9
$PUCSORGBACK
 10
0.0
 20
0.0
 30
0.0
  9
$USERI1
 70
     0
  9
$USERI2
 70
     0
  9
$USERI3
 70
     0
  9
$USERI4
 70
     0
  9
$USERI5
 70
     0
  9
$USERR1
 40
0.0
  9
$USERR2
 40
0.0
  9
$USERR3
 40
0.0
  9
$USERR4
 40
0.0
  9
$USERR5
 40
0.0
  9
$WORLDVIEW
 70
     1
  9
$SHADEDGE
 70
     3
  9
$SHADEDIF
 70
    70
  9
$TILEMODE
 70
     1
  9
$MAXACTVP
 70
    48
  9
$PINSBASE
 10
0.0
 20
0.0
 30
0.0
  9
$PLIMCHECK
 70
     0
  9
$PEXTMIN
 10
-841.0
 20
0.0
 30
1.000000000000000E+20
  9
$PEXTMAX
 10
0.0
 20
594.0
 30
-1.000000000000000E+20
  9
$PLIMMIN
 10
0.0
 20
0.0
  9
$PLIMMAX
 10
12.0
 20
9.0
  9
$UNITMODE
 70
     0
  9
$VISRETAIN
 70
     0
  9
$PLINEGEN
 70
     0
  9
$PSLTSCALE
 70
     1
  9
$TREEDEPTH
 70
  3020
  9
$CMLSTYLE
  2
STANDARD
  9
$CMLJUST
 70
     0
  9
$CMLSCALE
 40
1.0
  9
$PROXYGRAPHICS
 70
     1
  9
$MEASUREMENT
 70
     0
  9
$CELWEIGHT
370
    -1
  9
$ENDCAPS
280
     0
  9
$JOINSTYLE
280
     0
  9
$LWDISPLAY
290
     0
  9
$INSUNITS
 70
     0
  9
$HYPERLINKBASE
  1

  9
$STYLESHEET
  1

  9
$XEDIT
290
     1
  9
$CEPSNTYPE
380
     0
  9
$PSTYLEMODE
290
     1
  9
$FINGERPRINTGUID
  2
{70E6317A-B03D-48BD-ACD2-AE87A85FE10D}
  9
$VERSIONGUID
  2
{B706B778-FCF9-4194-B81F-708AA3E39A6D}
  9
$EXTNAMES
290
     1
  9
$PSVPSCALE
 40
0.0
  9
$OLESTARTUP
290
     0
  0
ENDSEC
  0
SECTION
  2
CLASSES
  0
CLASS
  1
IMAGE
  2
AcDbRasterImage
  3
ISM
 90
    32895
280
     0
281
     1
  0
CLASS
  1
DICTIONARYVAR
  2
AcDbDictionaryVar
  3
ObjectDBX Classes
 90
        0
280
     0
281
     0
  0
CLASS
  1
RASTERVARIABLES
  2
AcDbRasterVariables
  3
ISM
 90
    32768
280
     0
281
     0
  0
CLASS
  1
IMAGEDEF
  2
AcDbRasterImageDef
  3
ISM
 90
    32768
280
     0
281
     0
  0
CLASS
  1
IMAGEDEF_REACTOR
  2
AcDbRasterImageDefReactor
  3
ISM
 90
    32769
280
     0
281
     0
  0
CLASS
  1
IDBUFFER
  2
AcDbIdBuffer
  3
ObjectDBX Classes
 90
    32768
280
     0
281
     0
  0
CLASS
  1
SPATIAL_FILTER
  2
AcDbSpatialFilter
  3
ObjectDBX Classes
 90
    32768
280
     0
281
     0
  0
CLASS
  1
SORTENTSTABLE
  2
AcDbSortentsTable
  3
ObjectDBX Classes
 90
        0
280
     0
281
     0
  0
CLASS
  1
LAYER_INDEX
  2
AcDbLayerIndex
  3
ObjectDBX Classes
 90
    32768
280
     0
281
     0
  0
CLASS
  1
SPATIAL_INDEX
  2
AcDbSpatialIndex
  3
ObjectDBX Classes
 90
    32768
280
     0
281
     0
  0
CLASS
  1
OBJECT_PTR
  2
CAseDLPNTableRecord
  3
"ASE-LPNTableRecord"
 90
    32768
280
     0
281
     0
  0
CLASS
  1
LAYOUT
  2
AcDbLayout
  3
ObjectDBX Classes
 90
        0
280
     0
281
     0
  0
CLASS
  1
PLOTSETTINGS
  2
AcDbPlotSettings
  3
ObjectDBX Classes
 90
    32768
280
     0
281
     0
  0
CLASS
  1
ACDBDICTIONARYWDFLT
  2
AcDbDictionaryWithDefault
  3
ObjectDBX Classes
 90
        0
280
     0
281
     0
  0
CLASS
  1
ACDBPLACEHOLDER
  2
AcDbPlaceHolder
  3
ObjectDBX Classes
 90
        0
280
     0
281
     0
  0
CLASS
  1
VBA_PROJECT
  2
AcDbVbaProject
  3
acad
 90
    32768
280
     0
281
     0
  0
CLASS
  1
WIPEOUT
  2
AcDbWipeout
  3
"WipeOut|Product Desc: Object Enabler for WipeOut entity^I^I^I^I^I^I|Company: Autodesk, Inc.^I^I^I^I^I^I|WEB Address: www.autodesk.com"
 90
    32895
280
     0
281
     1
  0
CLASS
  1
WIPEOUTVARIABLES
  2
AcDbWipeoutVariables
  3
"WipeOut|Product Desc:     WipeOut Dbx Application|Company:          Autodesk, Inc.|WEB Address:      www.autodesk.com"
 90
    32768
280
     0
281
     0
  0
CLASS
  1
RTEXT
  2
RText
  3
RText|AutoCAD Express Tool|expresstools@autodesk.com
 90
    32768
280
     0
281
     1
  0
CLASS
  1
ARCALIGNEDTEXT
  2
AcDbArcAlignedText
  3
ATEXT|AutoCAD Express Tool|expresstools@autodesk.com
 90
    32768
280
     0
281
     1
  0
CLASS
  1
TABLESTYLE
  2
AcDbTableStyle
  3
ObjectDBX Classes
 90
     2047
280
     0
281
     0
  0
ENDSEC
  0
SECTION
  2
TABLES
  0
TABLE
  2
VPORT
  5
7
330
0
100
AcDbSymbolTable
 70
     3
  0
VPORT
  5
FA6
330
7
100
AcDbSymbolTableRecord
100
AcDbViewportTableRecord
  2
*Active
 70
     0
 10
0.0
 20
0.0
 11
1.0
 21
1.0
 12
18.40593867196936
 22
8.123479964074917
 13
0.0
 23
0.0
 14
6.349999999999997
 24
6.349999999999997
 15
6.349999999999997
 25
6.349999999999997
 16
0.0
 26
0.0
 36
1.0
 17
0.0
 27
0.0
 37
0.0
 40
246.0859644097406
 41
1.514429109159347
 42
50.0
 43
0.0
 44
0.0
 50
0.0
 51
0.0
 71
     0
 72
   100
 73
     1
 74
     1
 75
     0
 76
     0
 77
     0
 78
     0
281
     0
 65
     1
110
0.0
120
0.0
130
0.0
111
1.0
121
0.0
131
0.0
112
0.0
122
1.0
132
0.0
 79
     0
146
0.0
  0
ENDTAB
  0
TABLE
  2
LTYPE
  5
4
330
0
100
AcDbSymbolTable
 70
     3
  0
LTYPE
  5
11
330
4
100
AcDbSymbolTableRecord
100
AcDbLinetypeTableRecord
  2
BYBLOCK
 70
     0
  3

 72
    65
 73
     0
 40
0.0
  0
LTYPE
  5
12
330
4
100
AcDbSymbolTableRecord
100
AcDbLinetypeTableRecord
  2
BYLAYER
 70
     0
  3

 72
    65
 73
     0
 40
0.0
  0
LTYPE
  5
13
330
4
100
AcDbSymbolTableRecord
100
AcDbLinetypeTableRecord
  2
CONTINUOUS
 70
     0
  3
DXF Default line type
 72
    65
 73
     0
 40
0.0
  0
LTYPE
  5
1E
330
4
100
AcDbSymbolTableRecord
100
AcDbLinetypeTableRecord
  2
HIDDEN
 70
     0
  3
DXF Hidden
 72
    65
 73
     2
 40
0.375
 49
0.25
 74
     0
 49
-0.125
 74
     0
  0
LTYPE
  5
1F
330
4
100
AcDbSymbolTableRecord
100
AcDbLinetypeTableRecord
  2
CENTER
 70
     0
  3
DXF Center
 72
    65
 73
     4
 40
2.0
 49
1.25
 74
     0
 49
-0.25
 74
     0
 49
0.25
 74
     0
 49
-0.25
 74
     0
  0
ENDTAB
  0
TABLE
  2
LAYER
  5
2
102
{ACAD_XDICTIONARY
360
F88
102
}
330
0
100
AcDbSymbolTable
 70
    10
  0
LAYER
  5
14
330
2
100
AcDbSymbolTableRecord
100
AcDbLayerTableRecord
  2
0
 70
     0
 62
     7
  6
CONTINUOUS
370
    -3
390
BEA
  0
LAYER
  5
C55
330
2
100
AcDbSymbolTableRecord
100
AcDbLayerTableRecord
  2
Defpoints
 70
     0
 62
     7
  6
CONTINUOUS
290
     0
370
    -3
390
BEA
  0
LAYER
  5
C57
330
2
100
AcDbSymbolTableRecord
100
AcDbLayerTableRecord
  2
1
 70
     0
 62
     4
  6
CONTINUOUS
370
    -3
390
BEA
  0
LAYER
  5
C58
330
2
100
AcDbSymbolTableRecord
100
AcDbLayerTableRecord
  2
2
 70
     0
 62
     7
  6
CONTINUOUS
370
    -3
390
BEA
  0
LAYER
  5
C59
330
2
100
AcDbSymbolTableRecord
100
AcDbLayerTableRecord
  2
SK2
 70
     0
 62
     7
  6
CONTINUOUS
370
    -3
390
BEA
  0
LAYER
  5
C5A
330
2
100
AcDbSymbolTableRecord
100
AcDbLayerTableRecord
  2
4
 70
     0
 62
     2
  6
CENTER
370
    -3
390
BEA
  0
LAYER
  5
C5C
330
2
100
AcDbSymbolTableRecord
100
AcDbLayerTableRecord
  2
6
 70
     0
 62
     5
  6
CONTINUOUS
370
    -3
390
BEA
  0
LAYER
  5
C5D
330
2
100
AcDbSymbolTableRecord
100
AcDbLayerTableRecord
  2
SK3
 70
     0
 62
     1
  6
HIDDEN
370
    -3
390
BEA
  0
LAYER
  5
DE2
330
2
100
AcDbSymbolTableRecord
100
AcDbLayerTableRecord
  2
CUT
 70
     0
 62
     1
  6
CONTINUOUS
370
    -3
390
BEA
  0
LAYER
  5
EB5
330
2
100
AcDbSymbolTableRecord
100
AcDbLayerTableRecord
  2
NOCUT
 70
     0
 62
     7
  6
CONTINUOUS
370
    -3
390
BEA
  0
ENDTAB
  0
TABLE
  2
STYLE
  5
3
330
0
100
AcDbSymbolTable
 70
     1
  0
STYLE
  5
17
330
3
100
AcDbSymbolTableRecord
100
AcDbTextStyleTableRecord
  2
STANDARD
 70
     0
 40
4.0
 41
1.0
 50
0.0
 71
     0
 42
4.0
  3
isocp.shx
  4

  0
ENDTAB
  0
TABLE
  2
VIEW
  5
5
330
0
100
AcDbSymbolTable
 70
     0
  0
ENDTAB
  0
TABLE
  2
UCS
  5
6
330
0
100
AcDbSymbolTable
 70
     3
  0
UCS
  5
4A
330
6
100
AcDbSymbolTableRecord
100
AcDbUCSTableRecord
  2
MO_001_VIEW_PV_P
 70
     0
 10
0.0
 20
0.0
 30
0.0
 11
1.0
 21
0.0
 31
0.0
 12
0.0
 22
1.0
 32
0.0
 79
     0
146
0.0
  0
UCS
  5
4B
330
6
100
AcDbSymbolTableRecord
100
AcDbUCSTableRecord
  2
MO_001_VIEW_ZZ_P
 70
     0
 10
-657.5319847162452
 20
240.8772646474576
 30
0.0
 11
-1.0
 21
-0.0000000095200582
 31
0.0
 12
0.0
 22
-1.0
 32
0.0
 79
     0
146
0.0
  0
UCS
  5
4C
330
6
100
AcDbSymbolTableRecord
100
AcDbUCSTableRecord
  2
MO_001_VIEW_RA_P
 70
     0
 10
0.0
 20
0.0
 30
0.0
 11
1.0
 21
0.0
 31
0.0
 12
0.0
 22
1.0
 32
0.0
 79
     0
146
0.0
  0
ENDTAB
  0
TABLE
  2
APPID
  5
8
330
0
100
AcDbSymbolTable
 70
     1
  0
APPID
  5
16
330
8
100
AcDbSymbolTableRecord
100
AcDbRegAppTableRecord
  2
ACAD
 70
     0
  0
ENDTAB
  0
TABLE
  2
DIMSTYLE
  5
9
330
0
100
AcDbSymbolTable
 70
     2
100
AcDbDimStyleTable
 71
     2
340
C5F
340
18
  0
DIMSTYLE
105
18
330
9
100
AcDbSymbolTableRecord
100
AcDbDimStyleTableRecord
  2
STANDARD
 70
     0
 73
     0
 74
     0
140
3.5
271
     0
272
     0
273
     0
274
     0
283
     0
340
17
  0
DIMSTYLE
105
C5F
102
{ACAD_REACTORS
330
4B2
330
4B0
330
D1B
330
F11
330
F12
102
}
330
9
100
AcDbSymbolTableRecord
100
AcDbDimStyleTableRecord
  2
ISO-25
 70
     0
 41
2.5
 42
0.625
 43
3.75
 44
1.25
 73
     0
 74
     0
 77
     1
 78
     8
140
2.5
141
2.5
143
0.03937007874016
147
0.625
171
     3
172
     1
271
     2
272
     2
274
     3
278
    44
283
     0
284
     8
340
17
  0
ENDTAB
  0
TABLE
  2
BLOCK_RECORD
  5
1
330
0
100
AcDbSymbolTable
 70
     7
  0
BLOCK_RECORD
  5
A
102
{ACAD_XDICTIONARY
360
F86
102
}
330
1
100
AcDbSymbolTableRecord
100
AcDbBlockTableRecord
  2
*MODEL_SPACE
340
BED
  0
BLOCK_RECORD
  5
B
330
1
100
AcDbSymbolTableRecord
100
AcDbBlockTableRecord
  2
*PAPER_SPACE
340
BEE
  0
BLOCK_RECORD
  5
CC4
330
1
100
AcDbSymbolTableRecord
100
AcDbBlockTableRecord
  2
*D2
340
0
  0
BLOCK_RECORD
  5
CD0
330
1
100
AcDbSymbolTableRecord
100
AcDbBlockTableRecord
  2
*D3
340
0
  0
BLOCK_RECORD
  5
D1C
330
1
100
AcDbSymbolTableRecord
100
AcDbBlockTableRecord
  2
*D4
340
0
  0
BLOCK_RECORD
  5
F13
330
1
100
AcDbSymbolTableRecord
100
AcDbBlockTableRecord
  2
*D5
340
0
  0
BLOCK_RECORD
  5
F1F
330
1
100
AcDbSymbolTableRecord
100
AcDbBlockTableRecord
  2
*D6
340
0
  0
ENDTAB
  0
ENDSEC
  0
SECTION
  2
BLOCKS
  0
BLOCK
  5
D
330
A
100
AcDbEntity
  8
0
100
AcDbBlockBegin
  2
*MODEL_SPACE
 70
     0
 10
0.0
 20
0.0
 30
0.0
  3
*MODEL_SPACE
  1

  0
ENDBLK
  5
E
330
A
100
AcDbEntity
  8
0
100
AcDbBlockEnd
  0
BLOCK
  5
F
330
B
100
AcDbEntity
 67
     1
  8
0
100
AcDbBlockBegin
  2
*PAPER_SPACE
 70
     0
 10
0.0
 20
0.0
 30
0.0
  3
*PAPER_SPACE
  1

  0
ENDBLK
  5
10
330
B
100
AcDbEntity
 67
     1
  8
0
100
AcDbBlockEnd
  0
BLOCK
  5
CCE
330
CC4
100
AcDbEntity
  8
0
100
AcDbBlockBegin
  2
*D2
 70
     1
 10
0.0
 20
0.0
 30
0.0
  3
*D2
  1

  0
LINE
  5
EC8
330
CC4
100
AcDbEntity
  8
2
 62
     0
370
    -2
100
AcDbLine
 10
-0.0706523159739163
 20
75.62499385840737
 30
0.0
 11
-0.0706523159739131
 21
127.0230581221126
 31
0.0
  0
LINE
  5
EC9
330
CC4
100
AcDbEntity
  8
2
 62
     0
370
    -2
100
AcDbLine
 10
61.52935168402303
 20
97.52490154120572
 30
0.0
 11
61.52935168402303
 21
127.0230581221126
 31
0.0
  0
LINE
  5
ECA
330
CC4
100
AcDbEntity
  8
2
 62
     0
370
    -2
100
AcDbLine
 10
2.429347684026085
 20
125.7730581221126
 30
0.0
 11
59.02935168402303
 21
125.7730581221126
 31
0.0
  0
SOLID
  5
ECB
330
CC4
100
AcDbEntity
  8
2
 62
     0
100
AcDbTrace
 10
2.429347684026085
 20
126.1897247887793
 30
0.0
 11
2.429347684026085
 21
125.356391455446
 31
0.0
 12
-0.0706523159739132
 22
125.7730581221126
 32
0.0
 13
-0.0706523159739132
 23
125.7730581221126
 33
0.0
  0
SOLID
  5
ECC
330
CC4
100
AcDbEntity
  8
2
 62
     0
100
AcDbTrace
 10
59.02935168402303
 20
126.1897247887793
 30
0.0
 11
59.02935168402303
 21
125.356391455446
 31
0.0
 12
61.52935168402303
 22
125.7730581221126
 32
0.0
 13
61.52935168402303
 23
125.7730581221126
 33
0.0
  0
MTEXT
  5
ECD
330
CC4
100
AcDbEntity
  8
2
 62
     0
100
AcDbMText
 10
32.65122325938956
 20
128.3984518228999
 30
0.0
 40
4.0
 41
0.0
 71
     5
 72
     1
  1
\A1;62
 73
     1
 44
1.0
1001
ACAD
1000
MTEXTBEGIN
1070
    73
1070
     1
1070
    44
1040
1.0
1070
    74
1070
     0
1000
MTEXTEND
  0
POINT
  5
ECE
330
CC4
100
AcDbEntity
  8
Defpoints
 62
     0
100
AcDbPoint
 10
-0.0706523159739163
 20
74.99999385840737
 30
0.0
  0
POINT
  5
ECF
330
CC4
100
AcDbEntity
  8
Defpoints
 62
     0
100
AcDbPoint
 10
61.52935168402303
 20
96.89990154120572
 30
0.0
  0
POINT
  5
ED0
330
CC4
100
AcDbEntity
  8
Defpoints
 62
     0
100
AcDbPoint
 10
61.52935168402303
 20
125.7730581221126
 30
0.0
  0
ENDBLK
  5
CCF
330
CC4
100
AcDbEntity
  8
0
100
AcDbBlockEnd
  0
BLOCK
  5
CDA
330
CD0
100
AcDbEntity
  8
0
100
AcDbBlockBegin
  2
*D3
 70
     1
 10
0.0
 20
0.0
 30
0.0
  3
*D3
  1

  0
LINE
  5
F73
330
CD0
100
AcDbEntity
  8
2
 62
     0
370
    -2
100
AcDbLine
 10
59.3043476840465
 20
-98.49999779673723
 30
0.0
 11
-61.95780762830092
 21
-98.49898826255509
 31
0.0
  0
LINE
  5
F74
330
CD0
100
AcDbEntity
  8
2
 62
     0
370
    -2
100
AcDbLine
 10
59.30434768404662
 20
98.50000220326281
 30
0.0
 11
-61.95616755986115
 21
98.50101172379101
 31
0.0
  0
LINE
  5
F75
330
CD0
100
AcDbEntity
  8
2
 62
     0
370
    -2
100
AcDbLine
 10
-60.70778681529297
 20
-95.99899866916734
 30
0.0
 11
-60.70618837295576
 21
96.00100131735201
 31
0.0
  0
SOLID
  5
F76
330
CD0
100
AcDbEntity
  8
2
 62
     0
100
AcDbTrace
 10
-61.1244534819452
 20
-95.99899520032549
 30
0.0
 11
-60.29112014864075
 21
-95.99900213800923
 31
0.0
 12
-60.70780762834424
 22
-98.49899866908073
 32
0.0
 13
-60.70780762834424
 23
-98.49899866908073
 33
0.0
  0
SOLID
  5
F77
330
CD0
100
AcDbEntity
  8
2
 62
     0
100
AcDbTrace
 10
-61.12285503960798
 20
96.00100478619388
 30
0.0
 11
-60.28952170630353
 21
96.00099784851012
 31
0.0
 12
-60.70616755990449
 22
98.50100131726538
 32
0.0
 13
-60.70616755990449
 23
98.50100131726538
 33
0.0
  0
MTEXT
  5
F78
330
CD0
100
AcDbEntity
  8
2
 62
     0
100
AcDbMText
 10
-63.33198760446178
 20
-0.0002294475443773
 30
0.0
 40
4.0
 41
0.0
 71
     5
 72
     1
  1
\A1;%%C197
 11
0.0000083252205067
 21
0.9999999999653454
 31
0.0
 73
     1
 44
1.0
1001
ACAD
1000
MTEXTBEGIN
1070
    73
1070
     1
1070
    44
1040
1.0
1070
    74
1070
     0
1000
MTEXTEND
  0
POINT
  5
F79
330
CD0
100
AcDbEntity
  8
Defpoints
 62
     0
100
AcDbPoint
 10
59.92934768402483
 20
-98.50000300000004
 30
0.0
  0
POINT
  5
F7A
330
CD0
100
AcDbEntity
  8
Defpoints
 62
     0
100
AcDbPoint
 10
59.92934768402495
 20
98.49999699999999
 30
0.0
  0
POINT
  5
F7B
330
CD0
100
AcDbEntity
  8
Defpoints
 62
     0
100
AcDbPoint
 10
-60.70616755990449
 20
98.50100131726538
 30
0.0
  0
ENDBLK
  5
CDB
330
CD0
100
AcDbEntity
  8
0
100
AcDbBlockEnd
  0
BLOCK
  5
D27
330
D1C
100
AcDbEntity
  8
0
100
AcDbBlockBegin
  2
*D4
 70
     1
 10
0.0
 20
0.0
 30
0.0
  3
*D4
  1

  0
LINE
  5
F7C
330
D1C
100
AcDbEntity
  8
2
 62
     0
370
    -2
100
AcDbLine
 10
62.79230968402497
 20
99.8506609999999
 30
0.0
 11
89.64005506663491
 21
99.8506609999999
 31
0.0
  0
LINE
  5
F7D
330
D1C
100
AcDbEntity
  8
2
 62
     0
370
    -2
100
AcDbLine
 10
62.62425768402477
 20
-99.88454700000014
 30
0.0
 11
89.64005506663486
 21
-99.88454700000014
 31
0.0
  0
LINE
  5
F7E
330
D1C
100
AcDbEntity
  8
2
 62
     0
370
    -2
100
AcDbLine
 10
88.39005506663491
 20
97.3506609999999
 30
0.0
 11
88.39005506663486
 21
-97.38454700000014
 31
0.0
  0
SOLID
  5
F7F
330
D1C
100
AcDbEntity
  8
2
 62
     0
100
AcDbTrace
 10
87.97338839996823
 20
97.3506609999999
 30
0.0
 11
88.80672173330159
 21
97.3506609999999
 31
0.0
 12
88.39005506663491
 22
99.8506609999999
 32
0.0
 13
88.39005506663491
 23
99.8506609999999
 33
0.0
  0
SOLID
  5
F80
330
D1C
100
AcDbEntity
  8
2
 62
     0
100
AcDbTrace
 10
87.97338839996818
 20
-97.38454700000014
 30
0.0
 11
88.80672173330152
 21
-97.38454700000014
 31
0.0
 12
88.39005506663486
 22
-99.88454700000014
 32
0.0
 13
88.39005506663486
 23
-99.88454700000014
 33
0.0
  0
MTEXT
  5
F81
330
D1C
100
AcDbEntity
  8
2
 62
     0
100
AcDbMText
 10
85.76466136584748
 20
-0.0169430000001005
 30
0.0
 40
4.0
 41
0.0
 71
     5
 72
     1
  1
%%C200
 11
0.0000000000000001
 21
1.0
 31
0.0
 73
     1
 44
1.0
1001
ACAD
1000
MTEXTBEGIN
1070
    73
1070
     1
1070
    44
1040
1.0
1070
    74
1070
     0
1000
MTEXTEND
  0
POINT
  5
F82
330
D1C
100
AcDbEntity
  8
Defpoints
 62
     0
100
AcDbPoint
 10
62.16730968402497
 20
99.8506609999999
 30
0.0
  0
POINT
  5
F83
330
D1C
100
AcDbEntity
  8
Defpoints
 62
     0
100
AcDbPoint
 10
61.99925768402477
 20
-99.88454700000014
 30
0.0
  0
POINT
  5
F84
330
D1C
100
AcDbEntity
  8
Defpoints
 62
     0
100
AcDbPoint
 10
88.39005506663486
 20
-99.88454700000014
 30
0.0
  0
ENDBLK
  5
D28
330
D1C
100
AcDbEntity
  8
0
100
AcDbBlockEnd
  0
BLOCK
  5
F1D
330
F13
100
AcDbEntity
  8
0
100
AcDbBlockBegin
  2
*D5
 70
     1
 10
0.0
 20
0.0
 30
0.0
  3
*D5
  1

  0
LINE
  5
F6A
330
F13
100
AcDbEntity
  8
2
 62
     0
370
    -2
100
AcDbLine
 10
-3.181826817177748
 20
80.00000220326286
 30
0.0
 11
-47.2972710102636
 21
80.00036947406348
 31
0.0
  0
LINE
  5
F6B
330
F13
100
AcDbEntity
  8
2
 62
     0
370
    -2
100
AcDbLine
 10
-1.611643209165491
 20
-79.99999779673712
 30
0.0
 11
-47.29860304543564
 21
-79.99961744272224
 31
0.0
  0
LINE
  5
F6C
330
F13
100
AcDbEntity
  8
2
 62
     0
370
    -2
100
AcDbLine
 10
-46.04729182335819
 20
77.50035906762448
 30
0.0
 11
-46.04858223242771
 21
-77.4996278493345
 31
0.0
  0
SOLID
  5
F6D
330
F13
100
AcDbEntity
  8
2
 62
     0
100
AcDbTrace
 10
-46.46395849001041
 20
77.50036253646637
 30
0.0
 11
-45.63062515670596
 21
77.50035559878262
 31
0.0
 12
-46.04727101030692
 22
80.00035906753785
 32
0.0
 13
-46.04727101030692
 23
80.00035906753785
 33
0.0
  0
SOLID
  5
F6E
330
F13
100
AcDbEntity
  8
2
 62
     0
100
AcDbTrace
 10
-46.46524889907992
 20
-77.49962438049262
 30
0.0
 11
-45.63191556577548
 21
-77.49963131817636
 31
0.0
 12
-46.04860304547897
 22
-79.99962784924787
 32
0.0
 13
-46.04860304547897
 23
-79.99962784924787
 33
0.0
  0
MTEXT
  5
F6F
330
F13
100
AcDbEntity
  8
2
 62
     0
100
AcDbMText
 10
-48.67293702309256
 20
0.0009531431915857
 30
0.0
 40
4.0
 41
0.0
 71
     5
 72
     1
  1
\A1;%%C160
 11
0.0000083252205058
 21
0.9999999999653454
 31
0.0
 73
     1
 44
1.0
1001
ACAD
1000
MTEXTBEGIN
1070
    73
1070
     1
1070
    44
1040
1.0
1070
    74
1070
     0
1000
MTEXTEND
  0
POINT
  5
F70
330
F13
100
AcDbEntity
  8
Defpoints
 62
     0
100
AcDbPoint
 10
-2.556826817199407
 20
79.99999700000005
 30
0.0
  0
POINT
  5
F71
330
F13
100
AcDbEntity
  8
Defpoints
 62
     0
100
AcDbPoint
 10
-0.9866432091871502
 20
-80.00000299999994
 30
0.0
  0
POINT
  5
F72
330
F13
100
AcDbEntity
  8
Defpoints
 62
     0
100
AcDbPoint
 10
-46.04860304547897
 20
-79.99962784924787
 30
0.0
  0
ENDBLK
  5
F1E
330
F13
100
AcDbEntity
  8
0
100
AcDbBlockEnd
  0
BLOCK
  5
F29
330
F1F
100
AcDbEntity
  8
0
100
AcDbBlockBegin
  2
*D6
 70
     1
 10
0.0
 20
0.0
 30
0.0
  3
*D6
  1

  0
LINE
  5
F61
330
F1F
100
AcDbEntity
  8
SK2
 62
     0
370
    -2
100
AcDbLine
 10
-2.502513608306513
 20
30.00000220326286
 30
0.0
 11
-24.20299633690508
 21
30.00018286456666
 31
0.0
  0
LINE
  5
F62
330
F1F
100
AcDbEntity
  8
SK2
 62
     0
370
    -2
100
AcDbLine
 10
-3.282096241703298
 20
-29.99999779673713
 30
0.0
 11
-24.20349585018944
 21
-29.9998236214721
 31
0.0
  0
LINE
  5
F63
330
F1F
100
AcDbEntity
  8
SK2
 62
     0
370
    -2
100
AcDbLine
 10
-22.95301714999967
 20
27.50017245812767
 30
0.0
 11
-22.9534750371815
 21
-27.49983402808437
 31
0.0
  0
SOLID
  5
F64
330
F1F
100
AcDbEntity
  8
SK2
 62
     0
100
AcDbTrace
 10
-23.36968381665189
 20
27.50017592696954
 30
0.0
 11
-22.53635048334743
 21
27.50016898928579
 31
0.0
 12
-22.9529963369484
 22
30.00017245804103
 32
0.0
 13
-22.9529963369484
 23
30.00017245804103
 33
0.0
  0
SOLID
  5
F65
330
F1F
100
AcDbEntity
  8
SK2
 62
     0
100
AcDbTrace
 10
-23.37014170383373
 20
-27.49983055924249
 30
0.0
 11
-22.53680837052927
 21
-27.49983749692625
 31
0.0
 12
-22.95349585023276
 22
-29.99983402799773
 32
0.0
 13
-22.95349585023276
 23
-29.99983402799773
 33
0.0
  0
MTEXT
  5
F66
330
F1F
100
AcDbEntity
  8
SK2
 62
     0
100
AcDbMText
 10
-25.5782460845014
 20
0.0012719064132755
 30
0.0
 40
4.0
 41
0.0
 71
     5
 72
     1
  1
\A1;%%C60
 11
0.0000083252205058
 21
0.9999999999653454
 31
0.0
 73
     1
 44
1.0
1001
ACAD
1000
MTEXTBEGIN
1070
    73
1070
     1
1070
    44
1040
1.0
1070
    74
1070
     0
1000
MTEXTEND
  0
POINT
  5
F67
330
F1F
100
AcDbEntity
  8
Defpoints
 62
     0
100
AcDbPoint
 10
-1.877513608328172
 20
29.99999700000005
 30
0.0
  0
POINT
  5
F68
330
F1F
100
AcDbEntity
  8
Defpoints
 62
     0
100
AcDbPoint
 10
-2.657096241724957
 20
-30.00000299999995
 30
0.0
  0
POINT
  5
F69
330
F1F
100
AcDbEntity
  8
Defpoints
 62
     0
100
AcDbPoint
 10
-22.95349585023276
 20
-29.99983402799773
 30
0.0
  0
ENDBLK
  5
F2A
330
F1F
100
AcDbEntity
  8
0
100
AcDbBlockEnd
  0
ENDSEC
  0
SECTION
  2
ENTITIES
  0
LINE
  5
5D
330
A
100
AcDbEntity
  8
SK3
100
AcDbLine
 10
43.52944468402472
 20
-76.52856800000006
 30
0.0
 11
43.52944468402482
 21
76.52856099999997
 31
0.0
  0
LINE
  5
5F
330
A
100
AcDbEntity
  8
SK3
100
AcDbLine
 10
51.52944768402495
 20
76.52856800000002
 30
0.0
 11
43.52944768402492
 21
76.52856800000002
 31
0.0
  0
LINE
  5
60
330
A
100
AcDbEntity
  8
SK3
100
AcDbLine
 10
61.52944968402471
 20
-76.52856100000008
 30
0.0
 11
43.52944968402471
 21
-76.52856100000002
 31
0.0
  0
LINE
  5
61
330
A
100
AcDbEntity
  8
4
100
AcDbLine
 10
-1.38070931597508
 20
0.0
 30
0.0
 11
66.96084368402489
 21
-0.0000000000000568
 31
0.0
  0
LINE
  5
62
330
A
100
AcDbEntity
  8
1
100
AcDbLine
 10
1.529444684024838
 20
-12.85010099999999
 30
0.0
 11
12.52944468402483
 21
-12.85010099999999
 31
0.0
  0
LINE
  5
63
330
A
100
AcDbEntity
  8
1
100
AcDbLine
 10
1.529444684024838
 20
12.85009500000001
 30
0.0
 11
12.52944468402483
 21
12.85009500000001
 31
0.0
  0
LINE
  5
64
330
A
100
AcDbEntity
  8
1
100
AcDbLine
 10
14.12929868402487
 20
-11.25000299999999
 30
0.0
 11
14.12929868402487
 21
11.249997
 31
0.0
  0
ARC
  5
65
330
A
100
AcDbEntity
  8
1
100
AcDbCircle
 10
12.52944468402483
 20
-11.25000299999999
 30
0.0
 40
1.599998999999999
100
AcDbArc
 50
270.000037
 51
0.0000189999999733
  0
ARC
  5
66
330
A
100
AcDbEntity
  8
1
100
AcDbCircle
 10
12.52944468402483
 20
11.249997
 30
0.0
 40
1.599998999999999
100
AcDbArc
 50
0.0000189999999733
 51
90.00000099999999
  0
LINE
  5
67
330
A
100
AcDbEntity
  8
1
100
AcDbLine
 10
-0.070859315975099
 20
-14.44997299999999
 30
0.0
 11
1.529108684024889
 21
-12.850007
 31
0.0
  0
LINE
  5
68
330
A
100
AcDbEntity
  8
1
100
AcDbLine
 10
1.529116684024869
 20
12.849941
 30
0.0
 11
-0.0710223159751422
 21
14.450081
 31
0.0
  0
LINE
  5
69
330
A
100
AcDbEntity
  8
SK3
100
AcDbLine
 10
1.529444684024838
 20
-30.00000299999999
 30
0.0
 11
30.32949368402489
 21
-30.00000299999999
 31
0.0
  0
LINE
  5
6A
330
A
100
AcDbEntity
  8
SK3
100
AcDbLine
 10
1.529444684024838
 20
29.999997
 30
0.0
 11
30.32924968402483
 21
29.999997
 31
0.0
  0
LINE
  5
6B
330
A
100
AcDbEntity
  8
SK3
100
AcDbLine
 10
1.529444684024838
 20
-30.00000299999999
 30
0.0
 11
1.529444684024838
 21
-12.85010099999999
 31
0.0
  0
LINE
  5
6C
330
A
100
AcDbEntity
  8
SK3
100
AcDbLine
 10
1.529444684024838
 20
12.85009500000001
 30
0.0
 11
1.529444684024838
 21
29.999997
 31
0.0
  0
LINE
  5
6D
330
A
100
AcDbEntity
  8
SK3
 48
0.4520000000000002
100
AcDbLine
 10
-0.0709883159751144
 20
31.59990299999998
 30
0.0
 11
1.528978684024878
 21
29.99993599999999
 31
0.0
  0
LINE
  5
6E
330
A
100
AcDbEntity
  8
SK3
 48
0.4520000000000002
100
AcDbLine
 10
1.529148684024903
 20
-30.00004399999999
 30
0.0
 11
-0.0708183159750888
 21
-31.60001099999999
 31
0.0
  0
LINE
  5
6F
330
A
100
AcDbEntity
  8
SK3
 48
0.4520000000000002
100
AcDbLine
 10
30.32874268402496
 20
30.000133
 30
0.0
 11
31.92888868402496
 21
31.60026599999997
 31
0.0
  0
LINE
  5
70
330
A
100
AcDbEntity
  8
SK3
 48
0.4520000000000002
100
AcDbLine
 10
30.32906368402496
 20
-29.99989300000004
 30
0.0
 11
31.92893768402484
 21
-31.59960900000003
 31
0.0
  0
LINE
  5
71
330
A
100
AcDbEntity
  8
SK3
100
AcDbLine
 10
30.32925968402492
 20
-30.00017100000007
 30
0.0
 11
30.32912268402492
 21
29.99982899999996
 31
0.0
  0
LINE
  5
72
330
A
100
AcDbEntity
  8
SK3
100
AcDbLine
 10
31.92934768402483
 20
-65.00000299999999
 30
0.0
 11
31.92934768402494
 21
64.999997
 31
0.0
  0
LINE
  5
73
330
A
100
AcDbEntity
  8
SK3
100
AcDbLine
 10
31.92903668402482
 20
-65.000291
 30
0.0
 11
44.02912868402473
 21
-65.84641000000003
 31
0.0
  0
LINE
  5
74
330
A
100
AcDbEntity
  8
SK3
100
AcDbLine
 10
31.92924068402487
 20
64.99993599999999
 30
0.0
 11
44.02933268402488
 21
65.84605499999998
 31
0.0
  0
LINE
  5
75
330
A
100
AcDbEntity
  8
SK3
100
AcDbLine
 10
44.02944468402472
 20
-70.52856800000006
 30
0.0
 11
44.02944468402483
 21
70.52856099999996
 31
0.0
  0
LINE
  5
76
330
A
100
AcDbEntity
  8
SK3
 48
0.1
100
AcDbLine
 10
44.02944468402472
 20
-70.52856800000006
 30
0.0
 11
43.52944468402472
 21
-70.52856800000006
 31
0.0
  0
LINE
  5
77
330
A
100
AcDbEntity
  8
SK3
 48
0.1
100
AcDbLine
 10
44.02944468402483
 20
70.52856099999996
 30
0.0
 11
43.52944468402482
 21
70.52856099999996
 31
0.0
  0
LINE
  5
78
330
A
100
AcDbEntity
  8
SK3
100
AcDbLine
 10
43.52944468402472
 20
-76.52856800000006
 30
0.0
 11
43.52944468402472
 21
-70.52856800000006
 31
0.0
  0
LINE
  5
79
330
A
100
AcDbEntity
  8
SK3
100
AcDbLine
 10
61.52944468402472
 20
-76.52856800000012
 30
0.0
 11
53.52944468402473
 21
-76.52856800000012
 31
0.0
  0
LINE
  5
7A
330
A
100
AcDbEntity
  8
SK3
100
AcDbLine
 10
61.52944468402484
 20
76.52856099999991
 30
0.0
 11
44.02944468402483
 21
76.52856099999997
 31
0.0
  0
LINE
  5
7B
330
A
100
AcDbEntity
  8
SK3
100
AcDbLine
 10
43.52944468402482
 20
70.52856099999996
 30
0.0
 11
43.52944468402482
 21
76.52856099999997
 31
0.0
  0
LINE
  5
7C
330
A
100
AcDbEntity
  8
1
100
AcDbLine
 10
61.52944468402472
 20
-96.89990500000014
 30
0.0
 11
61.52944468402484
 21
-8.445071000000098
 31
0.0
  0
ARC
  5
7D
330
A
100
AcDbEntity
  8
1
100
AcDbCircle
 10
59.92934768402495
 20
-96.89990500000003
 30
0.0
 40
1.600004
100
AcDbArc
 50
269.999927
 51
359.999909
  0
LINE
  5
7E
330
A
100
AcDbEntity
  8
1
100
AcDbLine
 10
59.92934768402483
 20
-98.50000300000004
 30
0.0
 11
29.07436668402477
 21
-98.50000300000001
 31
0.0
  0
LINE
  5
7F
330
A
100
AcDbEntity
  8
1
100
AcDbLine
 10
23.87822468402474
 20
-95.50008699999999
 30
0.0
 11
16.66130668402479
 21
-83.00001600000001
 31
0.0
  0
LINE
  5
80
330
A
100
AcDbEntity
  8
1
100
AcDbLine
 10
11.46523568402483
 20
-80.00000299999998
 30
0.0
 11
4.929347684024833
 21
-80.00000299999998
 31
0.0
  0
LINE
  5
81
330
A
100
AcDbEntity
  8
1
100
AcDbLine
 10
-0.0706523159751669
 20
-75.00000299999998
 30
0.0
 11
-0.0706523159750532
 21
-14.450198
 31
0.0
  0
ARC
  5
82
330
A
100
AcDbEntity
  8
1
100
AcDbCircle
 10
4.929347684024945
 20
-75.00000299999998
 30
0.0
 40
5.0
100
AcDbArc
 50
180.0
 51
270.000037
  0
ARC
  5
83
330
A
100
AcDbEntity
  8
1
100
AcDbCircle
 10
59.92934768402506
 20
96.899899
 30
0.0
 40
1.600004
100
AcDbArc
 50
0.0000910000000154
 51
90.00007300000005
  0
LINE
  5
84
330
A
100
AcDbEntity
  8
1
100
AcDbLine
 10
59.92934768402495
 20
98.49999699999997
 30
0.0
 11
29.07412268402493
 21
98.49999699999999
 31
0.0
  0
LINE
  5
85
330
A
100
AcDbEntity
  8
1
100
AcDbLine
 10
23.8779796840248
 20
95.49998899999996
 30
0.0
 11
16.66111568402493
 21
83.00001099999997
 31
0.0
  0
LINE
  5
86
330
A
100
AcDbEntity
  8
1
100
AcDbLine
 10
11.46499168402488
 20
79.999997
 30
0.0
 11
4.929347684024945
 21
79.999997
 31
0.0
  0
ARC
  5
87
330
A
100
AcDbEntity
  8
1
100
AcDbCircle
 10
4.929347684025058
 20
74.999997
 30
0.0
 40
5.0
100
AcDbArc
 50
90.00001800000005
 51
180.000036
  0
LINE
  5
88
330
A
100
AcDbEntity
  8
1
100
AcDbLine
 10
61.52944468402484
 20
-14.19629200000008
 30
0.0
 11
61.52944468402484
 21
96.89989899999996
 31
0.0
  0
LINE
  5
89
330
A
100
AcDbEntity
  8
1
100
AcDbLine
 10
-0.0706523159750532
 20
0.0
 30
0.0
 11
-0.0706523159750532
 21
2.950972054112611
 31
0.0
  0
LINE
  5
8C
330
A
100
AcDbEntity
  8
1
100
AcDbLine
 10
58.00503068402497
 20
98.49999699999997
 30
0.0
 11
58.00503068402497
 21
99.00365899999993
 31
0.0
  0
LINE
  5
8D
330
A
100
AcDbEntity
  8
1
100
AcDbLine
 10
58.00503568402485
 20
-98.49999600000014
 30
0.0
 11
58.00503568402485
 21
-99.00365900000007
 31
0.0
  0
ARC
  5
8E
330
A
100
AcDbEntity
  8
1
100
AcDbCircle
 10
29.07436668402488
 20
-92.50000300000001
 30
0.0
 40
6.0
100
AcDbArc
 50
210.0001
 51
270.0002009999999
  0
ARC
  5
8F
330
A
100
AcDbEntity
  8
1
100
AcDbCircle
 10
11.46523568402493
 20
-86.00000299999996
 30
0.0
 40
6.0
100
AcDbArc
 50
29.99964800000002
 51
89.99930799999996
  0
ARC
  5
90
330
A
100
AcDbEntity
  8
1
100
AcDbCircle
 10
11.46499168402498
 20
85.99999700000003
 30
0.0
 40
6.0
100
AcDbArc
 50
269.9999819999999
 51
330.000025
  0
ARC
  5
91
330
A
100
AcDbEntity
  8
1
100
AcDbCircle
 10
29.07412268402504
 20
92.499997
 30
0.0
 40
6.0
100
AcDbArc
 50
90.00045499999997
 51
150.000248
  0
DIMENSION
  5
4B0
330
A
100
AcDbEntity
  8
2
100
AcDbDimension
  2
*D3
 10
-60.70616755990449
 20
98.50100131726538
 30
0.0
 11
-60.70698760455275
 21
-0.0002513012482076
 31
0.0
 70
   160
  1
\A1;%%C197
 71
     5
 42
196.999999993173
  3
ISO-25
100
AcDbAlignedDimension
 13
59.92934768402483
 23
-98.50000300000004
 33
0.0
 14
59.92934768402495
 24
98.49999699999997
 34
0.0
 50
269.9995230000014
100
AcDbRotatedDimension
  0
DIMENSION
  5
4B2
330
A
100
AcDbEntity
  8
2
100
AcDbDimension
  2
*D2
 10
61.52935168402303
 20
125.7730581221126
 30
0.0
 11
32.65122325938956
 21
125.7730581221126
 31
0.0
 70
   160
  1
\A1;62
 71
     5
 42
61.60000399999693
  3
ISO-25
100
AcDbAlignedDimension
 13
-0.0706523159739163
 23
74.99999385840737
 33
0.0
 14
61.52935168402303
 24
96.89990154120572
 34
0.0
 50
180.0
100
AcDbRotatedDimension
  0
MTEXT
  5
4B3
330
A
100
AcDbEntity
  8
6
100
AcDbMText
 10
24.99411149413163
 20
-114.197945503404
 30
0.0
 40
4.0
 41
0.0
 71
     7
 72
     5
  1
6F2A200R00
 73
     1
 44
1.0
1001
ACAD
1000
MTEXTBEGIN
1070
    73
1070
     1
1070
    44
1040
1.0
1070
    74
1070
     0
1000
MTEXTEND
  0
LINE
  5
BF1
330
A
100
AcDbEntity
  8
1
100
AcDbLine
 10
58.53347267030176
 20
-99.62818942199163
 30
0.0
 11
58.21865368402471
 21
-99.25598700000008
 31
0.0
  0
LINE
  5
BF2
330
A
100
AcDbEntity
  8
1
100
AcDbLine
 10
58.21865368402471
 20
-99.25598700000008
 30
0.0
 11
58.00503068402486
 21
-99.00366500000009
 31
0.0
  0
LINE
  5
BF3
330
A
100
AcDbEntity
  8
1
100
AcDbLine
 10
61.84047968402478
 20
-99.88843100000009
 30
0.0
 11
60.19326368402483
 21
-99.75880500000014
 31
0.0
  0
LINE
  5
BF4
330
A
100
AcDbEntity
  8
1
100
AcDbLine
 10
60.19326368402483
 20
-99.75880500000014
 30
0.0
 11
58.53466080251156
 21
-99.62924057358955
 31
0.0
  0
LINE
  5
BF5
330
A
100
AcDbEntity
  8
1
100
AcDbLine
 10
62.92299968402471
 20
-98.91357700000007
 30
0.0
 11
62.91645168402475
 21
-99.01577300000008
 31
0.0
  0
LINE
  5
BF6
330
A
100
AcDbEntity
  8
1
100
AcDbLine
 10
62.91645168402475
 20
-99.01577300000008
 30
0.0
 11
62.87646368402477
 21
-99.18795300000006
 31
0.0
  0
LINE
  5
BF7
330
A
100
AcDbEntity
  8
1
100
AcDbLine
 10
62.87646368402477
 20
-99.18795300000006
 30
0.0
 11
62.82486368402487
 21
-99.30983300000002
 31
0.0
  0
LINE
  5
BF8
330
A
100
AcDbEntity
  8
1
100
AcDbLine
 10
62.82486368402487
 20
-99.30983300000002
 30
0.0
 11
62.71715468402476
 21
-99.47763200000007
 31
0.0
  0
LINE
  5
BF9
330
A
100
AcDbEntity
  8
1
100
AcDbLine
 10
62.71715468402476
 20
-99.47763200000007
 30
0.0
 11
62.57860668402475
 21
-99.62319500000006
 31
0.0
  0
LINE
  5
BFA
330
A
100
AcDbEntity
  8
1
100
AcDbLine
 10
62.57860668402475
 20
-99.62319500000006
 30
0.0
 11
62.41268968402483
 21
-99.74342600000014
 31
0.0
  0
LINE
  5
BFB
330
A
100
AcDbEntity
  8
1
100
AcDbLine
 10
62.41268968402483
 20
-99.74342600000014
 30
0.0
 11
62.27550768402477
 21
-99.81234600000014
 31
0.0
  0
LINE
  5
BFC
330
A
100
AcDbEntity
  8
1
100
AcDbLine
 10
62.27550768402477
 20
-99.81234600000014
 30
0.0
 11
62.16730968402487
 21
-99.85066700000013
 31
0.0
  0
LINE
  5
BFD
330
A
100
AcDbEntity
  8
1
100
AcDbLine
 10
62.16730968402487
 20
-99.85066700000013
 30
0.0
 11
61.99925768402477
 21
-99.88454700000014
 31
0.0
  0
LINE
  5
BFE
330
A
100
AcDbEntity
  8
1
100
AcDbLine
 10
61.99925768402477
 20
-99.88454700000014
 30
0.0
 11
61.82778468402478
 21
-99.88745400000006
 31
0.0
  0
LINE
  5
BFF
330
A
100
AcDbEntity
  8
1
100
AcDbLine
 10
62.92299968402471
 20
-98.92261100000007
 30
0.0
 11
62.92930968402481
 21
-92.98915900000007
 31
0.0
  0
LINE
  5
C00
330
A
100
AcDbEntity
  8
1
100
AcDbLine
 10
62.92930968402481
 20
-92.98915900000007
 30
0.0
 11
62.92006968402471
 21
-87.04541300000011
 31
0.0
  0
LINE
  5
C01
330
A
100
AcDbEntity
  8
1
100
AcDbLine
 10
62.92006968402471
 20
-87.04565700000006
 30
0.0
 11
62.22476068402477
 21
-86.98818000000011
 31
0.0
  0
LINE
  5
C02
330
A
100
AcDbEntity
  8
1
100
AcDbLine
 10
62.22476068402477
 20
-86.98818000000011
 30
0.0
 11
61.52944568402471
 21
-86.93090100000011
 31
0.0
  0
LINE
  5
C03
330
A
100
AcDbEntity
  8
1
100
AcDbLine
 10
62.92006968402484
 20
87.04565099999996
 30
0.0
 11
62.22476068402489
 21
86.98817399999995
 31
0.0
  0
LINE
  5
C04
330
A
100
AcDbEntity
  8
1
100
AcDbLine
 10
62.93562922085846
 20
87.04673427688357
 30
0.0
 11
58.73088587877054
 21
86.70035386816003
 31
0.0
  0
LINE
  5
C05
330
A
100
AcDbEntity
  8
1
100
AcDbLine
 10
62.92299968402483
 20
98.92260399999992
 30
0.0
 11
62.92930968402492
 21
92.98915299999986
 31
0.0
  0
LINE
  5
C06
330
A
100
AcDbEntity
  8
1
100
AcDbLine
 10
62.92930968402492
 20
92.98915299999986
 30
0.0
 11
62.92006968402484
 21
87.0454069999999
 31
0.0
  0
LINE
  5
C07
330
A
100
AcDbEntity
  8
1
100
AcDbLine
 10
62.92299968402483
 20
98.91357099999993
 30
0.0
 11
62.91645168402489
 21
99.01576699999992
 31
0.0
  0
LINE
  5
C08
330
A
100
AcDbEntity
  8
1
100
AcDbLine
 10
62.91645168402489
 20
99.01576699999992
 30
0.0
 11
62.87646368402488
 21
99.18794599999992
 31
0.0
  0
LINE
  5
C09
330
A
100
AcDbEntity
  8
1
100
AcDbLine
 10
62.87646368402488
 20
99.18794599999992
 30
0.0
 11
62.82486368402499
 21
99.30982699999994
 31
0.0
  0
LINE
  5
C0A
330
A
100
AcDbEntity
  8
1
100
AcDbLine
 10
62.82486368402499
 20
99.30982699999994
 30
0.0
 11
62.71715468402486
 21
99.47762599999993
 31
0.0
  0
LINE
  5
C0B
330
A
100
AcDbEntity
  8
1
100
AcDbLine
 10
62.71715468402486
 20
99.47762599999993
 30
0.0
 11
62.57860668402486
 21
99.62318899999992
 31
0.0
  0
LINE
  5
C0C
330
A
100
AcDbEntity
  8
1
100
AcDbLine
 10
62.57860668402486
 20
99.62318899999992
 30
0.0
 11
62.41268968402494
 21
99.74341999999996
 31
0.0
  0
LINE
  5
C0D
330
A
100
AcDbEntity
  8
1
100
AcDbLine
 10
62.41268968402494
 20
99.74341999999996
 30
0.0
 11
62.27550768402489
 21
99.81233899999997
 31
0.0
  0
LINE
  5
C0E
330
A
100
AcDbEntity
  8
1
100
AcDbLine
 10
62.27550768402489
 20
99.81233899999997
 30
0.0
 11
62.16730968402497
 21
99.8506609999999
 31
0.0
  0
LINE
  5
C0F
330
A
100
AcDbEntity
  8
1
100
AcDbLine
 10
62.16730968402497
 20
99.8506609999999
 30
0.0
 11
61.99925768402489
 21
99.88454099999996
 31
0.0
  0
LINE
  5
C10
330
A
100
AcDbEntity
  8
1
100
AcDbLine
 10
61.99925768402489
 20
99.88454099999996
 30
0.0
 11
61.82778468402489
 21
99.88744799999992
 31
0.0
  0
LINE
  5
C11
330
A
100
AcDbEntity
  8
1
100
AcDbLine
 10
61.8404796840249
 20
99.88842499999993
 30
0.0
 11
60.19326368402492
 21
99.75879899999997
 31
0.0
  0
LINE
  5
C12
330
A
100
AcDbEntity
  8
1
100
AcDbLine
 10
60.19326368402492
 20
99.75879899999997
 30
0.0
 11
58.53466080251178
 21
99.62923457358947
 31
0.0
  0
LINE
  5
C13
330
A
100
AcDbEntity
  8
1
100
AcDbLine
 10
58.53347267030199
 20
99.62818342199142
 30
0.0
 11
58.21865368402484
 21
99.25598099999993
 31
0.0
  0
LINE
  5
C14
330
A
100
AcDbEntity
  8
1
100
AcDbLine
 10
58.21865368402484
 20
99.25598099999993
 30
0.0
 11
58.00503068402497
 21
99.00365899999993
 31
0.0
  0
DIMENSION
  5
D1B
330
A
100
AcDbEntity
  8
2
100
AcDbDimension
  2
*D4
 10
88.39005506663486
 20
-99.88454700000014
 30
0.0
 11
88.39005506663488
 21
-0.0169430000001008
 31
0.0
 70
   160
  1
%%C200
 71
     5
 42
199.735208
  3
ISO-25
100
AcDbAlignedDimension
 13
62.16730968402497
 23
99.8506609999999
 33
0.0
 14
61.99925768402477
 24
-99.88454700000014
 34
0.0
 50
90.0
100
AcDbRotatedDimension
  0
LINE
  5
D95
330
A
100
AcDbEntity
  8
1
100
AcDbLine
 10
58.00503068402497
 20
98.49999699999997
 30
0.0
 11
58.01102632245568
 21
87.26061391823828
 31
0.0
  0
LINE
  5
D96
330
A
100
AcDbEntity
  8
1
100
AcDbLine
 10
58.01102632245555
 20
87.26061391823833
 30
0.0
 11
58.73088587877068
 21
86.70035386816
 31
0.0
  0
LWPOLYLINE
  5
EBD
330
A
100
AcDbEntity
  8
NOCUT
100
AcDbPolyline
 90
       15
 70
     1
 43
0.0
 10
4.929440684026758
 20
-80.00000300000005
 42
-0.4269799957142454
 10
-0.0705593159732416
 20
-75.00000300000005
 10
-0.0705593159732416
 20
-14.44976600025865
 10
1.529206684033168
 20
-12.85000199999973
 10
12.52953871726094
 20
-12.85000199999973
 42
0.4142134703579838
 10
14.12953668402656
 20
-11.25000246942028
 10
14.12953668402656
 20
0.0000000000000568
 10
61.52944468402484
 20
-0.0000000000000568
 10
61.52944468402484
 20
-96.89990754120588
 42
-0.4142134703579503
 10
59.92943864547715
 20
-98.49990899999873
 10
29.04087410408362
 20
-98.49990899999873
 42
-0.2664494070050086
 10
23.87831249731573
 20
-95.50001206899214
 10
16.66149953731211
 20
-83.00003492292518
 42
0.2679508385934489
 10
11.46532868402674
 20
-80.00000300000005
 10
4.929440684026758
 20
-80.00000300000005
  0
LWPOLYLINE
  5
EBE
330
A
100
AcDbEntity
  8
NOCUT
100
AcDbPolyline
 90
        2
 70
     1
 43
0.0
 10
23.87831768402656
 20
-95.50008700000004
 10
16.66139968402672
 20
-83.00001600000001
  0
LWPOLYLINE
  5
EF6
330
A
100
AcDbEntity
  8
1
100
AcDbPolyline
 90
        3
 70
     1
 43
0.0
 10
-0.0706523159750532
 20
2.950972054112611
 10
-0.0706523159750532
 20
0.0
 10
2.880319738137528
 20
0.0
 42
0.4142135623730966
  0
CIRCLE
  5
EF7
330
A
100
AcDbEntity
  8
1
100
AcDbCircle
 10
-0.0706523159750532
 20
0.0
 30
0.0
 40
2.950972054112601
  0
HATCH
  5
EF8
330
A
100
AcDbEntity
  8
1
100
AcDbHatch
 10
0.0
 20
0.0
 30
0.0
210
0.0
220
0.0
230
1.0
  2
SOLID
 70
     1
 71
     0
 91
        2
 92
        7
 72
     1
 73
     1
 93
        3
 10
-0.0706523159750532
 20
0.0
 42
0.0
 10
2.880319738137528
 20
0.0
 42
0.4142135623730966
 10
-0.0706523159750532
 20
2.950972054112611
 42
0.0
 97
        0
 92
        7
 72
     1
 73
     1
 93
        3
 10
-0.0706523159750532
 20
-2.950972054112496
 42
0.0
 10
-0.0706523159750532
 20
0.0
 42
0.0
 10
-3.021624370087636
 20
0.0
 42
0.4142135623730953
 97
        0
 75
     0
 76
     1
 47
0.1190009775223266
 98
        2
 10
0.6739007428368497
 20
0.9212244733764975
 10
-1.35011691782816
 20
-1.69679692304629
  0
LINE
  5
EF9
330
A
100
AcDbEntity
  8
1
100
AcDbLine
 10
-3.021624370087891
 20
0.0
 30
0.0
 11
2.880319738137528
 21
0.0
 31
0.0
  0
LINE
  5
EFA
330
A
100
AcDbEntity
  8
1
100
AcDbLine
 10
-0.0706523159750532
 20
2.950972054112611
 30
0.0
 11
-0.0706523159750532
 21
-2.950972054112583
 31
0.0
  0
LWPOLYLINE
  5
EFB
330
A
100
AcDbEntity
  8
1
100
AcDbPolyline
 90
        3
 70
     1
 43
0.0
 10
-0.0706523159750532
 20
0.0
 10
-3.021624370087636
 20
0.0
 42
0.4142135623730966
 10
-0.0706523159750532
 20
-2.950972054112583
  0
LINE
  5
EFC
330
A
100
AcDbEntity
  8
1
100
AcDbLine
 10
-0.0706523159750532
 20
14.44971099976869
 30
0.0
 11
-0.0706523159750532
 21
74.999997
 31
0.0
  0
MTEXT
  5
F04
330
A
100
AcDbEntity
  8
6
100
AcDbMText
 10
64.68971317479645
 20
106.9178530175847
 30
0.0
 40
4.0
 41
61.64492199999999
 71
     1
 72
     5
  1
YDA322L101
 73
     1
 44
1.0
1001
ACAD
1000
MTEXTBEGIN
1070
    73
1070
     1
1070
    44
1040
1.0
1070
    74
1070
     0
1000
MTEXTEND
  0
DIMENSION
  5
F11
330
A
100
AcDbEntity
  8
2
100
AcDbDimension
  2
*D5
 10
-46.04860304547897
 20
-79.99962784924787
 30
0.0
 11
-46.04793702318352
 21
0.0009312894877578
 31
0.0
 70
   160
  1
\A1;%%C160
 71
     5
 42
159.9999869223304
  3
ISO-25
100
AcDbAlignedDimension
 13
-2.556826817199407
 23
79.99999700000003
 33
0.0
 14
-0.9866432091871502
 24
-80.00000299999994
 34
0.0
 50
89.99952300000151
100
AcDbRotatedDimension
  0
DIMENSION
  5
F12
330
A
100
AcDbEntity
  8
SK2
100
AcDbDimension
  2
*D6
 10
-22.95349585023276
 20
-29.99983402799773
 30
0.0
 11
-22.95324608459237
 21
0.0012500527094475
 31
0.0
 70
   160
  1
\A1;%%C60
 71
     5
 42
60.00000648811803
  3
ISO-25
100
AcDbAlignedDimension
 13
-1.877513608328172
 23
29.99999700000004
 33
0.0
 14
-2.657096241724957
 24
-30.00000299999995
 34
0.0
 50
89.99952300000151
100
AcDbRotatedDimension
  0
TEXT
  5
F85
330
A
100
AcDbEntity
  8
6
100
AcDbText
 10
102.1868728582799
 20
-4.00057816765977
 30
0.0
 40
4.0
  1
Z=10
 50
90.0
100
AcDbText
  0
LWPOLYLINE
  5
F8C
330
A
100
AcDbEntity
  8
CUT
100
AcDbPolyline
 90
       20
 70
     1
 43
0.0
 10
62.92300945241006
 20
98.91341854277683
 10
62.92930968402492
 20
92.98915299999993
 10
62.92006975477597
 20
87.04545251155742
 10
58.73088587877068
 20
86.70035386816
 10
58.01102632245568
 20
87.26061391823828
 10
58.00503068402497
 20
98.49999699999997
 10
58.00503068402497
 20
99.00365899999993
 10
58.21865368402484
 20
99.25598099999996
 10
58.53434060671894
 20
99.62920956098116
 10
60.19326368402492
 20
99.75879899999993
 10
61.82801490750466
 20
99.8874440969968
 10
61.99925768402489
 20
99.88454099999996
 10
62.16730968402497
 20
99.8506609999999
 10
62.27550768402489
 20
99.81233899999999
 10
62.41268968402494
 20
99.74341999999996
 10
62.57860668402486
 20
99.62318899999985
 10
62.71715468402486
 20
99.47762599999993
 10
62.82486368402499
 20
99.30982700000001
 10
62.87646368402488
 20
99.18794599999998
 10
62.91645168402489
 20
99.01576699999992
  0
VIEWPORT
  5
4B4
102
{ACAD_XDICTIONARY
360
FA8
102
}
330
B
100
AcDbEntity
 67
     1
  8
0
 62
     0
100
AcDbViewport
 10
0.0
 20
0.0
 30
0.0
 40
1000.0
 41
1000.0
 68
     1
 69
     1
 12
0.0
 22
0.0
 13
0.0
 23
0.0
 14
1.0
 24
1.0
 15
1.0
 25
1.0
 16
0.0
 26
0.0
 36
1.0
 17
0.0
 27
0.0
 37
0.0
 42
50.0
 43
0.0
 44
0.0
 45
1000.0
 50
0.0
 51
0.0
 72
   100
 90
    32800
  1

281
     0
 71
     1
 74
     0
110
0.0
120
0.0
130
0.0
111
1.0
121
0.0
131
0.0
112
0.0
122
1.0
132
0.0
 79
     0
146
0.0
  0
ENDSEC
  0
SECTION
  2
OBJECTS
  0
DICTIONARY
  5
19
330
0
100
AcDbDictionary
281
     1
  3
ACAD_COLOR
350
F0C
  3
ACAD_GROUP
350
1A
  3
ACAD_LAYOUT
350
BEB
  3
ACAD_MATERIAL
350
F0B
  3
ACAD_MLINESTYLE
350
1B
  3
ACAD_PLOTSETTINGS
350
BEC
  3
ACAD_PLOTSTYLENAME
350
BE9
  3
ACAD_TABLESTYLE
350
F0D
  3
ACDBHEADERROUNDTRIPXREC
350
FA7
  3
AcDbVariableDictionary
350
FA1
  0
DICTIONARY
  5
F88
330
2
100
AcDbDictionary
280
     1
281
     1
  3
ACAD_LAYERFILTERS
360
F8A
  3
ACLYDICTIONARY
360
F89
  0
DICTIONARY
  5
F86
330
A
100
AcDbDictionary
280
     1
281
     1
  3
ACAD_SORTENTS
360
F87
  0
DICTIONARY
  5
FA8
330
4B4
100
AcDbDictionary
280
     1
281
     1
  3
ACAD_XREC_ROUNDTRIP
360
FA9
  0
DICTIONARY
  5
F0C
102
{ACAD_REACTORS
330
19
102
}
330
19
100
AcDbDictionary
281
     1
  0
DICTIONARY
  5
1A
102
{ACAD_REACTORS
330
19
102
}
330
19
100
AcDbDictionary
281
     1
  0
DICTIONARY
  5
BEB
102
{ACAD_REACTORS
330
19
102
}
330
19
100
AcDbDictionary
281
     1
  3
Layout1
350
BEE
  3
Model
350
BED
  0
DICTIONARY
  5
F0B
102
{ACAD_REACTORS
330
19
102
}
330
19
100
AcDbDictionary
281
     1
  0
DICTIONARY
  5
1B
102
{ACAD_REACTORS
330
19
102
}
330
19
100
AcDbDictionary
281
     1
  3
STANDARD
350
1C
  0
DICTIONARY
  5
BEC
102
{ACAD_REACTORS
330
19
102
}
330
19
100
AcDbDictionary
281
     1
  0
ACDBDICTIONARYWDFLT
  5
BE9
102
{ACAD_REACTORS
330
19
102
}
330
19
100
AcDbDictionary
281
     1
  3
Normal
350
BEA
100
AcDbDictionaryWithDefault
340
BEA
  0
DICTIONARY
  5
F0D
102
{ACAD_REACTORS
330
19
102
}
330
19
100
AcDbDictionary
281
     1
  3
Standard
350
F0E
  0
DICTIONARY
  5
FA7
102
{ACAD_REACTORS
330
19
102
}
330
19
100
AcDbDictionary
281
     1
  0
DICTIONARY
  5
FA1
102
{ACAD_REACTORS
330
19
102
}
330
19
100
AcDbDictionary
281
     1
  3
CTABLESTYLE
350
FA2
  3
DIMASSOC
350
FA4
  3
PROJECTNAME
350
FA5
  0
DICTIONARY
  5
F8A
102
{ACAD_REACTORS
330
F88
102
}
330
F88
100
AcDbDictionary
281
     1
  0
DICTIONARY
  5
F89
102
{ACAD_REACTORS
330
F88
102
}
330
F88
100
AcDbDictionary
281
     1
1001
ACAD
1000
<All
  0
SORTENTSTABLE
  5
F87
102
{ACAD_REACTORS
330
F86
102
}
330
F86
100
AcDbSortentsTable
330
A
331
C10
  5
C10
331
BFF
  5
BFF
331
85
  5
85
331
74
  5
74
331
63
  5
63
331
BFD
  5
BFD
331
83
  5
83
331
EFB
  5
F9A
331
C0E
  5
C0E
331
72
  5
72
331
61
  5
61
331
F04
  5
F9C
331
D95
  5
D95
331
BFB
  5
BFB
331
81
  5
81
331
EF9
  5
F98
331
C0C
  5
C0C
331
70
  5
70
331
5F
  5
5F
331
BF9
  5
BF9
331
7F
  5
7F
331
EF7
  5
F96
331
C0A
  5
C0A
331
90
  5
90
331
6E
  5
6E
331
5D
  5
5D
331
BF7
  5
BF7
331
7D
  5
7D
331
C08
  5
C08
331
8E
  5
8E
331
6C
  5
6C
331
EBE
  5
F94
331
BF5
  5
BF5
331
7B
  5
7B
331
C06
  5
C06
331
8C
  5
8C
331
6A
  5
6A
331
F12
  5
F9F
331
BF3
  5
BF3
331
79
  5
79
331
C04
  5
C04
331
68
  5
68
331
F85
  5
F9D
331
C13
  5
C13
331
BF1
  5
BF1
331
C02
  5
C02
331
88
  5
88
331
77
  5
77
331
66
  5
66
331
C11
  5
C11
331
C00
  5
C00
331
4B2
  5
4B2
331
86
  5
86
331
75
  5
75
331
64
  5
64
331
BFE
  5
BFE
331
4B0
  5
4B0
331
84
  5
84
331
EFC
  5
F9B
331
C0F
  5
C0F
331
73
  5
73
331
62
  5
62
331
D96
  5
D96
331
BFC
  5
BFC
331
82
  5
82
331
EFA
  5
F99
331
C0D
  5
C0D
331
71
  5
71
331
60
  5
60
331
BFA
  5
BFA
331
80
  5
80
331
EF8
  5
F97
331
C0B
  5
C0B
331
91
  5
91
331
6F
  5
6F
331
D1B
  5
D1B
331
F8C
  5
F92
331
BF8
  5
BF8
331
7E
  5
7E
331
EF6
  5
F95
331
C09
  5
C09
331
8F
  5
8F
331
6D
  5
6D
331
BF6
  5
BF6
331
7C
  5
7C
331
C07
  5
C07
331
8D
  5
8D
331
6B
  5
6B
331
EBD
  5
F93
331
BF4
  5
BF4
331
7A
  5
7A
331
C05
  5
C05
331
69
  5
69
331
F11
  5
F9E
331
C14
  5
C14
331
BF2
  5
BF2
331
78
  5
78
331
C03
  5
C03
331
89
  5
89
331
67
  5
67
331
C12
  5
C12
331
C01
  5
C01
331
4B3
  5
4B3
331
87
  5
87
331
76
  5
76
331
65
  5
65
  0
XRECORD
  5
FA9
102
{ACAD_REACTORS
330
FA8
102
}
330
FA8
100
AcDbXrecord
280
     1
102
SHADEPLOT
 70
     0
  0
LAYOUT
  5
BEE
102
{ACAD_XDICTIONARY
360
FAC
102
}
102
{ACAD_REACTORS
330
BEB
102
}
330
BEB
100
AcDbPlotSettings
  1

  2
\\ingdom02\ITB2
  4

  6

 40
0.0
 41
0.0
 42
0.0
 43
0.0
 44
0.0
 45
0.0
 46
0.0
 47
0.0
 48
0.0
 49
0.0
140
0.0
141
0.0
142
1.0
143
1.0
 70
   688
 72
     0
 73
     0
 74
     5
  7

 75
    16
147
1.0
148
0.0
149
0.0
100
AcDbLayout
  1
Layout1
 70
     1
 71
     1
 10
0.0
 20
0.0
 11
12.0
 21
9.0
 12
0.0
 22
0.0
 32
0.0
 14
-841.0
 24
0.0
 34
1.000000000000000E+20
 15
0.0
 25
594.0
 35
-1.000000000000000E+20
146
0.0
 13
0.0
 23
0.0
 33
0.0
 16
1.0
 26
0.0
 36
0.0
 17
0.0
 27
1.0
 37
0.0
 76
     0
330
B
331
4B4
  0
LAYOUT
  5
BED
102
{ACAD_XDICTIONARY
360
FAA
102
}
102
{ACAD_REACTORS
330
BEB
102
}
330
BEB
100
AcDbPlotSettings
  1

  2
\\ingdom02\ITB2
  4

  6

 40
0.0
 41
0.0
 42
0.0
 43
0.0
 44
0.0
 45
0.0
 46
0.0
 47
0.0
 48
0.0
 49
0.0
140
0.0
141
0.0
142
1.0
143
1.0
 70
  1712
 72
     0
 73
     0
 74
     0
  7

 75
     0
147
1.0
148
0.0
149
0.0
100
AcDbLayout
  1
Model
 70
     1
 71
     0
 10
0.0
 20
0.0
 11
12.0
 21
9.0
 12
0.0
 22
0.0
 32
0.0
 14
0.0
 24
0.0
 34
0.0
 15
0.0
 25
0.0
 35
0.0
146
0.0
 13
0.0
 23
0.0
 33
0.0
 16
1.0
 26
0.0
 36
0.0
 17
0.0
 27
1.0
 37
0.0
 76
     0
330
A
  0
MLINESTYLE
  5
1C
102
{ACAD_REACTORS
330
1B
102
}
330
1B
100
AcDbMlineStyle
  2
STANDARD
 70
     0
  3

 62
     0
 51
90.0
 52
90.0
 71
     2
 49
0.5
 62
   256
  6
BYLAYER
 49
-0.5
 62
   256
  6
BYLAYER
  0
ACDBPLACEHOLDER
  5
BEA
102
{ACAD_REACTORS
330
BE9
102
}
330
BE9
  0
TABLESTYLE
  5
F0E
102
{ACAD_REACTORS
330
F0D
102
}
330
F0D
100
AcDbTableStyle
  3
Standard
 70
     0
 71
     0
 40
0.06
 41
0.06
280
     0
281
     0
  7
STANDARD
140
0.18
170
     2
 62
     0
 63
     7
283
     0
274
    -2
284
     1
 64
     0
275
    -2
285
     1
 65
     0
276
    -2
286
     1
 66
     0
277
    -2
287
     1
 67
     0
278
    -2
288
     1
 68
     0
279
    -2
289
     1
 69
     0
  7
STANDARD
140
0.25
170
     5
 62
     0
 63
     7
283
     0
274
    -2
284
     1
 64
     0
275
    -2
285
     1
 65
     0
276
    -2
286
     1
 66
     0
277
    -2
287
     1
 67
     0
278
    -2
288
     1
 68
     0
279
    -2
289
     1
 69
     0
  7
STANDARD
140
0.18
170
     5
 62
     0
 63
     7
283
     0
274
    -2
284
     1
 64
     0
275
    -2
285
     1
 65
     0
276
    -2
286
     1
 66
     0
277
    -2
287
     1
 67
     0
278
    -2
288
     1
 68
     0
279
    -2
289
     1
 69
     0
  0
DICTIONARYVAR
  5
FA2
102
{ACAD_REACTORS
330
FA1
102
}
330
FA1
100
DictionaryVariables
280
     0
  1
STANDARD
  0
DICTIONARYVAR
  5
FA4
102
{ACAD_REACTORS
330
FA1
102
}
330
FA1
100
DictionaryVariables
280
     0
  1
1
  0
DICTIONARYVAR
  5
FA5
102
{ACAD_REACTORS
330
FA1
102
}
330
FA1
100
DictionaryVariables
280
     0
  1

  0
DICTIONARY
  5
FAC
330
BEE
100
AcDbDictionary
280
     1
281
     1
  3
ACAD_XREC_ROUNDTRIP
360
FAD
  0
DICTIONARY
  5
FAA
330
BED
100
AcDbDictionary
280
     1
281
     1
  3
ACAD_XREC_ROUNDTRIP
360
FAB
  0
XRECORD
  5
FAD
102
{ACAD_REACTORS
330
FAC
102
}
330
FAC
100
AcDbXrecord
280
     1
102
SHADEPLOT
 70
     0
102
SHADEPLOTRESLEVEL
 70
     2
102
SHADEPLOTCUSTOMDPI
 70
   300
  0
XRECORD
  5
FAB
102
{ACAD_REACTORS
330
FAA
102
}
330
FAA
100
AcDbXrecord
280
     1
102
SHADEPLOT
 70
     0
102
SHADEPLOTRESLEVEL
 70
     2
102
SHADEPLOTCUSTOMDPI
 70
   300
  0
ENDSEC
  0
EOF
