  0
SECTION
  2
HEADER
  9
$ACADVER
  1
AC1015
  9
$ACADMAINTVER
 70
    20
  9
$DWGCODEPAGE
  3
ANSI_1252
  9
$INSBASE
 10
0.0
 20
0.0
 30
0.0
  9
$EXTMIN
 10
-48.57166254778395
 20
-90.69961197534803
 30
-0.0015258207003583
  9
$EXTMAX
 10
117.7193175427733
 20
113.1161286546928
 30
0.0000000349246037
  9
$LIMMIN
 10
-657.5319849999997
 20
0.0
  9
$LIMMAX
 10
0.0
 20
427.022461
  9
$ORTHOMODE
 70
     0
  9
$REGENMODE
 70
     1
  9
$FILLMODE
 70
     1
  9
$QTEXTMODE
 70
     0
  9
$MIRRTEXT
 70
     1
  9
$LTSCALE
 40
6.0
  9
$ATTMODE
 70
     1
  9
$TEXTSIZE
 40
4.0
  9
$TRACEWID
 40
0.05
  9
$TEXTSTYLE
  7
STANDARD
  9
$CLAYER
  8
0
  9
$CELTYPE
  6
BYLAYER
  9
$CECOLOR
 62
   256
  9
$CELTSCALE
 40
1.0
  9
$DISPSILH
 70
     0
  9
$DIMSCALE
 40
1.0
  9
$DIMASZ
 40
0.18
  9
$DIMEXO
 40
0.0625
  9
$DIMDLI
 40
0.38
  9
$DIMRND
 40
0.0
  9
$DIMDLE
 40
0.0
  9
$DIMEXE
 40
0.18
  9
$DIMTP
 40
0.0
  9
$DIMTM
 40
0.0
  9
$DIMTXT
 40
3.5
  9
$DIMCEN
 40
0.09
  9
$DIMTSZ
 40
0.0
  9
$DIMTOL
 70
     0
  9
$DIMLIM
 70
     0
  9
$DIMTIH
 70
     0
  9
$DIMTOH
 70
     0
  9
$DIMSE1
 70
     0
  9
$DIMSE2
 70
     0
  9
$DIMTAD
 70
     0
  9
$DIMZIN
 70
     0
  9
$DIMBLK
  1

  9
$DIMASO
 70
     1
  9
$DIMSHO
 70
     1
  9
$DIMPOST
  1

  9
$DIMAPOST
  1

  9
$DIMALT
 70
     0
  9
$DIMALTD
 70
     2
  9
$DIMALTF
 40
25.4
  9
$DIMLFAC
 40
1.0
  9
$DIMTOFL
 70
     0
  9
$DIMTVP
 40
0.0
  9
$DIMTIX
 70
     0
  9
$DIMSOXD
 70
     0
  9
$DIMSAH
 70
     0
  9
$DIMBLK1
  1

  9
$DIMBLK2
  1

  9
$DIMSTYLE
  2
STANDARD
  9
$DIMCLRD
 70
     0
  9
$DIMCLRE
 70
     0
  9
$DIMCLRT
 70
     0
  9
$DIMTFAC
 40
1.0
  9
$DIMGAP
 40
0.09
  9
$DIMJUST
 70
     0
  9
$DIMSD1
 70
     0
  9
$DIMSD2
 70
     0
  9
$DIMTOLJ
 70
     0
  9
$DIMTZIN
 70
     0
  9
$DIMALTZ
 70
     0
  9
$DIMALTTZ
 70
     0
  9
$DIMUPT
 70
     0
  9
$DIMDEC
 70
     0
  9
$DIMTDEC
 70
     0
  9
$DIMALTU
 70
     2
  9
$DIMALTTD
 70
     0
  9
$DIMTXSTY
  7
STANDARD
  9
$DIMAUNIT
 70
     0
  9
$DIMADEC
 70
     0
  9
$DIMALTRND
 40
0.0
  9
$DIMAZIN
 70
     0
  9
$DIMDSEP
 70
    46
  9
$DIMATFIT
 70
     3
  9
$DIMFRAC
 70
     0
  9
$DIMLDRBLK
  1

  9
$DIMLUNIT
 70
     2
  9
$DIMLWD
 70
    -2
  9
$DIMLWE
 70
    -2
  9
$DIMTMOVE
 70
     0
  9
$LUNITS
 70
     2
  9
$LUPREC
 70
     6
  9
$SKETCHINC
 40
0.1
  9
$FILLETRAD
 40
0.5
  9
$AUNITS
 70
     0
  9
$AUPREC
 70
     4
  9
$MENU
  1
.
  9
$ELEVATION
 40
0.0
  9
$PELEVATION
 40
0.0
  9
$THICKNESS
 40
0.0
  9
$LIMCHECK
 70
     0
  9
$CHAMFERA
 40
0.0
  9
$CHAMFERB
 40
0.0
  9
$CHAMFERC
 40
0.0
  9
$CHAMFERD
 40
0.0
  9
$SKPOLY
 70
     0
  9
$TDCREATE
 40
2311949.301151841
  9
$TDUCREATE
 40
2311949.217818507
  9
$TDUPDATE
 40
2454225.639622107
  9
$TDUUPDATE
 40
2454225.556288773
  9
$TDINDWG
 40
0.1135395370
  9
$TDUSRTIMER
 40
0.1135391782
  9
$USRTIMER
 70
     1
  9
$ANGBASE
 50
0.0
  9
$ANGDIR
 70
     0
  9
$PDMODE
 70
     0
  9
$PDSIZE
 40
0.0
  9
$PLINEWID
 40
0.0
  9
$SPLFRAME
 70
     0
  9
$SPLINETYPE
 70
     6
  9
$SPLINESEGS
 70
     8
  9
$HANDSEED
  5
FC8
  9
$SURFTAB1
 70
     6
  9
$SURFTAB2
 70
     6
  9
$SURFTYPE
 70
     6
  9
$SURFU
 70
     6
  9
$SURFV
 70
     6
  9
$UCSBASE
  2

  9
$UCSNAME
  2

  9
$UCSORG
 10
0.0
 20
0.0
 30
0.0
  9
$UCSXDIR
 10
1.0
 20
0.0
 30
0.0
  9
$UCSYDIR
 10
0.0
 20
1.0
 30
0.0
  9
$UCSORTHOREF
  2

  9
$UCSORTHOVIEW
 70
     0
  9
$UCSORGTOP
 10
0.0
 20
0.0
 30
0.0
  9
$UCSORGBOTTOM
 10
0.0
 20
0.0
 30
0.0
  9
$UCSORGLEFT
 10
0.0
 20
0.0
 30
0.0
  9
$UCSORGRIGHT
 10
0.0
 20
0.0
 30
0.0
  9
$UCSORGFRONT
 10
0.0
 20
0.0
 30
0.0
  9
$UCSORGBACK
 10
0.0
 20
0.0
 30
0.0
  9
$PUCSBASE
  2

  9
$PUCSNAME
  2

  9
$PUCSORG
 10
0.0
 20
0.0
 30
0.0
  9
$PUCSXDIR
 10
1.0
 20
0.0
 30
0.0
  9
$PUCSYDIR
 10
0.0
 20
1.0
 30
0.0
  9
$PUCSORTHOREF
  2

  9
$PUCSORTHOVIEW
 70
     0
  9
$PUCSORGTOP
 10
0.0
 20
0.0
 30
0.0
  9
$PUCSORGBOTTOM
 10
0.0
 20
0.0
 30
0.0
  9
$PUCSORGLEFT
 10
0.0
 20
0.0
 30
0.0
  9
$PUCSORGRIGHT
 10
0.0
 20
0.0
 30
0.0
  9
$PUCSORGFRONT
 10
0.0
 20
0.0
 30
0.0
  9
$PUCSORGBACK
 10
0.0
 20
0.0
 30
0.0
  9
$USERI1
 70
     0
  9
$USERI2
 70
     0
  9
$USERI3
 70
     0
  9
$USERI4
 70
     0
  9
$USERI5
 70
     0
  9
$USERR1
 40
0.0
  9
$USERR2
 40
0.0
  9
$USERR3
 40
0.0
  9
$USERR4
 40
0.0
  9
$USERR5
 40
0.0
  9
$WORLDVIEW
 70
     1
  9
$SHADEDGE
 70
     3
  9
$SHADEDIF
 70
    70
  9
$TILEMODE
 70
     1
  9
$MAXACTVP
 70
    48
  9
$PINSBASE
 10
0.0
 20
0.0
 30
0.0
  9
$PLIMCHECK
 70
     0
  9
$PEXTMIN
 10
-657.5319849999997
 20
0.0
 30
1.000000000000000E+20
  9
$PEXTMAX
 10
0.0
 20
427.022461
 30
-1.000000000000000E+20
  9
$PLIMMIN
 10
0.0
 20
0.0
  9
$PLIMMAX
 10
12.0
 20
9.0
  9
$UNITMODE
 70
     0
  9
$VISRETAIN
 70
     0
  9
$PLINEGEN
 70
     0
  9
$PSLTSCALE
 70
     1
  9
$TREEDEPTH
 70
  3020
  9
$CMLSTYLE
  2
STANDARD
  9
$CMLJUST
 70
     0
  9
$CMLSCALE
 40
1.0
  9
$PROXYGRAPHICS
 70
     1
  9
$MEASUREMENT
 70
     0
  9
$CELWEIGHT
370
    -1
  9
$ENDCAPS
280
     0
  9
$JOINSTYLE
280
     0
  9
$LWDISPLAY
290
     0
  9
$INSUNITS
 70
     0
  9
$HYPERLINKBASE
  1

  9
$STYLESHEET
  1

  9
$XEDIT
290
     1
  9
$CEPSNTYPE
380
     0
  9
$PSTYLEMODE
290
     1
  9
$FINGERPRINTGUID
  2
{C18A56FD-01C6-4E0B-95D5-311AEDD0EA1F}
  9
$VERSIONGUID
  2
{5219D3D8-0E72-465C-A8C0-2058FE0AEF6E}
  9
$EXTNAMES
290
     1
  9
$PSVPSCALE
 40
0.0
  9
$OLESTARTUP
290
     0
  0
ENDSEC
  0
SECTION
  2
CLASSES
  0
CLASS
  1
IMAGE
  2
AcDbRasterImage
  3
ISM
 90
    32895
280
     0
281
     1
  0
CLASS
  1
DICTIONARYVAR
  2
AcDbDictionaryVar
  3
ObjectDBX Classes
 90
        0
280
     0
281
     0
  0
CLASS
  1
RASTERVARIABLES
  2
AcDbRasterVariables
  3
ISM
 90
    32768
280
     0
281
     0
  0
CLASS
  1
IMAGEDEF
  2
AcDbRasterImageDef
  3
ISM
 90
    32768
280
     0
281
     0
  0
CLASS
  1
IMAGEDEF_REACTOR
  2
AcDbRasterImageDefReactor
  3
ISM
 90
    32769
280
     0
281
     0
  0
CLASS
  1
IDBUFFER
  2
AcDbIdBuffer
  3
ObjectDBX Classes
 90
    32768
280
     0
281
     0
  0
CLASS
  1
SPATIAL_FILTER
  2
AcDbSpatialFilter
  3
ObjectDBX Classes
 90
    32768
280
     0
281
     0
  0
CLASS
  1
SORTENTSTABLE
  2
AcDbSortentsTable
  3
ObjectDBX Classes
 90
        0
280
     0
281
     0
  0
CLASS
  1
LAYER_INDEX
  2
AcDbLayerIndex
  3
ObjectDBX Classes
 90
    32768
280
     0
281
     0
  0
CLASS
  1
SPATIAL_INDEX
  2
AcDbSpatialIndex
  3
ObjectDBX Classes
 90
    32768
280
     0
281
     0
  0
CLASS
  1
OBJECT_PTR
  2
CAseDLPNTableRecord
  3
"ASE-LPNTableRecord"
 90
    32768
280
     0
281
     0
  0
CLASS
  1
LAYOUT
  2
AcDbLayout
  3
ObjectDBX Classes
 90
        0
280
     0
281
     0
  0
CLASS
  1
PLOTSETTINGS
  2
AcDbPlotSettings
  3
ObjectDBX Classes
 90
    32768
280
     0
281
     0
  0
CLASS
  1
ACDBDICTIONARYWDFLT
  2
AcDbDictionaryWithDefault
  3
ObjectDBX Classes
 90
        0
280
     0
281
     0
  0
CLASS
  1
ACDBPLACEHOLDER
  2
AcDbPlaceHolder
  3
ObjectDBX Classes
 90
        0
280
     0
281
     0
  0
CLASS
  1
VBA_PROJECT
  2
AcDbVbaProject
  3
acad
 90
    32768
280
     0
281
     0
  0
CLASS
  1
WIPEOUT
  2
AcDbWipeout
  3
"WipeOut|Product Desc: Object Enabler for WipeOut entity^I^I^I^I^I^I|Company: Autodesk, Inc.^I^I^I^I^I^I|WEB Address: www.autodesk.com"
 90
    32895
280
     0
281
     1
  0
CLASS
  1
WIPEOUTVARIABLES
  2
AcDbWipeoutVariables
  3
"WipeOut|Product Desc:     WipeOut Dbx Application|Company:          Autodesk, Inc.|WEB Address:      www.autodesk.com"
 90
    32768
280
     0
281
     0
  0
CLASS
  1
RTEXT
  2
RText
  3
RText|AutoCAD Express Tool|expresstools@autodesk.com
 90
    32768
280
     0
281
     1
  0
CLASS
  1
ARCALIGNEDTEXT
  2
AcDbArcAlignedText
  3
ATEXT|AutoCAD Express Tool|expresstools@autodesk.com
 90
    32768
280
     0
281
     1
  0
CLASS
  1
TABLESTYLE
  2
AcDbTableStyle
  3
ObjectDBX Classes
 90
     2047
280
     0
281
     0
  0
ENDSEC
  0
SECTION
  2
TABLES
  0
TABLE
  2
VPORT
  5
7
330
0
100
AcDbSymbolTable
 70
     4
  0
VPORT
  5
FC0
330
7
100
AcDbSymbolTableRecord
100
AcDbViewportTableRecord
  2
*Active
 70
     0
 10
0.0
 20
0.0
 11
1.0
 21
1.0
 12
34.57382749749468
 22
11.2082583396724
 13
0.0
 23
0.0
 14
6.349999999999997
 24
6.349999999999997
 15
6.349999999999997
 25
6.349999999999997
 16
0.0
 26
0.0
 36
1.0
 17
0.0
 27
0.0
 37
0.0
 40
205.3481898077103
 41
1.514429109159347
 42
50.0
 43
0.0
 44
0.0
 50
0.0
 51
0.0
 71
     0
 72
  1000
 73
     1
 74
     1
 75
     0
 76
     0
 77
     0
 78
     0
281
     0
 65
     1
110
0.0
120
0.0
130
0.0
111
1.0
121
0.0
131
0.0
112
0.0
122
1.0
132
0.0
 79
     0
146
0.0
  0
ENDTAB
  0
TABLE
  2
LTYPE
  5
4
330
0
100
AcDbSymbolTable
 70
     3
  0
LTYPE
  5
11
330
4
100
AcDbSymbolTableRecord
100
AcDbLinetypeTableRecord
  2
BYBLOCK
 70
     0
  3

 72
    65
 73
     0
 40
0.0
  0
LTYPE
  5
12
330
4
100
AcDbSymbolTableRecord
100
AcDbLinetypeTableRecord
  2
BYLAYER
 70
     0
  3

 72
    65
 73
     0
 40
0.0
  0
LTYPE
  5
13
330
4
100
AcDbSymbolTableRecord
100
AcDbLinetypeTableRecord
  2
CONTINUOUS
 70
     0
  3
DXF Default line type
 72
    65
 73
     0
 40
0.0
  0
LTYPE
  5
1E
330
4
100
AcDbSymbolTableRecord
100
AcDbLinetypeTableRecord
  2
HIDDEN
 70
     0
  3
DXF Hidden
 72
    65
 73
     2
 40
0.375
 49
0.25
 74
     0
 49
-0.125
 74
     0
  0
LTYPE
  5
1F
330
4
100
AcDbSymbolTableRecord
100
AcDbLinetypeTableRecord
  2
CENTER
 70
     0
  3
DXF Center
 72
    65
 73
     4
 40
2.0
 49
1.25
 74
     0
 49
-0.25
 74
     0
 49
0.25
 74
     0
 49
-0.25
 74
     0
  0
ENDTAB
  0
TABLE
  2
LAYER
  5
2
330
0
100
AcDbSymbolTable
 70
    10
  0
LAYER
  5
14
330
2
100
AcDbSymbolTableRecord
100
AcDbLayerTableRecord
  2
0
 70
     0
 62
     7
  6
CONTINUOUS
370
    -3
390
B8A
  0
LAYER
  5
BCE
330
2
100
AcDbSymbolTableRecord
100
AcDbLayerTableRecord
  2
Defpoints
 70
     0
 62
     7
  6
CONTINUOUS
290
     0
370
    -3
390
B8A
  0
LAYER
  5
BD0
330
2
100
AcDbSymbolTableRecord
100
AcDbLayerTableRecord
  2
1
 70
     0
 62
     4
  6
CONTINUOUS
370
    -3
390
B8A
  0
LAYER
  5
BD1
330
2
100
AcDbSymbolTableRecord
100
AcDbLayerTableRecord
  2
2
 70
     0
 62
     7
  6
CONTINUOUS
370
    -3
390
B8A
  0
LAYER
  5
BD2
330
2
100
AcDbSymbolTableRecord
100
AcDbLayerTableRecord
  2
SK2
 70
     0
 62
     7
  6
CONTINUOUS
370
    -3
390
B8A
  0
LAYER
  5
BD3
330
2
100
AcDbSymbolTableRecord
100
AcDbLayerTableRecord
  2
4
 70
     0
 62
     2
  6
CENTER
370
    -3
390
B8A
  0
LAYER
  5
BD5
330
2
100
AcDbSymbolTableRecord
100
AcDbLayerTableRecord
  2
6
 70
     0
 62
     5
  6
CONTINUOUS
370
    -3
390
B8A
  0
LAYER
  5
BD6
330
2
100
AcDbSymbolTableRecord
100
AcDbLayerTableRecord
  2
SK3
 70
     0
 62
     1
  6
HIDDEN
370
    -3
390
B8A
  0
LAYER
  5
DD2
330
2
100
AcDbSymbolTableRecord
100
AcDbLayerTableRecord
  2
CUT
 70
     0
 62
     1
  6
CONTINUOUS
370
    -3
390
B8A
  0
LAYER
  5
EA5
330
2
100
AcDbSymbolTableRecord
100
AcDbLayerTableRecord
  2
NOCUT
 70
     0
 62
     7
  6
CONTINUOUS
370
    -3
390
B8A
  0
ENDTAB
  0
TABLE
  2
STYLE
  5
3
330
0
100
AcDbSymbolTable
 70
     1
  0
STYLE
  5
17
330
3
100
AcDbSymbolTableRecord
100
AcDbTextStyleTableRecord
  2
STANDARD
 70
     0
 40
4.0
 41
1.0
 50
0.0
 71
     0
 42
4.0
  3
isocp.shx
  4

  0
ENDTAB
  0
TABLE
  2
VIEW
  5
5
330
0
100
AcDbSymbolTable
 70
     0
  0
ENDTAB
  0
TABLE
  2
UCS
  5
6
330
0
100
AcDbSymbolTable
 70
     3
  0
UCS
  5
4A
330
6
100
AcDbSymbolTableRecord
100
AcDbUCSTableRecord
  2
MO_001_VIEW_PV_P
 70
     0
 10
0.0
 20
0.0
 30
0.0
 11
1.0
 21
0.0
 31
0.0
 12
0.0
 22
1.0
 32
0.0
 79
     0
146
0.0
  0
UCS
  5
4B
330
6
100
AcDbSymbolTableRecord
100
AcDbUCSTableRecord
  2
MO_001_VIEW_ZZ_P
 70
     0
 10
-657.5319847162452
 20
240.8772646474576
 30
0.0
 11
-1.0
 21
-0.0000000095200582
 31
0.0
 12
0.0
 22
-1.0
 32
0.0
 79
     0
146
0.0
  0
UCS
  5
4C
330
6
100
AcDbSymbolTableRecord
100
AcDbUCSTableRecord
  2
MO_001_VIEW_RA_P
 70
     0
 10
0.0
 20
0.0
 30
0.0
 11
1.0
 21
0.0
 31
0.0
 12
0.0
 22
1.0
 32
0.0
 79
     0
146
0.0
  0
ENDTAB
  0
TABLE
  2
APPID
  5
8
330
0
100
AcDbSymbolTable
 70
     1
  0
APPID
  5
16
330
8
100
AcDbSymbolTableRecord
100
AcDbRegAppTableRecord
  2
ACAD
 70
     0
  0
ENDTAB
  0
TABLE
  2
DIMSTYLE
  5
9
330
0
100
AcDbSymbolTable
 70
     2
100
AcDbDimStyleTable
 71
     2
340
BD8
340
18
  0
DIMSTYLE
105
18
330
9
100
AcDbSymbolTableRecord
100
AcDbDimStyleTableRecord
  2
STANDARD
 70
     0
 73
     0
 74
     0
140
3.5
271
     0
272
     0
273
     0
274
     0
283
     0
340
17
  0
DIMSTYLE
105
BD8
102
{ACAD_REACTORS
330
6AC
330
D29
330
D49
330
F00
330
EFF
102
}
330
9
100
AcDbSymbolTableRecord
100
AcDbDimStyleTableRecord
  2
ISO-25
 70
     0
 41
2.5
 42
0.625
 43
3.75
 44
1.25
 73
     0
 74
     0
 77
     1
 78
     8
140
2.5
141
2.5
143
0.03937007874016
147
0.625
171
     3
172
     1
271
     2
272
     2
274
     3
278
    44
283
     0
284
     8
340
17
  0
ENDTAB
  0
TABLE
  2
BLOCK_RECORD
  5
1
330
0
100
AcDbSymbolTable
 70
     7
  0
BLOCK_RECORD
  5
A
102
{ACAD_XDICTIONARY
360
FA1
102
}
330
1
100
AcDbSymbolTableRecord
100
AcDbBlockTableRecord
  2
*MODEL_SPACE
340
B8D
  0
BLOCK_RECORD
  5
B
330
1
100
AcDbSymbolTableRecord
100
AcDbBlockTableRecord
  2
*PAPER_SPACE
340
B8E
  0
BLOCK_RECORD
  5
C43
330
1
100
AcDbSymbolTableRecord
100
AcDbBlockTableRecord
  2
*D2
340
0
  0
BLOCK_RECORD
  5
D2A
330
1
100
AcDbSymbolTableRecord
100
AcDbBlockTableRecord
  2
*D3
340
0
  0
BLOCK_RECORD
  5
D4A
330
1
100
AcDbSymbolTableRecord
100
AcDbBlockTableRecord
  2
*D4
340
0
  0
BLOCK_RECORD
  5
F01
330
1
100
AcDbSymbolTableRecord
100
AcDbBlockTableRecord
  2
*D5
340
0
  0
BLOCK_RECORD
  5
F0D
330
1
100
AcDbSymbolTableRecord
100
AcDbBlockTableRecord
  2
*D6
340
0
  0
ENDTAB
  0
ENDSEC
  0
SECTION
  2
BLOCKS
  0
BLOCK
  5
D
330
A
100
AcDbEntity
  8
0
100
AcDbBlockBegin
  2
*MODEL_SPACE
 70
     0
 10
0.0
 20
0.0
 30
0.0
  3
*MODEL_SPACE
  1

  0
ENDBLK
  5
E
330
A
100
AcDbEntity
  8
0
100
AcDbBlockEnd
  0
BLOCK
  5
F
330
B
100
AcDbEntity
 67
     1
  8
0
100
AcDbBlockBegin
  2
*PAPER_SPACE
 70
     0
 10
0.0
 20
0.0
 30
0.0
  3
*PAPER_SPACE
  1

  0
ENDBLK
  5
10
330
B
100
AcDbEntity
 67
     1
  8
0
100
AcDbBlockEnd
  0
BLOCK
  5
C4D
330
C43
100
AcDbEntity
  8
0
100
AcDbBlockBegin
  2
*D2
 70
     1
 10
0.0
 20
0.0
 30
0.0
  3
*D2
  1

  0
LINE
  5
ED1
330
C43
100
AcDbEntity
  8
2
 62
     0
370
    -2
100
AcDbLine
 10
61.60001040652555
 20
77.67236453049348
 30
0.0
 11
61.60054732102415
 21
109.9186274463092
 31
0.0
  0
LINE
  5
ED2
330
C43
100
AcDbEntity
  8
2
 62
     0
370
    -2
100
AcDbLine
 10
0.0000104065256893
 20
60.62499999991318
 30
0.0
 11
0.0008311842395945
 21
109.9196531087492
 31
0.0
  0
LINE
  5
ED3
330
C43
100
AcDbEntity
  8
2
 62
     0
370
    -2
100
AcDbLine
 10
59.10052650831943
 20
108.6686690725851
 30
0.0
 11
2.500810370841783
 21
108.6696114828199
 31
0.0
  0
SOLID
  5
ED4
330
C43
100
AcDbEntity
  8
2
 62
     0
100
AcDbTrace
 10
59.10053344600319
 20
109.0853357391939
 30
0.0
 11
59.10051957063569
 21
108.252002405976
 31
0.0
 12
61.60052650797289
 22
108.6686274464825
 32
0.0
 13
61.60052650797289
 23
108.6686274464825
 33
0.0
  0
SOLID
  5
ED5
330
C43
100
AcDbEntity
  8
2
 62
     0
100
AcDbTrace
 10
2.500817308525538
 20
109.0862781494289
 30
0.0
 11
2.500803433158028
 21
108.252944816211
 31
0.0
 12
0.0008103711883296
 22
108.6696531089225
 32
0.0
 13
0.0008103711883296
 23
108.6696531089225
 33
0.0
  0
MTEXT
  5
ED6
330
C43
100
AcDbEntity
  8
2
 62
     0
100
AcDbMText
 10
31.12393267652076
 20
111.2945285963617
 30
0.0
 40
4.0
 41
0.0
 71
     5
 72
     1
  1
\A1;62
 11
0.9999999998613814
 21
-0.0000166504410119
 31
0.0
 73
     1
 44
1.0
1001
ACAD
1000
MTEXTBEGIN
1070
    73
1070
     1
1070
    44
1040
1.0
1070
    74
1070
     0
1000
MTEXTEND
  0
POINT
  5
ED7
330
C43
100
AcDbEntity
  8
Defpoints
 62
     0
100
AcDbPoint
 10
61.59999999999993
 20
77.04736453058012
 30
0.0
  0
POINT
  5
ED8
330
C43
100
AcDbEntity
  8
Defpoints
 62
     0
100
AcDbPoint
 10
0.0000000000000568
 20
59.99999999999983
 30
0.0
  0
POINT
  5
ED9
330
C43
100
AcDbEntity
  8
Defpoints
 62
     0
100
AcDbPoint
 10
0.0008103711883296
 20
108.6696531089225
 30
0.0
  0
ENDBLK
  5
C4E
330
C43
100
AcDbEntity
  8
0
100
AcDbBlockEnd
  0
BLOCK
  5
D35
330
D2A
100
AcDbEntity
  8
0
100
AcDbBlockBegin
  2
*D3
 70
     1
 10
0.0
 20
0.0
 30
0.0
  3
*D3
  1

  0
LINE
  5
EB6
330
D2A
100
AcDbEntity
  8
2
 62
     0
370
    -2
100
AcDbLine
 10
62.53613300000012
 20
79.88842799999986
 30
0.0
 11
110.7869659761635
 21
79.88842799999985
 31
0.0
  0
LINE
  5
EB7
330
D2A
100
AcDbEntity
  8
2
 62
     0
370
    -2
100
AcDbLine
 10
62.53613300000012
 20
-79.88842699999998
 30
0.0
 11
110.7869659761635
 21
-79.88842699999998
 31
0.0
  0
LINE
  5
EB8
330
D2A
100
AcDbEntity
  8
2
 62
     0
370
    -2
100
AcDbLine
 10
109.5369659761635
 20
77.38842799999985
 30
0.0
 11
109.5369659761635
 21
-77.38842699999998
 31
0.0
  0
SOLID
  5
EB9
330
D2A
100
AcDbEntity
  8
2
 62
     0
100
AcDbTrace
 10
109.1202993094968
 20
77.38842799999985
 30
0.0
 11
109.9536326428302
 21
77.38842799999985
 31
0.0
 12
109.5369659761635
 22
79.88842799999985
 32
0.0
 13
109.5369659761635
 23
79.88842799999985
 33
0.0
  0
SOLID
  5
EBA
330
D2A
100
AcDbEntity
  8
2
 62
     0
100
AcDbTrace
 10
109.1202993094968
 20
-77.38842699999998
 30
0.0
 11
109.95363264283
 21
-77.38842699999998
 31
0.0
 12
109.5369659761635
 22
-79.88842699999998
 32
0.0
 13
109.5369659761635
 23
-79.88842699999998
 33
0.0
  0
MTEXT
  5
EBB
330
D2A
100
AcDbEntity
  8
2
 62
     0
100
AcDbMText
 10
106.9119659761635
 20
0.0000004999999497
 30
0.0
 40
4.0
 41
0.0
 71
     5
 72
     1
  1
%%C160
 11
0.0000000000000001
 21
1.0
 31
0.0
 73
     1
 44
1.0
1001
ACAD
1000
MTEXTBEGIN
1070
    73
1070
     1
1070
    44
1040
1.0
1070
    74
1070
     0
1000
MTEXTEND
  0
POINT
  5
EBC
330
D2A
100
AcDbEntity
  8
Defpoints
 62
     0
100
AcDbPoint
 10
61.91113300000012
 20
79.88842799999986
 30
0.0
  0
POINT
  5
EBD
330
D2A
100
AcDbEntity
  8
Defpoints
 62
     0
100
AcDbPoint
 10
61.91113300000012
 20
-79.88842699999998
 30
0.0
  0
POINT
  5
EBE
330
D2A
100
AcDbEntity
  8
Defpoints
 62
     0
100
AcDbPoint
 10
109.5369659761635
 20
-79.88842699999998
 30
0.0
  0
ENDBLK
  5
D36
330
D2A
100
AcDbEntity
  8
0
100
AcDbBlockEnd
  0
BLOCK
  5
D55
330
D4A
100
AcDbEntity
  8
0
100
AcDbBlockBegin
  2
*D4
 70
     1
 10
0.0
 20
0.0
 30
0.0
  3
*D4
  1

  0
LINE
  5
F7C
330
D4A
100
AcDbEntity
  8
2
 62
     0
370
    -2
100
AcDbLine
 10
25.14788520771435
 20
78.64736400000005
 30
0.0
 11
-45.39224454508733
 21
78.64736400000007
 31
0.0
  0
LINE
  5
F7D
330
D4A
100
AcDbEntity
  8
2
 62
     0
370
    -2
100
AcDbLine
 10
20.80429193778582
 20
-78.64746
 30
0.0
 11
-45.39224454508736
 21
-78.64745999999998
 31
0.0
  0
LINE
  5
F7E
330
D4A
100
AcDbEntity
  8
2
 62
     0
370
    -2
100
AcDbLine
 10
-44.14224454508733
 20
76.14736400000007
 30
0.0
 11
-44.14224454508736
 21
-76.14745999999998
 31
0.0
  0
SOLID
  5
F7F
330
D4A
100
AcDbEntity
  8
2
 62
     0
100
AcDbTrace
 10
-44.558911211754
 20
76.14736400000007
 30
0.0
 11
-43.72557787842067
 21
76.14736400000007
 31
0.0
 12
-44.14224454508733
 22
78.64736400000007
 32
0.0
 13
-44.14224454508733
 23
78.64736400000007
 33
0.0
  0
SOLID
  5
F80
330
D4A
100
AcDbEntity
  8
2
 62
     0
100
AcDbTrace
 10
-44.55891121175403
 20
-76.14745999999998
 30
0.0
 11
-43.7255778784207
 21
-76.14745999999998
 31
0.0
 12
-44.14224454508736
 22
-78.64745999999998
 32
0.0
 13
-44.14224454508736
 23
-78.64745999999998
 33
0.0
  0
MTEXT
  5
F81
330
D4A
100
AcDbEntity
  8
2
 62
     0
100
AcDbMText
 10
-46.76724454508735
 20
-0.0000479999999534
 30
0.0
 40
4.0
 41
0.0
 71
     5
 72
     1
  1
%%C157
 11
0.0000000000000001
 21
1.0
 31
0.0
 73
     1
 44
1.0
1001
ACAD
1000
MTEXTBEGIN
1070
    73
1070
     1
1070
    44
1040
1.0
1070
    74
1070
     0
1000
MTEXTEND
  0
POINT
  5
F82
330
D4A
100
AcDbEntity
  8
Defpoints
 62
     0
100
AcDbPoint
 10
25.77288520771435
 20
78.64736400000005
 30
0.0
  0
POINT
  5
F83
330
D4A
100
AcDbEntity
  8
Defpoints
 62
     0
100
AcDbPoint
 10
21.42929193778582
 20
-78.64746
 30
0.0
  0
POINT
  5
F84
330
D4A
100
AcDbEntity
  8
Defpoints
 62
     0
100
AcDbPoint
 10
-44.14224454508736
 20
-78.64745999999998
 30
0.0
  0
ENDBLK
  5
D56
330
D4A
100
AcDbEntity
  8
0
100
AcDbBlockEnd
  0
BLOCK
  5
F0B
330
F01
100
AcDbEntity
  8
0
100
AcDbBlockBegin
  2
*D5
 70
     1
 10
0.0
 20
0.0
 30
0.0
  3
*D5
  1

  0
LINE
  5
F61
330
F01
100
AcDbEntity
  8
2
 62
     0
370
    -2
100
AcDbLine
 10
-3.361829869663721
 20
65.00000520326285
 30
0.0
 11
-31.56501194860759
 21
65.00024000097262
 31
0.0
  0
LINE
  5
F62
330
F01
100
AcDbEntity
  8
2
 62
     0
370
    -2
100
AcDbLine
 10
-0.5857435892841619
 20
-64.99999479673721
 30
0.0
 11
-31.5660942270809
 21
-64.9997368784868
 31
0.0
  0
LINE
  5
F63
330
F01
100
AcDbEntity
  8
2
 62
     0
370
    -2
100
AcDbLine
 10
-30.31503276170218
 20
62.50022959453363
 30
0.0
 11
-30.31607341407295
 21
-62.49974728509907
 31
0.0
  0
SOLID
  5
F64
330
F01
100
AcDbEntity
  8
2
 62
     0
100
AcDbTrace
 10
-30.7316994283544
 20
62.5002330633755
 30
0.0
 11
-29.89836609504995
 21
62.50022612569175
 31
0.0
 12
-30.31501194865092
 22
65.00022959444699
 32
0.0
 13
-30.31501194865092
 23
65.00022959444699
 33
0.0
  0
SOLID
  5
F65
330
F01
100
AcDbEntity
  8
2
 62
     0
100
AcDbTrace
 10
-30.73274008072518
 20
-62.49974381625719
 30
0.0
 11
-29.89940674742072
 21
-62.49975075394094
 31
0.0
 12
-30.31609422712421
 22
-64.99974728501243
 32
0.0
 13
-30.31609422712421
 23
-64.99974728501243
 33
0.0
  0
MTEXT
  5
F66
330
F01
100
AcDbEntity
  8
2
 62
     0
100
AcDbMText
 10
-32.94055415556726
 20
-0.1279943345815165
 30
0.0
 40
4.0
 41
0.0
 71
     5
 72
     1
  1
\A1;%%C130
 11
0.0000083252205058
 21
0.9999999999653454
 31
0.0
 73
     1
 44
1.0
1001
ACAD
1000
MTEXTBEGIN
1070
    73
1070
     1
1070
    44
1040
1.0
1070
    74
1070
     0
1000
MTEXTEND
  0
POINT
  5
F67
330
F01
100
AcDbEntity
  8
Defpoints
 62
     0
100
AcDbPoint
 10
-2.73682986968538
 20
65.00000000000003
 30
0.0
  0
POINT
  5
F68
330
F01
100
AcDbEntity
  8
Defpoints
 62
     0
100
AcDbPoint
 10
0.0392564106941791
 20
-65.00000000000003
 30
0.0
  0
POINT
  5
F69
330
F01
100
AcDbEntity
  8
Defpoints
 62
     0
100
AcDbPoint
 10
-30.31609422712421
 20
-64.99974728501243
 30
0.0
  0
ENDBLK
  5
F0C
330
F01
100
AcDbEntity
  8
0
100
AcDbBlockEnd
  0
BLOCK
  5
F17
330
F0D
100
AcDbEntity
  8
0
100
AcDbBlockBegin
  2
*D6
 70
     1
 10
0.0
 20
0.0
 30
0.0
  3
*D6
  1

  0
LINE
  5
F58
330
F0D
100
AcDbEntity
  8
SK2
 62
     0
370
    -2
100
AcDbLine
 10
-2.505102757783275
 20
20.00000520326272
 30
0.0
 11
-20.04711730100536
 21
20.00015124440192
 31
0.0
  0
LINE
  5
F59
330
F0D
100
AcDbEntity
  8
SK2
 62
     0
370
    -2
100
AcDbLine
 10
-2.366523823467274
 20
-19.99999479673715
 30
0.0
 11
-20.04745030981597
 21
-19.9998475991254
 31
0.0
  0
LINE
  5
F5A
330
F0D
100
AcDbEntity
  8
SK2
 62
     0
370
    -2
100
AcDbLine
 10
-18.79713811409994
 20
17.50014083796292
 30
0.0
 11
-18.79742949680802
 21
-17.49985800573767
 31
0.0
  0
SOLID
  5
F5B
330
F0D
100
AcDbEntity
  8
SK2
 62
     0
100
AcDbTrace
 10
-19.21380478075217
 20
17.5001443068048
 30
0.0
 11
-18.38047144744771
 21
17.50013736912104
 31
0.0
 12
-18.79711730104867
 22
20.00014083787629
 32
0.0
 13
-18.79711730104867
 23
20.00014083787629
 33
0.0
  0
SOLID
  5
F5C
330
F0D
100
AcDbEntity
  8
SK2
 62
     0
100
AcDbTrace
 10
-19.21409616346025
 20
-17.49985453689579
 30
0.0
 11
-18.38076283015579
 21
-17.49986147457954
 31
0.0
 12
-18.79745030985929
 22
-19.99985800565103
 32
0.0
 13
-18.79745030985929
 23
-19.99985800565103
 33
0.0
  0
MTEXT
  5
F5D
330
F0D
100
AcDbEntity
  8
SK2
 62
     0
100
AcDbMText
 10
-21.4222838081448
 20
-0.0001708702723129
 30
0.0
 40
4.0
 41
0.0
 71
     5
 72
     1
  1
\A1;%%C40
 11
0.0000083252205058
 21
0.9999999999653454
 31
0.0
 73
     1
 44
1.0
1001
ACAD
1000
MTEXTBEGIN
1070
    73
1070
     1
1070
    44
1040
1.0
1070
    74
1070
     0
1000
MTEXTEND
  0
POINT
  5
F5E
330
F0D
100
AcDbEntity
  8
Defpoints
 62
     0
100
AcDbPoint
 10
-1.880102757804934
 20
19.99999999999991
 30
0.0
  0
POINT
  5
F5F
330
F0D
100
AcDbEntity
  8
Defpoints
 62
     0
100
AcDbPoint
 10
-1.741523823488933
 20
-19.99999999999997
 30
0.0
  0
POINT
  5
F60
330
F0D
100
AcDbEntity
  8
Defpoints
 62
     0
100
AcDbPoint
 10
-18.79745030985929
 20
-19.99985800565103
 30
0.0
  0
ENDBLK
  5
F18
330
F0D
100
AcDbEntity
  8
0
100
AcDbBlockEnd
  0
ENDSEC
  0
SECTION
  2
ENTITIES
  0
LINE
  5
59
330
A
100
AcDbEntity
  8
1
100
AcDbLine
 10
61.5998540000001
 20
-77.04736299999997
 30
0.0
 11
61.5998540000001
 21
-6.700195000000121
 31
0.0
  0
LINE
  5
5A
330
A
100
AcDbEntity
  8
4
100
AcDbLine
 10
0.0
 20
0.0
 30
0.0
 11
64.10864300000007
 21
-0.0000000000001137
 31
0.0
  0
LINE
  5
5B
330
A
100
AcDbEntity
  8
SK3
100
AcDbLine
 10
1.59985400000005
 20
-20.0
 30
0.0
 11
20.00000000000004
 21
-20.0
 31
0.0
  0
LINE
  5
5C
330
A
100
AcDbEntity
  8
SK3
100
AcDbLine
 10
1.59985400000005
 20
19.99999999999987
 30
0.0
 11
20.00000000000004
 21
19.99999999999987
 31
0.0
  0
LINE
  5
5D
330
A
100
AcDbEntity
  8
1
100
AcDbLine
 10
0.0000000000000568
 20
-60.0
 30
0.0
 11
0.0000000000000568
 21
-9.649902000000112
 31
0.0
  0
LINE
  5
5E
330
A
100
AcDbEntity
  8
SK3
100
AcDbLine
 10
1.59985400000005
 20
-20.0
 30
0.0
 11
1.59985400000005
 21
-8.050048000000117
 31
0.0
  0
LINE
  5
5F
330
A
100
AcDbEntity
  8
SK3
 48
0.4520000000000002
100
AcDbLine
 10
-0.0000479999999357
 20
-21.59988399999996
 30
0.0
 11
1.599918000000059
 21
-19.99991699999998
 31
0.0
  0
LINE
  5
60
330
A
100
AcDbEntity
  8
SK3
 48
0.4520000000000002
100
AcDbLine
 10
1.599912000000073
 20
19.99995699999987
 30
0.0
 11
-0.000054999999918
 21
21.59992399999987
 31
0.0
  0
LINE
  5
61
330
A
100
AcDbEntity
  8
1
100
AcDbLine
 10
1.59985400000005
 20
-8.050048000000117
 30
0.0
 11
7.000000000000056
 21
-8.050048000000117
 31
0.0
  0
LINE
  5
62
330
A
100
AcDbEntity
  8
1
100
AcDbLine
 10
1.59985400000005
 20
8.050049000000001
 30
0.0
 11
7.000000000000056
 21
8.050049000000001
 31
0.0
  0
LINE
  5
63
330
A
100
AcDbEntity
  8
1
100
AcDbLine
 10
8.59985400000005
 20
-6.449950999999997
 30
0.0
 11
8.59985400000005
 21
6.449951999999883
 31
0.0
  0
ARC
  5
64
330
A
100
AcDbEntity
  8
1
100
AcDbCircle
 10
7.000000000000056
 20
-6.449950999999997
 30
0.0
 40
1.599998999999999
100
AcDbArc
 50
270.000037
 51
0.0000189999999733
  0
ARC
  5
65
330
A
100
AcDbEntity
  8
1
100
AcDbCircle
 10
7.000000000000056
 20
6.449951999999883
 30
0.0
 40
1.599998999999999
100
AcDbArc
 50
0.0000189999999733
 51
90.00000099999999
  0
LINE
  5
66
330
A
100
AcDbEntity
  8
1
100
AcDbLine
 10
1.599876000000049
 20
-8.049931000000126
 30
0.0
 11
-0.0000919999999383
 21
-9.649898000000009
 31
0.0
  0
LINE
  5
67
330
A
100
AcDbEntity
  8
1
100
AcDbLine
 10
1.599915000000065
 20
8.049921999999867
 30
0.0
 11
-0.0002249999999435
 21
9.65006099999988
 31
0.0
  0
LINE
  5
68
330
A
100
AcDbEntity
  8
SK3
100
AcDbLine
 10
1.59985400000005
 20
8.050049000000001
 30
0.0
 11
1.59985400000005
 21
19.99999999999987
 31
0.0
  0
LINE
  5
69
330
A
100
AcDbEntity
  8
1
100
AcDbLine
 10
0.0
 20
-0.0000000000000568
 30
0.0
 11
0.0000000000000019
 21
1.967314702544945
 31
0.0
  0
LINE
  5
6A
330
A
100
AcDbEntity
  8
1
100
AcDbLine
 10
5.000000000000056
 20
-65.00000000000007
 30
0.0
 11
20.00000000000004
 21
-65.00000000000007
 31
0.0
  0
LINE
  5
6B
330
A
100
AcDbEntity
  8
1
100
AcDbLine
 10
27.87915100000009
 20
-78.64746
 30
0.0
 11
60.0000000000001
 21
-78.64746
 31
0.0
  0
ARC
  5
6C
330
A
100
AcDbEntity
  8
1
100
AcDbCircle
 10
60.0000000000001
 20
-77.04736299999997
 30
0.0
 40
1.6
100
AcDbArc
 50
270.000037
 51
0.0000189999999733
  0
LINE
  5
6D
330
A
100
AcDbEntity
  8
1
100
AcDbLine
 10
27.87915100000009
 20
78.64746100000002
 30
0.0
 11
60.0000000000001
 21
78.64746100000002
 31
0.0
  0
ARC
  5
6E
330
A
100
AcDbEntity
  8
1
100
AcDbCircle
 10
60.0000000000001
 20
77.04736400000001
 30
0.0
 40
1.6
100
AcDbArc
 50
0.0000189999999733
 51
90.00000099999999
  0
LINE
  5
6F
330
A
100
AcDbEntity
  8
SK3
100
AcDbLine
 10
43.00000000000006
 20
-56.54394500000006
 30
0.0
 11
61.5998540000001
 21
-56.54394500000006
 31
0.0
  0
LINE
  5
70
330
A
100
AcDbEntity
  8
SK3
100
AcDbLine
 10
20.00000000000004
 20
-43.5
 30
0.0
 11
20.00000000000004
 21
43.4999999999998
 31
0.0
  0
LINE
  5
71
330
A
100
AcDbEntity
  8
SK3
100
AcDbLine
 10
44.00000000000003
 20
-49.54394500000001
 30
0.0
 11
44.00000000000003
 21
49.54394599999982
 31
0.0
  0
LINE
  5
72
330
A
100
AcDbEntity
  8
SK3
100
AcDbLine
 10
43.00000000000006
 20
56.54394599999999
 30
0.0
 11
61.5998540000001
 21
56.54394599999999
 31
0.0
  0
LINE
  5
73
330
A
100
AcDbEntity
  8
SK3
100
AcDbLine
 10
43.00000000000006
 20
-56.54394500000006
 30
0.0
 11
43.00000000000006
 21
-49.54394500000001
 31
0.0
  0
LINE
  5
74
330
A
100
AcDbEntity
  8
SK3
 48
0.2
100
AcDbLine
 10
43.00000000000006
 20
-49.54394500000001
 30
0.0
 11
44.00000000000003
 21
-49.54394500000001
 31
0.0
  0
LINE
  5
75
330
A
100
AcDbEntity
  8
SK3
100
AcDbLine
 10
43.00000000000006
 20
56.54394599999999
 30
0.0
 11
43.00000000000006
 21
49.54394599999982
 31
0.0
  0
LINE
  5
76
330
A
100
AcDbEntity
  8
SK3
 48
0.2
100
AcDbLine
 10
43.00000000000006
 20
49.54394599999982
 30
0.0
 11
44.00000000000003
 21
49.54394599999982
 31
0.0
  0
LINE
  5
77
330
A
100
AcDbEntity
  8
SK3
100
AcDbLine
 10
19.99991100000005
 20
-43.49984499999999
 30
0.0
 11
43.99978800000006
 21
-45.59956300000004
 31
0.0
  0
LINE
  5
78
330
A
100
AcDbEntity
  8
SK3
100
AcDbLine
 10
19.99987300000008
 20
43.50001000000003
 30
0.0
 11
43.99999400000006
 21
45.59974899999985
 31
0.0
  0
LINE
  5
79
330
A
100
AcDbEntity
  8
1
100
AcDbLine
 10
61.5998540000001
 20
-9.395751000000132
 30
0.0
 11
61.5998540000001
 21
77.04736400000001
 31
0.0
  0
ARC
  5
7A
330
A
100
AcDbEntity
  8
1
100
AcDbCircle
 10
5.000000000000056
 20
-60.0
 30
0.0
 40
5.0
100
AcDbArc
 50
180.0
 51
269.9999819999999
  0
LINE
  5
7B
330
A
100
AcDbEntity
  8
1
100
AcDbLine
 10
27.87915100000009
 20
-78.64728999999996
 30
0.0
 11
19.99987900000006
 21
-64.99998999999997
 31
0.0
  0
LINE
  5
7C
330
A
100
AcDbEntity
  8
1
100
AcDbLine
 10
5.000000000000056
 20
65.0
 30
0.0
 11
20.00000000000004
 21
65.0
 31
0.0
  0
ARC
  5
7D
330
A
100
AcDbEntity
  8
1
100
AcDbCircle
 10
5.000000000000056
 20
59.99999999999983
 30
0.0
 40
5.0
100
AcDbArc
 50
90.00001800000005
 51
180.0
  0
LINE
  5
7E
330
A
100
AcDbEntity
  8
1
100
AcDbLine
 10
27.87918300000006
 20
78.64736200000004
 30
0.0
 11
19.99991100000005
 21
65.00006199999984
 31
0.0
  0
LINE
  5
7F
330
A
100
AcDbEntity
  8
1
100
AcDbLine
 10
27.87915100000009
 20
-78.64746
 30
0.0
 11
27.87915100000009
 21
78.64746100000002
 31
0.0
  0
LINE
  5
81
330
A
100
AcDbEntity
  8
1
100
AcDbLine
 10
58.075684
 20
78.64746100000002
 30
0.0
 11
58.075684
 21
79.00561600000003
 31
0.0
  0
DIMENSION
  5
6AC
330
A
100
AcDbEntity
  8
2
100
AcDbDimension
  2
*D2
 10
0.0008103711883296
 20
108.6696531089225
 30
0.0
 11
31.12388896255782
 21
108.6691348959383
 31
0.0
 70
   160
  1
\A1;62
 71
     5
 42
61.59971614532341
  3
ISO-25
100
AcDbAlignedDimension
 13
61.59999999999989
 23
77.04736453058012
 33
0.0
 14
0.0000000000000568
 24
59.99999999999983
 34
0.0
 50
359.9990460000029
100
AcDbRotatedDimension
  0
MTEXT
  5
6B3
330
A
100
AcDbEntity
  8
6
100
AcDbMText
 10
43.8524707535006
 20
-90.89701794407842
 30
0.0
 40
4.0
 41
0.0
 71
     7
 72
     5
  1
6F2A160R00
 73
     1
 44
1.0
1001
ACAD
1000
MTEXTBEGIN
1070
    73
1070
     1
1070
    44
1040
1.0
1070
    74
1070
     0
1000
MTEXTEND
  0
LINE
  5
C5B
330
A
100
AcDbEntity
  8
1
100
AcDbLine
 10
58.50293000000011
 20
-79.50976499999999
 30
0.0
 11
58.28930700000011
 21
-79.25753900000007
 31
0.0
  0
LINE
  5
C5C
330
A
100
AcDbEntity
  8
1
100
AcDbLine
 10
58.60423838376028
 20
-79.62893521633631
 30
0.0
 11
57.77198071819679
 21
-78.64746
 31
0.0
  0
LINE
  5
C5D
330
A
100
AcDbEntity
  8
1
100
AcDbLine
 10
61.91113300000012
 20
-79.88842699999998
 30
0.0
 11
60.2639160000001
 21
-79.75917000000007
 31
0.0
  0
LINE
  5
C5E
330
A
100
AcDbEntity
  8
1
100
AcDbLine
 10
60.2639160000001
 20
-79.75917000000007
 30
0.0
 11
58.61670000000009
 21
-79.63110300000008
 31
0.0
  0
LINE
  5
C5F
330
A
100
AcDbEntity
  8
1
100
AcDbLine
 10
62.9936530000001
 20
-78.91357400000007
 30
0.0
 11
62.9871050000001
 21
-79.01576699999998
 31
0.0
  0
LINE
  5
C60
330
A
100
AcDbEntity
  8
1
100
AcDbLine
 10
62.9871050000001
 20
-79.01576699999998
 30
0.0
 11
62.94711700000011
 21
-79.18793999999997
 31
0.0
  0
LINE
  5
C61
330
A
100
AcDbEntity
  8
1
100
AcDbLine
 10
62.94711700000011
 20
-79.18793999999997
 30
0.0
 11
62.89551700000011
 21
-79.30981499999998
 31
0.0
  0
LINE
  5
C62
330
A
100
AcDbEntity
  8
1
100
AcDbLine
 10
62.89551700000011
 20
-79.30981499999998
 30
0.0
 11
62.78780700000011
 21
-79.47760500000007
 31
0.0
  0
LINE
  5
C63
330
A
100
AcDbEntity
  8
1
100
AcDbLine
 10
62.78780700000011
 20
-79.47760500000007
 30
0.0
 11
62.6492580000001
 21
-79.62316099999998
 31
0.0
  0
LINE
  5
C64
330
A
100
AcDbEntity
  8
1
100
AcDbLine
 10
62.6492580000001
 20
-79.62316099999998
 30
0.0
 11
62.4833410000001
 21
-79.74338800000007
 31
0.0
  0
LINE
  5
C65
330
A
100
AcDbEntity
  8
1
100
AcDbLine
 10
62.4833410000001
 20
-79.74338800000007
 30
0.0
 11
62.34615900000012
 21
-79.81230800000004
 31
0.0
  0
LINE
  5
C66
330
A
100
AcDbEntity
  8
1
100
AcDbLine
 10
62.34615900000012
 20
-79.81230800000004
 30
0.0
 11
62.23796100000011
 21
-79.85063299999999
 31
0.0
  0
LINE
  5
C67
330
A
100
AcDbEntity
  8
1
100
AcDbLine
 10
62.23796100000011
 20
-79.85063299999999
 30
0.0
 11
62.06991000000011
 21
-79.88452500000008
 31
0.0
  0
LINE
  5
C68
330
A
100
AcDbEntity
  8
1
100
AcDbLine
 10
62.06991000000011
 20
-79.88452500000008
 30
0.0
 11
61.8984380000001
 21
-79.88745100000007
 31
0.0
  0
LINE
  5
C69
330
A
100
AcDbEntity
  8
1
100
AcDbLine
 10
62.9936530000001
 20
-78.92260699999997
 30
0.0
 11
62.99996300000003
 21
-72.98975199999998
 31
0.0
  0
LINE
  5
C6A
330
A
100
AcDbEntity
  8
1
100
AcDbLine
 10
62.99996300000003
 20
-72.98975199999998
 30
0.0
 11
62.99072300000012
 21
-67.04736299999999
 31
0.0
  0
LINE
  5
C6B
330
A
100
AcDbEntity
  8
1
100
AcDbLine
 10
62.99072300000012
 20
-67.04736299999999
 30
0.0
 11
61.5998540000001
 21
-66.93208544678339
 31
0.0
  0
LINE
  5
C6E
330
A
100
AcDbEntity
  8
1
100
AcDbLine
 10
62.9936530000001
 20
78.92260800000002
 30
0.0
 11
62.99996300000003
 21
72.98975300000002
 31
0.0
  0
LINE
  5
C6F
330
A
100
AcDbEntity
  8
1
100
AcDbLine
 10
62.99996300000003
 20
72.98975300000002
 30
0.0
 11
62.99072300000012
 21
67.04736400000001
 31
0.0
  0
LINE
  5
C70
330
A
100
AcDbEntity
  8
1
100
AcDbLine
 10
62.9936530000001
 20
78.91357500000005
 30
0.0
 11
62.9871050000001
 21
79.01576800000005
 31
0.0
  0
LINE
  5
C71
330
A
100
AcDbEntity
  8
1
100
AcDbLine
 10
62.9871050000001
 20
79.01576800000005
 30
0.0
 11
62.94711700000011
 21
79.18794100000003
 31
0.0
  0
LINE
  5
C72
330
A
100
AcDbEntity
  8
1
100
AcDbLine
 10
62.94711700000011
 20
79.18794100000003
 30
0.0
 11
62.89551700000011
 21
79.30981600000001
 31
0.0
  0
LINE
  5
C73
330
A
100
AcDbEntity
  8
1
100
AcDbLine
 10
62.89551700000011
 20
79.30981600000001
 30
0.0
 11
62.78780700000011
 21
79.47760600000005
 31
0.0
  0
LINE
  5
C74
330
A
100
AcDbEntity
  8
1
100
AcDbLine
 10
62.78780700000011
 20
79.47760600000005
 30
0.0
 11
62.6492580000001
 21
79.62316200000002
 31
0.0
  0
LINE
  5
C75
330
A
100
AcDbEntity
  8
1
100
AcDbLine
 10
62.6492580000001
 20
79.62316200000002
 30
0.0
 11
62.4833410000001
 21
79.74338900000002
 31
0.0
  0
LINE
  5
C76
330
A
100
AcDbEntity
  8
1
100
AcDbLine
 10
62.4833410000001
 20
79.74338900000002
 30
0.0
 11
62.34615900000012
 21
79.81230899999984
 31
0.0
  0
LINE
  5
C77
330
A
100
AcDbEntity
  8
1
100
AcDbLine
 10
62.34615900000012
 20
79.81230899999984
 30
0.0
 11
62.23796100000011
 21
79.85063400000001
 31
0.0
  0
LINE
  5
C78
330
A
100
AcDbEntity
  8
1
100
AcDbLine
 10
62.23796100000011
 20
79.85063400000001
 30
0.0
 11
62.06991000000011
 21
79.88452599999998
 31
0.0
  0
LINE
  5
C79
330
A
100
AcDbEntity
  8
1
100
AcDbLine
 10
62.06991000000011
 20
79.88452599999998
 30
0.0
 11
61.8984380000001
 21
79.88745199999981
 31
0.0
  0
LINE
  5
C7A
330
A
100
AcDbEntity
  8
1
100
AcDbLine
 10
58.60486894782656
 20
79.63018416473914
 30
0.0
 11
58.28930700000011
 21
79.25741800000003
 31
0.0
  0
LINE
  5
C7B
330
A
100
AcDbEntity
  8
1
100
AcDbLine
 10
58.28930700000011
 20
79.25741800000003
 30
0.0
 11
58.075684
 21
79.00537199999985
 31
0.0
  0
LINE
  5
C7C
330
A
100
AcDbEntity
  8
1
100
AcDbLine
 10
61.91113300000012
 20
79.88842799999986
 30
0.0
 11
60.2639160000001
 21
79.75917099999985
 31
0.0
  0
LINE
  5
C7D
330
A
100
AcDbEntity
  8
1
100
AcDbLine
 10
60.2639160000001
 20
79.75917099999985
 30
0.0
 11
58.6052737252071
 21
79.63021563518686
 31
0.0
  0
LINE
  5
C7E
330
A
100
AcDbEntity
  8
1
100
AcDbLine
 10
62.99072300000012
 20
67.04736400000001
 30
0.0
 11
62.29529200000001
 21
66.989441
 31
0.0
  0
LINE
  5
C7F
330
A
100
AcDbEntity
  8
1
100
AcDbLine
 10
62.99072258556179
 20
67.04709746819428
 30
0.0
 11
59.02343459202556
 21
66.71817921414231
 31
0.0
  0
DIMENSION
  5
D29
330
A
100
AcDbEntity
  8
2
100
AcDbDimension
  2
*D3
 10
109.5369659761635
 20
-79.88842699999998
 30
0.0
 11
106.9119659761635
 21
0.0000004999999497
 31
0.0
 70
    32
  1
%%C160
 71
     5
 42
159.7768549999998
  3
ISO-25
100
AcDbAlignedDimension
 13
61.91113300000012
 23
79.88842799999986
 33
0.0
 14
61.91113300000012
 24
-79.88842699999998
 34
0.0
 50
90.0
100
AcDbRotatedDimension
  0
DIMENSION
  5
D49
330
A
100
AcDbEntity
  8
2
100
AcDbDimension
  2
*D4
 10
-44.14224454508736
 20
-78.64745999999998
 30
0.0
 11
-44.14224454508735
 21
-0.0000479999999537
 31
0.0
 70
   160
  1
%%C157
 71
     5
 42
157.294824
  3
ISO-25
100
AcDbAlignedDimension
 13
25.77288520771435
 23
78.64736400000005
 33
0.0
 14
21.42929193778582
 24
-78.64746
 34
0.0
 50
90.0
100
AcDbRotatedDimension
  0
LINE
  5
DA0
330
A
100
AcDbEntity
  8
1
100
AcDbLine
 10
58.075684
 20
78.64746100000002
 30
0.0
 11
58.07157842086457
 21
67.34251574436121
 31
0.0
  0
LINE
  5
DA1
330
A
100
AcDbEntity
  8
1
100
AcDbLine
 10
58.07157842086457
 20
67.34251574436132
 30
0.0
 11
59.02343459202556
 21
66.71817921414231
 31
0.0
  0
LWPOLYLINE
  5
EAC
330
A
100
AcDbEntity
  8
NOCUT
100
AcDbPolyline
 90
       17
 70
     1
 43
0.0
 10
4.999852429203881
 20
-64.99999999999977
 42
-0.4142134703579838
 10
-0.0001459999998588
 20
-60.0
 10
-0.0001459999998588
 20
-9.649902000000112
 10
-0.0001459999998588
 20
-60.0
 10
-0.0001459999998588
 20
-9.649902000000112
 10
-0.0001459999998588
 20
-9.649902000000112
 10
1.599710999988701
 20
-8.049949999999737
 10
6.999855033234382
 20
-8.049949999999737
 42
0.4142134703579838
 10
8.599853000000052
 20
-6.449950469420286
 10
8.599853000000052
 20
-0.0000000000001137
 10
61.5998540000001
 20
-0.0000000000001137
 10
61.5998540000001
 20
-77.0473624694199
 42
-0.4142134703579838
 10
59.99985503323512
 20
-78.6473629999997
 10
27.87900500000016
 20
-78.64729
 10
19.99973877350258
 20
-65.0
 10
4.999852429203881
 20
-64.99999999999977
 10
19.99973877350258
 20
-65.0
  0
LINE
  5
EE4
330
A
100
AcDbEntity
  8
1
100
AcDbLine
 10
-1.967314702545166
 20
-0.0000000000000568
 30
0.0
 11
1.967314702544965
 21
-0.0000000000000568
 31
0.0
  0
HATCH
  5
EE5
330
A
100
AcDbEntity
  8
1
100
AcDbHatch
 10
0.0
 20
0.0
 30
0.0
210
0.0
220
0.0
230
1.0
  2
SOLID
 70
     1
 71
     0
 91
        2
 92
        7
 72
     1
 73
     1
 93
        3
 10
-0.0000000000000284
 20
-0.0000000000000568
 42
0.0
 10
1.967314702544995
 20
-0.0000000000000568
 42
0.4142135623730966
 10
-0.0000000000000284
 20
1.967314702544938
 42
0.0
 97
        0
 92
        7
 72
     1
 73
     1
 93
        3
 10
-0.0000000000000284
 20
-1.967314702544995
 42
0.0
 10
-0.0000000000000284
 20
-0.0000000000000568
 42
0.0
 10
-1.967314702544995
 20
-0.0000000000000568
 42
0.4142135623730953
 97
        0
 75
     0
 76
     1
 47
0.1190009775223266
 98
        2
 10
0.4963687058249491
 20
0.6141496488561984
 10
-0.8529764011501297
 20
-1.131197948584484
  0
CIRCLE
  5
EE6
330
A
100
AcDbEntity
  8
1
100
AcDbCircle
 10
0.0
 20
-0.0000000000000568
 30
0.0
 40
1.967314702545
  0
LWPOLYLINE
  5
EE7
330
A
100
AcDbEntity
  8
1
100
AcDbPolyline
 90
        3
 70
     1
 43
0.0
 10
-0.0000000000000284
 20
1.967314702544938
 10
-0.0000000000000284
 20
-0.0000000000000853
 10
1.967314702544995
 20
-0.0000000000000853
 42
0.4142135623730966
  0
LWPOLYLINE
  5
EE8
330
A
100
AcDbEntity
  8
1
100
AcDbPolyline
 90
        3
 70
     1
 43
0.0
 10
-0.0000000000000284
 20
-0.0000000000000853
 10
-1.967314702544995
 20
-0.0000000000000853
 42
0.4142135623730966
 10
-0.0000000000000284
 20
-1.967314702545053
  0
LINE
  5
EE9
330
A
100
AcDbEntity
  8
1
100
AcDbLine
 10
0.0
 20
1.967314702544938
 30
0.0
 11
0.0
 21
-1.967314702545053
 31
0.0
  0
LINE
  5
EEA
330
A
100
AcDbEntity
  8
1
100
AcDbLine
 10
0.0000000000000091
 20
9.649836000140536
 30
0.0
 11
0.0000000000000568
 21
59.99999999999983
 31
0.0
  0
MTEXT
  5
EF2
330
A
100
AcDbEntity
  8
6
100
AcDbMText
 10
67.09003394155388
 20
87.51811184340374
 30
0.0
 40
4.0
 41
56.91762399999999
 71
     1
 72
     5
  1
YDA322L101
 73
     1
 44
1.0
1001
ACAD
1000
MTEXTBEGIN
1070
    73
1070
     1
1070
    44
1040
1.0
1070
    74
1070
     0
1000
MTEXTEND
  0
MTEXT
  5
EF3
330
A
100
AcDbEntity
  8
6
100
AcDbMText
 10
113.9053957146709
 20
-5.437109446596763
 30
0.0
 40
4.0
 41
31.38448400000001
 71
     1
 72
     5
  1
Z=8
 11
0.0000000000000001
 21
1.0
 31
0.0
 73
     1
 44
1.0
1001
ACAD
1000
MTEXTBEGIN
1070
    73
1070
     1
1070
    44
1040
1.0
1070
    74
1070
     0
1000
MTEXTEND
  0
DIMENSION
  5
EFF
330
A
100
AcDbEntity
  8
SK2
100
AcDbDimension
  2
*D6
 10
-18.79745030985929
 20
-19.99985800565103
 30
0.0
 11
-18.79728380823577
 21
-0.0001927239761409
 31
0.0
 70
   160
  1
\A1;%%C40
 71
     5
 42
39.99999884491351
  3
ISO-25
100
AcDbAlignedDimension
 13
-1.880102757804934
 23
19.99999999999991
 33
0.0
 14
-1.741523823488932
 24
-19.99999999999996
 34
0.0
 50
89.99952300000151
100
AcDbRotatedDimension
  0
DIMENSION
  5
F00
330
A
100
AcDbEntity
  8
2
100
AcDbDimension
  2
*D5
 10
-30.31609422712421
 20
-64.99974728501243
 30
0.0
 11
-30.31555415565823
 21
-0.1280161882853445
 31
0.0
 70
   160
  1
\A1;%%C130
 71
     5
 42
129.9999768839645
  3
ISO-25
100
AcDbAlignedDimension
 13
-2.736829869685379
 23
65.00000000000003
 33
0.0
 14
0.0392564106941791
 24
-65.00000000000003
 34
0.0
 50
89.99952300000151
100
AcDbRotatedDimension
  0
LWPOLYLINE
  5
FA0
330
A
100
AcDbEntity
  8
CUT
100
AcDbPolyline
 90
       20
 70
     1
 43
0.0
 10
61.89864918924811
 20
79.88769239626447
 10
60.2639160000001
 20
79.75941499999997
 10
58.60486894782649
 20
79.63042816473922
 10
58.28930700000011
 20
79.25766200000005
 10
58.075684
 20
79.00561600000002
 10
58.075684
 20
78.64770499999997
 10
58.07157842086457
 20
67.34275974436133
 10
59.02343459202556
 20
66.71842321414231
 10
62.99072258556176
 20
67.04734146819436
 10
62.99996300000003
 20
72.98999699999995
 10
62.99366276937835
 20
78.91366653175457
 10
62.9871050000001
 20
79.01601200000015
 10
62.94711700000011
 20
79.18818500000003
 10
62.89551700000011
 20
79.31006000000002
 10
62.78780700000011
 20
79.47785000000014
 10
62.6492580000001
 20
79.62340599999997
 10
62.4833410000001
 20
79.74363300000016
 10
62.34615900000012
 20
79.81255299999998
 10
62.23796100000011
 20
79.85087799999995
 10
62.06991000000011
 20
79.88476999999997
  0
VIEWPORT
  5
6B4
102
{ACAD_XDICTIONARY
360
FC2
102
}
330
B
100
AcDbEntity
 67
     1
  8
0
 62
     0
100
AcDbViewport
 10
0.0
 20
0.0
 30
0.0
 40
1000.0
 41
1000.0
 68
     1
 69
     1
 12
0.0
 22
0.0
 13
0.0
 23
0.0
 14
1.0
 24
1.0
 15
1.0
 25
1.0
 16
0.0
 26
0.0
 36
1.0
 17
0.0
 27
0.0
 37
0.0
 42
50.0
 43
0.0
 44
0.0
 45
1000.0
 50
0.0
 51
0.0
 72
   100
 90
    32800
  1

281
     0
 71
     1
 74
     0
110
0.0
120
0.0
130
0.0
111
1.0
121
0.0
131
0.0
112
0.0
122
1.0
132
0.0
 79
     0
146
0.0
  0
ENDSEC
  0
SECTION
  2
OBJECTS
  0
DICTIONARY
  5
19
330
0
100
AcDbDictionary
281
     1
  3
ACAD_COLOR
350
EFA
  3
ACAD_GROUP
350
1A
  3
ACAD_LAYOUT
350
B8B
  3
ACAD_MATERIAL
350
EF9
  3
ACAD_MLINESTYLE
350
1B
  3
ACAD_PLOTSETTINGS
350
B8C
  3
ACAD_PLOTSTYLENAME
350
B89
  3
ACAD_TABLESTYLE
350
EFB
  3
ACDBHEADERROUNDTRIPXREC
350
FC1
  3
AcDbVariableDictionary
350
F9E
  0
DICTIONARY
  5
FA1
330
A
100
AcDbDictionary
280
     1
281
     1
  3
ACAD_SORTENTS
360
FA2
  0
DICTIONARY
  5
FC2
330
6B4
100
AcDbDictionary
280
     1
281
     1
  3
ACAD_XREC_ROUNDTRIP
360
FC3
  0
DICTIONARY
  5
EFA
102
{ACAD_REACTORS
330
19
102
}
330
19
100
AcDbDictionary
281
     1
  0
DICTIONARY
  5
1A
102
{ACAD_REACTORS
330
19
102
}
330
19
100
AcDbDictionary
281
     1
  0
DICTIONARY
  5
B8B
102
{ACAD_REACTORS
330
19
102
}
330
19
100
AcDbDictionary
281
     1
  3
Layout1
350
B8E
  3
Model
350
B8D
  0
DICTIONARY
  5
EF9
102
{ACAD_REACTORS
330
19
102
}
330
19
100
AcDbDictionary
281
     1
  0
DICTIONARY
  5
1B
102
{ACAD_REACTORS
330
19
102
}
330
19
100
AcDbDictionary
281
     1
  3
STANDARD
350
1C
  0
DICTIONARY
  5
B8C
102
{ACAD_REACTORS
330
19
102
}
330
19
100
AcDbDictionary
281
     1
  0
ACDBDICTIONARYWDFLT
  5
B89
102
{ACAD_REACTORS
330
19
102
}
330
19
100
AcDbDictionary
281
     1
  3
Normal
350
B8A
100
AcDbDictionaryWithDefault
340
B8A
  0
DICTIONARY
  5
EFB
102
{ACAD_REACTORS
330
19
102
}
330
19
100
AcDbDictionary
281
     1
  3
Standard
350
EFC
  0
DICTIONARY
  5
FC1
102
{ACAD_REACTORS
330
19
102
}
330
19
100
AcDbDictionary
281
     1
  0
DICTIONARY
  5
F9E
102
{ACAD_REACTORS
330
19
102
}
330
19
100
AcDbDictionary
281
     1
  3
CTABLESTYLE
350
F9F
  3
DIMASSOC
350
FB6
  3
PROJECTNAME
350
FB7
  0
SORTENTSTABLE
  5
FA2
102
{ACAD_REACTORS
330
FA1
102
}
330
FA1
100
AcDbSortentsTable
330
A
331
C6F
  5
C6F
331
7D
  5
7D
331
DA0
  5
DA0
331
C5E
  5
C5E
331
6C
  5
6C
331
5B
  5
5B
331
EF2
  5
FB2
331
7B
  5
7B
331
C7E
  5
C7E
331
C5C
  5
C5C
331
6A
  5
6A
331
59
  5
59
331
C6B
  5
C6B
331
79
  5
79
331
C7C
  5
C7C
331
68
  5
68
331
C69
  5
C69
331
6AC
  5
6AC
331
C7A
  5
C7A
331
77
  5
77
331
66
  5
66
331
FA0
  5
FA9
331
C78
  5
C78
331
C67
  5
C67
331
75
  5
75
331
64
  5
64
331
EE9
  5
FB0
331
D49
  5
D49
331
C76
  5
C76
331
C65
  5
C65
331
73
  5
73
331
62
  5
62
331
F00
  5
FB5
331
EE7
  5
FAE
331
C74
  5
C74
331
C63
  5
C63
331
71
  5
71
331
60
  5
60
331
EAC
  5
FAA
331
EE5
  5
FAC
331
C72
  5
C72
331
C61
  5
C61
331
6F
  5
6F
331
5E
  5
5E
331
C70
  5
C70
331
7E
  5
7E
331
DA1
  5
DA1
331
C5F
  5
C5F
331
6D
  5
6D
331
5C
  5
5C
331
EF3
  5
FB3
331
D29
  5
D29
331
C6E
  5
C6E
331
7C
  5
7C
331
C7F
  5
C7F
331
C5D
  5
C5D
331
6B
  5
6B
331
5A
  5
5A
331
7A
  5
7A
331
C7D
  5
C7D
331
C5B
  5
C5B
331
69
  5
69
331
C6A
  5
C6A
331
78
  5
78
331
C7B
  5
C7B
331
67
  5
67
331
C68
  5
C68
331
C79
  5
C79
331
76
  5
76
331
65
  5
65
331
EEA
  5
FB1
331
C77
  5
C77
331
C66
  5
C66
331
74
  5
74
331
63
  5
63
331
EE8
  5
FAF
331
C75
  5
C75
331
C64
  5
C64
331
72
  5
72
331
61
  5
61
331
EFF
  5
FB4
331
EE6
  5
FAD
331
C73
  5
C73
331
81
  5
81
331
C62
  5
C62
331
70
  5
70
331
5F
  5
5F
331
EE4
  5
FAB
331
C71
  5
C71
331
7F
  5
7F
331
C60
  5
C60
331
6B3
  5
6B3
331
6E
  5
6E
331
5D
  5
5D
  0
XRECORD
  5
FC3
102
{ACAD_REACTORS
330
FC2
102
}
330
FC2
100
AcDbXrecord
280
     1
102
SHADEPLOT
 70
     0
  0
LAYOUT
  5
B8E
102
{ACAD_XDICTIONARY
360
FC6
102
}
102
{ACAD_REACTORS
330
B8B
102
}
330
B8B
100
AcDbPlotSettings
  1

  2
\\ingdom02\ITB2
  4

  6

 40
0.0
 41
0.0
 42
0.0
 43
0.0
 44
0.0
 45
0.0
 46
0.0
 47
0.0
 48
0.0
 49
0.0
140
0.0
141
0.0
142
1.0
143
1.0
 70
   688
 72
     0
 73
     0
 74
     5
  7

 75
    16
147
1.0
148
0.0
149
0.0
100
AcDbLayout
  1
Layout1
 70
     1
 71
     1
 10
0.0
 20
0.0
 11
12.0
 21
9.0
 12
0.0
 22
0.0
 32
0.0
 14
-657.5319849999997
 24
0.0
 34
1.000000000000000E+20
 15
0.0
 25
427.022461
 35
-1.000000000000000E+20
146
0.0
 13
0.0
 23
0.0
 33
0.0
 16
1.0
 26
0.0
 36
0.0
 17
0.0
 27
1.0
 37
0.0
 76
     0
330
B
331
6B4
  0
LAYOUT
  5
B8D
102
{ACAD_XDICTIONARY
360
FC4
102
}
102
{ACAD_REACTORS
330
B8B
102
}
330
B8B
100
AcDbPlotSettings
  1

  2
\\ingdom02\ITB2
  4

  6

 40
0.0
 41
0.0
 42
0.0
 43
0.0
 44
0.0
 45
0.0
 46
0.0
 47
0.0
 48
0.0
 49
0.0
140
0.0
141
0.0
142
1.0
143
1.0
 70
  1712
 72
     0
 73
     0
 74
     0
  7

 75
     0
147
1.0
148
0.0
149
0.0
100
AcDbLayout
  1
Model
 70
     1
 71
     0
 10
0.0
 20
0.0
 11
12.0
 21
9.0
 12
0.0
 22
0.0
 32
0.0
 14
0.0
 24
0.0
 34
0.0
 15
0.0
 25
0.0
 35
0.0
146
0.0
 13
0.0
 23
0.0
 33
0.0
 16
1.0
 26
0.0
 36
0.0
 17
0.0
 27
1.0
 37
0.0
 76
     0
330
A
  0
MLINESTYLE
  5
1C
102
{ACAD_REACTORS
330
1B
102
}
330
1B
100
AcDbMlineStyle
  2
STANDARD
 70
     0
  3

 62
     0
 51
90.0
 52
90.0
 71
     2
 49
0.5
 62
   256
  6
BYLAYER
 49
-0.5
 62
   256
  6
BYLAYER
  0
ACDBPLACEHOLDER
  5
B8A
102
{ACAD_REACTORS
330
B89
102
}
330
B89
  0
TABLESTYLE
  5
EFC
102
{ACAD_REACTORS
330
EFB
102
}
330
EFB
100
AcDbTableStyle
  3
Standard
 70
     0
 71
     0
 40
0.06
 41
0.06
280
     0
281
     0
  7
STANDARD
140
0.18
170
     2
 62
     0
 63
     7
283
     0
274
    -2
284
     1
 64
     0
275
    -2
285
     1
 65
     0
276
    -2
286
     1
 66
     0
277
    -2
287
     1
 67
     0
278
    -2
288
     1
 68
     0
279
    -2
289
     1
 69
     0
  7
STANDARD
140
0.25
170
     5
 62
     0
 63
     7
283
     0
274
    -2
284
     1
 64
     0
275
    -2
285
     1
 65
     0
276
    -2
286
     1
 66
     0
277
    -2
287
     1
 67
     0
278
    -2
288
     1
 68
     0
279
    -2
289
     1
 69
     0
  7
STANDARD
140
0.18
170
     5
 62
     0
 63
     7
283
     0
274
    -2
284
     1
 64
     0
275
    -2
285
     1
 65
     0
276
    -2
286
     1
 66
     0
277
    -2
287
     1
 67
     0
278
    -2
288
     1
 68
     0
279
    -2
289
     1
 69
     0
  0
DICTIONARYVAR
  5
F9F
102
{ACAD_REACTORS
330
F9E
102
}
330
F9E
100
DictionaryVariables
280
     0
  1
STANDARD
  0
DICTIONARYVAR
  5
FB6
102
{ACAD_REACTORS
330
F9E
102
}
330
F9E
100
DictionaryVariables
280
     0
  1
1
  0
DICTIONARYVAR
  5
FB7
102
{ACAD_REACTORS
330
F9E
102
}
330
F9E
100
DictionaryVariables
280
     0
  1

  0
DICTIONARY
  5
FC6
330
B8E
100
AcDbDictionary
280
     1
281
     1
  3
ACAD_XREC_ROUNDTRIP
360
FC7
  0
DICTIONARY
  5
FC4
330
B8D
100
AcDbDictionary
280
     1
281
     1
  3
ACAD_XREC_ROUNDTRIP
360
FC5
  0
XRECORD
  5
FC7
102
{ACAD_REACTORS
330
FC6
102
}
330
FC6
100
AcDbXrecord
280
     1
102
SHADEPLOT
 70
     0
102
SHADEPLOTRESLEVEL
 70
     2
102
SHADEPLOTCUSTOMDPI
 70
   300
  0
XRECORD
  5
FC5
102
{ACAD_REACTORS
330
FC4
102
}
330
FC4
100
AcDbXrecord
280
     1
102
SHADEPLOT
 70
     0
102
SHADEPLOTRESLEVEL
 70
     2
102
SHADEPLOTCUSTOMDPI
 70
   300
  0
ENDSEC
  0
EOF
