  0
SECTION
  2
HEADER
  9
$ACADVER
  1
AC1014
  9
$ACADMAINTVER
 70
     9
  9
$DWGCODEPAGE
  3
ANSI_1252
  9
$INSBASE
 10
0.0
 20
0.0
 30
0.0
  9
$EXTMIN
 10
-108.0097187132023
 20
-165.0284639102759
 30
-0.0015258207003583
  9
$EXTMAX
 10
148.8329224994649
 20
214.8489176012483
 30
0.0000000349246037
  9
$LIMMIN
 10
0.0
 20
0.0
  9
$LIMMAX
 10
420.0
 20
297.0
  9
$ORTHOMODE
 70
     0
  9
$REGENMODE
 70
     1
  9
$FILLMODE
 70
     1
  9
$QTEXTMODE
 70
     0
  9
$MIRRTEXT
 70
     1
  9
$DRAGMODE
 70
     2
  9
$LTSCALE
 40
1.0
  9
$OSMODE
 70
  2599
  9
$ATTMODE
 70
     1
  9
$TEXTSIZE
 40
2.5
  9
$TRACEWID
 40
1.0
  9
$TEXTSTYLE
  7
STANDARD
  9
$CLAYER
  8
0
  9
$CELTYPE
  6
BYLAYER
  9
$CECOLOR
 62
   256
  9
$CELTSCALE
 40
1.0
  9
$DELOBJ
 70
     1
  9
$DISPSILH
 70
     0
  9
$DIMSCALE
 40
1.0
  9
$DIMASZ
 40
2.5
  9
$DIMEXO
 40
0.0
  9
$DIMDLI
 40
10.0
  9
$DIMRND
 40
0.0
  9
$DIMDLE
 40
0.0
  9
$DIMEXE
 40
1.0
  9
$DIMTP
 40
0.1
  9
$DIMTM
 40
0.1
  9
$DIMTXT
 40
3.5
  9
$DIMCEN
 40
0.0
  9
$DIMTSZ
 40
0.0
  9
$DIMTOL
 70
     0
  9
$DIMLIM
 70
     0
  9
$DIMTIH
 70
     0
  9
$DIMTOH
 70
     0
  9
$DIMSE1
 70
     0
  9
$DIMSE2
 70
     0
  9
$DIMTAD
 70
     1
  9
$DIMZIN
 70
     8
  9
$DIMBLK
  1

  9
$DIMASO
 70
     1
  9
$DIMSHO
 70
     1
  9
$DIMPOST
  1

  9
$DIMAPOST
  1
"
  9
$DIMALT
 70
     0
  9
$DIMALTD
 70
     2
  9
$DIMALTF
 40
0.0393701
  9
$DIMLFAC
 40
1.0
  9
$DIMTOFL
 70
     1
  9
$DIMTVP
 40
0.0
  9
$DIMTIX
 70
     0
  9
$DIMSOXD
 70
     0
  9
$DIMSAH
 70
     0
  9
$DIMBLK1
  1

  9
$DIMBLK2
  1

  9
$DIMSTYLE
  2
AM_DIN
  9
$DIMCLRD
 70
   256
  9
$DIMCLRE
 70
   256
  9
$DIMCLRT
 70
     2
  9
$DIMTFAC
 40
0.71
  9
$DIMGAP
 40
1.5
  9
$DIMJUST
 70
     0
  9
$DIMSD1
 70
     0
  9
$DIMSD2
 70
     0
  9
$DIMTOLJ
 70
     0
  9
$DIMTZIN
 70
     8
  9
$DIMALTZ
 70
     0
  9
$DIMALTTZ
 70
     0
  9
$DIMFIT
 70
     3
  9
$DIMUPT
 70
     0
  9
$DIMUNIT
 70
     2
  9
$DIMDEC
 70
     2
  9
$DIMTDEC
 70
     2
  9
$DIMALTU
 70
     2
  9
$DIMALTTD
 70
     2
  9
$DIMTXSTY
  7
STANDARD
  9
$DIMAUNIT
 70
     0
  9
$LUNITS
 70
     2
  9
$LUPREC
 70
     2
  9
$SKETCHINC
 40
1.0
  9
$FILLETRAD
 40
3.0
  9
$AUNITS
 70
     0
  9
$AUPREC
 70
     0
  9
$MENU
  1
.
  9
$ELEVATION
 40
0.0
  9
$PELEVATION
 40
0.0
  9
$THICKNESS
 40
0.0
  9
$LIMCHECK
 70
     0
  9
$BLIPMODE
 70
     0
  9
$CHAMFERA
 40
2.5
  9
$CHAMFERB
 40
2.5
  9
$CHAMFERC
 40
20.0
  9
$CHAMFERD
 40
0.0
  9
$SKPOLY
 70
     0
  9
$TDCREATE
 40
2453599.366006042
  9
$TDUPDATE
 40
2453874.475012812
  9
$TDINDWG
 40
0.0863326157
  9
$TDUSRTIMER
 40
0.0863082755
  9
$USRTIMER
 70
     1
  9
$ANGBASE
 50
0.0
  9
$ANGDIR
 70
     0
  9
$PDMODE
 70
     0
  9
$PDSIZE
 40
0.0
  9
$PLINEWID
 40
0.0
  9
$COORDS
 70
     0
  9
$SPLFRAME
 70
     0
  9
$SPLINETYPE
 70
     6
  9
$SPLINESEGS
 70
     8
  9
$ATTDIA
 70
     1
  9
$ATTREQ
 70
     1
  9
$HANDLING
 70
 22529
  9
$HANDSEED
  5
547A
  9
$SURFTAB1
 70
     6
  9
$SURFTAB2
 70
     6
  9
$SURFTYPE
 70
     6
  9
$SURFU
 70
     6
  9
$SURFV
 70
     6
  9
$UCSNAME
  2

  9
$UCSORG
 10
0.0
 20
0.0
 30
0.0
  9
$UCSXDIR
 10
1.0
 20
0.0
 30
0.0
  9
$UCSYDIR
 10
0.0
 20
1.0
 30
0.0
  9
$PUCSNAME
  2

  9
$PUCSORG
 10
0.0
 20
0.0
 30
0.0
  9
$PUCSXDIR
 10
1.0
 20
0.0
 30
0.0
  9
$PUCSYDIR
 10
0.0
 20
1.0
 30
0.0
  9
$USERI1
 70
     0
  9
$USERI2
 70
     0
  9
$USERI3
 70
     0
  9
$USERI4
 70
     0
  9
$USERI5
 70
     0
  9
$USERR1
 40
0.0
  9
$USERR2
 40
0.0
  9
$USERR3
 40
0.0
  9
$USERR4
 40
0.0
  9
$USERR5
 40
0.0
  9
$WORLDVIEW
 70
     1
  9
$SHADEDGE
 70
     3
  9
$SHADEDIF
 70
    70
  9
$TILEMODE
 70
     1
  9
$MAXACTVP
 70
    64
  9
$PINSBASE
 10
0.0
 20
0.0
 30
0.0
  9
$PLIMCHECK
 70
     0
  9
$PEXTMIN
 10
1.000000000000000E+20
 20
1.000000000000000E+20
 30
1.000000000000000E+20
  9
$PEXTMAX
 10
-1.000000000000000E+20
 20
-1.000000000000000E+20
 30
-1.000000000000000E+20
  9
$PLIMMIN
 10
0.0
 20
0.0
  9
$PLIMMAX
 10
420.0
 20
297.0
  9
$UNITMODE
 70
     0
  9
$VISRETAIN
 70
     1
  9
$PLINEGEN
 70
     0
  9
$PSLTSCALE
 70
     1
  9
$TREEDEPTH
 70
  3020
  9
$PICKSTYLE
 70
     0
  9
$CMLSTYLE
  2
STANDARD
  9
$CMLJUST
 70
     0
  9
$CMLSCALE
 40
20.0
  9
$PROXYGRAPHICS
 70
     1
  9
$MEASUREMENT
 70
     1
  0
ENDSEC
  0
SECTION
  2
CLASSES
  0
CLASS
  1
ACDBDICTIONARYWDFLT
  2
AcDbDictionaryWithDefault
  3
AutoCAD 2000
 90
        0
280
     0
281
     0
  0
CLASS
  1
ACDBPLACEHOLDER
  2
AcDbPlaceHolder
  3
AutoCAD 2000
 90
        0
280
     0
281
     0
  0
CLASS
  1
LAYOUT
  2
AcDbLayout
  3
AutoCAD 2000
 90
        0
280
     0
281
     0
  0
CLASS
  1
ACME_DOCUMENT
  2
AcMeDbDoc
  3
AcMeServices
 90
        0
280
     0
281
     0
  0
CLASS
  1
ACMESCOPE
  2
AcMeScope
  3
AcMeServices
 90
        0
280
     0
281
     0
  0
CLASS
  1
ACMECOMMANDHISTORY
  2
AcMeCommandHistory
  3
AcMeServices
 90
        0
280
     0
281
     0
  0
CLASS
  1
ACIMSYSVARMAN
  2
AcImSysVarManager
  3
AcMeServices
 90
        0
280
     0
281
     0
  0
CLASS
  1
ACIMREALSYSVAR
  2
AcImRealSysVar
  3
AcMeServices
 90
        0
280
     0
281
     0
  0
CLASS
  1
ACIMINTSYSVAR
  2
AcImIntSysVar
  3
AcMeServices
 90
        0
280
     0
281
     0
  0
CLASS
  1
ACMEDRAWINGMAN
  2
AcMeDrawingMan
  3
AcMeServices
 90
        0
280
     0
281
     0
  0
CLASS
  1
ACMEVIEW
  2
AcMeView
  3
AcMeServices
 90
        0
280
     0
281
     0
  0
CLASS
  1
ACDBENTITYCACHE
  2
AcMeEntityCache
  3
AcMeServices
 90
        0
280
     0
281
     0
  0
CLASS
  1
GSMANAGER
  2
AcMeGSManager
  3
AcMeServices
 90
        0
280
     0
281
     0
  0
CLASS
  1
AMDTINTERNALREACTOR
  2
AmdtInternalReactor
  3
AcMeServices
 90
        0
280
     0
281
     0
  0
CLASS
  1
ACMESTATEMGR
  2
AcMeStateMgr
  3
AcMeServices
 90
        0
280
     0
281
     0
  0
CLASS
  1
ACGREFMASTER
  2
AcGrefMaster
  3
AcAttribServices
 90
        0
280
     0
281
     0
  0
CLASS
  1
ACME_DATABASE
  2
AcMeDbDatabase
  3
AcMeServices
 90
        0
280
     0
281
     0
  0
CLASS
  1
ACRFINSADJUSTERMGR
  2
AcRfInsAdjusterMgr
  3
AcMeServices
 90
        0
280
     0
281
     0
  0
CLASS
  1
ACGREFACADMASTER
  2
AcGrefacadMaster
  3
AcGrefServices
 90
        0
280
     0
281
     0
  0
CLASS
  1
AMIMASTER
  2
AmiMaster
  3
AmiServices
 90
        0
280
     0
281
     0
  0
CLASS
  1
AMGSETTINGSOBJ
  2
AmgSettingsObj
  3
"AcadM|Product Description: AutoCAD Mechanical 2000|Company: Autodesk"
 90
        0
280
     0
281
     0
  0
CLASS
  1
ACMDATADICTIONARY
  2
AcmDataDictionary
  3
"AcmSymBB|Product Description: AutoCAD Mechanical 2000|Company: Autodesk"
 90
        0
280
     0
281
     0
  0
CLASS
  1
ACMDATAENTRYBLOCK
  2
AcmDataEntryBlock
  3
"AcmSymBB|Product Description: AutoCAD Mechanical 2000|Company: Autodesk"
 90
        0
280
     0
281
     0
  0
CLASS
  1
ACIMSTRSYSVAR
  2
AcImStrSysVar
  3
AcMeServices
 90
        0
280
     0
281
     0
  0
CLASS
  1
ACMSTANDARDDIN
  2
AcmStandardDIN
  3
"Amdt_StdImp|Product Description: AutoCAD Mechanical 2000|Company: Autodesk"
 90
        0
280
     0
281
     0
  0
CLASS
  1
AMGOBJPROPCFG
  2
AmgObjPropCfg
  3
"AmgLay|Product Description: AutoCAD Mechanical 2000|Company: Autodesk"
 90
        1
280
     0
281
     0
  0
CLASS
  1
AMDTEDGESTANDARDDIN
  2
AmdtEdgeStdDIN
  3
"Amdt_StdImp|Product Description: AutoCAD Mechanical 2000|Company: Autodesk"
 90
        0
280
     0
281
     0
  0
CLASS
  1
ACMSURFSTANDARDDIN
  2
AcmSurfTextStdDIN
  3
"Amdt_StdImp|Product Description: AutoCAD Mechanical 2000|Company: Autodesk"
 90
        0
280
     0
281
     0
  0
CLASS
  1
ACMFCFSTANDARDDIN
  2
AcmFCFStdDIN
  3
"Amdt_StdImp|Product Description: AutoCAD Mechanical 2000|Company: Autodesk"
 90
        0
280
     0
281
     0
  0
CLASS
  1
ACMWELDSTANDARDDIN
  2
AcmWeldingStdDIN
  3
"Amdt_StdImp|Product Description: AutoCAD Mechanical 2000|Company: Autodesk"
 90
        0
280
     0
281
     0
  0
CLASS
  1
ACMIDSTANDARDDIN
  2
AcmIdStdDIN
  3
"Amdt_StdImp|Product Description: AutoCAD Mechanical 2000|Company: Autodesk"
 90
        0
280
     0
281
     0
  0
CLASS
  1
ACMDATUMSTANDARDDIN
  2
AcmDatumStdDIN
  3
"Amdt_StdImp|Product Description: AutoCAD Mechanical 2000|Company: Autodesk"
 90
        0
280
     0
281
     0
  0
CLASS
  1
ACMBOMSTANDARDDIN
  2
AcmBOMStdDIN
  3
"Amdt_StdImp|Product Description: AutoCAD Mechanical 2000|Company: Autodesk"
 90
        0
280
     0
281
     0
  0
CLASS
  1
ACMDETAILSTANDARDDIN
  2
AmdtDetailSymStdDIN
  3
"Amdt_StdImp|Product Description: AutoCAD Mechanical 2000|Company: Autodesk"
 90
        0
280
     0
281
     0
  0
CLASS
  1
ACMSECTIONSTANDARDDIN
  2
AmdtSectionSymStdDIN
  3
"Amdt_StdImp|Product Description: AutoCAD Mechanical 2000|Company: Autodesk"
 90
        0
280
     0
281
     0
  0
CLASS
  1
ACMCENTERLINESTANDARDDIN
  2
AmdtCenterLineStdDIN
  3
"Amdt_StdImp|Product Description: AutoCAD Mechanical 2000|Company: Autodesk"
 90
        0
280
     0
281
     0
  0
CLASS
  1
ACMNOTESTANDARDDIN
  2
AmdtNoteStdDIN
  3
"Amdt_StdImp|Product Description: AutoCAD Mechanical 2000|Company: Autodesk"
 90
        0
280
     0
281
     0
  0
CLASS
  1
ACAMGLAYSTD
  2
AcAmgLayStd
  3
"AcAmgLayStd|Product Description: AutoCAD Mechanical 2000|Company: Autodesk"
 90
        0
280
     0
281
     0
  0
CLASS
  1
ACAMGDIMSTD
  2
AcAmgDimStd
  3
"AcAmgDimStd|Product Description: AutoCAD Mechanical 2000|Company: Autodesk"
 90
        0
280
     0
281
     0
  0
CLASS
  1
ACAMGHOLECHARTSTDDIN
  2
AcAmgHoleChartStdDIN
  3
ACMSYMBB_MODULE_NAME
 90
        0
280
     0
281
     0
  0
CLASS
  1
ACAMGTITLESTD
  2
AcAmgTitleStd
  3
"TITLEAPP"
 90
        0
280
     0
281
     0
  0
CLASS
  1
ACMSTANDARDANSI
  2
AcmStandardANSI
  3
"Amdt_StdImp|Product Description: AutoCAD Mechanical 2000|Company: Autodesk"
 90
        0
280
     0
281
     0
  0
CLASS
  1
ACMSURFSTANDARDANSI
  2
AcmSurfTextStdANSI
  3
"Amdt_StdImp|Product Description: AutoCAD Mechanical 2000|Company: Autodesk"
 90
        0
280
     0
281
     0
  0
CLASS
  1
ACMFCFSTANDARDANSI
  2
AcmFCFStdANSI
  3
"Amdt_StdImp|Product Description: AutoCAD Mechanical 2000|Company: Autodesk"
 90
        0
280
     0
281
     0
  0
CLASS
  1
ACMWELDSTANDARDANSI
  2
AcmWeldingStdANSI
  3
"Amdt_StdImp|Product Description: AutoCAD Mechanical 2000|Company: Autodesk"
 90
        0
280
     0
281
     0
  0
CLASS
  1
ACMIDSTANDARDANSI
  2
AcmIdStdANSI
  3
"Amdt_StdImp|Product Description: AutoCAD Mechanical 2000|Company: Autodesk"
 90
        0
280
     0
281
     0
  0
CLASS
  1
ACMDATUMSTANDARDANSI
  2
AcmDatumStdANSI
  3
"Amdt_StdImp|Product Description: AutoCAD Mechanical 2000|Company: Autodesk"
 90
        0
280
     0
281
     0
  0
CLASS
  1
ACMBOMSTANDARDANSI
  2
AcmBOMStdANSI
  3
"Amdt_StdImp|Product Description: AutoCAD Mechanical 2000|Company: Autodesk"
 90
        0
280
     0
281
     0
  0
CLASS
  1
ACMDETAILSTANDARDANSI
  2
AmdtDetailSymStdANSI
  3
"Amdt_StdImp|Product Description: AutoCAD Mechanical 2000|Company: Autodesk"
 90
        0
280
     0
281
     0
  0
CLASS
  1
ACMSECTIONSTANDARDANSI
  2
AmdtSectionSymStdANSI
  3
"Amdt_StdImp|Product Description: AutoCAD Mechanical 2000|Company: Autodesk"
 90
        0
280
     0
281
     0
  0
CLASS
  1
ACMCENTERLINESTANDARDANSI
  2
AmdtCenterLineStdANSI
  3
"Amdt_StdImp|Product Description: AutoCAD Mechanical 2000|Company: Autodesk"
 90
        0
280
     0
281
     0
  0
CLASS
  1
ACMNOTESTANDARDANSI
  2
AmdtNoteStdANSI
  3
"Amdt_StdImp|Product Description: AutoCAD Mechanical 2000|Company: Autodesk"
 90
        0
280
     0
281
     0
  0
CLASS
  1
ACAMGHOLECHARTSTDANSI
  2
AcAmgHoleChartStdANSI
  3
ACMSYMBB_MODULE_NAME
 90
        0
280
     0
281
     0
  0
CLASS
  1
ACAMGFILTERDAT
  2
AcAmgFilterDat
  3
"AcadM|Product Description: AutoCAD Mechanical 2000|Company: Autodesk"
 90
        0
280
     0
281
     0
  0
CLASS
  1
AMDTFORMULAUPDATEDISPATCHER
  2
AmdtFormulaUpdateDispatcher
  3
AcMeServices
 90
        0
280
     0
281
     0
  0
CLASS
  1
LAYER_INDEX
  2
AcDbLayerIndex
  3
AutoCAD 2000
 90
        0
280
     0
281
     0
  0
CLASS
  1
IDBUFFER
  2
AcDbIdBuffer
  3
AutoCAD 2000
 90
        0
280
     0
281
     0
  0
CLASS
  1
DICTIONARYVAR
  2
AcDbDictionaryVar
  3
AutoCAD 2000
 90
        0
280
     0
281
     0
  0
CLASS
  1
DIMASSOC
  2
AcDbDimAssoc
  3
"AcDbDimAssoc|Product Desc:     AcDim ARX App For Dimension|Company:          Autodesk, Inc.|WEB Address:      www.autodesk.com"
 90
        0
280
     0
281
     0
  0
CLASS
  1
ACMDIMBREAKPERSREACTOR
  2
AcmDimBreakPersReactor
  3
amgDimApp().moduleName()
 90
     1023
280
     0
281
     0
  0
CLASS
  1
ACMSURFSYM
  2
AcmSurfaceTexture
  3
"AcmSymBB|Product Description: AutoCAD Mechanical 2000|Company: Autodesk"
 90
     1023
280
     0
281
     1
  0
CLASS
  1
ACMFCFRAME
  2
AcmFCF
  3
"AcmSymBB|Product Description: AutoCAD Mechanical 2000|Company: Autodesk"
 90
     1023
280
     0
281
     1
  0
CLASS
  1
LONG_TRANSACTION
  2
AcDbLongTransaction
  3
AutoCAD 2000
 90
        0
280
     0
281
     0
  0
CLASS
  1
LWPOLYLINE
  2
AcDbPolyline
  3
AutoCAD 2000
 90
        0
280
     0
281
     1
  0
CLASS
  1
HATCH
  2
AcDbHatch
  3
AutoCAD 2000
 90
        0
280
     0
281
     1
  0
CLASS
  1
XRECORD
  2
AcDbXrecord
  3
AutoCAD 2000
 90
        0
280
     0
281
     0
  0
ENDSEC
  0
SECTION
  2
TABLES
  0
TABLE
  2
VPORT
  5
8
330
0
100
AcDbSymbolTable
 70
    61
  0
VPORT
  5
5453
330
8
100
AcDbSymbolTableRecord
100
AcDbViewportTableRecord
  2
*ACTIVE
 70
     0
 10
0.0
 20
0.0
 11
1.0
 21
1.0
 12
155.9951406433988
 22
65.98576804486203
 13
0.0
 23
0.0
 14
2.5
 24
2.5
 15
10.0
 25
10.0
 16
0.0
 26
0.0
 36
1.0
 17
0.0
 27
0.0
 37
0.0
 40
467.2197949654475
 41
1.72607879924953
 42
50.0
 43
0.0
 44
0.0
 50
0.0
 51
0.0
 71
     0
 72
 10000
 73
     1
 74
     3
 75
     0
 76
     0
 77
     0
 78
     0
  0
ENDTAB
  0
TABLE
  2
LTYPE
  5
5
330
0
100
AcDbSymbolTable
 70
    16
  0
LTYPE
  5
14
330
5
100
AcDbSymbolTableRecord
100
AcDbLinetypeTableRecord
  2
BYBLOCK
 70
     0
  3

 72
    65
 73
     0
 40
0.0
  0
LTYPE
  5
15
330
5
100
AcDbSymbolTableRecord
100
AcDbLinetypeTableRecord
  2
BYLAYER
 70
     0
  3

 72
    65
 73
     0
 40
0.0
  0
LTYPE
  5
16
330
5
100
AcDbSymbolTableRecord
100
AcDbLinetypeTableRecord
  2
CONTINUOUS
 70
     0
  3
Solid line
 72
    65
 73
     0
 40
0.0
  0
LTYPE
  5
50
330
5
100
AcDbSymbolTableRecord
100
AcDbLinetypeTableRecord
  2
AMCONSTR
 70
     0
  3
_______________________
 72
    65
 73
     2
 40
9999.0
 49
9999.0
 74
     0
 49
0.0
 74
     0
  0
LTYPE
  5
55
330
5
100
AcDbSymbolTableRecord
100
AcDbLinetypeTableRecord
  2
AMZIGZAG
 70
     0
  3
/\/-/\/-/\/-/\/-/\/-/\/
 72
    65
 73
     2
 40
11.00009999999999
 49
0.0001
 74
     4
 75
   135
340
54
 46
0.04
 50
0.0
 44
0.0
 45
0.0
 49
-11.0
 74
     0
  0
LTYPE
  5
56
330
5
100
AcDbSymbolTableRecord
100
AcDbLinetypeTableRecord
  2
AM_DIN_F_W050
 70
     0
  3
__ __ __ __ __ __ __ __ __ __ __ __ __ __ __
 72
    65
 73
     2
 40
6.25
 49
4.75
 74
     0
 49
-1.5
 74
     0
  0
LTYPE
  5
57
330
5
100
AcDbSymbolTableRecord
100
AcDbLinetypeTableRecord
  2
AM_DIN_G_W050
 70
     0
  3
____ . ____ . ____ . ____ . ____ . ____ . ____
 72
    65
 73
     4
 40
13.75
 49
9.75
 74
     0
 49
-1.5
 74
     0
 49
1.0
 74
     0
 49
-1.5
 74
     0
  0
LTYPE
  5
58
330
5
100
AcDbSymbolTableRecord
100
AcDbLinetypeTableRecord
  2
AM_DIN_K_W050
 70
     0
  3
_____ . . _____ . . _____ . . ____ .. ____
 72
    65
 73
     6
 40
16.25
 49
9.75
 74
     0
 49
-1.5
 74
     0
 49
1.0
 74
     0
 49
-1.5
 74
     0
 49
1.0
 74
     0
 49
-1.5
 74
     0
  0
LTYPE
  5
59
330
5
100
AcDbSymbolTableRecord
100
AcDbLinetypeTableRecord
  2
AM_DIN_G_W050X2
 70
     0
  3
__ . __ . __ . __ . __ . __
 72
    65
 73
     4
 40
6.875
 49
4.75
 74
     0
 49
-0.875
 74
     0
 49
0.375
 74
     0
 49
-0.875
 74
     0
  0
LTYPE
  5
5A
330
5
100
AcDbSymbolTableRecord
100
AcDbLinetypeTableRecord
  2
AM_DIN_F_W050X2
 70
     0
  3
 _ _ _ _ _ _ _ _ _ _ _ _
 72
    65
 73
     2
 40
3.125
 49
2.25
 74
     0
 49
-0.875
 74
     0
  0
LTYPE
  5
68
330
5
100
AcDbSymbolTableRecord
100
AcDbLinetypeTableRecord
  2
ACDINWELD
 70
     0
  3
_ _ _ _ _
 72
    65
 73
     2
 40
2.0
 49
2.0
 74
     0
 49
-1.0
 74
     0
  0
LTYPE
  5
69
330
5
100
AcDbSymbolTableRecord
100
AcDbLinetypeTableRecord
  2
ACDINTGB
 70
     0
  3
__ . . __ . .
 72
    65
 73
     6
 40
9.0
 49
4.0
 74
     0
 49
-1.0
 74
     0
 49
1.0
 74
     0
 49
-1.0
 74
     0
 49
1.0
 74
     0
 49
-1.0
 74
     0
  0
LTYPE
  5
6A
330
5
100
AcDbSymbolTableRecord
100
AcDbLinetypeTableRecord
  2
ACDINTGL
 70
     0
  3
_ _ _ _ _
 72
    65
 73
     2
 40
3.0
 49
2.0
 74
     0
 49
-1.0
 74
     0
  0
LTYPE
  5
6C
330
5
100
AcDbSymbolTableRecord
100
AcDbLinetypeTableRecord
  2
CENTER
 70
     0
  3
__ . __
 72
    65
 73
     4
 40
7.0
 49
4.0
 74
     0
 49
-1.0
 74
     0
 49
1.0
 74
     0
 49
-1.0
 74
     0
  0
LTYPE
  5
1E2C
330
5
100
AcDbSymbolTableRecord
100
AcDbLinetypeTableRecord
  2
PHANTOM2
 70
     0
  3
Phantom (.5x) ___ _ _ ___ _ _ ___ _ _ ___ _ _
 72
    65
 73
     6
 40
1.25
 49
0.625
 74
     0
 49
-0.125
 74
     0
 49
0.125
 74
     0
 49
-0.125
 74
     0
 49
0.125
 74
     0
 49
-0.125
 74
     0
  0
LTYPE
  5
1E2D
330
5
100
AcDbSymbolTableRecord
100
AcDbLinetypeTableRecord
  2
ACANSTGB
 70
     0
  3
__ . . __ . .
 72
    65
 73
     6
 40
0.35433070866
 49
0.15748031496
 74
     0
 49
-0.03937007874
 74
     0
 49
0.03937007874
 74
     0
 49
-0.03937007874
 74
     0
 49
0.03937007874
 74
     0
 49
-0.03937007874
 74
     0
  0
LTYPE
  5
1E2E
330
5
100
AcDbSymbolTableRecord
100
AcDbLinetypeTableRecord
  2
ACANSTGL
 70
     0
  3
_ _ _ _ _
 72
    65
 73
     2
 40
0.11811023622
 49
0.07874015748
 74
     0
 49
-0.03937007874
 74
     0
  0
LTYPE
  5
1E2F
330
5
100
AcDbSymbolTableRecord
100
AcDbLinetypeTableRecord
  2
DASHED
 70
     0
  3
__ __ __ __ __ __ __ __ __ __ __ __ __ __ __ __
 72
    65
 73
     2
 40
19.05
 49
12.7
 74
     0
 49
-6.349999999999998
 74
     0
  0
ENDTAB
  0
TABLE
  2
LAYER
  5
2
330
0
100
AcDbSymbolTable
 70
    12
  0
LAYER
  5
10
330
2
100
AcDbSymbolTableRecord
100
AcDbLayerTableRecord
  2
0
 70
     0
 62
     7
  6
CONTINUOUS
  0
LAYER
  5
263
330
2
100
AcDbSymbolTableRecord
100
AcDbLayerTableRecord
  2
DEFPOINTS
 70
     0
 62
     7
  6
CONTINUOUS
  0
LAYER
  5
1E30
330
2
100
AcDbSymbolTableRecord
100
AcDbLayerTableRecord
  2
1
 70
     0
 62
     4
  6
CONTINUOUS
  0
LAYER
  5
1E31
330
2
100
AcDbSymbolTableRecord
100
AcDbLayerTableRecord
  2
2
 70
     0
 62
     7
  6
CONTINUOUS
  0
LAYER
  5
1E32
330
2
100
AcDbSymbolTableRecord
100
AcDbLayerTableRecord
  2
4
 70
     0
 62
     2
  6
CENTER
  0
LAYER
  5
1E33
330
2
100
AcDbSymbolTableRecord
100
AcDbLayerTableRecord
  2
6
 70
     0
 62
     5
  6
CONTINUOUS
  0
LAYER
  5
1E34
330
2
100
AcDbSymbolTableRecord
100
AcDbLayerTableRecord
  2
SK1
 70
     0
 62
     4
  6
CONTINUOUS
  0
LAYER
  5
1E35
330
2
100
AcDbSymbolTableRecord
100
AcDbLayerTableRecord
  2
SK2
 70
     0
 62
     7
  6
CONTINUOUS
  0
LAYER
  5
1E36
330
2
100
AcDbSymbolTableRecord
100
AcDbLayerTableRecord
  2
SK3
 70
     0
 62
     1
  6
DASHED
  0
LAYER
  5
1E38
330
2
100
AcDbSymbolTableRecord
100
AcDbLayerTableRecord
  2
NOCUT
 70
     0
 62
     7
  6
CONTINUOUS
  0
LAYER
  5
2E80
330
2
100
AcDbSymbolTableRecord
100
AcDbLayerTableRecord
  2
SK4
 70
     0
 62
     2
  6
CENTER
  0
ENDTAB
  0
TABLE
  2
STYLE
  5
3
330
0
100
AcDbSymbolTable
 70
     6
  0
STYLE
  5
11
330
3
100
AcDbSymbolTableRecord
100
AcDbTextStyleTableRecord
  2
STANDARD
 70
     0
 40
0.0
 41
1.0
 50
0.0
 71
     0
 42
2.5
  3
ISOCP.SHX
  4

  0
STYLE
  5
54
330
3
100
AcDbSymbolTableRecord
100
AcDbTextStyleTableRecord
  2

 70
     1
 40
0.0
 41
1.0
 50
0.0
 71
     0
 42
2.5
  3
ltypeshp.shx
  4

  0
STYLE
  5
5B
330
3
100
AcDbSymbolTableRecord
100
AcDbTextStyleTableRecord
  2
ACDINTS
 70
     0
 40
1.0
 41
1.0
 50
0.0
 71
     0
 42
2.5
  3
isocp.shx
  4

  0
STYLE
  5
67
330
3
100
AcDbSymbolTableRecord
100
AcDbTextStyleTableRecord
  2
ACDINGDT
 70
     0
 40
0.0
 41
1.0
 50
0.0
 71
     0
 42
2.5
  3
amgdt.shx
  4

  0
STYLE
  5
1E39
330
3
100
AcDbSymbolTableRecord
100
AcDbTextStyleTableRecord
  2
ACANSTS
 70
     0
 40
1.0
 41
1.0
 50
0.0
 71
     0
 42
0.2
  3
romans.shx
  4

  0
STYLE
  5
1E3A
330
3
100
AcDbSymbolTableRecord
100
AcDbTextStyleTableRecord
  2
ACANSGDT
 70
     0
 40
0.0
 41
1.0
 50
0.0
 71
     0
 42
0.2
  3
amgdtans.shx
  4

  0
ENDTAB
  0
TABLE
  2
VIEW
  5
6
330
0
100
AcDbSymbolTable
 70
     0
  0
ENDTAB
  0
TABLE
  2
UCS
  5
7
330
0
100
AcDbSymbolTable
 70
     0
  0
ENDTAB
  0
TABLE
  2
APPID
  5
9
330
0
100
AcDbSymbolTable
 70
    67
  0
APPID
  5
12
330
9
100
AcDbSymbolTableRecord
100
AcDbRegAppTableRecord
  2
ACAD
 70
     0
  0
APPID
  5
2C
330
9
100
AcDbSymbolTableRecord
100
AcDbRegAppTableRecord
  2
MCAD_NO_VIS
 70
     0
  0
APPID
  5
2D
330
9
100
AcDbSymbolTableRecord
100
AcDbRegAppTableRecord
  2
ACAD_TEMP_GRAPHIC
 70
     0
  0
APPID
  5
3E
330
9
100
AcDbSymbolTableRecord
100
AcDbRegAppTableRecord
  2
ACATTRIBSERVICES
 70
     0
  0
APPID
  5
29A
330
9
100
AcDbSymbolTableRecord
100
AcDbRegAppTableRecord
  2
GENIUS_GENDIMSH_14
 70
     0
  0
APPID
  5
588
330
9
100
AcDbSymbolTableRecord
100
AcDbRegAppTableRecord
  2
GENIUS12
 70
     0
  0
APPID
  5
589
330
9
100
AcDbSymbolTableRecord
100
AcDbRegAppTableRecord
  2
GENIUS_GENOENT_13
 70
     0
  0
APPID
  5
58A
330
9
100
AcDbSymbolTableRecord
100
AcDbRegAppTableRecord
  2
GENIUS_GENODEF_13
 70
     0
  0
APPID
  5
58B
330
9
100
AcDbSymbolTableRecord
100
AcDbRegAppTableRecord
  2
GENIUS_GENOBJ-N-RSBK_13
 70
     0
  0
APPID
  5
58C
330
9
100
AcDbSymbolTableRecord
100
AcDbRegAppTableRecord
  2
GENIUS_GENOBJ-N-DIM12_13
 70
     0
  0
APPID
  5
58D
330
9
100
AcDbSymbolTableRecord
100
AcDbRegAppTableRecord
  2
GENIUS_GENSCALE_13
 70
     0
  0
APPID
  5
58E
330
9
100
AcDbSymbolTableRecord
100
AcDbRegAppTableRecord
  2
GENIUS_GENCFG_13
 70
     0
  0
APPID
  5
58F
330
9
100
AcDbSymbolTableRecord
100
AcDbRegAppTableRecord
  2
GENIUS_GENCFG0_13
 70
     0
  0
APPID
  5
590
330
9
100
AcDbSymbolTableRecord
100
AcDbRegAppTableRecord
  2
GENIUS_GENCFG1_13
 70
     0
  0
APPID
  5
591
330
9
100
AcDbSymbolTableRecord
100
AcDbRegAppTableRecord
  2
GENIUS_GENCFG2_13
 70
     0
  0
APPID
  5
592
330
9
100
AcDbSymbolTableRecord
100
AcDbRegAppTableRecord
  2
GENIUS_GENCFG3_13
 70
     0
  0
APPID
  5
593
330
9
100
AcDbSymbolTableRecord
100
AcDbRegAppTableRecord
  2
GENIUS_GENCFG4_13
 70
     0
  0
APPID
  5
594
330
9
100
AcDbSymbolTableRecord
100
AcDbRegAppTableRecord
  2
GENIUS_GEVCFG0_13
 70
     0
  0
APPID
  5
595
330
9
100
AcDbSymbolTableRecord
100
AcDbRegAppTableRecord
  2
GENIUS_GENOBJ-F-SUF_13
 70
     0
  0
APPID
  5
596
330
9
100
AcDbSymbolTableRecord
100
AcDbRegAppTableRecord
  2
GENIUS_GEFCFG0_13
 70
     0
  0
APPID
  5
597
330
9
100
AcDbSymbolTableRecord
100
AcDbRegAppTableRecord
  2
GEV_VCCNULL_SWITCH_OFF
 70
     0
  0
APPID
  5
598
330
9
100
AcDbSymbolTableRecord
100
AcDbRegAppTableRecord
  2
GENIUS_GENDTOL_13
 70
     0
  0
APPID
  5
599
330
9
100
AcDbSymbolTableRecord
100
AcDbRegAppTableRecord
  2
GENIUS_GENDIM_13
 70
     0
  0
APPID
  5
59A
330
9
100
AcDbSymbolTableRecord
100
AcDbRegAppTableRecord
  2
GENIUS_GE3DTOL_13
 70
     0
  0
APPID
  5
59B
330
9
100
AcDbSymbolTableRecord
100
AcDbRegAppTableRecord
  2
AD_DRAW
 70
     0
  0
APPID
  5
59C
330
9
100
AcDbSymbolTableRecord
100
AcDbRegAppTableRecord
  2
ASURF_PCURVE_APPNAME
 70
     0
  0
APPID
  5
59D
330
9
100
AcDbSymbolTableRecord
100
AcDbRegAppTableRecord
  2
AMG_3D2D_5_0
 70
     0
  0
APPID
  5
59E
330
9
100
AcDbSymbolTableRecord
100
AcDbRegAppTableRecord
  2
DESIGNERASSEMBLIES
 70
     0
  0
APPID
  5
59F
330
9
100
AcDbSymbolTableRecord
100
AcDbRegAppTableRecord
  2
ACADM_DIM_EDIT
 70
     0
  0
APPID
  5
5A0
330
9
100
AcDbSymbolTableRecord
100
AcDbRegAppTableRecord
  2
AMDT_DM_ADJ
 70
     0
  0
APPID
  5
5A1
330
9
100
AcDbSymbolTableRecord
100
AcDbRegAppTableRecord
  2
GENIUS_GENSCREG_15
 70
     0
  0
APPID
  5
5A2
330
9
100
AcDbSymbolTableRecord
100
AcDbRegAppTableRecord
  2
GENIUS_GENOBJ-N-SDF_13
 70
     0
  0
APPID
  5
6E4
330
9
100
AcDbSymbolTableRecord
100
AcDbRegAppTableRecord
  2
GENIUS_GENOBJ-N-FIL_13
 70
     0
  0
APPID
  5
C65
330
9
100
AcDbSymbolTableRecord
100
AcDbRegAppTableRecord
  2
GENIUS_GENHINW_13
 70
     0
  0
APPID
  5
C66
330
9
100
AcDbSymbolTableRecord
100
AcDbRegAppTableRecord
  2
GENIUS_GENOBJ-F-TOLL_13
 70
     0
  0
APPID
  5
C67
330
9
100
AcDbSymbolTableRecord
100
AcDbRegAppTableRecord
  2
GENIUS_GENOREF_13
 70
     0
  0
APPID
  5
C68
330
9
100
AcDbSymbolTableRecord
100
AcDbRegAppTableRecord
  2
GENIUS_GENOLIS_13
 70
     0
  0
APPID
  5
C69
330
9
100
AcDbSymbolTableRecord
100
AcDbRegAppTableRecord
  2
GENIUS_GEFTOLC_13
 70
     0
  0
APPID
  5
C6A
330
9
100
AcDbSymbolTableRecord
100
AcDbRegAppTableRecord
  2
GENIUS_GENOBJ-F-TOL_13
 70
     0
  0
APPID
  5
C6B
330
9
100
AcDbSymbolTableRecord
100
AcDbRegAppTableRecord
  2
GENIUS_GENOBJ-N-RSSYM_13
 70
     0
  0
APPID
  5
C6C
330
9
100
AcDbSymbolTableRecord
100
AcDbRegAppTableRecord
  2
GENIUS_GENSYMENT_13
 70
     0
  0
APPID
  5
C6D
330
9
100
AcDbSymbolTableRecord
100
AcDbRegAppTableRecord
  2
GENIUS_GENSCSYM_13
 70
     0
  0
APPID
  5
1E42
330
9
100
AcDbSymbolTableRecord
100
AcDbRegAppTableRecord
  2
GENIUS_GENBLLY_14
 70
     0
  0
APPID
  5
1E43
330
9
100
AcDbSymbolTableRecord
100
AcDbRegAppTableRecord
  2
GENIUS_GENTRA_14
 70
     0
  0
APPID
  5
1E44
330
9
100
AcDbSymbolTableRecord
100
AcDbRegAppTableRecord
  2
GENIUS_GENOBJ-N-TIT_13
 70
     0
  0
APPID
  5
1E45
330
9
100
AcDbSymbolTableRecord
100
AcDbRegAppTableRecord
  2
GENIUS_GENTITLE_13
 70
     0
  0
APPID
  5
1E46
330
9
100
AcDbSymbolTableRecord
100
AcDbRegAppTableRecord
  2
ACADIGES
 70
     0
  0
APPID
  5
1E47
330
9
100
AcDbSymbolTableRecord
100
AcDbRegAppTableRecord
  2
GENIUS_GENOBJ-N-HTC_13
 70
     0
  0
APPID
  5
1E48
330
9
100
AcDbSymbolTableRecord
100
AcDbRegAppTableRecord
  2
GENIUS_GENHATCH_13
 70
     0
  0
APPID
  5
1E49
330
9
100
AcDbSymbolTableRecord
100
AcDbRegAppTableRecord
  2
GENIUS_GENOBJ-N-CRS_13
 70
     0
  0
APPID
  5
1E4A
330
9
100
AcDbSymbolTableRecord
100
AcDbRegAppTableRecord
  2
GENIUS_GENFIL_13
 70
     0
  0
APPID
  5
1E4B
330
9
100
AcDbSymbolTableRecord
100
AcDbRegAppTableRecord
  2
GENIUS_GENOBJ-N-CHA_13
 70
     0
  0
APPID
  5
1E4C
330
9
100
AcDbSymbolTableRecord
100
AcDbRegAppTableRecord
  2
GENIUS_GENOBJ-N-CEN_13
 70
     0
  0
APPID
  5
28E0
330
9
100
AcDbSymbolTableRecord
100
AcDbRegAppTableRecord
  2
AD_SKETCHDIM
 70
     0
  0
APPID
  5
2B2E
330
9
100
AcDbSymbolTableRecord
100
AcDbRegAppTableRecord
  2
GENIUS_FIRSTVISTXT_14
 70
     0
  0
APPID
  5
2B2F
330
9
100
AcDbSymbolTableRecord
100
AcDbRegAppTableRecord
  2
GENIUS_SECONDVISTXT_14
 70
     0
  0
APPID
  5
2B30
330
9
100
AcDbSymbolTableRecord
100
AcDbRegAppTableRecord
  2
GENIUS_GENOBJ-N-HINW_13
 70
     0
  0
APPID
  5
2B31
330
9
100
AcDbSymbolTableRecord
100
AcDbRegAppTableRecord
  2
GENIUS_GENOBJ-N-PAL_13
 70
     0
  0
APPID
  5
2B32
330
9
100
AcDbSymbolTableRecord
100
AcDbRegAppTableRecord
  2
GENIUS_GENPAL_13
 70
     0
  0
APPID
  5
2B33
330
9
100
AcDbSymbolTableRecord
100
AcDbRegAppTableRecord
  2
GENIUS_GENSCREG_13
 70
     0
  0
APPID
  5
2B34
330
9
100
AcDbSymbolTableRecord
100
AcDbRegAppTableRecord
  2
GENIUS_GE3CFG0_13
 70
     0
  0
APPID
  5
2B35
330
9
100
AcDbSymbolTableRecord
100
AcDbRegAppTableRecord
  2
GENIUS_GENOBJ-F-EDG_13
 70
     0
  0
APPID
  5
2B36
330
9
100
AcDbSymbolTableRecord
100
AcDbRegAppTableRecord
  2
GENIUS_GENOBJ-F-TOLT_13
 70
     0
  0
APPID
  5
2B37
330
9
100
AcDbSymbolTableRecord
100
AcDbRegAppTableRecord
  2
GENIUS_GENZVEED_13
 70
     0
  0
APPID
  5
2B38
330
9
100
AcDbSymbolTableRecord
100
AcDbRegAppTableRecord
  2
GENIUS_GENREC_14
 70
     0
  0
APPID
  5
2B39
330
9
100
AcDbSymbolTableRecord
100
AcDbRegAppTableRecord
  2
GENIUS_GENOBJ-N-REC_13
 70
     0
  0
APPID
  5
2B3A
330
9
100
AcDbSymbolTableRecord
100
AcDbRegAppTableRecord
  2
GENIUS_DUMCFG0_13
 70
     0
  0
ENDTAB
  0
TABLE
  2
DIMSTYLE
  5
A
330
0
100
AcDbSymbolTable
 70
    14
  0
DIMSTYLE
105
6F
102
{ACAD_REACTORS
330
515A
330
5183
330
51B5
330
51E6
330
5220
330
525A
330
541F
102
}
330
A
100
AcDbSymbolTableRecord
100
AcDbDimStyleTableRecord
  2
AM_DIN
 70
     0
  3

  4
"
  5

  6

  7

 40
1.0
 41
2.5
 42
0.0
 43
10.0
 44
1.0
 45
0.0
 46
0.0
 47
0.1
 48
0.1
140
3.5
141
0.0
142
0.0
143
0.0393701
144
1.0
145
0.0
146
0.71
147
1.5
 71
     0
 72
     0
 73
     0
 74
     0
 75
     0
 76
     0
 77
     1
 78
     8
170
     0
171
     2
172
     1
173
     0
174
     0
175
     0
176
   256
177
   256
178
     2
270
     2
271
     2
272
     2
273
     2
274
     2
340
11
275
     0
280
     0
281
     0
282
     0
283
     0
284
     8
285
     0
286
     0
287
     3
288
     0
  0
DIMSTYLE
105
70
330
A
100
AcDbSymbolTableRecord
100
AcDbDimStyleTableRecord
  2
AM_DIN$3
 70
     0
  3

  4
"
  5

  6

  7

 40
1.0
 41
3.5
 42
0.0
 43
10.0
 44
1.0
 45
0.0
 46
0.0
 47
0.1
 48
0.1
140
3.5
141
0.0
142
0.0
143
0.0393701
144
1.0
145
0.0
146
0.71
147
1.5
 71
     0
 72
     0
 73
     0
 74
     1
 75
     0
 76
     0
 77
     1
 78
     8
170
     0
171
     2
172
     0
173
     0
174
     0
175
     0
176
   256
177
   256
178
     2
270
     2
271
     2
272
     2
273
     2
274
     2
340
11
275
     0
280
     0
281
     0
282
     0
283
     0
284
     8
285
     0
286
     0
287
     0
288
     1
  0
DIMSTYLE
105
71
330
A
100
AcDbSymbolTableRecord
100
AcDbDimStyleTableRecord
  2
AM_DIN$4
 70
     0
  3

  4
"
  5

  6

  7

 40
1.0
 41
3.5
 42
0.0
 43
10.0
 44
1.0
 45
0.0
 46
0.0
 47
0.1
 48
0.1
140
3.5
141
0.0
142
0.0
143
0.0393701
144
1.0
145
0.0
146
0.71
147
1.5
 71
     0
 72
     0
 73
     0
 74
     1
 75
     0
 76
     0
 77
     1
 78
     8
170
     0
171
     2
172
     0
173
     0
174
     0
175
     0
176
   256
177
   256
178
     2
270
     2
271
     2
272
     2
273
     2
274
     2
340
11
275
     0
280
     0
281
     0
282
     0
283
     0
284
     8
285
     0
286
     0
287
     0
288
     1
  0
DIMSTYLE
105
72
330
A
100
AcDbSymbolTableRecord
100
AcDbDimStyleTableRecord
  2
AM_DIN$6
 70
     0
  3

  4
"
  5

  6

  7

 40
1.0
 41
3.5
 42
0.0
 43
0.0
 44
1.0
 45
0.0
 46
0.0
 47
0.1
 48
0.1
140
3.5
141
0.0
142
0.0
143
0.0393701
144
1.0
145
0.0
146
0.71
147
1.5
 71
     0
 72
     0
 73
     0
 74
     0
 75
     0
 76
     0
 77
     0
 78
     8
170
     0
171
     2
172
     1
173
     0
174
     0
175
     0
176
   256
177
   256
178
     2
270
     2
271
     2
272
     2
273
     2
274
     2
340
11
275
     0
280
     0
281
     0
282
     0
283
     0
284
     8
285
     0
286
     0
287
     3
288
     0
  0
DIMSTYLE
105
73
330
A
100
AcDbSymbolTableRecord
100
AcDbDimStyleTableRecord
  2
AM_DIN$7
 70
     0
  3

  4
"
  5

  6

  7

 40
1.0
 41
3.5
 42
0.0
 43
10.0
 44
1.0
 45
0.0
 46
0.0
 47
0.1
 48
0.1
140
3.5
141
0.0
142
0.0
143
0.0393701
144
1.0
145
0.0
146
0.71
147
1.5
 71
     0
 72
     0
 73
     0
 74
     0
 75
     0
 76
     0
 77
     1
 78
     8
170
     0
171
     2
172
     1
173
     0
174
     0
175
     0
176
   256
177
   256
178
     2
270
     2
271
     2
272
     2
273
     2
274
     2
340
11
275
     0
280
     0
281
     0
282
     0
283
     0
284
     8
285
     0
286
     0
287
     3
288
     0
  0
DIMSTYLE
105
74
330
A
100
AcDbSymbolTableRecord
100
AcDbDimStyleTableRecord
  2
AM_DIN$SF
 70
     0
  3

  4
"
  5

  6

  7

 40
1.0
 41
2.5
 42
1.0
 43
10.0
 44
1.0
 45
0.0
 46
0.0
 47
0.1
 48
0.1
140
3.5
141
0.0
142
0.0
143
0.0393701
144
1.0
145
0.0
146
0.71
147
1.5
 71
     0
 72
     0
 73
     0
 74
     0
 75
     1
 76
     1
 77
     1
 78
     8
170
     0
171
     2
172
     1
173
     0
174
     0
175
     0
176
   256
177
   256
178
     2
270
     2
271
     2
272
     3
273
     2
274
     4
340
11
275
     0
280
     0
281
     0
282
     0
283
     0
284
     8
285
     0
286
     0
287
     3
288
     0
  0
DIMSTYLE
105
79
330
A
100
AcDbSymbolTableRecord
100
AcDbDimStyleTableRecord
  2
AM_DIN$SH
 70
     0
  3

  4
"
  5

  6
GENAXEH
  7

 40
1.0
 41
2.5
 42
1.0
 43
10.0
 44
1.0
 45
0.0
 46
0.0
 47
0.1
 48
0.1
140
3.5
141
0.0
142
0.0
143
0.0393701
144
2.0
145
0.0
146
0.71
147
1.5
 71
     0
 72
     0
 73
     0
 74
     0
 75
     1
 76
     1
 77
     1
 78
     8
170
     0
171
     2
172
     1
173
     1
174
     0
175
     0
176
   256
177
   256
178
     2
270
     2
271
     2
272
     3
273
     2
274
     4
340
11
275
     0
280
     0
281
     0
282
     0
283
     0
284
     8
285
     0
286
     0
287
     3
288
     0
  0
DIMSTYLE
105
1E3B
330
A
100
AcDbSymbolTableRecord
100
AcDbDimStyleTableRecord
  2
STANDARD
 70
     0
  3

  4

  5

  6

  7

 40
1.0
 41
0.18
 42
0.0625
 43
0.38
 44
0.18
 45
0.0
 46
0.0
 47
0.0
 48
0.0
140
0.18
141
0.09
142
0.0
143
25.4
144
1.0
145
0.0
146
1.0
147
0.09
 71
     0
 72
     0
 73
     1
 74
     1
 75
     0
 76
     0
 77
     0
 78
     0
170
     0
171
     2
172
     0
173
     0
174
     0
175
     0
176
     0
177
     0
178
     0
270
     2
271
     2
272
     2
273
     2
274
     2
340
11
275
     0
280
     0
281
     0
282
     0
283
     1
284
     8
285
     8
286
     8
287
     5
288
     0
  0
DIMSTYLE
105
1E3C
330
A
100
AcDbSymbolTableRecord
100
AcDbDimStyleTableRecord
  2
AM_ANSI
 70
     0
  3

  4
mm
  5

  6

  7

 40
1.0
 41
0.1
 42
0.0
 43
0.5
 44
0.1
 45
0.0
 46
0.0
 47
0.1
 48
0.1
140
0.12
141
0.0
142
0.0
143
25.4
144
1.0
145
0.0
146
0.71
147
0.06
 71
     0
 72
     0
 73
     1
 74
     1
 75
     0
 76
     0
 77
     0
 78
     7
170
     0
171
     2
172
     0
173
     0
174
     0
175
     0
176
   256
177
   256
178
     2
270
     2
271
     2
272
     2
273
     2
274
     2
340
11
275
     0
280
     0
281
     0
282
     0
283
     1
284
     8
285
     8
286
     8
287
     5
288
     0
  0
DIMSTYLE
105
1E3D
330
A
100
AcDbSymbolTableRecord
100
AcDbDimStyleTableRecord
  2
AM_ANSI$3
 70
     0
  3

  4
mm
  5

  6

  7

 40
1.0
 41
0.1
 42
0.0
 43
0.5
 44
0.1
 45
0.0
 46
0.0
 47
0.1
 48
0.1
140
0.12
141
0.0
142
0.0
143
25.4
144
1.0
145
0.0
146
0.71
147
0.06
 71
     0
 72
     0
 73
     1
 74
     1
 75
     0
 76
     0
 77
     0
 78
     7
170
     0
171
     2
172
     0
173
     0
174
     0
175
     0
176
   256
177
   256
178
     2
270
     2
271
     2
272
     2
273
     2
274
     2
340
11
275
     0
280
     0
281
     0
282
     0
283
     1
284
     8
285
     8
286
     8
287
     5
288
     0
  0
DIMSTYLE
105
1E3E
330
A
100
AcDbSymbolTableRecord
100
AcDbDimStyleTableRecord
  2
AM_ANSI$4
 70
     0
  3

  4
mm
  5

  6

  7

 40
1.0
 41
0.1
 42
0.0
 43
0.5
 44
0.1
 45
0.0
 46
0.0
 47
0.1
 48
0.1
140
0.12
141
0.0
142
0.0
143
25.4
144
1.0
145
0.0
146
0.71
147
0.06
 71
     0
 72
     0
 73
     1
 74
     1
 75
     0
 76
     0
 77
     0
 78
     7
170
     0
171
     2
172
     0
173
     0
174
     0
175
     0
176
   256
177
   256
178
     2
270
     2
271
     2
272
     2
273
     2
274
     2
340
11
275
     0
280
     0
281
     0
282
     0
283
     1
284
     8
285
     8
286
     8
287
     5
288
     0
  0
DIMSTYLE
105
1E3F
330
A
100
AcDbSymbolTableRecord
100
AcDbDimStyleTableRecord
  2
AM_ANSI$7
 70
     0
  3

  4
mm
  5

  6

  7

 40
1.0
 41
0.1
 42
0.0
 43
0.5
 44
0.1
 45
0.0
 46
0.0
 47
0.1
 48
0.1
140
0.24
141
0.0
142
0.0
143
25.4
144
1.0
145
0.0
146
0.71
147
0.06
 71
     0
 72
     0
 73
     1
 74
     1
 75
     0
 76
     0
 77
     0
 78
     7
170
     0
171
     2
172
     0
173
     0
174
     0
175
     0
176
   256
177
   256
178
     2
270
     2
271
     2
272
     2
273
     2
274
     2
340
11
275
     0
280
     0
281
     0
282
     0
283
     1
284
     8
285
     8
286
     8
287
     5
288
     0
  0
DIMSTYLE
105
1E40
330
A
100
AcDbSymbolTableRecord
100
AcDbDimStyleTableRecord
  2
AM_ANSI$SF
 70
     0
  3

  4
mm
  5

  6

  7

 40
1.0
 41
0.1
 42
0.05
 43
0.5
 44
0.1
 45
0.0
 46
0.0
 47
0.1
 48
0.1
140
0.12
141
0.0
142
0.0
143
25.4
144
1.0
145
0.0
146
0.71
147
0.06
 71
     0
 72
     0
 73
     1
 74
     1
 75
     1
 76
     1
 77
     0
 78
     7
170
     0
171
     2
172
     0
173
     0
174
     0
175
     0
176
   256
177
   256
178
     2
270
     2
271
     2
272
     2
273
     2
274
     2
340
11
275
     0
280
     0
281
     0
282
     0
283
     1
284
     8
285
     8
286
     8
287
     5
288
     0
  0
DIMSTYLE
105
1E41
330
A
100
AcDbSymbolTableRecord
100
AcDbDimStyleTableRecord
  2
AM_ANSI$SH
 70
     0
  3

  4
mm
  5

  6

  7

 40
1.0
 41
0.1
 42
0.05
 43
0.5
 44
0.1
 45
0.0
 46
0.0
 47
0.1
 48
0.1
140
0.12
141
0.0
142
0.0
143
25.4
144
1.0
145
0.0
146
0.71
147
0.06
 71
     0
 72
     0
 73
     1
 74
     1
 75
     1
 76
     1
 77
     0
 78
     7
170
     0
171
     2
172
     0
173
     1
174
     0
175
     0
176
   256
177
   256
178
     2
270
     2
271
     2
272
     2
273
     2
274
     2
340
11
275
     0
280
     0
281
     0
282
     0
283
     1
284
     8
285
     8
286
     8
287
     5
288
     0
  0
ENDTAB
  0
TABLE
  2
BLOCK_RECORD
  5
1
330
0
100
AcDbSymbolTable
 70
     9
  0
BLOCK_RECORD
  5
1F
102
{ACAD_XDICTIONARY
360
1F1
102
}
330
1
100
AcDbSymbolTableRecord
100
AcDbBlockTableRecord
  2
*MODEL_SPACE
  0
BLOCK_RECORD
  5
1B
102
{ACAD_XDICTIONARY
360
5475
102
}
330
1
100
AcDbSymbolTableRecord
100
AcDbBlockTableRecord
  2
*PAPER_SPACE
  0
BLOCK_RECORD
  5
75
330
1
100
AcDbSymbolTableRecord
100
AcDbBlockTableRecord
  2
GENAXEH
  0
BLOCK_RECORD
  5
515B
330
1
100
AcDbSymbolTableRecord
100
AcDbBlockTableRecord
  2
*D2
  0
BLOCK_RECORD
  5
5184
330
1
100
AcDbSymbolTableRecord
100
AcDbBlockTableRecord
  2
*D3
  0
BLOCK_RECORD
  5
51B6
330
1
100
AcDbSymbolTableRecord
100
AcDbBlockTableRecord
  2
*D4
  0
BLOCK_RECORD
  5
51E7
330
1
100
AcDbSymbolTableRecord
100
AcDbBlockTableRecord
  2
*D5
  0
BLOCK_RECORD
  5
5221
330
1
100
AcDbSymbolTableRecord
100
AcDbBlockTableRecord
  2
*D6
  0
BLOCK_RECORD
  5
525B
330
1
100
AcDbSymbolTableRecord
100
AcDbBlockTableRecord
  2
*D7
  0
BLOCK_RECORD
  5
5420
330
1
100
AcDbSymbolTableRecord
100
AcDbBlockTableRecord
  2
*D8
  0
ENDTAB
  0
ENDSEC
  0
SECTION
  2
BLOCKS
  0
BLOCK
  5
20
330
1F
100
AcDbEntity
  8
0
100
AcDbBlockBegin
  2
*MODEL_SPACE
 70
     0
 10
0.0
 20
0.0
 30
0.0
  3
*MODEL_SPACE
  1

  0
ENDBLK
  5
21
330
1F
100
AcDbEntity
  8
0
100
AcDbBlockEnd
  0
BLOCK
  5
1C
330
1B
100
AcDbEntity
 67
     1
  8
0
100
AcDbBlockBegin
  2
*PAPER_SPACE
 70
     0
 10
0.0
 20
0.0
 30
0.0
  3
*PAPER_SPACE
  1

  0
ENDBLK
  5
1D
330
1B
100
AcDbEntity
 67
     1
  8
0
100
AcDbBlockEnd
  0
BLOCK
  5
77
330
75
100
AcDbEntity
  8
0
100
AcDbBlockBegin
  2
GENAXEH
 70
     0
 10
0.0
 20
0.0
 30
0.0
  3
GENAXEH
  1

  0
LINE
  5
76
330
75
100
AcDbEntity
  8
0
100
AcDbLine
 10
-1.0
 20
0.0
 30
0.0
 11
1.0
 21
0.0
 31
0.0
  0
ENDBLK
  5
78
330
75
100
AcDbEntity
  8
0
100
AcDbBlockEnd
  0
BLOCK
  5
5165
330
515B
100
AcDbEntity
  8
0
100
AcDbBlockBegin
  2
*D2
 70
     1
 10
0.0
 20
0.0
 30
0.0
  3
*D2
  1

  0
LINE
  5
53F0
330
515B
100
AcDbEntity
  8
2
100
AcDbLine
 10
80.0000000000009
 20
157.5000000000043
 30
0.0
 11
80.0000000000009
 21
211.0
 31
0.0
  0
LINE
  5
53F1
330
515B
100
AcDbEntity
  8
2
100
AcDbLine
 10
0.0000000000008527
 20
112.5000000000043
 30
0.0
 11
0.0000000000008587
 21
211.0
 31
0.0
  0
LINE
  5
53F2
330
515B
100
AcDbEntity
  8
2
100
AcDbLine
 10
77.50000000000091
 20
210.0
 30
0.0
 11
2.500000000000858
 21
210.0
 31
0.0
  0
SOLID
  5
53F3
330
515B
100
AcDbEntity
  8
2
100
AcDbTrace
 10
77.50000000000091
 20
210.4166666666666
 30
0.0
 11
77.50000000000091
 21
209.5833333333333
 31
0.0
 12
80.0000000000009
 22
210.0
 32
0.0
 13
80.0000000000009
 23
210.0
 33
0.0
  0
SOLID
  5
53F4
330
515B
100
AcDbEntity
  8
2
100
AcDbTrace
 10
2.500000000000858
 20
210.4166666666666
 30
0.0
 11
2.500000000000858
 21
209.5833333333333
 31
0.0
 12
0.0000000000008586
 22
210.0
 32
0.0
 13
0.0000000000008586
 23
210.0
 33
0.0
  0
MTEXT
  5
53F5
330
515B
100
AcDbEntity
  8
2
 62
     2
100
AcDbMText
 10
40.00000000000087
 20
213.2499999999999
 30
0.0
 40
3.5
 41
0.0
 71
     5
 72
     1
  1
80
1001
ACAD
1000
MTEXTBEGIN
1070
    73
1070
     1
1070
    44
1040
1.0
1070
    74
1070
     0
1000
MTEXTEND
  0
POINT
  5
53F6
330
515B
100
AcDbEntity
  8
DEFPOINTS
 62
     0
100
AcDbPoint
 10
80.0000000000009
 20
157.5000000000043
 30
0.0
  0
POINT
  5
53F7
330
515B
100
AcDbEntity
  8
DEFPOINTS
 62
     0
100
AcDbPoint
 10
0.0000000000008527
 20
112.5000000000043
 30
0.0
  0
POINT
  5
53F8
330
515B
100
AcDbEntity
  8
DEFPOINTS
 62
     0
100
AcDbPoint
 10
0.0000000000008586
 20
210.0
 30
0.0
  0
ENDBLK
  5
5166
330
515B
100
AcDbEntity
  8
0
100
AcDbBlockEnd
  0
BLOCK
  5
518E
330
5184
100
AcDbEntity
  8
0
100
AcDbBlockBegin
  2
*D3
 70
     1
 10
0.0
 20
0.0
 30
0.0
  3
*D3
  1

  0
LINE
  5
5378
330
5184
100
AcDbEntity
  8
2
100
AcDbLine
 10
80.0000000000009
 20
157.5000000000043
 30
0.0
 11
141.2799964886831
 21
157.5000000000043
 31
0.0
  0
LINE
  5
5379
330
5184
100
AcDbEntity
  8
2
100
AcDbLine
 10
80.0000000000009
 20
-157.5000000000043
 30
0.0
 11
141.2799964886831
 21
-157.5000000000043
 31
0.0
  0
LINE
  5
537A
330
5184
100
AcDbEntity
  8
2
100
AcDbLine
 10
140.2799964886831
 20
155.0000000000043
 30
0.0
 11
140.2799964886831
 21
-155.0000000000043
 31
0.0
  0
SOLID
  5
537B
330
5184
100
AcDbEntity
  8
2
100
AcDbTrace
 10
139.8633298220165
 20
155.0000000000043
 30
0.0
 11
140.6966631553498
 21
155.0000000000043
 31
0.0
 12
140.2799964886831
 22
157.5000000000043
 32
0.0
 13
140.2799964886831
 23
157.5000000000043
 33
0.0
  0
SOLID
  5
537C
330
5184
100
AcDbEntity
  8
2
100
AcDbTrace
 10
139.8633298220164
 20
-155.0000000000043
 30
0.0
 11
140.6966631553497
 21
-155.0000000000043
 31
0.0
 12
140.2799964886831
 22
-157.5000000000043
 32
0.0
 13
140.2799964886831
 23
-157.5000000000043
 33
0.0
  0
MTEXT
  5
537D
330
5184
100
AcDbEntity
  8
2
 62
     2
100
AcDbMText
 10
137.0299964886831
 20
0.0000000000000202
 30
0.0
 40
3.5
 41
0.0
 71
     5
 72
     1
  1
%%c315
 11
0.0000000000000001
 21
1.0
 31
0.0
1001
ACAD
1000
MTEXTBEGIN
1070
    73
1070
     1
1070
    44
1040
1.0
1070
    74
1070
     0
1000
MTEXTEND
  0
POINT
  5
537E
330
5184
100
AcDbEntity
  8
DEFPOINTS
 62
     0
100
AcDbPoint
 10
80.0000000000009
 20
157.5000000000043
 30
0.0
  0
POINT
  5
537F
330
5184
100
AcDbEntity
  8
DEFPOINTS
 62
     0
100
AcDbPoint
 10
80.0000000000009
 20
-157.5000000000043
 30
0.0
  0
POINT
  5
5380
330
5184
100
AcDbEntity
  8
DEFPOINTS
 62
     0
100
AcDbPoint
 10
140.2799964886831
 20
-157.5000000000043
 30
0.0
  0
ENDBLK
  5
518F
330
5184
100
AcDbEntity
  8
0
100
AcDbBlockEnd
  0
BLOCK
  5
51C0
330
51B6
100
AcDbEntity
  8
0
100
AcDbBlockBegin
  2
*D4
 70
     1
 10
0.0
 20
0.0
 30
0.0
  3
*D4
  1

  0
LINE
  5
539C
330
51B6
100
AcDbEntity
  8
SK2
100
AcDbLine
 10
0.0000000000002274
 20
30.0000000000017
 30
0.0
 11
-25.98741628047029
 21
30.00000000000171
 31
0.0
  0
LINE
  5
539D
330
51B6
100
AcDbEntity
  8
SK2
100
AcDbLine
 10
-0.0000000000002842
 20
-30.00000000000437
 30
0.0
 11
-25.98741628047031
 21
-30.00000000000436
 31
0.0
  0
LINE
  5
539E
330
51B6
100
AcDbEntity
  8
SK2
100
AcDbLine
 10
-24.9874162804703
 20
27.50000000000171
 30
0.0
 11
-24.98741628047031
 21
-27.50000000000436
 31
0.0
  0
SOLID
  5
539F
330
51B6
100
AcDbEntity
  8
SK2
100
AcDbTrace
 10
-25.40408294713696
 20
27.50000000000171
 30
0.0
 11
-24.57074961380363
 21
27.50000000000171
 31
0.0
 12
-24.9874162804703
 22
30.00000000000171
 32
0.0
 13
-24.9874162804703
 23
30.00000000000171
 33
0.0
  0
SOLID
  5
53A0
330
51B6
100
AcDbEntity
  8
SK2
100
AcDbTrace
 10
-25.40408294713698
 20
-27.50000000000436
 30
0.0
 11
-24.57074961380364
 21
-27.50000000000436
 31
0.0
 12
-24.98741628047031
 22
-30.00000000000436
 32
0.0
 13
-24.98741628047031
 23
-30.00000000000436
 33
0.0
  0
MTEXT
  5
53A1
330
51B6
100
AcDbEntity
  8
SK2
 62
     2
100
AcDbMText
 10
-28.2374162804703
 20
-0.0000000000013339
 30
0.0
 40
3.5
 41
0.0
 71
     5
 72
     1
  1
%%c60
 11
0.0000000000000001
 21
1.0
 31
0.0
1001
ACAD
1000
MTEXTBEGIN
1070
    73
1070
     1
1070
    44
1040
1.0
1070
    74
1070
     0
1000
MTEXTEND
  0
POINT
  5
53A2
330
51B6
100
AcDbEntity
  8
DEFPOINTS
 62
     0
100
AcDbPoint
 10
0.0000000000002274
 20
30.0000000000017
 30
0.0
  0
POINT
  5
53A3
330
51B6
100
AcDbEntity
  8
DEFPOINTS
 62
     0
100
AcDbPoint
 10
-0.0000000000002842
 20
-30.00000000000437
 30
0.0
  0
POINT
  5
53A4
330
51B6
100
AcDbEntity
  8
DEFPOINTS
 62
     0
100
AcDbPoint
 10
-24.98741628047031
 20
-30.00000000000436
 30
0.0
  0
ENDBLK
  5
51C1
330
51B6
100
AcDbEntity
  8
0
100
AcDbBlockEnd
  0
BLOCK
  5
51F1
330
51E7
100
AcDbEntity
  8
0
100
AcDbBlockBegin
  2
*D5
 70
     1
 10
0.0
 20
0.0
 30
0.0
  3
*D5
  1

  0
LINE
  5
53FB
330
51E7
100
AcDbEntity
  8
SK2
100
AcDbLine
 10
-1.053579074544927
 20
50.80000000000001
 30
0.0
 11
-43.16083065130752
 21
50.80000000000001
 31
0.0
  0
LINE
  5
53FC
330
51E7
100
AcDbEntity
  8
SK2
100
AcDbLine
 10
-1.053579074545154
 20
-50.79999999999995
 30
0.0
 11
-43.16083065130754
 21
-50.79999999999994
 31
0.0
  0
LINE
  5
53FD
330
51E7
100
AcDbEntity
  8
SK2
100
AcDbLine
 10
-42.16083065130752
 20
48.30000000000001
 30
0.0
 11
-42.16083065130755
 21
-48.29999999999994
 31
0.0
  0
SOLID
  5
53FE
330
51E7
100
AcDbEntity
  8
SK2
100
AcDbTrace
 10
-42.57749731797418
 20
48.30000000000001
 30
0.0
 11
-41.74416398464085
 21
48.30000000000001
 31
0.0
 12
-42.16083065130752
 22
50.80000000000001
 32
0.0
 13
-42.16083065130752
 23
50.80000000000001
 33
0.0
  0
SOLID
  5
53FF
330
51E7
100
AcDbEntity
  8
SK2
100
AcDbTrace
 10
-42.57749731797421
 20
-48.29999999999994
 30
0.0
 11
-41.74416398464088
 21
-48.29999999999994
 31
0.0
 12
-42.16083065130755
 22
-50.79999999999994
 32
0.0
 13
-42.16083065130755
 23
-50.79999999999994
 33
0.0
  0
MTEXT
  5
5400
330
51E7
100
AcDbEntity
  8
SK2
 62
     2
100
AcDbMText
 10
-45.41083065130753
 20
0.0000000000000314
 30
0.0
 40
3.5
 41
0.0
 71
     5
 72
     1
  1
%%c101.6
 11
0.0000000000000001
 21
1.0
 31
0.0
1001
ACAD
1000
MTEXTBEGIN
1070
    73
1070
     1
1070
    44
1040
1.0
1070
    74
1070
     0
1000
MTEXTEND
  0
POINT
  5
5401
330
51E7
100
AcDbEntity
  8
DEFPOINTS
 62
     0
100
AcDbPoint
 10
-1.053579074544927
 20
50.80000000000001
 30
0.0
  0
POINT
  5
5402
330
51E7
100
AcDbEntity
  8
DEFPOINTS
 62
     0
100
AcDbPoint
 10
-1.053579074545154
 20
-50.79999999999995
 30
0.0
  0
POINT
  5
5403
330
51E7
100
AcDbEntity
  8
DEFPOINTS
 62
     0
100
AcDbPoint
 10
-42.16083065130755
 20
-50.79999999999994
 30
0.0
  0
ENDBLK
  5
51F2
330
51E7
100
AcDbEntity
  8
0
100
AcDbBlockEnd
  0
BLOCK
  5
522B
330
5221
100
AcDbEntity
  8
0
100
AcDbBlockBegin
  2
*D6
 70
     1
 10
0.0
 20
0.0
 30
0.0
  3
*D6
  1

  0
LINE
  5
5405
330
5221
100
AcDbEntity
  8
SK2
100
AcDbLine
 10
-2.571978490092533
 20
88.90000000000441
 30
0.0
 11
-61.52565133657358
 21
88.90000000000442
 31
0.0
  0
LINE
  5
5406
330
5221
100
AcDbEntity
  8
SK2
100
AcDbLine
 10
-2.571978490092988
 20
-88.90000000000435
 30
0.0
 11
-61.52565133657361
 21
-88.90000000000433
 31
0.0
  0
LINE
  5
5407
330
5221
100
AcDbEntity
  8
SK2
100
AcDbLine
 10
-60.52565133657357
 20
86.40000000000442
 30
0.0
 11
-60.52565133657362
 21
-86.40000000000433
 31
0.0
  0
SOLID
  5
5408
330
5221
100
AcDbEntity
  8
SK2
100
AcDbTrace
 10
-60.94231800324024
 20
86.40000000000442
 30
0.0
 11
-60.10898466990691
 21
86.40000000000442
 31
0.0
 12
-60.52565133657357
 22
88.90000000000442
 32
0.0
 13
-60.52565133657357
 23
88.90000000000442
 33
0.0
  0
SOLID
  5
5409
330
5221
100
AcDbEntity
  8
SK2
100
AcDbTrace
 10
-60.94231800324028
 20
-86.40000000000433
 30
0.0
 11
-60.10898466990695
 21
-86.40000000000433
 31
0.0
 12
-60.52565133657362
 22
-88.90000000000433
 32
0.0
 13
-60.52565133657362
 23
-88.90000000000433
 33
0.0
  0
MTEXT
  5
540A
330
5221
100
AcDbEntity
  8
SK2
 62
     2
100
AcDbMText
 10
-63.77565133657359
 20
0.0000000000000325
 30
0.0
 40
3.5
 41
0.0
 71
     5
 72
     1
  1
%%c177.8
 11
0.0000000000000001
 21
1.0
 31
0.0
1001
ACAD
1000
MTEXTBEGIN
1070
    73
1070
     1
1070
    44
1040
1.0
1070
    74
1070
     0
1000
MTEXTEND
  0
POINT
  5
540B
330
5221
100
AcDbEntity
  8
DEFPOINTS
 62
     0
100
AcDbPoint
 10
-2.571978490092533
 20
88.90000000000441
 30
0.0
  0
POINT
  5
540C
330
5221
100
AcDbEntity
  8
DEFPOINTS
 62
     0
100
AcDbPoint
 10
-2.571978490092988
 20
-88.90000000000435
 30
0.0
  0
POINT
  5
540D
330
5221
100
AcDbEntity
  8
DEFPOINTS
 62
     0
100
AcDbPoint
 10
-60.52565133657362
 20
-88.90000000000433
 30
0.0
  0
ENDBLK
  5
522C
330
5221
100
AcDbEntity
  8
0
100
AcDbBlockEnd
  0
BLOCK
  5
5265
330
525B
100
AcDbEntity
  8
0
100
AcDbBlockBegin
  2
*D7
 70
     1
 10
0.0
 20
0.0
 30
0.0
  3
*D7
  1

  0
LINE
  5
5381
330
525B
100
AcDbEntity
  8
SK2
100
AcDbLine
 10
0.0000000000008527
 20
112.5000000000043
 30
0.0
 11
-82.61900563821484
 21
112.5000000000043
 31
0.0
  0
LINE
  5
5382
330
525B
100
AcDbEntity
  8
SK2
100
AcDbLine
 10
0.0000000000003411
 20
-112.5000000000042
 30
0.0
 11
-82.61900563821489
 21
-112.5000000000042
 31
0.0
  0
LINE
  5
5383
330
525B
100
AcDbEntity
  8
SK2
100
AcDbLine
 10
-81.61900563821484
 20
110.0000000000043
 30
0.0
 11
-81.6190056382149
 21
-110.0000000000042
 31
0.0
  0
SOLID
  5
5384
330
525B
100
AcDbEntity
  8
SK2
100
AcDbTrace
 10
-82.03567230488152
 20
110.0000000000043
 30
0.0
 11
-81.20233897154816
 21
110.0000000000043
 31
0.0
 12
-81.61900563821484
 22
112.5000000000043
 32
0.0
 13
-81.61900563821484
 23
112.5000000000043
 33
0.0
  0
SOLID
  5
5385
330
525B
100
AcDbEntity
  8
SK2
100
AcDbTrace
 10
-82.03567230488157
 20
-110.0000000000042
 30
0.0
 11
-81.20233897154824
 21
-110.0000000000042
 31
0.0
 12
-81.6190056382149
 22
-112.5000000000042
 32
0.0
 13
-81.6190056382149
 23
-112.5000000000042
 33
0.0
  0
MTEXT
  5
5386
330
525B
100
AcDbEntity
  8
SK2
 62
     2
100
AcDbMText
 10
-84.86935012640385
 20
0.0000000000000338
 30
0.0
 40
3.5
 41
0.0
 71
     5
 72
     1
  1
%%c225
 11
0.0000000000000001
 21
1.0
 31
0.0
1001
ACAD
1000
MTEXTBEGIN
1070
    73
1070
     1
1070
    44
1040
1.0
1070
    74
1070
     0
1000
MTEXTEND
  0
POINT
  5
5387
330
525B
100
AcDbEntity
  8
DEFPOINTS
 62
     0
100
AcDbPoint
 10
0.0000000000008527
 20
112.5000000000043
 30
0.0
  0
POINT
  5
5388
330
525B
100
AcDbEntity
  8
DEFPOINTS
 62
     0
100
AcDbPoint
 10
0.0000000000003411
 20
-112.5000000000042
 30
0.0
  0
POINT
  5
5389
330
525B
100
AcDbEntity
  8
DEFPOINTS
 62
     0
100
AcDbPoint
 10
-81.6190056382149
 20
-112.5000000000042
 30
0.0
  0
ENDBLK
  5
5266
330
525B
100
AcDbEntity
  8
0
100
AcDbBlockEnd
  0
BLOCK
  5
542A
330
5420
100
AcDbEntity
  8
0
100
AcDbBlockBegin
  2
*D8
 70
     1
 10
0.0
 20
0.0
 30
0.0
  3
*D8
  1

  0
LINE
  5
5448
330
5420
100
AcDbEntity
  8
SK2
100
AcDbLine
 10
9.000000000007219
 20
132.0000000000044
 30
0.0
 11
-103.9801402918828
 21
132.0000000000044
 31
0.0
  0
LINE
  5
5449
330
5420
100
AcDbEntity
  8
SK2
100
AcDbLine
 10
9.000000000006707
 20
-132.0000000000044
 30
0.0
 11
-103.9801402918829
 21
-132.0000000000044
 31
0.0
  0
LINE
  5
544A
330
5420
100
AcDbEntity
  8
SK2
100
AcDbLine
 10
-102.9801402918828
 20
129.5000000000044
 30
0.0
 11
-102.9801402918829
 21
-129.5000000000044
 31
0.0
  0
SOLID
  5
544B
330
5420
100
AcDbEntity
  8
SK2
100
AcDbTrace
 10
-103.3968069585495
 20
129.5000000000044
 30
0.0
 11
-102.5634736252161
 21
129.5000000000044
 31
0.0
 12
-102.9801402918828
 22
132.0000000000044
 32
0.0
 13
-102.9801402918828
 23
132.0000000000044
 33
0.0
  0
SOLID
  5
544C
330
5420
100
AcDbEntity
  8
SK2
100
AcDbTrace
 10
-103.3968069585495
 20
-129.5000000000044
 30
0.0
 11
-102.5634736252162
 21
-129.5000000000044
 31
0.0
 12
-102.9801402918829
 22
-132.0000000000044
 32
0.0
 13
-102.9801402918829
 23
-132.0000000000044
 33
0.0
  0
MTEXT
  5
544D
330
5420
100
AcDbEntity
  8
SK2
 62
     2
100
AcDbMText
 10
-106.2304847800718
 20
0.0000000000000067
 30
0.0
 40
3.5
 41
0.0
 71
     5
 72
     1
  1
%%c264
 11
0.0000000000000001
 21
1.0
 31
0.0
1001
ACAD
1000
MTEXTBEGIN
1070
    73
1070
     1
1070
    44
1040
1.0
1070
    74
1070
     0
1000
MTEXTEND
  0
POINT
  5
544E
330
5420
100
AcDbEntity
  8
DEFPOINTS
 62
     0
100
AcDbPoint
 10
9.000000000007219
 20
132.0000000000044
 30
0.0
  0
POINT
  5
544F
330
5420
100
AcDbEntity
  8
DEFPOINTS
 62
     0
100
AcDbPoint
 10
9.000000000006707
 20
-132.0000000000044
 30
0.0
  0
POINT
  5
5450
330
5420
100
AcDbEntity
  8
DEFPOINTS
 62
     0
100
AcDbPoint
 10
-102.9801402918829
 20
-132.0000000000044
 30
0.0
  0
ENDBLK
  5
542B
330
5420
100
AcDbEntity
  8
0
100
AcDbBlockEnd
  0
ENDSEC
  0
SECTION
  2
ENTITIES
  0
LINE
  5
5075
330
1F
100
AcDbEntity
  8
1
100
AcDbLine
 10
26.49999999999607
 20
152.9999999999939
 30
0.0
 11
26.50000000000045
 21
-152.999999999999
 31
0.0
  0
LINE
  5
5076
330
1F
100
AcDbEntity
  8
1
100
AcDbLine
 10
21.42327321821216
 20
132.0000000000044
 30
0.0
 11
9.000000000007219
 21
132.0000000000044
 31
0.0
  0
ARC
  5
5077
330
1F
100
AcDbEntity
  8
1
100
AcDbCircle
 10
21.49902068080166
 20
137.0004056472966
 30
0.0
 40
5.000979335646334
100
AcDbArc
 50
269.1321348106912
 51
359.9953525347182
  0
ARC
  5
5078
330
1F
100
AcDbEntity
  8
1
100
AcDbCircle
 10
9.000000000007219
 20
124.0000000000043
 30
0.0
 40
8.000000000000113
100
AcDbArc
 50
90.0000000000004
 51
179.9999999999992
  0
LINE
  5
5079
330
1F
100
AcDbEntity
  8
1
100
AcDbLine
 10
1.000000000007219
 20
124.0000000000044
 30
0.0
 11
1.000000000006252
 21
-124.0000000000042
 31
0.0
  0
LINE
  5
507A
330
1F
100
AcDbEntity
  8
1
100
AcDbLine
 10
1.000000000007219
 20
113.5000000000106
 30
0.0
 11
0.0000000000008527
 21
112.5000000000043
 31
0.0
  0
LINE
  5
507B
330
1F
100
AcDbEntity
  8
1
100
AcDbLine
 10
0.0000000000008527
 20
112.5000000000043
 30
0.0
 11
-0.0000000000008527
 21
-112.500000000003
 31
0.0
  0
LINE
  5
507C
330
1F
100
AcDbEntity
  8
SK3
 48
0.3
100
AcDbLine
 10
0.0000000000001137
 20
12.85000000000161
 30
0.0
 11
14.00000000000034
 21
12.85000000000167
 31
0.0
  0
LINE
  5
507D
330
1F
100
AcDbEntity
  8
SK3
 48
0.3
100
AcDbLine
 10
14.00000000000034
 20
12.85000000000167
 30
0.0
 11
14.00000000000034
 21
-12.85000000000451
 31
0.0
  0
LINE
  5
507E
330
1F
100
AcDbEntity
  8
SK3
 48
0.3
100
AcDbLine
 10
14.00000000000034
 20
-12.85000000000451
 30
0.0
 11
-0.0000000000000568
 21
-12.85000000000451
 31
0.0
  0
LINE
  5
507F
330
1F
100
AcDbEntity
  8
SK3
 48
0.3
100
AcDbLine
 10
-0.0000000000002842
 20
-30.00000000000437
 30
0.0
 11
40.00000000000517
 21
-30.00000000000472
 31
0.0
  0
LINE
  5
5081
330
1F
100
AcDbEntity
  8
SK3
 48
0.3
100
AcDbLine
 10
0.0000000000002842
 20
30.0000000000017
 30
0.0
 11
40.00000000000528
 21
30.00000000000182
 31
0.0
  0
LINE
  5
5082
330
1F
100
AcDbEntity
  8
SK3
 48
0.3
100
AcDbLine
 10
40.00000000000523
 20
-63.80000000000439
 30
0.0
 11
32.00000000000079
 21
-63.80000000000439
 31
0.0
  0
LINE
  5
5083
330
1F
100
AcDbEntity
  8
SK3
 48
0.3
100
AcDbLine
 10
32.00000000000079
 20
-63.80000000000439
 30
0.0
 11
32.00000000000079
 21
-37.79999999999552
 31
0.0
  0
LINE
  5
5084
330
1F
100
AcDbEntity
  8
SK3
 48
0.3
100
AcDbLine
 10
32.00000000000079
 20
-37.79999999999552
 30
0.0
 11
40.00000000000523
 21
-37.79999999999552
 31
0.0
  0
LINE
  5
5085
330
1F
100
AcDbEntity
  8
SK3
 48
0.3
100
AcDbLine
 10
32.00000000000079
 20
-59.80000000000007
 30
0.0
 11
0.0000000000007958
 21
-59.80000000000007
 31
0.0
  0
LINE
  5
5086
330
1F
100
AcDbEntity
  8
SK4
100
AcDbLine
 10
45.24587394688694
 20
-50.79999999999995
 30
0.0
 11
-1.053579074545154
 21
-50.79999999999995
 31
0.0
  0
LINE
  5
5087
330
1F
100
AcDbEntity
  8
SK3
 48
0.3
100
AcDbLine
 10
32.00000000000079
 20
-41.80000000000001
 30
0.0
 11
0.0000000000007958
 21
-41.79999999999995
 31
0.0
  0
LINE
  5
5088
330
1F
100
AcDbEntity
  8
SK3
 48
0.3
100
AcDbLine
 10
40.00000000000523
 20
-71.9000000000043
 30
0.0
 11
32.00000000000079
 21
-71.9000000000043
 31
0.0
  0
LINE
  5
5089
330
1F
100
AcDbEntity
  8
SK3
 48
0.3
100
AcDbLine
 10
32.00000000000079
 20
-71.9000000000043
 30
0.0
 11
32.00000000000079
 21
-105.9000000000043
 31
0.0
  0
LINE
  5
508A
330
1F
100
AcDbEntity
  8
SK3
 48
0.3
100
AcDbLine
 10
32.00000000000079
 20
-105.9000000000043
 30
0.0
 11
40.00000000000523
 21
-105.9000000000043
 31
0.0
  0
LINE
  5
508B
330
1F
100
AcDbEntity
  8
SK3
 48
0.3
100
AcDbLine
 10
32.00000000000079
 20
-99.9000000000043
 30
0.0
 11
0.0000000000009663
 21
-99.9000000000043
 31
0.0
  0
LINE
  5
508C
330
1F
100
AcDbEntity
  8
SK4
100
AcDbLine
 10
44.54656938168716
 20
-88.9000000000043
 30
0.0
 11
-2.571978490092988
 21
-88.90000000000435
 31
0.0
  0
LINE
  5
508D
330
1F
100
AcDbEntity
  8
SK3
 48
0.3
100
AcDbLine
 10
32.00000000000079
 20
-77.90000000000429
 30
0.0
 11
0.0000000000007958
 21
-77.90000000000429
 31
0.0
  0
LINE
  5
508E
330
1F
100
AcDbEntity
  8
1
100
AcDbLine
 10
75.00000000000676
 20
143.674409773134
 30
0.0
 11
75.00000000000648
 21
-154.8000000000135
 31
0.0
  0
LINE
  5
508F
330
1F
100
AcDbEntity
  8
SK3
 48
0.3
100
AcDbLine
 10
75.00000000000648
 20
-125.6000000000146
 30
0.0
 11
59.39999999999646
 21
-110.0000000000046
 31
0.0
  0
LINE
  5
5090
330
1F
100
AcDbEntity
  8
SK3
 48
0.3
100
AcDbLine
 10
59.39999999999646
 20
-110.0000000000046
 30
0.0
 11
59.40000000001607
 21
110.0000000000043
 31
0.0
  0
LINE
  5
5091
330
1F
100
AcDbEntity
  8
SK3
 48
0.3
100
AcDbLine
 10
59.40000000000089
 20
-110.0000000000046
 30
0.0
 11
40.00000000000523
 21
-110.0000000000046
 31
0.0
  0
LINE
  5
5092
330
1F
100
AcDbEntity
  8
SK3
 48
0.3
100
AcDbLine
 10
40.00000000000523
 20
-110.0000000000046
 30
0.0
 11
40.00000000000528
 21
110.0000000000046
 31
0.0
  0
LINE
  5
5096
330
1F
100
AcDbEntity
  8
1
100
AcDbLine
 10
29.30000000001541
 20
155.8000000000131
 30
0.0
 11
26.49999999999607
 21
152.9999999999939
 31
0.0
  0
LINE
  5
5097
330
1F
100
AcDbEntity
  8
SK4
100
AcDbLine
 10
52.52492989673339
 20
135.8999374217577
 30
0.0
 11
77.13044184319767
 21
135.8999374217577
 31
0.0
  0
LINE
  5
5098
330
1F
100
AcDbEntity
  8
SK3
 48
0.3
100
AcDbLine
 10
67.00000000001171
 20
133.5134374217576
 30
0.0
 11
55.00000000001489
 21
133.5134374217577
 31
0.0
  0
LINE
  5
5099
330
1F
100
AcDbEntity
  8
SK3
 48
0.3
100
AcDbLine
 10
67.00000000001171
 20
138.2864374217576
 30
0.0
 11
55.00000000001489
 21
138.2864374217576
 31
0.0
  0
LINE
  5
509A
330
1F
100
AcDbEntity
  8
SK3
 48
0.3
100
AcDbLine
 10
55.61350000001493
 20
132.8999374217577
 30
0.0
 11
67.00000000001171
 21
132.8999374217577
 31
0.0
  0
LINE
  5
509B
330
1F
100
AcDbEntity
  8
SK3
 48
0.3
100
AcDbLine
 10
67.00000000001171
 20
138.8999374217577
 30
0.0
 11
55.61350000001493
 21
138.8999374217577
 31
0.0
  0
ARC
  5
509C
330
1F
100
AcDbEntity
  8
1
100
AcDbCircle
 10
69.00000000000097
 20
151.674409773134
 30
0.0
 40
7.999999999999943
100
AcDbArc
 50
179.9999999999998
 51
270.0000000000004
  0
LINE
  5
509D
330
1F
100
AcDbEntity
  8
SK1
100
AcDbLine
 10
74.00000000000773
 20
155.8000000000127
 30
0.0
 11
61.50000000000102
 21
155.8000000000129
 31
0.0
  0
LINE
  5
509E
330
1F
100
AcDbEntity
  8
SK3
 48
0.3
100
AcDbLine
 10
55.61350000001493
 20
138.8999374217577
 30
0.0
 11
55.61350000001493
 21
132.8999374217577
 31
0.0
  0
LINE
  5
509F
330
1F
100
AcDbEntity
  8
SK3
 48
0.3
100
AcDbLine
 10
55.00000000001489
 20
138.2864374217576
 30
0.0
 11
55.00000000001489
 21
133.5134374217577
 31
0.0
  0
LINE
  5
50A0
330
1F
100
AcDbEntity
  8
SK3
100
AcDbLine
 10
55.00000000001489
 20
133.5134374217577
 30
0.0
 11
55.61350000001493
 21
132.8999374217577
 31
0.0
  0
LINE
  5
50A1
330
1F
100
AcDbEntity
  8
SK3
100
AcDbLine
 10
55.61350000001493
 20
138.8999374217577
 30
0.0
 11
55.00000000001489
 21
138.2864374217576
 31
0.0
  0
LINE
  5
50A2
330
1F
100
AcDbEntity
  8
4
100
AcDbLine
 10
52.50000000001808
 20
154.773731085134
 30
0.0
 11
52.50000000001808
 21
146.9661437583903
 31
0.0
  0
LINE
  5
50A3
330
1F
100
AcDbEntity
  8
1
100
AcDbLine
 10
55.34390894054229
 20
150.8699374217622
 30
0.0
 11
53.94337567299214
 21
153.0714465736349
 31
0.0
  0
LINE
  5
50A4
330
1F
100
AcDbEntity
  8
1
100
AcDbLine
 10
51.056624327044
 20
153.0714465736349
 30
0.0
 11
49.61324865406993
 21
150.8699374217622
 31
0.0
  0
LINE
  5
50A5
330
1F
100
AcDbEntity
  8
1
100
AcDbLine
 10
51.056624327044
 20
148.6684282698893
 30
0.0
 11
53.94337567299214
 21
148.6684282698893
 31
0.0
  0
LINE
  5
50A6
330
1F
100
AcDbEntity
  8
1
100
AcDbLine
 10
49.61324865406993
 20
150.8699374217622
 30
0.0
 11
51.056624327044
 21
148.6684282698893
 31
0.0
  0
LINE
  5
50A7
330
1F
100
AcDbEntity
  8
1
100
AcDbLine
 10
53.94337567299214
 20
148.6684282698893
 30
0.0
 11
55.34390894054229
 21
150.8699374217622
 31
0.0
  0
LINE
  5
50A8
330
1F
100
AcDbEntity
  8
1
100
AcDbLine
 10
53.94337567299214
 20
153.0714465736349
 30
0.0
 11
51.056624327044
 21
153.0714465736349
 31
0.0
  0
LINE
  5
50A9
330
1F
100
AcDbEntity
  8
1
100
AcDbLine
 10
61.00000000000102
 20
155.8000000000129
 30
0.0
 11
61.00000000000102
 21
151.6744097731341
 31
0.0
  0
LINE
  5
50AA
330
1F
100
AcDbEntity
  8
SK1
100
AcDbLine
 10
75.00000000000738
 20
143.6744097731341
 30
0.0
 11
75.00000000000738
 21
154.800000000013
 31
0.0
  0
LINE
  5
50AB
330
1F
100
AcDbEntity
  8
SK3
 48
0.3
100
AcDbLine
 10
72.00000000001182
 20
142.9999374217608
 30
0.0
 11
72.00000000001182
 21
129.8999374217608
 31
0.0
  0
LINE
  5
50AC
330
1F
100
AcDbEntity
  8
SK3
 48
0.3
100
AcDbLine
 10
67.00000000001171
 20
129.3999374217609
 30
0.0
 11
67.00000000001171
 21
142.9999374217608
 31
0.0
  0
LINE
  5
50AD
330
1F
100
AcDbEntity
  8
SK3
 48
0.3
100
AcDbLine
 10
75.00000000000738
 20
129.3999374217607
 30
0.0
 11
67.00000000001171
 21
129.3999374217609
 31
0.0
  0
LINE
  5
50AE
330
1F
100
AcDbEntity
  8
SK3
 48
0.3
100
AcDbLine
 10
72.00000000001182
 20
129.8999374217608
 30
0.0
 11
67.00000000001171
 21
129.8999374217609
 31
0.0
  0
LINE
  5
50AF
330
1F
100
AcDbEntity
  8
SK3
 48
0.3
100
AcDbLine
 10
72.00000000001182
 20
140.4999374217546
 30
0.0
 11
75.00000000000728
 21
140.4999374217546
 31
0.0
  0
LINE
  5
50B0
330
1F
100
AcDbEntity
  8
1
100
AcDbLine
 10
75.00000000000738
 20
143.6744097731341
 30
0.0
 11
69.00000000000102
 21
143.6744097731341
 31
0.0
  0
LINE
  5
50B1
330
1F
100
AcDbEntity
  8
SK3
 48
0.3
100
AcDbLine
 10
67.00000000001171
 20
141.8999374217545
 30
0.0
 11
72.00000000001182
 21
141.8999374217545
 31
0.0
  0
LINE
  5
50B2
330
1F
100
AcDbEntity
  8
SK3
 48
0.3
100
AcDbLine
 10
67.00000000001171
 20
142.9999374217608
 30
0.0
 11
72.00000000001182
 21
142.9999374217608
 31
0.0
  0
LINE
  5
50B3
330
1F
100
AcDbEntity
  8
SK1
100
AcDbLine
 10
74.00000000000773
 20
155.8000000000127
 30
0.0
 11
75.00000000000762
 21
154.8000000000127
 31
0.0
  0
LINE
  5
50B4
330
1F
100
AcDbEntity
  8
SK1
100
AcDbLine
 10
75.00000000000762
 20
154.8000000000127
 30
0.0
 11
75.00000000000738
 21
154.800000000013
 31
0.0
  0
LINE
  5
50B5
330
1F
100
AcDbEntity
  8
SK3
 48
0.3
100
AcDbLine
 10
26.49999999999625
 20
140.4999374217547
 30
0.0
 11
67.00000000001171
 21
140.4999374217547
 31
0.0
  0
LINE
  5
50B6
330
1F
100
AcDbEntity
  8
4
100
AcDbLine
 10
31.5000000000009
 20
150.8699374217622
 30
0.0
 11
41.5000000000009
 21
150.8699374217622
 31
0.0
  0
LINE
  5
50B7
330
1F
100
AcDbEntity
  8
1
100
AcDbLine
 10
39.34390894052512
 20
150.8699374217622
 30
0.0
 11
37.94337567297498
 21
153.0714465736349
 31
0.0
  0
LINE
  5
50B8
330
1F
100
AcDbEntity
  8
1
100
AcDbLine
 10
37.94337567297498
 20
148.6684282698893
 30
0.0
 11
39.34390894052512
 21
150.8699374217622
 31
0.0
  0
ELLIPSE
  5
50B9
330
1F
100
AcDbEntity
  8
1
100
AcDbEllipse
 10
36.5000000000009
 20
150.8699374217622
 30
0.0
 11
-5.0
 21
0.0
 31
0.0
210
0.0
220
0.0
230
1.0
 40
0.7807587326743715
 41
0.0
 42
6.283185307179586
  0
LINE
  5
50BA
330
1F
100
AcDbEntity
  8
4
100
AcDbLine
 10
36.5000000000009
 20
154.773731085134
 30
0.0
 11
36.5000000000009
 21
146.9661437583903
 31
0.0
  0
LINE
  5
50BB
330
1F
100
AcDbEntity
  8
1
100
AcDbLine
 10
35.05662432702683
 20
153.0714465736349
 30
0.0
 11
33.61324865405276
 21
150.8699374217622
 31
0.0
  0
LINE
  5
50BC
330
1F
100
AcDbEntity
  8
1
100
AcDbLine
 10
33.61324865405276
 20
150.8699374217622
 30
0.0
 11
35.05662432702683
 21
148.6684282698893
 31
0.0
  0
LINE
  5
50BD
330
1F
100
AcDbEntity
  8
1
100
AcDbLine
 10
35.05662432702683
 20
148.6684282698893
 30
0.0
 11
37.94337567297498
 21
148.6684282698893
 31
0.0
  0
LINE
  5
50BE
330
1F
100
AcDbEntity
  8
1
100
AcDbLine
 10
37.94337567297498
 20
153.0714465736349
 30
0.0
 11
35.05662432702683
 21
153.0714465736349
 31
0.0
  0
LINE
  5
50BF
330
1F
100
AcDbEntity
  8
4
100
AcDbLine
 10
47.50000000001807
 20
150.8699374217622
 30
0.0
 11
57.50000000001808
 21
150.8699374217622
 31
0.0
  0
ELLIPSE
  5
50C0
330
1F
100
AcDbEntity
  8
1
100
AcDbEllipse
 10
52.50000000001808
 20
150.8699374217622
 30
0.0
 11
-5.0
 21
0.0
 31
0.0
210
0.0
220
0.0
230
1.0
 40
0.7807587326743715
 41
0.0
 42
6.283185307179586
  0
LINE
  5
50C1
330
1F
100
AcDbEntity
  8
1
100
AcDbLine
 10
61.50000000000102
 20
155.8000000000129
 30
0.0
 11
29.30000000001541
 21
155.8000000000131
 31
0.0
  0
CIRCLE
  5
50C2
330
1F
100
AcDbEntity
  8
SK1
100
AcDbCircle
 10
80.0000000000009
 20
157.5000000000043
 30
0.0
 40
0.4637693698488208
  0
LINE
  5
50C3
330
1F
100
AcDbEntity
  8
SK1
100
AcDbLine
 10
79.5362306301522
 20
157.5000000000043
 30
0.0
 11
80.46376936984984
 21
157.5000000000043
 31
0.0
  0
LINE
  5
50C4
330
1F
100
AcDbEntity
  8
SK1
100
AcDbLine
 10
80.0000000000009
 20
157.9637693698531
 30
0.0
 11
80.0000000000009
 21
157.0362306301555
 31
0.0
  0
ARC
  5
50C7
330
1F
100
AcDbEntity
  8
1
100
AcDbCircle
 10
21.49902068080103
 20
-137.0004056472966
 30
0.0
 40
5.000979335646334
100
AcDbArc
 50
0.0046474652814976
 51
90.86786518930857
  0
LINE
  5
50C8
330
1F
100
AcDbEntity
  8
1
100
AcDbLine
 10
21.42327321821159
 20
-132.0000000000044
 30
0.0
 11
9.00000000000665
 21
-132.0000000000044
 31
0.0
  0
ARC
  5
50C9
330
1F
100
AcDbEntity
  8
1
100
AcDbCircle
 10
9.00000000000665
 20
-124.0000000000043
 30
0.0
 40
8.000000000000113
100
AcDbArc
 50
180.0000000000005
 51
269.9999999999993
  0
LINE
  5
50CA
330
1F
100
AcDbEntity
  8
1
100
AcDbLine
 10
29.30000000001473
 20
-155.8000000000132
 30
0.0
 11
26.50000000000045
 21
-152.999999999999
 31
0.0
  0
LINE
  5
50CB
330
1F
100
AcDbEntity
  8
1
100
AcDbLine
 10
74.00000000000705
 20
-155.8000000000131
 30
0.0
 11
29.30000000001473
 21
-155.8000000000132
 31
0.0
  0
LINE
  5
50CC
330
1F
100
AcDbEntity
  8
SK1
100
AcDbLine
 10
75.00000000000693
 20
-154.800000000013
 30
0.0
 11
75.00000000000671
 21
-154.8000000000133
 31
0.0
  0
LINE
  5
50CD
330
1F
100
AcDbEntity
  8
SK1
100
AcDbLine
 10
74.00000000000705
 20
-155.800000000013
 30
0.0
 11
75.00000000000693
 21
-154.800000000013
 31
0.0
  0
LINE
  5
50CE
330
1F
100
AcDbEntity
  8
1
100
AcDbLine
 10
1.000000000006707
 20
-113.5000000000106
 30
0.0
 11
0.0000000000003411
 21
-112.5000000000042
 31
0.0
  0
LINE
  5
50D0
330
1F
100
AcDbEntity
  8
SK3
 48
0.3
100
AcDbLine
 10
75.00000000000705
 20
125.6000000000144
 30
0.0
 11
59.39999999999696
 21
110.0000000000044
 31
0.0
  0
LINE
  5
50D2
330
1F
100
AcDbEntity
  8
SK3
 48
0.3
100
AcDbLine
 10
59.40000000000139
 20
110.0000000000044
 30
0.0
 11
40.00000000000574
 21
110.0000000000045
 31
0.0
  0
LINE
  5
50D3
330
1F
100
AcDbEntity
  8
SK3
 48
0.3
100
AcDbLine
 10
32.00000000000125
 20
99.90000000000419
 30
0.0
 11
0.0000000000014211
 21
99.90000000000435
 31
0.0
  0
LINE
  5
50D4
330
1F
100
AcDbEntity
  8
SK4
100
AcDbLine
 10
44.54656938168762
 20
88.90000000000412
 30
0.0
 11
-2.571978490092533
 21
88.90000000000441
 31
0.0
  0
LINE
  5
50D5
330
1F
100
AcDbEntity
  8
SK3
 48
0.3
100
AcDbLine
 10
32.00000000000119
 20
77.90000000000418
 30
0.0
 11
0.0000000000011937
 21
77.90000000000436
 31
0.0
  0
LINE
  5
50D6
330
1F
100
AcDbEntity
  8
SK3
 48
0.3
100
AcDbLine
 10
40.00000000000556
 20
71.90000000000418
 30
0.0
 11
32.00000000000113
 21
71.90000000000418
 31
0.0
  0
LINE
  5
50D8
330
1F
100
AcDbEntity
  8
SK3
 48
0.3
100
AcDbLine
 10
32.0000000000013
 20
105.9000000000041
 30
0.0
 11
40.00000000000574
 21
105.9000000000041
 31
0.0
  0
LINE
  5
50D9
330
1F
100
AcDbEntity
  8
SK3
100
AcDbLine
 10
32.00000000000113
 20
63.80000000000427
 30
0.0
 11
32.00000000000096
 21
37.79999999999541
 31
0.0
  0
LINE
  5
50DA
330
1F
100
AcDbEntity
  8
SK3
 48
0.3
100
AcDbLine
 10
32.00000000000108
 20
59.79999999999995
 30
0.0
 11
0.00000000000108
 21
59.80000000000012
 31
0.0
  0
LINE
  5
50DB
330
1F
100
AcDbEntity
  8
SK3
 48
0.3
100
AcDbLine
 10
40.00000000000556
 20
63.80000000000427
 30
0.0
 11
32.00000000000113
 21
63.80000000000427
 31
0.0
  0
LINE
  5
50DC
330
1F
100
AcDbEntity
  8
SK4
100
AcDbLine
 10
45.24587394688717
 20
50.79999999999978
 30
0.0
 11
-1.053579074544927
 21
50.80000000000001
 31
0.0
  0
LINE
  5
50DD
330
1F
100
AcDbEntity
  8
SK3
 48
0.3
100
AcDbLine
 10
32.00000000000102
 20
41.79999999999989
 30
0.0
 11
0.0000000000010232
 21
41.80000000000001
 31
0.0
  0
LINE
  5
50DE
330
1F
100
AcDbEntity
  8
SK3
 48
0.3
100
AcDbLine
 10
32.00000000000096
 20
37.79999999999541
 30
0.0
 11
40.0000000000054
 21
37.79999999999541
 31
0.0
  0
LINE
  5
50DF
330
1F
100
AcDbEntity
  8
SK3
 48
0.3
100
AcDbLine
 10
32.00000000000113
 20
71.90000000000418
 30
0.0
 11
32.0000000000013
 21
105.9000000000041
 31
0.0
  0
LINE
  5
511C
330
1F
100
AcDbEntity
  8
SK1
100
AcDbLine
 10
-2.262823140784178
 20
2.262823140784178
 30
0.0
 11
2.262823140784178
 21
-2.262823140784178
 31
0.0
  0
CIRCLE
  5
511D
330
1F
100
AcDbEntity
  8
SK1
100
AcDbCircle
 10
0.0
 20
0.0
 30
0.0
 40
3.200115174948665
  0
LINE
  5
511E
330
1F
100
AcDbEntity
  8
SK1
100
AcDbLine
 10
-2.262823140784178
 20
-2.262823140784178
 30
0.0
 11
2.262823140784178
 21
2.262823140784178
 31
0.0
  0
LINE
  5
511F
330
1F
100
AcDbEntity
  8
4
100
AcDbLine
 10
0.0
 20
0.0
 30
0.0
 11
80.15322675782256
 21
0.0
 31
0.0
  0
LINE
  5
5121
330
1F
100
AcDbEntity
  8
SK1
100
AcDbLine
 10
79.5362306301522
 20
-157.5000000000043
 30
0.0
 11
80.46376936984984
 21
-157.5000000000043
 31
0.0
  0
CIRCLE
  5
5122
330
1F
100
AcDbEntity
  8
SK1
100
AcDbCircle
 10
80.0000000000009
 20
-157.5000000000043
 30
0.0
 40
0.4637693698488208
  0
LINE
  5
5123
330
1F
100
AcDbEntity
  8
SK1
100
AcDbLine
 10
80.0000000000009
 20
-157.9637693698531
 30
0.0
 11
80.0000000000009
 21
-157.0362306301555
 31
0.0
  0
TEXT
  5
5124
330
1F
100
AcDbEntity
  8
6
100
AcDbText
 10
22.6415890553124
 20
202.065847035668
 30
0.0
 40
3.5
  1
Verstellweg 80+0.7
100
AcDbText
  0
TEXT
  5
5125
330
1F
100
AcDbEntity
  8
6
100
AcDbText
 10
38.48675541071889
 20
-165.044390679648
 30
0.0
 40
3.5
  1
4W3A315R00
100
AcDbText
  0
TEXT
  5
5126
330
1F
100
AcDbEntity
  8
6
100
AcDbText
 10
148.9716785125733
 20
-4.309363969093624
 30
0.0
 40
3.5
  1
Z=16
 50
90.0
100
AcDbText
  0
DIMENSION
  5
515A
330
1F
100
AcDbEntity
  8
2
100
AcDbDimension
  2
*D2
 10
0.0000000000008586
 20
210.0
 30
0.0
 11
40.00000000000087
 21
213.2499999999999
 31
0.0
 70
    32
  3
AM_DIN
100
AcDbAlignedDimension
 13
80.0000000000009
 23
157.5000000000043
 33
0.0
 14
0.0000000000008527
 24
112.5000000000043
 34
0.0
100
AcDbRotatedDimension
  0
DIMENSION
  5
5183
330
1F
100
AcDbEntity
  8
2
100
AcDbDimension
  2
*D3
 10
140.2799964886831
 20
-157.5000000000043
 30
0.0
 11
137.0299964886831
 21
0.0000000000000202
 31
0.0
 70
    32
  1
%%c<>
  3
AM_DIN
100
AcDbAlignedDimension
 13
80.0000000000009
 23
157.5000000000043
 33
0.0
 14
80.0000000000009
 24
-157.5000000000043
 34
0.0
 50
90.0
100
AcDbRotatedDimension
  0
DIMENSION
  5
51B5
330
1F
100
AcDbEntity
  8
SK2
100
AcDbDimension
  2
*D4
 10
-24.98741628047031
 20
-30.00000000000436
 30
0.0
 11
-28.2374162804703
 21
-0.0000000000013339
 31
0.0
 70
    32
  1
%%c<>
  3
AM_DIN
100
AcDbAlignedDimension
 13
0.0000000000002274
 23
30.0000000000017
 33
0.0
 14
-0.0000000000002842
 24
-30.00000000000437
 34
0.0
 50
90.0
100
AcDbRotatedDimension
  0
DIMENSION
  5
51E6
330
1F
100
AcDbEntity
  8
SK2
100
AcDbDimension
  2
*D5
 10
-42.16083065130755
 20
-50.79999999999994
 30
0.0
 11
-45.41083065130753
 21
0.0000000000000314
 31
0.0
 70
    32
  1
%%c<>
  3
AM_DIN
100
AcDbAlignedDimension
 13
-1.053579074544927
 23
50.80000000000001
 33
0.0
 14
-1.053579074545154
 24
-50.79999999999995
 34
0.0
 50
90.0
100
AcDbRotatedDimension
  0
DIMENSION
  5
5220
330
1F
100
AcDbEntity
  8
SK2
100
AcDbDimension
  2
*D6
 10
-60.52565133657362
 20
-88.90000000000433
 30
0.0
 11
-63.77565133657359
 21
0.0000000000000325
 31
0.0
 70
    32
  1
%%c<>
  3
AM_DIN
100
AcDbAlignedDimension
 13
-2.571978490092533
 23
88.90000000000441
 33
0.0
 14
-2.571978490092988
 24
-88.90000000000435
 34
0.0
 50
90.0
100
AcDbRotatedDimension
  0
DIMENSION
  5
525A
330
1F
100
AcDbEntity
  8
SK2
100
AcDbDimension
  2
*D7
 10
-81.6190056382149
 20
-112.5000000000042
 30
0.0
 11
-84.86935012640385
 21
0.0000000000000338
 31
0.0
 70
    32
  1
%%c<>
  3
AM_DIN
100
AcDbAlignedDimension
 13
0.0000000000008527
 23
112.5000000000043
 33
0.0
 14
0.0000000000003411
 24
-112.5000000000042
 34
0.0
 50
90.0
100
AcDbRotatedDimension
  0
LINE
  5
52C6
330
1F
100
AcDbEntity
  8
NOCUT
100
AcDbLine
 10
0.0
 20
0.0
 30
0.0
 11
-0.0000000000007958
 21
-112.500000000003
 31
0.0
  0
LINE
  5
52C7
330
1F
100
AcDbEntity
  8
NOCUT
100
AcDbLine
 10
1.000000000006139
 20
-113.5000000000101
 30
0.0
 11
1.000000000006593
 21
-124.0000000000044
 31
0.0
  0
LINE
  5
52C8
330
1F
100
AcDbEntity
  8
NOCUT
100
AcDbLine
 10
26.50000001644741
 20
-137.0004056472966
 30
0.0
 11
26.50000000000057
 21
-152.999999999999
 31
0.0
  0
LINE
  5
52C9
330
1F
100
AcDbEntity
  8
NOCUT
100
AcDbLine
 10
75.00000000000671
 20
0.0
 30
0.0
 11
75.00000000000648
 21
-154.8000000000135
 31
0.0
  0
LINE
  5
52CE
330
1F
100
AcDbEntity
  8
NOCUT
100
AcDbLine
 10
74.00000000000716
 20
-155.8000000000131
 30
0.0
 11
29.30000000001484
 21
-155.8000000000132
 31
0.0
  0
LINE
  5
52CF
330
1F
100
AcDbEntity
  8
NOCUT
100
AcDbLine
 10
29.30000000001484
 20
-155.8000000000132
 30
0.0
 11
26.50000000000057
 21
-152.999999999999
 31
0.0
  0
LINE
  5
52D0
330
1F
100
AcDbEntity
  8
NOCUT
100
AcDbLine
 10
21.42327321820459
 20
-132.0000000000044
 30
0.0
 11
9.000000000006707
 21
-132.0000000000044
 31
0.0
  0
ARC
  5
52D1
330
1F
100
AcDbEntity
  8
NOCUT
100
AcDbCircle
 10
9.000000000006707
 20
-124.0000000000043
 30
0.0
 40
8.000000000000113
100
AcDbArc
 50
180.0
 51
270.0
  0
ARC
  5
52D2
330
1F
100
AcDbEntity
  8
NOCUT
100
AcDbCircle
 10
21.49902068080109
 20
-137.0004056472966
 30
0.0
 40
5.000979335646334
100
AcDbArc
 50
0.0
 51
90.86786518938827
  0
LINE
  5
52D4
330
1F
100
AcDbEntity
  8
NOCUT
100
AcDbLine
 10
74.00000000000716
 20
-155.800000000013
 30
0.0
 11
75.00000000000693
 21
-154.800000000013
 31
0.0
  0
LINE
  5
52D8
330
1F
100
AcDbEntity
  8
NOCUT
100
AcDbLine
 10
75.00000000000693
 20
-154.800000000013
 30
0.0
 11
75.00000000000671
 21
-154.8000000000133
 31
0.0
  0
LINE
  5
52DE
330
1F
100
AcDbEntity
  8
NOCUT
100
AcDbLine
 10
1.000000000006707
 20
-113.5000000000106
 30
0.0
 11
0.0000000000003411
 21
-112.5000000000042
 31
0.0
  0
LINE
  5
52E9
330
1F
100
AcDbEntity
  8
NOCUT
100
AcDbLine
 10
0.0
 20
0.0
 30
0.0
 11
75.00000000000671
 21
0.0
 31
0.0
  0
DIMENSION
  5
541F
330
1F
100
AcDbEntity
  8
SK2
100
AcDbDimension
  2
*D8
 10
-102.9801402918829
 20
-132.0000000000044
 30
0.0
 11
-106.2304847800718
 21
0.0000000000000067
 31
0.0
 70
    32
  1
%%c<>
  3
AM_DIN
100
AcDbAlignedDimension
 13
9.000000000007219
 23
132.0000000000044
 33
0.0
 14
9.000000000006707
 24
-132.0000000000044
 34
0.0
 50
90.00000000000003
100
AcDbRotatedDimension
  0
ENDSEC
  0
SECTION
  2
OBJECTS
  0
DICTIONARY
  5
C
330
0
100
AcDbDictionary
  3
ACAD_GROUP
350
D
  3
ACAD_LAYOUT
350
1A
  3
ACAD_MLINESTYLE
350
17
  3
ACAD_PLOTSETTINGS
350
19
  3
ACAD_PLOTSTYLENAME
350
E
  3
ACDBHEADERROUNDTRIPXREC
350
5454
  3
ACDBVARIABLEDICTIONARY
350
216
  3
ACMDICTIONARY
350
45
  3
AMG
350
41
  3
AMGSNAPSETTINGS
350
23D
  3
DWGPROPS
350
53CF
  0
DICTIONARY
  5
1F1
330
1F
100
AcDbDictionary
280
     1
  3
ACAD_INDEX
360
1F2
  3
ACAD_LAYOUTSELFREF
360
5477
  0
DICTIONARY
  5
5475
330
1B
100
AcDbDictionary
280
     1
  3
ACAD_LAYOUTSELFREF
360
5476
  0
DICTIONARY
  5
D
102
{ACAD_REACTORS
330
C
102
}
330
C
100
AcDbDictionary
  0
DICTIONARY
  5
1A
102
{ACAD_REACTORS
330
C
102
}
330
C
100
AcDbDictionary
  0
DICTIONARY
  5
17
102
{ACAD_REACTORS
330
C
102
}
330
C
100
AcDbDictionary
  3
STANDARD
350
18
  0
DICTIONARY
  5
19
102
{ACAD_REACTORS
330
C
102
}
330
C
100
AcDbDictionary
  0
ACDBDICTIONARYWDFLT
  5
E
102
{ACAD_REACTORS
330
C
102
}
330
C
100
AcDbDictionary
281
     1
  3
Normal
350
F
100
AcDbDictionaryWithDefault
340
F
  0
DICTIONARY
  5
5454
102
{ACAD_REACTORS
330
C
102
}
330
C
100
AcDbDictionary
  3
CEPSNTYPE
350
545E
  3
DIMSTYLEDATA
350
5462
  3
FINGERPRINTGUID
350
545F
  3
HYPERLINKBASE
350
5457
  3
INSUNITS
350
545D
  3
LAYOUTDICT
350
5459
  3
LWETCUNION
350
545C
  3
PLOTSETDICT
350
545A
  3
PLOTSTYLNAMDICT
350
545B
  3
PSVPSCALE
350
5461
  3
PUCSBASE
350
5465
  3
PUCSORGBACK
350
546B
  3
PUCSORGBOTTOM
350
5467
  3
PUCSORGFRONT
350
546A
  3
PUCSORGLEFT
350
5468
  3
PUCSORGRIGHT
350
5469
  3
PUCSORGTOP
350
5466
  3
PUCSORTHOREF
350
5463
  3
PUCSORTHOVIEW
350
5464
  3
STYLESHEET
350
5458
  3
TSTACKALIGN
350
5455
  3
TSTACKSIZE
350
5456
  3
UCSBASE
350
546E
  3
UCSORGBACK
350
5474
  3
UCSORGBOTTOM
350
5470
  3
UCSORGFRONT
350
5473
  3
UCSORGLEFT
350
5471
  3
UCSORGRIGHT
350
5472
  3
UCSORGTOP
350
546F
  3
UCSORTHOREF
350
546C
  3
UCSORTHOVIEW
350
546D
  3
VERSIONGUID
350
5460
  0
DICTIONARY
  5
216
102
{ACAD_REACTORS
330
C
102
}
330
C
100
AcDbDictionary
  3
DIMASSOC
350
219
  3
HIDETEXT
350
218
  3
INDEXCTL
350
217
  0
DICTIONARY
  5
45
102
{ACAD_REACTORS
330
C
102
}
330
C
100
AcDbDictionary
  3
ACMSTDDICTIONARY
350
4A
  0
DICTIONARY
  5
41
102
{ACAD_REACTORS
330
C
102
}
330
C
100
AcDbDictionary
  3
ACMGSETTINGS
350
42
  0
DICTIONARY
  5
23D
102
{ACAD_REACTORS
330
C
102
}
330
C
100
AcDbDictionary
  0
XRECORD
  5
53CF
102
{ACAD_REACTORS
330
C
102
}
330
C
100
AcDbXrecord
  1
DWGPROPS COOKIE
  2

  3

  4

  6

  7

  8

  9

300
AmdtFileType=84
301
=
302
=
303
=
304
=
305
=
306
=
307
=
308
=
309
=
 40
0.084130613425926
 41
2453599.366006042
 42
2453798.536342743
  1

 90
        1
  0
DICTIONARY
  5
1F2
102
{ACAD_REACTORS
330
1F1
102
}
330
1F1
100
AcDbDictionary
  3
*A1
350
1F3
  0
XRECORD
  5
5477
102
{ACAD_REACTORS
330
1F1
102
}
330
1F1
100
AcDbXrecord
340
1F
  0
XRECORD
  5
5476
102
{ACAD_REACTORS
330
5475
102
}
330
5475
100
AcDbXrecord
340
1B
  0
MLINESTYLE
  5
18
102
{ACAD_REACTORS
330
17
102
}
330
17
100
AcDbMlineStyle
  2
STANDARD
 70
     0
  3

 62
   256
 51
90.0
 52
90.0
 71
     2
 49
0.5
 62
   256
  6
BYLAYER
 49
-0.5
 62
   256
  6
BYLAYER
  0
ACDBPLACEHOLDER
  5
F
102
{ACAD_REACTORS
330
E
102
}
330
E
100
AcDbPlaceHolder
280
     0
  0
XRECORD
  5
545E
102
{ACAD_REACTORS
330
5454
102
}
330
5454
100
AcDbXrecord
 90
        0
  0
XRECORD
  5
5462
102
{ACAD_REACTORS
330
5454
102
}
330
5454
100
AcDbXrecord
1000
DSTYLE
1002
{
1070
    79
 70
     2
1070
   371
 70
    -1
1070
   372
 70
    -1
1002
}
  0
XRECORD
  5
545F
102
{ACAD_REACTORS
330
5454
102
}
330
5454
100
AcDbXrecord
  1
{03052709-208C-44F1-88CB-F8F0E550BC5D}
  0
XRECORD
  5
5457
102
{ACAD_REACTORS
330
5454
102
}
330
5454
100
AcDbXrecord
  1

  0
XRECORD
  5
545D
102
{ACAD_REACTORS
330
5454
102
}
330
5454
100
AcDbXrecord
 90
        4
  0
XRECORD
  5
5459
102
{ACAD_REACTORS
330
5454
102
}
330
5454
100
AcDbXrecord
340
1A
  0
XRECORD
  5
545C
102
{ACAD_REACTORS
330
5454
102
}
330
5454
100
AcDbXrecord
 90
    10781
  0
XRECORD
  5
545A
102
{ACAD_REACTORS
330
5454
102
}
330
5454
100
AcDbXrecord
340
19
  0
XRECORD
  5
545B
102
{ACAD_REACTORS
330
5454
102
}
330
5454
100
AcDbXrecord
340
E
  0
XRECORD
  5
5461
102
{ACAD_REACTORS
330
5454
102
}
330
5454
100
AcDbXrecord
 40
0.0
  0
XRECORD
  5
5465
102
{ACAD_REACTORS
330
5454
102
}
330
5454
100
AcDbXrecord
340
0
  0
XRECORD
  5
546B
102
{ACAD_REACTORS
330
5454
102
}
330
5454
100
AcDbXrecord
 10
0.0
 20
0.0
 30
0.0
  0
XRECORD
  5
5467
102
{ACAD_REACTORS
330
5454
102
}
330
5454
100
AcDbXrecord
 10
0.0
 20
0.0
 30
0.0
  0
XRECORD
  5
546A
102
{ACAD_REACTORS
330
5454
102
}
330
5454
100
AcDbXrecord
 10
0.0
 20
0.0
 30
0.0
  0
XRECORD
  5
5468
102
{ACAD_REACTORS
330
5454
102
}
330
5454
100
AcDbXrecord
 10
0.0
 20
0.0
 30
0.0
  0
XRECORD
  5
5469
102
{ACAD_REACTORS
330
5454
102
}
330
5454
100
AcDbXrecord
 10
0.0
 20
0.0
 30
0.0
  0
XRECORD
  5
5466
102
{ACAD_REACTORS
330
5454
102
}
330
5454
100
AcDbXrecord
 10
0.0
 20
0.0
 30
0.0
  0
XRECORD
  5
5463
102
{ACAD_REACTORS
330
5454
102
}
330
5454
100
AcDbXrecord
340
0
  0
XRECORD
  5
5464
102
{ACAD_REACTORS
330
5454
102
}
330
5454
100
AcDbXrecord
 70
     0
  0
XRECORD
  5
5458
102
{ACAD_REACTORS
330
5454
102
}
330
5454
100
AcDbXrecord
  1

  0
XRECORD
  5
5455
102
{ACAD_REACTORS
330
5454
102
}
330
5454
100
AcDbXrecord
 90
        1
  0
XRECORD
  5
5456
102
{ACAD_REACTORS
330
5454
102
}
330
5454
100
AcDbXrecord
 90
       70
  0
XRECORD
  5
546E
102
{ACAD_REACTORS
330
5454
102
}
330
5454
100
AcDbXrecord
340
0
  0
XRECORD
  5
5474
102
{ACAD_REACTORS
330
5454
102
}
330
5454
100
AcDbXrecord
 10
0.0
 20
0.0
 30
0.0
  0
XRECORD
  5
5470
102
{ACAD_REACTORS
330
5454
102
}
330
5454
100
AcDbXrecord
 10
0.0
 20
0.0
 30
0.0
  0
XRECORD
  5
5473
102
{ACAD_REACTORS
330
5454
102
}
330
5454
100
AcDbXrecord
 10
0.0
 20
0.0
 30
0.0
  0
XRECORD
  5
5471
102
{ACAD_REACTORS
330
5454
102
}
330
5454
100
AcDbXrecord
 10
0.0
 20
0.0
 30
0.0
  0
XRECORD
  5
5472
102
{ACAD_REACTORS
330
5454
102
}
330
5454
100
AcDbXrecord
 10
0.0
 20
0.0
 30
0.0
  0
XRECORD
  5
546F
102
{ACAD_REACTORS
330
5454
102
}
330
5454
100
AcDbXrecord
 10
0.0
 20
0.0
 30
0.0
  0
XRECORD
  5
546C
102
{ACAD_REACTORS
330
5454
102
}
330
5454
100
AcDbXrecord
340
0
  0
XRECORD
  5
546D
102
{ACAD_REACTORS
330
5454
102
}
330
5454
100
AcDbXrecord
 70
     0
  0
XRECORD
  5
5460
102
{ACAD_REACTORS
330
5454
102
}
330
5454
100
AcDbXrecord
  1
{6206D2F1-1C2A-4038-B286-2295944F77EA}
  0
DICTIONARYVAR
  5
219
102
{ACAD_REACTORS
330
216
102
}
330
216
100
DictionaryVariables
280
     0
  1
1
  0
DICTIONARYVAR
  5
218
102
{ACAD_REACTORS
330
216
102
}
330
216
100
DictionaryVariables
280
     0
  1
1
  0
DICTIONARYVAR
  5
217
102
{ACAD_REACTORS
330
216
102
}
330
216
100
DictionaryVariables
280
     0
  1
1
  0
DICTIONARY
  5
4A
102
{ACAD_REACTORS
330
45
102
}
330
45
100
AcDbDictionary
  0
DICTIONARY
  5
42
102
{ACAD_REACTORS
330
41
102
}
330
41
100
AcDbDictionary
  3
DWGSETTINGS
350
43
  0
LAYER_INDEX
  5
1F3
102
{ACAD_REACTORS
330
1F2
102
}
330
1F2
100
AcDbIndex
 40
2453874.475012812
100
AcDbLayerIndex
  8
0
360
1F4
 90
        0
  8
Defpoints
360
210
 90
        0
  8
1
360
29B
 90
       33
  8
2
360
1EC1
 90
        2
  8
4
360
1EC2
 90
        5
  8
6
360
1EC3
 90
        3
  8
SK1
360
1EC4
 90
       15
  8
SK2
360
1EC5
 90
        5
  8
SK3
360
1EC6
 90
       47
  8
NOCUT
360
1EC7
 90
       13
  8
SK4
360
3022
 90
        5
  0
XRECORD
  5
43
102
{ACAD_REACTORS
330
42
102
}
330
42
100
AcDbXrecord
  1
VERSION
140
15.0
  1
PRODUCT
  2
AutoCAD Mechanical 2000
  0
IDBUFFER
  5
1F4
330
0
100
AcDbIdBuffer
  0
IDBUFFER
  5
210
330
0
100
AcDbIdBuffer
  0
IDBUFFER
  5
29B
330
0
100
AcDbIdBuffer
330
5075
330
5076
330
5077
330
5078
330
5079
330
507A
330
507B
330
508E
330
5096
330
509C
330
50A3
330
50A4
330
50A5
330
50A6
330
50A7
330
50A8
330
50A9
330
50B0
330
50B7
330
50B8
330
50B9
330
50BB
330
50BC
330
50BD
330
50BE
330
50C0
330
50C1
330
50C7
330
50C8
330
50C9
330
50CA
330
50CB
330
50CE
  0
IDBUFFER
  5
1EC1
330
0
100
AcDbIdBuffer
330
515A
330
5183
  0
IDBUFFER
  5
1EC2
330
0
100
AcDbIdBuffer
330
50A2
330
50B6
330
50BA
330
50BF
330
511F
  0
IDBUFFER
  5
1EC3
330
0
100
AcDbIdBuffer
330
5124
330
5125
330
5126
  0
IDBUFFER
  5
1EC4
330
0
100
AcDbIdBuffer
330
5123
330
5122
330
5121
330
509D
330
50AA
330
50B3
330
50B4
330
50C2
330
50C3
330
50C4
330
50CC
330
50CD
330
511C
330
511D
330
511E
  0
IDBUFFER
  5
1EC5
330
0
100
AcDbIdBuffer
330
541F
330
51B5
330
51E6
330
5220
330
525A
  0
IDBUFFER
  5
1EC6
330
0
100
AcDbIdBuffer
330
507F
330
5081
330
5082
330
5083
330
5084
330
5085
330
5087
330
5088
330
5089
330
508A
330
508B
330
508D
330
508F
330
5090
330
5091
330
5092
330
5098
330
5099
330
509A
330
509B
330
509E
330
509F
330
50A0
330
50A1
330
50AB
330
50AC
330
50AD
330
50AE
330
50AF
330
50B1
330
50B2
330
50B5
330
50D0
330
50D2
330
50D3
330
50D5
330
50D6
330
50D8
330
50D9
330
50DA
330
50DB
330
50DD
330
50DE
330
50DF
330
507C
330
507D
330
507E
  0
IDBUFFER
  5
1EC7
330
0
100
AcDbIdBuffer
330
52C6
330
52C7
330
52C8
330
52C9
330
52CE
330
52CF
330
52D0
330
52D1
330
52D2
330
52D4
330
52D8
330
52DE
330
52E9
  0
IDBUFFER
  5
3022
330
0
100
AcDbIdBuffer
330
5097
330
50D4
330
50DC
330
5086
330
508C
  0
ENDSEC
  0
EOF
