  0
SECTION
  2
HEADER
  9
$ACADVER
  1
AC1014
  9
$ACADMAINTVER
 70
     9
  9
$DWGCODEPAGE
  3
ANSI_1252
  9
$INSBASE
 10
0.0
 20
0.0
 30
0.0
  9
$EXTMIN
 10
-77.81790166888754
 20
-131.4600998941819
 30
-0.0000000000000058
  9
$EXTMAX
 10
115.8985705839527
 20
184.9915949259074
 30
0.0000000000000104
  9
$LIMMIN
 10
0.0
 20
0.0
  9
$LIMMAX
 10
420.0
 20
297.0
  9
$ORTHOMODE
 70
     0
  9
$REGENMODE
 70
     1
  9
$FILLMODE
 70
     1
  9
$QTEXTMODE
 70
     0
  9
$MIRRTEXT
 70
     1
  9
$DRAGMODE
 70
     2
  9
$LTSCALE
 40
1.0
  9
$OSMODE
 70
  2599
  9
$ATTMODE
 70
     1
  9
$TEXTSIZE
 40
3.5
  9
$TRACEWID
 40
1.0
  9
$TEXTSTYLE
  7
STANDARD
  9
$CLAYER
  8
0
  9
$CELTYPE
  6
BYLAYER
  9
$CECOLOR
 62
   256
  9
$CELTSCALE
 40
1.0
  9
$DELOBJ
 70
     1
  9
$DISPSILH
 70
     0
  9
$DIMSCALE
 40
1.0
  9
$DIMASZ
 40
2.5
  9
$DIMEXO
 40
0.0
  9
$DIMDLI
 40
10.0
  9
$DIMRND
 40
0.0
  9
$DIMDLE
 40
0.0
  9
$DIMEXE
 40
1.0
  9
$DIMTP
 40
0.1
  9
$DIMTM
 40
0.1
  9
$DIMTXT
 40
3.5
  9
$DIMCEN
 40
0.0
  9
$DIMTSZ
 40
0.0
  9
$DIMTOL
 70
     0
  9
$DIMLIM
 70
     0
  9
$DIMTIH
 70
     0
  9
$DIMTOH
 70
     0
  9
$DIMSE1
 70
     0
  9
$DIMSE2
 70
     0
  9
$DIMTAD
 70
     1
  9
$DIMZIN
 70
     8
  9
$DIMBLK
  1

  9
$DIMASO
 70
     1
  9
$DIMSHO
 70
     1
  9
$DIMPOST
  1

  9
$DIMAPOST
  1
"
  9
$DIMALT
 70
     0
  9
$DIMALTD
 70
     2
  9
$DIMALTF
 40
0.0393701
  9
$DIMLFAC
 40
1.0
  9
$DIMTOFL
 70
     1
  9
$DIMTVP
 40
0.0
  9
$DIMTIX
 70
     0
  9
$DIMSOXD
 70
     0
  9
$DIMSAH
 70
     0
  9
$DIMBLK1
  1

  9
$DIMBLK2
  1

  9
$DIMSTYLE
  2
AM_DIN
  9
$DIMCLRD
 70
   256
  9
$DIMCLRE
 70
   256
  9
$DIMCLRT
 70
     2
  9
$DIMTFAC
 40
0.71
  9
$DIMGAP
 40
1.5
  9
$DIMJUST
 70
     0
  9
$DIMSD1
 70
     0
  9
$DIMSD2
 70
     0
  9
$DIMTOLJ
 70
     0
  9
$DIMTZIN
 70
     8
  9
$DIMALTZ
 70
     0
  9
$DIMALTTZ
 70
     0
  9
$DIMFIT
 70
     3
  9
$DIMUPT
 70
     0
  9
$DIMUNIT
 70
     2
  9
$DIMDEC
 70
     2
  9
$DIMTDEC
 70
     2
  9
$DIMALTU
 70
     2
  9
$DIMALTTD
 70
     2
  9
$DIMTXSTY
  7
STANDARD
  9
$DIMAUNIT
 70
     0
  9
$LUNITS
 70
     2
  9
$LUPREC
 70
     2
  9
$SKETCHINC
 40
1.0
  9
$FILLETRAD
 40
3.0
  9
$AUNITS
 70
     0
  9
$AUPREC
 70
     0
  9
$MENU
  1
.
  9
$ELEVATION
 40
0.0
  9
$PELEVATION
 40
0.0
  9
$THICKNESS
 40
0.0
  9
$LIMCHECK
 70
     0
  9
$BLIPMODE
 70
     0
  9
$CHAMFERA
 40
2.5
  9
$CHAMFERB
 40
2.5
  9
$CHAMFERC
 40
20.0
  9
$CHAMFERD
 40
0.0
  9
$SKPOLY
 70
     0
  9
$TDCREATE
 40
2453599.366006042
  9
$TDUPDATE
 40
2453874.472394467
  9
$TDINDWG
 40
0.0798225579
  9
$TDUSRTIMER
 40
0.0797982176
  9
$USRTIMER
 70
     1
  9
$ANGBASE
 50
0.0
  9
$ANGDIR
 70
     0
  9
$PDMODE
 70
     0
  9
$PDSIZE
 40
0.0
  9
$PLINEWID
 40
0.0
  9
$COORDS
 70
     0
  9
$SPLFRAME
 70
     0
  9
$SPLINETYPE
 70
     6
  9
$SPLINESEGS
 70
     8
  9
$ATTDIA
 70
     1
  9
$ATTREQ
 70
     1
  9
$HANDLING
 70
 22529
  9
$HANDSEED
  5
42D3
  9
$SURFTAB1
 70
     6
  9
$SURFTAB2
 70
     6
  9
$SURFTYPE
 70
     6
  9
$SURFU
 70
     6
  9
$SURFV
 70
     6
  9
$UCSNAME
  2

  9
$UCSORG
 10
0.0
 20
0.0
 30
0.0
  9
$UCSXDIR
 10
1.0
 20
0.0
 30
0.0
  9
$UCSYDIR
 10
0.0
 20
1.0
 30
0.0
  9
$PUCSNAME
  2

  9
$PUCSORG
 10
0.0
 20
0.0
 30
0.0
  9
$PUCSXDIR
 10
1.0
 20
0.0
 30
0.0
  9
$PUCSYDIR
 10
0.0
 20
1.0
 30
0.0
  9
$USERI1
 70
     0
  9
$USERI2
 70
     0
  9
$USERI3
 70
     0
  9
$USERI4
 70
     0
  9
$USERI5
 70
     0
  9
$USERR1
 40
0.0
  9
$USERR2
 40
0.0
  9
$USERR3
 40
0.0
  9
$USERR4
 40
0.0
  9
$USERR5
 40
0.0
  9
$WORLDVIEW
 70
     1
  9
$SHADEDGE
 70
     3
  9
$SHADEDIF
 70
    70
  9
$TILEMODE
 70
     1
  9
$MAXACTVP
 70
    64
  9
$PINSBASE
 10
0.0
 20
0.0
 30
0.0
  9
$PLIMCHECK
 70
     0
  9
$PEXTMIN
 10
1.000000000000000E+20
 20
1.000000000000000E+20
 30
1.000000000000000E+20
  9
$PEXTMAX
 10
-1.000000000000000E+20
 20
-1.000000000000000E+20
 30
-1.000000000000000E+20
  9
$PLIMMIN
 10
0.0
 20
0.0
  9
$PLIMMAX
 10
420.0
 20
297.0
  9
$UNITMODE
 70
     0
  9
$VISRETAIN
 70
     1
  9
$PLINEGEN
 70
     0
  9
$PSLTSCALE
 70
     1
  9
$TREEDEPTH
 70
  3020
  9
$PICKSTYLE
 70
     0
  9
$CMLSTYLE
  2
STANDARD
  9
$CMLJUST
 70
     0
  9
$CMLSCALE
 40
20.0
  9
$PROXYGRAPHICS
 70
     1
  9
$MEASUREMENT
 70
     1
  0
ENDSEC
  0
SECTION
  2
CLASSES
  0
CLASS
  1
ACDBDICTIONARYWDFLT
  2
AcDbDictionaryWithDefault
  3
AutoCAD 2000
 90
        0
280
     0
281
     0
  0
CLASS
  1
ACDBPLACEHOLDER
  2
AcDbPlaceHolder
  3
AutoCAD 2000
 90
        0
280
     0
281
     0
  0
CLASS
  1
LAYOUT
  2
AcDbLayout
  3
AutoCAD 2000
 90
        0
280
     0
281
     0
  0
CLASS
  1
ACME_DOCUMENT
  2
AcMeDbDoc
  3
AcMeServices
 90
        0
280
     0
281
     0
  0
CLASS
  1
ACMESCOPE
  2
AcMeScope
  3
AcMeServices
 90
        0
280
     0
281
     0
  0
CLASS
  1
ACMECOMMANDHISTORY
  2
AcMeCommandHistory
  3
AcMeServices
 90
        0
280
     0
281
     0
  0
CLASS
  1
ACIMSYSVARMAN
  2
AcImSysVarManager
  3
AcMeServices
 90
        0
280
     0
281
     0
  0
CLASS
  1
ACIMREALSYSVAR
  2
AcImRealSysVar
  3
AcMeServices
 90
        0
280
     0
281
     0
  0
CLASS
  1
ACIMINTSYSVAR
  2
AcImIntSysVar
  3
AcMeServices
 90
        0
280
     0
281
     0
  0
CLASS
  1
ACMEDRAWINGMAN
  2
AcMeDrawingMan
  3
AcMeServices
 90
        0
280
     0
281
     0
  0
CLASS
  1
ACMEVIEW
  2
AcMeView
  3
AcMeServices
 90
        0
280
     0
281
     0
  0
CLASS
  1
ACDBENTITYCACHE
  2
AcMeEntityCache
  3
AcMeServices
 90
        0
280
     0
281
     0
  0
CLASS
  1
GSMANAGER
  2
AcMeGSManager
  3
AcMeServices
 90
        0
280
     0
281
     0
  0
CLASS
  1
AMDTINTERNALREACTOR
  2
AmdtInternalReactor
  3
AcMeServices
 90
        0
280
     0
281
     0
  0
CLASS
  1
ACMESTATEMGR
  2
AcMeStateMgr
  3
AcMeServices
 90
        0
280
     0
281
     0
  0
CLASS
  1
ACGREFMASTER
  2
AcGrefMaster
  3
AcAttribServices
 90
        0
280
     0
281
     0
  0
CLASS
  1
ACME_DATABASE
  2
AcMeDbDatabase
  3
AcMeServices
 90
        0
280
     0
281
     0
  0
CLASS
  1
ACRFINSADJUSTERMGR
  2
AcRfInsAdjusterMgr
  3
AcMeServices
 90
        0
280
     0
281
     0
  0
CLASS
  1
ACGREFACADMASTER
  2
AcGrefacadMaster
  3
AcGrefServices
 90
        0
280
     0
281
     0
  0
CLASS
  1
AMIMASTER
  2
AmiMaster
  3
AmiServices
 90
        0
280
     0
281
     0
  0
CLASS
  1
AMGSETTINGSOBJ
  2
AmgSettingsObj
  3
"AcadM|Product Description: AutoCAD Mechanical 2000|Company: Autodesk"
 90
        0
280
     0
281
     0
  0
CLASS
  1
ACMDATADICTIONARY
  2
AcmDataDictionary
  3
"AcmSymBB|Product Description: AutoCAD Mechanical 2000|Company: Autodesk"
 90
        0
280
     0
281
     0
  0
CLASS
  1
ACMDATAENTRYBLOCK
  2
AcmDataEntryBlock
  3
"AcmSymBB|Product Description: AutoCAD Mechanical 2000|Company: Autodesk"
 90
        0
280
     0
281
     0
  0
CLASS
  1
ACIMSTRSYSVAR
  2
AcImStrSysVar
  3
AcMeServices
 90
        0
280
     0
281
     0
  0
CLASS
  1
ACMSTANDARDDIN
  2
AcmStandardDIN
  3
"Amdt_StdImp|Product Description: AutoCAD Mechanical 2000|Company: Autodesk"
 90
        0
280
     0
281
     0
  0
CLASS
  1
AMGOBJPROPCFG
  2
AmgObjPropCfg
  3
"AmgLay|Product Description: AutoCAD Mechanical 2000|Company: Autodesk"
 90
        1
280
     0
281
     0
  0
CLASS
  1
AMDTEDGESTANDARDDIN
  2
AmdtEdgeStdDIN
  3
"Amdt_StdImp|Product Description: AutoCAD Mechanical 2000|Company: Autodesk"
 90
        0
280
     0
281
     0
  0
CLASS
  1
ACMSURFSTANDARDDIN
  2
AcmSurfTextStdDIN
  3
"Amdt_StdImp|Product Description: AutoCAD Mechanical 2000|Company: Autodesk"
 90
        0
280
     0
281
     0
  0
CLASS
  1
ACMFCFSTANDARDDIN
  2
AcmFCFStdDIN
  3
"Amdt_StdImp|Product Description: AutoCAD Mechanical 2000|Company: Autodesk"
 90
        0
280
     0
281
     0
  0
CLASS
  1
ACMWELDSTANDARDDIN
  2
AcmWeldingStdDIN
  3
"Amdt_StdImp|Product Description: AutoCAD Mechanical 2000|Company: Autodesk"
 90
        0
280
     0
281
     0
  0
CLASS
  1
ACMIDSTANDARDDIN
  2
AcmIdStdDIN
  3
"Amdt_StdImp|Product Description: AutoCAD Mechanical 2000|Company: Autodesk"
 90
        0
280
     0
281
     0
  0
CLASS
  1
ACMDATUMSTANDARDDIN
  2
AcmDatumStdDIN
  3
"Amdt_StdImp|Product Description: AutoCAD Mechanical 2000|Company: Autodesk"
 90
        0
280
     0
281
     0
  0
CLASS
  1
ACMBOMSTANDARDDIN
  2
AcmBOMStdDIN
  3
"Amdt_StdImp|Product Description: AutoCAD Mechanical 2000|Company: Autodesk"
 90
        0
280
     0
281
     0
  0
CLASS
  1
ACMDETAILSTANDARDDIN
  2
AmdtDetailSymStdDIN
  3
"Amdt_StdImp|Product Description: AutoCAD Mechanical 2000|Company: Autodesk"
 90
        0
280
     0
281
     0
  0
CLASS
  1
ACMSECTIONSTANDARDDIN
  2
AmdtSectionSymStdDIN
  3
"Amdt_StdImp|Product Description: AutoCAD Mechanical 2000|Company: Autodesk"
 90
        0
280
     0
281
     0
  0
CLASS
  1
ACMCENTERLINESTANDARDDIN
  2
AmdtCenterLineStdDIN
  3
"Amdt_StdImp|Product Description: AutoCAD Mechanical 2000|Company: Autodesk"
 90
        0
280
     0
281
     0
  0
CLASS
  1
ACMNOTESTANDARDDIN
  2
AmdtNoteStdDIN
  3
"Amdt_StdImp|Product Description: AutoCAD Mechanical 2000|Company: Autodesk"
 90
        0
280
     0
281
     0
  0
CLASS
  1
ACAMGLAYSTD
  2
AcAmgLayStd
  3
"AcAmgLayStd|Product Description: AutoCAD Mechanical 2000|Company: Autodesk"
 90
        0
280
     0
281
     0
  0
CLASS
  1
ACAMGDIMSTD
  2
AcAmgDimStd
  3
"AcAmgDimStd|Product Description: AutoCAD Mechanical 2000|Company: Autodesk"
 90
        0
280
     0
281
     0
  0
CLASS
  1
ACAMGHOLECHARTSTDDIN
  2
AcAmgHoleChartStdDIN
  3
ACMSYMBB_MODULE_NAME
 90
        0
280
     0
281
     0
  0
CLASS
  1
ACAMGTITLESTD
  2
AcAmgTitleStd
  3
"TITLEAPP"
 90
        0
280
     0
281
     0
  0
CLASS
  1
ACMSTANDARDANSI
  2
AcmStandardANSI
  3
"Amdt_StdImp|Product Description: AutoCAD Mechanical 2000|Company: Autodesk"
 90
        0
280
     0
281
     0
  0
CLASS
  1
ACMSURFSTANDARDANSI
  2
AcmSurfTextStdANSI
  3
"Amdt_StdImp|Product Description: AutoCAD Mechanical 2000|Company: Autodesk"
 90
        0
280
     0
281
     0
  0
CLASS
  1
ACMFCFSTANDARDANSI
  2
AcmFCFStdANSI
  3
"Amdt_StdImp|Product Description: AutoCAD Mechanical 2000|Company: Autodesk"
 90
        0
280
     0
281
     0
  0
CLASS
  1
ACMWELDSTANDARDANSI
  2
AcmWeldingStdANSI
  3
"Amdt_StdImp|Product Description: AutoCAD Mechanical 2000|Company: Autodesk"
 90
        0
280
     0
281
     0
  0
CLASS
  1
ACMIDSTANDARDANSI
  2
AcmIdStdANSI
  3
"Amdt_StdImp|Product Description: AutoCAD Mechanical 2000|Company: Autodesk"
 90
        0
280
     0
281
     0
  0
CLASS
  1
ACMDATUMSTANDARDANSI
  2
AcmDatumStdANSI
  3
"Amdt_StdImp|Product Description: AutoCAD Mechanical 2000|Company: Autodesk"
 90
        0
280
     0
281
     0
  0
CLASS
  1
ACMBOMSTANDARDANSI
  2
AcmBOMStdANSI
  3
"Amdt_StdImp|Product Description: AutoCAD Mechanical 2000|Company: Autodesk"
 90
        0
280
     0
281
     0
  0
CLASS
  1
ACMDETAILSTANDARDANSI
  2
AmdtDetailSymStdANSI
  3
"Amdt_StdImp|Product Description: AutoCAD Mechanical 2000|Company: Autodesk"
 90
        0
280
     0
281
     0
  0
CLASS
  1
ACMSECTIONSTANDARDANSI
  2
AmdtSectionSymStdANSI
  3
"Amdt_StdImp|Product Description: AutoCAD Mechanical 2000|Company: Autodesk"
 90
        0
280
     0
281
     0
  0
CLASS
  1
ACMCENTERLINESTANDARDANSI
  2
AmdtCenterLineStdANSI
  3
"Amdt_StdImp|Product Description: AutoCAD Mechanical 2000|Company: Autodesk"
 90
        0
280
     0
281
     0
  0
CLASS
  1
ACMNOTESTANDARDANSI
  2
AmdtNoteStdANSI
  3
"Amdt_StdImp|Product Description: AutoCAD Mechanical 2000|Company: Autodesk"
 90
        0
280
     0
281
     0
  0
CLASS
  1
ACAMGHOLECHARTSTDANSI
  2
AcAmgHoleChartStdANSI
  3
ACMSYMBB_MODULE_NAME
 90
        0
280
     0
281
     0
  0
CLASS
  1
ACAMGFILTERDAT
  2
AcAmgFilterDat
  3
"AcadM|Product Description: AutoCAD Mechanical 2000|Company: Autodesk"
 90
        0
280
     0
281
     0
  0
CLASS
  1
AMDTFORMULAUPDATEDISPATCHER
  2
AmdtFormulaUpdateDispatcher
  3
AcMeServices
 90
        0
280
     0
281
     0
  0
CLASS
  1
LAYER_INDEX
  2
AcDbLayerIndex
  3
AutoCAD 2000
 90
        0
280
     0
281
     0
  0
CLASS
  1
IDBUFFER
  2
AcDbIdBuffer
  3
AutoCAD 2000
 90
        0
280
     0
281
     0
  0
CLASS
  1
DICTIONARYVAR
  2
AcDbDictionaryVar
  3
AutoCAD 2000
 90
        0
280
     0
281
     0
  0
CLASS
  1
DIMASSOC
  2
AcDbDimAssoc
  3
"AcDbDimAssoc|Product Desc:     AcDim ARX App For Dimension|Company:          Autodesk, Inc.|WEB Address:      www.autodesk.com"
 90
        0
280
     0
281
     0
  0
CLASS
  1
ACMDIMBREAKPERSREACTOR
  2
AcmDimBreakPersReactor
  3
amgDimApp().moduleName()
 90
     1023
280
     0
281
     0
  0
CLASS
  1
ACMSURFSYM
  2
AcmSurfaceTexture
  3
"AcmSymBB|Product Description: AutoCAD Mechanical 2000|Company: Autodesk"
 90
     1023
280
     0
281
     1
  0
CLASS
  1
ACMFCFRAME
  2
AcmFCF
  3
"AcmSymBB|Product Description: AutoCAD Mechanical 2000|Company: Autodesk"
 90
     1023
280
     0
281
     1
  0
CLASS
  1
LONG_TRANSACTION
  2
AcDbLongTransaction
  3
AutoCAD 2000
 90
        0
280
     0
281
     0
  0
CLASS
  1
LWPOLYLINE
  2
AcDbPolyline
  3
AutoCAD 2000
 90
        0
280
     0
281
     1
  0
CLASS
  1
HATCH
  2
AcDbHatch
  3
AutoCAD 2000
 90
        0
280
     0
281
     1
  0
CLASS
  1
XRECORD
  2
AcDbXrecord
  3
AutoCAD 2000
 90
        0
280
     0
281
     0
  0
ENDSEC
  0
SECTION
  2
TABLES
  0
TABLE
  2
VPORT
  5
8
330
0
100
AcDbSymbolTable
 70
    76
  0
VPORT
  5
42AC
330
8
100
AcDbSymbolTableRecord
100
AcDbViewportTableRecord
  2
*ACTIVE
 70
     0
 10
0.0
 20
0.0
 11
1.0
 21
1.0
 12
171.0910491655562
 22
82.76995005290904
 13
0.0
 23
0.0
 14
2.5
 24
2.5
 15
10.0
 25
10.0
 16
0.0
 26
0.0
 36
1.0
 17
0.0
 27
0.0
 37
0.0
 40
433.2742583199592
 41
1.72607879924953
 42
50.0
 43
0.0
 44
0.0
 50
0.0
 51
0.0
 71
     0
 72
 10000
 73
     1
 74
     3
 75
     0
 76
     0
 77
     0
 78
     0
  0
ENDTAB
  0
TABLE
  2
LTYPE
  5
5
330
0
100
AcDbSymbolTable
 70
    16
  0
LTYPE
  5
14
330
5
100
AcDbSymbolTableRecord
100
AcDbLinetypeTableRecord
  2
BYBLOCK
 70
     0
  3

 72
    65
 73
     0
 40
0.0
  0
LTYPE
  5
15
330
5
100
AcDbSymbolTableRecord
100
AcDbLinetypeTableRecord
  2
BYLAYER
 70
     0
  3

 72
    65
 73
     0
 40
0.0
  0
LTYPE
  5
16
330
5
100
AcDbSymbolTableRecord
100
AcDbLinetypeTableRecord
  2
CONTINUOUS
 70
     0
  3
Solid line
 72
    65
 73
     0
 40
0.0
  0
LTYPE
  5
50
330
5
100
AcDbSymbolTableRecord
100
AcDbLinetypeTableRecord
  2
AMCONSTR
 70
     0
  3
_______________________
 72
    65
 73
     2
 40
9999.0
 49
9999.0
 74
     0
 49
0.0
 74
     0
  0
LTYPE
  5
55
330
5
100
AcDbSymbolTableRecord
100
AcDbLinetypeTableRecord
  2
AMZIGZAG
 70
     0
  3
/\/-/\/-/\/-/\/-/\/-/\/
 72
    65
 73
     2
 40
11.00009999999999
 49
0.0001
 74
     4
 75
   135
340
54
 46
0.04
 50
0.0
 44
0.0
 45
0.0
 49
-11.0
 74
     0
  0
LTYPE
  5
56
330
5
100
AcDbSymbolTableRecord
100
AcDbLinetypeTableRecord
  2
AM_DIN_F_W050
 70
     0
  3
__ __ __ __ __ __ __ __ __ __ __ __ __ __ __
 72
    65
 73
     2
 40
6.25
 49
4.75
 74
     0
 49
-1.5
 74
     0
  0
LTYPE
  5
57
330
5
100
AcDbSymbolTableRecord
100
AcDbLinetypeTableRecord
  2
AM_DIN_G_W050
 70
     0
  3
____ . ____ . ____ . ____ . ____ . ____ . ____
 72
    65
 73
     4
 40
13.75
 49
9.75
 74
     0
 49
-1.5
 74
     0
 49
1.0
 74
     0
 49
-1.5
 74
     0
  0
LTYPE
  5
58
330
5
100
AcDbSymbolTableRecord
100
AcDbLinetypeTableRecord
  2
AM_DIN_K_W050
 70
     0
  3
_____ . . _____ . . _____ . . ____ .. ____
 72
    65
 73
     6
 40
16.25
 49
9.75
 74
     0
 49
-1.5
 74
     0
 49
1.0
 74
     0
 49
-1.5
 74
     0
 49
1.0
 74
     0
 49
-1.5
 74
     0
  0
LTYPE
  5
59
330
5
100
AcDbSymbolTableRecord
100
AcDbLinetypeTableRecord
  2
AM_DIN_G_W050X2
 70
     0
  3
__ . __ . __ . __ . __ . __
 72
    65
 73
     4
 40
6.875
 49
4.75
 74
     0
 49
-0.875
 74
     0
 49
0.375
 74
     0
 49
-0.875
 74
     0
  0
LTYPE
  5
5A
330
5
100
AcDbSymbolTableRecord
100
AcDbLinetypeTableRecord
  2
AM_DIN_F_W050X2
 70
     0
  3
 _ _ _ _ _ _ _ _ _ _ _ _
 72
    65
 73
     2
 40
3.125
 49
2.25
 74
     0
 49
-0.875
 74
     0
  0
LTYPE
  5
68
330
5
100
AcDbSymbolTableRecord
100
AcDbLinetypeTableRecord
  2
ACDINWELD
 70
     0
  3
_ _ _ _ _
 72
    65
 73
     2
 40
2.0
 49
2.0
 74
     0
 49
-1.0
 74
     0
  0
LTYPE
  5
69
330
5
100
AcDbSymbolTableRecord
100
AcDbLinetypeTableRecord
  2
ACDINTGB
 70
     0
  3
__ . . __ . .
 72
    65
 73
     6
 40
9.0
 49
4.0
 74
     0
 49
-1.0
 74
     0
 49
1.0
 74
     0
 49
-1.0
 74
     0
 49
1.0
 74
     0
 49
-1.0
 74
     0
  0
LTYPE
  5
6A
330
5
100
AcDbSymbolTableRecord
100
AcDbLinetypeTableRecord
  2
ACDINTGL
 70
     0
  3
_ _ _ _ _
 72
    65
 73
     2
 40
3.0
 49
2.0
 74
     0
 49
-1.0
 74
     0
  0
LTYPE
  5
6C
330
5
100
AcDbSymbolTableRecord
100
AcDbLinetypeTableRecord
  2
CENTER
 70
     0
  3
__ . __
 72
    65
 73
     4
 40
7.0
 49
4.0
 74
     0
 49
-1.0
 74
     0
 49
1.0
 74
     0
 49
-1.0
 74
     0
  0
LTYPE
  5
1E2C
330
5
100
AcDbSymbolTableRecord
100
AcDbLinetypeTableRecord
  2
PHANTOM2
 70
     0
  3
Phantom (.5x) ___ _ _ ___ _ _ ___ _ _ ___ _ _
 72
    65
 73
     6
 40
1.25
 49
0.625
 74
     0
 49
-0.125
 74
     0
 49
0.125
 74
     0
 49
-0.125
 74
     0
 49
0.125
 74
     0
 49
-0.125
 74
     0
  0
LTYPE
  5
1E2D
330
5
100
AcDbSymbolTableRecord
100
AcDbLinetypeTableRecord
  2
ACANSTGB
 70
     0
  3
__ . . __ . .
 72
    65
 73
     6
 40
0.35433070866
 49
0.15748031496
 74
     0
 49
-0.03937007874
 74
     0
 49
0.03937007874
 74
     0
 49
-0.03937007874
 74
     0
 49
0.03937007874
 74
     0
 49
-0.03937007874
 74
     0
  0
LTYPE
  5
1E2E
330
5
100
AcDbSymbolTableRecord
100
AcDbLinetypeTableRecord
  2
ACANSTGL
 70
     0
  3
_ _ _ _ _
 72
    65
 73
     2
 40
0.11811023622
 49
0.07874015748
 74
     0
 49
-0.03937007874
 74
     0
  0
LTYPE
  5
1E2F
330
5
100
AcDbSymbolTableRecord
100
AcDbLinetypeTableRecord
  2
DASHED
 70
     0
  3
__ __ __ __ __ __ __ __ __ __ __ __ __ __ __ __
 72
    65
 73
     2
 40
19.05
 49
12.7
 74
     0
 49
-6.349999999999998
 74
     0
  0
ENDTAB
  0
TABLE
  2
LAYER
  5
2
330
0
100
AcDbSymbolTable
 70
    12
  0
LAYER
  5
10
330
2
100
AcDbSymbolTableRecord
100
AcDbLayerTableRecord
  2
0
 70
     0
 62
     7
  6
CONTINUOUS
  0
LAYER
  5
263
330
2
100
AcDbSymbolTableRecord
100
AcDbLayerTableRecord
  2
DEFPOINTS
 70
     0
 62
     7
  6
CONTINUOUS
  0
LAYER
  5
1E30
330
2
100
AcDbSymbolTableRecord
100
AcDbLayerTableRecord
  2
1
 70
     0
 62
     4
  6
CONTINUOUS
  0
LAYER
  5
1E31
330
2
100
AcDbSymbolTableRecord
100
AcDbLayerTableRecord
  2
2
 70
     0
 62
     7
  6
CONTINUOUS
  0
LAYER
  5
1E32
330
2
100
AcDbSymbolTableRecord
100
AcDbLayerTableRecord
  2
4
 70
     0
 62
     2
  6
CENTER
  0
LAYER
  5
1E33
330
2
100
AcDbSymbolTableRecord
100
AcDbLayerTableRecord
  2
6
 70
     0
 62
     5
  6
CONTINUOUS
  0
LAYER
  5
1E34
330
2
100
AcDbSymbolTableRecord
100
AcDbLayerTableRecord
  2
SK1
 70
     0
 62
     4
  6
CONTINUOUS
  0
LAYER
  5
1E35
330
2
100
AcDbSymbolTableRecord
100
AcDbLayerTableRecord
  2
SK2
 70
     0
 62
     7
  6
CONTINUOUS
  0
LAYER
  5
1E36
330
2
100
AcDbSymbolTableRecord
100
AcDbLayerTableRecord
  2
SK3
 70
     0
 62
     1
  6
DASHED
  0
LAYER
  5
1E38
330
2
100
AcDbSymbolTableRecord
100
AcDbLayerTableRecord
  2
NOCUT
 70
     0
 62
     7
  6
CONTINUOUS
  0
LAYER
  5
2E80
330
2
100
AcDbSymbolTableRecord
100
AcDbLayerTableRecord
  2
SK4
 70
     0
 62
     2
  6
CENTER
  0
ENDTAB
  0
TABLE
  2
STYLE
  5
3
330
0
100
AcDbSymbolTable
 70
     6
  0
STYLE
  5
11
330
3
100
AcDbSymbolTableRecord
100
AcDbTextStyleTableRecord
  2
STANDARD
 70
     0
 40
0.0
 41
1.0
 50
0.0
 71
     0
 42
3.5
  3
ISOCP.SHX
  4

  0
STYLE
  5
54
330
3
100
AcDbSymbolTableRecord
100
AcDbTextStyleTableRecord
  2

 70
     1
 40
0.0
 41
1.0
 50
0.0
 71
     0
 42
2.5
  3
ltypeshp.shx
  4

  0
STYLE
  5
5B
330
3
100
AcDbSymbolTableRecord
100
AcDbTextStyleTableRecord
  2
ACDINTS
 70
     0
 40
1.0
 41
1.0
 50
0.0
 71
     0
 42
2.5
  3
isocp.shx
  4

  0
STYLE
  5
67
330
3
100
AcDbSymbolTableRecord
100
AcDbTextStyleTableRecord
  2
ACDINGDT
 70
     0
 40
0.0
 41
1.0
 50
0.0
 71
     0
 42
2.5
  3
amgdt.shx
  4

  0
STYLE
  5
1E39
330
3
100
AcDbSymbolTableRecord
100
AcDbTextStyleTableRecord
  2
ACANSTS
 70
     0
 40
1.0
 41
1.0
 50
0.0
 71
     0
 42
0.2
  3
romans.shx
  4

  0
STYLE
  5
1E3A
330
3
100
AcDbSymbolTableRecord
100
AcDbTextStyleTableRecord
  2
ACANSGDT
 70
     0
 40
0.0
 41
1.0
 50
0.0
 71
     0
 42
0.2
  3
amgdtans.shx
  4

  0
ENDTAB
  0
TABLE
  2
VIEW
  5
6
330
0
100
AcDbSymbolTable
 70
     0
  0
ENDTAB
  0
TABLE
  2
UCS
  5
7
330
0
100
AcDbSymbolTable
 70
     0
  0
ENDTAB
  0
TABLE
  2
APPID
  5
9
330
0
100
AcDbSymbolTable
 70
    67
  0
APPID
  5
12
330
9
100
AcDbSymbolTableRecord
100
AcDbRegAppTableRecord
  2
ACAD
 70
     0
  0
APPID
  5
2C
330
9
100
AcDbSymbolTableRecord
100
AcDbRegAppTableRecord
  2
MCAD_NO_VIS
 70
     0
  0
APPID
  5
2D
330
9
100
AcDbSymbolTableRecord
100
AcDbRegAppTableRecord
  2
ACAD_TEMP_GRAPHIC
 70
     0
  0
APPID
  5
3E
330
9
100
AcDbSymbolTableRecord
100
AcDbRegAppTableRecord
  2
ACATTRIBSERVICES
 70
     0
  0
APPID
  5
29A
330
9
100
AcDbSymbolTableRecord
100
AcDbRegAppTableRecord
  2
GENIUS_GENDIMSH_14
 70
     0
  0
APPID
  5
588
330
9
100
AcDbSymbolTableRecord
100
AcDbRegAppTableRecord
  2
GENIUS12
 70
     0
  0
APPID
  5
589
330
9
100
AcDbSymbolTableRecord
100
AcDbRegAppTableRecord
  2
GENIUS_GENOENT_13
 70
     0
  0
APPID
  5
58A
330
9
100
AcDbSymbolTableRecord
100
AcDbRegAppTableRecord
  2
GENIUS_GENODEF_13
 70
     0
  0
APPID
  5
58B
330
9
100
AcDbSymbolTableRecord
100
AcDbRegAppTableRecord
  2
GENIUS_GENOBJ-N-RSBK_13
 70
     0
  0
APPID
  5
58C
330
9
100
AcDbSymbolTableRecord
100
AcDbRegAppTableRecord
  2
GENIUS_GENOBJ-N-DIM12_13
 70
     0
  0
APPID
  5
58D
330
9
100
AcDbSymbolTableRecord
100
AcDbRegAppTableRecord
  2
GENIUS_GENSCALE_13
 70
     0
  0
APPID
  5
58E
330
9
100
AcDbSymbolTableRecord
100
AcDbRegAppTableRecord
  2
GENIUS_GENCFG_13
 70
     0
  0
APPID
  5
58F
330
9
100
AcDbSymbolTableRecord
100
AcDbRegAppTableRecord
  2
GENIUS_GENCFG0_13
 70
     0
  0
APPID
  5
590
330
9
100
AcDbSymbolTableRecord
100
AcDbRegAppTableRecord
  2
GENIUS_GENCFG1_13
 70
     0
  0
APPID
  5
591
330
9
100
AcDbSymbolTableRecord
100
AcDbRegAppTableRecord
  2
GENIUS_GENCFG2_13
 70
     0
  0
APPID
  5
592
330
9
100
AcDbSymbolTableRecord
100
AcDbRegAppTableRecord
  2
GENIUS_GENCFG3_13
 70
     0
  0
APPID
  5
593
330
9
100
AcDbSymbolTableRecord
100
AcDbRegAppTableRecord
  2
GENIUS_GENCFG4_13
 70
     0
  0
APPID
  5
594
330
9
100
AcDbSymbolTableRecord
100
AcDbRegAppTableRecord
  2
GENIUS_GEVCFG0_13
 70
     0
  0
APPID
  5
595
330
9
100
AcDbSymbolTableRecord
100
AcDbRegAppTableRecord
  2
GENIUS_GENOBJ-F-SUF_13
 70
     0
  0
APPID
  5
596
330
9
100
AcDbSymbolTableRecord
100
AcDbRegAppTableRecord
  2
GENIUS_GEFCFG0_13
 70
     0
  0
APPID
  5
597
330
9
100
AcDbSymbolTableRecord
100
AcDbRegAppTableRecord
  2
GEV_VCCNULL_SWITCH_OFF
 70
     0
  0
APPID
  5
598
330
9
100
AcDbSymbolTableRecord
100
AcDbRegAppTableRecord
  2
GENIUS_GENDTOL_13
 70
     0
  0
APPID
  5
599
330
9
100
AcDbSymbolTableRecord
100
AcDbRegAppTableRecord
  2
GENIUS_GENDIM_13
 70
     0
  0
APPID
  5
59A
330
9
100
AcDbSymbolTableRecord
100
AcDbRegAppTableRecord
  2
GENIUS_GE3DTOL_13
 70
     0
  0
APPID
  5
59B
330
9
100
AcDbSymbolTableRecord
100
AcDbRegAppTableRecord
  2
AD_DRAW
 70
     0
  0
APPID
  5
59C
330
9
100
AcDbSymbolTableRecord
100
AcDbRegAppTableRecord
  2
ASURF_PCURVE_APPNAME
 70
     0
  0
APPID
  5
59D
330
9
100
AcDbSymbolTableRecord
100
AcDbRegAppTableRecord
  2
AMG_3D2D_5_0
 70
     0
  0
APPID
  5
59E
330
9
100
AcDbSymbolTableRecord
100
AcDbRegAppTableRecord
  2
DESIGNERASSEMBLIES
 70
     0
  0
APPID
  5
59F
330
9
100
AcDbSymbolTableRecord
100
AcDbRegAppTableRecord
  2
ACADM_DIM_EDIT
 70
     0
  0
APPID
  5
5A0
330
9
100
AcDbSymbolTableRecord
100
AcDbRegAppTableRecord
  2
AMDT_DM_ADJ
 70
     0
  0
APPID
  5
5A1
330
9
100
AcDbSymbolTableRecord
100
AcDbRegAppTableRecord
  2
GENIUS_GENSCREG_15
 70
     0
  0
APPID
  5
5A2
330
9
100
AcDbSymbolTableRecord
100
AcDbRegAppTableRecord
  2
GENIUS_GENOBJ-N-SDF_13
 70
     0
  0
APPID
  5
6E4
330
9
100
AcDbSymbolTableRecord
100
AcDbRegAppTableRecord
  2
GENIUS_GENOBJ-N-FIL_13
 70
     0
  0
APPID
  5
C65
330
9
100
AcDbSymbolTableRecord
100
AcDbRegAppTableRecord
  2
GENIUS_GENHINW_13
 70
     0
  0
APPID
  5
C66
330
9
100
AcDbSymbolTableRecord
100
AcDbRegAppTableRecord
  2
GENIUS_GENOBJ-F-TOLL_13
 70
     0
  0
APPID
  5
C67
330
9
100
AcDbSymbolTableRecord
100
AcDbRegAppTableRecord
  2
GENIUS_GENOREF_13
 70
     0
  0
APPID
  5
C68
330
9
100
AcDbSymbolTableRecord
100
AcDbRegAppTableRecord
  2
GENIUS_GENOLIS_13
 70
     0
  0
APPID
  5
C69
330
9
100
AcDbSymbolTableRecord
100
AcDbRegAppTableRecord
  2
GENIUS_GEFTOLC_13
 70
     0
  0
APPID
  5
C6A
330
9
100
AcDbSymbolTableRecord
100
AcDbRegAppTableRecord
  2
GENIUS_GENOBJ-F-TOL_13
 70
     0
  0
APPID
  5
C6B
330
9
100
AcDbSymbolTableRecord
100
AcDbRegAppTableRecord
  2
GENIUS_GENOBJ-N-RSSYM_13
 70
     0
  0
APPID
  5
C6C
330
9
100
AcDbSymbolTableRecord
100
AcDbRegAppTableRecord
  2
GENIUS_GENSYMENT_13
 70
     0
  0
APPID
  5
C6D
330
9
100
AcDbSymbolTableRecord
100
AcDbRegAppTableRecord
  2
GENIUS_GENSCSYM_13
 70
     0
  0
APPID
  5
1E42
330
9
100
AcDbSymbolTableRecord
100
AcDbRegAppTableRecord
  2
GENIUS_GENBLLY_14
 70
     0
  0
APPID
  5
1E43
330
9
100
AcDbSymbolTableRecord
100
AcDbRegAppTableRecord
  2
GENIUS_GENTRA_14
 70
     0
  0
APPID
  5
1E44
330
9
100
AcDbSymbolTableRecord
100
AcDbRegAppTableRecord
  2
GENIUS_GENOBJ-N-TIT_13
 70
     0
  0
APPID
  5
1E45
330
9
100
AcDbSymbolTableRecord
100
AcDbRegAppTableRecord
  2
GENIUS_GENTITLE_13
 70
     0
  0
APPID
  5
1E46
330
9
100
AcDbSymbolTableRecord
100
AcDbRegAppTableRecord
  2
ACADIGES
 70
     0
  0
APPID
  5
1E47
330
9
100
AcDbSymbolTableRecord
100
AcDbRegAppTableRecord
  2
GENIUS_GENOBJ-N-HTC_13
 70
     0
  0
APPID
  5
1E48
330
9
100
AcDbSymbolTableRecord
100
AcDbRegAppTableRecord
  2
GENIUS_GENHATCH_13
 70
     0
  0
APPID
  5
1E49
330
9
100
AcDbSymbolTableRecord
100
AcDbRegAppTableRecord
  2
GENIUS_GENOBJ-N-CRS_13
 70
     0
  0
APPID
  5
1E4A
330
9
100
AcDbSymbolTableRecord
100
AcDbRegAppTableRecord
  2
GENIUS_GENFIL_13
 70
     0
  0
APPID
  5
1E4B
330
9
100
AcDbSymbolTableRecord
100
AcDbRegAppTableRecord
  2
GENIUS_GENOBJ-N-CHA_13
 70
     0
  0
APPID
  5
1E4C
330
9
100
AcDbSymbolTableRecord
100
AcDbRegAppTableRecord
  2
GENIUS_GENOBJ-N-CEN_13
 70
     0
  0
APPID
  5
28E0
330
9
100
AcDbSymbolTableRecord
100
AcDbRegAppTableRecord
  2
AD_SKETCHDIM
 70
     0
  0
APPID
  5
2B2E
330
9
100
AcDbSymbolTableRecord
100
AcDbRegAppTableRecord
  2
GENIUS_FIRSTVISTXT_14
 70
     0
  0
APPID
  5
2B2F
330
9
100
AcDbSymbolTableRecord
100
AcDbRegAppTableRecord
  2
GENIUS_SECONDVISTXT_14
 70
     0
  0
APPID
  5
2B30
330
9
100
AcDbSymbolTableRecord
100
AcDbRegAppTableRecord
  2
GENIUS_GENOBJ-N-HINW_13
 70
     0
  0
APPID
  5
2B31
330
9
100
AcDbSymbolTableRecord
100
AcDbRegAppTableRecord
  2
GENIUS_GENOBJ-N-PAL_13
 70
     0
  0
APPID
  5
2B32
330
9
100
AcDbSymbolTableRecord
100
AcDbRegAppTableRecord
  2
GENIUS_GENPAL_13
 70
     0
  0
APPID
  5
2B33
330
9
100
AcDbSymbolTableRecord
100
AcDbRegAppTableRecord
  2
GENIUS_GENSCREG_13
 70
     0
  0
APPID
  5
2B34
330
9
100
AcDbSymbolTableRecord
100
AcDbRegAppTableRecord
  2
GENIUS_GE3CFG0_13
 70
     0
  0
APPID
  5
2B35
330
9
100
AcDbSymbolTableRecord
100
AcDbRegAppTableRecord
  2
GENIUS_GENOBJ-F-EDG_13
 70
     0
  0
APPID
  5
2B36
330
9
100
AcDbSymbolTableRecord
100
AcDbRegAppTableRecord
  2
GENIUS_GENOBJ-F-TOLT_13
 70
     0
  0
APPID
  5
2B37
330
9
100
AcDbSymbolTableRecord
100
AcDbRegAppTableRecord
  2
GENIUS_GENZVEED_13
 70
     0
  0
APPID
  5
2B38
330
9
100
AcDbSymbolTableRecord
100
AcDbRegAppTableRecord
  2
GENIUS_GENREC_14
 70
     0
  0
APPID
  5
2B39
330
9
100
AcDbSymbolTableRecord
100
AcDbRegAppTableRecord
  2
GENIUS_GENOBJ-N-REC_13
 70
     0
  0
APPID
  5
2B3A
330
9
100
AcDbSymbolTableRecord
100
AcDbRegAppTableRecord
  2
GENIUS_DUMCFG0_13
 70
     0
  0
ENDTAB
  0
TABLE
  2
DIMSTYLE
  5
A
330
0
100
AcDbSymbolTable
 70
    14
  0
DIMSTYLE
105
6F
102
{ACAD_REACTORS
330
4041
330
4072
330
40AC
330
40DD
330
4134
330
4239
102
}
330
A
100
AcDbSymbolTableRecord
100
AcDbDimStyleTableRecord
  2
AM_DIN
 70
     0
  3

  4
"
  5

  6

  7

 40
1.0
 41
2.5
 42
0.0
 43
10.0
 44
1.0
 45
0.0
 46
0.0
 47
0.1
 48
0.1
140
3.5
141
0.0
142
0.0
143
0.0393701
144
1.0
145
0.0
146
0.71
147
1.5
 71
     0
 72
     0
 73
     0
 74
     0
 75
     0
 76
     0
 77
     1
 78
     8
170
     0
171
     2
172
     1
173
     0
174
     0
175
     0
176
   256
177
   256
178
     2
270
     2
271
     2
272
     2
273
     2
274
     2
340
11
275
     0
280
     0
281
     0
282
     0
283
     0
284
     8
285
     0
286
     0
287
     3
288
     0
  0
DIMSTYLE
105
70
330
A
100
AcDbSymbolTableRecord
100
AcDbDimStyleTableRecord
  2
AM_DIN$3
 70
     0
  3

  4
"
  5

  6

  7

 40
1.0
 41
3.5
 42
0.0
 43
10.0
 44
1.0
 45
0.0
 46
0.0
 47
0.1
 48
0.1
140
3.5
141
0.0
142
0.0
143
0.0393701
144
1.0
145
0.0
146
0.71
147
1.5
 71
     0
 72
     0
 73
     0
 74
     1
 75
     0
 76
     0
 77
     1
 78
     8
170
     0
171
     2
172
     0
173
     0
174
     0
175
     0
176
   256
177
   256
178
     2
270
     2
271
     2
272
     2
273
     2
274
     2
340
11
275
     0
280
     0
281
     0
282
     0
283
     0
284
     8
285
     0
286
     0
287
     0
288
     1
  0
DIMSTYLE
105
71
330
A
100
AcDbSymbolTableRecord
100
AcDbDimStyleTableRecord
  2
AM_DIN$4
 70
     0
  3

  4
"
  5

  6

  7

 40
1.0
 41
3.5
 42
0.0
 43
10.0
 44
1.0
 45
0.0
 46
0.0
 47
0.1
 48
0.1
140
3.5
141
0.0
142
0.0
143
0.0393701
144
1.0
145
0.0
146
0.71
147
1.5
 71
     0
 72
     0
 73
     0
 74
     1
 75
     0
 76
     0
 77
     1
 78
     8
170
     0
171
     2
172
     0
173
     0
174
     0
175
     0
176
   256
177
   256
178
     2
270
     2
271
     2
272
     2
273
     2
274
     2
340
11
275
     0
280
     0
281
     0
282
     0
283
     0
284
     8
285
     0
286
     0
287
     0
288
     1
  0
DIMSTYLE
105
72
330
A
100
AcDbSymbolTableRecord
100
AcDbDimStyleTableRecord
  2
AM_DIN$6
 70
     0
  3

  4
"
  5

  6

  7

 40
1.0
 41
3.5
 42
0.0
 43
0.0
 44
1.0
 45
0.0
 46
0.0
 47
0.1
 48
0.1
140
3.5
141
0.0
142
0.0
143
0.0393701
144
1.0
145
0.0
146
0.71
147
1.5
 71
     0
 72
     0
 73
     0
 74
     0
 75
     0
 76
     0
 77
     0
 78
     8
170
     0
171
     2
172
     1
173
     0
174
     0
175
     0
176
   256
177
   256
178
     2
270
     2
271
     2
272
     2
273
     2
274
     2
340
11
275
     0
280
     0
281
     0
282
     0
283
     0
284
     8
285
     0
286
     0
287
     3
288
     0
  0
DIMSTYLE
105
73
330
A
100
AcDbSymbolTableRecord
100
AcDbDimStyleTableRecord
  2
AM_DIN$7
 70
     0
  3

  4
"
  5

  6

  7

 40
1.0
 41
3.5
 42
0.0
 43
10.0
 44
1.0
 45
0.0
 46
0.0
 47
0.1
 48
0.1
140
3.5
141
0.0
142
0.0
143
0.0393701
144
1.0
145
0.0
146
0.71
147
1.5
 71
     0
 72
     0
 73
     0
 74
     0
 75
     0
 76
     0
 77
     1
 78
     8
170
     0
171
     2
172
     1
173
     0
174
     0
175
     0
176
   256
177
   256
178
     2
270
     2
271
     2
272
     2
273
     2
274
     2
340
11
275
     0
280
     0
281
     0
282
     0
283
     0
284
     8
285
     0
286
     0
287
     3
288
     0
  0
DIMSTYLE
105
74
330
A
100
AcDbSymbolTableRecord
100
AcDbDimStyleTableRecord
  2
AM_DIN$SF
 70
     0
  3

  4
"
  5

  6

  7

 40
1.0
 41
2.5
 42
1.0
 43
10.0
 44
1.0
 45
0.0
 46
0.0
 47
0.1
 48
0.1
140
3.5
141
0.0
142
0.0
143
0.0393701
144
1.0
145
0.0
146
0.71
147
1.5
 71
     0
 72
     0
 73
     0
 74
     0
 75
     1
 76
     1
 77
     1
 78
     8
170
     0
171
     2
172
     1
173
     0
174
     0
175
     0
176
   256
177
   256
178
     2
270
     2
271
     2
272
     3
273
     2
274
     4
340
11
275
     0
280
     0
281
     0
282
     0
283
     0
284
     8
285
     0
286
     0
287
     3
288
     0
  0
DIMSTYLE
105
79
330
A
100
AcDbSymbolTableRecord
100
AcDbDimStyleTableRecord
  2
AM_DIN$SH
 70
     0
  3

  4
"
  5

  6
GENAXEH
  7

 40
1.0
 41
2.5
 42
1.0
 43
10.0
 44
1.0
 45
0.0
 46
0.0
 47
0.1
 48
0.1
140
3.5
141
0.0
142
0.0
143
0.0393701
144
2.0
145
0.0
146
0.71
147
1.5
 71
     0
 72
     0
 73
     0
 74
     0
 75
     1
 76
     1
 77
     1
 78
     8
170
     0
171
     2
172
     1
173
     1
174
     0
175
     0
176
   256
177
   256
178
     2
270
     2
271
     2
272
     3
273
     2
274
     4
340
11
275
     0
280
     0
281
     0
282
     0
283
     0
284
     8
285
     0
286
     0
287
     3
288
     0
  0
DIMSTYLE
105
1E3B
330
A
100
AcDbSymbolTableRecord
100
AcDbDimStyleTableRecord
  2
STANDARD
 70
     0
  3

  4

  5

  6

  7

 40
1.0
 41
0.18
 42
0.0625
 43
0.38
 44
0.18
 45
0.0
 46
0.0
 47
0.0
 48
0.0
140
0.18
141
0.09
142
0.0
143
25.4
144
1.0
145
0.0
146
1.0
147
0.09
 71
     0
 72
     0
 73
     1
 74
     1
 75
     0
 76
     0
 77
     0
 78
     0
170
     0
171
     2
172
     0
173
     0
174
     0
175
     0
176
     0
177
     0
178
     0
270
     2
271
     2
272
     2
273
     2
274
     2
340
11
275
     0
280
     0
281
     0
282
     0
283
     1
284
     8
285
     8
286
     8
287
     5
288
     0
  0
DIMSTYLE
105
1E3C
330
A
100
AcDbSymbolTableRecord
100
AcDbDimStyleTableRecord
  2
AM_ANSI
 70
     0
  3

  4
mm
  5

  6

  7

 40
1.0
 41
0.1
 42
0.0
 43
0.5
 44
0.1
 45
0.0
 46
0.0
 47
0.1
 48
0.1
140
0.12
141
0.0
142
0.0
143
25.4
144
1.0
145
0.0
146
0.71
147
0.06
 71
     0
 72
     0
 73
     1
 74
     1
 75
     0
 76
     0
 77
     0
 78
     7
170
     0
171
     2
172
     0
173
     0
174
     0
175
     0
176
   256
177
   256
178
     2
270
     2
271
     2
272
     2
273
     2
274
     2
340
11
275
     0
280
     0
281
     0
282
     0
283
     1
284
     8
285
     8
286
     8
287
     5
288
     0
  0
DIMSTYLE
105
1E3D
330
A
100
AcDbSymbolTableRecord
100
AcDbDimStyleTableRecord
  2
AM_ANSI$3
 70
     0
  3

  4
mm
  5

  6

  7

 40
1.0
 41
0.1
 42
0.0
 43
0.5
 44
0.1
 45
0.0
 46
0.0
 47
0.1
 48
0.1
140
0.12
141
0.0
142
0.0
143
25.4
144
1.0
145
0.0
146
0.71
147
0.06
 71
     0
 72
     0
 73
     1
 74
     1
 75
     0
 76
     0
 77
     0
 78
     7
170
     0
171
     2
172
     0
173
     0
174
     0
175
     0
176
   256
177
   256
178
     2
270
     2
271
     2
272
     2
273
     2
274
     2
340
11
275
     0
280
     0
281
     0
282
     0
283
     1
284
     8
285
     8
286
     8
287
     5
288
     0
  0
DIMSTYLE
105
1E3E
330
A
100
AcDbSymbolTableRecord
100
AcDbDimStyleTableRecord
  2
AM_ANSI$4
 70
     0
  3

  4
mm
  5

  6

  7

 40
1.0
 41
0.1
 42
0.0
 43
0.5
 44
0.1
 45
0.0
 46
0.0
 47
0.1
 48
0.1
140
0.12
141
0.0
142
0.0
143
25.4
144
1.0
145
0.0
146
0.71
147
0.06
 71
     0
 72
     0
 73
     1
 74
     1
 75
     0
 76
     0
 77
     0
 78
     7
170
     0
171
     2
172
     0
173
     0
174
     0
175
     0
176
   256
177
   256
178
     2
270
     2
271
     2
272
     2
273
     2
274
     2
340
11
275
     0
280
     0
281
     0
282
     0
283
     1
284
     8
285
     8
286
     8
287
     5
288
     0
  0
DIMSTYLE
105
1E3F
330
A
100
AcDbSymbolTableRecord
100
AcDbDimStyleTableRecord
  2
AM_ANSI$7
 70
     0
  3

  4
mm
  5

  6

  7

 40
1.0
 41
0.1
 42
0.0
 43
0.5
 44
0.1
 45
0.0
 46
0.0
 47
0.1
 48
0.1
140
0.24
141
0.0
142
0.0
143
25.4
144
1.0
145
0.0
146
0.71
147
0.06
 71
     0
 72
     0
 73
     1
 74
     1
 75
     0
 76
     0
 77
     0
 78
     7
170
     0
171
     2
172
     0
173
     0
174
     0
175
     0
176
   256
177
   256
178
     2
270
     2
271
     2
272
     2
273
     2
274
     2
340
11
275
     0
280
     0
281
     0
282
     0
283
     1
284
     8
285
     8
286
     8
287
     5
288
     0
  0
DIMSTYLE
105
1E40
330
A
100
AcDbSymbolTableRecord
100
AcDbDimStyleTableRecord
  2
AM_ANSI$SF
 70
     0
  3

  4
mm
  5

  6

  7

 40
1.0
 41
0.1
 42
0.05
 43
0.5
 44
0.1
 45
0.0
 46
0.0
 47
0.1
 48
0.1
140
0.12
141
0.0
142
0.0
143
25.4
144
1.0
145
0.0
146
0.71
147
0.06
 71
     0
 72
     0
 73
     1
 74
     1
 75
     1
 76
     1
 77
     0
 78
     7
170
     0
171
     2
172
     0
173
     0
174
     0
175
     0
176
   256
177
   256
178
     2
270
     2
271
     2
272
     2
273
     2
274
     2
340
11
275
     0
280
     0
281
     0
282
     0
283
     1
284
     8
285
     8
286
     8
287
     5
288
     0
  0
DIMSTYLE
105
1E41
330
A
100
AcDbSymbolTableRecord
100
AcDbDimStyleTableRecord
  2
AM_ANSI$SH
 70
     0
  3

  4
mm
  5

  6

  7

 40
1.0
 41
0.1
 42
0.05
 43
0.5
 44
0.1
 45
0.0
 46
0.0
 47
0.1
 48
0.1
140
0.12
141
0.0
142
0.0
143
25.4
144
1.0
145
0.0
146
0.71
147
0.06
 71
     0
 72
     0
 73
     1
 74
     1
 75
     1
 76
     1
 77
     0
 78
     7
170
     0
171
     2
172
     0
173
     1
174
     0
175
     0
176
   256
177
   256
178
     2
270
     2
271
     2
272
     2
273
     2
274
     2
340
11
275
     0
280
     0
281
     0
282
     0
283
     1
284
     8
285
     8
286
     8
287
     5
288
     0
  0
ENDTAB
  0
TABLE
  2
BLOCK_RECORD
  5
1
330
0
100
AcDbSymbolTable
 70
     8
  0
BLOCK_RECORD
  5
1F
102
{ACAD_XDICTIONARY
360
1F1
102
}
330
1
100
AcDbSymbolTableRecord
100
AcDbBlockTableRecord
  2
*MODEL_SPACE
  0
BLOCK_RECORD
  5
1B
102
{ACAD_XDICTIONARY
360
42CE
102
}
330
1
100
AcDbSymbolTableRecord
100
AcDbBlockTableRecord
  2
*PAPER_SPACE
  0
BLOCK_RECORD
  5
75
330
1
100
AcDbSymbolTableRecord
100
AcDbBlockTableRecord
  2
GENAXEH
  0
BLOCK_RECORD
  5
4042
330
1
100
AcDbSymbolTableRecord
100
AcDbBlockTableRecord
  2
*D2
  0
BLOCK_RECORD
  5
4073
330
1
100
AcDbSymbolTableRecord
100
AcDbBlockTableRecord
  2
*D3
  0
BLOCK_RECORD
  5
40AD
330
1
100
AcDbSymbolTableRecord
100
AcDbBlockTableRecord
  2
*D4
  0
BLOCK_RECORD
  5
40DE
330
1
100
AcDbSymbolTableRecord
100
AcDbBlockTableRecord
  2
*D5
  0
BLOCK_RECORD
  5
4135
330
1
100
AcDbSymbolTableRecord
100
AcDbBlockTableRecord
  2
*D6
  0
BLOCK_RECORD
  5
423A
330
1
100
AcDbSymbolTableRecord
100
AcDbBlockTableRecord
  2
*D7
  0
ENDTAB
  0
ENDSEC
  0
SECTION
  2
BLOCKS
  0
BLOCK
  5
20
330
1F
100
AcDbEntity
  8
0
100
AcDbBlockBegin
  2
*MODEL_SPACE
 70
     0
 10
0.0
 20
0.0
 30
0.0
  3
*MODEL_SPACE
  1

  0
ENDBLK
  5
21
330
1F
100
AcDbEntity
  8
0
100
AcDbBlockEnd
  0
BLOCK
  5
1C
330
1B
100
AcDbEntity
 67
     1
  8
0
100
AcDbBlockBegin
  2
*PAPER_SPACE
 70
     0
 10
0.0
 20
0.0
 30
0.0
  3
*PAPER_SPACE
  1

  0
ENDBLK
  5
1D
330
1B
100
AcDbEntity
 67
     1
  8
0
100
AcDbBlockEnd
  0
BLOCK
  5
77
330
75
100
AcDbEntity
  8
0
100
AcDbBlockBegin
  2
GENAXEH
 70
     0
 10
0.0
 20
0.0
 30
0.0
  3
GENAXEH
  1

  0
LINE
  5
76
330
75
100
AcDbEntity
  8
0
100
AcDbLine
 10
-1.0
 20
0.0
 30
0.0
 11
1.0
 21
0.0
 31
0.0
  0
ENDBLK
  5
78
330
75
100
AcDbEntity
  8
0
100
AcDbBlockEnd
  0
BLOCK
  5
404C
330
4042
100
AcDbEntity
  8
0
100
AcDbBlockBegin
  2
*D2
 70
     1
 10
0.0
 20
0.0
 30
0.0
  3
*D2
  1

  0
LINE
  5
41FC
330
4042
100
AcDbEntity
  8
SK2
100
AcDbLine
 10
-0.0000000000006253
 20
30.0
 30
0.0
 11
-21.88125384863496
 21
30.0
 31
0.0
  0
LINE
  5
41FD
330
4042
100
AcDbEntity
  8
SK2
100
AcDbLine
 10
-0.0000000000010232
 20
-30.0
 30
0.0
 11
-21.88125384863497
 21
-30.0
 31
0.0
  0
LINE
  5
41FE
330
4042
100
AcDbEntity
  8
SK2
100
AcDbLine
 10
-20.88125384863496
 20
27.5
 30
0.0
 11
-20.88125384863497
 21
-27.5
 31
0.0
  0
SOLID
  5
41FF
330
4042
100
AcDbEntity
  8
SK2
100
AcDbTrace
 10
-21.29792051530162
 20
27.5
 30
0.0
 11
-20.46458718196829
 21
27.5
 31
0.0
 12
-20.88125384863496
 22
30.0
 32
0.0
 13
-20.88125384863496
 23
30.0
 33
0.0
  0
SOLID
  5
4200
330
4042
100
AcDbEntity
  8
SK2
100
AcDbTrace
 10
-21.29792051530164
 20
-27.5
 30
0.0
 11
-20.4645871819683
 21
-27.5
 31
0.0
 12
-20.88125384863497
 22
-30.0
 32
0.0
 13
-20.88125384863497
 23
-30.0
 33
0.0
  0
MTEXT
  5
4201
330
4042
100
AcDbEntity
  8
SK2
 62
     2
100
AcDbMText
 10
-24.13125384863497
 20
1.095408758331928
 30
0.0
 40
3.5
 41
0.0
 71
     5
 72
     1
  1
%%c60
 11
0.0000000000000001
 21
1.0
 31
0.0
1001
ACAD
1000
MTEXTBEGIN
1070
    73
1070
     1
1070
    44
1040
1.0
1070
    74
1070
     0
1000
MTEXTEND
  0
POINT
  5
4202
330
4042
100
AcDbEntity
  8
DEFPOINTS
 62
     0
100
AcDbPoint
 10
-0.0000000000006253
 20
30.0
 30
0.0
  0
POINT
  5
4203
330
4042
100
AcDbEntity
  8
DEFPOINTS
 62
     0
100
AcDbPoint
 10
-0.0000000000010232
 20
-30.0
 30
0.0
  0
POINT
  5
4204
330
4042
100
AcDbEntity
  8
DEFPOINTS
 62
     0
100
AcDbPoint
 10
-20.88125384863497
 20
-30.0
 30
0.0
  0
ENDBLK
  5
404D
330
4042
100
AcDbEntity
  8
0
100
AcDbBlockEnd
  0
BLOCK
  5
407D
330
4073
100
AcDbEntity
  8
0
100
AcDbBlockBegin
  2
*D3
 70
     1
 10
0.0
 20
0.0
 30
0.0
  3
*D3
  1

  0
LINE
  5
42A1
330
4073
100
AcDbEntity
  8
SK2
100
AcDbLine
 10
-2.847682379584455
 20
50.79999999999995
 30
0.0
 11
-38.41525360155332
 21
50.79999999999996
 31
0.0
  0
LINE
  5
42A2
330
4073
100
AcDbEntity
  8
SK2
100
AcDbLine
 10
-2.862932720577362
 20
-50.79999999999995
 30
0.0
 11
-38.41525360155334
 21
-50.79999999999994
 31
0.0
  0
LINE
  5
42A3
330
4073
100
AcDbEntity
  8
SK2
100
AcDbLine
 10
-37.41525360155331
 20
48.29999999999996
 30
0.0
 11
-37.41525360155334
 21
-48.29999999999994
 31
0.0
  0
SOLID
  5
42A4
330
4073
100
AcDbEntity
  8
SK2
100
AcDbTrace
 10
-37.83192026821998
 20
48.29999999999996
 30
0.0
 11
-36.99858693488665
 21
48.29999999999996
 31
0.0
 12
-37.41525360155331
 22
50.79999999999996
 32
0.0
 13
-37.41525360155331
 23
50.79999999999996
 33
0.0
  0
SOLID
  5
42A5
330
4073
100
AcDbEntity
  8
SK2
100
AcDbTrace
 10
-37.83192026822001
 20
-48.29999999999994
 30
0.0
 11
-36.99858693488668
 21
-48.29999999999994
 31
0.0
 12
-37.41525360155334
 22
-50.79999999999994
 32
0.0
 13
-37.41525360155334
 23
-50.79999999999994
 33
0.0
  0
MTEXT
  5
42A6
330
4073
100
AcDbEntity
  8
SK2
 62
     2
100
AcDbMText
 10
-40.66525360155333
 20
0.6823842717930124
 30
0.0
 40
3.5
 41
0.0
 71
     5
 72
     1
  1
%%c101.6
 11
0.0000000000000001
 21
1.0
 31
0.0
1001
ACAD
1000
MTEXTBEGIN
1070
    73
1070
     1
1070
    44
1040
1.0
1070
    74
1070
     0
1000
MTEXTEND
  0
POINT
  5
42A7
330
4073
100
AcDbEntity
  8
DEFPOINTS
 62
     0
100
AcDbPoint
 10
-2.847682379584455
 20
50.79999999999995
 30
0.0
  0
POINT
  5
42A8
330
4073
100
AcDbEntity
  8
DEFPOINTS
 62
     0
100
AcDbPoint
 10
-2.862932720577362
 20
-50.79999999999995
 30
0.0
  0
POINT
  5
42A9
330
4073
100
AcDbEntity
  8
DEFPOINTS
 62
     0
100
AcDbPoint
 10
-37.41525360155334
 20
-50.79999999999994
 30
0.0
  0
ENDBLK
  5
407E
330
4073
100
AcDbEntity
  8
0
100
AcDbBlockEnd
  0
BLOCK
  5
40B7
330
40AD
100
AcDbEntity
  8
0
100
AcDbBlockBegin
  2
*D4
 70
     1
 10
0.0
 20
0.0
 30
0.0
  3
*D4
  1

  0
LINE
  5
4220
330
40AD
100
AcDbEntity
  8
SK2
100
AcDbLine
 10
-0.000000000001819
 20
-65.000000000005
 30
0.0
 11
-57.42935366565099
 21
-65.00000000000499
 31
0.0
  0
LINE
  5
4221
330
40AD
100
AcDbEntity
  8
SK2
100
AcDbLine
 10
-0.000000000001819
 20
65.00000000000454
 30
0.0
 11
-57.42935366565096
 21
65.00000000000456
 31
0.0
  0
LINE
  5
4222
330
40AD
100
AcDbEntity
  8
SK2
100
AcDbLine
 10
-56.42935366565099
 20
-62.50000000000499
 30
0.0
 11
-56.42935366565096
 21
62.50000000000456
 31
0.0
  0
SOLID
  5
4223
330
40AD
100
AcDbEntity
  8
SK2
100
AcDbTrace
 10
-56.84602033231765
 20
-62.50000000000499
 30
0.0
 11
-56.01268699898433
 21
-62.50000000000499
 31
0.0
 12
-56.42935366565099
 22
-65.00000000000499
 32
0.0
 13
-56.42935366565099
 23
-65.00000000000499
 33
0.0
  0
SOLID
  5
4224
330
40AD
100
AcDbEntity
  8
SK2
100
AcDbTrace
 10
-56.84602033231763
 20
62.50000000000456
 30
0.0
 11
-56.0126869989843
 21
62.50000000000456
 31
0.0
 12
-56.42935366565096
 22
65.00000000000456
 32
0.0
 13
-56.42935366565096
 23
65.00000000000456
 33
0.0
  0
MTEXT
  5
4225
330
40AD
100
AcDbEntity
  8
SK2
 62
     2
100
AcDbMText
 10
-59.67935366565098
 20
-2.208787133979285
 30
0.0
 40
3.5
 41
0.0
 71
     5
 72
     1
  1
%%c130
 11
0.0000000000000001
 21
1.0
 31
0.0
1001
ACAD
1000
MTEXTBEGIN
1070
    73
1070
     1
1070
    44
1040
1.0
1070
    74
1070
     0
1000
MTEXTEND
  0
POINT
  5
4226
330
40AD
100
AcDbEntity
  8
DEFPOINTS
 62
     0
100
AcDbPoint
 10
-0.000000000001819
 20
-65.000000000005
 30
0.0
  0
POINT
  5
4227
330
40AD
100
AcDbEntity
  8
DEFPOINTS
 62
     0
100
AcDbPoint
 10
-0.000000000001819
 20
65.00000000000454
 30
0.0
  0
POINT
  5
4228
330
40AD
100
AcDbEntity
  8
DEFPOINTS
 62
     0
100
AcDbPoint
 10
-56.42935366565096
 20
65.00000000000456
 30
0.0
  0
ENDBLK
  5
40B8
330
40AD
100
AcDbEntity
  8
0
100
AcDbBlockEnd
  0
BLOCK
  5
40E8
330
40DE
100
AcDbEntity
  8
0
100
AcDbBlockBegin
  2
*D5
 70
     1
 10
0.0
 20
0.0
 30
0.0
  3
*D5
  1

  0
LINE
  5
41AA
330
40DE
100
AcDbEntity
  8
2
100
AcDbLine
 10
62.99999999999602
 20
125.0
 30
0.0
 11
110.1701670338497
 21
125.0
 31
0.0
  0
LINE
  5
41AB
330
40DE
100
AcDbEntity
  8
2
100
AcDbLine
 10
62.99999999999602
 20
-125.0
 30
0.0
 11
110.1701670338496
 21
-125.0
 31
0.0
  0
LINE
  5
41AC
330
40DE
100
AcDbEntity
  8
2
100
AcDbLine
 10
109.1701670338497
 20
122.5
 30
0.0
 11
109.1701670338496
 21
-122.5
 31
0.0
  0
SOLID
  5
41AD
330
40DE
100
AcDbEntity
  8
2
100
AcDbTrace
 10
108.753500367183
 20
122.5
 30
0.0
 11
109.5868337005164
 21
122.5
 31
0.0
 12
109.1701670338497
 22
125.0
 32
0.0
 13
109.1701670338497
 23
125.0
 33
0.0
  0
SOLID
  5
41AE
330
40DE
100
AcDbEntity
  8
2
100
AcDbTrace
 10
108.753500367183
 20
-122.5
 30
0.0
 11
109.5868337005163
 21
-122.5
 31
0.0
 12
109.1701670338496
 22
-125.0
 32
0.0
 13
109.1701670338496
 23
-125.0
 33
0.0
  0
MTEXT
  5
41AF
330
40DE
100
AcDbEntity
  8
2
 62
     2
100
AcDbMText
 10
105.9198225456607
 20
0.0000000000000079
 30
0.0
 40
3.5
 41
0.0
 71
     5
 72
     1
  1
%%c250
 11
0.0000000000000001
 21
1.0
 31
0.0
1001
ACAD
1000
MTEXTBEGIN
1070
    73
1070
     1
1070
    44
1040
1.0
1070
    74
1070
     0
1000
MTEXTEND
  0
POINT
  5
41B0
330
40DE
100
AcDbEntity
  8
DEFPOINTS
 62
     0
100
AcDbPoint
 10
62.99999999999602
 20
125.0
 30
0.0
  0
POINT
  5
41B1
330
40DE
100
AcDbEntity
  8
DEFPOINTS
 62
     0
100
AcDbPoint
 10
62.99999999999602
 20
-125.0
 30
0.0
  0
POINT
  5
41B2
330
40DE
100
AcDbEntity
  8
DEFPOINTS
 62
     0
100
AcDbPoint
 10
109.1701670338496
 20
-125.0
 30
0.0
  0
ENDBLK
  5
40E9
330
40DE
100
AcDbEntity
  8
0
100
AcDbBlockEnd
  0
BLOCK
  5
413F
330
4135
100
AcDbEntity
  8
0
100
AcDbBlockBegin
  2
*D6
 70
     1
 10
0.0
 20
0.0
 30
0.0
  3
*D6
  1

  0
LINE
  5
4296
330
4135
100
AcDbEntity
  8
2
100
AcDbLine
 10
62.99999999999602
 20
125.0
 30
0.0
 11
62.99999999999602
 21
181.0
 31
0.0
  0
LINE
  5
4297
330
4135
100
AcDbEntity
  8
2
100
AcDbLine
 10
-0.000000000001819
 20
65.00000000000454
 30
0.0
 11
-0.0000000000018119
 21
181.0
 31
0.0
  0
LINE
  5
4298
330
4135
100
AcDbEntity
  8
2
100
AcDbLine
 10
60.49999999999602
 20
180.0
 30
0.0
 11
2.499999999998188
 21
180.0
 31
0.0
  0
SOLID
  5
4299
330
4135
100
AcDbEntity
  8
2
100
AcDbTrace
 10
60.49999999999602
 20
180.4166666666666
 30
0.0
 11
60.49999999999602
 21
179.5833333333333
 31
0.0
 12
62.99999999999602
 22
180.0
 32
0.0
 13
62.99999999999602
 23
180.0
 33
0.0
  0
SOLID
  5
429A
330
4135
100
AcDbEntity
  8
2
100
AcDbTrace
 10
2.499999999998188
 20
180.4166666666666
 30
0.0
 11
2.499999999998188
 21
179.5833333333333
 31
0.0
 12
-0.0000000000018119
 22
180.0
 32
0.0
 13
-0.0000000000018119
 23
180.0
 33
0.0
  0
MTEXT
  5
429B
330
4135
100
AcDbEntity
  8
2
 62
     2
100
AcDbMText
 10
31.4999999999971
 20
183.2499999999999
 30
0.0
 40
3.5
 41
0.0
 71
     5
 72
     1
  1
63
1001
ACAD
1000
MTEXTBEGIN
1070
    73
1070
     1
1070
    44
1040
1.0
1070
    74
1070
     0
1000
MTEXTEND
  0
POINT
  5
429C
330
4135
100
AcDbEntity
  8
DEFPOINTS
 62
     0
100
AcDbPoint
 10
62.99999999999602
 20
125.0
 30
0.0
  0
POINT
  5
429D
330
4135
100
AcDbEntity
  8
DEFPOINTS
 62
     0
100
AcDbPoint
 10
-0.000000000001819
 20
65.00000000000454
 30
0.0
  0
POINT
  5
429E
330
4135
100
AcDbEntity
  8
DEFPOINTS
 62
     0
100
AcDbPoint
 10
-0.0000000000018119
 20
180.0
 30
0.0
  0
ENDBLK
  5
4140
330
4135
100
AcDbEntity
  8
0
100
AcDbBlockEnd
  0
BLOCK
  5
4244
330
423A
100
AcDbEntity
  8
0
100
AcDbBlockBegin
  2
*D7
 70
     1
 10
0.0
 20
0.0
 30
0.0
  3
*D7
  1

  0
LINE
  5
4262
330
423A
100
AcDbEntity
  8
SK2
100
AcDbLine
 10
2.500000000001591
 20
90.00000000000495
 30
0.0
 11
-73.96335515977624
 21
90.00000000000495
 31
0.0
  0
LINE
  5
4263
330
423A
100
AcDbEntity
  8
SK2
100
AcDbLine
 10
2.500000000001591
 20
-90.00000000000495
 30
0.0
 11
-73.96335515977627
 21
-90.00000000000493
 31
0.0
  0
LINE
  5
4264
330
423A
100
AcDbEntity
  8
SK2
100
AcDbLine
 10
-72.96335515977624
 20
87.50000000000495
 30
0.0
 11
-72.96335515977627
 21
-87.50000000000493
 31
0.0
  0
SOLID
  5
4265
330
423A
100
AcDbEntity
  8
SK2
100
AcDbTrace
 10
-73.38002182644292
 20
87.50000000000495
 30
0.0
 11
-72.54668849310957
 21
87.50000000000495
 31
0.0
 12
-72.96335515977624
 22
90.00000000000495
 32
0.0
 13
-72.96335515977624
 23
90.00000000000495
 33
0.0
  0
SOLID
  5
4266
330
423A
100
AcDbEntity
  8
SK2
100
AcDbTrace
 10
-73.38002182644294
 20
-87.50000000000493
 30
0.0
 11
-72.54668849310959
 21
-87.50000000000493
 31
0.0
 12
-72.96335515977627
 22
-90.00000000000493
 32
0.0
 13
-72.96335515977627
 23
-90.00000000000493
 33
0.0
  0
MTEXT
  5
4267
330
423A
100
AcDbEntity
  8
SK2
 62
     2
100
AcDbMText
 10
-76.21335515977626
 20
0.0000000000000049
 30
0.0
 40
3.5
 41
0.0
 71
     5
 72
     1
  1
%%c180
 11
0.0000000000000001
 21
1.0
 31
0.0
1001
ACAD
1000
MTEXTBEGIN
1070
    73
1070
     1
1070
    44
1040
1.0
1070
    74
1070
     0
1000
MTEXTEND
  0
POINT
  5
4268
330
423A
100
AcDbEntity
  8
DEFPOINTS
 62
     0
100
AcDbPoint
 10
2.500000000001591
 20
90.00000000000495
 30
0.0
  0
POINT
  5
4269
330
423A
100
AcDbEntity
  8
DEFPOINTS
 62
     0
100
AcDbPoint
 10
2.500000000001591
 20
-90.00000000000495
 30
0.0
  0
POINT
  5
426A
330
423A
100
AcDbEntity
  8
DEFPOINTS
 62
     0
100
AcDbPoint
 10
-72.96335515977627
 20
-90.00000000000493
 30
0.0
  0
ENDBLK
  5
4245
330
423A
100
AcDbEntity
  8
0
100
AcDbBlockEnd
  0
ENDSEC
  0
SECTION
  2
ENTITIES
  0
LINE
  5
3F22
330
1F
100
AcDbEntity
  8
1
100
AcDbLine
 10
58.00000000000466
 20
111.1744097731299
 30
0.0
 11
58.00000000000466
 21
-121.7000000000088
 31
0.0
  0
LINE
  5
3F23
330
1F
100
AcDbEntity
  8
1
100
AcDbLine
 10
58.00000000000466
 20
-121.7000000000088
 30
0.0
 11
56.40000000000487
 21
-123.3000000000085
 31
0.0
  0
LINE
  5
3F26
330
1F
100
AcDbEntity
  8
1
100
AcDbLine
 10
9.800000000001205
 20
-120.1999999999973
 30
0.0
 11
9.799999999990973
 21
-12.85000000000451
 31
0.0
  0
LINE
  5
3F27
330
1F
100
AcDbEntity
  8
1
100
AcDbLine
 10
8.299999999998476
 20
-90.00000000000506
 30
0.0
 11
2.500000000001591
 21
-90.00000000000495
 31
0.0
  0
LINE
  5
3F28
330
1F
100
AcDbEntity
  8
1
100
AcDbLine
 10
1.000000000001591
 20
-88.50000000000495
 30
0.0
 11
1.000000000001648
 21
-12.8500000000044
 31
0.0
  0
ARC
  5
3F29
330
1F
100
AcDbEntity
  8
1
100
AcDbCircle
 10
8.299999999998419
 20
-91.50000000000506
 30
0.0
 40
1.500000000000056
100
AcDbArc
 50
0.0000000000064748
 51
89.99999999999785
  0
ARC
  5
3F2A
330
1F
100
AcDbEntity
  8
1
100
AcDbCircle
 10
2.500000000001591
 20
-88.500000000005
 30
0.0
 40
1.499999999999943
100
AcDbArc
 50
179.9999999999977
 51
270.0
  0
LINE
  5
3F2B
330
1F
100
AcDbEntity
  8
1
100
AcDbLine
 10
1.000000000001364
 20
-66.00000000000773
 30
0.0
 11
-0.000000000001819
 21
-65.00000000000454
 31
0.0
  0
LINE
  5
3F2C
330
1F
100
AcDbEntity
  8
1
100
AcDbLine
 10
-0.000000000001819
 20
-65.00000000000454
 30
0.0
 11
0.0
 21
-12.8500000000044
 31
0.0
  0
LINE
  5
3F2D
330
1F
100
AcDbEntity
  8
SK1
100
AcDbLine
 10
-0.0000000000000568
 20
12.85000000000172
 30
0.0
 11
13.9999999999984
 21
12.85000000000172
 31
0.0
  0
LINE
  5
3F2E
330
1F
100
AcDbEntity
  8
SK1
100
AcDbLine
 10
13.9999999999984
 20
12.85000000000172
 30
0.0
 11
13.9999999999984
 21
-12.85000000000457
 31
0.0
  0
LINE
  5
3F2F
330
1F
100
AcDbEntity
  8
SK1
100
AcDbLine
 10
13.9999999999984
 20
-12.85000000000457
 30
0.0
 11
0.0
 21
-12.8500000000044
 31
0.0
  0
LINE
  5
3F31
330
1F
100
AcDbEntity
  8
SK3
 48
0.3
100
AcDbLine
 10
58.00000000000034
 20
-93.00000000001473
 30
0.0
 11
54.99999999999573
 21
-90.00000000001017
 31
0.0
  0
LINE
  5
3F32
330
1F
100
AcDbEntity
  8
SK3
 48
0.3
100
AcDbLine
 10
54.99999999999573
 20
-90.00000000001017
 30
0.0
 11
55.00000000009322
 21
90.00000000001017
 31
0.0
  0
LINE
  5
3F33
330
1F
100
AcDbEntity
  8
SK3
 48
0.3
100
AcDbLine
 10
54.99999999999573
 20
-90.00000000001017
 30
0.0
 11
42.00000000000272
 21
-90.00000000001023
 31
0.0
  0
LINE
  5
3F34
330
1F
100
AcDbEntity
  8
SK3
 48
0.3
100
AcDbLine
 10
42.00000000000272
 20
-90.00000000001023
 30
0.0
 11
42.00000000000272
 21
90.00000000001017
 31
0.0
  0
LINE
  5
3F35
330
1F
100
AcDbEntity
  8
SK3
 48
0.3
100
AcDbLine
 10
42.00000000000272
 20
-63.80000000000439
 30
0.0
 11
32.00000000000284
 21
-63.80000000000439
 31
0.0
  0
LINE
  5
3F36
330
1F
100
AcDbEntity
  8
SK3
 48
0.3
100
AcDbLine
 10
32.00000000000284
 20
-63.80000000000439
 30
0.0
 11
32.00000000000284
 21
-37.79999999999552
 31
0.0
  0
LINE
  5
3F37
330
1F
100
AcDbEntity
  8
SK3
 48
0.3
100
AcDbLine
 10
32.00000000000284
 20
-37.79999999999552
 30
0.0
 11
42.00000000000279
 21
-37.79999999999552
 31
0.0
  0
LINE
  5
3F38
330
1F
100
AcDbEntity
  8
SK3
 48
0.3
100
AcDbLine
 10
32.00000000000284
 20
-59.80000000000007
 30
0.0
 11
-0.0000000000016485
 21
-59.80000000000007
 31
0.0
  0
LINE
  5
3F39
330
1F
100
AcDbEntity
  8
SK3
 48
0.3
100
AcDbLine
 10
32.00000000000284
 20
-41.80000000000006
 30
0.0
 11
-0.0000000000015916
 21
-41.79999999999995
 31
0.0
  0
LINE
  5
3F3A
330
1F
100
AcDbEntity
  8
SK4
100
AcDbLine
 10
46.17756503808806
 20
-50.79999999999995
 30
0.0
 11
-2.862932720577362
 21
-50.79999999999995
 31
0.0
  0
LINE
  5
3F3B
330
1F
100
AcDbEntity
  8
SK3
 48
0.3
100
AcDbLine
 10
58.00000000000477
 20
93.00000000001915
 30
0.0
 11
54.99999999999579
 21
90.00000000001017
 31
0.0
  0
LINE
  5
3F3C
330
1F
100
AcDbEntity
  8
SK3
 48
0.3
100
AcDbLine
 10
54.99999999999579
 20
90.00000000001017
 30
0.0
 11
41.99999999999829
 21
90.00000000001017
 31
0.0
  0
LINE
  5
3F43
330
1F
100
AcDbEntity
  8
1
100
AcDbLine
 10
12.90000000001276
 20
123.3000000000088
 30
0.0
 11
9.800000000001261
 21
120.1999999999973
 31
0.0
  0
LINE
  5
3F4A
330
1F
100
AcDbEntity
  8
SK4
100
AcDbLine
 10
43.8641581858422
 20
50.79999999999995
 30
0.0
 11
-2.847682379584455
 21
50.79999999999995
 31
0.0
  0
LINE
  5
3F4B
330
1F
100
AcDbEntity
  8
SK3
 48
0.3
100
AcDbLine
 10
32.00000000000284
 20
41.80000000000006
 30
0.0
 11
-0.0000000000015916
 21
41.79999999999995
 31
0.0
  0
LINE
  5
3F4C
330
1F
100
AcDbEntity
  8
SK3
 48
0.3
100
AcDbLine
 10
32.00000000000284
 20
59.80000000000007
 30
0.0
 11
-0.0000000000016485
 21
59.80000000000007
 31
0.0
  0
LINE
  5
3F4D
330
1F
100
AcDbEntity
  8
SK3
 48
0.3
100
AcDbLine
 10
32.00000000000284
 20
63.80000000000439
 30
0.0
 11
32.00000000000284
 21
37.79999999999552
 31
0.0
  0
LINE
  5
3F4E
330
1F
100
AcDbEntity
  8
SK3
 48
0.3
100
AcDbLine
 10
32.00000000000284
 20
37.79999999999552
 30
0.0
 11
42.00000000000279
 21
37.79999999999552
 31
0.0
  0
LINE
  5
3F4F
330
1F
100
AcDbEntity
  8
SK3
 48
0.3
100
AcDbLine
 10
42.00000000000272
 20
63.80000000000439
 30
0.0
 11
32.00000000000284
 21
63.80000000000439
 31
0.0
  0
LINE
  5
3F52
330
1F
100
AcDbEntity
  8
1
100
AcDbLine
 10
9.800000000001261
 20
120.1999999999973
 30
0.0
 11
9.799999999990973
 21
12.85000000000451
 31
0.0
  0
ARC
  5
3F53
330
1F
100
AcDbEntity
  8
1
100
AcDbCircle
 10
2.500000000001591
 20
88.500000000005
 30
0.0
 40
1.499999999999943
100
AcDbArc
 50
90.0
 51
180.0000000000022
  0
LINE
  5
3F54
330
1F
100
AcDbEntity
  8
1
100
AcDbLine
 10
8.299999999998476
 20
90.00000000000506
 30
0.0
 11
2.500000000001591
 21
90.00000000000495
 31
0.0
  0
ARC
  5
3F55
330
1F
100
AcDbEntity
  8
1
100
AcDbCircle
 10
8.299999999998419
 20
91.50000000000506
 30
0.0
 40
1.500000000000056
100
AcDbArc
 50
270.0000000000021
 51
359.9999999999934
  0
LINE
  5
3F56
330
1F
100
AcDbEntity
  8
1
100
AcDbLine
 10
1.000000000001591
 20
88.50000000000495
 30
0.0
 11
1.000000000001648
 21
12.8500000000044
 31
0.0
  0
LINE
  5
3F57
330
1F
100
AcDbEntity
  8
1
100
AcDbLine
 10
-0.000000000001819
 20
65.00000000000454
 30
0.0
 11
0.0
 21
12.8500000000044
 31
0.0
  0
LINE
  5
3F58
330
1F
100
AcDbEntity
  8
1
100
AcDbLine
 10
1.000000000001364
 20
66.00000000000773
 30
0.0
 11
-0.000000000001819
 21
65.00000000000454
 31
0.0
  0
LINE
  5
3F70
330
1F
100
AcDbEntity
  8
SK3
 48
0.3
100
AcDbLine
 10
50.00000000000682
 20
101.0134374217533
 30
0.0
 11
38.00000000001
 21
101.0134374217535
 31
0.0
  0
LINE
  5
3F71
330
1F
100
AcDbEntity
  8
SK3
 48
0.3
100
AcDbLine
 10
50.00000000000682
 20
105.7864374217534
 30
0.0
 11
38.00000000001
 21
105.7864374217534
 31
0.0
  0
LINE
  5
3F72
330
1F
100
AcDbEntity
  8
SK3
 48
0.3
100
AcDbLine
 10
38.61350000001005
 20
100.3999374217534
 30
0.0
 11
50.00000000000682
 21
100.3999374217534
 31
0.0
  0
LINE
  5
3F73
330
1F
100
AcDbEntity
  8
SK3
 48
0.3
100
AcDbLine
 10
50.00000000000682
 20
106.3999374217534
 30
0.0
 11
38.61350000001005
 21
106.3999374217534
 31
0.0
  0
ARC
  5
3F74
330
1F
100
AcDbEntity
  8
1
100
AcDbCircle
 10
51.99999999999608
 20
119.1744097731298
 30
0.0
 40
7.999999999999943
100
AcDbArc
 50
179.9999999999998
 51
270.0000000000004
  0
LINE
  5
3F75
330
1F
100
AcDbEntity
  8
SK1
100
AcDbLine
 10
57.00000000000284
 20
123.3000000000085
 30
0.0
 11
44.49999999999613
 21
123.3000000000086
 31
0.0
  0
LINE
  5
3F76
330
1F
100
AcDbEntity
  8
SK3
 48
0.3
100
AcDbLine
 10
38.61350000001005
 20
106.3999374217534
 30
0.0
 11
38.61350000001005
 21
100.3999374217534
 31
0.0
  0
LINE
  5
3F77
330
1F
100
AcDbEntity
  8
SK3
 48
0.3
100
AcDbLine
 10
38.00000000001
 20
105.7864374217534
 30
0.0
 11
38.00000000001
 21
101.0134374217535
 31
0.0
  0
LINE
  5
3F78
330
1F
100
AcDbEntity
  8
SK3
100
AcDbLine
 10
38.00000000001
 20
101.0134374217535
 30
0.0
 11
38.61350000001005
 21
100.3999374217534
 31
0.0
  0
LINE
  5
3F79
330
1F
100
AcDbEntity
  8
SK3
100
AcDbLine
 10
38.61350000001005
 20
106.3999374217534
 30
0.0
 11
38.00000000001
 21
105.7864374217534
 31
0.0
  0
LINE
  5
3F7A
330
1F
100
AcDbEntity
  8
1
100
AcDbLine
 10
38.3439089405374
 20
118.3699374217579
 30
0.0
 11
36.94337567298726
 21
120.5714465736306
 31
0.0
  0
LINE
  5
3F7B
330
1F
100
AcDbEntity
  8
1
100
AcDbLine
 10
36.94337567298726
 20
116.168428269885
 30
0.0
 11
38.3439089405374
 21
118.3699374217579
 31
0.0
  0
LINE
  5
3F7C
330
1F
100
AcDbEntity
  8
1
100
AcDbLine
 10
43.99999999999613
 20
123.3000000000086
 30
0.0
 11
43.99999999999613
 21
119.1744097731298
 31
0.0
  0
LINE
  5
3F7D
330
1F
100
AcDbEntity
  8
SK1
100
AcDbLine
 10
58.0000000000025
 20
111.1744097731298
 30
0.0
 11
58.0000000000025
 21
122.3000000000087
 31
0.0
  0
LINE
  5
3F7E
330
1F
100
AcDbEntity
  8
SK3
 48
0.3
100
AcDbLine
 10
55.00000000000693
 20
110.4999374217565
 30
0.0
 11
55.00000000000693
 21
97.39993742175654
 31
0.0
  0
LINE
  5
3F7F
330
1F
100
AcDbEntity
  8
SK3
 48
0.3
100
AcDbLine
 10
50.00000000000682
 20
96.89993742175666
 30
0.0
 11
50.00000000000682
 21
110.4999374217565
 31
0.0
  0
LINE
  5
3F80
330
1F
100
AcDbEntity
  8
SK3
 48
0.3
100
AcDbLine
 10
58.0000000000025
 20
96.89993742175653
 30
0.0
 11
50.00000000000682
 21
96.89993742175666
 31
0.0
  0
LINE
  5
3F81
330
1F
100
AcDbEntity
  8
SK3
 48
0.3
100
AcDbLine
 10
55.00000000000693
 20
97.39993742175654
 30
0.0
 11
50.00000000000682
 21
97.39993742175665
 31
0.0
  0
LINE
  5
3F82
330
1F
100
AcDbEntity
  8
SK3
 48
0.3
100
AcDbLine
 10
55.00000000000693
 20
107.9999374217504
 30
0.0
 11
58.00000000000238
 21
107.9999374217504
 31
0.0
  0
LINE
  5
3F83
330
1F
100
AcDbEntity
  8
1
100
AcDbLine
 10
58.0000000000025
 20
111.1744097731298
 30
0.0
 11
51.99999999999613
 21
111.1744097731298
 31
0.0
  0
LINE
  5
3F84
330
1F
100
AcDbEntity
  8
SK3
 48
0.3
100
AcDbLine
 10
50.00000000000682
 20
109.3999374217502
 30
0.0
 11
55.00000000000693
 21
109.3999374217502
 31
0.0
  0
LINE
  5
3F85
330
1F
100
AcDbEntity
  8
SK3
 48
0.3
100
AcDbLine
 10
50.00000000000682
 20
110.4999374217565
 30
0.0
 11
55.00000000000693
 21
110.4999374217565
 31
0.0
  0
LINE
  5
3F86
330
1F
100
AcDbEntity
  8
SK1
100
AcDbLine
 10
57.00000000000284
 20
123.3000000000085
 30
0.0
 11
58.00000000000273
 21
122.3000000000085
 31
0.0
  0
LINE
  5
3F87
330
1F
100
AcDbEntity
  8
SK1
100
AcDbLine
 10
58.00000000000273
 20
122.3000000000085
 30
0.0
 11
58.0000000000025
 21
122.3000000000087
 31
0.0
  0
LINE
  5
3F88
330
1F
100
AcDbEntity
  8
SK3
 48
0.3
100
AcDbLine
 10
9.800000000000125
 20
107.9999374217505
 30
0.0
 11
50.00000000000682
 21
107.9999374217505
 31
0.0
  0
LINE
  5
3F89
330
1F
100
AcDbEntity
  8
4
100
AcDbLine
 10
30.50000000001318
 20
118.3699374217579
 30
0.0
 11
40.50000000001318
 21
118.3699374217579
 31
0.0
  0
ELLIPSE
  5
3F8A
330
1F
100
AcDbEntity
  8
1
100
AcDbEllipse
 10
35.50000000001318
 20
118.3699374217579
 30
0.0
 11
-5.0
 21
0.0
 31
0.0
210
0.0
220
0.0
230
1.0
 40
0.7807587326743715
 41
0.0
 42
6.283185307179586
  0
LINE
  5
3F8B
330
1F
100
AcDbEntity
  8
4
100
AcDbLine
 10
35.50000000001318
 20
122.2737310851297
 30
0.0
 11
35.50000000001318
 21
114.466143758386
 31
0.0
  0
LINE
  5
3F8C
330
1F
100
AcDbEntity
  8
1
100
AcDbLine
 10
34.05662432703911
 20
120.5714465736306
 30
0.0
 11
32.61324865406504
 21
118.3699374217579
 31
0.0
  0
LINE
  5
3F8D
330
1F
100
AcDbEntity
  8
1
100
AcDbLine
 10
34.05662432703911
 20
116.168428269885
 30
0.0
 11
36.94337567298726
 21
116.168428269885
 31
0.0
  0
LINE
  5
3F8E
330
1F
100
AcDbEntity
  8
1
100
AcDbLine
 10
32.61324865406504
 20
118.3699374217579
 30
0.0
 11
34.05662432703911
 21
116.168428269885
 31
0.0
  0
LINE
  5
3F8F
330
1F
100
AcDbEntity
  8
1
100
AcDbLine
 10
36.94337567298726
 20
120.5714465736306
 30
0.0
 11
34.05662432703911
 21
120.5714465736306
 31
0.0
  0
LINE
  5
3F90
330
1F
100
AcDbEntity
  8
4
100
AcDbLine
 10
14.49999999999602
 20
118.3699374217579
 30
0.0
 11
24.49999999999602
 21
118.3699374217579
 31
0.0
  0
LINE
  5
3F91
330
1F
100
AcDbEntity
  8
1
100
AcDbLine
 10
22.34390894052023
 20
118.3699374217579
 30
0.0
 11
20.94337567297009
 21
120.5714465736306
 31
0.0
  0
LINE
  5
3F92
330
1F
100
AcDbEntity
  8
1
100
AcDbLine
 10
20.94337567297009
 20
116.168428269885
 30
0.0
 11
22.34390894052023
 21
118.3699374217579
 31
0.0
  0
ELLIPSE
  5
3F93
330
1F
100
AcDbEntity
  8
1
100
AcDbEllipse
 10
19.49999999999602
 20
118.3699374217579
 30
0.0
 11
-5.0
 21
0.0
 31
0.0
210
0.0
220
0.0
230
1.0
 40
0.7807587326743715
 41
0.0
 42
6.283185307179586
  0
LINE
  5
3F94
330
1F
100
AcDbEntity
  8
4
100
AcDbLine
 10
19.49999999999602
 20
122.2737310851297
 30
0.0
 11
19.49999999999602
 21
114.466143758386
 31
0.0
  0
LINE
  5
3F95
330
1F
100
AcDbEntity
  8
1
100
AcDbLine
 10
18.05662432702195
 20
120.5714465736306
 30
0.0
 11
16.61324865404788
 21
118.3699374217579
 31
0.0
  0
LINE
  5
3F96
330
1F
100
AcDbEntity
  8
1
100
AcDbLine
 10
16.61324865404788
 20
118.3699374217579
 30
0.0
 11
18.05662432702195
 21
116.168428269885
 31
0.0
  0
LINE
  5
3F97
330
1F
100
AcDbEntity
  8
1
100
AcDbLine
 10
18.05662432702195
 20
116.168428269885
 30
0.0
 11
20.94337567297009
 21
116.168428269885
 31
0.0
  0
LINE
  5
3F98
330
1F
100
AcDbEntity
  8
1
100
AcDbLine
 10
20.94337567297009
 20
120.5714465736306
 30
0.0
 11
18.05662432702195
 21
120.5714465736306
 31
0.0
  0
LINE
  5
3F99
330
1F
100
AcDbEntity
  8
1
100
AcDbLine
 10
44.49999999999613
 20
123.3000000000086
 30
0.0
 11
12.90000000001276
 21
123.3000000000088
 31
0.0
  0
CIRCLE
  5
3F9A
330
1F
100
AcDbEntity
  8
SK1
100
AcDbCircle
 10
62.99999999999602
 20
125.0
 30
0.0
 40
0.4637693698488208
  0
LINE
  5
3F9B
330
1F
100
AcDbEntity
  8
SK1
100
AcDbLine
 10
62.53623063014732
 20
125.0
 30
0.0
 11
63.46376936984495
 21
125.0
 31
0.0
  0
LINE
  5
3F9C
330
1F
100
AcDbEntity
  8
SK1
100
AcDbLine
 10
62.99999999999602
 20
125.4637693698488
 30
0.0
 11
62.99999999999602
 21
124.5362306301512
 31
0.0
  0
LINE
  5
3F9D
330
1F
100
AcDbEntity
  8
SK4
100
AcDbLine
 10
35.52492989672851
 20
103.3999374217534
 30
0.0
 11
60.13044184319278
 21
103.3999374217534
 31
0.0
  0
LINE
  5
3FA1
330
1F
100
AcDbEntity
  8
1
100
AcDbLine
 10
12.90000000001276
 20
-123.3000000000088
 30
0.0
 11
9.800000000001261
 21
-120.1999999999973
 31
0.0
  0
LINE
  5
3FA2
330
1F
100
AcDbEntity
  8
1
100
AcDbLine
 10
56.40000000000487
 20
-123.3000000000085
 30
0.0
 11
12.90000000001276
 21
-123.3000000000088
 31
0.0
  0
LINE
  5
3FA5
330
1F
100
AcDbEntity
  8
SK1
100
AcDbLine
 10
-2.262823140784178
 20
2.262823140784178
 30
0.0
 11
2.262823140784178
 21
-2.262823140784178
 31
0.0
  0
CIRCLE
  5
3FA6
330
1F
100
AcDbEntity
  8
SK1
100
AcDbCircle
 10
0.0
 20
0.0
 30
0.0
 40
3.200115174948665
  0
LINE
  5
3FA7
330
1F
100
AcDbEntity
  8
SK1
100
AcDbLine
 10
-2.262823140784178
 20
-2.262823140784178
 30
0.0
 11
2.262823140784178
 21
2.262823140784178
 31
0.0
  0
LINE
  5
3FA9
330
1F
100
AcDbEntity
  8
4
100
AcDbLine
 10
0.0
 20
0.0
 30
0.0
 11
60.85537167295502
 21
0.0
 31
0.0
  0
LINE
  5
3FAB
330
1F
100
AcDbEntity
  8
NOCUT
100
AcDbLine
 10
58.00000000000409
 20
0.0
 30
0.0
 11
58.00000000000409
 21
-121.7000000000088
 31
0.0
  0
LINE
  5
3FAF
330
1F
100
AcDbEntity
  8
NOCUT
100
AcDbLine
 10
9.800000000000636
 20
-120.1999999999973
 30
0.0
 11
9.799999999997908
 21
-91.50000000000492
 31
0.0
  0
LINE
  5
3FB0
330
1F
100
AcDbEntity
  8
1
100
AcDbLine
 10
56.40000000000441
 20
-123.3000000000085
 30
0.0
 11
12.90000000001225
 21
-123.3000000000088
 31
0.0
  0
LINE
  5
3FB1
330
1F
100
AcDbEntity
  8
NOCUT
100
AcDbLine
 10
12.90000000001225
 20
-123.3000000000088
 30
0.0
 11
9.80000000000075
 21
-120.1999999999973
 31
0.0
  0
LINE
  5
3FB2
330
1F
100
AcDbEntity
  8
NOCUT
100
AcDbLine
 10
58.00000000000409
 20
-121.7000000000088
 30
0.0
 11
56.40000000000441
 21
-123.3000000000085
 31
0.0
  0
LINE
  5
3FB6
330
1F
100
AcDbEntity
  8
NOCUT
100
AcDbLine
 10
-0.0000000000022737
 20
-65.00000000000454
 30
0.0
 11
0.0
 21
0.0
 31
0.0
  0
LINE
  5
3FB7
330
1F
100
AcDbEntity
  8
NOCUT
100
AcDbLine
 10
1.000000000001136
 20
-88.50000000000495
 30
0.0
 11
1.000000000001136
 21
-66.0000000000079
 31
0.0
  0
LINE
  5
3FB8
330
1F
100
AcDbEntity
  8
NOCUT
100
AcDbLine
 10
8.299999999997908
 20
-90.00000000000506
 30
0.0
 11
2.500000000001136
 21
-90.00000000000495
 31
0.0
  0
ARC
  5
3FB9
330
1F
100
AcDbEntity
  8
NOCUT
100
AcDbCircle
 10
2.500000000001136
 20
-88.500000000005
 30
0.0
 40
1.499999999999943
100
AcDbArc
 50
179.9999999999977
 51
270.0
  0
ARC
  5
3FBA
330
1F
100
AcDbEntity
  8
NOCUT
100
AcDbCircle
 10
8.299999999997908
 20
-91.50000000000506
 30
0.0
 40
1.500000000000056
100
AcDbArc
 50
0.0000000000064748
 51
89.99999999999785
  0
LINE
  5
3FBB
330
1F
100
AcDbEntity
  8
NOCUT
100
AcDbLine
 10
1.000000000000909
 20
-66.00000000000773
 30
0.0
 11
-0.0000000000022737
 21
-65.00000000000454
 31
0.0
  0
LINE
  5
3FC3
330
1F
100
AcDbEntity
  8
NOCUT
100
AcDbLine
 10
0.0
 20
0.0
 30
0.0
 11
58.00000000000409
 21
0.0
 31
0.0
  0
LINE
  5
4006
330
1F
100
AcDbEntity
  8
NOCUT
100
AcDbLine
 10
12.90000000001225
 20
-123.3000000000088
 30
0.0
 11
56.40000000000441
 21
-123.3000000000085
 31
0.0
  0
LINE
  5
401C
330
1F
100
AcDbEntity
  8
SK1
100
AcDbLine
 10
62.99999999999602
 20
-125.4637693698488
 30
0.0
 11
62.99999999999602
 21
-124.5362306301512
 31
0.0
  0
LINE
  5
401D
330
1F
100
AcDbEntity
  8
SK1
100
AcDbLine
 10
62.53623063014732
 20
-125.0
 30
0.0
 11
63.46376936984495
 21
-125.0
 31
0.0
  0
CIRCLE
  5
401E
330
1F
100
AcDbEntity
  8
SK1
100
AcDbCircle
 10
62.99999999999602
 20
-125.0
 30
0.0
 40
0.4637693698488208
  0
LINE
  5
4028
330
1F
100
AcDbEntity
  8
SK3
 48
0.3
100
AcDbLine
 10
0.0
 20
30.0
 30
0.0
 11
42.00000000000279
 21
30.00000000000005
 31
0.0
  0
LINE
  5
4030
330
1F
100
AcDbEntity
  8
SK3
 48
0.3
100
AcDbLine
 10
0.0
 20
-30.0
 30
0.0
 11
42.00000000000279
 21
-30.00000000000005
 31
0.0
  0
DIMENSION
  5
4041
330
1F
100
AcDbEntity
  8
SK2
100
AcDbDimension
  2
*D2
 10
-20.88125384863497
 20
-30.0
 30
0.0
 11
-20.88125384863496
 21
1.095408758331927
 31
0.0
 70
   160
  1
%%c<>
  3
AM_DIN
100
AcDbAlignedDimension
 13
-0.0000000000006253
 23
30.0
 33
0.0
 14
-0.0000000000010232
 24
-30.0
 34
0.0
 50
90.0
100
AcDbRotatedDimension
  0
DIMENSION
  5
4072
330
1F
100
AcDbEntity
  8
SK2
100
AcDbDimension
  2
*D3
 10
-37.41525360155334
 20
-50.79999999999994
 30
0.0
 11
-37.41525360155333
 21
0.682384271793012
 31
0.0
 70
   160
  1
%%c<>
  3
AM_DIN
100
AcDbAlignedDimension
 13
-2.847682379584455
 23
50.79999999999995
 33
0.0
 14
-2.862932720577362
 24
-50.79999999999995
 34
0.0
 50
90.0
100
AcDbRotatedDimension
  0
DIMENSION
  5
40AC
330
1F
100
AcDbEntity
  8
SK2
100
AcDbDimension
  2
*D4
 10
-56.42935366565096
 20
65.00000000000456
 30
0.0
 11
-56.42935366565097
 21
-2.208787133979285
 31
0.0
 70
   160
  1
%%c<>
  3
AM_DIN
100
AcDbAlignedDimension
 13
-0.000000000001819
 23
-65.000000000005
 33
0.0
 14
-0.000000000001819
 24
65.00000000000454
 34
0.0
 50
90.0
100
AcDbRotatedDimension
  0
DIMENSION
  5
40DD
330
1F
100
AcDbEntity
  8
2
100
AcDbDimension
  2
*D5
 10
109.1701670338496
 20
-125.0
 30
0.0
 11
105.9198225456607
 21
0.0000000000000079
 31
0.0
 70
    32
  1
%%c<>
  3
AM_DIN
100
AcDbAlignedDimension
 13
62.99999999999602
 23
125.0
 33
0.0
 14
62.99999999999602
 24
-125.0
 34
0.0
 50
90.0
100
AcDbRotatedDimension
  0
DIMENSION
  5
4134
330
1F
100
AcDbEntity
  8
2
100
AcDbDimension
  2
*D6
 10
-0.0000000000018119
 20
180.0
 30
0.0
 11
31.4999999999971
 21
183.2499999999999
 31
0.0
 70
    32
  3
AM_DIN
100
AcDbAlignedDimension
 13
62.99999999999602
 23
125.0
 33
0.0
 14
-0.000000000001819
 24
65.00000000000454
 34
0.0
100
AcDbRotatedDimension
  0
TEXT
  5
4195
330
1F
100
AcDbEntity
  8
6
100
AcDbText
 10
10.71341409058123
 20
171.4943716224067
 30
0.0
 40
3.5
  1
Verstellweg 63+0.7
100
AcDbText
  0
TEXT
  5
4197
330
1F
100
AcDbEntity
  8
6
100
AcDbText
 10
18.3009071083182
 20
-131.4643587834503
 30
0.0
 40
3.5
  1
4W3A250R01
100
AcDbText
  0
TEXT
  5
41EB
330
1F
100
AcDbEntity
  8
6
100
AcDbText
 10
116.0630571219651
 20
-5.371762054102987
 30
0.0
 40
3.5
  1
Z=20
 50
90.0
100
AcDbText
  0
DIMENSION
  5
4239
330
1F
100
AcDbEntity
  8
SK2
100
AcDbDimension
  2
*D7
 10
-72.96335515977627
 20
-90.00000000000493
 30
0.0
 11
-76.21335515977626
 21
0.0000000000000049
 31
0.0
 70
    32
  1
%%c<>
  3
AM_DIN
100
AcDbAlignedDimension
 13
2.500000000001591
 23
90.00000000000495
 33
0.0
 14
2.500000000001591
 24
-90.00000000000495
 34
0.0
 50
90.00000000000115
100
AcDbRotatedDimension
  0
ENDSEC
  0
SECTION
  2
OBJECTS
  0
DICTIONARY
  5
C
330
0
100
AcDbDictionary
  3
ACAD_GROUP
350
D
  3
ACAD_LAYOUT
350
1A
  3
ACAD_MLINESTYLE
350
17
  3
ACAD_PLOTSETTINGS
350
19
  3
ACAD_PLOTSTYLENAME
350
E
  3
ACDBHEADERROUNDTRIPXREC
350
42AD
  3
ACDBVARIABLEDICTIONARY
350
216
  3
ACMDICTIONARY
350
45
  3
AMG
350
41
  3
AMGSNAPSETTINGS
350
23D
  3
DWGPROPS
350
41E8
  0
DICTIONARY
  5
1F1
330
1F
100
AcDbDictionary
280
     1
  3
ACAD_INDEX
360
1F2
  3
ACAD_LAYOUTSELFREF
360
42D0
  0
DICTIONARY
  5
42CE
330
1B
100
AcDbDictionary
280
     1
  3
ACAD_LAYOUTSELFREF
360
42CF
  0
DICTIONARY
  5
D
102
{ACAD_REACTORS
330
C
102
}
330
C
100
AcDbDictionary
  0
DICTIONARY
  5
1A
102
{ACAD_REACTORS
330
C
102
}
330
C
100
AcDbDictionary
  0
DICTIONARY
  5
17
102
{ACAD_REACTORS
330
C
102
}
330
C
100
AcDbDictionary
  3
STANDARD
350
18
  0
DICTIONARY
  5
19
102
{ACAD_REACTORS
330
C
102
}
330
C
100
AcDbDictionary
  0
ACDBDICTIONARYWDFLT
  5
E
102
{ACAD_REACTORS
330
C
102
}
330
C
100
AcDbDictionary
281
     1
  3
Normal
350
F
100
AcDbDictionaryWithDefault
340
F
  0
DICTIONARY
  5
42AD
102
{ACAD_REACTORS
330
C
102
}
330
C
100
AcDbDictionary
  3
CEPSNTYPE
350
42B7
  3
DIMSTYLEDATA
350
42BB
  3
FINGERPRINTGUID
350
42B8
  3
HYPERLINKBASE
350
42B0
  3
INSUNITS
350
42B6
  3
LAYOUTDICT
350
42B2
  3
LWETCUNION
350
42B5
  3
PLOTSETDICT
350
42B3
  3
PLOTSTYLNAMDICT
350
42B4
  3
PSVPSCALE
350
42BA
  3
PUCSBASE
350
42BE
  3
PUCSORGBACK
350
42C4
  3
PUCSORGBOTTOM
350
42C0
  3
PUCSORGFRONT
350
42C3
  3
PUCSORGLEFT
350
42C1
  3
PUCSORGRIGHT
350
42C2
  3
PUCSORGTOP
350
42BF
  3
PUCSORTHOREF
350
42BC
  3
PUCSORTHOVIEW
350
42BD
  3
STYLESHEET
350
42B1
  3
TSTACKALIGN
350
42AE
  3
TSTACKSIZE
350
42AF
  3
UCSBASE
350
42C7
  3
UCSORGBACK
350
42CD
  3
UCSORGBOTTOM
350
42C9
  3
UCSORGFRONT
350
42CC
  3
UCSORGLEFT
350
42CA
  3
UCSORGRIGHT
350
42CB
  3
UCSORGTOP
350
42C8
  3
UCSORTHOREF
350
42C5
  3
UCSORTHOVIEW
350
42C6
  3
VERSIONGUID
350
42B9
  0
DICTIONARY
  5
216
102
{ACAD_REACTORS
330
C
102
}
330
C
100
AcDbDictionary
  3
DIMASSOC
350
219
  3
HIDETEXT
350
218
  3
INDEXCTL
350
217
  0
DICTIONARY
  5
45
102
{ACAD_REACTORS
330
C
102
}
330
C
100
AcDbDictionary
  3
ACMSTDDICTIONARY
350
4A
  0
DICTIONARY
  5
41
102
{ACAD_REACTORS
330
C
102
}
330
C
100
AcDbDictionary
  3
ACMGSETTINGS
350
42
  0
DICTIONARY
  5
23D
102
{ACAD_REACTORS
330
C
102
}
330
C
100
AcDbDictionary
  0
XRECORD
  5
41E8
102
{ACAD_REACTORS
330
C
102
}
330
C
100
AcDbXrecord
  1
DWGPROPS COOKIE
  2

  3

  4

  6

  7

  8

  9

300
AmdtFileType=84
301
=
302
=
303
=
304
=
305
=
306
=
307
=
308
=
309
=
 40
0.0768506944444445
 41
2453599.366006042
 42
2453798.456877199
  1

 90
        1
  0
DICTIONARY
  5
1F2
102
{ACAD_REACTORS
330
1F1
102
}
330
1F1
100
AcDbDictionary
  3
*A1
350
1F3
  0
XRECORD
  5
42D0
102
{ACAD_REACTORS
330
1F1
102
}
330
1F1
100
AcDbXrecord
340
1F
  0
XRECORD
  5
42CF
102
{ACAD_REACTORS
330
42CE
102
}
330
42CE
100
AcDbXrecord
340
1B
  0
MLINESTYLE
  5
18
102
{ACAD_REACTORS
330
17
102
}
330
17
100
AcDbMlineStyle
  2
STANDARD
 70
     0
  3

 62
   256
 51
90.0
 52
90.0
 71
     2
 49
0.5
 62
   256
  6
BYLAYER
 49
-0.5
 62
   256
  6
BYLAYER
  0
ACDBPLACEHOLDER
  5
F
102
{ACAD_REACTORS
330
E
102
}
330
E
100
AcDbPlaceHolder
280
     0
  0
XRECORD
  5
42B7
102
{ACAD_REACTORS
330
42AD
102
}
330
42AD
100
AcDbXrecord
 90
        0
  0
XRECORD
  5
42BB
102
{ACAD_REACTORS
330
42AD
102
}
330
42AD
100
AcDbXrecord
1000
DSTYLE
1002
{
1070
    79
 70
     2
1070
   371
 70
    -1
1070
   372
 70
    -1
1002
}
  0
XRECORD
  5
42B8
102
{ACAD_REACTORS
330
42AD
102
}
330
42AD
100
AcDbXrecord
  1
{03052709-208C-44F1-88CB-F8F0E550BC5D}
  0
XRECORD
  5
42B0
102
{ACAD_REACTORS
330
42AD
102
}
330
42AD
100
AcDbXrecord
  1

  0
XRECORD
  5
42B6
102
{ACAD_REACTORS
330
42AD
102
}
330
42AD
100
AcDbXrecord
 90
        4
  0
XRECORD
  5
42B2
102
{ACAD_REACTORS
330
42AD
102
}
330
42AD
100
AcDbXrecord
340
1A
  0
XRECORD
  5
42B5
102
{ACAD_REACTORS
330
42AD
102
}
330
42AD
100
AcDbXrecord
 90
    10781
  0
XRECORD
  5
42B3
102
{ACAD_REACTORS
330
42AD
102
}
330
42AD
100
AcDbXrecord
340
19
  0
XRECORD
  5
42B4
102
{ACAD_REACTORS
330
42AD
102
}
330
42AD
100
AcDbXrecord
340
E
  0
XRECORD
  5
42BA
102
{ACAD_REACTORS
330
42AD
102
}
330
42AD
100
AcDbXrecord
 40
0.0
  0
XRECORD
  5
42BE
102
{ACAD_REACTORS
330
42AD
102
}
330
42AD
100
AcDbXrecord
340
0
  0
XRECORD
  5
42C4
102
{ACAD_REACTORS
330
42AD
102
}
330
42AD
100
AcDbXrecord
 10
0.0
 20
0.0
 30
0.0
  0
XRECORD
  5
42C0
102
{ACAD_REACTORS
330
42AD
102
}
330
42AD
100
AcDbXrecord
 10
0.0
 20
0.0
 30
0.0
  0
XRECORD
  5
42C3
102
{ACAD_REACTORS
330
42AD
102
}
330
42AD
100
AcDbXrecord
 10
0.0
 20
0.0
 30
0.0
  0
XRECORD
  5
42C1
102
{ACAD_REACTORS
330
42AD
102
}
330
42AD
100
AcDbXrecord
 10
0.0
 20
0.0
 30
0.0
  0
XRECORD
  5
42C2
102
{ACAD_REACTORS
330
42AD
102
}
330
42AD
100
AcDbXrecord
 10
0.0
 20
0.0
 30
0.0
  0
XRECORD
  5
42BF
102
{ACAD_REACTORS
330
42AD
102
}
330
42AD
100
AcDbXrecord
 10
0.0
 20
0.0
 30
0.0
  0
XRECORD
  5
42BC
102
{ACAD_REACTORS
330
42AD
102
}
330
42AD
100
AcDbXrecord
340
0
  0
XRECORD
  5
42BD
102
{ACAD_REACTORS
330
42AD
102
}
330
42AD
100
AcDbXrecord
 70
     0
  0
XRECORD
  5
42B1
102
{ACAD_REACTORS
330
42AD
102
}
330
42AD
100
AcDbXrecord
  1

  0
XRECORD
  5
42AE
102
{ACAD_REACTORS
330
42AD
102
}
330
42AD
100
AcDbXrecord
 90
        1
  0
XRECORD
  5
42AF
102
{ACAD_REACTORS
330
42AD
102
}
330
42AD
100
AcDbXrecord
 90
       70
  0
XRECORD
  5
42C7
102
{ACAD_REACTORS
330
42AD
102
}
330
42AD
100
AcDbXrecord
340
0
  0
XRECORD
  5
42CD
102
{ACAD_REACTORS
330
42AD
102
}
330
42AD
100
AcDbXrecord
 10
0.0
 20
0.0
 30
0.0
  0
XRECORD
  5
42C9
102
{ACAD_REACTORS
330
42AD
102
}
330
42AD
100
AcDbXrecord
 10
0.0
 20
0.0
 30
0.0
  0
XRECORD
  5
42CC
102
{ACAD_REACTORS
330
42AD
102
}
330
42AD
100
AcDbXrecord
 10
0.0
 20
0.0
 30
0.0
  0
XRECORD
  5
42CA
102
{ACAD_REACTORS
330
42AD
102
}
330
42AD
100
AcDbXrecord
 10
0.0
 20
0.0
 30
0.0
  0
XRECORD
  5
42CB
102
{ACAD_REACTORS
330
42AD
102
}
330
42AD
100
AcDbXrecord
 10
0.0
 20
0.0
 30
0.0
  0
XRECORD
  5
42C8
102
{ACAD_REACTORS
330
42AD
102
}
330
42AD
100
AcDbXrecord
 10
0.0
 20
0.0
 30
0.0
  0
XRECORD
  5
42C5
102
{ACAD_REACTORS
330
42AD
102
}
330
42AD
100
AcDbXrecord
340
0
  0
XRECORD
  5
42C6
102
{ACAD_REACTORS
330
42AD
102
}
330
42AD
100
AcDbXrecord
 70
     0
  0
XRECORD
  5
42B9
102
{ACAD_REACTORS
330
42AD
102
}
330
42AD
100
AcDbXrecord
  1
{FF446126-676D-4F68-A652-4D3544C95EBE}
  0
DICTIONARYVAR
  5
219
102
{ACAD_REACTORS
330
216
102
}
330
216
100
DictionaryVariables
280
     0
  1
1
  0
DICTIONARYVAR
  5
218
102
{ACAD_REACTORS
330
216
102
}
330
216
100
DictionaryVariables
280
     0
  1
1
  0
DICTIONARYVAR
  5
217
102
{ACAD_REACTORS
330
216
102
}
330
216
100
DictionaryVariables
280
     0
  1
1
  0
DICTIONARY
  5
4A
102
{ACAD_REACTORS
330
45
102
}
330
45
100
AcDbDictionary
  0
DICTIONARY
  5
42
102
{ACAD_REACTORS
330
41
102
}
330
41
100
AcDbDictionary
  3
DWGSETTINGS
350
43
  0
LAYER_INDEX
  5
1F3
102
{ACAD_REACTORS
330
1F2
102
}
330
1F2
100
AcDbIndex
 40
2453874.472394467
100
AcDbLayerIndex
  8
0
360
1F4
 90
        0
  8
Defpoints
360
210
 90
        0
  8
1
360
29B
 90
       38
  8
2
360
1EC1
 90
        2
  8
4
360
1EC2
 90
        5
  8
6
360
1EC3
 90
        3
  8
SK1
360
1EC4
 90
       16
  8
SK2
360
1EC5
 90
        4
  8
SK3
360
1EC6
 90
       34
  8
NOCUT
360
1EC7
 90
       12
  8
SK4
360
3022
 90
        3
  0
XRECORD
  5
43
102
{ACAD_REACTORS
330
42
102
}
330
42
100
AcDbXrecord
  1
VERSION
140
15.0
  1
PRODUCT
  2
AutoCAD Mechanical 2000
  0
IDBUFFER
  5
1F4
330
0
100
AcDbIdBuffer
  0
IDBUFFER
  5
210
330
0
100
AcDbIdBuffer
  0
IDBUFFER
  5
29B
330
0
100
AcDbIdBuffer
330
3F22
330
3F23
330
3F26
330
3F27
330
3F28
330
3F29
330
3F2A
330
3F2B
330
3F2C
330
3F43
330
3F52
330
3F53
330
3F54
330
3F55
330
3F56
330
3F57
330
3F58
330
3F74
330
3F7A
330
3F7B
330
3F7C
330
3F83
330
3F8A
330
3F8C
330
3F8D
330
3F8E
330
3F8F
330
3F91
330
3F92
330
3F93
330
3F95
330
3F96
330
3F97
330
3F98
330
3F99
330
3FA1
330
3FA2
330
3FB0
  0
IDBUFFER
  5
1EC1
330
0
100
AcDbIdBuffer
330
40DD
330
4134
  0
IDBUFFER
  5
1EC2
330
0
100
AcDbIdBuffer
330
3F89
330
3F8B
330
3F90
330
3F94
330
3FA9
  0
IDBUFFER
  5
1EC3
330
0
100
AcDbIdBuffer
330
41EB
330
4195
330
4197
  0
IDBUFFER
  5
1EC4
330
0
100
AcDbIdBuffer
330
3F2D
330
3F2E
330
3F2F
330
3F75
330
3F7D
330
3F86
330
3F87
330
3F9A
330
3F9B
330
3F9C
330
3FA5
330
3FA6
330
3FA7
330
401C
330
401D
330
401E
  0
IDBUFFER
  5
1EC5
330
0
100
AcDbIdBuffer
330
4239
330
4041
330
4072
330
40AC
  0
IDBUFFER
  5
1EC6
330
0
100
AcDbIdBuffer
330
3F31
330
3F32
330
3F33
330
3F34
330
3F35
330
3F36
330
3F37
330
3F38
330
3F39
330
3F3B
330
3F3C
330
3F4B
330
3F4C
330
3F4D
330
3F4E
330
3F4F
330
3F70
330
3F71
330
3F72
330
3F73
330
3F76
330
3F77
330
3F78
330
3F79
330
3F7E
330
3F7F
330
3F80
330
3F81
330
3F82
330
3F84
330
3F85
330
3F88
330
4028
330
4030
  0
IDBUFFER
  5
1EC7
330
0
100
AcDbIdBuffer
330
3FAB
330
3FAF
330
3FB1
330
3FB2
330
3FB6
330
3FB7
330
3FB8
330
3FB9
330
3FBA
330
3FBB
330
3FC3
330
4006
  0
IDBUFFER
  5
3022
330
0
100
AcDbIdBuffer
330
3F3A
330
3F4A
330
3F9D
  0
ENDSEC
  0
EOF
