  0
SECTION
  2
HEADER
  9
$ACADVER
  1
AC1014
  9
$ACADMAINTVER
 70
     9
  9
$DWGCODEPAGE
  3
ANSI_1252
  9
$INSBASE
 10
0.0
 20
0.0
 30
0.0
  9
$EXTMIN
 10
-71.44526579664852
 20
-107.7128803320972
 30
-0.0000000000000058
  9
$EXTMAX
 10
115.4224023357062
 20
155.0002701732571
 30
0.0000000000000104
  9
$LIMMIN
 10
0.0
 20
0.0
  9
$LIMMAX
 10
420.0
 20
297.0
  9
$ORTHOMODE
 70
     0
  9
$REGENMODE
 70
     1
  9
$FILLMODE
 70
     1
  9
$QTEXTMODE
 70
     0
  9
$MIRRTEXT
 70
     1
  9
$DRAGMODE
 70
     2
  9
$LTSCALE
 40
1.0
  9
$OSMODE
 70
  2599
  9
$ATTMODE
 70
     1
  9
$TEXTSIZE
 40
2.5
  9
$TRACEWID
 40
1.0
  9
$TEXTSTYLE
  7
STANDARD
  9
$CLAYER
  8
0
  9
$CELTYPE
  6
BYLAYER
  9
$CECOLOR
 62
   256
  9
$CELTSCALE
 40
1.0
  9
$DELOBJ
 70
     1
  9
$DISPSILH
 70
     0
  9
$DIMSCALE
 40
1.0
  9
$DIMASZ
 40
2.5
  9
$DIMEXO
 40
0.0
  9
$DIMDLI
 40
10.0
  9
$DIMRND
 40
0.0
  9
$DIMDLE
 40
0.0
  9
$DIMEXE
 40
1.0
  9
$DIMTP
 40
0.1
  9
$DIMTM
 40
0.1
  9
$DIMTXT
 40
3.5
  9
$DIMCEN
 40
0.0
  9
$DIMTSZ
 40
0.0
  9
$DIMTOL
 70
     0
  9
$DIMLIM
 70
     0
  9
$DIMTIH
 70
     0
  9
$DIMTOH
 70
     0
  9
$DIMSE1
 70
     0
  9
$DIMSE2
 70
     0
  9
$DIMTAD
 70
     1
  9
$DIMZIN
 70
     8
  9
$DIMBLK
  1

  9
$DIMASO
 70
     1
  9
$DIMSHO
 70
     1
  9
$DIMPOST
  1

  9
$DIMAPOST
  1
"
  9
$DIMALT
 70
     0
  9
$DIMALTD
 70
     2
  9
$DIMALTF
 40
0.0393701
  9
$DIMLFAC
 40
1.0
  9
$DIMTOFL
 70
     1
  9
$DIMTVP
 40
0.0
  9
$DIMTIX
 70
     0
  9
$DIMSOXD
 70
     0
  9
$DIMSAH
 70
     0
  9
$DIMBLK1
  1

  9
$DIMBLK2
  1

  9
$DIMSTYLE
  2
AM_DIN
  9
$DIMCLRD
 70
   256
  9
$DIMCLRE
 70
   256
  9
$DIMCLRT
 70
     2
  9
$DIMTFAC
 40
0.71
  9
$DIMGAP
 40
1.5
  9
$DIMJUST
 70
     0
  9
$DIMSD1
 70
     0
  9
$DIMSD2
 70
     0
  9
$DIMTOLJ
 70
     0
  9
$DIMTZIN
 70
     8
  9
$DIMALTZ
 70
     0
  9
$DIMALTTZ
 70
     0
  9
$DIMFIT
 70
     3
  9
$DIMUPT
 70
     0
  9
$DIMUNIT
 70
     2
  9
$DIMDEC
 70
     2
  9
$DIMTDEC
 70
     2
  9
$DIMALTU
 70
     2
  9
$DIMALTTD
 70
     2
  9
$DIMTXSTY
  7
STANDARD
  9
$DIMAUNIT
 70
     0
  9
$LUNITS
 70
     2
  9
$LUPREC
 70
     2
  9
$SKETCHINC
 40
1.0
  9
$FILLETRAD
 40
3.0
  9
$AUNITS
 70
     0
  9
$AUPREC
 70
     0
  9
$MENU
  1
.
  9
$ELEVATION
 40
0.0
  9
$PELEVATION
 40
0.0
  9
$THICKNESS
 40
0.0
  9
$LIMCHECK
 70
     0
  9
$BLIPMODE
 70
     0
  9
$CHAMFERA
 40
2.5
  9
$CHAMFERB
 40
2.5
  9
$CHAMFERC
 40
20.0
  9
$CHAMFERD
 40
0.0
  9
$SKPOLY
 70
     0
  9
$TDCREATE
 40
2453599.366006042
  9
$TDUPDATE
 40
2453874.466579502
  9
$TDINDWG
 40
0.0841607292
  9
$TDUSRTIMER
 40
0.0841363889
  9
$USRTIMER
 70
     1
  9
$ANGBASE
 50
0.0
  9
$ANGDIR
 70
     0
  9
$PDMODE
 70
     0
  9
$PDSIZE
 40
0.0
  9
$PLINEWID
 40
0.0
  9
$COORDS
 70
     0
  9
$SPLFRAME
 70
     0
  9
$SPLINETYPE
 70
     6
  9
$SPLINESEGS
 70
     8
  9
$ATTDIA
 70
     1
  9
$ATTREQ
 70
     1
  9
$HANDLING
 70
 22529
  9
$HANDSEED
  5
4485
  9
$SURFTAB1
 70
     6
  9
$SURFTAB2
 70
     6
  9
$SURFTYPE
 70
     6
  9
$SURFU
 70
     6
  9
$SURFV
 70
     6
  9
$UCSNAME
  2

  9
$UCSORG
 10
0.0
 20
0.0
 30
0.0
  9
$UCSXDIR
 10
1.0
 20
0.0
 30
0.0
  9
$UCSYDIR
 10
0.0
 20
1.0
 30
0.0
  9
$PUCSNAME
  2

  9
$PUCSORG
 10
0.0
 20
0.0
 30
0.0
  9
$PUCSXDIR
 10
1.0
 20
0.0
 30
0.0
  9
$PUCSYDIR
 10
0.0
 20
1.0
 30
0.0
  9
$USERI1
 70
     0
  9
$USERI2
 70
     0
  9
$USERI3
 70
     0
  9
$USERI4
 70
     0
  9
$USERI5
 70
     0
  9
$USERR1
 40
0.0
  9
$USERR2
 40
0.0
  9
$USERR3
 40
0.0
  9
$USERR4
 40
0.0
  9
$USERR5
 40
0.0
  9
$WORLDVIEW
 70
     1
  9
$SHADEDGE
 70
     3
  9
$SHADEDIF
 70
    70
  9
$TILEMODE
 70
     1
  9
$MAXACTVP
 70
    64
  9
$PINSBASE
 10
0.0
 20
0.0
 30
0.0
  9
$PLIMCHECK
 70
     0
  9
$PEXTMIN
 10
1.000000000000000E+20
 20
1.000000000000000E+20
 30
1.000000000000000E+20
  9
$PEXTMAX
 10
-1.000000000000000E+20
 20
-1.000000000000000E+20
 30
-1.000000000000000E+20
  9
$PLIMMIN
 10
0.0
 20
0.0
  9
$PLIMMAX
 10
420.0
 20
297.0
  9
$UNITMODE
 70
     0
  9
$VISRETAIN
 70
     1
  9
$PLINEGEN
 70
     0
  9
$PSLTSCALE
 70
     1
  9
$TREEDEPTH
 70
  3020
  9
$PICKSTYLE
 70
     0
  9
$CMLSTYLE
  2
STANDARD
  9
$CMLJUST
 70
     0
  9
$CMLSCALE
 40
20.0
  9
$PROXYGRAPHICS
 70
     1
  9
$MEASUREMENT
 70
     1
  0
ENDSEC
  0
SECTION
  2
CLASSES
  0
CLASS
  1
ACDBDICTIONARYWDFLT
  2
AcDbDictionaryWithDefault
  3
AutoCAD 2000
 90
        0
280
     0
281
     0
  0
CLASS
  1
ACDBPLACEHOLDER
  2
AcDbPlaceHolder
  3
AutoCAD 2000
 90
        0
280
     0
281
     0
  0
CLASS
  1
LAYOUT
  2
AcDbLayout
  3
AutoCAD 2000
 90
        0
280
     0
281
     0
  0
CLASS
  1
ACME_DOCUMENT
  2
AcMeDbDoc
  3
AcMeServices
 90
        0
280
     0
281
     0
  0
CLASS
  1
ACMESCOPE
  2
AcMeScope
  3
AcMeServices
 90
        0
280
     0
281
     0
  0
CLASS
  1
ACMECOMMANDHISTORY
  2
AcMeCommandHistory
  3
AcMeServices
 90
        0
280
     0
281
     0
  0
CLASS
  1
ACIMSYSVARMAN
  2
AcImSysVarManager
  3
AcMeServices
 90
        0
280
     0
281
     0
  0
CLASS
  1
ACIMREALSYSVAR
  2
AcImRealSysVar
  3
AcMeServices
 90
        0
280
     0
281
     0
  0
CLASS
  1
ACIMINTSYSVAR
  2
AcImIntSysVar
  3
AcMeServices
 90
        0
280
     0
281
     0
  0
CLASS
  1
ACMEDRAWINGMAN
  2
AcMeDrawingMan
  3
AcMeServices
 90
        0
280
     0
281
     0
  0
CLASS
  1
ACMEVIEW
  2
AcMeView
  3
AcMeServices
 90
        0
280
     0
281
     0
  0
CLASS
  1
ACDBENTITYCACHE
  2
AcMeEntityCache
  3
AcMeServices
 90
        0
280
     0
281
     0
  0
CLASS
  1
GSMANAGER
  2
AcMeGSManager
  3
AcMeServices
 90
        0
280
     0
281
     0
  0
CLASS
  1
AMDTINTERNALREACTOR
  2
AmdtInternalReactor
  3
AcMeServices
 90
        0
280
     0
281
     0
  0
CLASS
  1
ACMESTATEMGR
  2
AcMeStateMgr
  3
AcMeServices
 90
        0
280
     0
281
     0
  0
CLASS
  1
ACGREFMASTER
  2
AcGrefMaster
  3
AcAttribServices
 90
        0
280
     0
281
     0
  0
CLASS
  1
ACME_DATABASE
  2
AcMeDbDatabase
  3
AcMeServices
 90
        0
280
     0
281
     0
  0
CLASS
  1
ACRFINSADJUSTERMGR
  2
AcRfInsAdjusterMgr
  3
AcMeServices
 90
        0
280
     0
281
     0
  0
CLASS
  1
ACGREFACADMASTER
  2
AcGrefacadMaster
  3
AcGrefServices
 90
        0
280
     0
281
     0
  0
CLASS
  1
AMIMASTER
  2
AmiMaster
  3
AmiServices
 90
        0
280
     0
281
     0
  0
CLASS
  1
AMGSETTINGSOBJ
  2
AmgSettingsObj
  3
"AcadM|Product Description: AutoCAD Mechanical 2000|Company: Autodesk"
 90
        0
280
     0
281
     0
  0
CLASS
  1
ACMDATADICTIONARY
  2
AcmDataDictionary
  3
"AcmSymBB|Product Description: AutoCAD Mechanical 2000|Company: Autodesk"
 90
        0
280
     0
281
     0
  0
CLASS
  1
ACMDATAENTRYBLOCK
  2
AcmDataEntryBlock
  3
"AcmSymBB|Product Description: AutoCAD Mechanical 2000|Company: Autodesk"
 90
        0
280
     0
281
     0
  0
CLASS
  1
ACIMSTRSYSVAR
  2
AcImStrSysVar
  3
AcMeServices
 90
        0
280
     0
281
     0
  0
CLASS
  1
ACMSTANDARDDIN
  2
AcmStandardDIN
  3
"Amdt_StdImp|Product Description: AutoCAD Mechanical 2000|Company: Autodesk"
 90
        0
280
     0
281
     0
  0
CLASS
  1
AMGOBJPROPCFG
  2
AmgObjPropCfg
  3
"AmgLay|Product Description: AutoCAD Mechanical 2000|Company: Autodesk"
 90
        1
280
     0
281
     0
  0
CLASS
  1
AMDTEDGESTANDARDDIN
  2
AmdtEdgeStdDIN
  3
"Amdt_StdImp|Product Description: AutoCAD Mechanical 2000|Company: Autodesk"
 90
        0
280
     0
281
     0
  0
CLASS
  1
ACMSURFSTANDARDDIN
  2
AcmSurfTextStdDIN
  3
"Amdt_StdImp|Product Description: AutoCAD Mechanical 2000|Company: Autodesk"
 90
        0
280
     0
281
     0
  0
CLASS
  1
ACMFCFSTANDARDDIN
  2
AcmFCFStdDIN
  3
"Amdt_StdImp|Product Description: AutoCAD Mechanical 2000|Company: Autodesk"
 90
        0
280
     0
281
     0
  0
CLASS
  1
ACMWELDSTANDARDDIN
  2
AcmWeldingStdDIN
  3
"Amdt_StdImp|Product Description: AutoCAD Mechanical 2000|Company: Autodesk"
 90
        0
280
     0
281
     0
  0
CLASS
  1
ACMIDSTANDARDDIN
  2
AcmIdStdDIN
  3
"Amdt_StdImp|Product Description: AutoCAD Mechanical 2000|Company: Autodesk"
 90
        0
280
     0
281
     0
  0
CLASS
  1
ACMDATUMSTANDARDDIN
  2
AcmDatumStdDIN
  3
"Amdt_StdImp|Product Description: AutoCAD Mechanical 2000|Company: Autodesk"
 90
        0
280
     0
281
     0
  0
CLASS
  1
ACMBOMSTANDARDDIN
  2
AcmBOMStdDIN
  3
"Amdt_StdImp|Product Description: AutoCAD Mechanical 2000|Company: Autodesk"
 90
        0
280
     0
281
     0
  0
CLASS
  1
ACMDETAILSTANDARDDIN
  2
AmdtDetailSymStdDIN
  3
"Amdt_StdImp|Product Description: AutoCAD Mechanical 2000|Company: Autodesk"
 90
        0
280
     0
281
     0
  0
CLASS
  1
ACMSECTIONSTANDARDDIN
  2
AmdtSectionSymStdDIN
  3
"Amdt_StdImp|Product Description: AutoCAD Mechanical 2000|Company: Autodesk"
 90
        0
280
     0
281
     0
  0
CLASS
  1
ACMCENTERLINESTANDARDDIN
  2
AmdtCenterLineStdDIN
  3
"Amdt_StdImp|Product Description: AutoCAD Mechanical 2000|Company: Autodesk"
 90
        0
280
     0
281
     0
  0
CLASS
  1
ACMNOTESTANDARDDIN
  2
AmdtNoteStdDIN
  3
"Amdt_StdImp|Product Description: AutoCAD Mechanical 2000|Company: Autodesk"
 90
        0
280
     0
281
     0
  0
CLASS
  1
ACAMGLAYSTD
  2
AcAmgLayStd
  3
"AcAmgLayStd|Product Description: AutoCAD Mechanical 2000|Company: Autodesk"
 90
        0
280
     0
281
     0
  0
CLASS
  1
ACAMGDIMSTD
  2
AcAmgDimStd
  3
"AcAmgDimStd|Product Description: AutoCAD Mechanical 2000|Company: Autodesk"
 90
        0
280
     0
281
     0
  0
CLASS
  1
ACAMGHOLECHARTSTDDIN
  2
AcAmgHoleChartStdDIN
  3
ACMSYMBB_MODULE_NAME
 90
        0
280
     0
281
     0
  0
CLASS
  1
ACAMGTITLESTD
  2
AcAmgTitleStd
  3
"TITLEAPP"
 90
        0
280
     0
281
     0
  0
CLASS
  1
ACMSTANDARDANSI
  2
AcmStandardANSI
  3
"Amdt_StdImp|Product Description: AutoCAD Mechanical 2000|Company: Autodesk"
 90
        0
280
     0
281
     0
  0
CLASS
  1
ACMSURFSTANDARDANSI
  2
AcmSurfTextStdANSI
  3
"Amdt_StdImp|Product Description: AutoCAD Mechanical 2000|Company: Autodesk"
 90
        0
280
     0
281
     0
  0
CLASS
  1
ACMFCFSTANDARDANSI
  2
AcmFCFStdANSI
  3
"Amdt_StdImp|Product Description: AutoCAD Mechanical 2000|Company: Autodesk"
 90
        0
280
     0
281
     0
  0
CLASS
  1
ACMWELDSTANDARDANSI
  2
AcmWeldingStdANSI
  3
"Amdt_StdImp|Product Description: AutoCAD Mechanical 2000|Company: Autodesk"
 90
        0
280
     0
281
     0
  0
CLASS
  1
ACMIDSTANDARDANSI
  2
AcmIdStdANSI
  3
"Amdt_StdImp|Product Description: AutoCAD Mechanical 2000|Company: Autodesk"
 90
        0
280
     0
281
     0
  0
CLASS
  1
ACMDATUMSTANDARDANSI
  2
AcmDatumStdANSI
  3
"Amdt_StdImp|Product Description: AutoCAD Mechanical 2000|Company: Autodesk"
 90
        0
280
     0
281
     0
  0
CLASS
  1
ACMBOMSTANDARDANSI
  2
AcmBOMStdANSI
  3
"Amdt_StdImp|Product Description: AutoCAD Mechanical 2000|Company: Autodesk"
 90
        0
280
     0
281
     0
  0
CLASS
  1
ACMDETAILSTANDARDANSI
  2
AmdtDetailSymStdANSI
  3
"Amdt_StdImp|Product Description: AutoCAD Mechanical 2000|Company: Autodesk"
 90
        0
280
     0
281
     0
  0
CLASS
  1
ACMSECTIONSTANDARDANSI
  2
AmdtSectionSymStdANSI
  3
"Amdt_StdImp|Product Description: AutoCAD Mechanical 2000|Company: Autodesk"
 90
        0
280
     0
281
     0
  0
CLASS
  1
ACMCENTERLINESTANDARDANSI
  2
AmdtCenterLineStdANSI
  3
"Amdt_StdImp|Product Description: AutoCAD Mechanical 2000|Company: Autodesk"
 90
        0
280
     0
281
     0
  0
CLASS
  1
ACMNOTESTANDARDANSI
  2
AmdtNoteStdANSI
  3
"Amdt_StdImp|Product Description: AutoCAD Mechanical 2000|Company: Autodesk"
 90
        0
280
     0
281
     0
  0
CLASS
  1
ACAMGHOLECHARTSTDANSI
  2
AcAmgHoleChartStdANSI
  3
ACMSYMBB_MODULE_NAME
 90
        0
280
     0
281
     0
  0
CLASS
  1
ACAMGFILTERDAT
  2
AcAmgFilterDat
  3
"AcadM|Product Description: AutoCAD Mechanical 2000|Company: Autodesk"
 90
        0
280
     0
281
     0
  0
CLASS
  1
AMDTFORMULAUPDATEDISPATCHER
  2
AmdtFormulaUpdateDispatcher
  3
AcMeServices
 90
        0
280
     0
281
     0
  0
CLASS
  1
LAYER_INDEX
  2
AcDbLayerIndex
  3
AutoCAD 2000
 90
        0
280
     0
281
     0
  0
CLASS
  1
IDBUFFER
  2
AcDbIdBuffer
  3
AutoCAD 2000
 90
        0
280
     0
281
     0
  0
CLASS
  1
DICTIONARYVAR
  2
AcDbDictionaryVar
  3
AutoCAD 2000
 90
        0
280
     0
281
     0
  0
CLASS
  1
DIMASSOC
  2
AcDbDimAssoc
  3
"AcDbDimAssoc|Product Desc:     AcDim ARX App For Dimension|Company:          Autodesk, Inc.|WEB Address:      www.autodesk.com"
 90
        0
280
     0
281
     0
  0
CLASS
  1
ACMDIMBREAKPERSREACTOR
  2
AcmDimBreakPersReactor
  3
amgDimApp().moduleName()
 90
     1023
280
     0
281
     0
  0
CLASS
  1
ACMSURFSYM
  2
AcmSurfaceTexture
  3
"AcmSymBB|Product Description: AutoCAD Mechanical 2000|Company: Autodesk"
 90
     1023
280
     0
281
     1
  0
CLASS
  1
ACMFCFRAME
  2
AcmFCF
  3
"AcmSymBB|Product Description: AutoCAD Mechanical 2000|Company: Autodesk"
 90
     1023
280
     0
281
     1
  0
CLASS
  1
LONG_TRANSACTION
  2
AcDbLongTransaction
  3
AutoCAD 2000
 90
        0
280
     0
281
     0
  0
CLASS
  1
LWPOLYLINE
  2
AcDbPolyline
  3
AutoCAD 2000
 90
        0
280
     0
281
     1
  0
CLASS
  1
HATCH
  2
AcDbHatch
  3
AutoCAD 2000
 90
        0
280
     0
281
     1
  0
CLASS
  1
XRECORD
  2
AcDbXrecord
  3
AutoCAD 2000
 90
        0
280
     0
281
     0
  0
ENDSEC
  0
SECTION
  2
TABLES
  0
TABLE
  2
VPORT
  5
8
330
0
100
AcDbSymbolTable
 70
    43
  0
VPORT
  5
445E
330
8
100
AcDbSymbolTableRecord
100
AcDbViewportTableRecord
  2
*ACTIVE
 70
     0
 10
0.0
 20
0.0
 11
1.0
 21
1.0
 12
174.2773671016757
 22
94.64355983395137
 13
0.0
 23
0.0
 14
2.5
 24
2.5
 15
10.0
 25
10.0
 16
0.0
 26
0.0
 36
1.0
 17
0.0
 27
0.0
 37
0.0
 40
409.2602160661657
 41
1.72607879924953
 42
50.0
 43
0.0
 44
0.0
 50
0.0
 51
0.0
 71
     0
 72
 10000
 73
     1
 74
     3
 75
     0
 76
     0
 77
     0
 78
     0
  0
ENDTAB
  0
TABLE
  2
LTYPE
  5
5
330
0
100
AcDbSymbolTable
 70
    16
  0
LTYPE
  5
14
330
5
100
AcDbSymbolTableRecord
100
AcDbLinetypeTableRecord
  2
BYBLOCK
 70
     0
  3

 72
    65
 73
     0
 40
0.0
  0
LTYPE
  5
15
330
5
100
AcDbSymbolTableRecord
100
AcDbLinetypeTableRecord
  2
BYLAYER
 70
     0
  3

 72
    65
 73
     0
 40
0.0
  0
LTYPE
  5
16
330
5
100
AcDbSymbolTableRecord
100
AcDbLinetypeTableRecord
  2
CONTINUOUS
 70
     0
  3
Solid line
 72
    65
 73
     0
 40
0.0
  0
LTYPE
  5
50
330
5
100
AcDbSymbolTableRecord
100
AcDbLinetypeTableRecord
  2
AMCONSTR
 70
     0
  3
_______________________
 72
    65
 73
     2
 40
9999.0
 49
9999.0
 74
     0
 49
0.0
 74
     0
  0
LTYPE
  5
55
330
5
100
AcDbSymbolTableRecord
100
AcDbLinetypeTableRecord
  2
AMZIGZAG
 70
     0
  3
/\/-/\/-/\/-/\/-/\/-/\/
 72
    65
 73
     2
 40
11.00009999999999
 49
0.0001
 74
     4
 75
   135
340
54
 46
0.04
 50
0.0
 44
0.0
 45
0.0
 49
-11.0
 74
     0
  0
LTYPE
  5
56
330
5
100
AcDbSymbolTableRecord
100
AcDbLinetypeTableRecord
  2
AM_DIN_F_W050
 70
     0
  3
__ __ __ __ __ __ __ __ __ __ __ __ __ __ __
 72
    65
 73
     2
 40
6.25
 49
4.75
 74
     0
 49
-1.5
 74
     0
  0
LTYPE
  5
57
330
5
100
AcDbSymbolTableRecord
100
AcDbLinetypeTableRecord
  2
AM_DIN_G_W050
 70
     0
  3
____ . ____ . ____ . ____ . ____ . ____ . ____
 72
    65
 73
     4
 40
13.75
 49
9.75
 74
     0
 49
-1.5
 74
     0
 49
1.0
 74
     0
 49
-1.5
 74
     0
  0
LTYPE
  5
58
330
5
100
AcDbSymbolTableRecord
100
AcDbLinetypeTableRecord
  2
AM_DIN_K_W050
 70
     0
  3
_____ . . _____ . . _____ . . ____ .. ____
 72
    65
 73
     6
 40
16.25
 49
9.75
 74
     0
 49
-1.5
 74
     0
 49
1.0
 74
     0
 49
-1.5
 74
     0
 49
1.0
 74
     0
 49
-1.5
 74
     0
  0
LTYPE
  5
59
330
5
100
AcDbSymbolTableRecord
100
AcDbLinetypeTableRecord
  2
AM_DIN_G_W050X2
 70
     0
  3
__ . __ . __ . __ . __ . __
 72
    65
 73
     4
 40
6.875
 49
4.75
 74
     0
 49
-0.875
 74
     0
 49
0.375
 74
     0
 49
-0.875
 74
     0
  0
LTYPE
  5
5A
330
5
100
AcDbSymbolTableRecord
100
AcDbLinetypeTableRecord
  2
AM_DIN_F_W050X2
 70
     0
  3
 _ _ _ _ _ _ _ _ _ _ _ _
 72
    65
 73
     2
 40
3.125
 49
2.25
 74
     0
 49
-0.875
 74
     0
  0
LTYPE
  5
68
330
5
100
AcDbSymbolTableRecord
100
AcDbLinetypeTableRecord
  2
ACDINWELD
 70
     0
  3
_ _ _ _ _
 72
    65
 73
     2
 40
2.0
 49
2.0
 74
     0
 49
-1.0
 74
     0
  0
LTYPE
  5
69
330
5
100
AcDbSymbolTableRecord
100
AcDbLinetypeTableRecord
  2
ACDINTGB
 70
     0
  3
__ . . __ . .
 72
    65
 73
     6
 40
9.0
 49
4.0
 74
     0
 49
-1.0
 74
     0
 49
1.0
 74
     0
 49
-1.0
 74
     0
 49
1.0
 74
     0
 49
-1.0
 74
     0
  0
LTYPE
  5
6A
330
5
100
AcDbSymbolTableRecord
100
AcDbLinetypeTableRecord
  2
ACDINTGL
 70
     0
  3
_ _ _ _ _
 72
    65
 73
     2
 40
3.0
 49
2.0
 74
     0
 49
-1.0
 74
     0
  0
LTYPE
  5
6C
330
5
100
AcDbSymbolTableRecord
100
AcDbLinetypeTableRecord
  2
CENTER
 70
     0
  3
__ . __
 72
    65
 73
     4
 40
7.0
 49
4.0
 74
     0
 49
-1.0
 74
     0
 49
1.0
 74
     0
 49
-1.0
 74
     0
  0
LTYPE
  5
1E2C
330
5
100
AcDbSymbolTableRecord
100
AcDbLinetypeTableRecord
  2
PHANTOM2
 70
     0
  3
Phantom (.5x) ___ _ _ ___ _ _ ___ _ _ ___ _ _
 72
    65
 73
     6
 40
1.25
 49
0.625
 74
     0
 49
-0.125
 74
     0
 49
0.125
 74
     0
 49
-0.125
 74
     0
 49
0.125
 74
     0
 49
-0.125
 74
     0
  0
LTYPE
  5
1E2D
330
5
100
AcDbSymbolTableRecord
100
AcDbLinetypeTableRecord
  2
ACANSTGB
 70
     0
  3
__ . . __ . .
 72
    65
 73
     6
 40
0.35433070866
 49
0.15748031496
 74
     0
 49
-0.03937007874
 74
     0
 49
0.03937007874
 74
     0
 49
-0.03937007874
 74
     0
 49
0.03937007874
 74
     0
 49
-0.03937007874
 74
     0
  0
LTYPE
  5
1E2E
330
5
100
AcDbSymbolTableRecord
100
AcDbLinetypeTableRecord
  2
ACANSTGL
 70
     0
  3
_ _ _ _ _
 72
    65
 73
     2
 40
0.11811023622
 49
0.07874015748
 74
     0
 49
-0.03937007874
 74
     0
  0
LTYPE
  5
1E2F
330
5
100
AcDbSymbolTableRecord
100
AcDbLinetypeTableRecord
  2
DASHED
 70
     0
  3
__ __ __ __ __ __ __ __ __ __ __ __ __ __ __ __
 72
    65
 73
     2
 40
19.05
 49
12.7
 74
     0
 49
-6.349999999999998
 74
     0
  0
ENDTAB
  0
TABLE
  2
LAYER
  5
2
330
0
100
AcDbSymbolTable
 70
    12
  0
LAYER
  5
10
330
2
100
AcDbSymbolTableRecord
100
AcDbLayerTableRecord
  2
0
 70
     0
 62
     7
  6
CONTINUOUS
  0
LAYER
  5
263
330
2
100
AcDbSymbolTableRecord
100
AcDbLayerTableRecord
  2
DEFPOINTS
 70
     0
 62
     7
  6
CONTINUOUS
  0
LAYER
  5
1E30
330
2
100
AcDbSymbolTableRecord
100
AcDbLayerTableRecord
  2
1
 70
     0
 62
     4
  6
CONTINUOUS
  0
LAYER
  5
1E31
330
2
100
AcDbSymbolTableRecord
100
AcDbLayerTableRecord
  2
2
 70
     0
 62
     7
  6
CONTINUOUS
  0
LAYER
  5
1E32
330
2
100
AcDbSymbolTableRecord
100
AcDbLayerTableRecord
  2
4
 70
     0
 62
     2
  6
CENTER
  0
LAYER
  5
1E33
330
2
100
AcDbSymbolTableRecord
100
AcDbLayerTableRecord
  2
6
 70
     0
 62
     5
  6
CONTINUOUS
  0
LAYER
  5
1E34
330
2
100
AcDbSymbolTableRecord
100
AcDbLayerTableRecord
  2
SK1
 70
     0
 62
     4
  6
CONTINUOUS
  0
LAYER
  5
1E35
330
2
100
AcDbSymbolTableRecord
100
AcDbLayerTableRecord
  2
SK2
 70
     0
 62
     7
  6
CONTINUOUS
  0
LAYER
  5
1E36
330
2
100
AcDbSymbolTableRecord
100
AcDbLayerTableRecord
  2
SK3
 70
     0
 62
     1
  6
DASHED
  0
LAYER
  5
1E38
330
2
100
AcDbSymbolTableRecord
100
AcDbLayerTableRecord
  2
NOCUT
 70
     0
 62
     7
  6
CONTINUOUS
  0
LAYER
  5
2E80
330
2
100
AcDbSymbolTableRecord
100
AcDbLayerTableRecord
  2
SK4
 70
     0
 62
     2
  6
CENTER
  0
ENDTAB
  0
TABLE
  2
STYLE
  5
3
330
0
100
AcDbSymbolTable
 70
     6
  0
STYLE
  5
11
330
3
100
AcDbSymbolTableRecord
100
AcDbTextStyleTableRecord
  2
STANDARD
 70
     0
 40
0.0
 41
1.0
 50
0.0
 71
     0
 42
2.5
  3
ISOCP.SHX
  4

  0
STYLE
  5
54
330
3
100
AcDbSymbolTableRecord
100
AcDbTextStyleTableRecord
  2

 70
     1
 40
0.0
 41
1.0
 50
0.0
 71
     0
 42
2.5
  3
ltypeshp.shx
  4

  0
STYLE
  5
5B
330
3
100
AcDbSymbolTableRecord
100
AcDbTextStyleTableRecord
  2
ACDINTS
 70
     0
 40
1.0
 41
1.0
 50
0.0
 71
     0
 42
2.5
  3
isocp.shx
  4

  0
STYLE
  5
67
330
3
100
AcDbSymbolTableRecord
100
AcDbTextStyleTableRecord
  2
ACDINGDT
 70
     0
 40
0.0
 41
1.0
 50
0.0
 71
     0
 42
2.5
  3
amgdt.shx
  4

  0
STYLE
  5
1E39
330
3
100
AcDbSymbolTableRecord
100
AcDbTextStyleTableRecord
  2
ACANSTS
 70
     0
 40
1.0
 41
1.0
 50
0.0
 71
     0
 42
0.2
  3
romans.shx
  4

  0
STYLE
  5
1E3A
330
3
100
AcDbSymbolTableRecord
100
AcDbTextStyleTableRecord
  2
ACANSGDT
 70
     0
 40
0.0
 41
1.0
 50
0.0
 71
     0
 42
0.2
  3
amgdtans.shx
  4

  0
ENDTAB
  0
TABLE
  2
VIEW
  5
6
330
0
100
AcDbSymbolTable
 70
     0
  0
ENDTAB
  0
TABLE
  2
UCS
  5
7
330
0
100
AcDbSymbolTable
 70
     0
  0
ENDTAB
  0
TABLE
  2
APPID
  5
9
330
0
100
AcDbSymbolTable
 70
    67
  0
APPID
  5
12
330
9
100
AcDbSymbolTableRecord
100
AcDbRegAppTableRecord
  2
ACAD
 70
     0
  0
APPID
  5
2C
330
9
100
AcDbSymbolTableRecord
100
AcDbRegAppTableRecord
  2
MCAD_NO_VIS
 70
     0
  0
APPID
  5
2D
330
9
100
AcDbSymbolTableRecord
100
AcDbRegAppTableRecord
  2
ACAD_TEMP_GRAPHIC
 70
     0
  0
APPID
  5
3E
330
9
100
AcDbSymbolTableRecord
100
AcDbRegAppTableRecord
  2
ACATTRIBSERVICES
 70
     0
  0
APPID
  5
29A
330
9
100
AcDbSymbolTableRecord
100
AcDbRegAppTableRecord
  2
GENIUS_GENDIMSH_14
 70
     0
  0
APPID
  5
588
330
9
100
AcDbSymbolTableRecord
100
AcDbRegAppTableRecord
  2
GENIUS12
 70
     0
  0
APPID
  5
589
330
9
100
AcDbSymbolTableRecord
100
AcDbRegAppTableRecord
  2
GENIUS_GENOENT_13
 70
     0
  0
APPID
  5
58A
330
9
100
AcDbSymbolTableRecord
100
AcDbRegAppTableRecord
  2
GENIUS_GENODEF_13
 70
     0
  0
APPID
  5
58B
330
9
100
AcDbSymbolTableRecord
100
AcDbRegAppTableRecord
  2
GENIUS_GENOBJ-N-RSBK_13
 70
     0
  0
APPID
  5
58C
330
9
100
AcDbSymbolTableRecord
100
AcDbRegAppTableRecord
  2
GENIUS_GENOBJ-N-DIM12_13
 70
     0
  0
APPID
  5
58D
330
9
100
AcDbSymbolTableRecord
100
AcDbRegAppTableRecord
  2
GENIUS_GENSCALE_13
 70
     0
  0
APPID
  5
58E
330
9
100
AcDbSymbolTableRecord
100
AcDbRegAppTableRecord
  2
GENIUS_GENCFG_13
 70
     0
  0
APPID
  5
58F
330
9
100
AcDbSymbolTableRecord
100
AcDbRegAppTableRecord
  2
GENIUS_GENCFG0_13
 70
     0
  0
APPID
  5
590
330
9
100
AcDbSymbolTableRecord
100
AcDbRegAppTableRecord
  2
GENIUS_GENCFG1_13
 70
     0
  0
APPID
  5
591
330
9
100
AcDbSymbolTableRecord
100
AcDbRegAppTableRecord
  2
GENIUS_GENCFG2_13
 70
     0
  0
APPID
  5
592
330
9
100
AcDbSymbolTableRecord
100
AcDbRegAppTableRecord
  2
GENIUS_GENCFG3_13
 70
     0
  0
APPID
  5
593
330
9
100
AcDbSymbolTableRecord
100
AcDbRegAppTableRecord
  2
GENIUS_GENCFG4_13
 70
     0
  0
APPID
  5
594
330
9
100
AcDbSymbolTableRecord
100
AcDbRegAppTableRecord
  2
GENIUS_GEVCFG0_13
 70
     0
  0
APPID
  5
595
330
9
100
AcDbSymbolTableRecord
100
AcDbRegAppTableRecord
  2
GENIUS_GENOBJ-F-SUF_13
 70
     0
  0
APPID
  5
596
330
9
100
AcDbSymbolTableRecord
100
AcDbRegAppTableRecord
  2
GENIUS_GEFCFG0_13
 70
     0
  0
APPID
  5
597
330
9
100
AcDbSymbolTableRecord
100
AcDbRegAppTableRecord
  2
GEV_VCCNULL_SWITCH_OFF
 70
     0
  0
APPID
  5
598
330
9
100
AcDbSymbolTableRecord
100
AcDbRegAppTableRecord
  2
GENIUS_GENDTOL_13
 70
     0
  0
APPID
  5
599
330
9
100
AcDbSymbolTableRecord
100
AcDbRegAppTableRecord
  2
GENIUS_GENDIM_13
 70
     0
  0
APPID
  5
59A
330
9
100
AcDbSymbolTableRecord
100
AcDbRegAppTableRecord
  2
GENIUS_GE3DTOL_13
 70
     0
  0
APPID
  5
59B
330
9
100
AcDbSymbolTableRecord
100
AcDbRegAppTableRecord
  2
AD_DRAW
 70
     0
  0
APPID
  5
59C
330
9
100
AcDbSymbolTableRecord
100
AcDbRegAppTableRecord
  2
ASURF_PCURVE_APPNAME
 70
     0
  0
APPID
  5
59D
330
9
100
AcDbSymbolTableRecord
100
AcDbRegAppTableRecord
  2
AMG_3D2D_5_0
 70
     0
  0
APPID
  5
59E
330
9
100
AcDbSymbolTableRecord
100
AcDbRegAppTableRecord
  2
DESIGNERASSEMBLIES
 70
     0
  0
APPID
  5
59F
330
9
100
AcDbSymbolTableRecord
100
AcDbRegAppTableRecord
  2
ACADM_DIM_EDIT
 70
     0
  0
APPID
  5
5A0
330
9
100
AcDbSymbolTableRecord
100
AcDbRegAppTableRecord
  2
AMDT_DM_ADJ
 70
     0
  0
APPID
  5
5A1
330
9
100
AcDbSymbolTableRecord
100
AcDbRegAppTableRecord
  2
GENIUS_GENSCREG_15
 70
     0
  0
APPID
  5
5A2
330
9
100
AcDbSymbolTableRecord
100
AcDbRegAppTableRecord
  2
GENIUS_GENOBJ-N-SDF_13
 70
     0
  0
APPID
  5
6E4
330
9
100
AcDbSymbolTableRecord
100
AcDbRegAppTableRecord
  2
GENIUS_GENOBJ-N-FIL_13
 70
     0
  0
APPID
  5
C65
330
9
100
AcDbSymbolTableRecord
100
AcDbRegAppTableRecord
  2
GENIUS_GENHINW_13
 70
     0
  0
APPID
  5
C66
330
9
100
AcDbSymbolTableRecord
100
AcDbRegAppTableRecord
  2
GENIUS_GENOBJ-F-TOLL_13
 70
     0
  0
APPID
  5
C67
330
9
100
AcDbSymbolTableRecord
100
AcDbRegAppTableRecord
  2
GENIUS_GENOREF_13
 70
     0
  0
APPID
  5
C68
330
9
100
AcDbSymbolTableRecord
100
AcDbRegAppTableRecord
  2
GENIUS_GENOLIS_13
 70
     0
  0
APPID
  5
C69
330
9
100
AcDbSymbolTableRecord
100
AcDbRegAppTableRecord
  2
GENIUS_GEFTOLC_13
 70
     0
  0
APPID
  5
C6A
330
9
100
AcDbSymbolTableRecord
100
AcDbRegAppTableRecord
  2
GENIUS_GENOBJ-F-TOL_13
 70
     0
  0
APPID
  5
C6B
330
9
100
AcDbSymbolTableRecord
100
AcDbRegAppTableRecord
  2
GENIUS_GENOBJ-N-RSSYM_13
 70
     0
  0
APPID
  5
C6C
330
9
100
AcDbSymbolTableRecord
100
AcDbRegAppTableRecord
  2
GENIUS_GENSYMENT_13
 70
     0
  0
APPID
  5
C6D
330
9
100
AcDbSymbolTableRecord
100
AcDbRegAppTableRecord
  2
GENIUS_GENSCSYM_13
 70
     0
  0
APPID
  5
1E42
330
9
100
AcDbSymbolTableRecord
100
AcDbRegAppTableRecord
  2
GENIUS_GENBLLY_14
 70
     0
  0
APPID
  5
1E43
330
9
100
AcDbSymbolTableRecord
100
AcDbRegAppTableRecord
  2
GENIUS_GENTRA_14
 70
     0
  0
APPID
  5
1E44
330
9
100
AcDbSymbolTableRecord
100
AcDbRegAppTableRecord
  2
GENIUS_GENOBJ-N-TIT_13
 70
     0
  0
APPID
  5
1E45
330
9
100
AcDbSymbolTableRecord
100
AcDbRegAppTableRecord
  2
GENIUS_GENTITLE_13
 70
     0
  0
APPID
  5
1E46
330
9
100
AcDbSymbolTableRecord
100
AcDbRegAppTableRecord
  2
ACADIGES
 70
     0
  0
APPID
  5
1E47
330
9
100
AcDbSymbolTableRecord
100
AcDbRegAppTableRecord
  2
GENIUS_GENOBJ-N-HTC_13
 70
     0
  0
APPID
  5
1E48
330
9
100
AcDbSymbolTableRecord
100
AcDbRegAppTableRecord
  2
GENIUS_GENHATCH_13
 70
     0
  0
APPID
  5
1E49
330
9
100
AcDbSymbolTableRecord
100
AcDbRegAppTableRecord
  2
GENIUS_GENOBJ-N-CRS_13
 70
     0
  0
APPID
  5
1E4A
330
9
100
AcDbSymbolTableRecord
100
AcDbRegAppTableRecord
  2
GENIUS_GENFIL_13
 70
     0
  0
APPID
  5
1E4B
330
9
100
AcDbSymbolTableRecord
100
AcDbRegAppTableRecord
  2
GENIUS_GENOBJ-N-CHA_13
 70
     0
  0
APPID
  5
1E4C
330
9
100
AcDbSymbolTableRecord
100
AcDbRegAppTableRecord
  2
GENIUS_GENOBJ-N-CEN_13
 70
     0
  0
APPID
  5
28E0
330
9
100
AcDbSymbolTableRecord
100
AcDbRegAppTableRecord
  2
AD_SKETCHDIM
 70
     0
  0
APPID
  5
2B2E
330
9
100
AcDbSymbolTableRecord
100
AcDbRegAppTableRecord
  2
GENIUS_FIRSTVISTXT_14
 70
     0
  0
APPID
  5
2B2F
330
9
100
AcDbSymbolTableRecord
100
AcDbRegAppTableRecord
  2
GENIUS_SECONDVISTXT_14
 70
     0
  0
APPID
  5
2B30
330
9
100
AcDbSymbolTableRecord
100
AcDbRegAppTableRecord
  2
GENIUS_GENOBJ-N-HINW_13
 70
     0
  0
APPID
  5
2B31
330
9
100
AcDbSymbolTableRecord
100
AcDbRegAppTableRecord
  2
GENIUS_GENOBJ-N-PAL_13
 70
     0
  0
APPID
  5
2B32
330
9
100
AcDbSymbolTableRecord
100
AcDbRegAppTableRecord
  2
GENIUS_GENPAL_13
 70
     0
  0
APPID
  5
2B33
330
9
100
AcDbSymbolTableRecord
100
AcDbRegAppTableRecord
  2
GENIUS_GENSCREG_13
 70
     0
  0
APPID
  5
2B34
330
9
100
AcDbSymbolTableRecord
100
AcDbRegAppTableRecord
  2
GENIUS_GE3CFG0_13
 70
     0
  0
APPID
  5
2B35
330
9
100
AcDbSymbolTableRecord
100
AcDbRegAppTableRecord
  2
GENIUS_GENOBJ-F-EDG_13
 70
     0
  0
APPID
  5
2B36
330
9
100
AcDbSymbolTableRecord
100
AcDbRegAppTableRecord
  2
GENIUS_GENOBJ-F-TOLT_13
 70
     0
  0
APPID
  5
2B37
330
9
100
AcDbSymbolTableRecord
100
AcDbRegAppTableRecord
  2
GENIUS_GENZVEED_13
 70
     0
  0
APPID
  5
2B38
330
9
100
AcDbSymbolTableRecord
100
AcDbRegAppTableRecord
  2
GENIUS_GENREC_14
 70
     0
  0
APPID
  5
2B39
330
9
100
AcDbSymbolTableRecord
100
AcDbRegAppTableRecord
  2
GENIUS_GENOBJ-N-REC_13
 70
     0
  0
APPID
  5
2B3A
330
9
100
AcDbSymbolTableRecord
100
AcDbRegAppTableRecord
  2
GENIUS_DUMCFG0_13
 70
     0
  0
ENDTAB
  0
TABLE
  2
DIMSTYLE
  5
A
330
0
100
AcDbSymbolTable
 70
    14
  0
DIMSTYLE
105
6F
102
{ACAD_REACTORS
330
41E4
330
4215
330
4258
330
42CC
330
4324
330
442B
102
}
330
A
100
AcDbSymbolTableRecord
100
AcDbDimStyleTableRecord
  2
AM_DIN
 70
     0
  3

  4
"
  5

  6

  7

 40
1.0
 41
2.5
 42
0.0
 43
10.0
 44
1.0
 45
0.0
 46
0.0
 47
0.1
 48
0.1
140
3.5
141
0.0
142
0.0
143
0.0393701
144
1.0
145
0.0
146
0.71
147
1.5
 71
     0
 72
     0
 73
     0
 74
     0
 75
     0
 76
     0
 77
     1
 78
     8
170
     0
171
     2
172
     1
173
     0
174
     0
175
     0
176
   256
177
   256
178
     2
270
     2
271
     2
272
     2
273
     2
274
     2
340
11
275
     0
280
     0
281
     0
282
     0
283
     0
284
     8
285
     0
286
     0
287
     3
288
     0
  0
DIMSTYLE
105
70
330
A
100
AcDbSymbolTableRecord
100
AcDbDimStyleTableRecord
  2
AM_DIN$3
 70
     0
  3

  4
"
  5

  6

  7

 40
1.0
 41
3.5
 42
0.0
 43
10.0
 44
1.0
 45
0.0
 46
0.0
 47
0.1
 48
0.1
140
3.5
141
0.0
142
0.0
143
0.0393701
144
1.0
145
0.0
146
0.71
147
1.5
 71
     0
 72
     0
 73
     0
 74
     1
 75
     0
 76
     0
 77
     1
 78
     8
170
     0
171
     2
172
     0
173
     0
174
     0
175
     0
176
   256
177
   256
178
     2
270
     2
271
     2
272
     2
273
     2
274
     2
340
11
275
     0
280
     0
281
     0
282
     0
283
     0
284
     8
285
     0
286
     0
287
     0
288
     1
  0
DIMSTYLE
105
71
330
A
100
AcDbSymbolTableRecord
100
AcDbDimStyleTableRecord
  2
AM_DIN$4
 70
     0
  3

  4
"
  5

  6

  7

 40
1.0
 41
3.5
 42
0.0
 43
10.0
 44
1.0
 45
0.0
 46
0.0
 47
0.1
 48
0.1
140
3.5
141
0.0
142
0.0
143
0.0393701
144
1.0
145
0.0
146
0.71
147
1.5
 71
     0
 72
     0
 73
     0
 74
     1
 75
     0
 76
     0
 77
     1
 78
     8
170
     0
171
     2
172
     0
173
     0
174
     0
175
     0
176
   256
177
   256
178
     2
270
     2
271
     2
272
     2
273
     2
274
     2
340
11
275
     0
280
     0
281
     0
282
     0
283
     0
284
     8
285
     0
286
     0
287
     0
288
     1
  0
DIMSTYLE
105
72
330
A
100
AcDbSymbolTableRecord
100
AcDbDimStyleTableRecord
  2
AM_DIN$6
 70
     0
  3

  4
"
  5

  6

  7

 40
1.0
 41
3.5
 42
0.0
 43
0.0
 44
1.0
 45
0.0
 46
0.0
 47
0.1
 48
0.1
140
3.5
141
0.0
142
0.0
143
0.0393701
144
1.0
145
0.0
146
0.71
147
1.5
 71
     0
 72
     0
 73
     0
 74
     0
 75
     0
 76
     0
 77
     0
 78
     8
170
     0
171
     2
172
     1
173
     0
174
     0
175
     0
176
   256
177
   256
178
     2
270
     2
271
     2
272
     2
273
     2
274
     2
340
11
275
     0
280
     0
281
     0
282
     0
283
     0
284
     8
285
     0
286
     0
287
     3
288
     0
  0
DIMSTYLE
105
73
330
A
100
AcDbSymbolTableRecord
100
AcDbDimStyleTableRecord
  2
AM_DIN$7
 70
     0
  3

  4
"
  5

  6

  7

 40
1.0
 41
3.5
 42
0.0
 43
10.0
 44
1.0
 45
0.0
 46
0.0
 47
0.1
 48
0.1
140
3.5
141
0.0
142
0.0
143
0.0393701
144
1.0
145
0.0
146
0.71
147
1.5
 71
     0
 72
     0
 73
     0
 74
     0
 75
     0
 76
     0
 77
     1
 78
     8
170
     0
171
     2
172
     1
173
     0
174
     0
175
     0
176
   256
177
   256
178
     2
270
     2
271
     2
272
     2
273
     2
274
     2
340
11
275
     0
280
     0
281
     0
282
     0
283
     0
284
     8
285
     0
286
     0
287
     3
288
     0
  0
DIMSTYLE
105
74
330
A
100
AcDbSymbolTableRecord
100
AcDbDimStyleTableRecord
  2
AM_DIN$SF
 70
     0
  3

  4
"
  5

  6

  7

 40
1.0
 41
2.5
 42
1.0
 43
10.0
 44
1.0
 45
0.0
 46
0.0
 47
0.1
 48
0.1
140
3.5
141
0.0
142
0.0
143
0.0393701
144
1.0
145
0.0
146
0.71
147
1.5
 71
     0
 72
     0
 73
     0
 74
     0
 75
     1
 76
     1
 77
     1
 78
     8
170
     0
171
     2
172
     1
173
     0
174
     0
175
     0
176
   256
177
   256
178
     2
270
     2
271
     2
272
     3
273
     2
274
     4
340
11
275
     0
280
     0
281
     0
282
     0
283
     0
284
     8
285
     0
286
     0
287
     3
288
     0
  0
DIMSTYLE
105
79
330
A
100
AcDbSymbolTableRecord
100
AcDbDimStyleTableRecord
  2
AM_DIN$SH
 70
     0
  3

  4
"
  5

  6
GENAXEH
  7

 40
1.0
 41
2.5
 42
1.0
 43
10.0
 44
1.0
 45
0.0
 46
0.0
 47
0.1
 48
0.1
140
3.5
141
0.0
142
0.0
143
0.0393701
144
2.0
145
0.0
146
0.71
147
1.5
 71
     0
 72
     0
 73
     0
 74
     0
 75
     1
 76
     1
 77
     1
 78
     8
170
     0
171
     2
172
     1
173
     1
174
     0
175
     0
176
   256
177
   256
178
     2
270
     2
271
     2
272
     3
273
     2
274
     4
340
11
275
     0
280
     0
281
     0
282
     0
283
     0
284
     8
285
     0
286
     0
287
     3
288
     0
  0
DIMSTYLE
105
1E3B
330
A
100
AcDbSymbolTableRecord
100
AcDbDimStyleTableRecord
  2
STANDARD
 70
     0
  3

  4

  5

  6

  7

 40
1.0
 41
0.18
 42
0.0625
 43
0.38
 44
0.18
 45
0.0
 46
0.0
 47
0.0
 48
0.0
140
0.18
141
0.09
142
0.0
143
25.4
144
1.0
145
0.0
146
1.0
147
0.09
 71
     0
 72
     0
 73
     1
 74
     1
 75
     0
 76
     0
 77
     0
 78
     0
170
     0
171
     2
172
     0
173
     0
174
     0
175
     0
176
     0
177
     0
178
     0
270
     2
271
     2
272
     2
273
     2
274
     2
340
11
275
     0
280
     0
281
     0
282
     0
283
     1
284
     8
285
     8
286
     8
287
     5
288
     0
  0
DIMSTYLE
105
1E3C
330
A
100
AcDbSymbolTableRecord
100
AcDbDimStyleTableRecord
  2
AM_ANSI
 70
     0
  3

  4
mm
  5

  6

  7

 40
1.0
 41
0.1
 42
0.0
 43
0.5
 44
0.1
 45
0.0
 46
0.0
 47
0.1
 48
0.1
140
0.12
141
0.0
142
0.0
143
25.4
144
1.0
145
0.0
146
0.71
147
0.06
 71
     0
 72
     0
 73
     1
 74
     1
 75
     0
 76
     0
 77
     0
 78
     7
170
     0
171
     2
172
     0
173
     0
174
     0
175
     0
176
   256
177
   256
178
     2
270
     2
271
     2
272
     2
273
     2
274
     2
340
11
275
     0
280
     0
281
     0
282
     0
283
     1
284
     8
285
     8
286
     8
287
     5
288
     0
  0
DIMSTYLE
105
1E3D
330
A
100
AcDbSymbolTableRecord
100
AcDbDimStyleTableRecord
  2
AM_ANSI$3
 70
     0
  3

  4
mm
  5

  6

  7

 40
1.0
 41
0.1
 42
0.0
 43
0.5
 44
0.1
 45
0.0
 46
0.0
 47
0.1
 48
0.1
140
0.12
141
0.0
142
0.0
143
25.4
144
1.0
145
0.0
146
0.71
147
0.06
 71
     0
 72
     0
 73
     1
 74
     1
 75
     0
 76
     0
 77
     0
 78
     7
170
     0
171
     2
172
     0
173
     0
174
     0
175
     0
176
   256
177
   256
178
     2
270
     2
271
     2
272
     2
273
     2
274
     2
340
11
275
     0
280
     0
281
     0
282
     0
283
     1
284
     8
285
     8
286
     8
287
     5
288
     0
  0
DIMSTYLE
105
1E3E
330
A
100
AcDbSymbolTableRecord
100
AcDbDimStyleTableRecord
  2
AM_ANSI$4
 70
     0
  3

  4
mm
  5

  6

  7

 40
1.0
 41
0.1
 42
0.0
 43
0.5
 44
0.1
 45
0.0
 46
0.0
 47
0.1
 48
0.1
140
0.12
141
0.0
142
0.0
143
25.4
144
1.0
145
0.0
146
0.71
147
0.06
 71
     0
 72
     0
 73
     1
 74
     1
 75
     0
 76
     0
 77
     0
 78
     7
170
     0
171
     2
172
     0
173
     0
174
     0
175
     0
176
   256
177
   256
178
     2
270
     2
271
     2
272
     2
273
     2
274
     2
340
11
275
     0
280
     0
281
     0
282
     0
283
     1
284
     8
285
     8
286
     8
287
     5
288
     0
  0
DIMSTYLE
105
1E3F
330
A
100
AcDbSymbolTableRecord
100
AcDbDimStyleTableRecord
  2
AM_ANSI$7
 70
     0
  3

  4
mm
  5

  6

  7

 40
1.0
 41
0.1
 42
0.0
 43
0.5
 44
0.1
 45
0.0
 46
0.0
 47
0.1
 48
0.1
140
0.24
141
0.0
142
0.0
143
25.4
144
1.0
145
0.0
146
0.71
147
0.06
 71
     0
 72
     0
 73
     1
 74
     1
 75
     0
 76
     0
 77
     0
 78
     7
170
     0
171
     2
172
     0
173
     0
174
     0
175
     0
176
   256
177
   256
178
     2
270
     2
271
     2
272
     2
273
     2
274
     2
340
11
275
     0
280
     0
281
     0
282
     0
283
     1
284
     8
285
     8
286
     8
287
     5
288
     0
  0
DIMSTYLE
105
1E40
330
A
100
AcDbSymbolTableRecord
100
AcDbDimStyleTableRecord
  2
AM_ANSI$SF
 70
     0
  3

  4
mm
  5

  6

  7

 40
1.0
 41
0.1
 42
0.05
 43
0.5
 44
0.1
 45
0.0
 46
0.0
 47
0.1
 48
0.1
140
0.12
141
0.0
142
0.0
143
25.4
144
1.0
145
0.0
146
0.71
147
0.06
 71
     0
 72
     0
 73
     1
 74
     1
 75
     1
 76
     1
 77
     0
 78
     7
170
     0
171
     2
172
     0
173
     0
174
     0
175
     0
176
   256
177
   256
178
     2
270
     2
271
     2
272
     2
273
     2
274
     2
340
11
275
     0
280
     0
281
     0
282
     0
283
     1
284
     8
285
     8
286
     8
287
     5
288
     0
  0
DIMSTYLE
105
1E41
330
A
100
AcDbSymbolTableRecord
100
AcDbDimStyleTableRecord
  2
AM_ANSI$SH
 70
     0
  3

  4
mm
  5

  6

  7

 40
1.0
 41
0.1
 42
0.05
 43
0.5
 44
0.1
 45
0.0
 46
0.0
 47
0.1
 48
0.1
140
0.12
141
0.0
142
0.0
143
25.4
144
1.0
145
0.0
146
0.71
147
0.06
 71
     0
 72
     0
 73
     1
 74
     1
 75
     1
 76
     1
 77
     0
 78
     7
170
     0
171
     2
172
     0
173
     1
174
     0
175
     0
176
   256
177
   256
178
     2
270
     2
271
     2
272
     2
273
     2
274
     2
340
11
275
     0
280
     0
281
     0
282
     0
283
     1
284
     8
285
     8
286
     8
287
     5
288
     0
  0
ENDTAB
  0
TABLE
  2
BLOCK_RECORD
  5
1
330
0
100
AcDbSymbolTable
 70
     8
  0
BLOCK_RECORD
  5
1F
102
{ACAD_XDICTIONARY
360
1F1
102
}
330
1
100
AcDbSymbolTableRecord
100
AcDbBlockTableRecord
  2
*MODEL_SPACE
  0
BLOCK_RECORD
  5
1B
102
{ACAD_XDICTIONARY
360
4480
102
}
330
1
100
AcDbSymbolTableRecord
100
AcDbBlockTableRecord
  2
*PAPER_SPACE
  0
BLOCK_RECORD
  5
75
330
1
100
AcDbSymbolTableRecord
100
AcDbBlockTableRecord
  2
GENAXEH
  0
BLOCK_RECORD
  5
41E5
330
1
100
AcDbSymbolTableRecord
100
AcDbBlockTableRecord
  2
*D2
  0
BLOCK_RECORD
  5
4216
330
1
100
AcDbSymbolTableRecord
100
AcDbBlockTableRecord
  2
*D3
  0
BLOCK_RECORD
  5
4259
330
1
100
AcDbSymbolTableRecord
100
AcDbBlockTableRecord
  2
*D4
  0
BLOCK_RECORD
  5
42CD
330
1
100
AcDbSymbolTableRecord
100
AcDbBlockTableRecord
  2
*D5
  0
BLOCK_RECORD
  5
4325
330
1
100
AcDbSymbolTableRecord
100
AcDbBlockTableRecord
  2
*D6
  0
BLOCK_RECORD
  5
442C
330
1
100
AcDbSymbolTableRecord
100
AcDbBlockTableRecord
  2
*D7
  0
ENDTAB
  0
ENDSEC
  0
SECTION
  2
BLOCKS
  0
BLOCK
  5
20
330
1F
100
AcDbEntity
  8
0
100
AcDbBlockBegin
  2
*MODEL_SPACE
 70
     0
 10
0.0
 20
0.0
 30
0.0
  3
*MODEL_SPACE
  1

  0
ENDBLK
  5
21
330
1F
100
AcDbEntity
  8
0
100
AcDbBlockEnd
  0
BLOCK
  5
1C
330
1B
100
AcDbEntity
 67
     1
  8
0
100
AcDbBlockBegin
  2
*PAPER_SPACE
 70
     0
 10
0.0
 20
0.0
 30
0.0
  3
*PAPER_SPACE
  1

  0
ENDBLK
  5
1D
330
1B
100
AcDbEntity
 67
     1
  8
0
100
AcDbBlockEnd
  0
BLOCK
  5
77
330
75
100
AcDbEntity
  8
0
100
AcDbBlockBegin
  2
GENAXEH
 70
     0
 10
0.0
 20
0.0
 30
0.0
  3
GENAXEH
  1

  0
LINE
  5
76
330
75
100
AcDbEntity
  8
0
100
AcDbLine
 10
-1.0
 20
0.0
 30
0.0
 11
1.0
 21
0.0
 31
0.0
  0
ENDBLK
  5
78
330
75
100
AcDbEntity
  8
0
100
AcDbBlockEnd
  0
BLOCK
  5
41EF
330
41E5
100
AcDbEntity
  8
0
100
AcDbBlockBegin
  2
*D2
 70
     1
 10
0.0
 20
0.0
 30
0.0
  3
*D2
  1

  0
LINE
  5
43EE
330
41E5
100
AcDbEntity
  8
SK2
100
AcDbLine
 10
-0.0000000000005116
 20
30.00000000000443
 30
0.0
 11
-19.0533164254466
 21
30.00000000000444
 31
0.0
  0
LINE
  5
43EF
330
41E5
100
AcDbEntity
  8
SK2
100
AcDbLine
 10
-0.0000000000009095
 20
-30.00000000000443
 30
0.0
 11
-19.05331642544661
 21
-30.00000000000443
 31
0.0
  0
LINE
  5
43F0
330
41E5
100
AcDbEntity
  8
SK2
100
AcDbLine
 10
-18.0533164254466
 20
27.50000000000444
 30
0.0
 11
-18.05331642544661
 21
-27.50000000000443
 31
0.0
  0
SOLID
  5
43F1
330
41E5
100
AcDbEntity
  8
SK2
100
AcDbTrace
 10
-18.46998309211327
 20
27.50000000000444
 30
0.0
 11
-17.63664975877993
 21
27.50000000000444
 31
0.0
 12
-18.0533164254466
 22
30.00000000000444
 32
0.0
 13
-18.0533164254466
 23
30.00000000000444
 33
0.0
  0
SOLID
  5
43F2
330
41E5
100
AcDbEntity
  8
SK2
100
AcDbTrace
 10
-18.46998309211328
 20
-27.50000000000443
 30
0.0
 11
-17.63664975877994
 21
-27.50000000000443
 31
0.0
 12
-18.05331642544661
 22
-30.00000000000443
 32
0.0
 13
-18.05331642544661
 23
-30.00000000000443
 33
0.0
  0
MTEXT
  5
43F3
330
41E5
100
AcDbEntity
  8
SK2
 62
     2
100
AcDbMText
 10
-21.30331642544661
 20
1.389058003372497
 30
0.0
 40
3.5
 41
0.0
 71
     5
 72
     1
  1
%%c60
 11
0.0000000000000001
 21
1.0
 31
0.0
1001
ACAD
1000
MTEXTBEGIN
1070
    73
1070
     1
1070
    44
1040
1.0
1070
    74
1070
     0
1000
MTEXTEND
  0
POINT
  5
43F4
330
41E5
100
AcDbEntity
  8
DEFPOINTS
 62
     0
100
AcDbPoint
 10
-0.0000000000005116
 20
30.00000000000443
 30
0.0
  0
POINT
  5
43F5
330
41E5
100
AcDbEntity
  8
DEFPOINTS
 62
     0
100
AcDbPoint
 10
-0.0000000000009095
 20
-30.00000000000443
 30
0.0
  0
POINT
  5
43F6
330
41E5
100
AcDbEntity
  8
DEFPOINTS
 62
     0
100
AcDbPoint
 10
-18.05331642544661
 20
-30.00000000000443
 30
0.0
  0
ENDBLK
  5
41F0
330
41E5
100
AcDbEntity
  8
0
100
AcDbBlockEnd
  0
BLOCK
  5
4220
330
4216
100
AcDbEntity
  8
0
100
AcDbBlockBegin
  2
*D3
 70
     1
 10
0.0
 20
0.0
 30
0.0
  3
*D3
  1

  0
LINE
  5
4400
330
4216
100
AcDbEntity
  8
SK2
100
AcDbLine
 10
-3.07587621530979
 20
50.80000000000001
 30
0.0
 11
-34.62123559847985
 21
50.80000000000001
 31
0.0
  0
LINE
  5
4401
330
4216
100
AcDbEntity
  8
SK2
100
AcDbLine
 10
-3.075876215309961
 20
-50.79999999999995
 30
0.0
 11
-34.62123559847988
 21
-50.79999999999994
 31
0.0
  0
LINE
  5
4402
330
4216
100
AcDbEntity
  8
SK2
100
AcDbLine
 10
-33.62123559847985
 20
48.30000000000001
 30
0.0
 11
-33.62123559847988
 21
-48.29999999999994
 31
0.0
  0
SOLID
  5
4403
330
4216
100
AcDbEntity
  8
SK2
100
AcDbTrace
 10
-34.03790226514652
 20
48.30000000000001
 30
0.0
 11
-33.20456893181319
 21
48.30000000000001
 31
0.0
 12
-33.62123559847985
 22
50.80000000000001
 32
0.0
 13
-33.62123559847985
 23
50.80000000000001
 33
0.0
  0
SOLID
  5
4404
330
4216
100
AcDbEntity
  8
SK2
100
AcDbTrace
 10
-34.03790226514654
 20
-48.29999999999994
 30
0.0
 11
-33.20456893181322
 21
-48.29999999999994
 31
0.0
 12
-33.62123559847988
 22
-50.79999999999994
 32
0.0
 13
-33.62123559847988
 23
-50.79999999999994
 33
0.0
  0
MTEXT
  5
4405
330
4216
100
AcDbEntity
  8
SK2
 62
     2
100
AcDbMText
 10
-36.87123559847987
 20
1.75943041577932
 30
0.0
 40
3.5
 41
0.0
 71
     5
 72
     1
  1
%%c101.6
 11
0.0000000000000001
 21
1.0
 31
0.0
1001
ACAD
1000
MTEXTBEGIN
1070
    73
1070
     1
1070
    44
1040
1.0
1070
    74
1070
     0
1000
MTEXTEND
  0
POINT
  5
4406
330
4216
100
AcDbEntity
  8
DEFPOINTS
 62
     0
100
AcDbPoint
 10
-3.07587621530979
 20
50.80000000000001
 30
0.0
  0
POINT
  5
4407
330
4216
100
AcDbEntity
  8
DEFPOINTS
 62
     0
100
AcDbPoint
 10
-3.075876215309961
 20
-50.79999999999995
 30
0.0
  0
POINT
  5
4408
330
4216
100
AcDbEntity
  8
DEFPOINTS
 62
     0
100
AcDbPoint
 10
-33.62123559847988
 20
-50.79999999999994
 30
0.0
  0
ENDBLK
  5
4221
330
4216
100
AcDbEntity
  8
0
100
AcDbBlockEnd
  0
BLOCK
  5
4263
330
4259
100
AcDbEntity
  8
0
100
AcDbBlockBegin
  2
*D4
 70
     1
 10
0.0
 20
0.0
 30
0.0
  3
*D4
  1

  0
LINE
  5
4412
330
4259
100
AcDbEntity
  8
SK2
100
AcDbLine
 10
-0.0000000000014779
 20
65.00000000000454
 30
0.0
 11
-50.55981915964434
 21
65.00000000000456
 31
0.0
  0
LINE
  5
4413
330
4259
100
AcDbEntity
  8
SK2
100
AcDbLine
 10
-0.0000000000019327
 20
-65.00000000000409
 30
0.0
 11
-50.55981915964436
 21
-65.00000000000408
 31
0.0
  0
LINE
  5
4414
330
4259
100
AcDbEntity
  8
SK2
100
AcDbLine
 10
-49.55981915964433
 20
62.50000000000456
 30
0.0
 11
-49.55981915964436
 21
-62.50000000000408
 31
0.0
  0
SOLID
  5
4415
330
4259
100
AcDbEntity
  8
SK2
100
AcDbTrace
 10
-49.976485826311
 20
62.50000000000456
 30
0.0
 11
-49.14315249297767
 21
62.50000000000456
 31
0.0
 12
-49.55981915964433
 22
65.00000000000456
 32
0.0
 13
-49.55981915964433
 23
65.00000000000456
 33
0.0
  0
SOLID
  5
4416
330
4259
100
AcDbEntity
  8
SK2
100
AcDbTrace
 10
-49.97648582631103
 20
-62.50000000000408
 30
0.0
 11
-49.1431524929777
 21
-62.50000000000408
 31
0.0
 12
-49.55981915964436
 22
-65.00000000000408
 32
0.0
 13
-49.55981915964436
 23
-65.00000000000408
 33
0.0
  0
MTEXT
  5
4417
330
4259
100
AcDbEntity
  8
SK2
 62
     2
100
AcDbMText
 10
-52.80981915964435
 20
1.018684633656335
 30
0.0
 40
3.5
 41
0.0
 71
     5
 72
     1
  1
%%c130
 11
0.0000000000000001
 21
1.0
 31
0.0
1001
ACAD
1000
MTEXTBEGIN
1070
    73
1070
     1
1070
    44
1040
1.0
1070
    74
1070
     0
1000
MTEXTEND
  0
POINT
  5
4418
330
4259
100
AcDbEntity
  8
DEFPOINTS
 62
     0
100
AcDbPoint
 10
-0.0000000000014779
 20
65.00000000000454
 30
0.0
  0
POINT
  5
4419
330
4259
100
AcDbEntity
  8
DEFPOINTS
 62
     0
100
AcDbPoint
 10
-0.0000000000019327
 20
-65.00000000000409
 30
0.0
  0
POINT
  5
441A
330
4259
100
AcDbEntity
  8
DEFPOINTS
 62
     0
100
AcDbPoint
 10
-49.55981915964436
 20
-65.00000000000408
 30
0.0
  0
ENDBLK
  5
4264
330
4259
100
AcDbEntity
  8
0
100
AcDbBlockEnd
  0
BLOCK
  5
42D7
330
42CD
100
AcDbEntity
  8
0
100
AcDbBlockBegin
  2
*D5
 70
     1
 10
0.0
 20
0.0
 30
0.0
  3
*D5
  1

  0
LINE
  5
43A4
330
42CD
100
AcDbEntity
  8
2
100
AcDbLine
 10
63.00000000000824
 20
99.9999999999987
 30
0.0
 11
109.2663101261702
 21
99.99999999999868
 31
0.0
  0
LINE
  5
43A5
330
42CD
100
AcDbEntity
  8
2
100
AcDbLine
 10
63.00000000000739
 20
-99.99999999999898
 30
0.0
 11
109.2663101261701
 21
-99.999999999999
 31
0.0
  0
LINE
  5
43A6
330
42CD
100
AcDbEntity
  8
2
100
AcDbLine
 10
108.2663101261702
 20
97.49999999999868
 30
0.0
 11
108.2663101261701
 21
-97.499999999999
 31
0.0
  0
SOLID
  5
43A7
330
42CD
100
AcDbEntity
  8
2
100
AcDbTrace
 10
107.8496434595035
 20
97.49999999999868
 30
0.0
 11
108.6829767928368
 21
97.49999999999868
 31
0.0
 12
108.2663101261702
 22
99.99999999999868
 32
0.0
 13
108.2663101261702
 23
99.99999999999868
 33
0.0
  0
SOLID
  5
43A8
330
42CD
100
AcDbEntity
  8
2
100
AcDbTrace
 10
107.8496434595034
 20
-97.499999999999
 30
0.0
 11
108.6829767928368
 21
-97.499999999999
 31
0.0
 12
108.2663101261701
 22
-99.999999999999
 32
0.0
 13
108.2663101261701
 23
-99.999999999999
 33
0.0
  0
MTEXT
  5
43A9
330
42CD
100
AcDbEntity
  8
2
 62
     2
100
AcDbMText
 10
105.0159656379811
 20
-0.0000000000001341
 30
0.0
 40
3.5
 41
0.0
 71
     5
 72
     1
  1
%%c200
 11
0.0000000000000001
 21
1.0
 31
0.0
1001
ACAD
1000
MTEXTBEGIN
1070
    73
1070
     1
1070
    44
1040
1.0
1070
    74
1070
     0
1000
MTEXTEND
  0
POINT
  5
43AA
330
42CD
100
AcDbEntity
  8
DEFPOINTS
 62
     0
100
AcDbPoint
 10
63.00000000000824
 20
99.9999999999987
 30
0.0
  0
POINT
  5
43AB
330
42CD
100
AcDbEntity
  8
DEFPOINTS
 62
     0
100
AcDbPoint
 10
63.00000000000739
 20
-99.99999999999898
 30
0.0
  0
POINT
  5
43AC
330
42CD
100
AcDbEntity
  8
DEFPOINTS
 62
     0
100
AcDbPoint
 10
108.2663101261701
 20
-99.999999999999
 30
0.0
  0
ENDBLK
  5
42D8
330
42CD
100
AcDbEntity
  8
0
100
AcDbBlockEnd
  0
BLOCK
  5
432F
330
4325
100
AcDbEntity
  8
0
100
AcDbBlockBegin
  2
*D6
 70
     1
 10
0.0
 20
0.0
 30
0.0
  3
*D6
  1

  0
LINE
  5
43D1
330
4325
100
AcDbEntity
  8
2
100
AcDbLine
 10
-0.0000000000014779
 20
65.00000000000454
 30
0.0
 11
-0.0000000000014727
 21
151.0
 31
0.0
  0
LINE
  5
43D2
330
4325
100
AcDbEntity
  8
2
100
AcDbLine
 10
63.00000000000824
 20
99.9999999999987
 30
0.0
 11
63.00000000000824
 21
151.0
 31
0.0
  0
LINE
  5
43D3
330
4325
100
AcDbEntity
  8
2
100
AcDbLine
 10
2.499999999998527
 20
150.0
 30
0.0
 11
60.50000000000824
 21
150.0
 31
0.0
  0
SOLID
  5
43D4
330
4325
100
AcDbEntity
  8
2
100
AcDbTrace
 10
2.499999999998527
 20
150.4166666666666
 30
0.0
 11
2.499999999998527
 21
149.5833333333333
 31
0.0
 12
-0.0000000000014727
 22
150.0
 32
0.0
 13
-0.0000000000014727
 23
150.0
 33
0.0
  0
SOLID
  5
43D5
330
4325
100
AcDbEntity
  8
2
100
AcDbTrace
 10
60.50000000000824
 20
150.4166666666666
 30
0.0
 11
60.50000000000824
 21
149.5833333333333
 31
0.0
 12
63.00000000000824
 22
150.0
 32
0.0
 13
63.00000000000824
 23
150.0
 33
0.0
  0
MTEXT
  5
43D6
330
4325
100
AcDbEntity
  8
2
 62
     2
100
AcDbMText
 10
31.50000000000338
 20
153.2499999999999
 30
0.0
 40
3.5
 41
0.0
 71
     5
 72
     1
  1
63
1001
ACAD
1000
MTEXTBEGIN
1070
    73
1070
     1
1070
    44
1040
1.0
1070
    74
1070
     0
1000
MTEXTEND
  0
POINT
  5
43D7
330
4325
100
AcDbEntity
  8
DEFPOINTS
 62
     0
100
AcDbPoint
 10
-0.0000000000014779
 20
65.00000000000454
 30
0.0
  0
POINT
  5
43D8
330
4325
100
AcDbEntity
  8
DEFPOINTS
 62
     0
100
AcDbPoint
 10
63.00000000000824
 20
99.9999999999987
 30
0.0
  0
POINT
  5
43D9
330
4325
100
AcDbEntity
  8
DEFPOINTS
 62
     0
100
AcDbPoint
 10
63.00000000000824
 20
150.0
 30
0.0
  0
ENDBLK
  5
4330
330
4325
100
AcDbEntity
  8
0
100
AcDbBlockEnd
  0
BLOCK
  5
4436
330
442C
100
AcDbEntity
  8
0
100
AcDbBlockBegin
  2
*D7
 70
     1
 10
0.0
 20
0.0
 30
0.0
  3
*D7
  1

  0
LINE
  5
4454
330
442C
100
AcDbEntity
  8
SK2
100
AcDbLine
 10
2.500000000005059
 20
79.00000000000443
 30
0.0
 11
-67.61039753759381
 21
79.00000000000445
 31
0.0
  0
LINE
  5
4455
330
442C
100
AcDbEntity
  8
SK2
100
AcDbLine
 10
2.500000000005059
 20
-79.00000000000443
 30
0.0
 11
-67.61039753759384
 21
-79.00000000000442
 31
0.0
  0
LINE
  5
4456
330
442C
100
AcDbEntity
  8
SK2
100
AcDbLine
 10
-66.61039753759381
 20
76.50000000000445
 30
0.0
 11
-66.61039753759384
 21
-76.50000000000442
 31
0.0
  0
SOLID
  5
4457
330
442C
100
AcDbEntity
  8
SK2
100
AcDbTrace
 10
-67.02706420426048
 20
76.50000000000445
 30
0.0
 11
-66.19373087092714
 21
76.50000000000445
 31
0.0
 12
-66.61039753759381
 22
79.00000000000445
 32
0.0
 13
-66.61039753759381
 23
79.00000000000445
 33
0.0
  0
SOLID
  5
4458
330
442C
100
AcDbEntity
  8
SK2
100
AcDbTrace
 10
-67.02706420426051
 20
-76.50000000000442
 30
0.0
 11
-66.19373087092717
 21
-76.50000000000442
 31
0.0
 12
-66.61039753759384
 22
-79.00000000000442
 32
0.0
 13
-66.61039753759384
 23
-79.00000000000442
 33
0.0
  0
MTEXT
  5
4459
330
442C
100
AcDbEntity
  8
SK2
 62
     2
100
AcDbMText
 10
-69.86039753759382
 20
0.0000000000000045
 30
0.0
 40
3.5
 41
0.0
 71
     5
 72
     1
  1
%%c158
 11
0.0000000000000001
 21
1.0
 31
0.0
1001
ACAD
1000
MTEXTBEGIN
1070
    73
1070
     1
1070
    44
1040
1.0
1070
    74
1070
     0
1000
MTEXTEND
  0
POINT
  5
445A
330
442C
100
AcDbEntity
  8
DEFPOINTS
 62
     0
100
AcDbPoint
 10
2.500000000005059
 20
79.00000000000443
 30
0.0
  0
POINT
  5
445B
330
442C
100
AcDbEntity
  8
DEFPOINTS
 62
     0
100
AcDbPoint
 10
2.500000000005059
 20
-79.00000000000443
 30
0.0
  0
POINT
  5
445C
330
442C
100
AcDbEntity
  8
DEFPOINTS
 62
     0
100
AcDbPoint
 10
-66.61039753759384
 20
-79.00000000000442
 30
0.0
  0
ENDBLK
  5
4437
330
442C
100
AcDbEntity
  8
0
100
AcDbBlockEnd
  0
ENDSEC
  0
SECTION
  2
ENTITIES
  0
LINE
  5
4105
330
1F
100
AcDbEntity
  8
1
100
AcDbLine
 10
58.000000000005
 20
86.17440977312856
 30
0.0
 11
58.000000000005
 21
-97.05000000000632
 31
0.0
  0
LINE
  5
4106
330
1F
100
AcDbEntity
  8
1
100
AcDbLine
 10
58.000000000005
 20
-97.05000000000632
 30
0.0
 11
56.7500000000042
 21
-98.30000000000721
 31
0.0
  0
LINE
  5
4109
330
1F
100
AcDbEntity
  8
1
100
AcDbLine
 10
9.799999999998703
 20
-95.44999999999186
 30
0.0
 11
9.799999999991825
 21
-12.85000000000451
 31
0.0
  0
ARC
  5
410A
330
1F
100
AcDbEntity
  8
1
100
AcDbCircle
 10
8.299999999997453
 20
-80.50000000000443
 30
0.0
 40
1.499999999999943
100
AcDbArc
 50
0.0000000000043965
 51
90.00000000000216
  0
LINE
  5
410B
330
1F
100
AcDbEntity
  8
1
100
AcDbLine
 10
8.29999999999751
 20
-79.00000000000443
 30
0.0
 11
2.500000000005059
 21
-79.00000000000443
 31
0.0
  0
ARC
  5
410C
330
1F
100
AcDbEntity
  8
1
100
AcDbCircle
 10
2.500000000004945
 20
-77.50000000000444
 30
0.0
 40
1.5
100
AcDbArc
 50
180.0
 51
270.0000000000021
  0
LINE
  5
410D
330
1F
100
AcDbEntity
  8
1
100
AcDbLine
 10
1.000000000005002
 20
-77.50000000000444
 30
0.0
 11
0.9999999999876081
 21
-12.85000000000437
 31
0.0
  0
LINE
  5
410E
330
1F
100
AcDbEntity
  8
1
100
AcDbLine
 10
1.000000000001705
 20
-66.00000000000773
 30
0.0
 11
-0.0000000000014779
 21
-65.00000000000454
 31
0.0
  0
LINE
  5
410F
330
1F
100
AcDbEntity
  8
1
100
AcDbLine
 10
-0.0000000000014779
 20
-65.00000000000454
 30
0.0
 11
0.0
 21
-12.8500000000044
 31
0.0
  0
LINE
  5
4110
330
1F
100
AcDbEntity
  8
SK1
100
AcDbLine
 10
0.0
 20
-12.8500000000044
 30
0.0
 11
13.99999999999875
 21
-12.85000000000457
 31
0.0
  0
LINE
  5
4111
330
1F
100
AcDbEntity
  8
SK1
100
AcDbLine
 10
13.99999999999875
 20
-12.85000000000457
 30
0.0
 11
13.99999999999875
 21
12.85000000000172
 31
0.0
  0
LINE
  5
4112
330
1F
100
AcDbEntity
  8
SK1
100
AcDbLine
 10
13.99999999999875
 20
12.85000000000172
 30
0.0
 11
-0.0000000000000568
 21
12.85000000000161
 31
0.0
  0
LINE
  5
4113
330
1F
100
AcDbEntity
  8
SK3
 48
0.3
100
AcDbLine
 10
-0.0000000000005116
 20
-30.00000000000443
 30
0.0
 11
42.00000000000318
 21
-30.0000000000048
 31
0.0
  0
LINE
  5
4115
330
1F
100
AcDbEntity
  8
SK3
100
AcDbLine
 10
58.00000000000512
 20
-69.50000000001773
 30
0.0
 11
55.00000000000051
 21
-66.50000000001319
 31
0.0
  0
LINE
  5
4116
330
1F
100
AcDbEntity
  8
SK3
 48
0.3
100
AcDbLine
 10
55.00000000000051
 20
-66.50000000001319
 30
0.0
 11
55.00000000005798
 21
66.50000000001302
 31
0.0
  0
LINE
  5
4117
330
1F
100
AcDbEntity
  8
SK3
 48
0.3
100
AcDbLine
 10
55.00000000000051
 20
-66.50000000001319
 30
0.0
 11
42.00000000000307
 21
-66.50000000001324
 31
0.0
  0
LINE
  5
4118
330
1F
100
AcDbEntity
  8
SK3
 48
0.3
100
AcDbLine
 10
42.00000000000307
 20
-66.50000000001324
 30
0.0
 11
42.00000000000307
 21
66.50000000001313
 31
0.0
  0
LINE
  5
4119
330
1F
100
AcDbEntity
  8
SK3
 48
0.3
100
AcDbLine
 10
42.00000000000307
 20
-63.80000000000439
 30
0.0
 11
32.00000000000318
 21
-63.80000000000439
 31
0.0
  0
LINE
  5
411A
330
1F
100
AcDbEntity
  8
SK3
 48
0.3
100
AcDbLine
 10
32.00000000000318
 20
-63.80000000000439
 30
0.0
 11
32.00000000000318
 21
-37.79999999999552
 31
0.0
  0
LINE
  5
411B
330
1F
100
AcDbEntity
  8
SK3
 48
0.3
100
AcDbLine
 10
32.00000000000318
 20
-37.79999999999552
 30
0.0
 11
42.00000000000312
 21
-37.79999999999552
 31
0.0
  0
LINE
  5
411C
330
1F
100
AcDbEntity
  8
SK3
 48
0.3
100
AcDbLine
 10
32.00000000000318
 20
-59.80000000000007
 30
0.0
 11
-0.0000000000011937
 21
-59.80000000000007
 31
0.0
  0
LINE
  5
411D
330
1F
100
AcDbEntity
  8
SK3
 48
0.3
100
AcDbLine
 10
32.00000000000318
 20
-41.80000000000006
 30
0.0
 11
-0.0000000000012506
 21
-41.79999999999995
 31
0.0
  0
LINE
  5
411E
330
1F
100
AcDbEntity
  8
SK4
100
AcDbLine
 10
43.88714906430988
 20
-50.79999999999995
 30
0.0
 11
-3.075876215309961
 21
-50.79999999999995
 31
0.0
  0
LINE
  5
4123
330
1F
100
AcDbEntity
  8
1
100
AcDbLine
 10
1.000000000001705
 20
66.00000000000773
 30
0.0
 11
-0.0000000000014779
 21
65.00000000000454
 31
0.0
  0
LINE
  5
4124
330
1F
100
AcDbEntity
  8
1
100
AcDbLine
 10
8.29999999999751
 20
79.00000000000443
 30
0.0
 11
2.500000000005059
 21
79.00000000000443
 31
0.0
  0
ARC
  5
4125
330
1F
100
AcDbEntity
  8
1
100
AcDbCircle
 10
2.500000000004945
 20
77.50000000000444
 30
0.0
 40
1.5
100
AcDbArc
 50
89.99999999999786
 51
180.0
  0
ARC
  5
4126
330
1F
100
AcDbEntity
  8
1
100
AcDbCircle
 10
8.299999999997453
 20
80.50000000000443
 30
0.0
 40
1.499999999999943
100
AcDbArc
 50
269.9999999999978
 51
359.9999999999956
  0
LINE
  5
4127
330
1F
100
AcDbEntity
  8
1
100
AcDbLine
 10
12.65000000001435
 20
98.30000000000751
 30
0.0
 11
9.799999999998703
 21
95.44999999999186
 31
0.0
  0
LINE
  5
4128
330
1F
100
AcDbEntity
  8
SK3
 48
0.3
100
AcDbLine
 10
55.00000000000074
 20
66.50000000001302
 30
0.0
 11
42.00000000000329
 21
66.50000000001313
 31
0.0
  0
LINE
  5
4129
330
1F
100
AcDbEntity
  8
SK3
 48
0.3
100
AcDbLine
 10
58.00000000000534
 20
69.50000000001756
 30
0.0
 11
55.00000000000074
 21
66.50000000001302
 31
0.0
  0
LINE
  5
412A
330
1F
100
AcDbEntity
  8
SK3
 48
0.3
100
AcDbLine
 10
32.00000000000335
 20
63.80000000000433
 30
0.0
 11
32.00000000000329
 21
37.79999999999546
 31
0.0
  0
LINE
  5
412B
330
1F
100
AcDbEntity
  8
SK3
 48
0.3
100
AcDbLine
 10
32.00000000000335
 20
59.80000000000001
 30
0.0
 11
-0.0000000000010232
 21
59.80000000000007
 31
0.0
  0
LINE
  5
412C
330
1F
100
AcDbEntity
  8
SK3
 48
0.3
100
AcDbLine
 10
42.00000000000324
 20
63.80000000000427
 30
0.0
 11
32.00000000000335
 21
63.80000000000433
 31
0.0
  0
LINE
  5
412D
330
1F
100
AcDbEntity
  8
SK4
100
AcDbLine
 10
43.88714906431005
 20
50.79999999999984
 30
0.0
 11
-3.07587621530979
 21
50.80000000000001
 31
0.0
  0
LINE
  5
412E
330
1F
100
AcDbEntity
  8
SK3
 48
0.3
100
AcDbLine
 10
32.00000000000329
 20
41.80000000000001
 30
0.0
 11
-0.0000000000011369
 21
41.79999999999995
 31
0.0
  0
LINE
  5
412F
330
1F
100
AcDbEntity
  8
SK3
 48
0.3
100
AcDbLine
 10
32.00000000000329
 20
37.79999999999546
 30
0.0
 11
42.00000000000324
 21
37.79999999999541
 31
0.0
  0
LINE
  5
4130
330
1F
100
AcDbEntity
  8
SK3
 48
0.3
100
AcDbLine
 10
-0.0000000000003979
 20
30.00000000000443
 30
0.0
 11
42.00000000000329
 21
30.00000000000472
 31
0.0
  0
LINE
  5
4131
330
1F
100
AcDbEntity
  8
1
100
AcDbLine
 10
9.799999999998703
 20
95.44999999999186
 30
0.0
 11
9.799999999991825
 21
12.85000000000451
 31
0.0
  0
LINE
  5
4132
330
1F
100
AcDbEntity
  8
1
100
AcDbLine
 10
1.000000000005002
 20
77.50000000000444
 30
0.0
 11
0.9999999999876081
 21
12.85000000000437
 31
0.0
  0
LINE
  5
4133
330
1F
100
AcDbEntity
  8
1
100
AcDbLine
 10
-0.0000000000014779
 20
65.00000000000454
 30
0.0
 11
0.0
 21
12.8500000000044
 31
0.0
  0
LINE
  5
4134
330
1F
100
AcDbEntity
  8
SK3
 48
0.3
100
AcDbLine
 10
8.445751311069727
 20
82.99993742174917
 30
0.0
 11
50.00000000001904
 21
82.99993742174917
 31
0.0
  0
LINE
  5
4135
330
1F
100
AcDbEntity
  8
4
100
AcDbLine
 10
14.50000000000824
 20
93.36993742175655
 30
0.0
 11
24.50000000000824
 21
93.36993742175655
 31
0.0
  0
LINE
  5
4136
330
1F
100
AcDbEntity
  8
1
100
AcDbLine
 10
22.34390894053245
 20
93.36993742175655
 30
0.0
 11
20.94337567298231
 21
95.57144657362931
 31
0.0
  0
LINE
  5
4137
330
1F
100
AcDbEntity
  8
1
100
AcDbLine
 10
20.94337567298231
 20
91.16842826988369
 30
0.0
 11
22.34390894053245
 21
93.36993742175655
 31
0.0
  0
ELLIPSE
  5
4138
330
1F
100
AcDbEntity
  8
1
100
AcDbEllipse
 10
19.50000000000824
 20
93.36993742175655
 30
0.0
 11
-5.0
 21
0.0
 31
0.0
210
0.0
220
0.0
230
1.0
 40
0.7807587326743715
 41
0.0
 42
6.283185307179586
  0
LINE
  5
4139
330
1F
100
AcDbEntity
  8
4
100
AcDbLine
 10
19.50000000000824
 20
97.27373108512843
 30
0.0
 11
19.50000000000824
 21
89.46614375838469
 31
0.0
  0
LINE
  5
413A
330
1F
100
AcDbEntity
  8
1
100
AcDbLine
 10
18.05662432703417
 20
95.57144657362931
 30
0.0
 11
16.6132486540601
 21
93.36993742175655
 31
0.0
  0
LINE
  5
413B
330
1F
100
AcDbEntity
  8
1
100
AcDbLine
 10
16.6132486540601
 20
93.36993742175655
 30
0.0
 11
18.05662432703417
 21
91.16842826988369
 31
0.0
  0
LINE
  5
413C
330
1F
100
AcDbEntity
  8
1
100
AcDbLine
 10
18.05662432703417
 20
91.16842826988369
 30
0.0
 11
20.94337567298231
 21
91.16842826988369
 31
0.0
  0
LINE
  5
413D
330
1F
100
AcDbEntity
  8
1
100
AcDbLine
 10
20.94337567298231
 20
95.57144657362931
 30
0.0
 11
18.05662432703417
 21
95.57144657362931
 31
0.0
  0
LINE
  5
413E
330
1F
100
AcDbEntity
  8
1
100
AcDbLine
 10
44.50000000000835
 20
98.3000000000073
 30
0.0
 11
12.65000000001435
 21
98.30000000000751
 31
0.0
  0
LINE
  5
413F
330
1F
100
AcDbEntity
  8
SK4
100
AcDbLine
 10
35.52492989674073
 20
78.39993742175209
 30
0.0
 11
60.130441843205
 21
78.39993742175209
 31
0.0
  0
LINE
  5
4140
330
1F
100
AcDbEntity
  8
SK3
 48
0.3
100
AcDbLine
 10
50.00000000001904
 20
76.01343742175203
 30
0.0
 11
38.00000000002222
 21
76.01343742175214
 31
0.0
  0
LINE
  5
4141
330
1F
100
AcDbEntity
  8
SK3
 48
0.3
100
AcDbLine
 10
50.00000000001904
 20
80.78643742175206
 30
0.0
 11
38.00000000002222
 21
80.78643742175206
 31
0.0
  0
LINE
  5
4142
330
1F
100
AcDbEntity
  8
SK3
 48
0.3
100
AcDbLine
 10
38.61350000002227
 20
75.3999374217521
 30
0.0
 11
50.00000000001904
 21
75.3999374217521
 31
0.0
  0
LINE
  5
4143
330
1F
100
AcDbEntity
  8
SK3
 48
0.3
100
AcDbLine
 10
50.00000000001904
 20
81.3999374217521
 30
0.0
 11
38.61350000002227
 21
81.3999374217521
 31
0.0
  0
ARC
  5
4144
330
1F
100
AcDbEntity
  8
1
100
AcDbCircle
 10
52.0000000000083
 20
94.17440977312844
 30
0.0
 40
7.999999999999943
100
AcDbArc
 50
179.9999999999998
 51
270.0000000000004
  0
LINE
  5
4145
330
1F
100
AcDbEntity
  8
SK1
100
AcDbLine
 10
57.00000000001506
 20
98.30000000000717
 30
0.0
 11
44.50000000000835
 21
98.3000000000073
 31
0.0
  0
LINE
  5
4146
330
1F
100
AcDbEntity
  8
SK3
 48
0.3
100
AcDbLine
 10
38.61350000002227
 20
81.3999374217521
 30
0.0
 11
38.61350000002227
 21
75.3999374217521
 31
0.0
  0
LINE
  5
4147
330
1F
100
AcDbEntity
  8
SK3
 48
0.3
100
AcDbLine
 10
38.00000000002222
 20
80.78643742175206
 30
0.0
 11
38.00000000002222
 21
76.01343742175214
 31
0.0
  0
LINE
  5
4148
330
1F
100
AcDbEntity
  8
SK3
100
AcDbLine
 10
38.00000000002222
 20
76.01343742175214
 30
0.0
 11
38.61350000002227
 21
75.3999374217521
 31
0.0
  0
LINE
  5
4149
330
1F
100
AcDbEntity
  8
SK3
100
AcDbLine
 10
38.61350000002227
 20
81.3999374217521
 30
0.0
 11
38.00000000002222
 21
80.78643742175206
 31
0.0
  0
LINE
  5
414A
330
1F
100
AcDbEntity
  8
4
100
AcDbLine
 10
35.5000000000254
 20
97.27373108512843
 30
0.0
 11
35.5000000000254
 21
89.46614375838469
 31
0.0
  0
LINE
  5
414B
330
1F
100
AcDbEntity
  8
1
100
AcDbLine
 10
38.34390894054962
 20
93.36993742175655
 30
0.0
 11
36.94337567299948
 21
95.57144657362931
 31
0.0
  0
LINE
  5
414C
330
1F
100
AcDbEntity
  8
1
100
AcDbLine
 10
36.94337567299948
 20
91.16842826988369
 30
0.0
 11
38.34390894054962
 21
93.36993742175655
 31
0.0
  0
LINE
  5
414D
330
1F
100
AcDbEntity
  8
1
100
AcDbLine
 10
44.00000000000836
 20
98.3000000000073
 30
0.0
 11
44.00000000000836
 21
94.1744097731285
 31
0.0
  0
LINE
  5
414E
330
1F
100
AcDbEntity
  8
SK1
100
AcDbLine
 10
58.00000000001472
 20
86.17440977312851
 30
0.0
 11
58.00000000001472
 21
97.30000000000741
 31
0.0
  0
LINE
  5
414F
330
1F
100
AcDbEntity
  8
SK3
 48
0.3
100
AcDbLine
 10
55.00000000001915
 20
85.49993742175519
 30
0.0
 11
55.00000000001915
 21
72.39993742175517
 31
0.0
  0
LINE
  5
4150
330
1F
100
AcDbEntity
  8
SK3
 48
0.3
100
AcDbLine
 10
50.00000000001904
 20
71.89993742175528
 30
0.0
 11
50.00000000001904
 21
85.49993742175519
 31
0.0
  0
LINE
  5
4151
330
1F
100
AcDbEntity
  8
SK3
 48
0.3
100
AcDbLine
 10
58.00000000001472
 20
71.89993742175516
 30
0.0
 11
50.00000000001904
 21
71.89993742175528
 31
0.0
  0
LINE
  5
4152
330
1F
100
AcDbEntity
  8
SK3
 48
0.3
100
AcDbLine
 10
55.00000000001915
 20
72.39993742175517
 30
0.0
 11
50.00000000001904
 21
72.39993742175528
 31
0.0
  0
LINE
  5
4153
330
1F
100
AcDbEntity
  8
SK3
 48
0.3
100
AcDbLine
 10
55.00000000001915
 20
82.99993742174905
 30
0.0
 11
58.0000000000146
 21
82.99993742174905
 31
0.0
  0
LINE
  5
4154
330
1F
100
AcDbEntity
  8
1
100
AcDbLine
 10
58.00000000001472
 20
86.17440977312851
 30
0.0
 11
52.00000000000835
 21
86.17440977312851
 31
0.0
  0
LINE
  5
4155
330
1F
100
AcDbEntity
  8
SK3
 48
0.3
100
AcDbLine
 10
50.00000000001904
 20
84.39993742174891
 30
0.0
 11
55.00000000001915
 21
84.39993742174891
 31
0.0
  0
LINE
  5
4156
330
1F
100
AcDbEntity
  8
SK3
 48
0.3
100
AcDbLine
 10
50.00000000001904
 20
85.49993742175519
 30
0.0
 11
55.00000000001915
 21
85.49993742175519
 31
0.0
  0
LINE
  5
4157
330
1F
100
AcDbEntity
  8
SK1
100
AcDbLine
 10
57.00000000001506
 20
98.30000000000717
 30
0.0
 11
58.00000000001495
 21
97.30000000000718
 31
0.0
  0
LINE
  5
4158
330
1F
100
AcDbEntity
  8
SK1
100
AcDbLine
 10
58.00000000001495
 20
97.30000000000718
 30
0.0
 11
58.00000000001472
 21
97.30000000000741
 31
0.0
  0
CIRCLE
  5
4159
330
1F
100
AcDbEntity
  8
SK1
100
AcDbCircle
 10
63.00000000000824
 20
99.9999999999987
 30
0.0
 40
0.4637693698488208
  0
LINE
  5
415A
330
1F
100
AcDbEntity
  8
SK1
100
AcDbLine
 10
62.53623063015954
 20
99.9999999999987
 30
0.0
 11
63.46376936985717
 21
99.9999999999987
 31
0.0
  0
LINE
  5
415B
330
1F
100
AcDbEntity
  8
SK1
100
AcDbLine
 10
63.00000000000824
 20
100.4637693698475
 30
0.0
 11
63.00000000000824
 21
99.53623063014987
 31
0.0
  0
LINE
  5
415C
330
1F
100
AcDbEntity
  8
4
100
AcDbLine
 10
30.5000000000254
 20
93.36993742175655
 30
0.0
 11
40.5000000000254
 21
93.36993742175655
 31
0.0
  0
ELLIPSE
  5
415D
330
1F
100
AcDbEntity
  8
1
100
AcDbEllipse
 10
35.5000000000254
 20
93.36993742175655
 30
0.0
 11
-5.0
 21
0.0
 31
0.0
210
0.0
220
0.0
230
1.0
 40
0.7807587326743715
 41
0.0
 42
6.283185307179586
  0
LINE
  5
415E
330
1F
100
AcDbEntity
  8
1
100
AcDbLine
 10
34.05662432705133
 20
95.57144657362931
 30
0.0
 11
32.61324865407726
 21
93.36993742175655
 31
0.0
  0
LINE
  5
415F
330
1F
100
AcDbEntity
  8
1
100
AcDbLine
 10
34.05662432705133
 20
91.16842826988369
 30
0.0
 11
36.94337567299948
 21
91.16842826988369
 31
0.0
  0
LINE
  5
4160
330
1F
100
AcDbEntity
  8
1
100
AcDbLine
 10
32.61324865407726
 20
93.36993742175655
 30
0.0
 11
34.05662432705133
 21
91.16842826988369
 31
0.0
  0
LINE
  5
4161
330
1F
100
AcDbEntity
  8
1
100
AcDbLine
 10
36.94337567299948
 20
95.57144657362931
 30
0.0
 11
34.05662432705133
 21
95.57144657362931
 31
0.0
  0
LINE
  5
4165
330
1F
100
AcDbEntity
  8
1
100
AcDbLine
 10
9.799999999998703
 20
-95.44999999999186
 30
0.0
 11
9.799999999991825
 21
-12.85000000000451
 31
0.0
  0
LINE
  5
4166
330
1F
100
AcDbEntity
  8
1
100
AcDbLine
 10
12.65000000001435
 20
-98.30000000000751
 30
0.0
 11
9.799999999998703
 21
-95.44999999999186
 31
0.0
  0
LINE
  5
4167
330
1F
100
AcDbEntity
  8
1
100
AcDbLine
 10
56.7500000000042
 20
-98.30000000000721
 30
0.0
 11
12.65000000001435
 21
-98.30000000000751
 31
0.0
  0
LINE
  5
4169
330
1F
100
AcDbEntity
  8
1
100
AcDbLine
 10
12.65000000001435
 20
98.30000000000751
 30
0.0
 11
12.65000000001435
 21
12.85000000000172
 31
0.0
  0
LINE
  5
416A
330
1F
100
AcDbEntity
  8
1
100
AcDbLine
 10
12.6500000000143
 20
-12.85000000000451
 30
0.0
 11
12.65000000001435
 21
-98.30000000000751
 31
0.0
  0
LINE
  5
4198
330
1F
100
AcDbEntity
  8
SK1
100
AcDbLine
 10
-2.262823140784178
 20
2.262823140784178
 30
0.0
 11
2.262823140784178
 21
-2.262823140784178
 31
0.0
  0
CIRCLE
  5
4199
330
1F
100
AcDbEntity
  8
SK1
100
AcDbCircle
 10
0.0
 20
0.0
 30
0.0
 40
3.200115174948665
  0
LINE
  5
419A
330
1F
100
AcDbEntity
  8
SK1
100
AcDbLine
 10
-2.262823140784178
 20
-2.262823140784178
 30
0.0
 11
2.262823140784178
 21
2.262823140784178
 31
0.0
  0
LINE
  5
419B
330
1F
100
AcDbEntity
  8
4
100
AcDbLine
 10
0.0
 20
0.0
 30
0.0
 11
60.85537167295502
 21
0.0
 31
0.0
  0
LINE
  5
419D
330
1F
100
AcDbEntity
  8
NOCUT
100
AcDbLine
 10
0.0
 20
0.0
 30
0.0
 11
58.00000000000466
 21
0.0
 31
0.0
  0
LINE
  5
419F
330
1F
100
AcDbEntity
  8
NOCUT
100
AcDbLine
 10
56.75000000000375
 20
-98.30000000000721
 30
0.0
 11
12.65000000001396
 21
-98.30000000000751
 31
0.0
  0
LINE
  5
41A7
330
1F
100
AcDbEntity
  8
NOCUT
100
AcDbLine
 10
9.799999999998249
 20
-95.44999999999186
 30
0.0
 11
9.799999999996998
 21
-80.50000000000432
 31
0.0
  0
LINE
  5
41A8
330
1F
100
AcDbEntity
  8
NOCUT
100
AcDbLine
 10
-0.0000000000019327
 20
-65.00000000000454
 30
0.0
 11
0.0
 21
0.0
 31
0.0
  0
LINE
  5
41A9
330
1F
100
AcDbEntity
  8
NOCUT
100
AcDbLine
 10
1.000000000004661
 20
-77.50000000000444
 30
0.0
 11
1.000000000001364
 21
-66.00000000000799
 31
0.0
  0
LINE
  5
41AA
330
1F
100
AcDbEntity
  8
NOCUT
100
AcDbLine
 10
9.799999999998249
 20
-95.44999999999186
 30
0.0
 11
9.799999999996998
 21
-80.50000000000432
 31
0.0
  0
LINE
  5
41AC
330
1F
100
AcDbEntity
  8
NOCUT
100
AcDbLine
 10
12.65000000001396
 20
-98.30000000000751
 30
0.0
 11
9.799999999998249
 21
-95.44999999999186
 31
0.0
  0
LINE
  5
41AD
330
1F
100
AcDbEntity
  8
NOCUT
100
AcDbLine
 10
8.299999999997112
 20
-79.00000000000443
 30
0.0
 11
2.500000000004661
 21
-79.00000000000443
 31
0.0
  0
ARC
  5
41AE
330
1F
100
AcDbEntity
  8
NOCUT
100
AcDbCircle
 10
2.500000000004547
 20
-77.50000000000444
 30
0.0
 40
1.5
100
AcDbArc
 50
180.0
 51
270.0000000000021
  0
ARC
  5
41AF
330
1F
100
AcDbEntity
  8
NOCUT
100
AcDbCircle
 10
8.299999999997112
 20
-80.50000000000443
 30
0.0
 40
1.499999999999943
100
AcDbArc
 50
0.0000000000043965
 51
90.00000000000216
  0
LINE
  5
41B0
330
1F
100
AcDbEntity
  8
NOCUT
100
AcDbLine
 10
1.00000000000125
 20
-66.00000000000773
 30
0.0
 11
-0.0000000000019327
 21
-65.00000000000454
 31
0.0
  0
LINE
  5
41BD
330
1F
100
AcDbEntity
  8
NOCUT
100
AcDbLine
 10
58.00000000000466
 20
0.0
 30
0.0
 11
58.00000000000466
 21
-97.05000000000632
 31
0.0
  0
LINE
  5
41BE
330
1F
100
AcDbEntity
  8
NOCUT
100
AcDbLine
 10
58.00000000000466
 20
-97.05000000000632
 30
0.0
 11
56.75000000000375
 21
-98.30000000000721
 31
0.0
  0
DIMENSION
  5
41E4
330
1F
100
AcDbEntity
  8
SK2
100
AcDbDimension
  2
*D2
 10
-18.05331642544661
 20
-30.00000000000443
 30
0.0
 11
-18.05331642544661
 21
1.389058003372497
 31
0.0
 70
   160
  1
%%c<>
  3
AM_DIN
100
AcDbAlignedDimension
 13
-0.0000000000005116
 23
30.00000000000443
 33
0.0
 14
-0.0000000000009095
 24
-30.00000000000443
 34
0.0
 50
90.0
100
AcDbRotatedDimension
  0
DIMENSION
  5
4215
330
1F
100
AcDbEntity
  8
SK2
100
AcDbDimension
  2
*D3
 10
-33.62123559847988
 20
-50.79999999999994
 30
0.0
 11
-33.62123559847987
 21
1.75943041577932
 31
0.0
 70
   160
  1
%%c<>
  3
AM_DIN
100
AcDbAlignedDimension
 13
-3.07587621530979
 23
50.80000000000001
 33
0.0
 14
-3.075876215309961
 24
-50.79999999999995
 34
0.0
 50
90.0
100
AcDbRotatedDimension
  0
DIMENSION
  5
4258
330
1F
100
AcDbEntity
  8
SK2
100
AcDbDimension
  2
*D4
 10
-49.55981915964436
 20
-65.00000000000408
 30
0.0
 11
-49.55981915964435
 21
1.018684633656334
 31
0.0
 70
   160
  1
%%c<>
  3
AM_DIN
100
AcDbAlignedDimension
 13
-0.0000000000014779
 23
65.00000000000454
 33
0.0
 14
-0.0000000000019327
 24
-65.00000000000409
 34
0.0
 50
90.0
100
AcDbRotatedDimension
  0
LINE
  5
42BA
330
1F
100
AcDbEntity
  8
SK1
100
AcDbLine
 10
63.00000000000739
 20
-100.4637693698477
 30
0.0
 11
63.00000000000739
 21
-99.53623063015015
 31
0.0
  0
LINE
  5
42BB
330
1F
100
AcDbEntity
  8
SK1
100
AcDbLine
 10
62.53623063015869
 20
-99.99999999999898
 30
0.0
 11
63.46376936985632
 21
-99.99999999999898
 31
0.0
  0
CIRCLE
  5
42BC
330
1F
100
AcDbEntity
  8
SK1
100
AcDbCircle
 10
63.00000000000739
 20
-99.99999999999898
 30
0.0
 40
0.4637693698488208
  0
DIMENSION
  5
42CC
330
1F
100
AcDbEntity
  8
2
100
AcDbDimension
  2
*D5
 10
108.2663101261701
 20
-99.999999999999
 30
0.0
 11
105.0159656379811
 21
-0.0000000000001341
 31
0.0
 70
    32
  1
%%c<>
  3
AM_DIN
100
AcDbAlignedDimension
 13
63.00000000000824
 23
99.9999999999987
 33
0.0
 14
63.00000000000739
 24
-99.99999999999898
 34
0.0
 50
90.0
100
AcDbRotatedDimension
  0
DIMENSION
  5
4324
330
1F
100
AcDbEntity
  8
2
100
AcDbDimension
  2
*D6
 10
63.00000000000824
 20
150.0
 30
0.0
 11
31.50000000000338
 21
153.2499999999999
 31
0.0
 70
    32
  3
AM_DIN
100
AcDbAlignedDimension
 13
-0.0000000000014779
 23
65.00000000000454
 33
0.0
 14
63.00000000000824
 24
99.9999999999987
 34
0.0
100
AcDbRotatedDimension
  0
TEXT
  5
4379
330
1F
100
AcDbEntity
  8
6
100
AcDbText
 10
21.0403869328407
 20
-107.7260374425474
 30
0.0
 40
3.5
  1
4W3A200R01
100
AcDbText
  0
TEXT
  5
437B
330
1F
100
AcDbEntity
  8
6
100
AcDbText
 10
12.041235292777
 20
142.527813377368
 30
0.0
 40
3.5
  1
Verstellweg 63+0.7
100
AcDbText
  0
TEXT
  5
437C
330
1F
100
AcDbEntity
  8
6
100
AcDbText
 10
115.563690799689
 20
-5.937181667773842
 30
0.0
 40
3.5
  1
Z=16
 50
90.0
100
AcDbText
  0
DIMENSION
  5
442B
330
1F
100
AcDbEntity
  8
SK2
100
AcDbDimension
  2
*D7
 10
-66.61039753759384
 20
-79.00000000000442
 30
0.0
 11
-69.86039753759382
 21
0.0000000000000045
 31
0.0
 70
    32
  1
%%c<>
  3
AM_DIN
100
AcDbAlignedDimension
 13
2.500000000005059
 23
79.00000000000443
 33
0.0
 14
2.500000000005059
 24
-79.00000000000443
 34
0.0
 50
90.00000000000003
100
AcDbRotatedDimension
  0
ENDSEC
  0
SECTION
  2
OBJECTS
  0
DICTIONARY
  5
C
330
0
100
AcDbDictionary
  3
ACAD_GROUP
350
D
  3
ACAD_LAYOUT
350
1A
  3
ACAD_MLINESTYLE
350
17
  3
ACAD_PLOTSETTINGS
350
19
  3
ACAD_PLOTSTYLENAME
350
E
  3
ACDBHEADERROUNDTRIPXREC
350
445F
  3
ACDBVARIABLEDICTIONARY
350
216
  3
ACMDICTIONARY
350
45
  3
AMG
350
41
  3
AMGSNAPSETTINGS
350
23D
  3
DWGPROPS
350
43C1
  0
DICTIONARY
  5
1F1
330
1F
100
AcDbDictionary
280
     1
  3
ACAD_INDEX
360
1F2
  3
ACAD_LAYOUTSELFREF
360
4482
  0
DICTIONARY
  5
4480
330
1B
100
AcDbDictionary
280
     1
  3
ACAD_LAYOUTSELFREF
360
4481
  0
DICTIONARY
  5
D
102
{ACAD_REACTORS
330
C
102
}
330
C
100
AcDbDictionary
  0
DICTIONARY
  5
1A
102
{ACAD_REACTORS
330
C
102
}
330
C
100
AcDbDictionary
  0
DICTIONARY
  5
17
102
{ACAD_REACTORS
330
C
102
}
330
C
100
AcDbDictionary
  3
STANDARD
350
18
  0
DICTIONARY
  5
19
102
{ACAD_REACTORS
330
C
102
}
330
C
100
AcDbDictionary
  0
ACDBDICTIONARYWDFLT
  5
E
102
{ACAD_REACTORS
330
C
102
}
330
C
100
AcDbDictionary
281
     1
  3
Normal
350
F
100
AcDbDictionaryWithDefault
340
F
  0
DICTIONARY
  5
445F
102
{ACAD_REACTORS
330
C
102
}
330
C
100
AcDbDictionary
  3
CEPSNTYPE
350
4469
  3
DIMSTYLEDATA
350
446D
  3
FINGERPRINTGUID
350
446A
  3
HYPERLINKBASE
350
4462
  3
INSUNITS
350
4468
  3
LAYOUTDICT
350
4464
  3
LWETCUNION
350
4467
  3
PLOTSETDICT
350
4465
  3
PLOTSTYLNAMDICT
350
4466
  3
PSVPSCALE
350
446C
  3
PUCSBASE
350
4470
  3
PUCSORGBACK
350
4476
  3
PUCSORGBOTTOM
350
4472
  3
PUCSORGFRONT
350
4475
  3
PUCSORGLEFT
350
4473
  3
PUCSORGRIGHT
350
4474
  3
PUCSORGTOP
350
4471
  3
PUCSORTHOREF
350
446E
  3
PUCSORTHOVIEW
350
446F
  3
STYLESHEET
350
4463
  3
TSTACKALIGN
350
4460
  3
TSTACKSIZE
350
4461
  3
UCSBASE
350
4479
  3
UCSORGBACK
350
447F
  3
UCSORGBOTTOM
350
447B
  3
UCSORGFRONT
350
447E
  3
UCSORGLEFT
350
447C
  3
UCSORGRIGHT
350
447D
  3
UCSORGTOP
350
447A
  3
UCSORTHOREF
350
4477
  3
UCSORTHOVIEW
350
4478
  3
VERSIONGUID
350
446B
  0
DICTIONARY
  5
216
102
{ACAD_REACTORS
330
C
102
}
330
C
100
AcDbDictionary
  3
DIMASSOC
350
219
  3
HIDETEXT
350
218
  3
INDEXCTL
350
217
  0
DICTIONARY
  5
45
102
{ACAD_REACTORS
330
C
102
}
330
C
100
AcDbDictionary
  3
ACMSTDDICTIONARY
350
4A
  0
DICTIONARY
  5
41
102
{ACAD_REACTORS
330
C
102
}
330
C
100
AcDbDictionary
  3
ACMGSETTINGS
350
42
  0
DICTIONARY
  5
23D
102
{ACAD_REACTORS
330
C
102
}
330
C
100
AcDbDictionary
  0
XRECORD
  5
43C1
102
{ACAD_REACTORS
330
C
102
}
330
C
100
AcDbXrecord
  1
DWGPROPS COOKIE
  2

  3

  4

  6

  7

  8

  9

300
AmdtFileType=84
301
=
302
=
303
=
304
=
305
=
306
=
307
=
308
=
309
=
 40
0.0821913541666667
 41
2453599.366006042
 42
2453798.443509595
  1

 90
        1
  0
DICTIONARY
  5
1F2
102
{ACAD_REACTORS
330
1F1
102
}
330
1F1
100
AcDbDictionary
  3
*A1
350
1F3
  0
XRECORD
  5
4482
102
{ACAD_REACTORS
330
1F1
102
}
330
1F1
100
AcDbXrecord
340
1F
  0
XRECORD
  5
4481
102
{ACAD_REACTORS
330
4480
102
}
330
4480
100
AcDbXrecord
340
1B
  0
MLINESTYLE
  5
18
102
{ACAD_REACTORS
330
17
102
}
330
17
100
AcDbMlineStyle
  2
STANDARD
 70
     0
  3

 62
   256
 51
90.0
 52
90.0
 71
     2
 49
0.5
 62
   256
  6
BYLAYER
 49
-0.5
 62
   256
  6
BYLAYER
  0
ACDBPLACEHOLDER
  5
F
102
{ACAD_REACTORS
330
E
102
}
330
E
100
AcDbPlaceHolder
280
     0
  0
XRECORD
  5
4469
102
{ACAD_REACTORS
330
445F
102
}
330
445F
100
AcDbXrecord
 90
        0
  0
XRECORD
  5
446D
102
{ACAD_REACTORS
330
445F
102
}
330
445F
100
AcDbXrecord
1000
DSTYLE
1002
{
1070
    79
 70
     2
1070
   371
 70
    -1
1070
   372
 70
    -1
1002
}
  0
XRECORD
  5
446A
102
{ACAD_REACTORS
330
445F
102
}
330
445F
100
AcDbXrecord
  1
{03052709-208C-44F1-88CB-F8F0E550BC5D}
  0
XRECORD
  5
4462
102
{ACAD_REACTORS
330
445F
102
}
330
445F
100
AcDbXrecord
  1

  0
XRECORD
  5
4468
102
{ACAD_REACTORS
330
445F
102
}
330
445F
100
AcDbXrecord
 90
        4
  0
XRECORD
  5
4464
102
{ACAD_REACTORS
330
445F
102
}
330
445F
100
AcDbXrecord
340
1A
  0
XRECORD
  5
4467
102
{ACAD_REACTORS
330
445F
102
}
330
445F
100
AcDbXrecord
 90
    10781
  0
XRECORD
  5
4465
102
{ACAD_REACTORS
330
445F
102
}
330
445F
100
AcDbXrecord
340
19
  0
XRECORD
  5
4466
102
{ACAD_REACTORS
330
445F
102
}
330
445F
100
AcDbXrecord
340
E
  0
XRECORD
  5
446C
102
{ACAD_REACTORS
330
445F
102
}
330
445F
100
AcDbXrecord
 40
0.0
  0
XRECORD
  5
4470
102
{ACAD_REACTORS
330
445F
102
}
330
445F
100
AcDbXrecord
340
0
  0
XRECORD
  5
4476
102
{ACAD_REACTORS
330
445F
102
}
330
445F
100
AcDbXrecord
 10
0.0
 20
0.0
 30
0.0
  0
XRECORD
  5
4472
102
{ACAD_REACTORS
330
445F
102
}
330
445F
100
AcDbXrecord
 10
0.0
 20
0.0
 30
0.0
  0
XRECORD
  5
4475
102
{ACAD_REACTORS
330
445F
102
}
330
445F
100
AcDbXrecord
 10
0.0
 20
0.0
 30
0.0
  0
XRECORD
  5
4473
102
{ACAD_REACTORS
330
445F
102
}
330
445F
100
AcDbXrecord
 10
0.0
 20
0.0
 30
0.0
  0
XRECORD
  5
4474
102
{ACAD_REACTORS
330
445F
102
}
330
445F
100
AcDbXrecord
 10
0.0
 20
0.0
 30
0.0
  0
XRECORD
  5
4471
102
{ACAD_REACTORS
330
445F
102
}
330
445F
100
AcDbXrecord
 10
0.0
 20
0.0
 30
0.0
  0
XRECORD
  5
446E
102
{ACAD_REACTORS
330
445F
102
}
330
445F
100
AcDbXrecord
340
0
  0
XRECORD
  5
446F
102
{ACAD_REACTORS
330
445F
102
}
330
445F
100
AcDbXrecord
 70
     0
  0
XRECORD
  5
4463
102
{ACAD_REACTORS
330
445F
102
}
330
445F
100
AcDbXrecord
  1

  0
XRECORD
  5
4460
102
{ACAD_REACTORS
330
445F
102
}
330
445F
100
AcDbXrecord
 90
        1
  0
XRECORD
  5
4461
102
{ACAD_REACTORS
330
445F
102
}
330
445F
100
AcDbXrecord
 90
       70
  0
XRECORD
  5
4479
102
{ACAD_REACTORS
330
445F
102
}
330
445F
100
AcDbXrecord
340
0
  0
XRECORD
  5
447F
102
{ACAD_REACTORS
330
445F
102
}
330
445F
100
AcDbXrecord
 10
0.0
 20
0.0
 30
0.0
  0
XRECORD
  5
447B
102
{ACAD_REACTORS
330
445F
102
}
330
445F
100
AcDbXrecord
 10
0.0
 20
0.0
 30
0.0
  0
XRECORD
  5
447E
102
{ACAD_REACTORS
330
445F
102
}
330
445F
100
AcDbXrecord
 10
0.0
 20
0.0
 30
0.0
  0
XRECORD
  5
447C
102
{ACAD_REACTORS
330
445F
102
}
330
445F
100
AcDbXrecord
 10
0.0
 20
0.0
 30
0.0
  0
XRECORD
  5
447D
102
{ACAD_REACTORS
330
445F
102
}
330
445F
100
AcDbXrecord
 10
0.0
 20
0.0
 30
0.0
  0
XRECORD
  5
447A
102
{ACAD_REACTORS
330
445F
102
}
330
445F
100
AcDbXrecord
 10
0.0
 20
0.0
 30
0.0
  0
XRECORD
  5
4477
102
{ACAD_REACTORS
330
445F
102
}
330
445F
100
AcDbXrecord
340
0
  0
XRECORD
  5
4478
102
{ACAD_REACTORS
330
445F
102
}
330
445F
100
AcDbXrecord
 70
     0
  0
XRECORD
  5
446B
102
{ACAD_REACTORS
330
445F
102
}
330
445F
100
AcDbXrecord
  1
{924A4FFC-0047-4338-9D33-000BE0CDED7F}
  0
DICTIONARYVAR
  5
219
102
{ACAD_REACTORS
330
216
102
}
330
216
100
DictionaryVariables
280
     0
  1
1
  0
DICTIONARYVAR
  5
218
102
{ACAD_REACTORS
330
216
102
}
330
216
100
DictionaryVariables
280
     0
  1
1
  0
DICTIONARYVAR
  5
217
102
{ACAD_REACTORS
330
216
102
}
330
216
100
DictionaryVariables
280
     0
  1
1
  0
DICTIONARY
  5
4A
102
{ACAD_REACTORS
330
45
102
}
330
45
100
AcDbDictionary
  0
DICTIONARY
  5
42
102
{ACAD_REACTORS
330
41
102
}
330
41
100
AcDbDictionary
  3
DWGSETTINGS
350
43
  0
LAYER_INDEX
  5
1F3
102
{ACAD_REACTORS
330
1F2
102
}
330
1F2
100
AcDbIndex
 40
2453874.466579502
100
AcDbLayerIndex
  8
0
360
1F4
 90
        0
  8
Defpoints
360
210
 90
        0
  8
1
360
29B
 90
       40
  8
2
360
1EC1
 90
        2
  8
4
360
1EC2
 90
        5
  8
6
360
1EC3
 90
        3
  8
SK1
360
1EC4
 90
       16
  8
SK2
360
1EC5
 90
        4
  8
SK3
360
1EC6
 90
       34
  8
NOCUT
360
1EC7
 90
       13
  8
SK4
360
3022
 90
        3
  0
XRECORD
  5
43
102
{ACAD_REACTORS
330
42
102
}
330
42
100
AcDbXrecord
  1
VERSION
140
15.0
  1
PRODUCT
  2
AutoCAD Mechanical 2000
  0
IDBUFFER
  5
1F4
330
0
100
AcDbIdBuffer
  0
IDBUFFER
  5
210
330
0
100
AcDbIdBuffer
  0
IDBUFFER
  5
29B
330
0
100
AcDbIdBuffer
330
4105
330
4106
330
4109
330
410A
330
410B
330
410C
330
410D
330
410E
330
410F
330
4123
330
4124
330
4125
330
4126
330
4127
330
4131
330
4132
330
4133
330
4136
330
4137
330
4138
330
413A
330
413B
330
413C
330
413D
330
413E
330
4144
330
414B
330
414C
330
414D
330
4154
330
415D
330
415E
330
415F
330
4160
330
4161
330
4165
330
4166
330
4167
330
4169
330
416A
  0
IDBUFFER
  5
1EC1
330
0
100
AcDbIdBuffer
330
42CC
330
4324
  0
IDBUFFER
  5
1EC2
330
0
100
AcDbIdBuffer
330
4135
330
4139
330
414A
330
415C
330
419B
  0
IDBUFFER
  5
1EC3
330
0
100
AcDbIdBuffer
330
4379
330
437B
330
437C
  0
IDBUFFER
  5
1EC4
330
0
100
AcDbIdBuffer
330
4110
330
4111
330
4112
330
4145
330
414E
330
4157
330
4158
330
4159
330
415A
330
415B
330
4198
330
4199
330
419A
330
42BA
330
42BB
330
42BC
  0
IDBUFFER
  5
1EC5
330
0
100
AcDbIdBuffer
330
442B
330
41E4
330
4215
330
4258
  0
IDBUFFER
  5
1EC6
330
0
100
AcDbIdBuffer
330
4113
330
4115
330
4116
330
4117
330
4118
330
4119
330
411A
330
411B
330
411C
330
411D
330
4128
330
4129
330
412A
330
412B
330
412C
330
412E
330
412F
330
4130
330
4134
330
4140
330
4141
330
4142
330
4143
330
4146
330
4147
330
4148
330
4149
330
414F
330
4150
330
4151
330
4152
330
4153
330
4155
330
4156
  0
IDBUFFER
  5
1EC7
330
0
100
AcDbIdBuffer
330
419D
330
419F
330
41A7
330
41A8
330
41A9
330
41AA
330
41AC
330
41AD
330
41AE
330
41AF
330
41B0
330
41BD
330
41BE
  0
IDBUFFER
  5
3022
330
0
100
AcDbIdBuffer
330
411E
330
412D
330
413F
  0
ENDSEC
  0
EOF
