  0
SECTION
  2
HEADER
  9
$ACADVER
  1
AC1014
  9
$ACADMAINTVER
 70
     9
  9
$DWGCODEPAGE
  3
ANSI_1252
  9
$INSBASE
 10
0.0
 20
0.0
 30
0.0
  9
$EXTMIN
 10
-56.89049094801124
 20
-88.1228312119622
 30
-0.000000000000013
  9
$EXTMAX
 10
115.7695496432612
 20
124.9984892418377
 30
0.0000000000000023
  9
$LIMMIN
 10
0.0
 20
0.0
  9
$LIMMAX
 10
420.0
 20
297.0
  9
$ORTHOMODE
 70
     0
  9
$REGENMODE
 70
     1
  9
$FILLMODE
 70
     1
  9
$QTEXTMODE
 70
     0
  9
$MIRRTEXT
 70
     1
  9
$DRAGMODE
 70
     2
  9
$LTSCALE
 40
1.0
  9
$OSMODE
 70
  2599
  9
$ATTMODE
 70
     1
  9
$TEXTSIZE
 40
2.5
  9
$TRACEWID
 40
1.0
  9
$TEXTSTYLE
  7
STANDARD
  9
$CLAYER
  8
0
  9
$CELTYPE
  6
BYLAYER
  9
$CECOLOR
 62
   256
  9
$CELTSCALE
 40
1.0
  9
$DELOBJ
 70
     1
  9
$DISPSILH
 70
     0
  9
$DIMSCALE
 40
1.0
  9
$DIMASZ
 40
2.5
  9
$DIMEXO
 40
0.0
  9
$DIMDLI
 40
10.0
  9
$DIMRND
 40
0.0
  9
$DIMDLE
 40
0.0
  9
$DIMEXE
 40
1.0
  9
$DIMTP
 40
0.1
  9
$DIMTM
 40
0.1
  9
$DIMTXT
 40
3.5
  9
$DIMCEN
 40
0.0
  9
$DIMTSZ
 40
0.0
  9
$DIMTOL
 70
     0
  9
$DIMLIM
 70
     0
  9
$DIMTIH
 70
     0
  9
$DIMTOH
 70
     0
  9
$DIMSE1
 70
     0
  9
$DIMSE2
 70
     0
  9
$DIMTAD
 70
     1
  9
$DIMZIN
 70
     8
  9
$DIMBLK
  1

  9
$DIMASO
 70
     1
  9
$DIMSHO
 70
     1
  9
$DIMPOST
  1

  9
$DIMAPOST
  1
"
  9
$DIMALT
 70
     0
  9
$DIMALTD
 70
     2
  9
$DIMALTF
 40
0.0393701
  9
$DIMLFAC
 40
1.0
  9
$DIMTOFL
 70
     1
  9
$DIMTVP
 40
0.0
  9
$DIMTIX
 70
     0
  9
$DIMSOXD
 70
     0
  9
$DIMSAH
 70
     0
  9
$DIMBLK1
  1

  9
$DIMBLK2
  1

  9
$DIMSTYLE
  2
AM_DIN
  9
$DIMCLRD
 70
   256
  9
$DIMCLRE
 70
   256
  9
$DIMCLRT
 70
     2
  9
$DIMTFAC
 40
0.71
  9
$DIMGAP
 40
1.5
  9
$DIMJUST
 70
     0
  9
$DIMSD1
 70
     0
  9
$DIMSD2
 70
     0
  9
$DIMTOLJ
 70
     0
  9
$DIMTZIN
 70
     8
  9
$DIMALTZ
 70
     0
  9
$DIMALTTZ
 70
     0
  9
$DIMFIT
 70
     3
  9
$DIMUPT
 70
     0
  9
$DIMUNIT
 70
     2
  9
$DIMDEC
 70
     2
  9
$DIMTDEC
 70
     2
  9
$DIMALTU
 70
     2
  9
$DIMALTTD
 70
     2
  9
$DIMTXSTY
  7
STANDARD
  9
$DIMAUNIT
 70
     0
  9
$LUNITS
 70
     2
  9
$LUPREC
 70
     2
  9
$SKETCHINC
 40
1.0
  9
$FILLETRAD
 40
3.0
  9
$AUNITS
 70
     0
  9
$AUPREC
 70
     0
  9
$MENU
  1
.
  9
$ELEVATION
 40
0.0
  9
$PELEVATION
 40
0.0
  9
$THICKNESS
 40
0.0
  9
$LIMCHECK
 70
     0
  9
$BLIPMODE
 70
     0
  9
$CHAMFERA
 40
2.5
  9
$CHAMFERB
 40
2.5
  9
$CHAMFERC
 40
20.0
  9
$CHAMFERD
 40
0.0
  9
$SKPOLY
 70
     0
  9
$TDCREATE
 40
2453599.366006042
  9
$TDUPDATE
 40
2453874.461999999
  9
$TDINDWG
 40
0.0808050926
  9
$TDUSRTIMER
 40
0.0807807523
  9
$USRTIMER
 70
     1
  9
$ANGBASE
 50
0.0
  9
$ANGDIR
 70
     0
  9
$PDMODE
 70
     0
  9
$PDSIZE
 40
0.0
  9
$PLINEWID
 40
0.0
  9
$COORDS
 70
     0
  9
$SPLFRAME
 70
     0
  9
$SPLINETYPE
 70
     6
  9
$SPLINESEGS
 70
     8
  9
$ATTDIA
 70
     1
  9
$ATTREQ
 70
     1
  9
$HANDLING
 70
 22529
  9
$HANDSEED
  5
3E0A
  9
$SURFTAB1
 70
     6
  9
$SURFTAB2
 70
     6
  9
$SURFTYPE
 70
     6
  9
$SURFU
 70
     6
  9
$SURFV
 70
     6
  9
$UCSNAME
  2

  9
$UCSORG
 10
0.0
 20
0.0
 30
0.0
  9
$UCSXDIR
 10
1.0
 20
0.0
 30
0.0
  9
$UCSYDIR
 10
0.0
 20
1.0
 30
0.0
  9
$PUCSNAME
  2

  9
$PUCSORG
 10
0.0
 20
0.0
 30
0.0
  9
$PUCSXDIR
 10
1.0
 20
0.0
 30
0.0
  9
$PUCSYDIR
 10
0.0
 20
1.0
 30
0.0
  9
$USERI1
 70
     0
  9
$USERI2
 70
     0
  9
$USERI3
 70
     0
  9
$USERI4
 70
     0
  9
$USERI5
 70
     0
  9
$USERR1
 40
0.0
  9
$USERR2
 40
0.0
  9
$USERR3
 40
0.0
  9
$USERR4
 40
0.0
  9
$USERR5
 40
0.0
  9
$WORLDVIEW
 70
     1
  9
$SHADEDGE
 70
     3
  9
$SHADEDIF
 70
    70
  9
$TILEMODE
 70
     1
  9
$MAXACTVP
 70
    64
  9
$PINSBASE
 10
0.0
 20
0.0
 30
0.0
  9
$PLIMCHECK
 70
     0
  9
$PEXTMIN
 10
1.000000000000000E+20
 20
1.000000000000000E+20
 30
1.000000000000000E+20
  9
$PEXTMAX
 10
-1.000000000000000E+20
 20
-1.000000000000000E+20
 30
-1.000000000000000E+20
  9
$PLIMMIN
 10
0.0
 20
0.0
  9
$PLIMMAX
 10
420.0
 20
297.0
  9
$UNITMODE
 70
     0
  9
$VISRETAIN
 70
     1
  9
$PLINEGEN
 70
     0
  9
$PSLTSCALE
 70
     1
  9
$TREEDEPTH
 70
  3020
  9
$PICKSTYLE
 70
     0
  9
$CMLSTYLE
  2
STANDARD
  9
$CMLJUST
 70
     0
  9
$CMLSCALE
 40
20.0
  9
$PROXYGRAPHICS
 70
     1
  9
$MEASUREMENT
 70
     1
  0
ENDSEC
  0
SECTION
  2
CLASSES
  0
CLASS
  1
ACDBDICTIONARYWDFLT
  2
AcDbDictionaryWithDefault
  3
AutoCAD 2000
 90
        0
280
     0
281
     0
  0
CLASS
  1
ACDBPLACEHOLDER
  2
AcDbPlaceHolder
  3
AutoCAD 2000
 90
        0
280
     0
281
     0
  0
CLASS
  1
LAYOUT
  2
AcDbLayout
  3
AutoCAD 2000
 90
        0
280
     0
281
     0
  0
CLASS
  1
ACME_DOCUMENT
  2
AcMeDbDoc
  3
AcMeServices
 90
        0
280
     0
281
     0
  0
CLASS
  1
ACMESCOPE
  2
AcMeScope
  3
AcMeServices
 90
        0
280
     0
281
     0
  0
CLASS
  1
ACMECOMMANDHISTORY
  2
AcMeCommandHistory
  3
AcMeServices
 90
        0
280
     0
281
     0
  0
CLASS
  1
ACIMSYSVARMAN
  2
AcImSysVarManager
  3
AcMeServices
 90
        0
280
     0
281
     0
  0
CLASS
  1
ACIMREALSYSVAR
  2
AcImRealSysVar
  3
AcMeServices
 90
        0
280
     0
281
     0
  0
CLASS
  1
ACIMINTSYSVAR
  2
AcImIntSysVar
  3
AcMeServices
 90
        0
280
     0
281
     0
  0
CLASS
  1
ACMEDRAWINGMAN
  2
AcMeDrawingMan
  3
AcMeServices
 90
        0
280
     0
281
     0
  0
CLASS
  1
ACMEVIEW
  2
AcMeView
  3
AcMeServices
 90
        0
280
     0
281
     0
  0
CLASS
  1
ACDBENTITYCACHE
  2
AcMeEntityCache
  3
AcMeServices
 90
        0
280
     0
281
     0
  0
CLASS
  1
GSMANAGER
  2
AcMeGSManager
  3
AcMeServices
 90
        0
280
     0
281
     0
  0
CLASS
  1
AMDTINTERNALREACTOR
  2
AmdtInternalReactor
  3
AcMeServices
 90
        0
280
     0
281
     0
  0
CLASS
  1
ACMESTATEMGR
  2
AcMeStateMgr
  3
AcMeServices
 90
        0
280
     0
281
     0
  0
CLASS
  1
ACGREFMASTER
  2
AcGrefMaster
  3
AcAttribServices
 90
        0
280
     0
281
     0
  0
CLASS
  1
ACME_DATABASE
  2
AcMeDbDatabase
  3
AcMeServices
 90
        0
280
     0
281
     0
  0
CLASS
  1
ACRFINSADJUSTERMGR
  2
AcRfInsAdjusterMgr
  3
AcMeServices
 90
        0
280
     0
281
     0
  0
CLASS
  1
ACGREFACADMASTER
  2
AcGrefacadMaster
  3
AcGrefServices
 90
        0
280
     0
281
     0
  0
CLASS
  1
AMIMASTER
  2
AmiMaster
  3
AmiServices
 90
        0
280
     0
281
     0
  0
CLASS
  1
AMGSETTINGSOBJ
  2
AmgSettingsObj
  3
"AcadM|Product Description: AutoCAD Mechanical 2000|Company: Autodesk"
 90
        0
280
     0
281
     0
  0
CLASS
  1
ACMDATADICTIONARY
  2
AcmDataDictionary
  3
"AcmSymBB|Product Description: AutoCAD Mechanical 2000|Company: Autodesk"
 90
        0
280
     0
281
     0
  0
CLASS
  1
ACMDATAENTRYBLOCK
  2
AcmDataEntryBlock
  3
"AcmSymBB|Product Description: AutoCAD Mechanical 2000|Company: Autodesk"
 90
        0
280
     0
281
     0
  0
CLASS
  1
ACIMSTRSYSVAR
  2
AcImStrSysVar
  3
AcMeServices
 90
        0
280
     0
281
     0
  0
CLASS
  1
ACMSTANDARDDIN
  2
AcmStandardDIN
  3
"Amdt_StdImp|Product Description: AutoCAD Mechanical 2000|Company: Autodesk"
 90
        0
280
     0
281
     0
  0
CLASS
  1
AMGOBJPROPCFG
  2
AmgObjPropCfg
  3
"AmgLay|Product Description: AutoCAD Mechanical 2000|Company: Autodesk"
 90
        1
280
     0
281
     0
  0
CLASS
  1
AMDTEDGESTANDARDDIN
  2
AmdtEdgeStdDIN
  3
"Amdt_StdImp|Product Description: AutoCAD Mechanical 2000|Company: Autodesk"
 90
        0
280
     0
281
     0
  0
CLASS
  1
ACMSURFSTANDARDDIN
  2
AcmSurfTextStdDIN
  3
"Amdt_StdImp|Product Description: AutoCAD Mechanical 2000|Company: Autodesk"
 90
        0
280
     0
281
     0
  0
CLASS
  1
ACMFCFSTANDARDDIN
  2
AcmFCFStdDIN
  3
"Amdt_StdImp|Product Description: AutoCAD Mechanical 2000|Company: Autodesk"
 90
        0
280
     0
281
     0
  0
CLASS
  1
ACMWELDSTANDARDDIN
  2
AcmWeldingStdDIN
  3
"Amdt_StdImp|Product Description: AutoCAD Mechanical 2000|Company: Autodesk"
 90
        0
280
     0
281
     0
  0
CLASS
  1
ACMIDSTANDARDDIN
  2
AcmIdStdDIN
  3
"Amdt_StdImp|Product Description: AutoCAD Mechanical 2000|Company: Autodesk"
 90
        0
280
     0
281
     0
  0
CLASS
  1
ACMDATUMSTANDARDDIN
  2
AcmDatumStdDIN
  3
"Amdt_StdImp|Product Description: AutoCAD Mechanical 2000|Company: Autodesk"
 90
        0
280
     0
281
     0
  0
CLASS
  1
ACMBOMSTANDARDDIN
  2
AcmBOMStdDIN
  3
"Amdt_StdImp|Product Description: AutoCAD Mechanical 2000|Company: Autodesk"
 90
        0
280
     0
281
     0
  0
CLASS
  1
ACMDETAILSTANDARDDIN
  2
AmdtDetailSymStdDIN
  3
"Amdt_StdImp|Product Description: AutoCAD Mechanical 2000|Company: Autodesk"
 90
        0
280
     0
281
     0
  0
CLASS
  1
ACMSECTIONSTANDARDDIN
  2
AmdtSectionSymStdDIN
  3
"Amdt_StdImp|Product Description: AutoCAD Mechanical 2000|Company: Autodesk"
 90
        0
280
     0
281
     0
  0
CLASS
  1
ACMCENTERLINESTANDARDDIN
  2
AmdtCenterLineStdDIN
  3
"Amdt_StdImp|Product Description: AutoCAD Mechanical 2000|Company: Autodesk"
 90
        0
280
     0
281
     0
  0
CLASS
  1
ACMNOTESTANDARDDIN
  2
AmdtNoteStdDIN
  3
"Amdt_StdImp|Product Description: AutoCAD Mechanical 2000|Company: Autodesk"
 90
        0
280
     0
281
     0
  0
CLASS
  1
ACAMGLAYSTD
  2
AcAmgLayStd
  3
"AcAmgLayStd|Product Description: AutoCAD Mechanical 2000|Company: Autodesk"
 90
        0
280
     0
281
     0
  0
CLASS
  1
ACAMGDIMSTD
  2
AcAmgDimStd
  3
"AcAmgDimStd|Product Description: AutoCAD Mechanical 2000|Company: Autodesk"
 90
        0
280
     0
281
     0
  0
CLASS
  1
ACAMGHOLECHARTSTDDIN
  2
AcAmgHoleChartStdDIN
  3
ACMSYMBB_MODULE_NAME
 90
        0
280
     0
281
     0
  0
CLASS
  1
ACAMGTITLESTD
  2
AcAmgTitleStd
  3
"TITLEAPP"
 90
        0
280
     0
281
     0
  0
CLASS
  1
ACMSTANDARDANSI
  2
AcmStandardANSI
  3
"Amdt_StdImp|Product Description: AutoCAD Mechanical 2000|Company: Autodesk"
 90
        0
280
     0
281
     0
  0
CLASS
  1
ACMSURFSTANDARDANSI
  2
AcmSurfTextStdANSI
  3
"Amdt_StdImp|Product Description: AutoCAD Mechanical 2000|Company: Autodesk"
 90
        0
280
     0
281
     0
  0
CLASS
  1
ACMFCFSTANDARDANSI
  2
AcmFCFStdANSI
  3
"Amdt_StdImp|Product Description: AutoCAD Mechanical 2000|Company: Autodesk"
 90
        0
280
     0
281
     0
  0
CLASS
  1
ACMWELDSTANDARDANSI
  2
AcmWeldingStdANSI
  3
"Amdt_StdImp|Product Description: AutoCAD Mechanical 2000|Company: Autodesk"
 90
        0
280
     0
281
     0
  0
CLASS
  1
ACMIDSTANDARDANSI
  2
AcmIdStdANSI
  3
"Amdt_StdImp|Product Description: AutoCAD Mechanical 2000|Company: Autodesk"
 90
        0
280
     0
281
     0
  0
CLASS
  1
ACMDATUMSTANDARDANSI
  2
AcmDatumStdANSI
  3
"Amdt_StdImp|Product Description: AutoCAD Mechanical 2000|Company: Autodesk"
 90
        0
280
     0
281
     0
  0
CLASS
  1
ACMBOMSTANDARDANSI
  2
AcmBOMStdANSI
  3
"Amdt_StdImp|Product Description: AutoCAD Mechanical 2000|Company: Autodesk"
 90
        0
280
     0
281
     0
  0
CLASS
  1
ACMDETAILSTANDARDANSI
  2
AmdtDetailSymStdANSI
  3
"Amdt_StdImp|Product Description: AutoCAD Mechanical 2000|Company: Autodesk"
 90
        0
280
     0
281
     0
  0
CLASS
  1
ACMSECTIONSTANDARDANSI
  2
AmdtSectionSymStdANSI
  3
"Amdt_StdImp|Product Description: AutoCAD Mechanical 2000|Company: Autodesk"
 90
        0
280
     0
281
     0
  0
CLASS
  1
ACMCENTERLINESTANDARDANSI
  2
AmdtCenterLineStdANSI
  3
"Amdt_StdImp|Product Description: AutoCAD Mechanical 2000|Company: Autodesk"
 90
        0
280
     0
281
     0
  0
CLASS
  1
ACMNOTESTANDARDANSI
  2
AmdtNoteStdANSI
  3
"Amdt_StdImp|Product Description: AutoCAD Mechanical 2000|Company: Autodesk"
 90
        0
280
     0
281
     0
  0
CLASS
  1
ACAMGHOLECHARTSTDANSI
  2
AcAmgHoleChartStdANSI
  3
ACMSYMBB_MODULE_NAME
 90
        0
280
     0
281
     0
  0
CLASS
  1
ACAMGFILTERDAT
  2
AcAmgFilterDat
  3
"AcadM|Product Description: AutoCAD Mechanical 2000|Company: Autodesk"
 90
        0
280
     0
281
     0
  0
CLASS
  1
AMDTFORMULAUPDATEDISPATCHER
  2
AmdtFormulaUpdateDispatcher
  3
AcMeServices
 90
        0
280
     0
281
     0
  0
CLASS
  1
LAYER_INDEX
  2
AcDbLayerIndex
  3
AutoCAD 2000
 90
        0
280
     0
281
     0
  0
CLASS
  1
IDBUFFER
  2
AcDbIdBuffer
  3
AutoCAD 2000
 90
        0
280
     0
281
     0
  0
CLASS
  1
DICTIONARYVAR
  2
AcDbDictionaryVar
  3
AutoCAD 2000
 90
        0
280
     0
281
     0
  0
CLASS
  1
DIMASSOC
  2
AcDbDimAssoc
  3
"AcDbDimAssoc|Product Desc:     AcDim ARX App For Dimension|Company:          Autodesk, Inc.|WEB Address:      www.autodesk.com"
 90
        0
280
     0
281
     0
  0
CLASS
  1
ACMDIMBREAKPERSREACTOR
  2
AcmDimBreakPersReactor
  3
amgDimApp().moduleName()
 90
     1023
280
     0
281
     0
  0
CLASS
  1
ACMSURFSYM
  2
AcmSurfaceTexture
  3
"AcmSymBB|Product Description: AutoCAD Mechanical 2000|Company: Autodesk"
 90
     1023
280
     0
281
     1
  0
CLASS
  1
ACMFCFRAME
  2
AcmFCF
  3
"AcmSymBB|Product Description: AutoCAD Mechanical 2000|Company: Autodesk"
 90
     1023
280
     0
281
     1
  0
CLASS
  1
LONG_TRANSACTION
  2
AcDbLongTransaction
  3
AutoCAD 2000
 90
        0
280
     0
281
     0
  0
CLASS
  1
LWPOLYLINE
  2
AcDbPolyline
  3
AutoCAD 2000
 90
        0
280
     0
281
     1
  0
CLASS
  1
HATCH
  2
AcDbHatch
  3
AutoCAD 2000
 90
        0
280
     0
281
     1
  0
CLASS
  1
XRECORD
  2
AcDbXrecord
  3
AutoCAD 2000
 90
        0
280
     0
281
     0
  0
ENDSEC
  0
SECTION
  2
TABLES
  0
TABLE
  2
VPORT
  5
8
330
0
100
AcDbSymbolTable
 70
    58
  0
VPORT
  5
3DE3
330
8
100
AcDbSymbolTableRecord
100
AcDbViewportTableRecord
  2
*ACTIVE
 70
     0
 10
0.0
 20
0.0
 11
1.0
 21
1.0
 12
181.5547545259943
 22
104.4385843940189
 13
0.0
 23
0.0
 14
2.5
 24
2.5
 15
10.0
 25
10.0
 16
0.0
 26
0.0
 36
1.0
 17
0.0
 27
0.0
 37
0.0
 40
389.4500540345685
 41
1.72607879924953
 42
50.0
 43
0.0
 44
0.0
 50
0.0
 51
0.0
 71
     0
 72
 10000
 73
     1
 74
     3
 75
     0
 76
     0
 77
     0
 78
     0
  0
ENDTAB
  0
TABLE
  2
LTYPE
  5
5
330
0
100
AcDbSymbolTable
 70
    16
  0
LTYPE
  5
14
330
5
100
AcDbSymbolTableRecord
100
AcDbLinetypeTableRecord
  2
BYBLOCK
 70
     0
  3

 72
    65
 73
     0
 40
0.0
  0
LTYPE
  5
15
330
5
100
AcDbSymbolTableRecord
100
AcDbLinetypeTableRecord
  2
BYLAYER
 70
     0
  3

 72
    65
 73
     0
 40
0.0
  0
LTYPE
  5
16
330
5
100
AcDbSymbolTableRecord
100
AcDbLinetypeTableRecord
  2
CONTINUOUS
 70
     0
  3
Solid line
 72
    65
 73
     0
 40
0.0
  0
LTYPE
  5
50
330
5
100
AcDbSymbolTableRecord
100
AcDbLinetypeTableRecord
  2
AMCONSTR
 70
     0
  3
_______________________
 72
    65
 73
     2
 40
9999.0
 49
9999.0
 74
     0
 49
0.0
 74
     0
  0
LTYPE
  5
55
330
5
100
AcDbSymbolTableRecord
100
AcDbLinetypeTableRecord
  2
AMZIGZAG
 70
     0
  3
/\/-/\/-/\/-/\/-/\/-/\/
 72
    65
 73
     2
 40
11.00009999999999
 49
0.0001
 74
     4
 75
   135
340
54
 46
0.04
 50
0.0
 44
0.0
 45
0.0
 49
-11.0
 74
     0
  0
LTYPE
  5
56
330
5
100
AcDbSymbolTableRecord
100
AcDbLinetypeTableRecord
  2
AM_DIN_F_W050
 70
     0
  3
__ __ __ __ __ __ __ __ __ __ __ __ __ __ __
 72
    65
 73
     2
 40
6.25
 49
4.75
 74
     0
 49
-1.5
 74
     0
  0
LTYPE
  5
57
330
5
100
AcDbSymbolTableRecord
100
AcDbLinetypeTableRecord
  2
AM_DIN_G_W050
 70
     0
  3
____ . ____ . ____ . ____ . ____ . ____ . ____
 72
    65
 73
     4
 40
13.75
 49
9.75
 74
     0
 49
-1.5
 74
     0
 49
1.0
 74
     0
 49
-1.5
 74
     0
  0
LTYPE
  5
58
330
5
100
AcDbSymbolTableRecord
100
AcDbLinetypeTableRecord
  2
AM_DIN_K_W050
 70
     0
  3
_____ . . _____ . . _____ . . ____ .. ____
 72
    65
 73
     6
 40
16.25
 49
9.75
 74
     0
 49
-1.5
 74
     0
 49
1.0
 74
     0
 49
-1.5
 74
     0
 49
1.0
 74
     0
 49
-1.5
 74
     0
  0
LTYPE
  5
59
330
5
100
AcDbSymbolTableRecord
100
AcDbLinetypeTableRecord
  2
AM_DIN_G_W050X2
 70
     0
  3
__ . __ . __ . __ . __ . __
 72
    65
 73
     4
 40
6.875
 49
4.75
 74
     0
 49
-0.875
 74
     0
 49
0.375
 74
     0
 49
-0.875
 74
     0
  0
LTYPE
  5
5A
330
5
100
AcDbSymbolTableRecord
100
AcDbLinetypeTableRecord
  2
AM_DIN_F_W050X2
 70
     0
  3
 _ _ _ _ _ _ _ _ _ _ _ _
 72
    65
 73
     2
 40
3.125
 49
2.25
 74
     0
 49
-0.875
 74
     0
  0
LTYPE
  5
68
330
5
100
AcDbSymbolTableRecord
100
AcDbLinetypeTableRecord
  2
ACDINWELD
 70
     0
  3
_ _ _ _ _
 72
    65
 73
     2
 40
2.0
 49
2.0
 74
     0
 49
-1.0
 74
     0
  0
LTYPE
  5
69
330
5
100
AcDbSymbolTableRecord
100
AcDbLinetypeTableRecord
  2
ACDINTGB
 70
     0
  3
__ . . __ . .
 72
    65
 73
     6
 40
9.0
 49
4.0
 74
     0
 49
-1.0
 74
     0
 49
1.0
 74
     0
 49
-1.0
 74
     0
 49
1.0
 74
     0
 49
-1.0
 74
     0
  0
LTYPE
  5
6A
330
5
100
AcDbSymbolTableRecord
100
AcDbLinetypeTableRecord
  2
ACDINTGL
 70
     0
  3
_ _ _ _ _
 72
    65
 73
     2
 40
3.0
 49
2.0
 74
     0
 49
-1.0
 74
     0
  0
LTYPE
  5
6C
330
5
100
AcDbSymbolTableRecord
100
AcDbLinetypeTableRecord
  2
CENTER
 70
     0
  3
__ . __
 72
    65
 73
     4
 40
7.0
 49
4.0
 74
     0
 49
-1.0
 74
     0
 49
1.0
 74
     0
 49
-1.0
 74
     0
  0
LTYPE
  5
1E2C
330
5
100
AcDbSymbolTableRecord
100
AcDbLinetypeTableRecord
  2
PHANTOM2
 70
     0
  3
Phantom (.5x) ___ _ _ ___ _ _ ___ _ _ ___ _ _
 72
    65
 73
     6
 40
1.25
 49
0.625
 74
     0
 49
-0.125
 74
     0
 49
0.125
 74
     0
 49
-0.125
 74
     0
 49
0.125
 74
     0
 49
-0.125
 74
     0
  0
LTYPE
  5
1E2D
330
5
100
AcDbSymbolTableRecord
100
AcDbLinetypeTableRecord
  2
ACANSTGB
 70
     0
  3
__ . . __ . .
 72
    65
 73
     6
 40
0.35433070866
 49
0.15748031496
 74
     0
 49
-0.03937007874
 74
     0
 49
0.03937007874
 74
     0
 49
-0.03937007874
 74
     0
 49
0.03937007874
 74
     0
 49
-0.03937007874
 74
     0
  0
LTYPE
  5
1E2E
330
5
100
AcDbSymbolTableRecord
100
AcDbLinetypeTableRecord
  2
ACANSTGL
 70
     0
  3
_ _ _ _ _
 72
    65
 73
     2
 40
0.11811023622
 49
0.07874015748
 74
     0
 49
-0.03937007874
 74
     0
  0
LTYPE
  5
1E2F
330
5
100
AcDbSymbolTableRecord
100
AcDbLinetypeTableRecord
  2
DASHED
 70
     0
  3
__ __ __ __ __ __ __ __ __ __ __ __ __ __ __ __
 72
    65
 73
     2
 40
19.05
 49
12.7
 74
     0
 49
-6.349999999999998
 74
     0
  0
ENDTAB
  0
TABLE
  2
LAYER
  5
2
330
0
100
AcDbSymbolTable
 70
    12
  0
LAYER
  5
10
330
2
100
AcDbSymbolTableRecord
100
AcDbLayerTableRecord
  2
0
 70
     0
 62
     7
  6
CONTINUOUS
  0
LAYER
  5
263
330
2
100
AcDbSymbolTableRecord
100
AcDbLayerTableRecord
  2
DEFPOINTS
 70
     0
 62
     7
  6
CONTINUOUS
  0
LAYER
  5
1E30
330
2
100
AcDbSymbolTableRecord
100
AcDbLayerTableRecord
  2
1
 70
     0
 62
     4
  6
CONTINUOUS
  0
LAYER
  5
1E31
330
2
100
AcDbSymbolTableRecord
100
AcDbLayerTableRecord
  2
2
 70
     0
 62
     7
  6
CONTINUOUS
  0
LAYER
  5
1E32
330
2
100
AcDbSymbolTableRecord
100
AcDbLayerTableRecord
  2
4
 70
     0
 62
     2
  6
CENTER
  0
LAYER
  5
1E33
330
2
100
AcDbSymbolTableRecord
100
AcDbLayerTableRecord
  2
6
 70
     0
 62
     5
  6
CONTINUOUS
  0
LAYER
  5
1E34
330
2
100
AcDbSymbolTableRecord
100
AcDbLayerTableRecord
  2
SK1
 70
     0
 62
     4
  6
CONTINUOUS
  0
LAYER
  5
1E35
330
2
100
AcDbSymbolTableRecord
100
AcDbLayerTableRecord
  2
SK2
 70
     0
 62
     7
  6
CONTINUOUS
  0
LAYER
  5
1E36
330
2
100
AcDbSymbolTableRecord
100
AcDbLayerTableRecord
  2
SK3
 70
     0
 62
     1
  6
DASHED
  0
LAYER
  5
1E38
330
2
100
AcDbSymbolTableRecord
100
AcDbLayerTableRecord
  2
NOCUT
 70
     0
 62
     7
  6
CONTINUOUS
  0
LAYER
  5
2E80
330
2
100
AcDbSymbolTableRecord
100
AcDbLayerTableRecord
  2
SK4
 70
     0
 62
     2
  6
CENTER
  0
ENDTAB
  0
TABLE
  2
STYLE
  5
3
330
0
100
AcDbSymbolTable
 70
     6
  0
STYLE
  5
11
330
3
100
AcDbSymbolTableRecord
100
AcDbTextStyleTableRecord
  2
STANDARD
 70
     0
 40
0.0
 41
1.0
 50
0.0
 71
     0
 42
2.5
  3
ISOCP.SHX
  4

  0
STYLE
  5
54
330
3
100
AcDbSymbolTableRecord
100
AcDbTextStyleTableRecord
  2

 70
     1
 40
0.0
 41
1.0
 50
0.0
 71
     0
 42
2.5
  3
ltypeshp.shx
  4

  0
STYLE
  5
5B
330
3
100
AcDbSymbolTableRecord
100
AcDbTextStyleTableRecord
  2
ACDINTS
 70
     0
 40
1.0
 41
1.0
 50
0.0
 71
     0
 42
2.5
  3
isocp.shx
  4

  0
STYLE
  5
67
330
3
100
AcDbSymbolTableRecord
100
AcDbTextStyleTableRecord
  2
ACDINGDT
 70
     0
 40
0.0
 41
1.0
 50
0.0
 71
     0
 42
2.5
  3
amgdt.shx
  4

  0
STYLE
  5
1E39
330
3
100
AcDbSymbolTableRecord
100
AcDbTextStyleTableRecord
  2
ACANSTS
 70
     0
 40
1.0
 41
1.0
 50
0.0
 71
     0
 42
0.2
  3
romans.shx
  4

  0
STYLE
  5
1E3A
330
3
100
AcDbSymbolTableRecord
100
AcDbTextStyleTableRecord
  2
ACANSGDT
 70
     0
 40
0.0
 41
1.0
 50
0.0
 71
     0
 42
0.2
  3
amgdtans.shx
  4

  0
ENDTAB
  0
TABLE
  2
VIEW
  5
6
330
0
100
AcDbSymbolTable
 70
     0
  0
ENDTAB
  0
TABLE
  2
UCS
  5
7
330
0
100
AcDbSymbolTable
 70
     0
  0
ENDTAB
  0
TABLE
  2
APPID
  5
9
330
0
100
AcDbSymbolTable
 70
    67
  0
APPID
  5
12
330
9
100
AcDbSymbolTableRecord
100
AcDbRegAppTableRecord
  2
ACAD
 70
     0
  0
APPID
  5
2C
330
9
100
AcDbSymbolTableRecord
100
AcDbRegAppTableRecord
  2
MCAD_NO_VIS
 70
     0
  0
APPID
  5
2D
330
9
100
AcDbSymbolTableRecord
100
AcDbRegAppTableRecord
  2
ACAD_TEMP_GRAPHIC
 70
     0
  0
APPID
  5
3E
330
9
100
AcDbSymbolTableRecord
100
AcDbRegAppTableRecord
  2
ACATTRIBSERVICES
 70
     0
  0
APPID
  5
29A
330
9
100
AcDbSymbolTableRecord
100
AcDbRegAppTableRecord
  2
GENIUS_GENDIMSH_14
 70
     0
  0
APPID
  5
588
330
9
100
AcDbSymbolTableRecord
100
AcDbRegAppTableRecord
  2
GENIUS12
 70
     0
  0
APPID
  5
589
330
9
100
AcDbSymbolTableRecord
100
AcDbRegAppTableRecord
  2
GENIUS_GENOENT_13
 70
     0
  0
APPID
  5
58A
330
9
100
AcDbSymbolTableRecord
100
AcDbRegAppTableRecord
  2
GENIUS_GENODEF_13
 70
     0
  0
APPID
  5
58B
330
9
100
AcDbSymbolTableRecord
100
AcDbRegAppTableRecord
  2
GENIUS_GENOBJ-N-RSBK_13
 70
     0
  0
APPID
  5
58C
330
9
100
AcDbSymbolTableRecord
100
AcDbRegAppTableRecord
  2
GENIUS_GENOBJ-N-DIM12_13
 70
     0
  0
APPID
  5
58D
330
9
100
AcDbSymbolTableRecord
100
AcDbRegAppTableRecord
  2
GENIUS_GENSCALE_13
 70
     0
  0
APPID
  5
58E
330
9
100
AcDbSymbolTableRecord
100
AcDbRegAppTableRecord
  2
GENIUS_GENCFG_13
 70
     0
  0
APPID
  5
58F
330
9
100
AcDbSymbolTableRecord
100
AcDbRegAppTableRecord
  2
GENIUS_GENCFG0_13
 70
     0
  0
APPID
  5
590
330
9
100
AcDbSymbolTableRecord
100
AcDbRegAppTableRecord
  2
GENIUS_GENCFG1_13
 70
     0
  0
APPID
  5
591
330
9
100
AcDbSymbolTableRecord
100
AcDbRegAppTableRecord
  2
GENIUS_GENCFG2_13
 70
     0
  0
APPID
  5
592
330
9
100
AcDbSymbolTableRecord
100
AcDbRegAppTableRecord
  2
GENIUS_GENCFG3_13
 70
     0
  0
APPID
  5
593
330
9
100
AcDbSymbolTableRecord
100
AcDbRegAppTableRecord
  2
GENIUS_GENCFG4_13
 70
     0
  0
APPID
  5
594
330
9
100
AcDbSymbolTableRecord
100
AcDbRegAppTableRecord
  2
GENIUS_GEVCFG0_13
 70
     0
  0
APPID
  5
595
330
9
100
AcDbSymbolTableRecord
100
AcDbRegAppTableRecord
  2
GENIUS_GENOBJ-F-SUF_13
 70
     0
  0
APPID
  5
596
330
9
100
AcDbSymbolTableRecord
100
AcDbRegAppTableRecord
  2
GENIUS_GEFCFG0_13
 70
     0
  0
APPID
  5
597
330
9
100
AcDbSymbolTableRecord
100
AcDbRegAppTableRecord
  2
GEV_VCCNULL_SWITCH_OFF
 70
     0
  0
APPID
  5
598
330
9
100
AcDbSymbolTableRecord
100
AcDbRegAppTableRecord
  2
GENIUS_GENDTOL_13
 70
     0
  0
APPID
  5
599
330
9
100
AcDbSymbolTableRecord
100
AcDbRegAppTableRecord
  2
GENIUS_GENDIM_13
 70
     0
  0
APPID
  5
59A
330
9
100
AcDbSymbolTableRecord
100
AcDbRegAppTableRecord
  2
GENIUS_GE3DTOL_13
 70
     0
  0
APPID
  5
59B
330
9
100
AcDbSymbolTableRecord
100
AcDbRegAppTableRecord
  2
AD_DRAW
 70
     0
  0
APPID
  5
59C
330
9
100
AcDbSymbolTableRecord
100
AcDbRegAppTableRecord
  2
ASURF_PCURVE_APPNAME
 70
     0
  0
APPID
  5
59D
330
9
100
AcDbSymbolTableRecord
100
AcDbRegAppTableRecord
  2
AMG_3D2D_5_0
 70
     0
  0
APPID
  5
59E
330
9
100
AcDbSymbolTableRecord
100
AcDbRegAppTableRecord
  2
DESIGNERASSEMBLIES
 70
     0
  0
APPID
  5
59F
330
9
100
AcDbSymbolTableRecord
100
AcDbRegAppTableRecord
  2
ACADM_DIM_EDIT
 70
     0
  0
APPID
  5
5A0
330
9
100
AcDbSymbolTableRecord
100
AcDbRegAppTableRecord
  2
AMDT_DM_ADJ
 70
     0
  0
APPID
  5
5A1
330
9
100
AcDbSymbolTableRecord
100
AcDbRegAppTableRecord
  2
GENIUS_GENSCREG_15
 70
     0
  0
APPID
  5
5A2
330
9
100
AcDbSymbolTableRecord
100
AcDbRegAppTableRecord
  2
GENIUS_GENOBJ-N-SDF_13
 70
     0
  0
APPID
  5
6E4
330
9
100
AcDbSymbolTableRecord
100
AcDbRegAppTableRecord
  2
GENIUS_GENOBJ-N-FIL_13
 70
     0
  0
APPID
  5
C65
330
9
100
AcDbSymbolTableRecord
100
AcDbRegAppTableRecord
  2
GENIUS_GENHINW_13
 70
     0
  0
APPID
  5
C66
330
9
100
AcDbSymbolTableRecord
100
AcDbRegAppTableRecord
  2
GENIUS_GENOBJ-F-TOLL_13
 70
     0
  0
APPID
  5
C67
330
9
100
AcDbSymbolTableRecord
100
AcDbRegAppTableRecord
  2
GENIUS_GENOREF_13
 70
     0
  0
APPID
  5
C68
330
9
100
AcDbSymbolTableRecord
100
AcDbRegAppTableRecord
  2
GENIUS_GENOLIS_13
 70
     0
  0
APPID
  5
C69
330
9
100
AcDbSymbolTableRecord
100
AcDbRegAppTableRecord
  2
GENIUS_GEFTOLC_13
 70
     0
  0
APPID
  5
C6A
330
9
100
AcDbSymbolTableRecord
100
AcDbRegAppTableRecord
  2
GENIUS_GENOBJ-F-TOL_13
 70
     0
  0
APPID
  5
C6B
330
9
100
AcDbSymbolTableRecord
100
AcDbRegAppTableRecord
  2
GENIUS_GENOBJ-N-RSSYM_13
 70
     0
  0
APPID
  5
C6C
330
9
100
AcDbSymbolTableRecord
100
AcDbRegAppTableRecord
  2
GENIUS_GENSYMENT_13
 70
     0
  0
APPID
  5
C6D
330
9
100
AcDbSymbolTableRecord
100
AcDbRegAppTableRecord
  2
GENIUS_GENSCSYM_13
 70
     0
  0
APPID
  5
1E42
330
9
100
AcDbSymbolTableRecord
100
AcDbRegAppTableRecord
  2
GENIUS_GENBLLY_14
 70
     0
  0
APPID
  5
1E43
330
9
100
AcDbSymbolTableRecord
100
AcDbRegAppTableRecord
  2
GENIUS_GENTRA_14
 70
     0
  0
APPID
  5
1E44
330
9
100
AcDbSymbolTableRecord
100
AcDbRegAppTableRecord
  2
GENIUS_GENOBJ-N-TIT_13
 70
     0
  0
APPID
  5
1E45
330
9
100
AcDbSymbolTableRecord
100
AcDbRegAppTableRecord
  2
GENIUS_GENTITLE_13
 70
     0
  0
APPID
  5
1E46
330
9
100
AcDbSymbolTableRecord
100
AcDbRegAppTableRecord
  2
ACADIGES
 70
     0
  0
APPID
  5
1E47
330
9
100
AcDbSymbolTableRecord
100
AcDbRegAppTableRecord
  2
GENIUS_GENOBJ-N-HTC_13
 70
     0
  0
APPID
  5
1E48
330
9
100
AcDbSymbolTableRecord
100
AcDbRegAppTableRecord
  2
GENIUS_GENHATCH_13
 70
     0
  0
APPID
  5
1E49
330
9
100
AcDbSymbolTableRecord
100
AcDbRegAppTableRecord
  2
GENIUS_GENOBJ-N-CRS_13
 70
     0
  0
APPID
  5
1E4A
330
9
100
AcDbSymbolTableRecord
100
AcDbRegAppTableRecord
  2
GENIUS_GENFIL_13
 70
     0
  0
APPID
  5
1E4B
330
9
100
AcDbSymbolTableRecord
100
AcDbRegAppTableRecord
  2
GENIUS_GENOBJ-N-CHA_13
 70
     0
  0
APPID
  5
1E4C
330
9
100
AcDbSymbolTableRecord
100
AcDbRegAppTableRecord
  2
GENIUS_GENOBJ-N-CEN_13
 70
     0
  0
APPID
  5
28E0
330
9
100
AcDbSymbolTableRecord
100
AcDbRegAppTableRecord
  2
AD_SKETCHDIM
 70
     0
  0
APPID
  5
2B2E
330
9
100
AcDbSymbolTableRecord
100
AcDbRegAppTableRecord
  2
GENIUS_FIRSTVISTXT_14
 70
     0
  0
APPID
  5
2B2F
330
9
100
AcDbSymbolTableRecord
100
AcDbRegAppTableRecord
  2
GENIUS_SECONDVISTXT_14
 70
     0
  0
APPID
  5
2B30
330
9
100
AcDbSymbolTableRecord
100
AcDbRegAppTableRecord
  2
GENIUS_GENOBJ-N-HINW_13
 70
     0
  0
APPID
  5
2B31
330
9
100
AcDbSymbolTableRecord
100
AcDbRegAppTableRecord
  2
GENIUS_GENOBJ-N-PAL_13
 70
     0
  0
APPID
  5
2B32
330
9
100
AcDbSymbolTableRecord
100
AcDbRegAppTableRecord
  2
GENIUS_GENPAL_13
 70
     0
  0
APPID
  5
2B33
330
9
100
AcDbSymbolTableRecord
100
AcDbRegAppTableRecord
  2
GENIUS_GENSCREG_13
 70
     0
  0
APPID
  5
2B34
330
9
100
AcDbSymbolTableRecord
100
AcDbRegAppTableRecord
  2
GENIUS_GE3CFG0_13
 70
     0
  0
APPID
  5
2B35
330
9
100
AcDbSymbolTableRecord
100
AcDbRegAppTableRecord
  2
GENIUS_GENOBJ-F-EDG_13
 70
     0
  0
APPID
  5
2B36
330
9
100
AcDbSymbolTableRecord
100
AcDbRegAppTableRecord
  2
GENIUS_GENOBJ-F-TOLT_13
 70
     0
  0
APPID
  5
2B37
330
9
100
AcDbSymbolTableRecord
100
AcDbRegAppTableRecord
  2
GENIUS_GENZVEED_13
 70
     0
  0
APPID
  5
2B38
330
9
100
AcDbSymbolTableRecord
100
AcDbRegAppTableRecord
  2
GENIUS_GENREC_14
 70
     0
  0
APPID
  5
2B39
330
9
100
AcDbSymbolTableRecord
100
AcDbRegAppTableRecord
  2
GENIUS_GENOBJ-N-REC_13
 70
     0
  0
APPID
  5
2B3A
330
9
100
AcDbSymbolTableRecord
100
AcDbRegAppTableRecord
  2
GENIUS_DUMCFG0_13
 70
     0
  0
ENDTAB
  0
TABLE
  2
DIMSTYLE
  5
A
330
0
100
AcDbSymbolTable
 70
    14
  0
DIMSTYLE
105
6F
102
{ACAD_REACTORS
330
3B9D
330
3BCE
330
3C20
330
3C49
330
3D0E
330
3D8C
102
}
330
A
100
AcDbSymbolTableRecord
100
AcDbDimStyleTableRecord
  2
AM_DIN
 70
     0
  3

  4
"
  5

  6

  7

 40
1.0
 41
2.5
 42
0.0
 43
10.0
 44
1.0
 45
0.0
 46
0.0
 47
0.1
 48
0.1
140
3.5
141
0.0
142
0.0
143
0.0393701
144
1.0
145
0.0
146
0.71
147
1.5
 71
     0
 72
     0
 73
     0
 74
     0
 75
     0
 76
     0
 77
     1
 78
     8
170
     0
171
     2
172
     1
173
     0
174
     0
175
     0
176
   256
177
   256
178
     2
270
     2
271
     2
272
     2
273
     2
274
     2
340
11
275
     0
280
     0
281
     0
282
     0
283
     0
284
     8
285
     0
286
     0
287
     3
288
     0
  0
DIMSTYLE
105
70
330
A
100
AcDbSymbolTableRecord
100
AcDbDimStyleTableRecord
  2
AM_DIN$3
 70
     0
  3

  4
"
  5

  6

  7

 40
1.0
 41
3.5
 42
0.0
 43
10.0
 44
1.0
 45
0.0
 46
0.0
 47
0.1
 48
0.1
140
3.5
141
0.0
142
0.0
143
0.0393701
144
1.0
145
0.0
146
0.71
147
1.5
 71
     0
 72
     0
 73
     0
 74
     1
 75
     0
 76
     0
 77
     1
 78
     8
170
     0
171
     2
172
     0
173
     0
174
     0
175
     0
176
   256
177
   256
178
     2
270
     2
271
     2
272
     2
273
     2
274
     2
340
11
275
     0
280
     0
281
     0
282
     0
283
     0
284
     8
285
     0
286
     0
287
     0
288
     1
  0
DIMSTYLE
105
71
330
A
100
AcDbSymbolTableRecord
100
AcDbDimStyleTableRecord
  2
AM_DIN$4
 70
     0
  3

  4
"
  5

  6

  7

 40
1.0
 41
3.5
 42
0.0
 43
10.0
 44
1.0
 45
0.0
 46
0.0
 47
0.1
 48
0.1
140
3.5
141
0.0
142
0.0
143
0.0393701
144
1.0
145
0.0
146
0.71
147
1.5
 71
     0
 72
     0
 73
     0
 74
     1
 75
     0
 76
     0
 77
     1
 78
     8
170
     0
171
     2
172
     0
173
     0
174
     0
175
     0
176
   256
177
   256
178
     2
270
     2
271
     2
272
     2
273
     2
274
     2
340
11
275
     0
280
     0
281
     0
282
     0
283
     0
284
     8
285
     0
286
     0
287
     0
288
     1
  0
DIMSTYLE
105
72
330
A
100
AcDbSymbolTableRecord
100
AcDbDimStyleTableRecord
  2
AM_DIN$6
 70
     0
  3

  4
"
  5

  6

  7

 40
1.0
 41
3.5
 42
0.0
 43
0.0
 44
1.0
 45
0.0
 46
0.0
 47
0.1
 48
0.1
140
3.5
141
0.0
142
0.0
143
0.0393701
144
1.0
145
0.0
146
0.71
147
1.5
 71
     0
 72
     0
 73
     0
 74
     0
 75
     0
 76
     0
 77
     0
 78
     8
170
     0
171
     2
172
     1
173
     0
174
     0
175
     0
176
   256
177
   256
178
     2
270
     2
271
     2
272
     2
273
     2
274
     2
340
11
275
     0
280
     0
281
     0
282
     0
283
     0
284
     8
285
     0
286
     0
287
     3
288
     0
  0
DIMSTYLE
105
73
330
A
100
AcDbSymbolTableRecord
100
AcDbDimStyleTableRecord
  2
AM_DIN$7
 70
     0
  3

  4
"
  5

  6

  7

 40
1.0
 41
3.5
 42
0.0
 43
10.0
 44
1.0
 45
0.0
 46
0.0
 47
0.1
 48
0.1
140
3.5
141
0.0
142
0.0
143
0.0393701
144
1.0
145
0.0
146
0.71
147
1.5
 71
     0
 72
     0
 73
     0
 74
     0
 75
     0
 76
     0
 77
     1
 78
     8
170
     0
171
     2
172
     1
173
     0
174
     0
175
     0
176
   256
177
   256
178
     2
270
     2
271
     2
272
     2
273
     2
274
     2
340
11
275
     0
280
     0
281
     0
282
     0
283
     0
284
     8
285
     0
286
     0
287
     3
288
     0
  0
DIMSTYLE
105
74
330
A
100
AcDbSymbolTableRecord
100
AcDbDimStyleTableRecord
  2
AM_DIN$SF
 70
     0
  3

  4
"
  5

  6

  7

 40
1.0
 41
2.5
 42
1.0
 43
10.0
 44
1.0
 45
0.0
 46
0.0
 47
0.1
 48
0.1
140
3.5
141
0.0
142
0.0
143
0.0393701
144
1.0
145
0.0
146
0.71
147
1.5
 71
     0
 72
     0
 73
     0
 74
     0
 75
     1
 76
     1
 77
     1
 78
     8
170
     0
171
     2
172
     1
173
     0
174
     0
175
     0
176
   256
177
   256
178
     2
270
     2
271
     2
272
     3
273
     2
274
     4
340
11
275
     0
280
     0
281
     0
282
     0
283
     0
284
     8
285
     0
286
     0
287
     3
288
     0
  0
DIMSTYLE
105
79
330
A
100
AcDbSymbolTableRecord
100
AcDbDimStyleTableRecord
  2
AM_DIN$SH
 70
     0
  3

  4
"
  5

  6
GENAXEH
  7

 40
1.0
 41
2.5
 42
1.0
 43
10.0
 44
1.0
 45
0.0
 46
0.0
 47
0.1
 48
0.1
140
3.5
141
0.0
142
0.0
143
0.0393701
144
2.0
145
0.0
146
0.71
147
1.5
 71
     0
 72
     0
 73
     0
 74
     0
 75
     1
 76
     1
 77
     1
 78
     8
170
     0
171
     2
172
     1
173
     1
174
     0
175
     0
176
   256
177
   256
178
     2
270
     2
271
     2
272
     3
273
     2
274
     4
340
11
275
     0
280
     0
281
     0
282
     0
283
     0
284
     8
285
     0
286
     0
287
     3
288
     0
  0
DIMSTYLE
105
1E3B
330
A
100
AcDbSymbolTableRecord
100
AcDbDimStyleTableRecord
  2
STANDARD
 70
     0
  3

  4

  5

  6

  7

 40
1.0
 41
0.18
 42
0.0625
 43
0.38
 44
0.18
 45
0.0
 46
0.0
 47
0.0
 48
0.0
140
0.18
141
0.09
142
0.0
143
25.4
144
1.0
145
0.0
146
1.0
147
0.09
 71
     0
 72
     0
 73
     1
 74
     1
 75
     0
 76
     0
 77
     0
 78
     0
170
     0
171
     2
172
     0
173
     0
174
     0
175
     0
176
     0
177
     0
178
     0
270
     2
271
     2
272
     2
273
     2
274
     2
340
11
275
     0
280
     0
281
     0
282
     0
283
     1
284
     8
285
     8
286
     8
287
     5
288
     0
  0
DIMSTYLE
105
1E3C
330
A
100
AcDbSymbolTableRecord
100
AcDbDimStyleTableRecord
  2
AM_ANSI
 70
     0
  3

  4
mm
  5

  6

  7

 40
1.0
 41
0.1
 42
0.0
 43
0.5
 44
0.1
 45
0.0
 46
0.0
 47
0.1
 48
0.1
140
0.12
141
0.0
142
0.0
143
25.4
144
1.0
145
0.0
146
0.71
147
0.06
 71
     0
 72
     0
 73
     1
 74
     1
 75
     0
 76
     0
 77
     0
 78
     7
170
     0
171
     2
172
     0
173
     0
174
     0
175
     0
176
   256
177
   256
178
     2
270
     2
271
     2
272
     2
273
     2
274
     2
340
11
275
     0
280
     0
281
     0
282
     0
283
     1
284
     8
285
     8
286
     8
287
     5
288
     0
  0
DIMSTYLE
105
1E3D
330
A
100
AcDbSymbolTableRecord
100
AcDbDimStyleTableRecord
  2
AM_ANSI$3
 70
     0
  3

  4
mm
  5

  6

  7

 40
1.0
 41
0.1
 42
0.0
 43
0.5
 44
0.1
 45
0.0
 46
0.0
 47
0.1
 48
0.1
140
0.12
141
0.0
142
0.0
143
25.4
144
1.0
145
0.0
146
0.71
147
0.06
 71
     0
 72
     0
 73
     1
 74
     1
 75
     0
 76
     0
 77
     0
 78
     7
170
     0
171
     2
172
     0
173
     0
174
     0
175
     0
176
   256
177
   256
178
     2
270
     2
271
     2
272
     2
273
     2
274
     2
340
11
275
     0
280
     0
281
     0
282
     0
283
     1
284
     8
285
     8
286
     8
287
     5
288
     0
  0
DIMSTYLE
105
1E3E
330
A
100
AcDbSymbolTableRecord
100
AcDbDimStyleTableRecord
  2
AM_ANSI$4
 70
     0
  3

  4
mm
  5

  6

  7

 40
1.0
 41
0.1
 42
0.0
 43
0.5
 44
0.1
 45
0.0
 46
0.0
 47
0.1
 48
0.1
140
0.12
141
0.0
142
0.0
143
25.4
144
1.0
145
0.0
146
0.71
147
0.06
 71
     0
 72
     0
 73
     1
 74
     1
 75
     0
 76
     0
 77
     0
 78
     7
170
     0
171
     2
172
     0
173
     0
174
     0
175
     0
176
   256
177
   256
178
     2
270
     2
271
     2
272
     2
273
     2
274
     2
340
11
275
     0
280
     0
281
     0
282
     0
283
     1
284
     8
285
     8
286
     8
287
     5
288
     0
  0
DIMSTYLE
105
1E3F
330
A
100
AcDbSymbolTableRecord
100
AcDbDimStyleTableRecord
  2
AM_ANSI$7
 70
     0
  3

  4
mm
  5

  6

  7

 40
1.0
 41
0.1
 42
0.0
 43
0.5
 44
0.1
 45
0.0
 46
0.0
 47
0.1
 48
0.1
140
0.24
141
0.0
142
0.0
143
25.4
144
1.0
145
0.0
146
0.71
147
0.06
 71
     0
 72
     0
 73
     1
 74
     1
 75
     0
 76
     0
 77
     0
 78
     7
170
     0
171
     2
172
     0
173
     0
174
     0
175
     0
176
   256
177
   256
178
     2
270
     2
271
     2
272
     2
273
     2
274
     2
340
11
275
     0
280
     0
281
     0
282
     0
283
     1
284
     8
285
     8
286
     8
287
     5
288
     0
  0
DIMSTYLE
105
1E40
330
A
100
AcDbSymbolTableRecord
100
AcDbDimStyleTableRecord
  2
AM_ANSI$SF
 70
     0
  3

  4
mm
  5

  6

  7

 40
1.0
 41
0.1
 42
0.05
 43
0.5
 44
0.1
 45
0.0
 46
0.0
 47
0.1
 48
0.1
140
0.12
141
0.0
142
0.0
143
25.4
144
1.0
145
0.0
146
0.71
147
0.06
 71
     0
 72
     0
 73
     1
 74
     1
 75
     1
 76
     1
 77
     0
 78
     7
170
     0
171
     2
172
     0
173
     0
174
     0
175
     0
176
   256
177
   256
178
     2
270
     2
271
     2
272
     2
273
     2
274
     2
340
11
275
     0
280
     0
281
     0
282
     0
283
     1
284
     8
285
     8
286
     8
287
     5
288
     0
  0
DIMSTYLE
105
1E41
330
A
100
AcDbSymbolTableRecord
100
AcDbDimStyleTableRecord
  2
AM_ANSI$SH
 70
     0
  3

  4
mm
  5

  6

  7

 40
1.0
 41
0.1
 42
0.05
 43
0.5
 44
0.1
 45
0.0
 46
0.0
 47
0.1
 48
0.1
140
0.12
141
0.0
142
0.0
143
25.4
144
1.0
145
0.0
146
0.71
147
0.06
 71
     0
 72
     0
 73
     1
 74
     1
 75
     1
 76
     1
 77
     0
 78
     7
170
     0
171
     2
172
     0
173
     1
174
     0
175
     0
176
   256
177
   256
178
     2
270
     2
271
     2
272
     2
273
     2
274
     2
340
11
275
     0
280
     0
281
     0
282
     0
283
     1
284
     8
285
     8
286
     8
287
     5
288
     0
  0
ENDTAB
  0
TABLE
  2
BLOCK_RECORD
  5
1
330
0
100
AcDbSymbolTable
 70
     8
  0
BLOCK_RECORD
  5
1F
102
{ACAD_XDICTIONARY
360
1F1
102
}
330
1
100
AcDbSymbolTableRecord
100
AcDbBlockTableRecord
  2
*MODEL_SPACE
  0
BLOCK_RECORD
  5
1B
102
{ACAD_XDICTIONARY
360
3E05
102
}
330
1
100
AcDbSymbolTableRecord
100
AcDbBlockTableRecord
  2
*PAPER_SPACE
  0
BLOCK_RECORD
  5
75
330
1
100
AcDbSymbolTableRecord
100
AcDbBlockTableRecord
  2
GENAXEH
  0
BLOCK_RECORD
  5
3B9E
330
1
100
AcDbSymbolTableRecord
100
AcDbBlockTableRecord
  2
*D2
  0
BLOCK_RECORD
  5
3BCF
330
1
100
AcDbSymbolTableRecord
100
AcDbBlockTableRecord
  2
*D3
  0
BLOCK_RECORD
  5
3C21
330
1
100
AcDbSymbolTableRecord
100
AcDbBlockTableRecord
  2
*D4
  0
BLOCK_RECORD
  5
3C4A
330
1
100
AcDbSymbolTableRecord
100
AcDbBlockTableRecord
  2
*D5
  0
BLOCK_RECORD
  5
3D0F
330
1
100
AcDbSymbolTableRecord
100
AcDbBlockTableRecord
  2
*D6
  0
BLOCK_RECORD
  5
3D8D
330
1
100
AcDbSymbolTableRecord
100
AcDbBlockTableRecord
  2
*D7
  0
ENDTAB
  0
ENDSEC
  0
SECTION
  2
BLOCKS
  0
BLOCK
  5
20
330
1F
100
AcDbEntity
  8
0
100
AcDbBlockBegin
  2
*MODEL_SPACE
 70
     0
 10
0.0
 20
0.0
 30
0.0
  3
*MODEL_SPACE
  1

  0
ENDBLK
  5
21
330
1F
100
AcDbEntity
  8
0
100
AcDbBlockEnd
  0
BLOCK
  5
1C
330
1B
100
AcDbEntity
 67
     1
  8
0
100
AcDbBlockBegin
  2
*PAPER_SPACE
 70
     0
 10
0.0
 20
0.0
 30
0.0
  3
*PAPER_SPACE
  1

  0
ENDBLK
  5
1D
330
1B
100
AcDbEntity
 67
     1
  8
0
100
AcDbBlockEnd
  0
BLOCK
  5
77
330
75
100
AcDbEntity
  8
0
100
AcDbBlockBegin
  2
GENAXEH
 70
     0
 10
0.0
 20
0.0
 30
0.0
  3
GENAXEH
  1

  0
LINE
  5
76
330
75
100
AcDbEntity
  8
0
100
AcDbLine
 10
-1.0
 20
0.0
 30
0.0
 11
1.0
 21
0.0
 31
0.0
  0
ENDBLK
  5
78
330
75
100
AcDbEntity
  8
0
100
AcDbBlockEnd
  0
BLOCK
  5
3BA8
330
3B9E
100
AcDbEntity
  8
0
100
AcDbBlockBegin
  2
*D2
 70
     1
 10
0.0
 20
0.0
 30
0.0
  3
*D2
  1

  0
LINE
  5
3D50
330
3B9E
100
AcDbEntity
  8
SK2
100
AcDbLine
 10
0.0000000000001137
 20
20.00000000000295
 30
0.0
 11
-16.53052407888798
 21
20.00000000000296
 31
0.0
  0
LINE
  5
3D51
330
3B9E
100
AcDbEntity
  8
SK2
100
AcDbLine
 10
0.0000000000001137
 20
-20.00000000000295
 30
0.0
 11
-16.53052407888799
 21
-20.00000000000295
 31
0.0
  0
LINE
  5
3D52
330
3B9E
100
AcDbEntity
  8
SK2
100
AcDbLine
 10
-15.53052407888799
 20
17.50000000000295
 30
0.0
 11
-15.53052407888799
 21
-17.50000000000295
 31
0.0
  0
SOLID
  5
3D53
330
3B9E
100
AcDbEntity
  8
SK2
100
AcDbTrace
 10
-15.94719074555465
 20
17.50000000000295
 30
0.0
 11
-15.11385741222132
 21
17.50000000000295
 31
0.0
 12
-15.53052407888798
 22
20.00000000000296
 32
0.0
 13
-15.53052407888798
 23
20.00000000000296
 33
0.0
  0
SOLID
  5
3D54
330
3B9E
100
AcDbEntity
  8
SK2
100
AcDbTrace
 10
-15.94719074555466
 20
-17.50000000000295
 30
0.0
 11
-15.11385741222133
 21
-17.50000000000295
 31
0.0
 12
-15.53052407888799
 22
-20.00000000000295
 32
0.0
 13
-15.53052407888799
 23
-20.00000000000295
 33
0.0
  0
MTEXT
  5
3D55
330
3B9E
100
AcDbEntity
  8
SK2
 62
     2
100
AcDbMText
 10
-18.78052407888799
 20
0.1351659566174707
 30
0.0
 40
3.5
 41
0.0
 71
     5
 72
     1
  1
%%c40
 11
0.0000000000000001
 21
1.0
 31
0.0
1001
ACAD
1000
MTEXTBEGIN
1070
    73
1070
     1
1070
    44
1040
1.0
1070
    74
1070
     0
1000
MTEXTEND
  0
POINT
  5
3D56
330
3B9E
100
AcDbEntity
  8
DEFPOINTS
 62
     0
100
AcDbPoint
 10
0.0000000000001137
 20
20.00000000000295
 30
0.0
  0
POINT
  5
3D57
330
3B9E
100
AcDbEntity
  8
DEFPOINTS
 62
     0
100
AcDbPoint
 10
0.0000000000001137
 20
-20.00000000000295
 30
0.0
  0
POINT
  5
3D58
330
3B9E
100
AcDbEntity
  8
DEFPOINTS
 62
     0
100
AcDbPoint
 10
-15.53052407888799
 20
-20.00000000000295
 30
0.0
  0
ENDBLK
  5
3BA9
330
3B9E
100
AcDbEntity
  8
0
100
AcDbBlockEnd
  0
BLOCK
  5
3BD9
330
3BCF
100
AcDbEntity
  8
0
100
AcDbBlockBegin
  2
*D3
 70
     1
 10
0.0
 20
0.0
 30
0.0
  3
*D3
  1

  0
LINE
  5
3DD9
330
3BCF
100
AcDbEntity
  8
SK2
100
AcDbLine
 10
0.0000000000003979
 20
45.00000000000312
 30
0.0
 11
-41.80148805416501
 21
45.00000000000313
 31
0.0
  0
LINE
  5
3DDA
330
3BCF
100
AcDbEntity
  8
SK2
100
AcDbLine
 10
0.0000000000003411
 20
-45.00000000000307
 30
0.0
 11
-41.80148805416503
 21
-45.00000000000306
 31
0.0
  0
LINE
  5
3DDB
330
3BCF
100
AcDbEntity
  8
SK2
100
AcDbLine
 10
-40.80148805416501
 20
42.50000000000313
 30
0.0
 11
-40.80148805416502
 21
-42.50000000000306
 31
0.0
  0
SOLID
  5
3DDC
330
3BCF
100
AcDbEntity
  8
SK2
100
AcDbTrace
 10
-41.21815472083167
 20
42.50000000000313
 30
0.0
 11
-40.38482138749834
 21
42.50000000000313
 31
0.0
 12
-40.80148805416501
 22
45.00000000000313
 32
0.0
 13
-40.80148805416501
 23
45.00000000000313
 33
0.0
  0
SOLID
  5
3DDD
330
3BCF
100
AcDbEntity
  8
SK2
100
AcDbTrace
 10
-41.21815472083169
 20
-42.50000000000306
 30
0.0
 11
-40.38482138749836
 21
-42.50000000000306
 31
0.0
 12
-40.80148805416502
 22
-45.00000000000306
 32
0.0
 13
-40.80148805416502
 23
-45.00000000000306
 33
0.0
  0
MTEXT
  5
3DDE
330
3BCF
100
AcDbEntity
  8
SK2
 62
     2
100
AcDbMText
 10
-44.05148805416502
 20
0.3965639191578707
 30
0.0
 40
3.5
 41
0.0
 71
     5
 72
     1
  1
%%c90
 11
0.0000000000000001
 21
1.0
 31
0.0
1001
ACAD
1000
MTEXTBEGIN
1070
    73
1070
     1
1070
    44
1040
1.0
1070
    74
1070
     0
1000
MTEXTEND
  0
POINT
  5
3DDF
330
3BCF
100
AcDbEntity
  8
DEFPOINTS
 62
     0
100
AcDbPoint
 10
0.0000000000003979
 20
45.00000000000312
 30
0.0
  0
POINT
  5
3DE0
330
3BCF
100
AcDbEntity
  8
DEFPOINTS
 62
     0
100
AcDbPoint
 10
0.0000000000003411
 20
-45.00000000000307
 30
0.0
  0
POINT
  5
3DE1
330
3BCF
100
AcDbEntity
  8
DEFPOINTS
 62
     0
100
AcDbPoint
 10
-40.80148805416502
 20
-45.00000000000306
 30
0.0
  0
ENDBLK
  5
3BDA
330
3BCF
100
AcDbEntity
  8
0
100
AcDbBlockEnd
  0
BLOCK
  5
3C2B
330
3C21
100
AcDbEntity
  8
0
100
AcDbBlockBegin
  2
*D4
 70
     1
 10
0.0
 20
0.0
 30
0.0
  3
*D4
  1

  0
LINE
  5
3CBF
330
3C21
100
AcDbEntity
  8
2
100
AcDbLine
 10
0.0000000000003979
 20
45.00000000000312
 30
0.0
 11
0.0000000000004026
 21
121.0
 31
0.0
  0
LINE
  5
3CC0
330
3C21
100
AcDbEntity
  8
2
100
AcDbLine
 10
63.00000000001126
 20
79.99999999999523
 30
0.0
 11
63.00000000001126
 21
121.0
 31
0.0
  0
LINE
  5
3CC1
330
3C21
100
AcDbEntity
  8
2
100
AcDbLine
 10
2.500000000000402
 20
120.0
 30
0.0
 11
60.50000000001126
 21
120.0
 31
0.0
  0
SOLID
  5
3CC2
330
3C21
100
AcDbEntity
  8
2
100
AcDbTrace
 10
2.500000000000402
 20
120.4166666666667
 30
0.0
 11
2.500000000000402
 21
119.5833333333333
 31
0.0
 12
0.0000000000004025
 22
120.0
 32
0.0
 13
0.0000000000004025
 23
120.0
 33
0.0
  0
SOLID
  5
3CC3
330
3C21
100
AcDbEntity
  8
2
100
AcDbTrace
 10
60.50000000001126
 20
120.4166666666667
 30
0.0
 11
60.50000000001126
 21
119.5833333333333
 31
0.0
 12
63.00000000001126
 22
120.0
 32
0.0
 13
63.00000000001126
 23
120.0
 33
0.0
  0
MTEXT
  5
3CC4
330
3C21
100
AcDbEntity
  8
2
 62
     2
100
AcDbMText
 10
31.50000000000583
 20
123.25
 30
0.0
 40
3.5
 41
0.0
 71
     5
 72
     1
  1
63
1001
ACAD
1000
MTEXTBEGIN
1070
    73
1070
     1
1070
    44
1040
1.0
1070
    74
1070
     0
1000
MTEXTEND
  0
POINT
  5
3CC5
330
3C21
100
AcDbEntity
  8
DEFPOINTS
 62
     0
100
AcDbPoint
 10
0.0000000000003979
 20
45.00000000000312
 30
0.0
  0
POINT
  5
3CC6
330
3C21
100
AcDbEntity
  8
DEFPOINTS
 62
     0
100
AcDbPoint
 10
63.00000000001126
 20
79.99999999999523
 30
0.0
  0
POINT
  5
3CC7
330
3C21
100
AcDbEntity
  8
DEFPOINTS
 62
     0
100
AcDbPoint
 10
63.00000000001126
 20
120.0
 30
0.0
  0
ENDBLK
  5
3C2C
330
3C21
100
AcDbEntity
  8
0
100
AcDbBlockEnd
  0
BLOCK
  5
3C54
330
3C4A
100
AcDbEntity
  8
0
100
AcDbBlockBegin
  2
*D5
 70
     1
 10
0.0
 20
0.0
 30
0.0
  3
*D5
  1

  0
LINE
  5
3CAD
330
3C4A
100
AcDbEntity
  8
2
100
AcDbLine
 10
63.00000000001126
 20
79.99999999999523
 30
0.0
 11
110.0127345795529
 21
79.99999999999521
 31
0.0
  0
LINE
  5
3CAE
330
3C4A
100
AcDbEntity
  8
2
100
AcDbLine
 10
63.00000000001126
 20
-79.99999999999523
 30
0.0
 11
110.0127345795529
 21
-79.99999999999523
 31
0.0
  0
LINE
  5
3CAF
330
3C4A
100
AcDbEntity
  8
2
100
AcDbLine
 10
109.0127345795529
 20
77.49999999999521
 30
0.0
 11
109.0127345795529
 21
-77.49999999999523
 31
0.0
  0
SOLID
  5
3CB0
330
3C4A
100
AcDbEntity
  8
2
100
AcDbTrace
 10
108.5960679128863
 20
77.49999999999521
 30
0.0
 11
109.4294012462196
 21
77.49999999999521
 31
0.0
 12
109.0127345795529
 22
79.99999999999521
 32
0.0
 13
109.0127345795529
 23
79.99999999999521
 33
0.0
  0
SOLID
  5
3CB1
330
3C4A
100
AcDbEntity
  8
2
100
AcDbTrace
 10
108.5960679128862
 20
-77.49999999999523
 30
0.0
 11
109.4294012462196
 21
-77.49999999999523
 31
0.0
 12
109.0127345795529
 22
-79.99999999999523
 32
0.0
 13
109.0127345795529
 23
-79.99999999999523
 33
0.0
  0
MTEXT
  5
3CB2
330
3C4A
100
AcDbEntity
  8
2
 62
     2
100
AcDbMText
 10
105.7627345795529
 20
0.0000000000000079
 30
0.0
 40
3.5
 41
0.0
 71
     5
 72
     1
  1
%%c160
 11
0.0000000000000001
 21
1.0
 31
0.0
1001
ACAD
1000
MTEXTBEGIN
1070
    73
1070
     1
1070
    44
1040
1.0
1070
    74
1070
     0
1000
MTEXTEND
  0
POINT
  5
3CB3
330
3C4A
100
AcDbEntity
  8
DEFPOINTS
 62
     0
100
AcDbPoint
 10
63.00000000001126
 20
79.99999999999523
 30
0.0
  0
POINT
  5
3CB4
330
3C4A
100
AcDbEntity
  8
DEFPOINTS
 62
     0
100
AcDbPoint
 10
63.00000000001126
 20
-79.99999999999523
 30
0.0
  0
POINT
  5
3CB5
330
3C4A
100
AcDbEntity
  8
DEFPOINTS
 62
     0
100
AcDbPoint
 10
109.0127345795529
 20
-79.99999999999523
 30
0.0
  0
ENDBLK
  5
3C55
330
3C4A
100
AcDbEntity
  8
0
100
AcDbBlockEnd
  0
BLOCK
  5
3D19
330
3D0F
100
AcDbEntity
  8
0
100
AcDbBlockBegin
  2
*D6
 70
     1
 10
0.0
 20
0.0
 30
0.0
  3
*D6
  1

  0
LINE
  5
3DC7
330
3D0F
100
AcDbEntity
  8
SK2
100
AcDbLine
 10
-2.012480424994464
 20
33.35000000000622
 30
0.0
 11
-29.73459650295921
 21
33.35000000000622
 31
0.0
  0
LINE
  5
3DC8
330
3D0F
100
AcDbEntity
  8
SK2
100
AcDbLine
 10
-2.012480424994464
 20
-33.35000000000622
 30
0.0
 11
-29.73459650295922
 21
-33.35000000000621
 31
0.0
  0
LINE
  5
3DC9
330
3D0F
100
AcDbEntity
  8
SK2
100
AcDbLine
 10
-28.73459650295921
 20
30.85000000000622
 30
0.0
 11
-28.73459650295922
 21
-30.85000000000621
 31
0.0
  0
SOLID
  5
3DCA
330
3D0F
100
AcDbEntity
  8
SK2
100
AcDbTrace
 10
-29.15126316962588
 20
30.85000000000622
 30
0.0
 11
-28.31792983629254
 21
30.85000000000622
 31
0.0
 12
-28.73459650295921
 22
33.35000000000622
 32
0.0
 13
-28.73459650295921
 23
33.35000000000622
 33
0.0
  0
SOLID
  5
3DCB
330
3D0F
100
AcDbEntity
  8
SK2
100
AcDbTrace
 10
-29.15126316962589
 20
-30.85000000000621
 30
0.0
 11
-28.31792983629256
 21
-30.85000000000621
 31
0.0
 12
-28.73459650295922
 22
-33.35000000000621
 32
0.0
 13
-28.73459650295922
 23
-33.35000000000621
 33
0.0
  0
MTEXT
  5
3DCC
330
3D0F
100
AcDbEntity
  8
SK2
 62
     2
100
AcDbMText
 10
-31.98459650295922
 20
-0.6995612069541717
 30
0.0
 40
3.5
 41
0.0
 71
     5
 72
     1
  1
%%c66.7
 11
0.0000000000000001
 21
1.0
 31
0.0
1001
ACAD
1000
MTEXTBEGIN
1070
    73
1070
     1
1070
    44
1040
1.0
1070
    74
1070
     0
1000
MTEXTEND
  0
POINT
  5
3DCD
330
3D0F
100
AcDbEntity
  8
DEFPOINTS
 62
     0
100
AcDbPoint
 10
-2.012480424994464
 20
33.35000000000622
 30
0.0
  0
POINT
  5
3DCE
330
3D0F
100
AcDbEntity
  8
DEFPOINTS
 62
     0
100
AcDbPoint
 10
-2.012480424994464
 20
-33.35000000000622
 30
0.0
  0
POINT
  5
3DCF
330
3D0F
100
AcDbEntity
  8
DEFPOINTS
 62
     0
100
AcDbPoint
 10
-28.73459650295922
 20
-33.35000000000621
 30
0.0
  0
ENDBLK
  5
3D1A
330
3D0F
100
AcDbEntity
  8
0
100
AcDbBlockEnd
  0
BLOCK
  5
3D97
330
3D8D
100
AcDbEntity
  8
0
100
AcDbBlockBegin
  2
*D7
 70
     1
 10
0.0
 20
0.0
 30
0.0
  3
*D7
  1

  0
LINE
  5
3DB5
330
3D8D
100
AcDbEntity
  8
SK2
100
AcDbLine
 10
2.50000000000216
 20
57.00000000000312
 30
0.0
 11
-53.04563675059625
 21
57.00000000000314
 31
0.0
  0
LINE
  5
3DB6
330
3D8D
100
AcDbEntity
  8
SK2
100
AcDbLine
 10
2.50000000000216
 20
-57.0000000000031
 30
0.0
 11
-53.04563675059627
 21
-57.00000000000308
 31
0.0
  0
LINE
  5
3DB7
330
3D8D
100
AcDbEntity
  8
SK2
100
AcDbLine
 10
-52.04563675059624
 20
54.50000000000314
 30
0.0
 11
-52.04563675059628
 21
-54.50000000000308
 31
0.0
  0
SOLID
  5
3DB8
330
3D8D
100
AcDbEntity
  8
SK2
100
AcDbTrace
 10
-52.46230341726291
 20
54.50000000000314
 30
0.0
 11
-51.62897008392958
 21
54.50000000000314
 31
0.0
 12
-52.04563675059624
 22
57.00000000000314
 32
0.0
 13
-52.04563675059624
 23
57.00000000000314
 33
0.0
  0
SOLID
  5
3DB9
330
3D8D
100
AcDbEntity
  8
SK2
100
AcDbTrace
 10
-52.46230341726294
 20
-54.50000000000308
 30
0.0
 11
-51.62897008392961
 21
-54.50000000000308
 31
0.0
 12
-52.04563675059628
 22
-57.00000000000308
 32
0.0
 13
-52.04563675059628
 23
-57.00000000000308
 33
0.0
  0
MTEXT
  5
3DBA
330
3D8D
100
AcDbEntity
  8
SK2
 62
     2
100
AcDbMText
 10
-55.29563675059626
 20
0.0000000000000178
 30
0.0
 40
3.5
 41
0.0
 71
     5
 72
     1
  1
%%c114
 11
0.0000000000000001
 21
1.0
 31
0.0
1001
ACAD
1000
MTEXTBEGIN
1070
    73
1070
     1
1070
    44
1040
1.0
1070
    74
1070
     0
1000
MTEXTEND
  0
POINT
  5
3DBB
330
3D8D
100
AcDbEntity
  8
DEFPOINTS
 62
     0
100
AcDbPoint
 10
2.50000000000216
 20
57.00000000000312
 30
0.0
  0
POINT
  5
3DBC
330
3D8D
100
AcDbEntity
  8
DEFPOINTS
 62
     0
100
AcDbPoint
 10
2.50000000000216
 20
-57.0000000000031
 30
0.0
  0
POINT
  5
3DBD
330
3D8D
100
AcDbEntity
  8
DEFPOINTS
 62
     0
100
AcDbPoint
 10
-52.04563675059628
 20
-57.00000000000308
 30
0.0
  0
ENDBLK
  5
3D98
330
3D8D
100
AcDbEntity
  8
0
100
AcDbBlockEnd
  0
ENDSEC
  0
SECTION
  2
ENTITIES
  0
LINE
  5
3AAF
330
1F
100
AcDbEntity
  8
1
100
AcDbLine
 10
58.00000000000671
 20
66.17440977312504
 30
0.0
 11
58.00000000000665
 21
-76.94999999999999
 31
0.0
  0
LINE
  5
3AB0
330
1F
100
AcDbEntity
  8
1
100
AcDbLine
 10
58.00000000000665
 20
-76.94999999999999
 30
0.0
 11
56.65000000000294
 21
-78.30000000000373
 31
0.0
  0
LINE
  5
3AB2
330
1F
100
AcDbEntity
  8
1
100
AcDbLine
 10
12.65000000001754
 20
-78.30000000000399
 30
0.0
 11
12.6500000000176
 21
78.3000000000041
 31
0.0
  0
LINE
  5
3AB4
330
1F
100
AcDbEntity
  8
1
100
AcDbLine
 10
9.800000000001887
 20
-75.44999999998839
 30
0.0
 11
9.799999999994952
 21
75.4499999999814
 31
0.0
  0
ARC
  5
3AB5
330
1F
100
AcDbEntity
  8
1
100
AcDbCircle
 10
8.29999999999768
 20
-58.50000000000668
 30
0.0
 40
1.50000000000341
100
AcDbArc
 50
0.0000000001346123
 51
89.99999999994356
  0
ARC
  5
3AB6
330
1F
100
AcDbEntity
  8
1
100
AcDbCircle
 10
2.50000000000216
 20
-55.50000000000309
 30
0.0
 40
1.5
100
AcDbArc
 50
179.9999999999977
 51
270.0
  0
LINE
  5
3AB7
330
1F
100
AcDbEntity
  8
1
100
AcDbLine
 10
8.299999999999158
 20
-57.00000000000324
 30
0.0
 11
2.500000000002103
 21
-57.00000000000312
 31
0.0
  0
LINE
  5
3AB8
330
1F
100
AcDbEntity
  8
1
100
AcDbLine
 10
1.00000000000216
 20
-55.50000000000307
 30
0.0
 11
1.000000000005286
 21
-8.199999999999988
 31
0.0
  0
LINE
  5
3ABA
330
1F
100
AcDbEntity
  8
1
100
AcDbLine
 10
1.000000000002614
 20
-46.00000000000545
 30
0.0
 11
0.0000000000003411
 21
-45.00000000000312
 31
0.0
  0
LINE
  5
3ABB
330
1F
100
AcDbEntity
  8
1
100
AcDbLine
 10
0.0000000000003411
 20
-45.00000000000312
 30
0.0
 11
0.0
 21
-8.199999999999988
 31
0.0
  0
LINE
  5
3ABC
330
1F
100
AcDbEntity
  8
SK1
100
AcDbLine
 10
0.0
 20
-8.199999999999988
 30
0.0
 11
9.000000000000341
 21
-8.199999999999988
 31
0.0
  0
LINE
  5
3ABD
330
1F
100
AcDbEntity
  8
SK1
100
AcDbLine
 10
9.000000000000341
 20
-8.199999999999988
 30
0.0
 11
9.000000000000341
 21
8.199999999999988
 31
0.0
  0
LINE
  5
3ABE
330
1F
100
AcDbEntity
  8
SK1
100
AcDbLine
 10
9.000000000000341
 20
8.199999999999988
 30
0.0
 11
0.0
 21
8.199999999999988
 31
0.0
  0
LINE
  5
3AC0
330
1F
100
AcDbEntity
  8
SK3
 48
0.3
100
AcDbLine
 10
58.00000000000648
 20
-49.00000000000654
 30
0.0
 11
55.00000000000648
 21
-46.00000000000648
 31
0.0
  0
LINE
  5
3AC1
330
1F
100
AcDbEntity
  8
SK3
 48
0.3
100
AcDbLine
 10
55.00000000000648
 20
-46.00000000000648
 30
0.0
 11
29.00000000000352
 21
-46.00000000000642
 31
0.0
  0
LINE
  5
3AC2
330
1F
100
AcDbEntity
  8
SK3
 48
0.3
100
AcDbLine
 10
29.00000000000352
 20
-46.00000000000642
 30
0.0
 11
29.00000000000358
 21
46.00000000000642
 31
0.0
  0
LINE
  5
3AC3
330
1F
100
AcDbEntity
  8
SK3
 48
0.3
100
AcDbLine
 10
29.00000000000352
 20
-20.00000000000335
 30
0.0
 11
0.0000000000001137
 21
-20.00000000000295
 31
0.0
  0
LINE
  5
3AC4
330
1F
100
AcDbEntity
  8
SK3
 48
0.3
100
AcDbLine
 10
29.00000000000358
 20
-40.35000000000309
 30
0.0
 11
0.0000000000002842
 21
-40.3500000000032
 31
0.0
  0
LINE
  5
3AC5
330
1F
100
AcDbEntity
  8
SK4
100
AcDbLine
 10
31.53916347670133
 20
-33.35000000000633
 30
0.0
 11
-2.012480424994464
 21
-33.35000000000622
 31
0.0
  0
LINE
  5
3AC6
330
1F
100
AcDbEntity
  8
SK3
 48
0.3
100
AcDbLine
 10
29.00000000000352
 20
-26.35000000000957
 30
0.0
 11
0.0000000000001137
 21
-26.3500000000094
 31
0.0
  0
LINE
  5
3AC7
330
1F
100
AcDbEntity
  8
SK3
 48
0.3
100
AcDbLine
 10
55.00000000000648
 20
-46.00000000000648
 30
0.0
 11
55.00000000000693
 21
46.00000000000648
 31
0.0
  0
LINE
  5
3ACB
330
1F
100
AcDbEntity
  8
1
100
AcDbLine
 10
12.6500000000176
 20
78.30000000000405
 30
0.0
 11
9.800000000001944
 21
75.44999999998839
 31
0.0
  0
LINE
  5
3ACC
330
1F
100
AcDbEntity
  8
1
100
AcDbLine
 10
8.299999999999215
 20
57.00000000000324
 30
0.0
 11
2.50000000000216
 21
57.00000000000312
 31
0.0
  0
ARC
  5
3ACD
330
1F
100
AcDbEntity
  8
1
100
AcDbCircle
 10
8.29999999999768
 20
58.50000000000671
 30
0.0
 40
1.50000000000341
100
AcDbArc
 50
270.0000000000564
 51
359.9999999998654
  0
ARC
  5
3ACE
330
1F
100
AcDbEntity
  8
1
100
AcDbCircle
 10
2.50000000000216
 20
55.50000000000313
 30
0.0
 40
1.5
100
AcDbArc
 50
90.0
 51
180.0000000000022
  0
LINE
  5
3ACF
330
1F
100
AcDbEntity
  8
1
100
AcDbLine
 10
1.000000000002671
 20
46.00000000000545
 30
0.0
 11
0.0000000000003979
 21
45.00000000000312
 31
0.0
  0
LINE
  5
3AD0
330
1F
100
AcDbEntity
  8
SK3
 48
0.3
100
AcDbLine
 10
55.00000000000653
 20
46.00000000000648
 30
0.0
 11
29.00000000000358
 21
46.00000000000642
 31
0.0
  0
LINE
  5
3AD1
330
1F
100
AcDbEntity
  8
SK3
 48
0.3
100
AcDbLine
 10
58.00000000000654
 20
49.00000000000654
 30
0.0
 11
55.00000000000653
 21
46.00000000000648
 31
0.0
  0
LINE
  5
3AD2
330
1F
100
AcDbEntity
  8
SK3
 48
0.3
100
AcDbLine
 10
29.00000000000358
 20
40.35000000000309
 30
0.0
 11
0.0000000000002842
 21
40.3500000000032
 31
0.0
  0
LINE
  5
3AD3
330
1F
100
AcDbEntity
  8
SK3
 48
0.3
100
AcDbLine
 10
29.00000000000352
 20
26.35000000000957
 30
0.0
 11
0.0000000000001137
 21
26.3500000000094
 31
0.0
  0
LINE
  5
3AD4
330
1F
100
AcDbEntity
  8
SK3
 48
0.3
100
AcDbLine
 10
29.00000000000352
 20
20.00000000000335
 30
0.0
 11
0.0000000000001137
 21
20.00000000000295
 31
0.0
  0
LINE
  5
3AD5
330
1F
100
AcDbEntity
  8
1
100
AcDbLine
 10
0.0000000000003979
 20
45.00000000000312
 30
0.0
 11
0.0
 21
8.199999999999988
 31
0.0
  0
LINE
  5
3AD6
330
1F
100
AcDbEntity
  8
1
100
AcDbLine
 10
1.000000000002216
 20
55.50000000000307
 30
0.0
 11
1.000000000005286
 21
8.199999999999988
 31
0.0
  0
LINE
  5
3ADA
330
1F
100
AcDbEntity
  8
4
100
AcDbLine
 10
14.50000000001125
 20
73.36993742175309
 30
0.0
 11
24.50000000001125
 21
73.36993742175309
 31
0.0
  0
LINE
  5
3ADB
330
1F
100
AcDbEntity
  8
1
100
AcDbLine
 10
22.34390894053547
 20
73.36993742175309
 30
0.0
 11
20.94337567298532
 21
75.57144657362584
 31
0.0
  0
LINE
  5
3ADC
330
1F
100
AcDbEntity
  8
1
100
AcDbLine
 10
20.94337567298532
 20
71.16842826988023
 30
0.0
 11
22.34390894053547
 21
73.36993742175309
 31
0.0
  0
ELLIPSE
  5
3ADD
330
1F
100
AcDbEntity
  8
1
100
AcDbEllipse
 10
19.50000000001125
 20
73.36993742175309
 30
0.0
 11
-5.0
 21
0.0
 31
0.0
210
0.0
220
0.0
230
1.0
 40
0.7807587326743715
 41
0.0
 42
6.283185307179586
  0
LINE
  5
3ADE
330
1F
100
AcDbEntity
  8
4
100
AcDbLine
 10
19.50000000001125
 20
77.27373108512495
 30
0.0
 11
19.50000000001125
 21
69.46614375838123
 31
0.0
  0
LINE
  5
3ADF
330
1F
100
AcDbEntity
  8
1
100
AcDbLine
 10
18.05662432703718
 20
75.57144657362584
 30
0.0
 11
16.61324865406311
 21
73.36993742175309
 31
0.0
  0
LINE
  5
3AE0
330
1F
100
AcDbEntity
  8
1
100
AcDbLine
 10
16.61324865406311
 20
73.36993742175309
 30
0.0
 11
18.05662432703718
 21
71.16842826988023
 31
0.0
  0
LINE
  5
3AE1
330
1F
100
AcDbEntity
  8
1
100
AcDbLine
 10
18.05662432703718
 20
71.16842826988023
 30
0.0
 11
20.94337567298532
 21
71.16842826988023
 31
0.0
  0
LINE
  5
3AE2
330
1F
100
AcDbEntity
  8
1
100
AcDbLine
 10
20.94337567298532
 20
75.57144657362584
 30
0.0
 11
18.05662432703718
 21
75.57144657362584
 31
0.0
  0
LINE
  5
3AE3
330
1F
100
AcDbEntity
  8
4
100
AcDbLine
 10
30.50000000002842
 20
73.36993742175309
 30
0.0
 11
40.50000000002841
 21
73.36993742175309
 31
0.0
  0
ELLIPSE
  5
3AE4
330
1F
100
AcDbEntity
  8
1
100
AcDbEllipse
 10
35.50000000002842
 20
73.36993742175309
 30
0.0
 11
-5.0
 21
0.0
 31
0.0
210
0.0
220
0.0
230
1.0
 40
0.7807587326743715
 41
0.0
 42
6.283185307179586
  0
LINE
  5
3AE5
330
1F
100
AcDbEntity
  8
4
100
AcDbLine
 10
35.50000000002842
 20
77.27373108512495
 30
0.0
 11
35.50000000002842
 21
69.46614375838123
 31
0.0
  0
LINE
  5
3AE6
330
1F
100
AcDbEntity
  8
1
100
AcDbLine
 10
38.34390894055264
 20
73.36993742175309
 30
0.0
 11
36.94337567300249
 21
75.57144657362584
 31
0.0
  0
LINE
  5
3AE7
330
1F
100
AcDbEntity
  8
1
100
AcDbLine
 10
34.05662432705435
 20
75.57144657362584
 30
0.0
 11
32.61324865408028
 21
73.36993742175309
 31
0.0
  0
LINE
  5
3AE8
330
1F
100
AcDbEntity
  8
1
100
AcDbLine
 10
34.05662432705435
 20
71.16842826988023
 30
0.0
 11
36.94337567300249
 21
71.16842826988023
 31
0.0
  0
LINE
  5
3AE9
330
1F
100
AcDbEntity
  8
1
100
AcDbLine
 10
32.61324865408028
 20
73.36993742175309
 30
0.0
 11
34.05662432705435
 21
71.16842826988023
 31
0.0
  0
LINE
  5
3AEA
330
1F
100
AcDbEntity
  8
1
100
AcDbLine
 10
36.94337567300249
 20
71.16842826988023
 30
0.0
 11
38.34390894055264
 21
73.36993742175309
 31
0.0
  0
LINE
  5
3AEB
330
1F
100
AcDbEntity
  8
1
100
AcDbLine
 10
36.94337567300249
 20
75.57144657362584
 30
0.0
 11
34.05662432705435
 21
75.57144657362584
 31
0.0
  0
LINE
  5
3AEC
330
1F
100
AcDbEntity
  8
1
100
AcDbLine
 10
44.50000000001137
 20
78.30000000000381
 30
0.0
 11
12.6500000000176
 21
78.30000000000405
 31
0.0
  0
LINE
  5
3AED
330
1F
100
AcDbEntity
  8
SK4
100
AcDbLine
 10
35.52492989674374
 20
58.39993742174863
 30
0.0
 11
60.13044184320802
 21
58.39993742174863
 31
0.0
  0
LINE
  5
3AEE
330
1F
100
AcDbEntity
  8
SK3
 48
0.3
100
AcDbLine
 10
50.00000000002206
 20
56.01343742174856
 30
0.0
 11
38.00000000002524
 21
56.01343742174868
 31
0.0
  0
LINE
  5
3AEF
330
1F
100
AcDbEntity
  8
SK3
 48
0.3
100
AcDbLine
 10
50.00000000002206
 20
60.78643742174858
 30
0.0
 11
38.00000000002524
 21
60.78643742174858
 31
0.0
  0
LINE
  5
3AF0
330
1F
100
AcDbEntity
  8
SK3
 48
0.3
100
AcDbLine
 10
38.61350000002528
 20
55.39993742174863
 30
0.0
 11
50.00000000002206
 21
55.39993742174863
 31
0.0
  0
LINE
  5
3AF1
330
1F
100
AcDbEntity
  8
SK3
 48
0.3
100
AcDbLine
 10
50.00000000002206
 20
61.39993742174863
 30
0.0
 11
38.61350000002528
 21
61.39993742174863
 31
0.0
  0
LINE
  5
3AF2
330
1F
100
AcDbEntity
  8
SK3
 48
0.3
100
AcDbLine
 10
9.799999999995577
 20
62.9999374217457
 30
0.0
 11
50.00000000002206
 21
62.9999374217457
 31
0.0
  0
LINE
  5
3AF3
330
1F
100
AcDbEntity
  8
SK3
 48
0.3
100
AcDbLine
 10
38.61350000002528
 20
61.39993742174863
 30
0.0
 11
38.61350000002528
 21
55.39993742174863
 31
0.0
  0
LINE
  5
3AF4
330
1F
100
AcDbEntity
  8
SK3
 48
0.3
100
AcDbLine
 10
38.00000000002524
 20
60.78643742174858
 30
0.0
 11
38.00000000002524
 21
56.01343742174868
 31
0.0
  0
LINE
  5
3AF5
330
1F
100
AcDbEntity
  8
SK3
100
AcDbLine
 10
38.00000000002524
 20
56.01343742174868
 30
0.0
 11
38.61350000002528
 21
55.39993742174863
 31
0.0
  0
LINE
  5
3AF6
330
1F
100
AcDbEntity
  8
SK3
100
AcDbLine
 10
38.61350000002528
 20
61.39993742174863
 30
0.0
 11
38.00000000002524
 21
60.78643742174858
 31
0.0
  0
LINE
  5
3AF7
330
1F
100
AcDbEntity
  8
SK3
 48
0.3
100
AcDbLine
 10
55.00000000002216
 20
65.49993742175172
 30
0.0
 11
55.00000000002216
 21
52.3999374217517
 31
0.0
  0
LINE
  5
3AF8
330
1F
100
AcDbEntity
  8
SK3
 48
0.3
100
AcDbLine
 10
50.00000000002206
 20
51.89993742175182
 30
0.0
 11
50.00000000002206
 21
65.49993742175172
 31
0.0
  0
LINE
  5
3AF9
330
1F
100
AcDbEntity
  8
SK3
 48
0.3
100
AcDbLine
 10
58.00000000001773
 20
51.8999374217517
 30
0.0
 11
50.00000000002206
 21
51.89993742175182
 31
0.0
  0
LINE
  5
3AFA
330
1F
100
AcDbEntity
  8
SK3
 48
0.3
100
AcDbLine
 10
55.00000000002216
 20
52.3999374217517
 30
0.0
 11
50.00000000002206
 21
52.39993742175181
 31
0.0
  0
LINE
  5
3AFB
330
1F
100
AcDbEntity
  8
SK3
 48
0.3
100
AcDbLine
 10
55.00000000002216
 20
62.99993742174558
 30
0.0
 11
58.00000000001762
 21
62.99993742174558
 31
0.0
  0
LINE
  5
3AFC
330
1F
100
AcDbEntity
  8
SK3
 48
0.3
100
AcDbLine
 10
50.00000000002206
 20
64.39993742174545
 30
0.0
 11
55.00000000002216
 21
64.39993742174545
 31
0.0
  0
LINE
  5
3AFD
330
1F
100
AcDbEntity
  8
1
100
AcDbLine
 10
58.00000000001773
 20
66.17440977312504
 30
0.0
 11
52.00000000001137
 21
66.17440977312504
 31
0.0
  0
LINE
  5
3AFE
330
1F
100
AcDbEntity
  8
SK3
 48
0.3
100
AcDbLine
 10
50.00000000002206
 20
65.49993742175172
 30
0.0
 11
55.00000000002216
 21
65.49993742175172
 31
0.0
  0
ARC
  5
3AFF
330
1F
100
AcDbEntity
  8
1
100
AcDbCircle
 10
52.00000000001131
 20
74.17440977312498
 30
0.0
 40
7.999999999999943
100
AcDbArc
 50
179.9999999999998
 51
270.0000000000004
  0
LINE
  5
3B00
330
1F
100
AcDbEntity
  8
SK1
100
AcDbLine
 10
57.00000000001807
 20
78.30000000000371
 30
0.0
 11
44.50000000001137
 21
78.30000000000381
 31
0.0
  0
LINE
  5
3B01
330
1F
100
AcDbEntity
  8
1
100
AcDbLine
 10
44.00000000001137
 20
78.30000000000381
 30
0.0
 11
44.00000000001137
 21
74.17440977312503
 31
0.0
  0
LINE
  5
3B02
330
1F
100
AcDbEntity
  8
SK1
100
AcDbLine
 10
58.00000000001773
 20
66.17440977312504
 30
0.0
 11
58.00000000001773
 21
77.30000000000393
 31
0.0
  0
LINE
  5
3B03
330
1F
100
AcDbEntity
  8
SK1
100
AcDbLine
 10
57.00000000001807
 20
78.30000000000371
 30
0.0
 11
58.00000000001796
 21
77.3000000000037
 31
0.0
  0
LINE
  5
3B04
330
1F
100
AcDbEntity
  8
SK1
100
AcDbLine
 10
58.00000000001796
 20
77.3000000000037
 30
0.0
 11
58.00000000001773
 21
77.30000000000393
 31
0.0
  0
CIRCLE
  5
3B05
330
1F
100
AcDbEntity
  8
SK1
100
AcDbCircle
 10
63.00000000001126
 20
79.99999999999523
 30
0.0
 40
0.4637693698488208
  0
LINE
  5
3B06
330
1F
100
AcDbEntity
  8
SK1
100
AcDbLine
 10
62.53623063016255
 20
79.99999999999523
 30
0.0
 11
63.46376936986018
 21
79.99999999999523
 31
0.0
  0
LINE
  5
3B07
330
1F
100
AcDbEntity
  8
SK1
100
AcDbLine
 10
63.00000000001126
 20
80.46376936984405
 30
0.0
 11
63.00000000001126
 21
79.5362306301464
 31
0.0
  0
LINE
  5
3B0B
330
1F
100
AcDbEntity
  8
SK4
100
AcDbLine
 10
31.53916347670133
 20
33.35000000000633
 30
0.0
 11
-2.012480424994464
 21
33.35000000000622
 31
0.0
  0
LINE
  5
3B0F
330
1F
100
AcDbEntity
  8
SK1
100
AcDbLine
 10
63.00000000001126
 20
-80.46376936984405
 30
0.0
 11
63.00000000001126
 21
-79.5362306301464
 31
0.0
  0
LINE
  5
3B10
330
1F
100
AcDbEntity
  8
SK1
100
AcDbLine
 10
62.53623063016255
 20
-79.99999999999523
 30
0.0
 11
63.46376936986018
 21
-79.99999999999523
 31
0.0
  0
CIRCLE
  5
3B11
330
1F
100
AcDbEntity
  8
SK1
100
AcDbCircle
 10
63.00000000001126
 20
-79.99999999999523
 30
0.0
 40
0.4637693698488208
  0
LINE
  5
3B17
330
1F
100
AcDbEntity
  8
1
100
AcDbLine
 10
12.65000000001754
 20
-78.30000000000399
 30
0.0
 11
9.800000000001944
 21
-75.44999999998839
 31
0.0
  0
LINE
  5
3B18
330
1F
100
AcDbEntity
  8
1
100
AcDbLine
 10
56.65000000000294
 20
-78.30000000000373
 30
0.0
 11
12.6500000000176
 21
-78.30000000000405
 31
0.0
  0
LINE
  5
3B4F
330
1F
100
AcDbEntity
  8
SK1
100
AcDbLine
 10
-2.262823140784178
 20
2.262823140784178
 30
0.0
 11
2.262823140784178
 21
-2.262823140784178
 31
0.0
  0
CIRCLE
  5
3B50
330
1F
100
AcDbEntity
  8
SK1
100
AcDbCircle
 10
0.0
 20
0.0
 30
0.0
 40
3.200115174948665
  0
LINE
  5
3B51
330
1F
100
AcDbEntity
  8
SK1
100
AcDbLine
 10
-2.262823140784178
 20
-2.262823140784178
 30
0.0
 11
2.262823140784178
 21
2.262823140784178
 31
0.0
  0
LINE
  5
3B52
330
1F
100
AcDbEntity
  8
4
100
AcDbLine
 10
0.0
 20
0.0
 30
0.0
 11
60.85537167295502
 21
0.0
 31
0.0
  0
LINE
  5
3B58
330
1F
100
AcDbEntity
  8
NOCUT
100
AcDbLine
 10
58.00000000000671
 20
0.0
 30
0.0
 11
58.00000000000671
 21
-76.94999999999999
 31
0.0
  0
LINE
  5
3B59
330
1F
100
AcDbEntity
  8
NOCUT
100
AcDbLine
 10
9.800000000001944
 20
-75.44999999998839
 30
0.0
 11
9.800000000001148
 21
-58.50000000000662
 31
0.0
  0
LINE
  5
3B5B
330
1F
100
AcDbEntity
  8
NOCUT
100
AcDbLine
 10
0.0
 20
0.0
 30
0.0
 11
58.00000000000671
 21
0.0
 31
0.0
  0
LINE
  5
3B60
330
1F
100
AcDbEntity
  8
NOCUT
100
AcDbLine
 10
56.65000000000294
 20
-78.30000000000373
 30
0.0
 11
12.65000000001765
 21
-78.30000000000405
 31
0.0
  0
LINE
  5
3B61
330
1F
100
AcDbEntity
  8
NOCUT
100
AcDbLine
 10
12.6500000000176
 20
-78.30000000000399
 30
0.0
 11
9.800000000002
 21
-75.44999999998839
 31
0.0
  0
LINE
  5
3B62
330
1F
100
AcDbEntity
  8
NOCUT
100
AcDbLine
 10
0.0000000000003979
 20
-45.00000000000312
 30
0.0
 11
0.0
 21
0.0
 31
0.0
  0
LINE
  5
3B63
330
1F
100
AcDbEntity
  8
NOCUT
100
AcDbLine
 10
1.000000000002216
 20
-55.50000000000301
 30
0.0
 11
1.000000000002842
 21
-46.00000000000571
 31
0.0
  0
LINE
  5
3B64
330
1F
100
AcDbEntity
  8
NOCUT
100
AcDbLine
 10
8.299999999997794
 20
-57.00000000000327
 30
0.0
 11
2.50000000000216
 21
-57.0000000000031
 31
0.0
  0
ARC
  5
3B65
330
1F
100
AcDbEntity
  8
NOCUT
100
AcDbCircle
 10
2.500000000002216
 20
-55.50000000000309
 30
0.0
 40
1.5
100
AcDbArc
 50
180.0
 51
269.9999999999977
  0
LINE
  5
3B66
330
1F
100
AcDbEntity
  8
NOCUT
100
AcDbLine
 10
1.000000000002671
 20
-46.00000000000545
 30
0.0
 11
0.0000000000003979
 21
-45.00000000000312
 31
0.0
  0
ARC
  5
3B67
330
1F
100
AcDbEntity
  8
NOCUT
100
AcDbCircle
 10
8.299999999997737
 20
-58.50000000000668
 30
0.0
 40
1.50000000000341
100
AcDbArc
 50
0.0
 51
89.99999999999785
  0
LINE
  5
3B6E
330
1F
100
AcDbEntity
  8
NOCUT
100
AcDbLine
 10
58.00000000000671
 20
-76.94999999999999
 30
0.0
 11
56.65000000000294
 21
-78.30000000000373
 31
0.0
  0
DIMENSION
  5
3B9D
330
1F
100
AcDbEntity
  8
SK2
100
AcDbDimension
  2
*D2
 10
-15.53052407888799
 20
-20.00000000000295
 30
0.0
 11
-15.53052407888799
 21
0.1351659566174703
 31
0.0
 70
   160
  1
%%c<>
  3
AM_DIN
100
AcDbAlignedDimension
 13
0.0000000000001137
 23
20.00000000000295
 33
0.0
 14
0.0000000000001137
 24
-20.00000000000295
 34
0.0
 50
90.0
100
AcDbRotatedDimension
  0
DIMENSION
  5
3BCE
330
1F
100
AcDbEntity
  8
SK2
100
AcDbDimension
  2
*D3
 10
-40.80148805416502
 20
-45.00000000000306
 30
0.0
 11
-40.80148805416501
 21
0.3965639191578702
 31
0.0
 70
   160
  1
%%c<>
  3
AM_DIN
100
AcDbAlignedDimension
 13
0.0000000000003979
 23
45.00000000000312
 33
0.0
 14
0.0000000000003411
 24
-45.00000000000307
 34
0.0
 50
90.0
100
AcDbRotatedDimension
  0
DIMENSION
  5
3C20
330
1F
100
AcDbEntity
  8
2
100
AcDbDimension
  2
*D4
 10
63.00000000001126
 20
120.0
 30
0.0
 11
31.50000000000583
 21
123.25
 31
0.0
 70
    32
  3
AM_DIN
100
AcDbAlignedDimension
 13
0.0000000000003979
 23
45.00000000000312
 33
0.0
 14
63.00000000001126
 24
79.99999999999523
 34
0.0
100
AcDbRotatedDimension
  0
DIMENSION
  5
3C49
330
1F
100
AcDbEntity
  8
2
100
AcDbDimension
  2
*D5
 10
109.0127345795529
 20
-79.99999999999523
 30
0.0
 11
105.7627345795529
 21
0.0000000000000079
 31
0.0
 70
    32
  1
%%c<>
  3
AM_DIN
100
AcDbAlignedDimension
 13
63.00000000001126
 23
79.99999999999523
 33
0.0
 14
63.00000000001126
 24
-79.99999999999523
 34
0.0
 50
90.0
100
AcDbRotatedDimension
  0
TEXT
  5
3C6B
330
1F
100
AcDbEntity
  8
6
100
AcDbText
 10
20.52102247303133
 20
-88.14610663229485
 30
0.0
 40
3.5
  1
4W3A160R01
100
AcDbText
  0
TEXT
  5
3C6D
330
1F
100
AcDbEntity
  8
6
100
AcDbText
 10
10.90069122724236
 20
110.9598032999339
 30
0.0
 40
3.5
  1
Verstellweg 63+0.7
100
AcDbText
  0
TEXT
  5
3CA0
330
1F
100
AcDbEntity
  8
6
100
AcDbText
 10
115.9308363190393
 20
-4.650494016420111
 30
0.0
 40
3.5
  1
Z=12
 50
90.0
100
AcDbText
  0
DIMENSION
  5
3D0E
330
1F
100
AcDbEntity
  8
SK2
100
AcDbDimension
  2
*D6
 10
-28.73459650295922
 20
-33.35000000000621
 30
0.0
 11
-28.73459650295922
 21
-0.6995612069541722
 31
0.0
 70
   160
  1
%%c<>
  3
AM_DIN
100
AcDbAlignedDimension
 13
-2.012480424994464
 23
33.35000000000622
 33
0.0
 14
-2.012480424994464
 24
-33.35000000000622
 34
0.0
 50
90.00000000000021
100
AcDbRotatedDimension
  0
DIMENSION
  5
3D8C
330
1F
100
AcDbEntity
  8
SK2
100
AcDbDimension
  2
*D7
 10
-52.04563675059628
 20
-57.00000000000308
 30
0.0
 11
-55.29563675059626
 21
0.0000000000000178
 31
0.0
 70
    32
  1
%%c<>
  3
AM_DIN
100
AcDbAlignedDimension
 13
2.50000000000216
 23
57.00000000000312
 33
0.0
 14
2.50000000000216
 24
-57.0000000000031
 34
0.0
 50
90.00000000000115
100
AcDbRotatedDimension
  0
ENDSEC
  0
SECTION
  2
OBJECTS
  0
DICTIONARY
  5
C
330
0
100
AcDbDictionary
  3
ACAD_GROUP
350
D
  3
ACAD_LAYOUT
350
1A
  3
ACAD_MLINESTYLE
350
17
  3
ACAD_PLOTSETTINGS
350
19
  3
ACAD_PLOTSTYLENAME
350
E
  3
ACDBHEADERROUNDTRIPXREC
350
3DE4
  3
ACDBVARIABLEDICTIONARY
350
216
  3
ACMDICTIONARY
350
45
  3
AMG
350
41
  3
AMGSNAPSETTINGS
350
23D
  3
DWGPROPS
350
3CEA
  0
DICTIONARY
  5
1F1
330
1F
100
AcDbDictionary
280
     1
  3
ACAD_INDEX
360
1F2
  3
ACAD_LAYOUTSELFREF
360
3E07
  0
DICTIONARY
  5
3E05
330
1B
100
AcDbDictionary
280
     1
  3
ACAD_LAYOUTSELFREF
360
3E06
  0
DICTIONARY
  5
D
102
{ACAD_REACTORS
330
C
102
}
330
C
100
AcDbDictionary
  0
DICTIONARY
  5
1A
102
{ACAD_REACTORS
330
C
102
}
330
C
100
AcDbDictionary
  0
DICTIONARY
  5
17
102
{ACAD_REACTORS
330
C
102
}
330
C
100
AcDbDictionary
  3
STANDARD
350
18
  0
DICTIONARY
  5
19
102
{ACAD_REACTORS
330
C
102
}
330
C
100
AcDbDictionary
  0
ACDBDICTIONARYWDFLT
  5
E
102
{ACAD_REACTORS
330
C
102
}
330
C
100
AcDbDictionary
281
     1
  3
Normal
350
F
100
AcDbDictionaryWithDefault
340
F
  0
DICTIONARY
  5
3DE4
102
{ACAD_REACTORS
330
C
102
}
330
C
100
AcDbDictionary
  3
CEPSNTYPE
350
3DEE
  3
DIMSTYLEDATA
350
3DF2
  3
FINGERPRINTGUID
350
3DEF
  3
HYPERLINKBASE
350
3DE7
  3
INSUNITS
350
3DED
  3
LAYOUTDICT
350
3DE9
  3
LWETCUNION
350
3DEC
  3
PLOTSETDICT
350
3DEA
  3
PLOTSTYLNAMDICT
350
3DEB
  3
PSVPSCALE
350
3DF1
  3
PUCSBASE
350
3DF5
  3
PUCSORGBACK
350
3DFB
  3
PUCSORGBOTTOM
350
3DF7
  3
PUCSORGFRONT
350
3DFA
  3
PUCSORGLEFT
350
3DF8
  3
PUCSORGRIGHT
350
3DF9
  3
PUCSORGTOP
350
3DF6
  3
PUCSORTHOREF
350
3DF3
  3
PUCSORTHOVIEW
350
3DF4
  3
STYLESHEET
350
3DE8
  3
TSTACKALIGN
350
3DE5
  3
TSTACKSIZE
350
3DE6
  3
UCSBASE
350
3DFE
  3
UCSORGBACK
350
3E04
  3
UCSORGBOTTOM
350
3E00
  3
UCSORGFRONT
350
3E03
  3
UCSORGLEFT
350
3E01
  3
UCSORGRIGHT
350
3E02
  3
UCSORGTOP
350
3DFF
  3
UCSORTHOREF
350
3DFC
  3
UCSORTHOVIEW
350
3DFD
  3
VERSIONGUID
350
3DF0
  0
DICTIONARY
  5
216
102
{ACAD_REACTORS
330
C
102
}
330
C
100
AcDbDictionary
  3
DIMASSOC
350
219
  3
HIDETEXT
350
218
  3
INDEXCTL
350
217
  0
DICTIONARY
  5
45
102
{ACAD_REACTORS
330
C
102
}
330
C
100
AcDbDictionary
  3
ACMSTDDICTIONARY
350
4A
  0
DICTIONARY
  5
41
102
{ACAD_REACTORS
330
C
102
}
330
C
100
AcDbDictionary
  3
ACMGSETTINGS
350
42
  0
DICTIONARY
  5
23D
102
{ACAD_REACTORS
330
C
102
}
330
C
100
AcDbDictionary
  0
XRECORD
  5
3CEA
102
{ACAD_REACTORS
330
C
102
}
330
C
100
AcDbXrecord
  1
DWGPROPS COOKIE
  2

  3

  4

  6

  7

  8

  9

300
AmdtFileType=84
301
=
302
=
303
=
304
=
305
=
306
=
307
=
308
=
309
=
 40
0.0773418981481482
 41
2453599.366006042
 42
2453798.424990613
  1

 90
        1
  0
DICTIONARY
  5
1F2
102
{ACAD_REACTORS
330
1F1
102
}
330
1F1
100
AcDbDictionary
  3
*A1
350
1F3
  0
XRECORD
  5
3E07
102
{ACAD_REACTORS
330
1F1
102
}
330
1F1
100
AcDbXrecord
340
1F
  0
XRECORD
  5
3E06
102
{ACAD_REACTORS
330
3E05
102
}
330
3E05
100
AcDbXrecord
340
1B
  0
MLINESTYLE
  5
18
102
{ACAD_REACTORS
330
17
102
}
330
17
100
AcDbMlineStyle
  2
STANDARD
 70
     0
  3

 62
   256
 51
90.0
 52
90.0
 71
     2
 49
0.5
 62
   256
  6
BYLAYER
 49
-0.5
 62
   256
  6
BYLAYER
  0
ACDBPLACEHOLDER
  5
F
102
{ACAD_REACTORS
330
E
102
}
330
E
100
AcDbPlaceHolder
280
     0
  0
XRECORD
  5
3DEE
102
{ACAD_REACTORS
330
3DE4
102
}
330
3DE4
100
AcDbXrecord
 90
        0
  0
XRECORD
  5
3DF2
102
{ACAD_REACTORS
330
3DE4
102
}
330
3DE4
100
AcDbXrecord
1000
DSTYLE
1002
{
1070
    79
 70
     2
1070
   371
 70
    -1
1070
   372
 70
    -1
1002
}
  0
XRECORD
  5
3DEF
102
{ACAD_REACTORS
330
3DE4
102
}
330
3DE4
100
AcDbXrecord
  1
{03052709-208C-44F1-88CB-F8F0E550BC5D}
  0
XRECORD
  5
3DE7
102
{ACAD_REACTORS
330
3DE4
102
}
330
3DE4
100
AcDbXrecord
  1

  0
XRECORD
  5
3DED
102
{ACAD_REACTORS
330
3DE4
102
}
330
3DE4
100
AcDbXrecord
 90
        4
  0
XRECORD
  5
3DE9
102
{ACAD_REACTORS
330
3DE4
102
}
330
3DE4
100
AcDbXrecord
340
1A
  0
XRECORD
  5
3DEC
102
{ACAD_REACTORS
330
3DE4
102
}
330
3DE4
100
AcDbXrecord
 90
    10781
  0
XRECORD
  5
3DEA
102
{ACAD_REACTORS
330
3DE4
102
}
330
3DE4
100
AcDbXrecord
340
19
  0
XRECORD
  5
3DEB
102
{ACAD_REACTORS
330
3DE4
102
}
330
3DE4
100
AcDbXrecord
340
E
  0
XRECORD
  5
3DF1
102
{ACAD_REACTORS
330
3DE4
102
}
330
3DE4
100
AcDbXrecord
 40
0.0
  0
XRECORD
  5
3DF5
102
{ACAD_REACTORS
330
3DE4
102
}
330
3DE4
100
AcDbXrecord
340
0
  0
XRECORD
  5
3DFB
102
{ACAD_REACTORS
330
3DE4
102
}
330
3DE4
100
AcDbXrecord
 10
0.0
 20
0.0
 30
0.0
  0
XRECORD
  5
3DF7
102
{ACAD_REACTORS
330
3DE4
102
}
330
3DE4
100
AcDbXrecord
 10
0.0
 20
0.0
 30
0.0
  0
XRECORD
  5
3DFA
102
{ACAD_REACTORS
330
3DE4
102
}
330
3DE4
100
AcDbXrecord
 10
0.0
 20
0.0
 30
0.0
  0
XRECORD
  5
3DF8
102
{ACAD_REACTORS
330
3DE4
102
}
330
3DE4
100
AcDbXrecord
 10
0.0
 20
0.0
 30
0.0
  0
XRECORD
  5
3DF9
102
{ACAD_REACTORS
330
3DE4
102
}
330
3DE4
100
AcDbXrecord
 10
0.0
 20
0.0
 30
0.0
  0
XRECORD
  5
3DF6
102
{ACAD_REACTORS
330
3DE4
102
}
330
3DE4
100
AcDbXrecord
 10
0.0
 20
0.0
 30
0.0
  0
XRECORD
  5
3DF3
102
{ACAD_REACTORS
330
3DE4
102
}
330
3DE4
100
AcDbXrecord
340
0
  0
XRECORD
  5
3DF4
102
{ACAD_REACTORS
330
3DE4
102
}
330
3DE4
100
AcDbXrecord
 70
     0
  0
XRECORD
  5
3DE8
102
{ACAD_REACTORS
330
3DE4
102
}
330
3DE4
100
AcDbXrecord
  1

  0
XRECORD
  5
3DE5
102
{ACAD_REACTORS
330
3DE4
102
}
330
3DE4
100
AcDbXrecord
 90
        1
  0
XRECORD
  5
3DE6
102
{ACAD_REACTORS
330
3DE4
102
}
330
3DE4
100
AcDbXrecord
 90
       70
  0
XRECORD
  5
3DFE
102
{ACAD_REACTORS
330
3DE4
102
}
330
3DE4
100
AcDbXrecord
340
0
  0
XRECORD
  5
3E04
102
{ACAD_REACTORS
330
3DE4
102
}
330
3DE4
100
AcDbXrecord
 10
0.0
 20
0.0
 30
0.0
  0
XRECORD
  5
3E00
102
{ACAD_REACTORS
330
3DE4
102
}
330
3DE4
100
AcDbXrecord
 10
0.0
 20
0.0
 30
0.0
  0
XRECORD
  5
3E03
102
{ACAD_REACTORS
330
3DE4
102
}
330
3DE4
100
AcDbXrecord
 10
0.0
 20
0.0
 30
0.0
  0
XRECORD
  5
3E01
102
{ACAD_REACTORS
330
3DE4
102
}
330
3DE4
100
AcDbXrecord
 10
0.0
 20
0.0
 30
0.0
  0
XRECORD
  5
3E02
102
{ACAD_REACTORS
330
3DE4
102
}
330
3DE4
100
AcDbXrecord
 10
0.0
 20
0.0
 30
0.0
  0
XRECORD
  5
3DFF
102
{ACAD_REACTORS
330
3DE4
102
}
330
3DE4
100
AcDbXrecord
 10
0.0
 20
0.0
 30
0.0
  0
XRECORD
  5
3DFC
102
{ACAD_REACTORS
330
3DE4
102
}
330
3DE4
100
AcDbXrecord
340
0
  0
XRECORD
  5
3DFD
102
{ACAD_REACTORS
330
3DE4
102
}
330
3DE4
100
AcDbXrecord
 70
     0
  0
XRECORD
  5
3DF0
102
{ACAD_REACTORS
330
3DE4
102
}
330
3DE4
100
AcDbXrecord
  1
{F1FBC261-F785-4FDA-9BAE-5DFC12ADBE6D}
  0
DICTIONARYVAR
  5
219
102
{ACAD_REACTORS
330
216
102
}
330
216
100
DictionaryVariables
280
     0
  1
1
  0
DICTIONARYVAR
  5
218
102
{ACAD_REACTORS
330
216
102
}
330
216
100
DictionaryVariables
280
     0
  1
1
  0
DICTIONARYVAR
  5
217
102
{ACAD_REACTORS
330
216
102
}
330
216
100
DictionaryVariables
280
     0
  1
1
  0
DICTIONARY
  5
4A
102
{ACAD_REACTORS
330
45
102
}
330
45
100
AcDbDictionary
  0
DICTIONARY
  5
42
102
{ACAD_REACTORS
330
41
102
}
330
41
100
AcDbDictionary
  3
DWGSETTINGS
350
43
  0
LAYER_INDEX
  5
1F3
102
{ACAD_REACTORS
330
1F2
102
}
330
1F2
100
AcDbIndex
 40
2453874.461999999
100
AcDbLayerIndex
  8
0
360
1F4
 90
        0
  8
Defpoints
360
210
 90
        0
  8
1
360
29B
 90
       37
  8
2
360
1EC1
 90
        2
  8
4
360
1EC2
 90
        5
  8
6
360
1EC3
 90
        3
  8
SK1
360
1EC4
 90
       16
  8
SK2
360
1EC5
 90
        4
  8
SK3
360
1EC6
 90
       28
  8
NOCUT
360
1EC7
 90
       12
  8
SK4
360
3022
 90
        3
  0
XRECORD
  5
43
102
{ACAD_REACTORS
330
42
102
}
330
42
100
AcDbXrecord
  1
VERSION
140
15.0
  1
PRODUCT
  2
AutoCAD Mechanical 2000
  0
IDBUFFER
  5
1F4
330
0
100
AcDbIdBuffer
  0
IDBUFFER
  5
210
330
0
100
AcDbIdBuffer
  0
IDBUFFER
  5
29B
330
0
100
AcDbIdBuffer
330
3B18
330
3AAF
330
3AB0
330
3AB2
330
3AB4
330
3AB5
330
3AB6
330
3AB7
330
3AB8
330
3ABA
330
3ABB
330
3ACB
330
3ACC
330
3ACD
330
3ACE
330
3ACF
330
3AD5
330
3AD6
330
3ADB
330
3ADC
330
3ADD
330
3ADF
330
3AE0
330
3AE1
330
3AE2
330
3AE4
330
3AE6
330
3AE7
330
3AE8
330
3AE9
330
3AEA
330
3AEB
330
3AEC
330
3AFD
330
3AFF
330
3B01
330
3B17
  0
IDBUFFER
  5
1EC1
330
0
100
AcDbIdBuffer
330
3C20
330
3C49
  0
IDBUFFER
  5
1EC2
330
0
100
AcDbIdBuffer
330
3ADA
330
3ADE
330
3AE3
330
3AE5
330
3B52
  0
IDBUFFER
  5
1EC3
330
0
100
AcDbIdBuffer
330
3C6B
330
3C6D
330
3CA0
  0
IDBUFFER
  5
1EC4
330
0
100
AcDbIdBuffer
330
3ABC
330
3ABD
330
3ABE
330
3B00
330
3B02
330
3B03
330
3B04
330
3B05
330
3B06
330
3B07
330
3B0F
330
3B10
330
3B11
330
3B4F
330
3B50
330
3B51
  0
IDBUFFER
  5
1EC5
330
0
100
AcDbIdBuffer
330
3D0E
330
3D8C
330
3B9D
330
3BCE
  0
IDBUFFER
  5
1EC6
330
0
100
AcDbIdBuffer
330
3AC0
330
3AC1
330
3AC2
330
3AC3
330
3AC4
330
3AC6
330
3AC7
330
3AD0
330
3AD1
330
3AD2
330
3AD3
330
3AD4
330
3AEE
330
3AEF
330
3AF0
330
3AF1
330
3AF2
330
3AF3
330
3AF4
330
3AF5
330
3AF6
330
3AF7
330
3AF8
330
3AF9
330
3AFA
330
3AFB
330
3AFC
330
3AFE
  0
IDBUFFER
  5
1EC7
330
0
100
AcDbIdBuffer
330
3B58
330
3B59
330
3B5B
330
3B60
330
3B61
330
3B62
330
3B63
330
3B64
330
3B65
330
3B66
330
3B67
330
3B6E
  0
IDBUFFER
  5
3022
330
0
100
AcDbIdBuffer
330
3AC5
330
3AED
330
3B0B
  0
ENDSEC
  0
EOF
