  0
SECTION
  2
HEADER
  9
$ACADVER
  1
AC1014
  9
$ACADMAINTVER
 70
     9
  9
$DWGCODEPAGE
  3
ANSI_1252
  9
$INSBASE
 10
0.0
 20
0.0
 30
0.0
  9
$EXTMIN
 10
-46.25193281838448
 20
-71.18318916880037
 30
-0.0000000000112498
  9
$EXTMAX
 10
107.5575637662758
 20
109.992737226139
 30
0.0000000000002956
  9
$LIMMIN
 10
0.0
 20
0.0
  9
$LIMMAX
 10
420.0
 20
297.0
  9
$ORTHOMODE
 70
     0
  9
$REGENMODE
 70
     1
  9
$FILLMODE
 70
     1
  9
$QTEXTMODE
 70
     0
  9
$MIRRTEXT
 70
     1
  9
$DRAGMODE
 70
     2
  9
$LTSCALE
 40
1.0
  9
$OSMODE
 70
  2599
  9
$ATTMODE
 70
     1
  9
$TEXTSIZE
 40
2.5
  9
$TRACEWID
 40
1.0
  9
$TEXTSTYLE
  7
STANDARD
  9
$CLAYER
  8
0
  9
$CELTYPE
  6
BYLAYER
  9
$CECOLOR
 62
   256
  9
$CELTSCALE
 40
1.0
  9
$DELOBJ
 70
     1
  9
$DISPSILH
 70
     0
  9
$DIMSCALE
 40
1.0
  9
$DIMASZ
 40
2.5
  9
$DIMEXO
 40
0.0
  9
$DIMDLI
 40
10.0
  9
$DIMRND
 40
0.0
  9
$DIMDLE
 40
0.0
  9
$DIMEXE
 40
1.0
  9
$DIMTP
 40
0.1
  9
$DIMTM
 40
0.1
  9
$DIMTXT
 40
3.5
  9
$DIMCEN
 40
0.0
  9
$DIMTSZ
 40
0.0
  9
$DIMTOL
 70
     0
  9
$DIMLIM
 70
     0
  9
$DIMTIH
 70
     0
  9
$DIMTOH
 70
     0
  9
$DIMSE1
 70
     0
  9
$DIMSE2
 70
     0
  9
$DIMTAD
 70
     1
  9
$DIMZIN
 70
     8
  9
$DIMBLK
  1

  9
$DIMASO
 70
     1
  9
$DIMSHO
 70
     1
  9
$DIMPOST
  1

  9
$DIMAPOST
  1
"
  9
$DIMALT
 70
     0
  9
$DIMALTD
 70
     2
  9
$DIMALTF
 40
0.0393701
  9
$DIMLFAC
 40
1.0
  9
$DIMTOFL
 70
     1
  9
$DIMTVP
 40
0.0
  9
$DIMTIX
 70
     0
  9
$DIMSOXD
 70
     0
  9
$DIMSAH
 70
     0
  9
$DIMBLK1
  1

  9
$DIMBLK2
  1

  9
$DIMSTYLE
  2
AM_DIN
  9
$DIMCLRD
 70
   256
  9
$DIMCLRE
 70
   256
  9
$DIMCLRT
 70
     2
  9
$DIMTFAC
 40
0.71
  9
$DIMGAP
 40
1.5
  9
$DIMJUST
 70
     0
  9
$DIMSD1
 70
     0
  9
$DIMSD2
 70
     0
  9
$DIMTOLJ
 70
     0
  9
$DIMTZIN
 70
     8
  9
$DIMALTZ
 70
     0
  9
$DIMALTTZ
 70
     0
  9
$DIMFIT
 70
     3
  9
$DIMUPT
 70
     0
  9
$DIMUNIT
 70
     2
  9
$DIMDEC
 70
     2
  9
$DIMTDEC
 70
     2
  9
$DIMALTU
 70
     2
  9
$DIMALTTD
 70
     2
  9
$DIMTXSTY
  7
STANDARD
  9
$DIMAUNIT
 70
     0
  9
$LUNITS
 70
     2
  9
$LUPREC
 70
     2
  9
$SKETCHINC
 40
1.0
  9
$FILLETRAD
 40
3.0
  9
$AUNITS
 70
     0
  9
$AUPREC
 70
     0
  9
$MENU
  1
.
  9
$ELEVATION
 40
0.0
  9
$PELEVATION
 40
0.0
  9
$THICKNESS
 40
0.0
  9
$LIMCHECK
 70
     0
  9
$BLIPMODE
 70
     0
  9
$CHAMFERA
 40
2.5
  9
$CHAMFERB
 40
2.5
  9
$CHAMFERC
 40
20.0
  9
$CHAMFERD
 40
0.0
  9
$SKPOLY
 70
     0
  9
$TDCREATE
 40
2453599.366006042
  9
$TDUPDATE
 40
2453874.456068206
  9
$TDINDWG
 40
0.0778149190
  9
$TDUSRTIMER
 40
0.0777905787
  9
$USRTIMER
 70
     1
  9
$ANGBASE
 50
0.0
  9
$ANGDIR
 70
     0
  9
$PDMODE
 70
     0
  9
$PDSIZE
 40
0.0
  9
$PLINEWID
 40
0.0
  9
$COORDS
 70
     0
  9
$SPLFRAME
 70
     0
  9
$SPLINETYPE
 70
     6
  9
$SPLINESEGS
 70
     8
  9
$ATTDIA
 70
     1
  9
$ATTREQ
 70
     1
  9
$HANDLING
 70
 22529
  9
$HANDSEED
  5
3C28
  9
$SURFTAB1
 70
     6
  9
$SURFTAB2
 70
     6
  9
$SURFTYPE
 70
     6
  9
$SURFU
 70
     6
  9
$SURFV
 70
     6
  9
$UCSNAME
  2

  9
$UCSORG
 10
0.0
 20
0.0
 30
0.0
  9
$UCSXDIR
 10
1.0
 20
0.0
 30
0.0
  9
$UCSYDIR
 10
0.0
 20
1.0
 30
0.0
  9
$PUCSNAME
  2

  9
$PUCSORG
 10
0.0
 20
0.0
 30
0.0
  9
$PUCSXDIR
 10
1.0
 20
0.0
 30
0.0
  9
$PUCSYDIR
 10
0.0
 20
1.0
 30
0.0
  9
$USERI1
 70
     0
  9
$USERI2
 70
     0
  9
$USERI3
 70
     0
  9
$USERI4
 70
     0
  9
$USERI5
 70
     0
  9
$USERR1
 40
0.0
  9
$USERR2
 40
0.0
  9
$USERR3
 40
0.0
  9
$USERR4
 40
0.0
  9
$USERR5
 40
0.0
  9
$WORLDVIEW
 70
     1
  9
$SHADEDGE
 70
     3
  9
$SHADEDIF
 70
    70
  9
$TILEMODE
 70
     1
  9
$MAXACTVP
 70
    64
  9
$PINSBASE
 10
0.0
 20
0.0
 30
0.0
  9
$PLIMCHECK
 70
     0
  9
$PEXTMIN
 10
1.000000000000000E+20
 20
1.000000000000000E+20
 30
1.000000000000000E+20
  9
$PEXTMAX
 10
-1.000000000000000E+20
 20
-1.000000000000000E+20
 30
-1.000000000000000E+20
  9
$PLIMMIN
 10
0.0
 20
0.0
  9
$PLIMMAX
 10
420.0
 20
297.0
  9
$UNITMODE
 70
     0
  9
$VISRETAIN
 70
     1
  9
$PLINEGEN
 70
     0
  9
$PSLTSCALE
 70
     1
  9
$TREEDEPTH
 70
  3020
  9
$PICKSTYLE
 70
     0
  9
$CMLSTYLE
  2
STANDARD
  9
$CMLJUST
 70
     0
  9
$CMLSCALE
 40
20.0
  9
$PROXYGRAPHICS
 70
     1
  9
$MEASUREMENT
 70
     1
  0
ENDSEC
  0
SECTION
  2
CLASSES
  0
CLASS
  1
ACDBDICTIONARYWDFLT
  2
AcDbDictionaryWithDefault
  3
AutoCAD 2000
 90
        0
280
     0
281
     0
  0
CLASS
  1
ACDBPLACEHOLDER
  2
AcDbPlaceHolder
  3
AutoCAD 2000
 90
        0
280
     0
281
     0
  0
CLASS
  1
LAYOUT
  2
AcDbLayout
  3
AutoCAD 2000
 90
        0
280
     0
281
     0
  0
CLASS
  1
ACME_DOCUMENT
  2
AcMeDbDoc
  3
AcMeServices
 90
        0
280
     0
281
     0
  0
CLASS
  1
ACMESCOPE
  2
AcMeScope
  3
AcMeServices
 90
        0
280
     0
281
     0
  0
CLASS
  1
ACMECOMMANDHISTORY
  2
AcMeCommandHistory
  3
AcMeServices
 90
        0
280
     0
281
     0
  0
CLASS
  1
ACIMSYSVARMAN
  2
AcImSysVarManager
  3
AcMeServices
 90
        0
280
     0
281
     0
  0
CLASS
  1
ACIMREALSYSVAR
  2
AcImRealSysVar
  3
AcMeServices
 90
        0
280
     0
281
     0
  0
CLASS
  1
ACIMINTSYSVAR
  2
AcImIntSysVar
  3
AcMeServices
 90
        0
280
     0
281
     0
  0
CLASS
  1
ACMEDRAWINGMAN
  2
AcMeDrawingMan
  3
AcMeServices
 90
        0
280
     0
281
     0
  0
CLASS
  1
ACMEVIEW
  2
AcMeView
  3
AcMeServices
 90
        0
280
     0
281
     0
  0
CLASS
  1
ACDBENTITYCACHE
  2
AcMeEntityCache
  3
AcMeServices
 90
        0
280
     0
281
     0
  0
CLASS
  1
GSMANAGER
  2
AcMeGSManager
  3
AcMeServices
 90
        0
280
     0
281
     0
  0
CLASS
  1
AMDTINTERNALREACTOR
  2
AmdtInternalReactor
  3
AcMeServices
 90
        0
280
     0
281
     0
  0
CLASS
  1
ACMESTATEMGR
  2
AcMeStateMgr
  3
AcMeServices
 90
        0
280
     0
281
     0
  0
CLASS
  1
ACGREFMASTER
  2
AcGrefMaster
  3
AcAttribServices
 90
        0
280
     0
281
     0
  0
CLASS
  1
ACME_DATABASE
  2
AcMeDbDatabase
  3
AcMeServices
 90
        0
280
     0
281
     0
  0
CLASS
  1
ACRFINSADJUSTERMGR
  2
AcRfInsAdjusterMgr
  3
AcMeServices
 90
        0
280
     0
281
     0
  0
CLASS
  1
ACGREFACADMASTER
  2
AcGrefacadMaster
  3
AcGrefServices
 90
        0
280
     0
281
     0
  0
CLASS
  1
AMIMASTER
  2
AmiMaster
  3
AmiServices
 90
        0
280
     0
281
     0
  0
CLASS
  1
AMGSETTINGSOBJ
  2
AmgSettingsObj
  3
"AcadM|Product Description: AutoCAD Mechanical 2000|Company: Autodesk"
 90
        0
280
     0
281
     0
  0
CLASS
  1
ACMDATADICTIONARY
  2
AcmDataDictionary
  3
"AcmSymBB|Product Description: AutoCAD Mechanical 2000|Company: Autodesk"
 90
        0
280
     0
281
     0
  0
CLASS
  1
ACMDATAENTRYBLOCK
  2
AcmDataEntryBlock
  3
"AcmSymBB|Product Description: AutoCAD Mechanical 2000|Company: Autodesk"
 90
        0
280
     0
281
     0
  0
CLASS
  1
ACIMSTRSYSVAR
  2
AcImStrSysVar
  3
AcMeServices
 90
        0
280
     0
281
     0
  0
CLASS
  1
ACMSTANDARDDIN
  2
AcmStandardDIN
  3
"Amdt_StdImp|Product Description: AutoCAD Mechanical 2000|Company: Autodesk"
 90
        0
280
     0
281
     0
  0
CLASS
  1
AMGOBJPROPCFG
  2
AmgObjPropCfg
  3
"AmgLay|Product Description: AutoCAD Mechanical 2000|Company: Autodesk"
 90
        1
280
     0
281
     0
  0
CLASS
  1
AMDTEDGESTANDARDDIN
  2
AmdtEdgeStdDIN
  3
"Amdt_StdImp|Product Description: AutoCAD Mechanical 2000|Company: Autodesk"
 90
        0
280
     0
281
     0
  0
CLASS
  1
ACMSURFSTANDARDDIN
  2
AcmSurfTextStdDIN
  3
"Amdt_StdImp|Product Description: AutoCAD Mechanical 2000|Company: Autodesk"
 90
        0
280
     0
281
     0
  0
CLASS
  1
ACMFCFSTANDARDDIN
  2
AcmFCFStdDIN
  3
"Amdt_StdImp|Product Description: AutoCAD Mechanical 2000|Company: Autodesk"
 90
        0
280
     0
281
     0
  0
CLASS
  1
ACMWELDSTANDARDDIN
  2
AcmWeldingStdDIN
  3
"Amdt_StdImp|Product Description: AutoCAD Mechanical 2000|Company: Autodesk"
 90
        0
280
     0
281
     0
  0
CLASS
  1
ACMIDSTANDARDDIN
  2
AcmIdStdDIN
  3
"Amdt_StdImp|Product Description: AutoCAD Mechanical 2000|Company: Autodesk"
 90
        0
280
     0
281
     0
  0
CLASS
  1
ACMDATUMSTANDARDDIN
  2
AcmDatumStdDIN
  3
"Amdt_StdImp|Product Description: AutoCAD Mechanical 2000|Company: Autodesk"
 90
        0
280
     0
281
     0
  0
CLASS
  1
ACMBOMSTANDARDDIN
  2
AcmBOMStdDIN
  3
"Amdt_StdImp|Product Description: AutoCAD Mechanical 2000|Company: Autodesk"
 90
        0
280
     0
281
     0
  0
CLASS
  1
ACMDETAILSTANDARDDIN
  2
AmdtDetailSymStdDIN
  3
"Amdt_StdImp|Product Description: AutoCAD Mechanical 2000|Company: Autodesk"
 90
        0
280
     0
281
     0
  0
CLASS
  1
ACMSECTIONSTANDARDDIN
  2
AmdtSectionSymStdDIN
  3
"Amdt_StdImp|Product Description: AutoCAD Mechanical 2000|Company: Autodesk"
 90
        0
280
     0
281
     0
  0
CLASS
  1
ACMCENTERLINESTANDARDDIN
  2
AmdtCenterLineStdDIN
  3
"Amdt_StdImp|Product Description: AutoCAD Mechanical 2000|Company: Autodesk"
 90
        0
280
     0
281
     0
  0
CLASS
  1
ACMNOTESTANDARDDIN
  2
AmdtNoteStdDIN
  3
"Amdt_StdImp|Product Description: AutoCAD Mechanical 2000|Company: Autodesk"
 90
        0
280
     0
281
     0
  0
CLASS
  1
ACAMGLAYSTD
  2
AcAmgLayStd
  3
"AcAmgLayStd|Product Description: AutoCAD Mechanical 2000|Company: Autodesk"
 90
        0
280
     0
281
     0
  0
CLASS
  1
ACAMGDIMSTD
  2
AcAmgDimStd
  3
"AcAmgDimStd|Product Description: AutoCAD Mechanical 2000|Company: Autodesk"
 90
        0
280
     0
281
     0
  0
CLASS
  1
ACAMGHOLECHARTSTDDIN
  2
AcAmgHoleChartStdDIN
  3
ACMSYMBB_MODULE_NAME
 90
        0
280
     0
281
     0
  0
CLASS
  1
ACAMGTITLESTD
  2
AcAmgTitleStd
  3
"TITLEAPP"
 90
        0
280
     0
281
     0
  0
CLASS
  1
ACMSTANDARDANSI
  2
AcmStandardANSI
  3
"Amdt_StdImp|Product Description: AutoCAD Mechanical 2000|Company: Autodesk"
 90
        0
280
     0
281
     0
  0
CLASS
  1
ACMSURFSTANDARDANSI
  2
AcmSurfTextStdANSI
  3
"Amdt_StdImp|Product Description: AutoCAD Mechanical 2000|Company: Autodesk"
 90
        0
280
     0
281
     0
  0
CLASS
  1
ACMFCFSTANDARDANSI
  2
AcmFCFStdANSI
  3
"Amdt_StdImp|Product Description: AutoCAD Mechanical 2000|Company: Autodesk"
 90
        0
280
     0
281
     0
  0
CLASS
  1
ACMWELDSTANDARDANSI
  2
AcmWeldingStdANSI
  3
"Amdt_StdImp|Product Description: AutoCAD Mechanical 2000|Company: Autodesk"
 90
        0
280
     0
281
     0
  0
CLASS
  1
ACMIDSTANDARDANSI
  2
AcmIdStdANSI
  3
"Amdt_StdImp|Product Description: AutoCAD Mechanical 2000|Company: Autodesk"
 90
        0
280
     0
281
     0
  0
CLASS
  1
ACMDATUMSTANDARDANSI
  2
AcmDatumStdANSI
  3
"Amdt_StdImp|Product Description: AutoCAD Mechanical 2000|Company: Autodesk"
 90
        0
280
     0
281
     0
  0
CLASS
  1
ACMBOMSTANDARDANSI
  2
AcmBOMStdANSI
  3
"Amdt_StdImp|Product Description: AutoCAD Mechanical 2000|Company: Autodesk"
 90
        0
280
     0
281
     0
  0
CLASS
  1
ACMDETAILSTANDARDANSI
  2
AmdtDetailSymStdANSI
  3
"Amdt_StdImp|Product Description: AutoCAD Mechanical 2000|Company: Autodesk"
 90
        0
280
     0
281
     0
  0
CLASS
  1
ACMSECTIONSTANDARDANSI
  2
AmdtSectionSymStdANSI
  3
"Amdt_StdImp|Product Description: AutoCAD Mechanical 2000|Company: Autodesk"
 90
        0
280
     0
281
     0
  0
CLASS
  1
ACMCENTERLINESTANDARDANSI
  2
AmdtCenterLineStdANSI
  3
"Amdt_StdImp|Product Description: AutoCAD Mechanical 2000|Company: Autodesk"
 90
        0
280
     0
281
     0
  0
CLASS
  1
ACMNOTESTANDARDANSI
  2
AmdtNoteStdANSI
  3
"Amdt_StdImp|Product Description: AutoCAD Mechanical 2000|Company: Autodesk"
 90
        0
280
     0
281
     0
  0
CLASS
  1
ACAMGHOLECHARTSTDANSI
  2
AcAmgHoleChartStdANSI
  3
ACMSYMBB_MODULE_NAME
 90
        0
280
     0
281
     0
  0
CLASS
  1
ACAMGFILTERDAT
  2
AcAmgFilterDat
  3
"AcadM|Product Description: AutoCAD Mechanical 2000|Company: Autodesk"
 90
        0
280
     0
281
     0
  0
CLASS
  1
AMDTFORMULAUPDATEDISPATCHER
  2
AmdtFormulaUpdateDispatcher
  3
AcMeServices
 90
        0
280
     0
281
     0
  0
CLASS
  1
LAYER_INDEX
  2
AcDbLayerIndex
  3
AutoCAD 2000
 90
        0
280
     0
281
     0
  0
CLASS
  1
IDBUFFER
  2
AcDbIdBuffer
  3
AutoCAD 2000
 90
        0
280
     0
281
     0
  0
CLASS
  1
DICTIONARYVAR
  2
AcDbDictionaryVar
  3
AutoCAD 2000
 90
        0
280
     0
281
     0
  0
CLASS
  1
DIMASSOC
  2
AcDbDimAssoc
  3
"AcDbDimAssoc|Product Desc:     AcDim ARX App For Dimension|Company:          Autodesk, Inc.|WEB Address:      www.autodesk.com"
 90
        0
280
     0
281
     0
  0
CLASS
  1
ACMDIMBREAKPERSREACTOR
  2
AcmDimBreakPersReactor
  3
amgDimApp().moduleName()
 90
     1023
280
     0
281
     0
  0
CLASS
  1
ACMSURFSYM
  2
AcmSurfaceTexture
  3
"AcmSymBB|Product Description: AutoCAD Mechanical 2000|Company: Autodesk"
 90
     1023
280
     0
281
     1
  0
CLASS
  1
ACMFCFRAME
  2
AcmFCF
  3
"AcmSymBB|Product Description: AutoCAD Mechanical 2000|Company: Autodesk"
 90
     1023
280
     0
281
     1
  0
CLASS
  1
LONG_TRANSACTION
  2
AcDbLongTransaction
  3
AutoCAD 2000
 90
        0
280
     0
281
     0
  0
CLASS
  1
LWPOLYLINE
  2
AcDbPolyline
  3
AutoCAD 2000
 90
        0
280
     0
281
     1
  0
CLASS
  1
HATCH
  2
AcDbHatch
  3
AutoCAD 2000
 90
        0
280
     0
281
     1
  0
CLASS
  1
XRECORD
  2
AcDbXrecord
  3
AutoCAD 2000
 90
        0
280
     0
281
     0
  0
ENDSEC
  0
SECTION
  2
TABLES
  0
TABLE
  2
VPORT
  5
8
330
0
100
AcDbSymbolTable
 70
    14
  0
VPORT
  5
3C01
330
8
100
AcDbSymbolTableRecord
100
AcDbViewportTableRecord
  2
*ACTIVE
 70
     0
 10
0.0
 20
0.0
 11
1.0
 21
1.0
 12
186.8740335908077
 22
112.9084054155997
 13
0.0
 23
0.0
 14
2.5
 24
2.5
 15
10.0
 25
10.0
 16
0.0
 26
0.0
 36
1.0
 17
0.0
 27
0.0
 37
0.0
 40
373.0092790923674
 41
1.72607879924953
 42
50.0
 43
0.0
 44
0.0
 50
0.0
 51
0.0
 71
     0
 72
 10000
 73
     1
 74
     3
 75
     0
 76
     0
 77
     0
 78
     0
  0
ENDTAB
  0
TABLE
  2
LTYPE
  5
5
330
0
100
AcDbSymbolTable
 70
    16
  0
LTYPE
  5
14
330
5
100
AcDbSymbolTableRecord
100
AcDbLinetypeTableRecord
  2
BYBLOCK
 70
     0
  3

 72
    65
 73
     0
 40
0.0
  0
LTYPE
  5
15
330
5
100
AcDbSymbolTableRecord
100
AcDbLinetypeTableRecord
  2
BYLAYER
 70
     0
  3

 72
    65
 73
     0
 40
0.0
  0
LTYPE
  5
16
330
5
100
AcDbSymbolTableRecord
100
AcDbLinetypeTableRecord
  2
CONTINUOUS
 70
     0
  3
Solid line
 72
    65
 73
     0
 40
0.0
  0
LTYPE
  5
50
330
5
100
AcDbSymbolTableRecord
100
AcDbLinetypeTableRecord
  2
AMCONSTR
 70
     0
  3
_______________________
 72
    65
 73
     2
 40
9999.0
 49
9999.0
 74
     0
 49
0.0
 74
     0
  0
LTYPE
  5
55
330
5
100
AcDbSymbolTableRecord
100
AcDbLinetypeTableRecord
  2
AMZIGZAG
 70
     0
  3
/\/-/\/-/\/-/\/-/\/-/\/
 72
    65
 73
     2
 40
11.00009999999999
 49
0.0001
 74
     4
 75
   135
340
54
 46
0.04
 50
0.0
 44
0.0
 45
0.0
 49
-11.0
 74
     0
  0
LTYPE
  5
56
330
5
100
AcDbSymbolTableRecord
100
AcDbLinetypeTableRecord
  2
AM_DIN_F_W050
 70
     0
  3
__ __ __ __ __ __ __ __ __ __ __ __ __ __ __
 72
    65
 73
     2
 40
6.25
 49
4.75
 74
     0
 49
-1.5
 74
     0
  0
LTYPE
  5
57
330
5
100
AcDbSymbolTableRecord
100
AcDbLinetypeTableRecord
  2
AM_DIN_G_W050
 70
     0
  3
____ . ____ . ____ . ____ . ____ . ____ . ____
 72
    65
 73
     4
 40
13.75
 49
9.75
 74
     0
 49
-1.5
 74
     0
 49
1.0
 74
     0
 49
-1.5
 74
     0
  0
LTYPE
  5
58
330
5
100
AcDbSymbolTableRecord
100
AcDbLinetypeTableRecord
  2
AM_DIN_K_W050
 70
     0
  3
_____ . . _____ . . _____ . . ____ .. ____
 72
    65
 73
     6
 40
16.25
 49
9.75
 74
     0
 49
-1.5
 74
     0
 49
1.0
 74
     0
 49
-1.5
 74
     0
 49
1.0
 74
     0
 49
-1.5
 74
     0
  0
LTYPE
  5
59
330
5
100
AcDbSymbolTableRecord
100
AcDbLinetypeTableRecord
  2
AM_DIN_G_W050X2
 70
     0
  3
__ . __ . __ . __ . __ . __
 72
    65
 73
     4
 40
6.875
 49
4.75
 74
     0
 49
-0.875
 74
     0
 49
0.375
 74
     0
 49
-0.875
 74
     0
  0
LTYPE
  5
5A
330
5
100
AcDbSymbolTableRecord
100
AcDbLinetypeTableRecord
  2
AM_DIN_F_W050X2
 70
     0
  3
 _ _ _ _ _ _ _ _ _ _ _ _
 72
    65
 73
     2
 40
3.125
 49
2.25
 74
     0
 49
-0.875
 74
     0
  0
LTYPE
  5
68
330
5
100
AcDbSymbolTableRecord
100
AcDbLinetypeTableRecord
  2
ACDINWELD
 70
     0
  3
_ _ _ _ _
 72
    65
 73
     2
 40
2.0
 49
2.0
 74
     0
 49
-1.0
 74
     0
  0
LTYPE
  5
69
330
5
100
AcDbSymbolTableRecord
100
AcDbLinetypeTableRecord
  2
ACDINTGB
 70
     0
  3
__ . . __ . .
 72
    65
 73
     6
 40
9.0
 49
4.0
 74
     0
 49
-1.0
 74
     0
 49
1.0
 74
     0
 49
-1.0
 74
     0
 49
1.0
 74
     0
 49
-1.0
 74
     0
  0
LTYPE
  5
6A
330
5
100
AcDbSymbolTableRecord
100
AcDbLinetypeTableRecord
  2
ACDINTGL
 70
     0
  3
_ _ _ _ _
 72
    65
 73
     2
 40
3.0
 49
2.0
 74
     0
 49
-1.0
 74
     0
  0
LTYPE
  5
6C
330
5
100
AcDbSymbolTableRecord
100
AcDbLinetypeTableRecord
  2
CENTER
 70
     0
  3
__ . __
 72
    65
 73
     4
 40
7.0
 49
4.0
 74
     0
 49
-1.0
 74
     0
 49
1.0
 74
     0
 49
-1.0
 74
     0
  0
LTYPE
  5
1E2C
330
5
100
AcDbSymbolTableRecord
100
AcDbLinetypeTableRecord
  2
PHANTOM2
 70
     0
  3
Phantom (.5x) ___ _ _ ___ _ _ ___ _ _ ___ _ _
 72
    65
 73
     6
 40
1.25
 49
0.625
 74
     0
 49
-0.125
 74
     0
 49
0.125
 74
     0
 49
-0.125
 74
     0
 49
0.125
 74
     0
 49
-0.125
 74
     0
  0
LTYPE
  5
1E2D
330
5
100
AcDbSymbolTableRecord
100
AcDbLinetypeTableRecord
  2
ACANSTGB
 70
     0
  3
__ . . __ . .
 72
    65
 73
     6
 40
0.35433070866
 49
0.15748031496
 74
     0
 49
-0.03937007874
 74
     0
 49
0.03937007874
 74
     0
 49
-0.03937007874
 74
     0
 49
0.03937007874
 74
     0
 49
-0.03937007874
 74
     0
  0
LTYPE
  5
1E2E
330
5
100
AcDbSymbolTableRecord
100
AcDbLinetypeTableRecord
  2
ACANSTGL
 70
     0
  3
_ _ _ _ _
 72
    65
 73
     2
 40
0.11811023622
 49
0.07874015748
 74
     0
 49
-0.03937007874
 74
     0
  0
LTYPE
  5
1E2F
330
5
100
AcDbSymbolTableRecord
100
AcDbLinetypeTableRecord
  2
DASHED
 70
     0
  3
__ __ __ __ __ __ __ __ __ __ __ __ __ __ __ __
 72
    65
 73
     2
 40
19.05
 49
12.7
 74
     0
 49
-6.349999999999998
 74
     0
  0
ENDTAB
  0
TABLE
  2
LAYER
  5
2
330
0
100
AcDbSymbolTable
 70
    11
  0
LAYER
  5
10
330
2
100
AcDbSymbolTableRecord
100
AcDbLayerTableRecord
  2
0
 70
     0
 62
     7
  6
CONTINUOUS
  0
LAYER
  5
263
330
2
100
AcDbSymbolTableRecord
100
AcDbLayerTableRecord
  2
DEFPOINTS
 70
     0
 62
     7
  6
CONTINUOUS
  0
LAYER
  5
1E30
330
2
100
AcDbSymbolTableRecord
100
AcDbLayerTableRecord
  2
1
 70
     0
 62
     4
  6
CONTINUOUS
  0
LAYER
  5
1E31
330
2
100
AcDbSymbolTableRecord
100
AcDbLayerTableRecord
  2
2
 70
     0
 62
     7
  6
CONTINUOUS
  0
LAYER
  5
1E32
330
2
100
AcDbSymbolTableRecord
100
AcDbLayerTableRecord
  2
4
 70
     0
 62
     2
  6
CENTER
  0
LAYER
  5
1E33
330
2
100
AcDbSymbolTableRecord
100
AcDbLayerTableRecord
  2
6
 70
     0
 62
     5
  6
CONTINUOUS
  0
LAYER
  5
1E34
330
2
100
AcDbSymbolTableRecord
100
AcDbLayerTableRecord
  2
SK1
 70
     0
 62
     4
  6
CONTINUOUS
  0
LAYER
  5
1E35
330
2
100
AcDbSymbolTableRecord
100
AcDbLayerTableRecord
  2
SK2
 70
     0
 62
     7
  6
CONTINUOUS
  0
LAYER
  5
1E36
330
2
100
AcDbSymbolTableRecord
100
AcDbLayerTableRecord
  2
SK3
 70
     0
 62
     1
  6
DASHED
  0
LAYER
  5
1E38
330
2
100
AcDbSymbolTableRecord
100
AcDbLayerTableRecord
  2
NOCUT
 70
     0
 62
     7
  6
CONTINUOUS
  0
LAYER
  5
2E80
330
2
100
AcDbSymbolTableRecord
100
AcDbLayerTableRecord
  2
SK4
 70
     0
 62
     2
  6
CENTER
  0
ENDTAB
  0
TABLE
  2
STYLE
  5
3
330
0
100
AcDbSymbolTable
 70
     6
  0
STYLE
  5
11
330
3
100
AcDbSymbolTableRecord
100
AcDbTextStyleTableRecord
  2
STANDARD
 70
     0
 40
0.0
 41
1.0
 50
0.0
 71
     0
 42
2.5
  3
ISOCP.SHX
  4

  0
STYLE
  5
54
330
3
100
AcDbSymbolTableRecord
100
AcDbTextStyleTableRecord
  2

 70
     1
 40
0.0
 41
1.0
 50
0.0
 71
     0
 42
2.5
  3
ltypeshp.shx
  4

  0
STYLE
  5
5B
330
3
100
AcDbSymbolTableRecord
100
AcDbTextStyleTableRecord
  2
ACDINTS
 70
     0
 40
1.0
 41
1.0
 50
0.0
 71
     0
 42
2.5
  3
isocp.shx
  4

  0
STYLE
  5
67
330
3
100
AcDbSymbolTableRecord
100
AcDbTextStyleTableRecord
  2
ACDINGDT
 70
     0
 40
0.0
 41
1.0
 50
0.0
 71
     0
 42
2.5
  3
amgdt.shx
  4

  0
STYLE
  5
1E39
330
3
100
AcDbSymbolTableRecord
100
AcDbTextStyleTableRecord
  2
ACANSTS
 70
     0
 40
1.0
 41
1.0
 50
0.0
 71
     0
 42
0.2
  3
romans.shx
  4

  0
STYLE
  5
1E3A
330
3
100
AcDbSymbolTableRecord
100
AcDbTextStyleTableRecord
  2
ACANSGDT
 70
     0
 40
0.0
 41
1.0
 50
0.0
 71
     0
 42
0.2
  3
amgdtans.shx
  4

  0
ENDTAB
  0
TABLE
  2
VIEW
  5
6
330
0
100
AcDbSymbolTable
 70
     0
  0
ENDTAB
  0
TABLE
  2
UCS
  5
7
330
0
100
AcDbSymbolTable
 70
     0
  0
ENDTAB
  0
TABLE
  2
APPID
  5
9
330
0
100
AcDbSymbolTable
 70
    67
  0
APPID
  5
12
330
9
100
AcDbSymbolTableRecord
100
AcDbRegAppTableRecord
  2
ACAD
 70
     0
  0
APPID
  5
2C
330
9
100
AcDbSymbolTableRecord
100
AcDbRegAppTableRecord
  2
MCAD_NO_VIS
 70
     0
  0
APPID
  5
2D
330
9
100
AcDbSymbolTableRecord
100
AcDbRegAppTableRecord
  2
ACAD_TEMP_GRAPHIC
 70
     0
  0
APPID
  5
3E
330
9
100
AcDbSymbolTableRecord
100
AcDbRegAppTableRecord
  2
ACATTRIBSERVICES
 70
     0
  0
APPID
  5
29A
330
9
100
AcDbSymbolTableRecord
100
AcDbRegAppTableRecord
  2
GENIUS_GENDIMSH_14
 70
     0
  0
APPID
  5
588
330
9
100
AcDbSymbolTableRecord
100
AcDbRegAppTableRecord
  2
GENIUS12
 70
     0
  0
APPID
  5
589
330
9
100
AcDbSymbolTableRecord
100
AcDbRegAppTableRecord
  2
GENIUS_GENOENT_13
 70
     0
  0
APPID
  5
58A
330
9
100
AcDbSymbolTableRecord
100
AcDbRegAppTableRecord
  2
GENIUS_GENODEF_13
 70
     0
  0
APPID
  5
58B
330
9
100
AcDbSymbolTableRecord
100
AcDbRegAppTableRecord
  2
GENIUS_GENOBJ-N-RSBK_13
 70
     0
  0
APPID
  5
58C
330
9
100
AcDbSymbolTableRecord
100
AcDbRegAppTableRecord
  2
GENIUS_GENOBJ-N-DIM12_13
 70
     0
  0
APPID
  5
58D
330
9
100
AcDbSymbolTableRecord
100
AcDbRegAppTableRecord
  2
GENIUS_GENSCALE_13
 70
     0
  0
APPID
  5
58E
330
9
100
AcDbSymbolTableRecord
100
AcDbRegAppTableRecord
  2
GENIUS_GENCFG_13
 70
     0
  0
APPID
  5
58F
330
9
100
AcDbSymbolTableRecord
100
AcDbRegAppTableRecord
  2
GENIUS_GENCFG0_13
 70
     0
  0
APPID
  5
590
330
9
100
AcDbSymbolTableRecord
100
AcDbRegAppTableRecord
  2
GENIUS_GENCFG1_13
 70
     0
  0
APPID
  5
591
330
9
100
AcDbSymbolTableRecord
100
AcDbRegAppTableRecord
  2
GENIUS_GENCFG2_13
 70
     0
  0
APPID
  5
592
330
9
100
AcDbSymbolTableRecord
100
AcDbRegAppTableRecord
  2
GENIUS_GENCFG3_13
 70
     0
  0
APPID
  5
593
330
9
100
AcDbSymbolTableRecord
100
AcDbRegAppTableRecord
  2
GENIUS_GENCFG4_13
 70
     0
  0
APPID
  5
594
330
9
100
AcDbSymbolTableRecord
100
AcDbRegAppTableRecord
  2
GENIUS_GEVCFG0_13
 70
     0
  0
APPID
  5
595
330
9
100
AcDbSymbolTableRecord
100
AcDbRegAppTableRecord
  2
GENIUS_GENOBJ-F-SUF_13
 70
     0
  0
APPID
  5
596
330
9
100
AcDbSymbolTableRecord
100
AcDbRegAppTableRecord
  2
GENIUS_GEFCFG0_13
 70
     0
  0
APPID
  5
597
330
9
100
AcDbSymbolTableRecord
100
AcDbRegAppTableRecord
  2
GEV_VCCNULL_SWITCH_OFF
 70
     0
  0
APPID
  5
598
330
9
100
AcDbSymbolTableRecord
100
AcDbRegAppTableRecord
  2
GENIUS_GENDTOL_13
 70
     0
  0
APPID
  5
599
330
9
100
AcDbSymbolTableRecord
100
AcDbRegAppTableRecord
  2
GENIUS_GENDIM_13
 70
     0
  0
APPID
  5
59A
330
9
100
AcDbSymbolTableRecord
100
AcDbRegAppTableRecord
  2
GENIUS_GE3DTOL_13
 70
     0
  0
APPID
  5
59B
330
9
100
AcDbSymbolTableRecord
100
AcDbRegAppTableRecord
  2
AD_DRAW
 70
     0
  0
APPID
  5
59C
330
9
100
AcDbSymbolTableRecord
100
AcDbRegAppTableRecord
  2
ASURF_PCURVE_APPNAME
 70
     0
  0
APPID
  5
59D
330
9
100
AcDbSymbolTableRecord
100
AcDbRegAppTableRecord
  2
AMG_3D2D_5_0
 70
     0
  0
APPID
  5
59E
330
9
100
AcDbSymbolTableRecord
100
AcDbRegAppTableRecord
  2
DESIGNERASSEMBLIES
 70
     0
  0
APPID
  5
59F
330
9
100
AcDbSymbolTableRecord
100
AcDbRegAppTableRecord
  2
ACADM_DIM_EDIT
 70
     0
  0
APPID
  5
5A0
330
9
100
AcDbSymbolTableRecord
100
AcDbRegAppTableRecord
  2
AMDT_DM_ADJ
 70
     0
  0
APPID
  5
5A1
330
9
100
AcDbSymbolTableRecord
100
AcDbRegAppTableRecord
  2
GENIUS_GENSCREG_15
 70
     0
  0
APPID
  5
5A2
330
9
100
AcDbSymbolTableRecord
100
AcDbRegAppTableRecord
  2
GENIUS_GENOBJ-N-SDF_13
 70
     0
  0
APPID
  5
6E4
330
9
100
AcDbSymbolTableRecord
100
AcDbRegAppTableRecord
  2
GENIUS_GENOBJ-N-FIL_13
 70
     0
  0
APPID
  5
C65
330
9
100
AcDbSymbolTableRecord
100
AcDbRegAppTableRecord
  2
GENIUS_GENHINW_13
 70
     0
  0
APPID
  5
C66
330
9
100
AcDbSymbolTableRecord
100
AcDbRegAppTableRecord
  2
GENIUS_GENOBJ-F-TOLL_13
 70
     0
  0
APPID
  5
C67
330
9
100
AcDbSymbolTableRecord
100
AcDbRegAppTableRecord
  2
GENIUS_GENOREF_13
 70
     0
  0
APPID
  5
C68
330
9
100
AcDbSymbolTableRecord
100
AcDbRegAppTableRecord
  2
GENIUS_GENOLIS_13
 70
     0
  0
APPID
  5
C69
330
9
100
AcDbSymbolTableRecord
100
AcDbRegAppTableRecord
  2
GENIUS_GEFTOLC_13
 70
     0
  0
APPID
  5
C6A
330
9
100
AcDbSymbolTableRecord
100
AcDbRegAppTableRecord
  2
GENIUS_GENOBJ-F-TOL_13
 70
     0
  0
APPID
  5
C6B
330
9
100
AcDbSymbolTableRecord
100
AcDbRegAppTableRecord
  2
GENIUS_GENOBJ-N-RSSYM_13
 70
     0
  0
APPID
  5
C6C
330
9
100
AcDbSymbolTableRecord
100
AcDbRegAppTableRecord
  2
GENIUS_GENSYMENT_13
 70
     0
  0
APPID
  5
C6D
330
9
100
AcDbSymbolTableRecord
100
AcDbRegAppTableRecord
  2
GENIUS_GENSCSYM_13
 70
     0
  0
APPID
  5
1E42
330
9
100
AcDbSymbolTableRecord
100
AcDbRegAppTableRecord
  2
GENIUS_GENBLLY_14
 70
     0
  0
APPID
  5
1E43
330
9
100
AcDbSymbolTableRecord
100
AcDbRegAppTableRecord
  2
GENIUS_GENTRA_14
 70
     0
  0
APPID
  5
1E44
330
9
100
AcDbSymbolTableRecord
100
AcDbRegAppTableRecord
  2
GENIUS_GENOBJ-N-TIT_13
 70
     0
  0
APPID
  5
1E45
330
9
100
AcDbSymbolTableRecord
100
AcDbRegAppTableRecord
  2
GENIUS_GENTITLE_13
 70
     0
  0
APPID
  5
1E46
330
9
100
AcDbSymbolTableRecord
100
AcDbRegAppTableRecord
  2
ACADIGES
 70
     0
  0
APPID
  5
1E47
330
9
100
AcDbSymbolTableRecord
100
AcDbRegAppTableRecord
  2
GENIUS_GENOBJ-N-HTC_13
 70
     0
  0
APPID
  5
1E48
330
9
100
AcDbSymbolTableRecord
100
AcDbRegAppTableRecord
  2
GENIUS_GENHATCH_13
 70
     0
  0
APPID
  5
1E49
330
9
100
AcDbSymbolTableRecord
100
AcDbRegAppTableRecord
  2
GENIUS_GENOBJ-N-CRS_13
 70
     0
  0
APPID
  5
1E4A
330
9
100
AcDbSymbolTableRecord
100
AcDbRegAppTableRecord
  2
GENIUS_GENFIL_13
 70
     0
  0
APPID
  5
1E4B
330
9
100
AcDbSymbolTableRecord
100
AcDbRegAppTableRecord
  2
GENIUS_GENOBJ-N-CHA_13
 70
     0
  0
APPID
  5
1E4C
330
9
100
AcDbSymbolTableRecord
100
AcDbRegAppTableRecord
  2
GENIUS_GENOBJ-N-CEN_13
 70
     0
  0
APPID
  5
28E0
330
9
100
AcDbSymbolTableRecord
100
AcDbRegAppTableRecord
  2
AD_SKETCHDIM
 70
     0
  0
APPID
  5
2B2E
330
9
100
AcDbSymbolTableRecord
100
AcDbRegAppTableRecord
  2
GENIUS_FIRSTVISTXT_14
 70
     0
  0
APPID
  5
2B2F
330
9
100
AcDbSymbolTableRecord
100
AcDbRegAppTableRecord
  2
GENIUS_SECONDVISTXT_14
 70
     0
  0
APPID
  5
2B30
330
9
100
AcDbSymbolTableRecord
100
AcDbRegAppTableRecord
  2
GENIUS_GENOBJ-N-HINW_13
 70
     0
  0
APPID
  5
2B31
330
9
100
AcDbSymbolTableRecord
100
AcDbRegAppTableRecord
  2
GENIUS_GENOBJ-N-PAL_13
 70
     0
  0
APPID
  5
2B32
330
9
100
AcDbSymbolTableRecord
100
AcDbRegAppTableRecord
  2
GENIUS_GENPAL_13
 70
     0
  0
APPID
  5
2B33
330
9
100
AcDbSymbolTableRecord
100
AcDbRegAppTableRecord
  2
GENIUS_GENSCREG_13
 70
     0
  0
APPID
  5
2B34
330
9
100
AcDbSymbolTableRecord
100
AcDbRegAppTableRecord
  2
GENIUS_GE3CFG0_13
 70
     0
  0
APPID
  5
2B35
330
9
100
AcDbSymbolTableRecord
100
AcDbRegAppTableRecord
  2
GENIUS_GENOBJ-F-EDG_13
 70
     0
  0
APPID
  5
2B36
330
9
100
AcDbSymbolTableRecord
100
AcDbRegAppTableRecord
  2
GENIUS_GENOBJ-F-TOLT_13
 70
     0
  0
APPID
  5
2B37
330
9
100
AcDbSymbolTableRecord
100
AcDbRegAppTableRecord
  2
GENIUS_GENZVEED_13
 70
     0
  0
APPID
  5
2B38
330
9
100
AcDbSymbolTableRecord
100
AcDbRegAppTableRecord
  2
GENIUS_GENREC_14
 70
     0
  0
APPID
  5
2B39
330
9
100
AcDbSymbolTableRecord
100
AcDbRegAppTableRecord
  2
GENIUS_GENOBJ-N-REC_13
 70
     0
  0
APPID
  5
2B3A
330
9
100
AcDbSymbolTableRecord
100
AcDbRegAppTableRecord
  2
GENIUS_DUMCFG0_13
 70
     0
  0
ENDTAB
  0
TABLE
  2
DIMSTYLE
  5
A
330
0
100
AcDbSymbolTable
 70
    14
  0
DIMSTYLE
105
6F
102
{ACAD_REACTORS
330
3AA5
330
3AD6
330
3B0A
330
3B50
102
}
330
A
100
AcDbSymbolTableRecord
100
AcDbDimStyleTableRecord
  2
AM_DIN
 70
     0
  3

  4
"
  5

  6

  7

 40
1.0
 41
2.5
 42
0.0
 43
10.0
 44
1.0
 45
0.0
 46
0.0
 47
0.1
 48
0.1
140
3.5
141
0.0
142
0.0
143
0.0393701
144
1.0
145
0.0
146
0.71
147
1.5
 71
     0
 72
     0
 73
     0
 74
     0
 75
     0
 76
     0
 77
     1
 78
     8
170
     0
171
     2
172
     1
173
     0
174
     0
175
     0
176
   256
177
   256
178
     2
270
     2
271
     2
272
     2
273
     2
274
     2
340
11
275
     0
280
     0
281
     0
282
     0
283
     0
284
     8
285
     0
286
     0
287
     3
288
     0
  0
DIMSTYLE
105
70
330
A
100
AcDbSymbolTableRecord
100
AcDbDimStyleTableRecord
  2
AM_DIN$3
 70
     0
  3

  4
"
  5

  6

  7

 40
1.0
 41
3.5
 42
0.0
 43
10.0
 44
1.0
 45
0.0
 46
0.0
 47
0.1
 48
0.1
140
3.5
141
0.0
142
0.0
143
0.0393701
144
1.0
145
0.0
146
0.71
147
1.5
 71
     0
 72
     0
 73
     0
 74
     1
 75
     0
 76
     0
 77
     1
 78
     8
170
     0
171
     2
172
     0
173
     0
174
     0
175
     0
176
   256
177
   256
178
     2
270
     2
271
     2
272
     2
273
     2
274
     2
340
11
275
     0
280
     0
281
     0
282
     0
283
     0
284
     8
285
     0
286
     0
287
     0
288
     1
  0
DIMSTYLE
105
71
330
A
100
AcDbSymbolTableRecord
100
AcDbDimStyleTableRecord
  2
AM_DIN$4
 70
     0
  3

  4
"
  5

  6

  7

 40
1.0
 41
3.5
 42
0.0
 43
10.0
 44
1.0
 45
0.0
 46
0.0
 47
0.1
 48
0.1
140
3.5
141
0.0
142
0.0
143
0.0393701
144
1.0
145
0.0
146
0.71
147
1.5
 71
     0
 72
     0
 73
     0
 74
     1
 75
     0
 76
     0
 77
     1
 78
     8
170
     0
171
     2
172
     0
173
     0
174
     0
175
     0
176
   256
177
   256
178
     2
270
     2
271
     2
272
     2
273
     2
274
     2
340
11
275
     0
280
     0
281
     0
282
     0
283
     0
284
     8
285
     0
286
     0
287
     0
288
     1
  0
DIMSTYLE
105
72
330
A
100
AcDbSymbolTableRecord
100
AcDbDimStyleTableRecord
  2
AM_DIN$6
 70
     0
  3

  4
"
  5

  6

  7

 40
1.0
 41
3.5
 42
0.0
 43
0.0
 44
1.0
 45
0.0
 46
0.0
 47
0.1
 48
0.1
140
3.5
141
0.0
142
0.0
143
0.0393701
144
1.0
145
0.0
146
0.71
147
1.5
 71
     0
 72
     0
 73
     0
 74
     0
 75
     0
 76
     0
 77
     0
 78
     8
170
     0
171
     2
172
     1
173
     0
174
     0
175
     0
176
   256
177
   256
178
     2
270
     2
271
     2
272
     2
273
     2
274
     2
340
11
275
     0
280
     0
281
     0
282
     0
283
     0
284
     8
285
     0
286
     0
287
     3
288
     0
  0
DIMSTYLE
105
73
330
A
100
AcDbSymbolTableRecord
100
AcDbDimStyleTableRecord
  2
AM_DIN$7
 70
     0
  3

  4
"
  5

  6

  7

 40
1.0
 41
3.5
 42
0.0
 43
10.0
 44
1.0
 45
0.0
 46
0.0
 47
0.1
 48
0.1
140
3.5
141
0.0
142
0.0
143
0.0393701
144
1.0
145
0.0
146
0.71
147
1.5
 71
     0
 72
     0
 73
     0
 74
     0
 75
     0
 76
     0
 77
     1
 78
     8
170
     0
171
     2
172
     1
173
     0
174
     0
175
     0
176
   256
177
   256
178
     2
270
     2
271
     2
272
     2
273
     2
274
     2
340
11
275
     0
280
     0
281
     0
282
     0
283
     0
284
     8
285
     0
286
     0
287
     3
288
     0
  0
DIMSTYLE
105
74
330
A
100
AcDbSymbolTableRecord
100
AcDbDimStyleTableRecord
  2
AM_DIN$SF
 70
     0
  3

  4
"
  5

  6

  7

 40
1.0
 41
2.5
 42
1.0
 43
10.0
 44
1.0
 45
0.0
 46
0.0
 47
0.1
 48
0.1
140
3.5
141
0.0
142
0.0
143
0.0393701
144
1.0
145
0.0
146
0.71
147
1.5
 71
     0
 72
     0
 73
     0
 74
     0
 75
     1
 76
     1
 77
     1
 78
     8
170
     0
171
     2
172
     1
173
     0
174
     0
175
     0
176
   256
177
   256
178
     2
270
     2
271
     2
272
     3
273
     2
274
     4
340
11
275
     0
280
     0
281
     0
282
     0
283
     0
284
     8
285
     0
286
     0
287
     3
288
     0
  0
DIMSTYLE
105
79
330
A
100
AcDbSymbolTableRecord
100
AcDbDimStyleTableRecord
  2
AM_DIN$SH
 70
     0
  3

  4
"
  5

  6
GENAXEH
  7

 40
1.0
 41
2.5
 42
1.0
 43
10.0
 44
1.0
 45
0.0
 46
0.0
 47
0.1
 48
0.1
140
3.5
141
0.0
142
0.0
143
0.0393701
144
2.0
145
0.0
146
0.71
147
1.5
 71
     0
 72
     0
 73
     0
 74
     0
 75
     1
 76
     1
 77
     1
 78
     8
170
     0
171
     2
172
     1
173
     1
174
     0
175
     0
176
   256
177
   256
178
     2
270
     2
271
     2
272
     3
273
     2
274
     4
340
11
275
     0
280
     0
281
     0
282
     0
283
     0
284
     8
285
     0
286
     0
287
     3
288
     0
  0
DIMSTYLE
105
1E3B
330
A
100
AcDbSymbolTableRecord
100
AcDbDimStyleTableRecord
  2
STANDARD
 70
     0
  3

  4

  5

  6

  7

 40
1.0
 41
0.18
 42
0.0625
 43
0.38
 44
0.18
 45
0.0
 46
0.0
 47
0.0
 48
0.0
140
0.18
141
0.09
142
0.0
143
25.4
144
1.0
145
0.0
146
1.0
147
0.09
 71
     0
 72
     0
 73
     1
 74
     1
 75
     0
 76
     0
 77
     0
 78
     0
170
     0
171
     2
172
     0
173
     0
174
     0
175
     0
176
     0
177
     0
178
     0
270
     2
271
     2
272
     2
273
     2
274
     2
340
11
275
     0
280
     0
281
     0
282
     0
283
     1
284
     8
285
     8
286
     8
287
     5
288
     0
  0
DIMSTYLE
105
1E3C
330
A
100
AcDbSymbolTableRecord
100
AcDbDimStyleTableRecord
  2
AM_ANSI
 70
     0
  3

  4
mm
  5

  6

  7

 40
1.0
 41
0.1
 42
0.0
 43
0.5
 44
0.1
 45
0.0
 46
0.0
 47
0.1
 48
0.1
140
0.12
141
0.0
142
0.0
143
25.4
144
1.0
145
0.0
146
0.71
147
0.06
 71
     0
 72
     0
 73
     1
 74
     1
 75
     0
 76
     0
 77
     0
 78
     7
170
     0
171
     2
172
     0
173
     0
174
     0
175
     0
176
   256
177
   256
178
     2
270
     2
271
     2
272
     2
273
     2
274
     2
340
11
275
     0
280
     0
281
     0
282
     0
283
     1
284
     8
285
     8
286
     8
287
     5
288
     0
  0
DIMSTYLE
105
1E3D
330
A
100
AcDbSymbolTableRecord
100
AcDbDimStyleTableRecord
  2
AM_ANSI$3
 70
     0
  3

  4
mm
  5

  6

  7

 40
1.0
 41
0.1
 42
0.0
 43
0.5
 44
0.1
 45
0.0
 46
0.0
 47
0.1
 48
0.1
140
0.12
141
0.0
142
0.0
143
25.4
144
1.0
145
0.0
146
0.71
147
0.06
 71
     0
 72
     0
 73
     1
 74
     1
 75
     0
 76
     0
 77
     0
 78
     7
170
     0
171
     2
172
     0
173
     0
174
     0
175
     0
176
   256
177
   256
178
     2
270
     2
271
     2
272
     2
273
     2
274
     2
340
11
275
     0
280
     0
281
     0
282
     0
283
     1
284
     8
285
     8
286
     8
287
     5
288
     0
  0
DIMSTYLE
105
1E3E
330
A
100
AcDbSymbolTableRecord
100
AcDbDimStyleTableRecord
  2
AM_ANSI$4
 70
     0
  3

  4
mm
  5

  6

  7

 40
1.0
 41
0.1
 42
0.0
 43
0.5
 44
0.1
 45
0.0
 46
0.0
 47
0.1
 48
0.1
140
0.12
141
0.0
142
0.0
143
25.4
144
1.0
145
0.0
146
0.71
147
0.06
 71
     0
 72
     0
 73
     1
 74
     1
 75
     0
 76
     0
 77
     0
 78
     7
170
     0
171
     2
172
     0
173
     0
174
     0
175
     0
176
   256
177
   256
178
     2
270
     2
271
     2
272
     2
273
     2
274
     2
340
11
275
     0
280
     0
281
     0
282
     0
283
     1
284
     8
285
     8
286
     8
287
     5
288
     0
  0
DIMSTYLE
105
1E3F
330
A
100
AcDbSymbolTableRecord
100
AcDbDimStyleTableRecord
  2
AM_ANSI$7
 70
     0
  3

  4
mm
  5

  6

  7

 40
1.0
 41
0.1
 42
0.0
 43
0.5
 44
0.1
 45
0.0
 46
0.0
 47
0.1
 48
0.1
140
0.24
141
0.0
142
0.0
143
25.4
144
1.0
145
0.0
146
0.71
147
0.06
 71
     0
 72
     0
 73
     1
 74
     1
 75
     0
 76
     0
 77
     0
 78
     7
170
     0
171
     2
172
     0
173
     0
174
     0
175
     0
176
   256
177
   256
178
     2
270
     2
271
     2
272
     2
273
     2
274
     2
340
11
275
     0
280
     0
281
     0
282
     0
283
     1
284
     8
285
     8
286
     8
287
     5
288
     0
  0
DIMSTYLE
105
1E40
330
A
100
AcDbSymbolTableRecord
100
AcDbDimStyleTableRecord
  2
AM_ANSI$SF
 70
     0
  3

  4
mm
  5

  6

  7

 40
1.0
 41
0.1
 42
0.05
 43
0.5
 44
0.1
 45
0.0
 46
0.0
 47
0.1
 48
0.1
140
0.12
141
0.0
142
0.0
143
25.4
144
1.0
145
0.0
146
0.71
147
0.06
 71
     0
 72
     0
 73
     1
 74
     1
 75
     1
 76
     1
 77
     0
 78
     7
170
     0
171
     2
172
     0
173
     0
174
     0
175
     0
176
   256
177
   256
178
     2
270
     2
271
     2
272
     2
273
     2
274
     2
340
11
275
     0
280
     0
281
     0
282
     0
283
     1
284
     8
285
     8
286
     8
287
     5
288
     0
  0
DIMSTYLE
105
1E41
330
A
100
AcDbSymbolTableRecord
100
AcDbDimStyleTableRecord
  2
AM_ANSI$SH
 70
     0
  3

  4
mm
  5

  6

  7

 40
1.0
 41
0.1
 42
0.05
 43
0.5
 44
0.1
 45
0.0
 46
0.0
 47
0.1
 48
0.1
140
0.12
141
0.0
142
0.0
143
25.4
144
1.0
145
0.0
146
0.71
147
0.06
 71
     0
 72
     0
 73
     1
 74
     1
 75
     1
 76
     1
 77
     0
 78
     7
170
     0
171
     2
172
     0
173
     1
174
     0
175
     0
176
   256
177
   256
178
     2
270
     2
271
     2
272
     2
273
     2
274
     2
340
11
275
     0
280
     0
281
     0
282
     0
283
     1
284
     8
285
     8
286
     8
287
     5
288
     0
  0
ENDTAB
  0
TABLE
  2
BLOCK_RECORD
  5
1
330
0
100
AcDbSymbolTable
 70
     6
  0
BLOCK_RECORD
  5
1F
102
{ACAD_XDICTIONARY
360
1F1
102
}
330
1
100
AcDbSymbolTableRecord
100
AcDbBlockTableRecord
  2
*MODEL_SPACE
  0
BLOCK_RECORD
  5
1B
102
{ACAD_XDICTIONARY
360
3C23
102
}
330
1
100
AcDbSymbolTableRecord
100
AcDbBlockTableRecord
  2
*PAPER_SPACE
  0
BLOCK_RECORD
  5
75
330
1
100
AcDbSymbolTableRecord
100
AcDbBlockTableRecord
  2
GENAXEH
  0
BLOCK_RECORD
  5
3AA6
330
1
100
AcDbSymbolTableRecord
100
AcDbBlockTableRecord
  2
*D2
  0
BLOCK_RECORD
  5
3AD7
330
1
100
AcDbSymbolTableRecord
100
AcDbBlockTableRecord
  2
*D3
  0
BLOCK_RECORD
  5
3B0B
330
1
100
AcDbSymbolTableRecord
100
AcDbBlockTableRecord
  2
*D4
  0
BLOCK_RECORD
  5
3B51
330
1
100
AcDbSymbolTableRecord
100
AcDbBlockTableRecord
  2
*D5
  0
ENDTAB
  0
ENDSEC
  0
SECTION
  2
BLOCKS
  0
BLOCK
  5
20
330
1F
100
AcDbEntity
  8
0
100
AcDbBlockBegin
  2
*MODEL_SPACE
 70
     0
 10
0.0
 20
0.0
 30
0.0
  3
*MODEL_SPACE
  1

  0
ENDBLK
  5
21
330
1F
100
AcDbEntity
  8
0
100
AcDbBlockEnd
  0
BLOCK
  5
1C
330
1B
100
AcDbEntity
 67
     1
  8
0
100
AcDbBlockBegin
  2
*PAPER_SPACE
 70
     0
 10
0.0
 20
0.0
 30
0.0
  3
*PAPER_SPACE
  1

  0
ENDBLK
  5
1D
330
1B
100
AcDbEntity
 67
     1
  8
0
100
AcDbBlockEnd
  0
BLOCK
  5
77
330
75
100
AcDbEntity
  8
0
100
AcDbBlockBegin
  2
GENAXEH
 70
     0
 10
0.0
 20
0.0
 30
0.0
  3
GENAXEH
  1

  0
LINE
  5
76
330
75
100
AcDbEntity
  8
0
100
AcDbLine
 10
-1.0
 20
0.0
 30
0.0
 11
1.0
 21
0.0
 31
0.0
  0
ENDBLK
  5
78
330
75
100
AcDbEntity
  8
0
100
AcDbBlockEnd
  0
BLOCK
  5
3AB0
330
3AA6
100
AcDbEntity
  8
0
100
AcDbBlockBegin
  2
*D2
 70
     1
 10
0.0
 20
0.0
 30
0.0
  3
*D2
  1

  0
LINE
  5
3BAD
330
3AA6
100
AcDbEntity
  8
SK2
100
AcDbLine
 10
0.0
 20
20.00000000000045
 30
0.0
 11
-24.62255331504189
 21
20.00000000000046
 31
0.0
  0
LINE
  5
3BAE
330
3AA6
100
AcDbEntity
  8
SK2
100
AcDbLine
 10
0.0
 20
-19.99999999999994
 30
0.0
 11
-24.6225533150419
 21
-19.99999999999993
 31
0.0
  0
LINE
  5
3BAF
330
3AA6
100
AcDbEntity
  8
SK2
100
AcDbLine
 10
-23.62255331504189
 20
17.50000000000046
 30
0.0
 11
-23.6225533150419
 21
-17.49999999999993
 31
0.0
  0
SOLID
  5
3BB0
330
3AA6
100
AcDbEntity
  8
SK2
100
AcDbTrace
 10
-24.03921998170856
 20
17.50000000000046
 30
0.0
 11
-23.20588664837522
 21
17.50000000000046
 31
0.0
 12
-23.62255331504189
 22
20.00000000000045
 32
0.0
 13
-23.62255331504189
 23
20.00000000000045
 33
0.0
  0
SOLID
  5
3BB1
330
3AA6
100
AcDbEntity
  8
SK2
100
AcDbTrace
 10
-24.03921998170856
 20
-17.49999999999993
 30
0.0
 11
-23.20588664837523
 21
-17.49999999999993
 31
0.0
 12
-23.6225533150419
 22
-19.99999999999993
 32
0.0
 13
-23.6225533150419
 23
-19.99999999999993
 33
0.0
  0
MTEXT
  5
3BB2
330
3AA6
100
AcDbEntity
  8
SK2
 62
     2
100
AcDbMText
 10
-26.87255331504189
 20
0.0000000000002576
 30
0.0
 40
3.5
 41
0.0
 71
     5
 72
     1
  1
%%c40
 11
0.0000000000000001
 21
1.0
 31
0.0
1001
ACAD
1000
MTEXTBEGIN
1070
    73
1070
     1
1070
    44
1040
1.0
1070
    74
1070
     0
1000
MTEXTEND
  0
POINT
  5
3BB3
330
3AA6
100
AcDbEntity
  8
DEFPOINTS
 62
     0
100
AcDbPoint
 10
0.0
 20
20.00000000000045
 30
0.0
  0
POINT
  5
3BB4
330
3AA6
100
AcDbEntity
  8
DEFPOINTS
 62
     0
100
AcDbPoint
 10
0.0
 20
-19.99999999999994
 30
0.0
  0
POINT
  5
3BB5
330
3AA6
100
AcDbEntity
  8
DEFPOINTS
 62
     0
100
AcDbPoint
 10
-23.6225533150419
 20
-19.99999999999993
 30
0.0
  0
ENDBLK
  5
3AB1
330
3AA6
100
AcDbEntity
  8
0
100
AcDbBlockEnd
  0
BLOCK
  5
3AE1
330
3AD7
100
AcDbEntity
  8
0
100
AcDbBlockBegin
  2
*D3
 70
     1
 10
0.0
 20
0.0
 30
0.0
  3
*D3
  1

  0
LINE
  5
3BA4
330
3AD7
100
AcDbEntity
  8
SK2
100
AcDbLine
 10
1.00000000001745
 20
45.00000000001256
 30
0.0
 11
-42.4000975223917
 21
45.00000000001256
 31
0.0
  0
LINE
  5
3BA5
330
3AD7
100
AcDbEntity
  8
SK2
100
AcDbLine
 10
1.00000000001637
 20
-45.0000000000121
 30
0.0
 11
-42.40009752239171
 21
-45.0000000000121
 31
0.0
  0
LINE
  5
3BA6
330
3AD7
100
AcDbEntity
  8
SK2
100
AcDbLine
 10
-41.4000975223917
 20
42.50000000001256
 30
0.0
 11
-41.40009752239172
 21
-42.5000000000121
 31
0.0
  0
SOLID
  5
3BA7
330
3AD7
100
AcDbEntity
  8
SK2
100
AcDbTrace
 10
-41.81676418905836
 20
42.50000000001256
 30
0.0
 11
-40.98343085572504
 21
42.50000000001256
 31
0.0
 12
-41.4000975223917
 22
45.00000000001256
 32
0.0
 13
-41.4000975223917
 23
45.00000000001256
 33
0.0
  0
SOLID
  5
3BA8
330
3AD7
100
AcDbEntity
  8
SK2
100
AcDbTrace
 10
-41.81676418905838
 20
-42.5000000000121
 30
0.0
 11
-40.98343085572505
 21
-42.5000000000121
 31
0.0
 12
-41.40009752239172
 22
-45.0000000000121
 32
0.0
 13
-41.40009752239172
 23
-45.0000000000121
 33
0.0
  0
MTEXT
  5
3BA9
330
3AD7
100
AcDbEntity
  8
SK2
 62
     2
100
AcDbMText
 10
-44.65009752239171
 20
0.0000000000002303
 30
0.0
 40
3.5
 41
0.0
 71
     5
 72
     1
  1
%%c90
 11
0.0000000000000001
 21
1.0
 31
0.0
1001
ACAD
1000
MTEXTBEGIN
1070
    73
1070
     1
1070
    44
1040
1.0
1070
    74
1070
     0
1000
MTEXTEND
  0
POINT
  5
3BAA
330
3AD7
100
AcDbEntity
  8
DEFPOINTS
 62
     0
100
AcDbPoint
 10
1.00000000001745
 20
45.00000000001256
 30
0.0
  0
POINT
  5
3BAB
330
3AD7
100
AcDbEntity
  8
DEFPOINTS
 62
     0
100
AcDbPoint
 10
1.00000000001637
 20
-45.0000000000121
 30
0.0
  0
POINT
  5
3BAC
330
3AD7
100
AcDbEntity
  8
DEFPOINTS
 62
     0
100
AcDbPoint
 10
-41.40009752239172
 20
-45.0000000000121
 30
0.0
  0
ENDBLK
  5
3AE2
330
3AD7
100
AcDbEntity
  8
0
100
AcDbBlockEnd
  0
BLOCK
  5
3B15
330
3B0B
100
AcDbEntity
  8
0
100
AcDbBlockBegin
  2
*D4
 70
     1
 10
0.0
 20
0.0
 30
0.0
  3
*D4
  1

  0
LINE
  5
3BBF
330
3B0B
100
AcDbEntity
  8
2
100
AcDbLine
 10
63.00000000001375
 20
62.50000000000444
 30
0.0
 11
101.2670072814889
 21
62.50000000000443
 31
0.0
  0
LINE
  5
3BC0
330
3B0B
100
AcDbEntity
  8
2
100
AcDbLine
 10
63.00000000001375
 20
-62.50000000000444
 30
0.0
 11
101.2670072814889
 21
-62.50000000000444
 31
0.0
  0
LINE
  5
3BC1
330
3B0B
100
AcDbEntity
  8
2
100
AcDbLine
 10
100.2670072814889
 20
60.00000000000443
 30
0.0
 11
100.2670072814889
 21
-60.00000000000444
 31
0.0
  0
SOLID
  5
3BC2
330
3B0B
100
AcDbEntity
  8
2
100
AcDbTrace
 10
99.85034061482229
 20
60.00000000000443
 30
0.0
 11
100.6836739481556
 21
60.00000000000443
 31
0.0
 12
100.2670072814889
 22
62.50000000000443
 32
0.0
 13
100.2670072814889
 23
62.50000000000443
 33
0.0
  0
SOLID
  5
3BC3
330
3B0B
100
AcDbEntity
  8
2
100
AcDbTrace
 10
99.85034061482226
 20
-60.00000000000444
 30
0.0
 11
100.6836739481556
 21
-60.00000000000444
 31
0.0
 12
100.2670072814889
 22
-62.50000000000444
 32
0.0
 13
100.2670072814889
 23
-62.50000000000444
 33
0.0
  0
MTEXT
  5
3BC4
330
3B0B
100
AcDbEntity
  8
2
 62
     2
100
AcDbMText
 10
97.01666279329998
 20
0.0000000000000085
 30
0.0
 40
3.5
 41
0.0
 71
     5
 72
     1
  1
%%c125
 11
0.0000000000000001
 21
1.0
 31
0.0
1001
ACAD
1000
MTEXTBEGIN
1070
    73
1070
     1
1070
    44
1040
1.0
1070
    74
1070
     0
1000
MTEXTEND
  0
POINT
  5
3BC5
330
3B0B
100
AcDbEntity
  8
DEFPOINTS
 62
     0
100
AcDbPoint
 10
63.00000000001375
 20
62.50000000000444
 30
0.0
  0
POINT
  5
3BC6
330
3B0B
100
AcDbEntity
  8
DEFPOINTS
 62
     0
100
AcDbPoint
 10
63.00000000001375
 20
-62.50000000000444
 30
0.0
  0
POINT
  5
3BC7
330
3B0B
100
AcDbEntity
  8
DEFPOINTS
 62
     0
100
AcDbPoint
 10
100.2670072814889
 20
-62.50000000000444
 30
0.0
  0
ENDBLK
  5
3B16
330
3B0B
100
AcDbEntity
  8
0
100
AcDbBlockEnd
  0
BLOCK
  5
3B5B
330
3B51
100
AcDbEntity
  8
0
100
AcDbBlockBegin
  2
*D5
 70
     1
 10
0.0
 20
0.0
 30
0.0
  3
*D5
  1

  0
LINE
  5
3BF6
330
3B51
100
AcDbEntity
  8
2
100
AcDbLine
 10
63.00000000001375
 20
62.50000000000444
 30
0.0
 11
63.00000000001375
 21
106.0
 31
0.0
  0
LINE
  5
3BF7
330
3B51
100
AcDbEntity
  8
2
100
AcDbLine
 10
-0.0000000000000568
 20
43.99999999999965
 30
0.0
 11
-0.000000000000053
 21
106.0
 31
0.0
  0
LINE
  5
3BF8
330
3B51
100
AcDbEntity
  8
2
100
AcDbLine
 10
60.50000000001375
 20
105.0
 30
0.0
 11
2.499999999999946
 21
105.0
 31
0.0
  0
SOLID
  5
3BF9
330
3B51
100
AcDbEntity
  8
2
100
AcDbTrace
 10
60.50000000001375
 20
105.4166666666666
 30
0.0
 11
60.50000000001375
 21
104.5833333333333
 31
0.0
 12
63.00000000001375
 22
105.0
 32
0.0
 13
63.00000000001375
 23
105.0
 33
0.0
  0
SOLID
  5
3BFA
330
3B51
100
AcDbEntity
  8
2
100
AcDbTrace
 10
2.499999999999946
 20
105.4166666666666
 30
0.0
 11
2.499999999999946
 21
104.5833333333333
 31
0.0
 12
-0.0000000000000531
 22
105.0
 32
0.0
 13
-0.0000000000000531
 23
105.0
 33
0.0
  0
MTEXT
  5
3BFB
330
3B51
100
AcDbEntity
  8
2
 62
     2
100
AcDbMText
 10
31.50000000000685
 20
108.25
 30
0.0
 40
3.5
 41
0.0
 71
     5
 72
     1
  1
63
1001
ACAD
1000
MTEXTBEGIN
1070
    73
1070
     1
1070
    44
1040
1.0
1070
    74
1070
     0
1000
MTEXTEND
  0
POINT
  5
3BFC
330
3B51
100
AcDbEntity
  8
DEFPOINTS
 62
     0
100
AcDbPoint
 10
63.00000000001375
 20
62.50000000000444
 30
0.0
  0
POINT
  5
3BFD
330
3B51
100
AcDbEntity
  8
DEFPOINTS
 62
     0
100
AcDbPoint
 10
-0.0000000000000568
 20
43.99999999999965
 30
0.0
  0
POINT
  5
3BFE
330
3B51
100
AcDbEntity
  8
DEFPOINTS
 62
     0
100
AcDbPoint
 10
-0.0000000000000531
 20
105.0
 30
0.0
  0
ENDBLK
  5
3B5C
330
3B51
100
AcDbEntity
  8
0
100
AcDbBlockEnd
  0
ENDSEC
  0
SECTION
  2
ENTITIES
  0
LINE
  5
2BEF
330
1F
100
AcDbEntity
  8
SK4
100
AcDbLine
 10
35.52492989674624
 20
40.89993742175784
 30
0.0
 11
60.13044184321052
 21
40.89993742175784
 31
0.0
  0
LINE
  5
39C6
330
1F
100
AcDbEntity
  8
1
100
AcDbLine
 10
58.00000000000614
 20
-59.69999999999998
 30
0.0
 11
57.00000000000613
 21
-60.69999999999999
 31
0.0
  0
LINE
  5
39C7
330
1F
100
AcDbEntity
  8
1
100
AcDbLine
 10
57.00000000000613
 20
-60.69999999999999
 30
0.0
 11
12.30000000000018
 21
-60.69999999999993
 31
0.0
  0
LINE
  5
39C8
330
1F
100
AcDbEntity
  8
1
100
AcDbLine
 10
12.30000000000018
 20
-60.69999999999993
 30
0.0
 11
9.800000000000295
 21
-58.19999999999999
 31
0.0
  0
LINE
  5
39C9
330
1F
100
AcDbEntity
  8
1
100
AcDbLine
 10
9.800000000000295
 20
-58.19999999999999
 30
0.0
 11
9.800000000001432
 21
58.19999999999993
 31
0.0
  0
LINE
  5
39CA
330
1F
100
AcDbEntity
  8
1
100
AcDbLine
 10
12.30000000000018
 20
-60.69999999999993
 30
0.0
 11
12.30000000000018
 21
60.69999999999857
 31
0.0
  0
LINE
  5
39CB
330
1F
100
AcDbEntity
  8
1
100
AcDbLine
 10
7.800000000000295
 20
-45.0000000000121
 30
0.0
 11
1.000000000016314
 21
-45.0000000000121
 31
0.0
  0
LINE
  5
39CC
330
1F
100
AcDbEntity
  8
1
100
AcDbLine
 10
1.000000000016314
 20
-45.0000000000121
 30
0.0
 11
-0.0000000000000568
 21
-44.00000000000022
 31
0.0
  0
LINE
  5
39CD
330
1F
100
AcDbEntity
  8
1
100
AcDbLine
 10
-0.0000000000000568
 20
-44.00000000000022
 30
0.0
 11
0.0
 21
-8.199999999996805
 31
0.0
  0
LINE
  5
39CE
330
1F
100
AcDbEntity
  8
1
100
AcDbLine
 10
1.000000000016314
 20
-45.0000000000121
 30
0.0
 11
1.000000000016143
 21
-8.199999999996805
 31
0.0
  0
ARC
  5
39CF
330
1F
100
AcDbEntity
  8
1
100
AcDbCircle
 10
7.800000000000125
 20
-47.00000000001273
 30
0.0
 40
2.000000000000568
100
AcDbArc
 50
0.0000000000179057
 51
89.99999999999513
  0
LINE
  5
39D0
330
1F
100
AcDbEntity
  8
SK3
 48
0.3
100
AcDbLine
 10
58.00000000000614
 20
-32.50000000000443
 30
0.0
 11
55.00000000000608
 21
-29.50000000000443
 31
0.0
  0
LINE
  5
39D1
330
1F
100
AcDbEntity
  8
SK3
 48
0.3
100
AcDbLine
 10
55.00000000000608
 20
-29.50000000000443
 30
0.0
 11
38.500000000015
 21
-29.50000000000443
 31
0.0
  0
LINE
  5
39D2
330
1F
100
AcDbEntity
  8
SK3
 48
0.3
100
AcDbLine
 10
38.500000000015
 20
-29.50000000000443
 30
0.0
 11
38.50000000001506
 21
29.50000000000403
 31
0.0
  0
LINE
  5
39D3
330
1F
100
AcDbEntity
  8
SK3
 48
0.3
100
AcDbLine
 10
29.500000000015
 20
-10.99999999999994
 30
0.0
 11
38.50000000001495
 21
-10.99999999999994
 31
0.0
  0
LINE
  5
39D4
330
1F
100
AcDbEntity
  8
SK3
 48
0.3
100
AcDbLine
 10
29.50000000001494
 20
19.99999999999971
 30
0.0
 11
29.500000000015
 21
-19.99999999999994
 31
0.0
  0
LINE
  5
39D5
330
1F
100
AcDbEntity
  8
SK3
 48
0.3
100
AcDbLine
 10
29.500000000015
 20
-19.99999999999994
 30
0.0
 11
0.0
 21
-19.99999999999994
 31
0.0
  0
LINE
  5
39D6
330
1F
100
AcDbEntity
  8
SK3
 48
0.3
100
AcDbLine
 10
55.00000000000608
 20
-29.50000000000443
 30
0.0
 11
55.00000000000614
 21
29.50000000000358
 31
0.0
  0
LINE
  5
39D8
330
1F
100
AcDbEntity
  8
SK1
100
AcDbLine
 10
0.0000000000149498
 20
-8.199999999996805
 30
0.0
 11
9.000000000015006
 21
-8.199999999996805
 31
0.0
  0
LINE
  5
39D9
330
1F
100
AcDbEntity
  8
SK1
100
AcDbLine
 10
9.000000000015006
 20
-8.199999999996805
 30
0.0
 11
9.000000000015006
 21
8.200000000003171
 31
0.0
  0
LINE
  5
39DA
330
1F
100
AcDbEntity
  8
SK1
100
AcDbLine
 10
9.000000000015006
 20
8.200000000003171
 30
0.0
 11
0.0000000000150635
 21
8.200000000003171
 31
0.0
  0
LINE
  5
39DC
330
1F
100
AcDbEntity
  8
1
100
AcDbLine
 10
58.00000000000614
 20
-59.69999999999998
 30
0.0
 11
58.00000000000614
 21
48.67440977313425
 31
0.0
  0
ARC
  5
39DD
330
1F
100
AcDbEntity
  8
1
100
AcDbCircle
 10
7.800000000001261
 20
47.00000000001307
 30
0.0
 40
2.000000000000568
100
AcDbArc
 50
270.0000000000035
 51
359.9999999999807
  0
LINE
  5
39DE
330
1F
100
AcDbEntity
  8
1
100
AcDbLine
 10
7.800000000001432
 20
45.00000000001245
 30
0.0
 11
1.00000000001745
 21
45.00000000001256
 31
0.0
  0
LINE
  5
39DF
330
1F
100
AcDbEntity
  8
1
100
AcDbLine
 10
1.00000000001745
 20
45.00000000001256
 30
0.0
 11
0.0000000000010232
 21
44.00000000000074
 31
0.0
  0
LINE
  5
39E0
330
1F
100
AcDbEntity
  8
1
100
AcDbLine
 10
12.30000000000166
 20
60.70000000000016
 30
0.0
 11
9.800000000001716
 21
58.20000000000027
 31
0.0
  0
LINE
  5
39E1
330
1F
100
AcDbEntity
  8
SK3
 48
0.3
100
AcDbLine
 10
29.50000000001551
 20
19.99999999999971
 30
0.0
 11
0.0000000000005116
 21
20.00000000000045
 31
0.0
  0
LINE
  5
39E4
330
1F
100
AcDbEntity
  8
SK3
 48
0.3
100
AcDbLine
 10
29.50000000001529
 20
10.99999999999971
 30
0.0
 11
38.50000000001523
 21
10.99999999999948
 31
0.0
  0
LINE
  5
39E5
330
1F
100
AcDbEntity
  8
SK3
 48
0.3
100
AcDbLine
 10
55.00000000000682
 20
29.50000000000358
 30
0.0
 11
38.50000000001574
 21
29.50000000000398
 31
0.0
  0
LINE
  5
39E6
330
1F
100
AcDbEntity
  8
SK3
 48
0.3
100
AcDbLine
 10
58.00000000000693
 20
32.50000000000352
 30
0.0
 11
55.00000000000682
 21
29.50000000000358
 31
0.0
  0
LINE
  5
39E7
330
1F
100
AcDbEntity
  8
4
100
AcDbLine
 10
14.50000000001375
 20
55.8699374217623
 30
0.0
 11
24.50000000001375
 21
55.8699374217623
 31
0.0
  0
LINE
  5
39E8
330
1F
100
AcDbEntity
  8
1
100
AcDbLine
 10
22.34390894053797
 20
55.8699374217623
 30
0.0
 11
20.94337567298782
 21
58.07144657363505
 31
0.0
  0
LINE
  5
39E9
330
1F
100
AcDbEntity
  8
1
100
AcDbLine
 10
20.94337567298782
 20
53.66842826988943
 30
0.0
 11
22.34390894053797
 21
55.8699374217623
 31
0.0
  0
ELLIPSE
  5
39EA
330
1F
100
AcDbEntity
  8
1
100
AcDbEllipse
 10
19.50000000001375
 20
55.8699374217623
 30
0.0
 11
-5.0
 21
0.0
 31
0.0
210
0.0
220
0.0
230
1.0
 40
0.7807587326743715
 41
0.0
 42
6.283185307179586
  0
LINE
  5
39EB
330
1F
100
AcDbEntity
  8
4
100
AcDbLine
 10
19.50000000001375
 20
59.77373108513416
 30
0.0
 11
19.50000000001375
 21
51.96614375839044
 31
0.0
  0
LINE
  5
39EC
330
1F
100
AcDbEntity
  8
1
100
AcDbLine
 10
18.05662432703968
 20
58.07144657363505
 30
0.0
 11
16.61324865406561
 21
55.8699374217623
 31
0.0
  0
LINE
  5
39ED
330
1F
100
AcDbEntity
  8
1
100
AcDbLine
 10
16.61324865406561
 20
55.8699374217623
 30
0.0
 11
18.05662432703968
 21
53.66842826988943
 31
0.0
  0
LINE
  5
39EE
330
1F
100
AcDbEntity
  8
1
100
AcDbLine
 10
18.05662432703968
 20
53.66842826988943
 30
0.0
 11
20.94337567298782
 21
53.66842826988943
 31
0.0
  0
LINE
  5
39EF
330
1F
100
AcDbEntity
  8
1
100
AcDbLine
 10
20.94337567298782
 20
58.07144657363505
 30
0.0
 11
18.05662432703968
 21
58.07144657363505
 31
0.0
  0
LINE
  5
39F0
330
1F
100
AcDbEntity
  8
4
100
AcDbLine
 10
30.50000000003092
 20
55.8699374217623
 30
0.0
 11
40.50000000003092
 21
55.8699374217623
 31
0.0
  0
ELLIPSE
  5
39F1
330
1F
100
AcDbEntity
  8
1
100
AcDbEllipse
 10
35.50000000003092
 20
55.8699374217623
 30
0.0
 11
-5.0
 21
0.0
 31
0.0
210
0.0
220
0.0
230
1.0
 40
0.7807587326743715
 41
0.0
 42
6.283185307179586
  0
LINE
  5
39F2
330
1F
100
AcDbEntity
  8
4
100
AcDbLine
 10
35.50000000003092
 20
59.77373108513416
 30
0.0
 11
35.50000000003092
 21
51.96614375839044
 31
0.0
  0
LINE
  5
39F3
330
1F
100
AcDbEntity
  8
1
100
AcDbLine
 10
38.34390894055514
 20
55.8699374217623
 30
0.0
 11
36.94337567300499
 21
58.07144657363505
 31
0.0
  0
LINE
  5
39F4
330
1F
100
AcDbEntity
  8
1
100
AcDbLine
 10
34.05662432705685
 20
58.07144657363505
 30
0.0
 11
32.61324865408278
 21
55.8699374217623
 31
0.0
  0
LINE
  5
39F5
330
1F
100
AcDbEntity
  8
1
100
AcDbLine
 10
34.05662432705685
 20
53.66842826988943
 30
0.0
 11
36.94337567300499
 21
53.66842826988943
 31
0.0
  0
LINE
  5
39F6
330
1F
100
AcDbEntity
  8
1
100
AcDbLine
 10
32.61324865408278
 20
55.8699374217623
 30
0.0
 11
34.05662432705685
 21
53.66842826988943
 31
0.0
  0
LINE
  5
39F7
330
1F
100
AcDbEntity
  8
1
100
AcDbLine
 10
36.94337567300499
 20
53.66842826988943
 30
0.0
 11
38.34390894055514
 21
55.8699374217623
 31
0.0
  0
LINE
  5
39F8
330
1F
100
AcDbEntity
  8
1
100
AcDbLine
 10
36.94337567300499
 20
58.07144657363505
 30
0.0
 11
34.05662432705685
 21
58.07144657363505
 31
0.0
  0
LINE
  5
39F9
330
1F
100
AcDbEntity
  8
SK3
 48
0.3
100
AcDbLine
 10
50.00000000002455
 20
38.51343742175777
 30
0.0
 11
38.00000000002773
 21
38.51343742175788
 31
0.0
  0
LINE
  5
39FA
330
1F
100
AcDbEntity
  8
SK3
 48
0.3
100
AcDbLine
 10
50.00000000002455
 20
43.28643742175779
 30
0.0
 11
38.00000000002773
 21
43.28643742175779
 31
0.0
  0
LINE
  5
39FB
330
1F
100
AcDbEntity
  8
SK3
 48
0.3
100
AcDbLine
 10
38.61350000002778
 20
37.89993742175784
 30
0.0
 11
50.00000000002455
 21
37.89993742175784
 31
0.0
  0
LINE
  5
39FC
330
1F
100
AcDbEntity
  8
SK3
 48
0.3
100
AcDbLine
 10
50.00000000002455
 20
43.89993742175784
 30
0.0
 11
38.61350000002778
 21
43.89993742175784
 31
0.0
  0
LINE
  5
39FD
330
1F
100
AcDbEntity
  8
SK3
 48
0.3
100
AcDbLine
 10
38.61350000002778
 20
43.89993742175784
 30
0.0
 11
38.61350000002778
 21
37.89993742175784
 31
0.0
  0
LINE
  5
39FE
330
1F
100
AcDbEntity
  8
SK3
 48
0.3
100
AcDbLine
 10
38.00000000002773
 20
43.28643742175779
 30
0.0
 11
38.00000000002773
 21
38.51343742175788
 31
0.0
  0
LINE
  5
39FF
330
1F
100
AcDbEntity
  8
SK3
100
AcDbLine
 10
38.00000000002773
 20
38.51343742175788
 30
0.0
 11
38.61350000002778
 21
37.89993742175784
 31
0.0
  0
LINE
  5
3A00
330
1F
100
AcDbEntity
  8
SK3
100
AcDbLine
 10
38.61350000002778
 20
43.89993742175784
 30
0.0
 11
38.00000000002773
 21
43.28643742175779
 31
0.0
  0
LINE
  5
3A01
330
1F
100
AcDbEntity
  8
SK3
 48
0.3
100
AcDbLine
 10
55.00000000002467
 20
47.99993742176093
 30
0.0
 11
55.00000000002467
 21
34.89993742176091
 31
0.0
  0
LINE
  5
3A02
330
1F
100
AcDbEntity
  8
SK3
 48
0.3
100
AcDbLine
 10
50.00000000002455
 20
34.39993742176102
 30
0.0
 11
50.00000000002455
 21
47.99993742176093
 31
0.0
  0
LINE
  5
3A03
330
1F
100
AcDbEntity
  8
SK3
 48
0.3
100
AcDbLine
 10
58.00000000002023
 20
34.39993742176091
 30
0.0
 11
50.00000000002455
 21
34.39993742176102
 31
0.0
  0
LINE
  5
3A04
330
1F
100
AcDbEntity
  8
SK3
 48
0.3
100
AcDbLine
 10
55.00000000002467
 20
34.89993742176091
 30
0.0
 11
50.00000000002455
 21
34.89993742176102
 31
0.0
  0
LINE
  5
3A05
330
1F
100
AcDbEntity
  8
SK3
 48
0.3
100
AcDbLine
 10
55.00000000002467
 20
45.49993742175479
 30
0.0
 11
58.00000000002012
 21
45.49993742175479
 31
0.0
  0
LINE
  5
3A06
330
1F
100
AcDbEntity
  8
1
100
AcDbLine
 10
58.00000000002023
 20
48.67440977313425
 30
0.0
 11
52.00000000001387
 21
48.67440977313425
 31
0.0
  0
LINE
  5
3A07
330
1F
100
AcDbEntity
  8
SK3
 48
0.3
100
AcDbLine
 10
50.00000000002455
 20
46.89993742175466
 30
0.0
 11
55.00000000002467
 21
46.89993742175466
 31
0.0
  0
LINE
  5
3A08
330
1F
100
AcDbEntity
  8
SK3
 48
0.3
100
AcDbLine
 10
50.00000000002455
 20
47.99993742176093
 30
0.0
 11
55.00000000002467
 21
47.99993742176093
 31
0.0
  0
ARC
  5
3A09
330
1F
100
AcDbEntity
  8
1
100
AcDbCircle
 10
52.00000000001381
 20
56.67440977313418
 30
0.0
 40
7.999999999999943
100
AcDbArc
 50
179.9999999999998
 51
270.0000000000004
  0
LINE
  5
3A0A
330
1F
100
AcDbEntity
  8
1
100
AcDbLine
 10
44.00000000001386
 20
60.69999999999987
 30
0.0
 11
44.00000000001386
 21
56.67440977313424
 31
0.0
  0
LINE
  5
3A0B
330
1F
100
AcDbEntity
  8
SK1
100
AcDbLine
 10
57.00000000002058
 20
60.80000000001291
 30
0.0
 11
44.50000000001387
 21
60.80000000001303
 31
0.0
  0
LINE
  5
3A0C
330
1F
100
AcDbEntity
  8
SK1
100
AcDbLine
 10
58.00000000002023
 20
48.67440977313425
 30
0.0
 11
58.00000000002023
 21
59.80000000001314
 31
0.0
  0
LINE
  5
3A0D
330
1F
100
AcDbEntity
  8
SK1
100
AcDbLine
 10
57.00000000002058
 20
60.80000000001291
 30
0.0
 11
58.00000000002047
 21
59.80000000001291
 31
0.0
  0
LINE
  5
3A0E
330
1F
100
AcDbEntity
  8
SK1
100
AcDbLine
 10
58.00000000002047
 20
59.80000000001291
 30
0.0
 11
58.00000000002023
 21
59.80000000001314
 31
0.0
  0
LINE
  5
3A0F
330
1F
100
AcDbEntity
  8
SK3
 48
0.3
100
AcDbLine
 10
9.122804695076013
 20
45.4999374217549
 30
0.0
 11
50.00000000002455
 21
45.4999374217549
 31
0.0
  0
CIRCLE
  5
3A10
330
1F
100
AcDbEntity
  8
SK1
100
AcDbCircle
 10
63.00000000001375
 20
62.50000000000444
 30
0.0
 40
0.4637693698488208
  0
LINE
  5
3A11
330
1F
100
AcDbEntity
  8
SK1
100
AcDbLine
 10
62.53623063016505
 20
62.50000000000444
 30
0.0
 11
63.46376936986269
 21
62.50000000000444
 31
0.0
  0
LINE
  5
3A12
330
1F
100
AcDbEntity
  8
SK1
100
AcDbLine
 10
63.00000000001375
 20
62.96376936985325
 30
0.0
 11
63.00000000001375
 21
62.03623063015561
 31
0.0
  0
LINE
  5
3A13
330
1F
100
AcDbEntity
  8
1
100
AcDbLine
 10
44.50000000001387
 20
60.69999999999987
 30
0.0
 11
12.30000000000018
 21
60.69999999999993
 31
0.0
  0
LINE
  5
3A14
330
1F
100
AcDbEntity
  8
1
100
AcDbLine
 10
1.000000000016314
 20
45.0000000000121
 30
0.0
 11
1.000000000016143
 21
8.199999999996805
 31
0.0
  0
LINE
  5
3A15
330
1F
100
AcDbEntity
  8
1
100
AcDbLine
 10
-0.0000000000000568
 20
44.00000000000022
 30
0.0
 11
0.0
 21
8.199999999996805
 31
0.0
  0
LINE
  5
3A19
330
1F
100
AcDbEntity
  8
1
100
AcDbLine
 10
44.50000000001387
 20
60.80000000001303
 30
0.0
 11
44.50000000001387
 21
60.69999999999987
 31
0.0
  0
LINE
  5
3A1F
330
1F
100
AcDbEntity
  8
NOCUT
100
AcDbLine
 10
58.00000000000614
 20
-59.69999999999998
 30
0.0
 11
58.00000000000614
 21
0.0
 31
0.0
  0
LINE
  5
3A21
330
1F
100
AcDbEntity
  8
NOCUT
100
AcDbLine
 10
9.800000000000409
 20
-58.19999999999999
 30
0.0
 11
9.80000000000075
 21
-47.00000000001279
 31
0.0
  0
LINE
  5
3A29
330
1F
100
AcDbEntity
  8
NOCUT
100
AcDbLine
 10
0.0
 20
-44.00000000000022
 30
0.0
 11
0.0
 21
0.0
 31
0.0
  0
LINE
  5
3A2A
330
1F
100
AcDbEntity
  8
NOCUT
100
AcDbLine
 10
57.00000000000613
 20
-60.69999999999999
 30
0.0
 11
12.30000000000018
 21
-60.69999999999993
 31
0.0
  0
LINE
  5
3A2B
330
1F
100
AcDbEntity
  8
NOCUT
100
AcDbLine
 10
12.30000000000018
 20
-60.69999999999993
 30
0.0
 11
9.800000000000409
 21
-58.19999999999999
 31
0.0
  0
LINE
  5
3A2D
330
1F
100
AcDbEntity
  8
NOCUT
100
AcDbLine
 10
7.800000000000181
 20
-45.00000000001216
 30
0.0
 11
1.00000000001637
 21
-45.0000000000121
 31
0.0
  0
LINE
  5
3A2E
330
1F
100
AcDbEntity
  8
NOCUT
100
AcDbLine
 10
1.00000000001637
 20
-45.0000000000121
 30
0.0
 11
0.0
 21
-44.00000000000022
 31
0.0
  0
ARC
  5
3A2F
330
1F
100
AcDbEntity
  8
NOCUT
100
AcDbCircle
 10
7.800000000000181
 20
-47.00000000001273
 30
0.0
 40
2.000000000000568
100
AcDbArc
 50
0.0
 51
90.0
  0
LINE
  5
3A30
330
1F
100
AcDbEntity
  8
NOCUT
100
AcDbLine
 10
58.00000000000614
 20
-59.69999999999998
 30
0.0
 11
57.00000000000613
 21
-60.69999999999999
 31
0.0
  0
LINE
  5
3A47
330
1F
100
AcDbEntity
  8
SK1
100
AcDbLine
 10
-2.262823140784178
 20
2.262823140784178
 30
0.0
 11
2.262823140784178
 21
-2.262823140784178
 31
0.0
  0
CIRCLE
  5
3A48
330
1F
100
AcDbEntity
  8
SK1
100
AcDbCircle
 10
0.0
 20
0.0
 30
0.0
 40
3.200115174948665
  0
LINE
  5
3A49
330
1F
100
AcDbEntity
  8
SK1
100
AcDbLine
 10
-2.262823140784178
 20
-2.262823140784178
 30
0.0
 11
2.262823140784178
 21
2.262823140784178
 31
0.0
  0
LINE
  5
3A4A
330
1F
100
AcDbEntity
  8
4
100
AcDbLine
 10
0.0
 20
0.0
 30
0.0
 11
60.85537167295502
 21
0.0
 31
0.0
  0
LINE
  5
3A59
330
1F
100
AcDbEntity
  8
NOCUT
100
AcDbLine
 10
0.0
 20
0.0
 30
0.0
 11
58.00000000000614
 21
0.0
 31
0.0
  0
DIMENSION
  5
3AA5
330
1F
100
AcDbEntity
  8
SK2
100
AcDbDimension
  2
*D2
 10
-23.6225533150419
 20
-19.99999999999993
 30
0.0
 11
-26.87255331504189
 21
0.0000000000002576
 31
0.0
 70
    32
  1
%%c<>
  3
AM_DIN
100
AcDbAlignedDimension
 13
0.0
 23
20.00000000000045
 33
0.0
 14
0.0
 24
-19.99999999999994
 34
0.0
 50
90.0
100
AcDbRotatedDimension
  0
DIMENSION
  5
3AD6
330
1F
100
AcDbEntity
  8
SK2
100
AcDbDimension
  2
*D3
 10
-41.40009752239172
 20
-45.0000000000121
 30
0.0
 11
-44.65009752239171
 21
0.0000000000002303
 31
0.0
 70
    32
  1
%%c<>
  3
AM_DIN
100
AcDbAlignedDimension
 13
1.00000000001745
 23
45.00000000001256
 33
0.0
 14
1.00000000001637
 24
-45.0000000000121
 34
0.0
 50
90.0
100
AcDbRotatedDimension
  0
LINE
  5
3AF8
330
1F
100
AcDbEntity
  8
SK1
100
AcDbLine
 10
63.00000000001375
 20
-62.96376936985325
 30
0.0
 11
63.00000000001375
 21
-62.03623063015561
 31
0.0
  0
LINE
  5
3AF9
330
1F
100
AcDbEntity
  8
SK1
100
AcDbLine
 10
62.53623063016505
 20
-62.50000000000444
 30
0.0
 11
63.46376936986269
 21
-62.50000000000444
 31
0.0
  0
CIRCLE
  5
3AFA
330
1F
100
AcDbEntity
  8
SK1
100
AcDbCircle
 10
63.00000000001375
 20
-62.50000000000444
 30
0.0
 40
0.4637693698488208
  0
DIMENSION
  5
3B0A
330
1F
100
AcDbEntity
  8
2
100
AcDbDimension
  2
*D4
 10
100.2670072814889
 20
-62.50000000000444
 30
0.0
 11
97.01666279329998
 21
0.0000000000000085
 31
0.0
 70
    32
  1
%%c<>
  3
AM_DIN
100
AcDbAlignedDimension
 13
63.00000000001375
 23
62.50000000000444
 33
0.0
 14
63.00000000001375
 24
-62.50000000000444
 34
0.0
 50
90.0
100
AcDbRotatedDimension
  0
DIMENSION
  5
3B50
330
1F
100
AcDbEntity
  8
2
100
AcDbDimension
  2
*D5
 10
-0.0000000000000531
 20
105.0
 30
0.0
 11
31.50000000000685
 21
108.25
 31
0.0
 70
    32
  3
AM_DIN
100
AcDbAlignedDimension
 13
63.00000000001375
 23
62.50000000000444
 33
0.0
 14
-0.0000000000000568
 24
43.99999999999965
 34
0.0
100
AcDbRotatedDimension
  0
TEXT
  5
3B6A
330
1F
100
AcDbEntity
  8
6
100
AcDbText
 10
22.3923731979932
 20
-71.18959327666755
 30
0.0
 40
3.5
  1
4W3A125R01
100
AcDbText
  0
TEXT
  5
3B6C
330
1F
100
AcDbEntity
  8
6
100
AcDbText
 10
107.6968527435358
 20
-5.650601537352031
 30
0.0
 40
3.5
  1
Z=10
 50
90.0
100
AcDbText
  0
TEXT
  5
3B6E
330
1F
100
AcDbEntity
  8
6
100
AcDbText
 10
9.233638784979973
 20
98.96058663714157
 30
0.0
 40
3.5
  1
Verstellweg 63+0.7
100
AcDbText
  0
ENDSEC
  0
SECTION
  2
OBJECTS
  0
DICTIONARY
  5
C
330
0
100
AcDbDictionary
  3
ACAD_GROUP
350
D
  3
ACAD_LAYOUT
350
1A
  3
ACAD_MLINESTYLE
350
17
  3
ACAD_PLOTSETTINGS
350
19
  3
ACAD_PLOTSTYLENAME
350
E
  3
ACDBHEADERROUNDTRIPXREC
350
3C02
  3
ACDBVARIABLEDICTIONARY
350
216
  3
ACMDICTIONARY
350
45
  3
AMG
350
41
  3
AMGSNAPSETTINGS
350
23D
  3
DWGPROPS
350
3BEA
  0
DICTIONARY
  5
1F1
330
1F
100
AcDbDictionary
280
     1
  3
ACAD_INDEX
360
1F2
  3
ACAD_LAYOUTSELFREF
360
3C25
  0
DICTIONARY
  5
3C23
330
1B
100
AcDbDictionary
280
     1
  3
ACAD_LAYOUTSELFREF
360
3C24
  0
DICTIONARY
  5
D
102
{ACAD_REACTORS
330
C
102
}
330
C
100
AcDbDictionary
  0
DICTIONARY
  5
1A
102
{ACAD_REACTORS
330
C
102
}
330
C
100
AcDbDictionary
  0
DICTIONARY
  5
17
102
{ACAD_REACTORS
330
C
102
}
330
C
100
AcDbDictionary
  3
STANDARD
350
18
  0
DICTIONARY
  5
19
102
{ACAD_REACTORS
330
C
102
}
330
C
100
AcDbDictionary
  0
ACDBDICTIONARYWDFLT
  5
E
102
{ACAD_REACTORS
330
C
102
}
330
C
100
AcDbDictionary
281
     1
  3
Normal
350
F
100
AcDbDictionaryWithDefault
340
F
  0
DICTIONARY
  5
3C02
102
{ACAD_REACTORS
330
C
102
}
330
C
100
AcDbDictionary
  3
CEPSNTYPE
350
3C0C
  3
DIMSTYLEDATA
350
3C10
  3
FINGERPRINTGUID
350
3C0D
  3
HYPERLINKBASE
350
3C05
  3
INSUNITS
350
3C0B
  3
LAYOUTDICT
350
3C07
  3
LWETCUNION
350
3C0A
  3
PLOTSETDICT
350
3C08
  3
PLOTSTYLNAMDICT
350
3C09
  3
PSVPSCALE
350
3C0F
  3
PUCSBASE
350
3C13
  3
PUCSORGBACK
350
3C19
  3
PUCSORGBOTTOM
350
3C15
  3
PUCSORGFRONT
350
3C18
  3
PUCSORGLEFT
350
3C16
  3
PUCSORGRIGHT
350
3C17
  3
PUCSORGTOP
350
3C14
  3
PUCSORTHOREF
350
3C11
  3
PUCSORTHOVIEW
350
3C12
  3
STYLESHEET
350
3C06
  3
TSTACKALIGN
350
3C03
  3
TSTACKSIZE
350
3C04
  3
UCSBASE
350
3C1C
  3
UCSORGBACK
350
3C22
  3
UCSORGBOTTOM
350
3C1E
  3
UCSORGFRONT
350
3C21
  3
UCSORGLEFT
350
3C1F
  3
UCSORGRIGHT
350
3C20
  3
UCSORGTOP
350
3C1D
  3
UCSORTHOREF
350
3C1A
  3
UCSORTHOVIEW
350
3C1B
  3
VERSIONGUID
350
3C0E
  0
DICTIONARY
  5
216
102
{ACAD_REACTORS
330
C
102
}
330
C
100
AcDbDictionary
  3
DIMASSOC
350
219
  3
HIDETEXT
350
218
  3
INDEXCTL
350
217
  0
DICTIONARY
  5
45
102
{ACAD_REACTORS
330
C
102
}
330
C
100
AcDbDictionary
  3
ACMSTDDICTIONARY
350
4A
  0
DICTIONARY
  5
41
102
{ACAD_REACTORS
330
C
102
}
330
C
100
AcDbDictionary
  3
ACMGSETTINGS
350
42
  0
DICTIONARY
  5
23D
102
{ACAD_REACTORS
330
C
102
}
330
C
100
AcDbDictionary
  0
XRECORD
  5
3BEA
102
{ACAD_REACTORS
330
C
102
}
330
C
100
AcDbXrecord
  1
DWGPROPS COOKIE
  2

  3

  4

  6

  7

  8

  9

300
AmdtFileType=84
301
=
302
=
303
=
304
=
305
=
306
=
307
=
308
=
309
=
 40
0.0762074074074074
 41
2453599.366006042
 42
2453798.411073842
  1

 90
        1
  0
DICTIONARY
  5
1F2
102
{ACAD_REACTORS
330
1F1
102
}
330
1F1
100
AcDbDictionary
  3
*A1
350
1F3
  0
XRECORD
  5
3C25
102
{ACAD_REACTORS
330
1F1
102
}
330
1F1
100
AcDbXrecord
340
1F
  0
XRECORD
  5
3C24
102
{ACAD_REACTORS
330
3C23
102
}
330
3C23
100
AcDbXrecord
340
1B
  0
MLINESTYLE
  5
18
102
{ACAD_REACTORS
330
17
102
}
330
17
100
AcDbMlineStyle
  2
STANDARD
 70
     0
  3

 62
   256
 51
90.0
 52
90.0
 71
     2
 49
0.5
 62
   256
  6
BYLAYER
 49
-0.5
 62
   256
  6
BYLAYER
  0
ACDBPLACEHOLDER
  5
F
102
{ACAD_REACTORS
330
E
102
}
330
E
100
AcDbPlaceHolder
280
     0
  0
XRECORD
  5
3C0C
102
{ACAD_REACTORS
330
3C02
102
}
330
3C02
100
AcDbXrecord
 90
        0
  0
XRECORD
  5
3C10
102
{ACAD_REACTORS
330
3C02
102
}
330
3C02
100
AcDbXrecord
1000
DSTYLE
1002
{
1070
    79
 70
     2
1070
   371
 70
    -1
1070
   372
 70
    -1
1002
}
  0
XRECORD
  5
3C0D
102
{ACAD_REACTORS
330
3C02
102
}
330
3C02
100
AcDbXrecord
  1
{03052709-208C-44F1-88CB-F8F0E550BC5D}
  0
XRECORD
  5
3C05
102
{ACAD_REACTORS
330
3C02
102
}
330
3C02
100
AcDbXrecord
  1

  0
XRECORD
  5
3C0B
102
{ACAD_REACTORS
330
3C02
102
}
330
3C02
100
AcDbXrecord
 90
        4
  0
XRECORD
  5
3C07
102
{ACAD_REACTORS
330
3C02
102
}
330
3C02
100
AcDbXrecord
340
1A
  0
XRECORD
  5
3C0A
102
{ACAD_REACTORS
330
3C02
102
}
330
3C02
100
AcDbXrecord
 90
    10781
  0
XRECORD
  5
3C08
102
{ACAD_REACTORS
330
3C02
102
}
330
3C02
100
AcDbXrecord
340
19
  0
XRECORD
  5
3C09
102
{ACAD_REACTORS
330
3C02
102
}
330
3C02
100
AcDbXrecord
340
E
  0
XRECORD
  5
3C0F
102
{ACAD_REACTORS
330
3C02
102
}
330
3C02
100
AcDbXrecord
 40
0.0
  0
XRECORD
  5
3C13
102
{ACAD_REACTORS
330
3C02
102
}
330
3C02
100
AcDbXrecord
340
0
  0
XRECORD
  5
3C19
102
{ACAD_REACTORS
330
3C02
102
}
330
3C02
100
AcDbXrecord
 10
0.0
 20
0.0
 30
0.0
  0
XRECORD
  5
3C15
102
{ACAD_REACTORS
330
3C02
102
}
330
3C02
100
AcDbXrecord
 10
0.0
 20
0.0
 30
0.0
  0
XRECORD
  5
3C18
102
{ACAD_REACTORS
330
3C02
102
}
330
3C02
100
AcDbXrecord
 10
0.0
 20
0.0
 30
0.0
  0
XRECORD
  5
3C16
102
{ACAD_REACTORS
330
3C02
102
}
330
3C02
100
AcDbXrecord
 10
0.0
 20
0.0
 30
0.0
  0
XRECORD
  5
3C17
102
{ACAD_REACTORS
330
3C02
102
}
330
3C02
100
AcDbXrecord
 10
0.0
 20
0.0
 30
0.0
  0
XRECORD
  5
3C14
102
{ACAD_REACTORS
330
3C02
102
}
330
3C02
100
AcDbXrecord
 10
0.0
 20
0.0
 30
0.0
  0
XRECORD
  5
3C11
102
{ACAD_REACTORS
330
3C02
102
}
330
3C02
100
AcDbXrecord
340
0
  0
XRECORD
  5
3C12
102
{ACAD_REACTORS
330
3C02
102
}
330
3C02
100
AcDbXrecord
 70
     0
  0
XRECORD
  5
3C06
102
{ACAD_REACTORS
330
3C02
102
}
330
3C02
100
AcDbXrecord
  1

  0
XRECORD
  5
3C03
102
{ACAD_REACTORS
330
3C02
102
}
330
3C02
100
AcDbXrecord
 90
        1
  0
XRECORD
  5
3C04
102
{ACAD_REACTORS
330
3C02
102
}
330
3C02
100
AcDbXrecord
 90
       70
  0
XRECORD
  5
3C1C
102
{ACAD_REACTORS
330
3C02
102
}
330
3C02
100
AcDbXrecord
340
0
  0
XRECORD
  5
3C22
102
{ACAD_REACTORS
330
3C02
102
}
330
3C02
100
AcDbXrecord
 10
0.0
 20
0.0
 30
0.0
  0
XRECORD
  5
3C1E
102
{ACAD_REACTORS
330
3C02
102
}
330
3C02
100
AcDbXrecord
 10
0.0
 20
0.0
 30
0.0
  0
XRECORD
  5
3C21
102
{ACAD_REACTORS
330
3C02
102
}
330
3C02
100
AcDbXrecord
 10
0.0
 20
0.0
 30
0.0
  0
XRECORD
  5
3C1F
102
{ACAD_REACTORS
330
3C02
102
}
330
3C02
100
AcDbXrecord
 10
0.0
 20
0.0
 30
0.0
  0
XRECORD
  5
3C20
102
{ACAD_REACTORS
330
3C02
102
}
330
3C02
100
AcDbXrecord
 10
0.0
 20
0.0
 30
0.0
  0
XRECORD
  5
3C1D
102
{ACAD_REACTORS
330
3C02
102
}
330
3C02
100
AcDbXrecord
 10
0.0
 20
0.0
 30
0.0
  0
XRECORD
  5
3C1A
102
{ACAD_REACTORS
330
3C02
102
}
330
3C02
100
AcDbXrecord
340
0
  0
XRECORD
  5
3C1B
102
{ACAD_REACTORS
330
3C02
102
}
330
3C02
100
AcDbXrecord
 70
     0
  0
XRECORD
  5
3C0E
102
{ACAD_REACTORS
330
3C02
102
}
330
3C02
100
AcDbXrecord
  1
{A9BC2768-B8D3-4B4B-B213-9C96BE9184CC}
  0
DICTIONARYVAR
  5
219
102
{ACAD_REACTORS
330
216
102
}
330
216
100
DictionaryVariables
280
     0
  1
1
  0
DICTIONARYVAR
  5
218
102
{ACAD_REACTORS
330
216
102
}
330
216
100
DictionaryVariables
280
     0
  1
1
  0
DICTIONARYVAR
  5
217
102
{ACAD_REACTORS
330
216
102
}
330
216
100
DictionaryVariables
280
     0
  1
1
  0
DICTIONARY
  5
4A
102
{ACAD_REACTORS
330
45
102
}
330
45
100
AcDbDictionary
  0
DICTIONARY
  5
42
102
{ACAD_REACTORS
330
41
102
}
330
41
100
AcDbDictionary
  3
DWGSETTINGS
350
43
  0
LAYER_INDEX
  5
1F3
102
{ACAD_REACTORS
330
1F2
102
}
330
1F2
100
AcDbIndex
 40
2453874.456068206
100
AcDbLayerIndex
  8
0
360
1F4
 90
        0
  8
Defpoints
360
210
 90
        0
  8
1
360
29B
 90
       36
  8
2
360
1EC1
 90
        2
  8
4
360
1EC2
 90
        5
  8
6
360
1EC3
 90
        3
  8
SK1
360
1EC4
 90
       16
  8
SK2
360
1EC5
 90
        2
  8
SK3
360
1EC6
 90
       27
  8
NOCUT
360
1EC7
 90
       10
  8
SK4
360
3022
 90
        1
  0
XRECORD
  5
43
102
{ACAD_REACTORS
330
42
102
}
330
42
100
AcDbXrecord
  1
VERSION
140
15.0
  1
PRODUCT
  2
AutoCAD Mechanical 2000
  0
IDBUFFER
  5
1F4
330
0
100
AcDbIdBuffer
  0
IDBUFFER
  5
210
330
0
100
AcDbIdBuffer
  0
IDBUFFER
  5
29B
330
0
100
AcDbIdBuffer
330
39C6
330
39C7
330
39C8
330
39C9
330
39CA
330
39CB
330
39CC
330
39CD
330
39CE
330
39CF
330
39DC
330
39DD
330
39DE
330
39DF
330
39E0
330
39E8
330
39E9
330
39EA
330
39EC
330
39ED
330
39EE
330
39EF
330
39F1
330
39F3
330
39F4
330
39F5
330
39F6
330
39F7
330
39F8
330
3A06
330
3A09
330
3A0A
330
3A13
330
3A14
330
3A15
330
3A19
  0
IDBUFFER
  5
1EC1
330
0
100
AcDbIdBuffer
330
3B0A
330
3B50
  0
IDBUFFER
  5
1EC2
330
0
100
AcDbIdBuffer
330
39E7
330
39EB
330
39F0
330
39F2
330
3A4A
  0
IDBUFFER
  5
1EC3
330
0
100
AcDbIdBuffer
330
3B6A
330
3B6C
330
3B6E
  0
IDBUFFER
  5
1EC4
330
0
100
AcDbIdBuffer
330
39D8
330
39D9
330
39DA
330
3A0B
330
3A0C
330
3A0D
330
3A0E
330
3A10
330
3A11
330
3A12
330
3A47
330
3A48
330
3A49
330
3AF8
330
3AF9
330
3AFA
  0
IDBUFFER
  5
1EC5
330
0
100
AcDbIdBuffer
330
3AA5
330
3AD6
  0
IDBUFFER
  5
1EC6
330
0
100
AcDbIdBuffer
330
39D0
330
39D1
330
39D2
330
39D3
330
39D4
330
39D5
330
39D6
330
39E1
330
39E4
330
39E5
330
39E6
330
39F9
330
39FA
330
39FB
330
39FC
330
39FD
330
39FE
330
39FF
330
3A00
330
3A01
330
3A02
330
3A03
330
3A04
330
3A05
330
3A07
330
3A08
330
3A0F
  0
IDBUFFER
  5
1EC7
330
0
100
AcDbIdBuffer
330
3A1F
330
3A21
330
3A29
330
3A2A
330
3A2B
330
3A2D
330
3A2E
330
3A2F
330
3A30
330
3A59
  0
IDBUFFER
  5
3022
330
0
100
AcDbIdBuffer
330
2BEF
  0
ENDSEC
  0
EOF
