  0
SECTION
  2
HEADER
  9
$ACADVER
  1
AC1014
  9
$ACADMAINTVER
 70
     9
  9
$DWGCODEPAGE
  3
ANSI_1252
  9
$INSBASE
 10
0.0
 20
0.0
 30
0.0
  9
$EXTMIN
 10
-37.49300467665716
 20
-57.50484860308597
 30
-0.0015258207003583
  9
$EXTMAX
 10
102.4675486038435
 20
95.00612540015527
 30
0.0000000349246037
  9
$LIMMIN
 10
0.0
 20
0.0
  9
$LIMMAX
 10
420.0
 20
297.0
  9
$ORTHOMODE
 70
     0
  9
$REGENMODE
 70
     1
  9
$FILLMODE
 70
     1
  9
$QTEXTMODE
 70
     0
  9
$MIRRTEXT
 70
     1
  9
$DRAGMODE
 70
     2
  9
$LTSCALE
 40
1.0
  9
$OSMODE
 70
  2599
  9
$ATTMODE
 70
     1
  9
$TEXTSIZE
 40
2.5
  9
$TRACEWID
 40
1.0
  9
$TEXTSTYLE
  7
STANDARD
  9
$CLAYER
  8
SK2
  9
$CELTYPE
  6
BYLAYER
  9
$CECOLOR
 62
   256
  9
$CELTSCALE
 40
1.0
  9
$DELOBJ
 70
     1
  9
$DISPSILH
 70
     0
  9
$DIMSCALE
 40
1.0
  9
$DIMASZ
 40
2.5
  9
$DIMEXO
 40
0.0
  9
$DIMDLI
 40
10.0
  9
$DIMRND
 40
0.0
  9
$DIMDLE
 40
0.0
  9
$DIMEXE
 40
1.0
  9
$DIMTP
 40
0.1
  9
$DIMTM
 40
0.1
  9
$DIMTXT
 40
3.5
  9
$DIMCEN
 40
0.0
  9
$DIMTSZ
 40
0.0
  9
$DIMTOL
 70
     0
  9
$DIMLIM
 70
     0
  9
$DIMTIH
 70
     0
  9
$DIMTOH
 70
     0
  9
$DIMSE1
 70
     0
  9
$DIMSE2
 70
     0
  9
$DIMTAD
 70
     1
  9
$DIMZIN
 70
     8
  9
$DIMBLK
  1

  9
$DIMASO
 70
     1
  9
$DIMSHO
 70
     1
  9
$DIMPOST
  1

  9
$DIMAPOST
  1
"
  9
$DIMALT
 70
     0
  9
$DIMALTD
 70
     2
  9
$DIMALTF
 40
0.0393701
  9
$DIMLFAC
 40
1.0
  9
$DIMTOFL
 70
     1
  9
$DIMTVP
 40
0.0
  9
$DIMTIX
 70
     0
  9
$DIMSOXD
 70
     0
  9
$DIMSAH
 70
     0
  9
$DIMBLK1
  1

  9
$DIMBLK2
  1

  9
$DIMSTYLE
  2
AM_DIN
  9
$DIMCLRD
 70
   256
  9
$DIMCLRE
 70
   256
  9
$DIMCLRT
 70
     2
  9
$DIMTFAC
 40
0.71
  9
$DIMGAP
 40
1.5
  9
$DIMJUST
 70
     0
  9
$DIMSD1
 70
     0
  9
$DIMSD2
 70
     0
  9
$DIMTOLJ
 70
     0
  9
$DIMTZIN
 70
     8
  9
$DIMALTZ
 70
     0
  9
$DIMALTTZ
 70
     0
  9
$DIMFIT
 70
     3
  9
$DIMUPT
 70
     0
  9
$DIMUNIT
 70
     2
  9
$DIMDEC
 70
     3
  9
$DIMTDEC
 70
     2
  9
$DIMALTU
 70
     2
  9
$DIMALTTD
 70
     2
  9
$DIMTXSTY
  7
STANDARD
  9
$DIMAUNIT
 70
     0
  9
$LUNITS
 70
     2
  9
$LUPREC
 70
     3
  9
$SKETCHINC
 40
1.0
  9
$FILLETRAD
 40
3.0
  9
$AUNITS
 70
     0
  9
$AUPREC
 70
     3
  9
$MENU
  1
.
  9
$ELEVATION
 40
0.0
  9
$PELEVATION
 40
0.0
  9
$THICKNESS
 40
0.0
  9
$LIMCHECK
 70
     0
  9
$BLIPMODE
 70
     0
  9
$CHAMFERA
 40
2.5
  9
$CHAMFERB
 40
2.5
  9
$CHAMFERC
 40
20.0
  9
$CHAMFERD
 40
0.0
  9
$SKPOLY
 70
     0
  9
$TDCREATE
 40
2453599.366006042
  9
$TDUPDATE
 40
2453874.452407511
  9
$TDINDWG
 40
0.0727977431
  9
$TDUSRTIMER
 40
0.0727734028
  9
$USRTIMER
 70
     1
  9
$ANGBASE
 50
0.0
  9
$ANGDIR
 70
     0
  9
$PDMODE
 70
     0
  9
$PDSIZE
 40
0.0
  9
$PLINEWID
 40
0.0
  9
$COORDS
 70
     0
  9
$SPLFRAME
 70
     0
  9
$SPLINETYPE
 70
     6
  9
$SPLINESEGS
 70
     8
  9
$ATTDIA
 70
     1
  9
$ATTREQ
 70
     1
  9
$HANDLING
 70
 22529
  9
$HANDSEED
  5
3578
  9
$SURFTAB1
 70
     6
  9
$SURFTAB2
 70
     6
  9
$SURFTYPE
 70
     6
  9
$SURFU
 70
     6
  9
$SURFV
 70
     6
  9
$UCSNAME
  2

  9
$UCSORG
 10
0.0
 20
0.0
 30
0.0
  9
$UCSXDIR
 10
1.0
 20
0.0
 30
0.0
  9
$UCSYDIR
 10
0.0
 20
1.0
 30
0.0
  9
$PUCSNAME
  2

  9
$PUCSORG
 10
0.0
 20
0.0
 30
0.0
  9
$PUCSXDIR
 10
1.0
 20
0.0
 30
0.0
  9
$PUCSYDIR
 10
0.0
 20
1.0
 30
0.0
  9
$USERI1
 70
     0
  9
$USERI2
 70
     0
  9
$USERI3
 70
     0
  9
$USERI4
 70
     0
  9
$USERI5
 70
     0
  9
$USERR1
 40
0.0
  9
$USERR2
 40
0.0
  9
$USERR3
 40
0.0
  9
$USERR4
 40
0.0
  9
$USERR5
 40
0.0
  9
$WORLDVIEW
 70
     1
  9
$SHADEDGE
 70
     3
  9
$SHADEDIF
 70
    70
  9
$TILEMODE
 70
     1
  9
$MAXACTVP
 70
    64
  9
$PINSBASE
 10
0.0
 20
0.0
 30
0.0
  9
$PLIMCHECK
 70
     0
  9
$PEXTMIN
 10
1.000000000000000E+20
 20
1.000000000000000E+20
 30
1.000000000000000E+20
  9
$PEXTMAX
 10
-1.000000000000000E+20
 20
-1.000000000000000E+20
 30
-1.000000000000000E+20
  9
$PLIMMIN
 10
0.0
 20
0.0
  9
$PLIMMAX
 10
420.0
 20
297.0
  9
$UNITMODE
 70
     0
  9
$VISRETAIN
 70
     1
  9
$PLINEGEN
 70
     0
  9
$PSLTSCALE
 70
     1
  9
$TREEDEPTH
 70
  3020
  9
$PICKSTYLE
 70
     0
  9
$CMLSTYLE
  2
STANDARD
  9
$CMLJUST
 70
     0
  9
$CMLSCALE
 40
20.0
  9
$PROXYGRAPHICS
 70
     1
  9
$MEASUREMENT
 70
     1
  0
ENDSEC
  0
SECTION
  2
CLASSES
  0
CLASS
  1
ACDBDICTIONARYWDFLT
  2
AcDbDictionaryWithDefault
  3
AutoCAD 2000
 90
        0
280
     0
281
     0
  0
CLASS
  1
ACDBPLACEHOLDER
  2
AcDbPlaceHolder
  3
AutoCAD 2000
 90
        0
280
     0
281
     0
  0
CLASS
  1
LAYOUT
  2
AcDbLayout
  3
AutoCAD 2000
 90
        0
280
     0
281
     0
  0
CLASS
  1
ACME_DOCUMENT
  2
AcMeDbDoc
  3
AcMeServices
 90
        0
280
     0
281
     0
  0
CLASS
  1
ACMESCOPE
  2
AcMeScope
  3
AcMeServices
 90
        0
280
     0
281
     0
  0
CLASS
  1
ACMECOMMANDHISTORY
  2
AcMeCommandHistory
  3
AcMeServices
 90
        0
280
     0
281
     0
  0
CLASS
  1
ACIMSYSVARMAN
  2
AcImSysVarManager
  3
AcMeServices
 90
        0
280
     0
281
     0
  0
CLASS
  1
ACIMREALSYSVAR
  2
AcImRealSysVar
  3
AcMeServices
 90
        0
280
     0
281
     0
  0
CLASS
  1
ACIMINTSYSVAR
  2
AcImIntSysVar
  3
AcMeServices
 90
        0
280
     0
281
     0
  0
CLASS
  1
ACMEDRAWINGMAN
  2
AcMeDrawingMan
  3
AcMeServices
 90
        0
280
     0
281
     0
  0
CLASS
  1
ACMEVIEW
  2
AcMeView
  3
AcMeServices
 90
        0
280
     0
281
     0
  0
CLASS
  1
ACDBENTITYCACHE
  2
AcMeEntityCache
  3
AcMeServices
 90
        0
280
     0
281
     0
  0
CLASS
  1
GSMANAGER
  2
AcMeGSManager
  3
AcMeServices
 90
        0
280
     0
281
     0
  0
CLASS
  1
AMDTINTERNALREACTOR
  2
AmdtInternalReactor
  3
AcMeServices
 90
        0
280
     0
281
     0
  0
CLASS
  1
ACMESTATEMGR
  2
AcMeStateMgr
  3
AcMeServices
 90
        0
280
     0
281
     0
  0
CLASS
  1
ACGREFMASTER
  2
AcGrefMaster
  3
AcAttribServices
 90
        0
280
     0
281
     0
  0
CLASS
  1
ACME_DATABASE
  2
AcMeDbDatabase
  3
AcMeServices
 90
        0
280
     0
281
     0
  0
CLASS
  1
ACRFINSADJUSTERMGR
  2
AcRfInsAdjusterMgr
  3
AcMeServices
 90
        0
280
     0
281
     0
  0
CLASS
  1
ACGREFACADMASTER
  2
AcGrefacadMaster
  3
AcGrefServices
 90
        0
280
     0
281
     0
  0
CLASS
  1
AMIMASTER
  2
AmiMaster
  3
AmiServices
 90
        0
280
     0
281
     0
  0
CLASS
  1
AMGSETTINGSOBJ
  2
AmgSettingsObj
  3
"AcadM|Product Description: AutoCAD Mechanical 2000|Company: Autodesk"
 90
        0
280
     0
281
     0
  0
CLASS
  1
ACMDATADICTIONARY
  2
AcmDataDictionary
  3
"AcmSymBB|Product Description: AutoCAD Mechanical 2000|Company: Autodesk"
 90
        0
280
     0
281
     0
  0
CLASS
  1
ACMDATAENTRYBLOCK
  2
AcmDataEntryBlock
  3
"AcmSymBB|Product Description: AutoCAD Mechanical 2000|Company: Autodesk"
 90
        0
280
     0
281
     0
  0
CLASS
  1
ACIMSTRSYSVAR
  2
AcImStrSysVar
  3
AcMeServices
 90
        0
280
     0
281
     0
  0
CLASS
  1
ACMSTANDARDDIN
  2
AcmStandardDIN
  3
"Amdt_StdImp|Product Description: AutoCAD Mechanical 2000|Company: Autodesk"
 90
        0
280
     0
281
     0
  0
CLASS
  1
AMGOBJPROPCFG
  2
AmgObjPropCfg
  3
"AmgLay|Product Description: AutoCAD Mechanical 2000|Company: Autodesk"
 90
        1
280
     0
281
     0
  0
CLASS
  1
AMDTEDGESTANDARDDIN
  2
AmdtEdgeStdDIN
  3
"Amdt_StdImp|Product Description: AutoCAD Mechanical 2000|Company: Autodesk"
 90
        0
280
     0
281
     0
  0
CLASS
  1
ACMSURFSTANDARDDIN
  2
AcmSurfTextStdDIN
  3
"Amdt_StdImp|Product Description: AutoCAD Mechanical 2000|Company: Autodesk"
 90
        0
280
     0
281
     0
  0
CLASS
  1
ACMFCFSTANDARDDIN
  2
AcmFCFStdDIN
  3
"Amdt_StdImp|Product Description: AutoCAD Mechanical 2000|Company: Autodesk"
 90
        0
280
     0
281
     0
  0
CLASS
  1
ACMWELDSTANDARDDIN
  2
AcmWeldingStdDIN
  3
"Amdt_StdImp|Product Description: AutoCAD Mechanical 2000|Company: Autodesk"
 90
        0
280
     0
281
     0
  0
CLASS
  1
ACMIDSTANDARDDIN
  2
AcmIdStdDIN
  3
"Amdt_StdImp|Product Description: AutoCAD Mechanical 2000|Company: Autodesk"
 90
        0
280
     0
281
     0
  0
CLASS
  1
ACMDATUMSTANDARDDIN
  2
AcmDatumStdDIN
  3
"Amdt_StdImp|Product Description: AutoCAD Mechanical 2000|Company: Autodesk"
 90
        0
280
     0
281
     0
  0
CLASS
  1
ACMBOMSTANDARDDIN
  2
AcmBOMStdDIN
  3
"Amdt_StdImp|Product Description: AutoCAD Mechanical 2000|Company: Autodesk"
 90
        0
280
     0
281
     0
  0
CLASS
  1
ACMDETAILSTANDARDDIN
  2
AmdtDetailSymStdDIN
  3
"Amdt_StdImp|Product Description: AutoCAD Mechanical 2000|Company: Autodesk"
 90
        0
280
     0
281
     0
  0
CLASS
  1
ACMSECTIONSTANDARDDIN
  2
AmdtSectionSymStdDIN
  3
"Amdt_StdImp|Product Description: AutoCAD Mechanical 2000|Company: Autodesk"
 90
        0
280
     0
281
     0
  0
CLASS
  1
ACMCENTERLINESTANDARDDIN
  2
AmdtCenterLineStdDIN
  3
"Amdt_StdImp|Product Description: AutoCAD Mechanical 2000|Company: Autodesk"
 90
        0
280
     0
281
     0
  0
CLASS
  1
ACMNOTESTANDARDDIN
  2
AmdtNoteStdDIN
  3
"Amdt_StdImp|Product Description: AutoCAD Mechanical 2000|Company: Autodesk"
 90
        0
280
     0
281
     0
  0
CLASS
  1
ACAMGLAYSTD
  2
AcAmgLayStd
  3
"AcAmgLayStd|Product Description: AutoCAD Mechanical 2000|Company: Autodesk"
 90
        0
280
     0
281
     0
  0
CLASS
  1
ACAMGDIMSTD
  2
AcAmgDimStd
  3
"AcAmgDimStd|Product Description: AutoCAD Mechanical 2000|Company: Autodesk"
 90
        0
280
     0
281
     0
  0
CLASS
  1
ACAMGHOLECHARTSTDDIN
  2
AcAmgHoleChartStdDIN
  3
ACMSYMBB_MODULE_NAME
 90
        0
280
     0
281
     0
  0
CLASS
  1
ACAMGTITLESTD
  2
AcAmgTitleStd
  3
"TITLEAPP"
 90
        0
280
     0
281
     0
  0
CLASS
  1
ACMSTANDARDANSI
  2
AcmStandardANSI
  3
"Amdt_StdImp|Product Description: AutoCAD Mechanical 2000|Company: Autodesk"
 90
        0
280
     0
281
     0
  0
CLASS
  1
ACMSURFSTANDARDANSI
  2
AcmSurfTextStdANSI
  3
"Amdt_StdImp|Product Description: AutoCAD Mechanical 2000|Company: Autodesk"
 90
        0
280
     0
281
     0
  0
CLASS
  1
ACMFCFSTANDARDANSI
  2
AcmFCFStdANSI
  3
"Amdt_StdImp|Product Description: AutoCAD Mechanical 2000|Company: Autodesk"
 90
        0
280
     0
281
     0
  0
CLASS
  1
ACMWELDSTANDARDANSI
  2
AcmWeldingStdANSI
  3
"Amdt_StdImp|Product Description: AutoCAD Mechanical 2000|Company: Autodesk"
 90
        0
280
     0
281
     0
  0
CLASS
  1
ACMIDSTANDARDANSI
  2
AcmIdStdANSI
  3
"Amdt_StdImp|Product Description: AutoCAD Mechanical 2000|Company: Autodesk"
 90
        0
280
     0
281
     0
  0
CLASS
  1
ACMDATUMSTANDARDANSI
  2
AcmDatumStdANSI
  3
"Amdt_StdImp|Product Description: AutoCAD Mechanical 2000|Company: Autodesk"
 90
        0
280
     0
281
     0
  0
CLASS
  1
ACMBOMSTANDARDANSI
  2
AcmBOMStdANSI
  3
"Amdt_StdImp|Product Description: AutoCAD Mechanical 2000|Company: Autodesk"
 90
        0
280
     0
281
     0
  0
CLASS
  1
ACMDETAILSTANDARDANSI
  2
AmdtDetailSymStdANSI
  3
"Amdt_StdImp|Product Description: AutoCAD Mechanical 2000|Company: Autodesk"
 90
        0
280
     0
281
     0
  0
CLASS
  1
ACMSECTIONSTANDARDANSI
  2
AmdtSectionSymStdANSI
  3
"Amdt_StdImp|Product Description: AutoCAD Mechanical 2000|Company: Autodesk"
 90
        0
280
     0
281
     0
  0
CLASS
  1
ACMCENTERLINESTANDARDANSI
  2
AmdtCenterLineStdANSI
  3
"Amdt_StdImp|Product Description: AutoCAD Mechanical 2000|Company: Autodesk"
 90
        0
280
     0
281
     0
  0
CLASS
  1
ACMNOTESTANDARDANSI
  2
AmdtNoteStdANSI
  3
"Amdt_StdImp|Product Description: AutoCAD Mechanical 2000|Company: Autodesk"
 90
        0
280
     0
281
     0
  0
CLASS
  1
ACAMGHOLECHARTSTDANSI
  2
AcAmgHoleChartStdANSI
  3
ACMSYMBB_MODULE_NAME
 90
        0
280
     0
281
     0
  0
CLASS
  1
ACAMGFILTERDAT
  2
AcAmgFilterDat
  3
"AcadM|Product Description: AutoCAD Mechanical 2000|Company: Autodesk"
 90
        0
280
     0
281
     0
  0
CLASS
  1
AMDTFORMULAUPDATEDISPATCHER
  2
AmdtFormulaUpdateDispatcher
  3
AcMeServices
 90
        0
280
     0
281
     0
  0
CLASS
  1
LAYER_INDEX
  2
AcDbLayerIndex
  3
AutoCAD 2000
 90
        0
280
     0
281
     0
  0
CLASS
  1
IDBUFFER
  2
AcDbIdBuffer
  3
AutoCAD 2000
 90
        0
280
     0
281
     0
  0
CLASS
  1
DICTIONARYVAR
  2
AcDbDictionaryVar
  3
AutoCAD 2000
 90
        0
280
     0
281
     0
  0
CLASS
  1
DIMASSOC
  2
AcDbDimAssoc
  3
"AcDbDimAssoc|Product Desc:     AcDim ARX App For Dimension|Company:          Autodesk, Inc.|WEB Address:      www.autodesk.com"
 90
        0
280
     0
281
     0
  0
CLASS
  1
ACMDIMBREAKPERSREACTOR
  2
AcmDimBreakPersReactor
  3
amgDimApp().moduleName()
 90
     1023
280
     0
281
     0
  0
CLASS
  1
ACMSURFSYM
  2
AcmSurfaceTexture
  3
"AcmSymBB|Product Description: AutoCAD Mechanical 2000|Company: Autodesk"
 90
     1023
280
     0
281
     1
  0
CLASS
  1
ACMFCFRAME
  2
AcmFCF
  3
"AcmSymBB|Product Description: AutoCAD Mechanical 2000|Company: Autodesk"
 90
     1023
280
     0
281
     1
  0
CLASS
  1
LONG_TRANSACTION
  2
AcDbLongTransaction
  3
AutoCAD 2000
 90
        0
280
     0
281
     0
  0
CLASS
  1
LWPOLYLINE
  2
AcDbPolyline
  3
AutoCAD 2000
 90
        0
280
     0
281
     1
  0
CLASS
  1
HATCH
  2
AcDbHatch
  3
AutoCAD 2000
 90
        0
280
     0
281
     1
  0
CLASS
  1
XRECORD
  2
AcDbXrecord
  3
AutoCAD 2000
 90
        0
280
     0
281
     0
  0
ENDSEC
  0
SECTION
  2
TABLES
  0
TABLE
  2
VPORT
  5
8
330
0
100
AcDbSymbolTable
 70
     5
  0
VPORT
  5
3551
330
8
100
AcDbSymbolTableRecord
100
AcDbViewportTableRecord
  2
*ACTIVE
 70
     0
 10
0.0
 20
0.0
 11
1.0
 21
1.0
 12
191.2534976616713
 22
119.747575698457
 13
0.0
 23
0.0
 14
2.5
 24
2.5
 15
10.0
 25
10.0
 16
0.0
 26
0.0
 36
1.0
 17
0.0
 27
0.0
 37
0.0
 40
358.4880491491881
 41
1.72607879924953
 42
50.0
 43
0.0
 44
0.0
 50
0.0
 51
0.0
 71
     0
 72
 10000
 73
     1
 74
     3
 75
     0
 76
     0
 77
     0
 78
     0
  0
ENDTAB
  0
TABLE
  2
LTYPE
  5
5
330
0
100
AcDbSymbolTable
 70
    16
  0
LTYPE
  5
14
330
5
100
AcDbSymbolTableRecord
100
AcDbLinetypeTableRecord
  2
BYBLOCK
 70
     0
  3

 72
    65
 73
     0
 40
0.0
  0
LTYPE
  5
15
330
5
100
AcDbSymbolTableRecord
100
AcDbLinetypeTableRecord
  2
BYLAYER
 70
     0
  3

 72
    65
 73
     0
 40
0.0
  0
LTYPE
  5
16
330
5
100
AcDbSymbolTableRecord
100
AcDbLinetypeTableRecord
  2
CONTINUOUS
 70
     0
  3
Solid line
 72
    65
 73
     0
 40
0.0
  0
LTYPE
  5
50
330
5
100
AcDbSymbolTableRecord
100
AcDbLinetypeTableRecord
  2
AMCONSTR
 70
     0
  3
_______________________
 72
    65
 73
     2
 40
9999.0
 49
9999.0
 74
     0
 49
0.0
 74
     0
  0
LTYPE
  5
55
330
5
100
AcDbSymbolTableRecord
100
AcDbLinetypeTableRecord
  2
AMZIGZAG
 70
     0
  3
/\/-/\/-/\/-/\/-/\/-/\/
 72
    65
 73
     2
 40
11.00009999999999
 49
0.0001
 74
     4
 75
   135
340
54
 46
0.04
 50
0.0
 44
0.0
 45
0.0
 49
-11.0
 74
     0
  0
LTYPE
  5
56
330
5
100
AcDbSymbolTableRecord
100
AcDbLinetypeTableRecord
  2
AM_DIN_F_W050
 70
     0
  3
__ __ __ __ __ __ __ __ __ __ __ __ __ __ __
 72
    65
 73
     2
 40
6.25
 49
4.75
 74
     0
 49
-1.5
 74
     0
  0
LTYPE
  5
57
330
5
100
AcDbSymbolTableRecord
100
AcDbLinetypeTableRecord
  2
AM_DIN_G_W050
 70
     0
  3
____ . ____ . ____ . ____ . ____ . ____ . ____
 72
    65
 73
     4
 40
13.75
 49
9.75
 74
     0
 49
-1.5
 74
     0
 49
1.0
 74
     0
 49
-1.5
 74
     0
  0
LTYPE
  5
58
330
5
100
AcDbSymbolTableRecord
100
AcDbLinetypeTableRecord
  2
AM_DIN_K_W050
 70
     0
  3
_____ . . _____ . . _____ . . ____ .. ____
 72
    65
 73
     6
 40
16.25
 49
9.75
 74
     0
 49
-1.5
 74
     0
 49
1.0
 74
     0
 49
-1.5
 74
     0
 49
1.0
 74
     0
 49
-1.5
 74
     0
  0
LTYPE
  5
59
330
5
100
AcDbSymbolTableRecord
100
AcDbLinetypeTableRecord
  2
AM_DIN_G_W050X2
 70
     0
  3
__ . __ . __ . __ . __ . __
 72
    65
 73
     4
 40
6.875
 49
4.75
 74
     0
 49
-0.875
 74
     0
 49
0.375
 74
     0
 49
-0.875
 74
     0
  0
LTYPE
  5
5A
330
5
100
AcDbSymbolTableRecord
100
AcDbLinetypeTableRecord
  2
AM_DIN_F_W050X2
 70
     0
  3
 _ _ _ _ _ _ _ _ _ _ _ _
 72
    65
 73
     2
 40
3.125
 49
2.25
 74
     0
 49
-0.875
 74
     0
  0
LTYPE
  5
68
330
5
100
AcDbSymbolTableRecord
100
AcDbLinetypeTableRecord
  2
ACDINWELD
 70
     0
  3
_ _ _ _ _
 72
    65
 73
     2
 40
2.0
 49
2.0
 74
     0
 49
-1.0
 74
     0
  0
LTYPE
  5
69
330
5
100
AcDbSymbolTableRecord
100
AcDbLinetypeTableRecord
  2
ACDINTGB
 70
     0
  3
__ . . __ . .
 72
    65
 73
     6
 40
9.0
 49
4.0
 74
     0
 49
-1.0
 74
     0
 49
1.0
 74
     0
 49
-1.0
 74
     0
 49
1.0
 74
     0
 49
-1.0
 74
     0
  0
LTYPE
  5
6A
330
5
100
AcDbSymbolTableRecord
100
AcDbLinetypeTableRecord
  2
ACDINTGL
 70
     0
  3
_ _ _ _ _
 72
    65
 73
     2
 40
3.0
 49
2.0
 74
     0
 49
-1.0
 74
     0
  0
LTYPE
  5
6C
330
5
100
AcDbSymbolTableRecord
100
AcDbLinetypeTableRecord
  2
CENTER
 70
     0
  3
__ . __
 72
    65
 73
     4
 40
7.0
 49
4.0
 74
     0
 49
-1.0
 74
     0
 49
1.0
 74
     0
 49
-1.0
 74
     0
  0
LTYPE
  5
1E2C
330
5
100
AcDbSymbolTableRecord
100
AcDbLinetypeTableRecord
  2
PHANTOM2
 70
     0
  3
Phantom (.5x) ___ _ _ ___ _ _ ___ _ _ ___ _ _
 72
    65
 73
     6
 40
1.25
 49
0.625
 74
     0
 49
-0.125
 74
     0
 49
0.125
 74
     0
 49
-0.125
 74
     0
 49
0.125
 74
     0
 49
-0.125
 74
     0
  0
LTYPE
  5
1E2D
330
5
100
AcDbSymbolTableRecord
100
AcDbLinetypeTableRecord
  2
ACANSTGB
 70
     0
  3
__ . . __ . .
 72
    65
 73
     6
 40
0.35433070866
 49
0.15748031496
 74
     0
 49
-0.03937007874
 74
     0
 49
0.03937007874
 74
     0
 49
-0.03937007874
 74
     0
 49
0.03937007874
 74
     0
 49
-0.03937007874
 74
     0
  0
LTYPE
  5
1E2E
330
5
100
AcDbSymbolTableRecord
100
AcDbLinetypeTableRecord
  2
ACANSTGL
 70
     0
  3
_ _ _ _ _
 72
    65
 73
     2
 40
0.11811023622
 49
0.07874015748
 74
     0
 49
-0.03937007874
 74
     0
  0
LTYPE
  5
1E2F
330
5
100
AcDbSymbolTableRecord
100
AcDbLinetypeTableRecord
  2
DASHED
 70
     0
  3
__ __ __ __ __ __ __ __ __ __ __ __ __ __ __ __
 72
    65
 73
     2
 40
19.05
 49
12.7
 74
     0
 49
-6.349999999999998
 74
     0
  0
ENDTAB
  0
TABLE
  2
LAYER
  5
2
330
0
100
AcDbSymbolTable
 70
    11
  0
LAYER
  5
10
330
2
100
AcDbSymbolTableRecord
100
AcDbLayerTableRecord
  2
0
 70
     0
 62
     7
  6
CONTINUOUS
  0
LAYER
  5
263
330
2
100
AcDbSymbolTableRecord
100
AcDbLayerTableRecord
  2
DEFPOINTS
 70
     0
 62
     7
  6
CONTINUOUS
  0
LAYER
  5
1E30
330
2
100
AcDbSymbolTableRecord
100
AcDbLayerTableRecord
  2
1
 70
     0
 62
     4
  6
CONTINUOUS
  0
LAYER
  5
1E31
330
2
100
AcDbSymbolTableRecord
100
AcDbLayerTableRecord
  2
2
 70
     0
 62
     7
  6
CONTINUOUS
  0
LAYER
  5
1E32
330
2
100
AcDbSymbolTableRecord
100
AcDbLayerTableRecord
  2
4
 70
     0
 62
     2
  6
CENTER
  0
LAYER
  5
1E33
330
2
100
AcDbSymbolTableRecord
100
AcDbLayerTableRecord
  2
6
 70
     0
 62
     5
  6
CONTINUOUS
  0
LAYER
  5
1E34
330
2
100
AcDbSymbolTableRecord
100
AcDbLayerTableRecord
  2
SK1
 70
     0
 62
     4
  6
CONTINUOUS
  0
LAYER
  5
1E35
330
2
100
AcDbSymbolTableRecord
100
AcDbLayerTableRecord
  2
SK2
 70
     0
 62
     7
  6
CONTINUOUS
  0
LAYER
  5
1E36
330
2
100
AcDbSymbolTableRecord
100
AcDbLayerTableRecord
  2
SK3
 70
     0
 62
     1
  6
DASHED
  0
LAYER
  5
1E38
330
2
100
AcDbSymbolTableRecord
100
AcDbLayerTableRecord
  2
NOCUT
 70
     0
 62
     7
  6
CONTINUOUS
  0
LAYER
  5
2E80
330
2
100
AcDbSymbolTableRecord
100
AcDbLayerTableRecord
  2
SK4
 70
     0
 62
     2
  6
CENTER
  0
ENDTAB
  0
TABLE
  2
STYLE
  5
3
330
0
100
AcDbSymbolTable
 70
     6
  0
STYLE
  5
11
330
3
100
AcDbSymbolTableRecord
100
AcDbTextStyleTableRecord
  2
STANDARD
 70
     0
 40
0.0
 41
1.0
 50
0.0
 71
     0
 42
2.5
  3
ISOCP.SHX
  4

  0
STYLE
  5
54
330
3
100
AcDbSymbolTableRecord
100
AcDbTextStyleTableRecord
  2

 70
     1
 40
0.0
 41
1.0
 50
0.0
 71
     0
 42
2.5
  3
ltypeshp.shx
  4

  0
STYLE
  5
5B
330
3
100
AcDbSymbolTableRecord
100
AcDbTextStyleTableRecord
  2
ACDINTS
 70
     0
 40
1.0
 41
1.0
 50
0.0
 71
     0
 42
2.5
  3
isocp.shx
  4

  0
STYLE
  5
67
330
3
100
AcDbSymbolTableRecord
100
AcDbTextStyleTableRecord
  2
ACDINGDT
 70
     0
 40
0.0
 41
1.0
 50
0.0
 71
     0
 42
2.5
  3
amgdt.shx
  4

  0
STYLE
  5
1E39
330
3
100
AcDbSymbolTableRecord
100
AcDbTextStyleTableRecord
  2
ACANSTS
 70
     0
 40
1.0
 41
1.0
 50
0.0
 71
     0
 42
0.2
  3
romans.shx
  4

  0
STYLE
  5
1E3A
330
3
100
AcDbSymbolTableRecord
100
AcDbTextStyleTableRecord
  2
ACANSGDT
 70
     0
 40
0.0
 41
1.0
 50
0.0
 71
     0
 42
0.2
  3
amgdtans.shx
  4

  0
ENDTAB
  0
TABLE
  2
VIEW
  5
6
330
0
100
AcDbSymbolTable
 70
     0
  0
ENDTAB
  0
TABLE
  2
UCS
  5
7
330
0
100
AcDbSymbolTable
 70
     0
  0
ENDTAB
  0
TABLE
  2
APPID
  5
9
330
0
100
AcDbSymbolTable
 70
    67
  0
APPID
  5
12
330
9
100
AcDbSymbolTableRecord
100
AcDbRegAppTableRecord
  2
ACAD
 70
     0
  0
APPID
  5
2C
330
9
100
AcDbSymbolTableRecord
100
AcDbRegAppTableRecord
  2
MCAD_NO_VIS
 70
     0
  0
APPID
  5
2D
330
9
100
AcDbSymbolTableRecord
100
AcDbRegAppTableRecord
  2
ACAD_TEMP_GRAPHIC
 70
     0
  0
APPID
  5
3E
330
9
100
AcDbSymbolTableRecord
100
AcDbRegAppTableRecord
  2
ACATTRIBSERVICES
 70
     0
  0
APPID
  5
29A
330
9
100
AcDbSymbolTableRecord
100
AcDbRegAppTableRecord
  2
GENIUS_GENDIMSH_14
 70
     0
  0
APPID
  5
588
330
9
100
AcDbSymbolTableRecord
100
AcDbRegAppTableRecord
  2
GENIUS12
 70
     0
  0
APPID
  5
589
330
9
100
AcDbSymbolTableRecord
100
AcDbRegAppTableRecord
  2
GENIUS_GENOENT_13
 70
     0
  0
APPID
  5
58A
330
9
100
AcDbSymbolTableRecord
100
AcDbRegAppTableRecord
  2
GENIUS_GENODEF_13
 70
     0
  0
APPID
  5
58B
330
9
100
AcDbSymbolTableRecord
100
AcDbRegAppTableRecord
  2
GENIUS_GENOBJ-N-RSBK_13
 70
     0
  0
APPID
  5
58C
330
9
100
AcDbSymbolTableRecord
100
AcDbRegAppTableRecord
  2
GENIUS_GENOBJ-N-DIM12_13
 70
     0
  0
APPID
  5
58D
330
9
100
AcDbSymbolTableRecord
100
AcDbRegAppTableRecord
  2
GENIUS_GENSCALE_13
 70
     0
  0
APPID
  5
58E
330
9
100
AcDbSymbolTableRecord
100
AcDbRegAppTableRecord
  2
GENIUS_GENCFG_13
 70
     0
  0
APPID
  5
58F
330
9
100
AcDbSymbolTableRecord
100
AcDbRegAppTableRecord
  2
GENIUS_GENCFG0_13
 70
     0
  0
APPID
  5
590
330
9
100
AcDbSymbolTableRecord
100
AcDbRegAppTableRecord
  2
GENIUS_GENCFG1_13
 70
     0
  0
APPID
  5
591
330
9
100
AcDbSymbolTableRecord
100
AcDbRegAppTableRecord
  2
GENIUS_GENCFG2_13
 70
     0
  0
APPID
  5
592
330
9
100
AcDbSymbolTableRecord
100
AcDbRegAppTableRecord
  2
GENIUS_GENCFG3_13
 70
     0
  0
APPID
  5
593
330
9
100
AcDbSymbolTableRecord
100
AcDbRegAppTableRecord
  2
GENIUS_GENCFG4_13
 70
     0
  0
APPID
  5
594
330
9
100
AcDbSymbolTableRecord
100
AcDbRegAppTableRecord
  2
GENIUS_GEVCFG0_13
 70
     0
  0
APPID
  5
595
330
9
100
AcDbSymbolTableRecord
100
AcDbRegAppTableRecord
  2
GENIUS_GENOBJ-F-SUF_13
 70
     0
  0
APPID
  5
596
330
9
100
AcDbSymbolTableRecord
100
AcDbRegAppTableRecord
  2
GENIUS_GEFCFG0_13
 70
     0
  0
APPID
  5
597
330
9
100
AcDbSymbolTableRecord
100
AcDbRegAppTableRecord
  2
GEV_VCCNULL_SWITCH_OFF
 70
     0
  0
APPID
  5
598
330
9
100
AcDbSymbolTableRecord
100
AcDbRegAppTableRecord
  2
GENIUS_GENDTOL_13
 70
     0
  0
APPID
  5
599
330
9
100
AcDbSymbolTableRecord
100
AcDbRegAppTableRecord
  2
GENIUS_GENDIM_13
 70
     0
  0
APPID
  5
59A
330
9
100
AcDbSymbolTableRecord
100
AcDbRegAppTableRecord
  2
GENIUS_GE3DTOL_13
 70
     0
  0
APPID
  5
59B
330
9
100
AcDbSymbolTableRecord
100
AcDbRegAppTableRecord
  2
AD_DRAW
 70
     0
  0
APPID
  5
59C
330
9
100
AcDbSymbolTableRecord
100
AcDbRegAppTableRecord
  2
ASURF_PCURVE_APPNAME
 70
     0
  0
APPID
  5
59D
330
9
100
AcDbSymbolTableRecord
100
AcDbRegAppTableRecord
  2
AMG_3D2D_5_0
 70
     0
  0
APPID
  5
59E
330
9
100
AcDbSymbolTableRecord
100
AcDbRegAppTableRecord
  2
DESIGNERASSEMBLIES
 70
     0
  0
APPID
  5
59F
330
9
100
AcDbSymbolTableRecord
100
AcDbRegAppTableRecord
  2
ACADM_DIM_EDIT
 70
     0
  0
APPID
  5
5A0
330
9
100
AcDbSymbolTableRecord
100
AcDbRegAppTableRecord
  2
AMDT_DM_ADJ
 70
     0
  0
APPID
  5
5A1
330
9
100
AcDbSymbolTableRecord
100
AcDbRegAppTableRecord
  2
GENIUS_GENSCREG_15
 70
     0
  0
APPID
  5
5A2
330
9
100
AcDbSymbolTableRecord
100
AcDbRegAppTableRecord
  2
GENIUS_GENOBJ-N-SDF_13
 70
     0
  0
APPID
  5
6E4
330
9
100
AcDbSymbolTableRecord
100
AcDbRegAppTableRecord
  2
GENIUS_GENOBJ-N-FIL_13
 70
     0
  0
APPID
  5
C65
330
9
100
AcDbSymbolTableRecord
100
AcDbRegAppTableRecord
  2
GENIUS_GENHINW_13
 70
     0
  0
APPID
  5
C66
330
9
100
AcDbSymbolTableRecord
100
AcDbRegAppTableRecord
  2
GENIUS_GENOBJ-F-TOLL_13
 70
     0
  0
APPID
  5
C67
330
9
100
AcDbSymbolTableRecord
100
AcDbRegAppTableRecord
  2
GENIUS_GENOREF_13
 70
     0
  0
APPID
  5
C68
330
9
100
AcDbSymbolTableRecord
100
AcDbRegAppTableRecord
  2
GENIUS_GENOLIS_13
 70
     0
  0
APPID
  5
C69
330
9
100
AcDbSymbolTableRecord
100
AcDbRegAppTableRecord
  2
GENIUS_GEFTOLC_13
 70
     0
  0
APPID
  5
C6A
330
9
100
AcDbSymbolTableRecord
100
AcDbRegAppTableRecord
  2
GENIUS_GENOBJ-F-TOL_13
 70
     0
  0
APPID
  5
C6B
330
9
100
AcDbSymbolTableRecord
100
AcDbRegAppTableRecord
  2
GENIUS_GENOBJ-N-RSSYM_13
 70
     0
  0
APPID
  5
C6C
330
9
100
AcDbSymbolTableRecord
100
AcDbRegAppTableRecord
  2
GENIUS_GENSYMENT_13
 70
     0
  0
APPID
  5
C6D
330
9
100
AcDbSymbolTableRecord
100
AcDbRegAppTableRecord
  2
GENIUS_GENSCSYM_13
 70
     0
  0
APPID
  5
1E42
330
9
100
AcDbSymbolTableRecord
100
AcDbRegAppTableRecord
  2
GENIUS_GENBLLY_14
 70
     0
  0
APPID
  5
1E43
330
9
100
AcDbSymbolTableRecord
100
AcDbRegAppTableRecord
  2
GENIUS_GENTRA_14
 70
     0
  0
APPID
  5
1E44
330
9
100
AcDbSymbolTableRecord
100
AcDbRegAppTableRecord
  2
GENIUS_GENOBJ-N-TIT_13
 70
     0
  0
APPID
  5
1E45
330
9
100
AcDbSymbolTableRecord
100
AcDbRegAppTableRecord
  2
GENIUS_GENTITLE_13
 70
     0
  0
APPID
  5
1E46
330
9
100
AcDbSymbolTableRecord
100
AcDbRegAppTableRecord
  2
ACADIGES
 70
     0
  0
APPID
  5
1E47
330
9
100
AcDbSymbolTableRecord
100
AcDbRegAppTableRecord
  2
GENIUS_GENOBJ-N-HTC_13
 70
     0
  0
APPID
  5
1E48
330
9
100
AcDbSymbolTableRecord
100
AcDbRegAppTableRecord
  2
GENIUS_GENHATCH_13
 70
     0
  0
APPID
  5
1E49
330
9
100
AcDbSymbolTableRecord
100
AcDbRegAppTableRecord
  2
GENIUS_GENOBJ-N-CRS_13
 70
     0
  0
APPID
  5
1E4A
330
9
100
AcDbSymbolTableRecord
100
AcDbRegAppTableRecord
  2
GENIUS_GENFIL_13
 70
     0
  0
APPID
  5
1E4B
330
9
100
AcDbSymbolTableRecord
100
AcDbRegAppTableRecord
  2
GENIUS_GENOBJ-N-CHA_13
 70
     0
  0
APPID
  5
1E4C
330
9
100
AcDbSymbolTableRecord
100
AcDbRegAppTableRecord
  2
GENIUS_GENOBJ-N-CEN_13
 70
     0
  0
APPID
  5
28E0
330
9
100
AcDbSymbolTableRecord
100
AcDbRegAppTableRecord
  2
AD_SKETCHDIM
 70
     0
  0
APPID
  5
2B2E
330
9
100
AcDbSymbolTableRecord
100
AcDbRegAppTableRecord
  2
GENIUS_FIRSTVISTXT_14
 70
     0
  0
APPID
  5
2B2F
330
9
100
AcDbSymbolTableRecord
100
AcDbRegAppTableRecord
  2
GENIUS_SECONDVISTXT_14
 70
     0
  0
APPID
  5
2B30
330
9
100
AcDbSymbolTableRecord
100
AcDbRegAppTableRecord
  2
GENIUS_GENOBJ-N-HINW_13
 70
     0
  0
APPID
  5
2B31
330
9
100
AcDbSymbolTableRecord
100
AcDbRegAppTableRecord
  2
GENIUS_GENOBJ-N-PAL_13
 70
     0
  0
APPID
  5
2B32
330
9
100
AcDbSymbolTableRecord
100
AcDbRegAppTableRecord
  2
GENIUS_GENPAL_13
 70
     0
  0
APPID
  5
2B33
330
9
100
AcDbSymbolTableRecord
100
AcDbRegAppTableRecord
  2
GENIUS_GENSCREG_13
 70
     0
  0
APPID
  5
2B34
330
9
100
AcDbSymbolTableRecord
100
AcDbRegAppTableRecord
  2
GENIUS_GE3CFG0_13
 70
     0
  0
APPID
  5
2B35
330
9
100
AcDbSymbolTableRecord
100
AcDbRegAppTableRecord
  2
GENIUS_GENOBJ-F-EDG_13
 70
     0
  0
APPID
  5
2B36
330
9
100
AcDbSymbolTableRecord
100
AcDbRegAppTableRecord
  2
GENIUS_GENOBJ-F-TOLT_13
 70
     0
  0
APPID
  5
2B37
330
9
100
AcDbSymbolTableRecord
100
AcDbRegAppTableRecord
  2
GENIUS_GENZVEED_13
 70
     0
  0
APPID
  5
2B38
330
9
100
AcDbSymbolTableRecord
100
AcDbRegAppTableRecord
  2
GENIUS_GENREC_14
 70
     0
  0
APPID
  5
2B39
330
9
100
AcDbSymbolTableRecord
100
AcDbRegAppTableRecord
  2
GENIUS_GENOBJ-N-REC_13
 70
     0
  0
APPID
  5
2B3A
330
9
100
AcDbSymbolTableRecord
100
AcDbRegAppTableRecord
  2
GENIUS_DUMCFG0_13
 70
     0
  0
ENDTAB
  0
TABLE
  2
DIMSTYLE
  5
A
330
0
100
AcDbSymbolTable
 70
    14
  0
DIMSTYLE
105
6F
102
{ACAD_REACTORS
330
2C6E
330
2C9F
330
2CD0
330
2D0B
102
}
330
A
100
AcDbSymbolTableRecord
100
AcDbDimStyleTableRecord
  2
AM_DIN
 70
     0
  3

  4
"
  5

  6

  7

 40
1.0
 41
2.5
 42
0.0
 43
10.0
 44
1.0
 45
0.0
 46
0.0
 47
0.1
 48
0.1
140
3.5
141
0.0
142
0.0
143
0.0393701
144
1.0
145
0.0
146
0.71
147
1.5
 71
     0
 72
     0
 73
     0
 74
     0
 75
     0
 76
     0
 77
     1
 78
     8
170
     0
171
     2
172
     1
173
     0
174
     0
175
     0
176
   256
177
   256
178
     2
270
     2
271
     2
272
     2
273
     2
274
     2
340
11
275
     0
280
     0
281
     0
282
     0
283
     0
284
     8
285
     0
286
     0
287
     3
288
     0
  0
DIMSTYLE
105
70
330
A
100
AcDbSymbolTableRecord
100
AcDbDimStyleTableRecord
  2
AM_DIN$3
 70
     0
  3

  4
"
  5

  6

  7

 40
1.0
 41
3.5
 42
0.0
 43
10.0
 44
1.0
 45
0.0
 46
0.0
 47
0.1
 48
0.1
140
3.5
141
0.0
142
0.0
143
0.0393701
144
1.0
145
0.0
146
0.71
147
1.5
 71
     0
 72
     0
 73
     0
 74
     1
 75
     0
 76
     0
 77
     1
 78
     8
170
     0
171
     2
172
     0
173
     0
174
     0
175
     0
176
   256
177
   256
178
     2
270
     2
271
     2
272
     2
273
     2
274
     2
340
11
275
     0
280
     0
281
     0
282
     0
283
     0
284
     8
285
     0
286
     0
287
     0
288
     1
  0
DIMSTYLE
105
71
330
A
100
AcDbSymbolTableRecord
100
AcDbDimStyleTableRecord
  2
AM_DIN$4
 70
     0
  3

  4
"
  5

  6

  7

 40
1.0
 41
3.5
 42
0.0
 43
10.0
 44
1.0
 45
0.0
 46
0.0
 47
0.1
 48
0.1
140
3.5
141
0.0
142
0.0
143
0.0393701
144
1.0
145
0.0
146
0.71
147
1.5
 71
     0
 72
     0
 73
     0
 74
     1
 75
     0
 76
     0
 77
     1
 78
     8
170
     0
171
     2
172
     0
173
     0
174
     0
175
     0
176
   256
177
   256
178
     2
270
     2
271
     2
272
     2
273
     2
274
     2
340
11
275
     0
280
     0
281
     0
282
     0
283
     0
284
     8
285
     0
286
     0
287
     0
288
     1
  0
DIMSTYLE
105
72
330
A
100
AcDbSymbolTableRecord
100
AcDbDimStyleTableRecord
  2
AM_DIN$6
 70
     0
  3

  4
"
  5

  6

  7

 40
1.0
 41
3.5
 42
0.0
 43
0.0
 44
1.0
 45
0.0
 46
0.0
 47
0.1
 48
0.1
140
3.5
141
0.0
142
0.0
143
0.0393701
144
1.0
145
0.0
146
0.71
147
1.5
 71
     0
 72
     0
 73
     0
 74
     0
 75
     0
 76
     0
 77
     0
 78
     8
170
     0
171
     2
172
     1
173
     0
174
     0
175
     0
176
   256
177
   256
178
     2
270
     2
271
     2
272
     2
273
     2
274
     2
340
11
275
     0
280
     0
281
     0
282
     0
283
     0
284
     8
285
     0
286
     0
287
     3
288
     0
  0
DIMSTYLE
105
73
330
A
100
AcDbSymbolTableRecord
100
AcDbDimStyleTableRecord
  2
AM_DIN$7
 70
     0
  3

  4
"
  5

  6

  7

 40
1.0
 41
3.5
 42
0.0
 43
10.0
 44
1.0
 45
0.0
 46
0.0
 47
0.1
 48
0.1
140
3.5
141
0.0
142
0.0
143
0.0393701
144
1.0
145
0.0
146
0.71
147
1.5
 71
     0
 72
     0
 73
     0
 74
     0
 75
     0
 76
     0
 77
     1
 78
     8
170
     0
171
     2
172
     1
173
     0
174
     0
175
     0
176
   256
177
   256
178
     2
270
     2
271
     2
272
     2
273
     2
274
     2
340
11
275
     0
280
     0
281
     0
282
     0
283
     0
284
     8
285
     0
286
     0
287
     3
288
     0
  0
DIMSTYLE
105
74
330
A
100
AcDbSymbolTableRecord
100
AcDbDimStyleTableRecord
  2
AM_DIN$SF
 70
     0
  3

  4
"
  5

  6

  7

 40
1.0
 41
2.5
 42
1.0
 43
10.0
 44
1.0
 45
0.0
 46
0.0
 47
0.1
 48
0.1
140
3.5
141
0.0
142
0.0
143
0.0393701
144
1.0
145
0.0
146
0.71
147
1.5
 71
     0
 72
     0
 73
     0
 74
     0
 75
     1
 76
     1
 77
     1
 78
     8
170
     0
171
     2
172
     1
173
     0
174
     0
175
     0
176
   256
177
   256
178
     2
270
     2
271
     2
272
     3
273
     2
274
     4
340
11
275
     0
280
     0
281
     0
282
     0
283
     0
284
     8
285
     0
286
     0
287
     3
288
     0
  0
DIMSTYLE
105
79
330
A
100
AcDbSymbolTableRecord
100
AcDbDimStyleTableRecord
  2
AM_DIN$SH
 70
     0
  3

  4
"
  5

  6
GENAXEH
  7

 40
1.0
 41
2.5
 42
1.0
 43
10.0
 44
1.0
 45
0.0
 46
0.0
 47
0.1
 48
0.1
140
3.5
141
0.0
142
0.0
143
0.0393701
144
2.0
145
0.0
146
0.71
147
1.5
 71
     0
 72
     0
 73
     0
 74
     0
 75
     1
 76
     1
 77
     1
 78
     8
170
     0
171
     2
172
     1
173
     1
174
     0
175
     0
176
   256
177
   256
178
     2
270
     2
271
     2
272
     3
273
     2
274
     4
340
11
275
     0
280
     0
281
     0
282
     0
283
     0
284
     8
285
     0
286
     0
287
     3
288
     0
  0
DIMSTYLE
105
1E3B
330
A
100
AcDbSymbolTableRecord
100
AcDbDimStyleTableRecord
  2
STANDARD
 70
     0
  3

  4

  5

  6

  7

 40
1.0
 41
0.18
 42
0.0625
 43
0.38
 44
0.18
 45
0.0
 46
0.0
 47
0.0
 48
0.0
140
0.18
141
0.09
142
0.0
143
25.4
144
1.0
145
0.0
146
1.0
147
0.09
 71
     0
 72
     0
 73
     1
 74
     1
 75
     0
 76
     0
 77
     0
 78
     0
170
     0
171
     2
172
     0
173
     0
174
     0
175
     0
176
     0
177
     0
178
     0
270
     2
271
     2
272
     2
273
     2
274
     2
340
11
275
     0
280
     0
281
     0
282
     0
283
     1
284
     8
285
     8
286
     8
287
     5
288
     0
  0
DIMSTYLE
105
1E3C
330
A
100
AcDbSymbolTableRecord
100
AcDbDimStyleTableRecord
  2
AM_ANSI
 70
     0
  3

  4
mm
  5

  6

  7

 40
1.0
 41
0.1
 42
0.0
 43
0.5
 44
0.1
 45
0.0
 46
0.0
 47
0.1
 48
0.1
140
0.12
141
0.0
142
0.0
143
25.4
144
1.0
145
0.0
146
0.71
147
0.06
 71
     0
 72
     0
 73
     1
 74
     1
 75
     0
 76
     0
 77
     0
 78
     7
170
     0
171
     2
172
     0
173
     0
174
     0
175
     0
176
   256
177
   256
178
     2
270
     2
271
     2
272
     2
273
     2
274
     2
340
11
275
     0
280
     0
281
     0
282
     0
283
     1
284
     8
285
     8
286
     8
287
     5
288
     0
  0
DIMSTYLE
105
1E3D
330
A
100
AcDbSymbolTableRecord
100
AcDbDimStyleTableRecord
  2
AM_ANSI$3
 70
     0
  3

  4
mm
  5

  6

  7

 40
1.0
 41
0.1
 42
0.0
 43
0.5
 44
0.1
 45
0.0
 46
0.0
 47
0.1
 48
0.1
140
0.12
141
0.0
142
0.0
143
25.4
144
1.0
145
0.0
146
0.71
147
0.06
 71
     0
 72
     0
 73
     1
 74
     1
 75
     0
 76
     0
 77
     0
 78
     7
170
     0
171
     2
172
     0
173
     0
174
     0
175
     0
176
   256
177
   256
178
     2
270
     2
271
     2
272
     2
273
     2
274
     2
340
11
275
     0
280
     0
281
     0
282
     0
283
     1
284
     8
285
     8
286
     8
287
     5
288
     0
  0
DIMSTYLE
105
1E3E
330
A
100
AcDbSymbolTableRecord
100
AcDbDimStyleTableRecord
  2
AM_ANSI$4
 70
     0
  3

  4
mm
  5

  6

  7

 40
1.0
 41
0.1
 42
0.0
 43
0.5
 44
0.1
 45
0.0
 46
0.0
 47
0.1
 48
0.1
140
0.12
141
0.0
142
0.0
143
25.4
144
1.0
145
0.0
146
0.71
147
0.06
 71
     0
 72
     0
 73
     1
 74
     1
 75
     0
 76
     0
 77
     0
 78
     7
170
     0
171
     2
172
     0
173
     0
174
     0
175
     0
176
   256
177
   256
178
     2
270
     2
271
     2
272
     2
273
     2
274
     2
340
11
275
     0
280
     0
281
     0
282
     0
283
     1
284
     8
285
     8
286
     8
287
     5
288
     0
  0
DIMSTYLE
105
1E3F
330
A
100
AcDbSymbolTableRecord
100
AcDbDimStyleTableRecord
  2
AM_ANSI$7
 70
     0
  3

  4
mm
  5

  6

  7

 40
1.0
 41
0.1
 42
0.0
 43
0.5
 44
0.1
 45
0.0
 46
0.0
 47
0.1
 48
0.1
140
0.24
141
0.0
142
0.0
143
25.4
144
1.0
145
0.0
146
0.71
147
0.06
 71
     0
 72
     0
 73
     1
 74
     1
 75
     0
 76
     0
 77
     0
 78
     7
170
     0
171
     2
172
     0
173
     0
174
     0
175
     0
176
   256
177
   256
178
     2
270
     2
271
     2
272
     2
273
     2
274
     2
340
11
275
     0
280
     0
281
     0
282
     0
283
     1
284
     8
285
     8
286
     8
287
     5
288
     0
  0
DIMSTYLE
105
1E40
330
A
100
AcDbSymbolTableRecord
100
AcDbDimStyleTableRecord
  2
AM_ANSI$SF
 70
     0
  3

  4
mm
  5

  6

  7

 40
1.0
 41
0.1
 42
0.05
 43
0.5
 44
0.1
 45
0.0
 46
0.0
 47
0.1
 48
0.1
140
0.12
141
0.0
142
0.0
143
25.4
144
1.0
145
0.0
146
0.71
147
0.06
 71
     0
 72
     0
 73
     1
 74
     1
 75
     1
 76
     1
 77
     0
 78
     7
170
     0
171
     2
172
     0
173
     0
174
     0
175
     0
176
   256
177
   256
178
     2
270
     2
271
     2
272
     2
273
     2
274
     2
340
11
275
     0
280
     0
281
     0
282
     0
283
     1
284
     8
285
     8
286
     8
287
     5
288
     0
  0
DIMSTYLE
105
1E41
330
A
100
AcDbSymbolTableRecord
100
AcDbDimStyleTableRecord
  2
AM_ANSI$SH
 70
     0
  3

  4
mm
  5

  6

  7

 40
1.0
 41
0.1
 42
0.05
 43
0.5
 44
0.1
 45
0.0
 46
0.0
 47
0.1
 48
0.1
140
0.12
141
0.0
142
0.0
143
25.4
144
1.0
145
0.0
146
0.71
147
0.06
 71
     0
 72
     0
 73
     1
 74
     1
 75
     1
 76
     1
 77
     0
 78
     7
170
     0
171
     2
172
     0
173
     1
174
     0
175
     0
176
   256
177
   256
178
     2
270
     2
271
     2
272
     2
273
     2
274
     2
340
11
275
     0
280
     0
281
     0
282
     0
283
     1
284
     8
285
     8
286
     8
287
     5
288
     0
  0
ENDTAB
  0
TABLE
  2
BLOCK_RECORD
  5
1
330
0
100
AcDbSymbolTable
 70
     6
  0
BLOCK_RECORD
  5
1F
102
{ACAD_XDICTIONARY
360
1F1
102
}
330
1
100
AcDbSymbolTableRecord
100
AcDbBlockTableRecord
  2
*MODEL_SPACE
  0
BLOCK_RECORD
  5
1B
102
{ACAD_XDICTIONARY
360
3573
102
}
330
1
100
AcDbSymbolTableRecord
100
AcDbBlockTableRecord
  2
*PAPER_SPACE
  0
BLOCK_RECORD
  5
75
330
1
100
AcDbSymbolTableRecord
100
AcDbBlockTableRecord
  2
GENAXEH
  0
BLOCK_RECORD
  5
2C6F
330
1
100
AcDbSymbolTableRecord
100
AcDbBlockTableRecord
  2
*D2
  0
BLOCK_RECORD
  5
2CA0
330
1
100
AcDbSymbolTableRecord
100
AcDbBlockTableRecord
  2
*D3
  0
BLOCK_RECORD
  5
2CD1
330
1
100
AcDbSymbolTableRecord
100
AcDbBlockTableRecord
  2
*D4
  0
BLOCK_RECORD
  5
2D0C
330
1
100
AcDbSymbolTableRecord
100
AcDbBlockTableRecord
  2
*D5
  0
ENDTAB
  0
ENDSEC
  0
SECTION
  2
BLOCKS
  0
BLOCK
  5
20
330
1F
100
AcDbEntity
  8
0
100
AcDbBlockBegin
  2
*MODEL_SPACE
 70
     0
 10
0.0
 20
0.0
 30
0.0
  3
*MODEL_SPACE
  1

  0
ENDBLK
  5
21
330
1F
100
AcDbEntity
  8
0
100
AcDbBlockEnd
  0
BLOCK
  5
1C
330
1B
100
AcDbEntity
 67
     1
  8
0
100
AcDbBlockBegin
  2
*PAPER_SPACE
 70
     0
 10
0.0
 20
0.0
 30
0.0
  3
*PAPER_SPACE
  1

  0
ENDBLK
  5
1D
330
1B
100
AcDbEntity
 67
     1
  8
0
100
AcDbBlockEnd
  0
BLOCK
  5
77
330
75
100
AcDbEntity
  8
0
100
AcDbBlockBegin
  2
GENAXEH
 70
     0
 10
0.0
 20
0.0
 30
0.0
  3
GENAXEH
  1

  0
LINE
  5
76
330
75
100
AcDbEntity
  8
0
100
AcDbLine
 10
-1.0
 20
0.0
 30
0.0
 11
1.0
 21
0.0
 31
0.0
  0
ENDBLK
  5
78
330
75
100
AcDbEntity
  8
0
100
AcDbBlockEnd
  0
BLOCK
  5
2C79
330
2C6F
100
AcDbEntity
  8
0
100
AcDbBlockBegin
  2
*D2
 70
     1
 10
0.0
 20
0.0
 30
0.0
  3
*D2
  1

  0
LINE
  5
2DF4
330
2C6F
100
AcDbEntity
  8
SK2
100
AcDbLine
 10
0.0000000000002274
 20
16.00000000000031
 30
0.0
 11
-19.94638503674834
 21
16.00000000000031
 31
0.0
  0
LINE
  5
2DF5
330
2C6F
100
AcDbEntity
  8
SK2
100
AcDbLine
 10
0.0000000000001421
 20
-16.00000000000014
 30
0.0
 11
-19.94638503674835
 21
-16.00000000000013
 31
0.0
  0
LINE
  5
2DF6
330
2C6F
100
AcDbEntity
  8
SK2
100
AcDbLine
 10
-18.94638503674834
 20
13.50000000000031
 30
0.0
 11
-18.94638503674835
 21
-13.50000000000013
 31
0.0
  0
SOLID
  5
2DF7
330
2C6F
100
AcDbEntity
  8
SK2
100
AcDbTrace
 10
-19.36305170341501
 20
13.50000000000031
 30
0.0
 11
-18.52971837008167
 21
13.50000000000031
 31
0.0
 12
-18.94638503674834
 22
16.00000000000031
 32
0.0
 13
-18.94638503674834
 23
16.00000000000031
 33
0.0
  0
SOLID
  5
2DF8
330
2C6F
100
AcDbEntity
  8
SK2
100
AcDbTrace
 10
-19.36305170341502
 20
-13.50000000000013
 30
0.0
 11
-18.52971837008168
 21
-13.50000000000013
 31
0.0
 12
-18.94638503674835
 22
-16.00000000000013
 32
0.0
 13
-18.94638503674835
 23
-16.00000000000013
 33
0.0
  0
MTEXT
  5
2DF9
330
2C6F
100
AcDbEntity
  8
SK2
 62
     2
100
AcDbMText
 10
-22.19672952493732
 20
0.0000000000000868
 30
0.0
 40
3.5
 41
0.0
 71
     5
 72
     1
  1
%%c32
 11
0.0000000000000001
 21
1.0
 31
0.0
1001
ACAD
1000
MTEXTBEGIN
1070
    73
1070
     1
1070
    44
1040
1.0
1070
    74
1070
     0
1000
MTEXTEND
  0
POINT
  5
2DFA
330
2C6F
100
AcDbEntity
  8
DEFPOINTS
 62
     0
100
AcDbPoint
 10
0.0000000000002274
 20
16.00000000000031
 30
0.0
  0
POINT
  5
2DFB
330
2C6F
100
AcDbEntity
  8
DEFPOINTS
 62
     0
100
AcDbPoint
 10
0.0000000000001421
 20
-16.00000000000014
 30
0.0
  0
POINT
  5
2DFC
330
2C6F
100
AcDbEntity
  8
DEFPOINTS
 62
     0
100
AcDbPoint
 10
-18.94638503674835
 20
-16.00000000000013
 30
0.0
  0
ENDBLK
  5
2C7A
330
2C6F
100
AcDbEntity
  8
0
100
AcDbBlockEnd
  0
BLOCK
  5
2CAA
330
2CA0
100
AcDbEntity
  8
0
100
AcDbBlockBegin
  2
*D3
 70
     1
 10
0.0
 20
0.0
 30
0.0
  3
*D3
  1

  0
LINE
  5
2DEB
330
2CA0
100
AcDbEntity
  8
SK2
100
AcDbLine
 10
1.00000000000648
 20
31.99993742175772
 30
0.0
 11
-33.49695797513529
 21
31.99993742175773
 31
0.0
  0
LINE
  5
2DEC
330
2CA0
100
AcDbEntity
  8
SK2
100
AcDbLine
 10
1.000000000006536
 20
-31.99993742175806
 30
0.0
 11
-33.4969579751353
 21
-31.99993742175805
 31
0.0
  0
LINE
  5
2DED
330
2CA0
100
AcDbEntity
  8
SK2
100
AcDbLine
 10
-32.49695797513528
 20
29.49993742175773
 30
0.0
 11
-32.4969579751353
 21
-29.49993742175805
 31
0.0
  0
SOLID
  5
2DEE
330
2CA0
100
AcDbEntity
  8
SK2
100
AcDbTrace
 10
-32.91362464180195
 20
29.49993742175773
 30
0.0
 11
-32.08029130846862
 21
29.49993742175773
 31
0.0
 12
-32.49695797513528
 22
31.99993742175773
 32
0.0
 13
-32.49695797513528
 23
31.99993742175773
 33
0.0
  0
SOLID
  5
2DEF
330
2CA0
100
AcDbEntity
  8
SK2
100
AcDbTrace
 10
-32.91362464180196
 20
-29.49993742175805
 30
0.0
 11
-32.08029130846863
 21
-29.49993742175805
 31
0.0
 12
-32.4969579751353
 22
-31.99993742175805
 32
0.0
 13
-32.4969579751353
 23
-31.99993742175805
 33
0.0
  0
MTEXT
  5
2DF0
330
2CA0
100
AcDbEntity
  8
SK2
 62
     2
100
AcDbMText
 10
-35.74695797513529
 20
-0.0000000000001646
 30
0.0
 40
3.5
 41
0.0
 71
     5
 72
     1
  1
%%c64
 11
0.0000000000000001
 21
1.0
 31
0.0
1001
ACAD
1000
MTEXTBEGIN
1070
    73
1070
     1
1070
    44
1040
1.0
1070
    74
1070
     0
1000
MTEXTEND
  0
POINT
  5
2DF1
330
2CA0
100
AcDbEntity
  8
DEFPOINTS
 62
     0
100
AcDbPoint
 10
1.00000000000648
 20
31.99993742175772
 30
0.0
  0
POINT
  5
2DF2
330
2CA0
100
AcDbEntity
  8
DEFPOINTS
 62
     0
100
AcDbPoint
 10
1.000000000006536
 20
-31.99993742175806
 30
0.0
  0
POINT
  5
2DF3
330
2CA0
100
AcDbEntity
  8
DEFPOINTS
 62
     0
100
AcDbPoint
 10
-32.4969579751353
 20
-31.99993742175805
 30
0.0
  0
ENDBLK
  5
2CAB
330
2CA0
100
AcDbEntity
  8
0
100
AcDbBlockEnd
  0
BLOCK
  5
2CDB
330
2CD1
100
AcDbEntity
  8
0
100
AcDbBlockBegin
  2
*D4
 70
     1
 10
0.0
 20
0.0
 30
0.0
  3
*D4
  1

  0
LINE
  5
3522
330
2CD1
100
AcDbEntity
  8
2
100
AcDbLine
 10
63.00000000000011
 20
49.99999999999985
 30
0.0
 11
97.97059606133304
 21
49.99999999999985
 31
0.0
  0
LINE
  5
3523
330
2CD1
100
AcDbEntity
  8
2
100
AcDbLine
 10
63.00000000000011
 20
-49.99999999999985
 30
0.0
 11
97.97059606133302
 21
-49.99999999999986
 31
0.0
  0
LINE
  5
3524
330
2CD1
100
AcDbEntity
  8
2
100
AcDbLine
 10
96.97059606133304
 20
47.49999999999984
 30
0.0
 11
96.97059606133301
 21
-47.49999999999986
 31
0.0
  0
SOLID
  5
3525
330
2CD1
100
AcDbEntity
  8
2
100
AcDbTrace
 10
96.55392939466636
 20
47.49999999999984
 30
0.0
 11
97.38726272799972
 21
47.49999999999984
 31
0.0
 12
96.97059606133304
 22
49.99999999999985
 32
0.0
 13
96.97059606133304
 23
49.99999999999985
 33
0.0
  0
SOLID
  5
3526
330
2CD1
100
AcDbEntity
  8
2
100
AcDbTrace
 10
96.55392939466635
 20
-47.49999999999986
 30
0.0
 11
97.38726272799969
 21
-47.49999999999986
 31
0.0
 12
96.97059606133301
 22
-49.99999999999986
 32
0.0
 13
96.97059606133301
 23
-49.99999999999986
 33
0.0
  0
MTEXT
  5
3527
330
2CD1
100
AcDbEntity
  8
2
 62
     2
100
AcDbMText
 10
93.72059606133303
 20
0.3172105200304718
 30
0.0
 40
3.5
 41
0.0
 71
     5
 72
     1
  1
%%c100
 11
0.0000000000000001
 21
1.0
 31
0.0
1001
ACAD
1000
MTEXTBEGIN
1070
    73
1070
     1
1070
    44
1040
1.0
1070
    74
1070
     0
1000
MTEXTEND
  0
POINT
  5
3528
330
2CD1
100
AcDbEntity
  8
DEFPOINTS
 62
     0
100
AcDbPoint
 10
63.00000000000011
 20
49.99999999999985
 30
0.0
  0
POINT
  5
3529
330
2CD1
100
AcDbEntity
  8
DEFPOINTS
 62
     0
100
AcDbPoint
 10
63.00000000000011
 20
-49.99999999999985
 30
0.0
  0
POINT
  5
352A
330
2CD1
100
AcDbEntity
  8
DEFPOINTS
 62
     0
100
AcDbPoint
 10
96.97059606133301
 20
-49.99999999999986
 30
0.0
  0
ENDBLK
  5
2CDC
330
2CD1
100
AcDbEntity
  8
0
100
AcDbBlockEnd
  0
BLOCK
  5
2D16
330
2D0C
100
AcDbEntity
  8
0
100
AcDbBlockBegin
  2
*D5
 70
     1
 10
0.0
 20
0.0
 30
0.0
  3
*D5
  1

  0
LINE
  5
350F
330
2D0C
100
AcDbEntity
  8
2
100
AcDbLine
 10
0.0000000000002274
 20
30.99993742175147
 30
0.0
 11
0.000000000000231
 21
91.00000000000001
 31
0.0
  0
LINE
  5
3510
330
2D0C
100
AcDbEntity
  8
2
100
AcDbLine
 10
63.00000000000011
 20
49.99999999999985
 30
0.0
 11
63.00000000000011
 21
91.00000000000001
 31
0.0
  0
LINE
  5
3511
330
2D0C
100
AcDbEntity
  8
2
100
AcDbLine
 10
2.50000000000023
 20
90.00000000000001
 30
0.0
 11
60.50000000000011
 21
90.00000000000001
 31
0.0
  0
SOLID
  5
3512
330
2D0C
100
AcDbEntity
  8
2
100
AcDbTrace
 10
2.50000000000023
 20
90.41666666666669
 30
0.0
 11
2.50000000000023
 21
89.58333333333333
 31
0.0
 12
0.000000000000231
 22
90.00000000000001
 32
0.0
 13
0.000000000000231
 23
90.00000000000001
 33
0.0
  0
SOLID
  5
3513
330
2D0C
100
AcDbEntity
  8
2
100
AcDbTrace
 10
60.50000000000011
 20
90.41666666666669
 30
0.0
 11
60.50000000000011
 21
89.58333333333333
 31
0.0
 12
63.00000000000011
 22
90.00000000000001
 32
0.0
 13
63.00000000000011
 23
90.00000000000001
 33
0.0
  0
MTEXT
  5
3514
330
2D0C
100
AcDbEntity
  8
2
 62
     2
100
AcDbMText
 10
31.50000000000017
 20
93.25000000000001
 30
0.0
 40
3.5
 41
0.0
 71
     5
 72
     1
  1
63
1001
ACAD
1000
MTEXTBEGIN
1070
    73
1070
     1
1070
    44
1040
1.0
1070
    74
1070
     0
1000
MTEXTEND
  0
POINT
  5
3515
330
2D0C
100
AcDbEntity
  8
DEFPOINTS
 62
     0
100
AcDbPoint
 10
0.0000000000002274
 20
30.99993742175147
 30
0.0
  0
POINT
  5
3516
330
2D0C
100
AcDbEntity
  8
DEFPOINTS
 62
     0
100
AcDbPoint
 10
63.00000000000011
 20
49.99999999999985
 30
0.0
  0
POINT
  5
3517
330
2D0C
100
AcDbEntity
  8
DEFPOINTS
 62
     0
100
AcDbPoint
 10
63.00000000000011
 20
90.00000000000001
 30
0.0
  0
ENDBLK
  5
2D17
330
2D0C
100
AcDbEntity
  8
0
100
AcDbBlockEnd
  0
ENDSEC
  0
SECTION
  2
ENTITIES
  0
LINE
  5
2BA8
330
1F
100
AcDbEntity
  8
1
100
AcDbLine
 10
12.30000000001462
 20
48.30000000000868
 30
0.0
 11
9.800000000003933
 21
45.7999999999981
 31
0.0
  0
LINE
  5
2BA9
330
1F
100
AcDbEntity
  8
1
100
AcDbLine
 10
9.800000000003933
 20
45.7999999999981
 30
0.0
 11
9.800000000005525
 21
-45.80000000000061
 31
0.0
  0
LINE
  5
2BAA
330
1F
100
AcDbEntity
  8
1
100
AcDbLine
 10
9.800000000005525
 20
-45.80000000000061
 30
0.0
 11
12.30000000001427
 21
-48.3000000000093
 31
0.0
  0
LINE
  5
2BAB
330
1F
100
AcDbEntity
  8
1
100
AcDbLine
 10
12.30000000001427
 20
-48.3000000000093
 30
0.0
 11
12.30000000001462
 21
48.30000000000868
 31
0.0
  0
LINE
  5
2BAC
330
1F
100
AcDbEntity
  8
1
100
AcDbLine
 10
5.800000000005411
 20
31.99993742175772
 30
0.0
 11
1.00000000000648
 21
31.99993742175772
 31
0.0
  0
LINE
  5
2BAD
330
1F
100
AcDbEntity
  8
1
100
AcDbLine
 10
1.00000000000648
 20
31.99993742175772
 30
0.0
 11
0.0000000000002274
 21
30.99993742175147
 31
0.0
  0
LINE
  5
2BAE
330
1F
100
AcDbEntity
  8
1
100
AcDbLine
 10
0.0000000000002274
 20
30.99993742175147
 30
0.0
 11
0.0000000000002274
 21
7.199999999999846
 31
0.0
  0
LINE
  5
2BAF
330
1F
100
AcDbEntity
  8
SK1
100
AcDbLine
 10
0.0000000000002274
 20
7.199999999999846
 30
0.0
 11
8.000000000004661
 21
7.199999999999846
 31
0.0
  0
LINE
  5
2BB0
330
1F
100
AcDbEntity
  8
SK1
100
AcDbLine
 10
8.000000000004661
 20
7.199999999999846
 30
0.0
 11
8.000000000004661
 21
-7.200000000000073
 31
0.0
  0
LINE
  5
2BB1
330
1F
100
AcDbEntity
  8
SK1
100
AcDbLine
 10
8.000000000004661
 20
-7.200000000000073
 30
0.0
 11
0.0
 21
-7.200000000000073
 31
0.0
  0
LINE
  5
2BB4
330
1F
100
AcDbEntity
  8
1
100
AcDbLine
 10
0.0000000000002274
 20
-7.200000000000073
 30
0.0
 11
0.0
 21
-30.99993742175152
 31
0.0
  0
LINE
  5
2BB5
330
1F
100
AcDbEntity
  8
1
100
AcDbLine
 10
0.0
 20
-30.99993742175152
 30
0.0
 11
1.00000000000648
 21
-31.999937421758
 31
0.0
  0
LINE
  5
2BB6
330
1F
100
AcDbEntity
  8
1
100
AcDbLine
 10
1.00000000000648
 20
-31.999937421758
 30
0.0
 11
1.00000000000648
 21
-7.200000000000073
 31
0.0
  0
LINE
  5
2BB7
330
1F
100
AcDbEntity
  8
1
100
AcDbLine
 10
1.000000000006536
 20
-31.99993742175806
 30
0.0
 11
5.800000000005184
 21
-31.99993742175806
 31
0.0
  0
ARC
  5
2BB8
330
1F
100
AcDbEntity
  8
1
100
AcDbCircle
 10
5.800000000005127
 20
-35.99993742175827
 30
0.0
 40
4.000000000000213
100
AcDbArc
 50
0.0000000000048761
 51
89.99999999999593
  0
ARC
  5
2BB9
330
1F
100
AcDbEntity
  8
1
100
AcDbCircle
 10
5.800000000005184
 20
35.9999374217582
 30
0.0
 40
4.000000000000213
100
AcDbArc
 50
270.0000000000039
 51
359.999999999995
  0
LINE
  5
2BBA
330
1F
100
AcDbEntity
  8
1
100
AcDbLine
 10
12.30000000001427
 20
-48.3000000000093
 30
0.0
 11
57.00000000000637
 21
-48.30000000000914
 31
0.0
  0
LINE
  5
2BBB
330
1F
100
AcDbEntity
  8
1
100
AcDbLine
 10
57.00000000000637
 20
-48.30000000000914
 30
0.0
 11
58.00000000000659
 21
-47.30000000000891
 31
0.0
  0
LINE
  5
2BBC
330
1F
100
AcDbEntity
  8
1
100
AcDbLine
 10
58.00000000000659
 20
-47.30000000000891
 30
0.0
 11
58.00000000000659
 21
36.17440977312966
 31
0.0
  0
LINE
  5
2BBE
330
1F
100
AcDbEntity
  8
SK1
100
AcDbLine
 10
58.00000000000682
 20
47.30000000000839
 30
0.0
 11
58.00000000000659
 21
47.30000000000862
 31
0.0
  0
LINE
  5
2BBF
330
1F
100
AcDbEntity
  8
SK1
100
AcDbLine
 10
57.00000000000693
 20
48.3000000000084
 30
0.0
 11
44.50000000000005
 21
48.30000000000847
 31
0.0
  0
LINE
  5
2BC0
330
1F
100
AcDbEntity
  8
1
100
AcDbLine
 10
44.00000000000022
 20
48.30000000000848
 30
0.0
 11
44.00000000000022
 21
44.17440977312966
 31
0.0
  0
LINE
  5
2BC1
330
1F
100
AcDbEntity
  8
1
100
AcDbLine
 10
58.00000000000659
 20
36.17440977312966
 30
0.0
 11
52.00000000000023
 21
36.17440977312966
 31
0.0
  0
ARC
  5
2BC2
330
1F
100
AcDbEntity
  8
1
100
AcDbCircle
 10
52.00000000000017
 20
44.17440977312965
 30
0.0
 40
7.999999999999943
100
AcDbArc
 50
179.9999999999998
 51
270.0000000000004
  0
ELLIPSE
  5
2BC5
330
1F
100
AcDbEntity
  8
1
100
AcDbEllipse
 10
19.50000000000011
 20
43.36993742175772
 30
0.0
 11
-5.0
 21
0.0
 31
0.0
210
0.0
220
0.0
230
1.0
 40
0.7807587326743715
 41
0.0
 42
6.283185307179586
  0
LINE
  5
2BC6
330
1F
100
AcDbEntity
  8
1
100
AcDbLine
 10
18.05662432702604
 20
45.57144657363053
 30
0.0
 11
16.61324865405197
 21
43.36993742175772
 31
0.0
  0
LINE
  5
2BC7
330
1F
100
AcDbEntity
  8
1
100
AcDbLine
 10
16.61324865405197
 20
43.36993742175772
 30
0.0
 11
18.05662432702604
 21
41.16842826988485
 31
0.0
  0
LINE
  5
2BC8
330
1F
100
AcDbEntity
  8
1
100
AcDbLine
 10
18.05662432702604
 20
41.16842826988485
 30
0.0
 11
20.94337567297418
 21
41.16842826988485
 31
0.0
  0
LINE
  5
2BC9
330
1F
100
AcDbEntity
  8
1
100
AcDbLine
 10
20.94337567297418
 20
41.16842826988485
 30
0.0
 11
22.34390894052432
 21
43.36993742175772
 31
0.0
  0
LINE
  5
2BCA
330
1F
100
AcDbEntity
  8
1
100
AcDbLine
 10
22.34390894052432
 20
43.36993742175772
 30
0.0
 11
20.94337567297418
 21
45.57144657363053
 31
0.0
  0
LINE
  5
2BCB
330
1F
100
AcDbEntity
  8
1
100
AcDbLine
 10
20.94337567297418
 20
45.57144657363053
 30
0.0
 11
18.05662432702604
 21
45.57144657363053
 31
0.0
  0
ELLIPSE
  5
2BCC
330
1F
100
AcDbEntity
  8
1
100
AcDbEllipse
 10
35.50000000001728
 20
43.36993742175772
 30
0.0
 11
-5.0
 21
0.0
 31
0.0
210
0.0
220
0.0
230
1.0
 40
0.7807587326743715
 41
0.0
 42
6.283185307179586
  0
LINE
  5
2BCD
330
1F
100
AcDbEntity
  8
1
100
AcDbLine
 10
32.61324865406914
 20
43.36993742175772
 30
0.0
 11
34.05662432704321
 21
41.16842826988485
 31
0.0
  0
LINE
  5
2BCE
330
1F
100
AcDbEntity
  8
1
100
AcDbLine
 10
34.05662432704321
 20
45.57144657363053
 30
0.0
 11
32.61324865406914
 21
43.36993742175772
 31
0.0
  0
LINE
  5
2BCF
330
1F
100
AcDbEntity
  8
1
100
AcDbLine
 10
36.94337567299135
 20
45.57144657363053
 30
0.0
 11
34.05662432704321
 21
45.57144657363053
 31
0.0
  0
LINE
  5
2BD0
330
1F
100
AcDbEntity
  8
1
100
AcDbLine
 10
38.34390894054149
 20
43.36993742175772
 30
0.0
 11
36.94337567299135
 21
45.57144657363053
 31
0.0
  0
LINE
  5
2BD1
330
1F
100
AcDbEntity
  8
1
100
AcDbLine
 10
36.94337567299135
 20
41.16842826988485
 30
0.0
 11
38.34390894054149
 21
43.36993742175772
 31
0.0
  0
LINE
  5
2BD2
330
1F
100
AcDbEntity
  8
1
100
AcDbLine
 10
34.05662432704321
 20
41.16842826988485
 30
0.0
 11
36.94337567299135
 21
41.16842826988485
 31
0.0
  0
LINE
  5
2BD3
330
1F
100
AcDbEntity
  8
4
100
AcDbLine
 10
14.50000000000011
 20
43.36993742175772
 30
0.0
 11
24.50000000000011
 21
43.36993742175772
 31
0.0
  0
LINE
  5
2BD4
330
1F
100
AcDbEntity
  8
4
100
AcDbLine
 10
19.50000000000011
 20
47.27373108512958
 30
0.0
 11
19.50000000000011
 21
39.46614375838587
 31
0.0
  0
LINE
  5
2BD5
330
1F
100
AcDbEntity
  8
4
100
AcDbLine
 10
30.50000000001728
 20
43.36993742175772
 30
0.0
 11
40.50000000001728
 21
43.36993742175772
 31
0.0
  0
LINE
  5
2BD6
330
1F
100
AcDbEntity
  8
4
100
AcDbLine
 10
35.50000000001728
 20
47.27373108512958
 30
0.0
 11
35.50000000001728
 21
39.46614375838587
 31
0.0
  0
LINE
  5
2BD7
330
1F
100
AcDbEntity
  8
SK3
 48
0.3
100
AcDbLine
 10
0.0000000000002274
 20
16.00000000000031
 30
0.0
 11
25.00000000000511
 21
15.99999999999957
 31
0.0
  0
LINE
  5
2BD8
330
1F
100
AcDbEntity
  8
SK3
 48
0.3
100
AcDbLine
 10
25.00000000000511
 20
15.99999999999957
 30
0.0
 11
25.00000000000466
 21
-16.00000000000014
 31
0.0
  0
LINE
  5
2BD9
330
1F
100
AcDbEntity
  8
SK3
 48
0.3
100
AcDbLine
 10
25.00000000000466
 20
-16.00000000000014
 30
0.0
 11
0.0000000000001421
 21
-16.00000000000014
 31
0.0
  0
LINE
  5
2BDA
330
1F
100
AcDbEntity
  8
SK3
 48
0.3
100
AcDbLine
 10
58.00000000000659
 20
17.00000000000423
 30
0.0
 11
30.3000000000078
 21
17.00000000000429
 31
0.0
  0
LINE
  5
2BDB
330
1F
100
AcDbEntity
  8
SK3
 48
0.3
100
AcDbLine
 10
30.3000000000078
 20
17.00000000000429
 30
0.0
 11
30.3000000000078
 21
-17.00000000000457
 31
0.0
  0
LINE
  5
2BDC
330
1F
100
AcDbEntity
  8
SK3
 48
0.3
100
AcDbLine
 10
30.3000000000078
 20
-17.00000000000457
 30
0.0
 11
58.00000000000636
 21
-17.00000000000446
 31
0.0
  0
LINE
  5
2BDD
330
1F
100
AcDbEntity
  8
SK3
 48
0.3
100
AcDbLine
 10
30.3000000000078
 20
8.999999999999857
 30
0.0
 11
25.00000000000503
 21
8.999999999999857
 31
0.0
  0
LINE
  5
2BDE
330
1F
100
AcDbEntity
  8
SK3
 48
0.3
100
AcDbLine
 10
30.3000000000078
 20
-9.000000000000142
 30
0.0
 11
25.00000000000466
 21
-9.000000000000142
 31
0.0
  0
LINE
  5
2BDF
330
1F
100
AcDbEntity
  8
SK3
 48
0.3
100
AcDbLine
 10
8.445751311061599
 20
32.99993742175033
 30
0.0
 11
50.00000000001091
 21
32.99993742175033
 31
0.0
  0
LINE
  5
2BE0
330
1F
100
AcDbEntity
  8
SK3
 48
0.3
100
AcDbLine
 10
55.00000000001103
 20
32.99993742175027
 30
0.0
 11
58.00000000000648
 21
32.99993742175027
 31
0.0
  0
LINE
  5
2BE1
330
1F
100
AcDbEntity
  8
SK3
 48
0.3
100
AcDbLine
 10
58.00000000000659
 20
21.89993742175633
 30
0.0
 11
50.00000000001091
 21
21.89993742175644
 31
0.0
  0
LINE
  5
2BE2
330
1F
100
AcDbEntity
  8
SK3
 48
0.3
100
AcDbLine
 10
50.00000000001091
 20
21.89993742175644
 30
0.0
 11
50.00000000001091
 21
35.49993742175635
 31
0.0
  0
LINE
  5
2BE3
330
1F
100
AcDbEntity
  8
SK3
 48
0.3
100
AcDbLine
 10
50.00000000001091
 20
35.49993742175635
 30
0.0
 11
55.00000000001103
 21
35.49993742175635
 31
0.0
  0
LINE
  5
2BE4
330
1F
100
AcDbEntity
  8
SK3
 48
0.3
100
AcDbLine
 10
55.00000000001103
 20
35.49993742175635
 30
0.0
 11
55.00000000001103
 21
22.39993742175639
 31
0.0
  0
LINE
  5
2BE5
330
1F
100
AcDbEntity
  8
SK3
 48
0.3
100
AcDbLine
 10
55.00000000001103
 20
22.39993742175639
 30
0.0
 11
50.00000000001091
 21
22.39993742175645
 31
0.0
  0
LINE
  5
2BE6
330
1F
100
AcDbEntity
  8
SK3
 48
0.3
100
AcDbLine
 10
50.00000000001091
 20
34.39993742175008
 30
0.0
 11
55.00000000001103
 21
34.39993742175014
 31
0.0
  0
LINE
  5
2BE7
330
1F
100
AcDbEntity
  8
SK3
 48
0.3
100
AcDbLine
 10
50.00000000001091
 20
31.39993742175326
 30
0.0
 11
38.61350000001414
 21
31.39993742175326
 31
0.0
  0
LINE
  5
2BE8
330
1F
100
AcDbEntity
  8
SK3
100
AcDbLine
 10
38.61350000001414
 20
31.39993742175326
 30
0.0
 11
38.00000000001409
 21
30.78643742175322
 31
0.0
  0
LINE
  5
2BE9
330
1F
100
AcDbEntity
  8
SK3
 48
0.3
100
AcDbLine
 10
38.00000000001409
 20
30.78643742175322
 30
0.0
 11
38.00000000001409
 21
26.0134374217533
 31
0.0
  0
LINE
  5
2BEA
330
1F
100
AcDbEntity
  8
SK3
100
AcDbLine
 10
38.00000000001409
 20
26.0134374217533
 30
0.0
 11
38.61350000001414
 21
25.39993742175326
 31
0.0
  0
LINE
  5
2BEB
330
1F
100
AcDbEntity
  8
SK3
 48
0.3
100
AcDbLine
 10
38.61350000001414
 20
25.39993742175326
 30
0.0
 11
50.00000000001091
 21
25.39993742175326
 31
0.0
  0
LINE
  5
2BEC
330
1F
100
AcDbEntity
  8
SK3
 48
0.3
100
AcDbLine
 10
50.00000000001091
 20
30.78643742175322
 30
0.0
 11
38.00000000001409
 21
30.78643742175322
 31
0.0
  0
LINE
  5
2BED
330
1F
100
AcDbEntity
  8
SK3
 48
0.3
100
AcDbLine
 10
50.00000000001091
 20
26.01343742175319
 30
0.0
 11
38.00000000001409
 21
26.0134374217533
 31
0.0
  0
LINE
  5
2BEE
330
1F
100
AcDbEntity
  8
SK3
 48
0.3
100
AcDbLine
 10
38.61350000001414
 20
31.39993742175326
 30
0.0
 11
38.61350000001414
 21
25.39993742175326
 31
0.0
  0
LINE
  5
2BEF
330
1F
100
AcDbEntity
  8
SK4
100
AcDbLine
 10
35.5249298967326
 20
28.39993742175326
 30
0.0
 11
60.13044184319688
 21
28.39993742175328
 31
0.0
  0
LINE
  5
2BF4
330
1F
100
AcDbEntity
  8
SK1
100
AcDbLine
 10
-2.262823140784178
 20
-2.262823140784178
 30
0.0
 11
2.262823140784178
 21
2.262823140784178
 31
0.0
  0
CIRCLE
  5
2BF5
330
1F
100
AcDbEntity
  8
SK1
100
AcDbCircle
 10
0.0
 20
0.0
 30
0.0
 40
3.200115174948665
  0
LINE
  5
2BF6
330
1F
100
AcDbEntity
  8
SK1
100
AcDbLine
 10
-2.262823140784178
 20
2.262823140784178
 30
0.0
 11
2.262823140784178
 21
-2.262823140784178
 31
0.0
  0
LINE
  5
2C14
330
1F
100
AcDbEntity
  8
4
100
AcDbLine
 10
0.0
 20
0.0
 30
0.0
 11
60.85537167295502
 21
0.0
 31
0.0
  0
LINE
  5
2C3C
330
1F
100
AcDbEntity
  8
SK1
100
AcDbLine
 10
57.00000000000693
 20
48.3000000000084
 30
0.0
 11
58.00000000000682
 21
47.30000000000839
 31
0.0
  0
LINE
  5
2C44
330
1F
100
AcDbEntity
  8
SK1
100
AcDbLine
 10
63.00000000000011
 20
50.46376936984867
 30
0.0
 11
63.00000000000011
 21
49.53623063015104
 31
0.0
  0
LINE
  5
2C45
330
1F
100
AcDbEntity
  8
SK1
100
AcDbLine
 10
62.5362306301514
 20
49.99999999999985
 30
0.0
 11
63.46376936984905
 21
49.99999999999985
 31
0.0
  0
CIRCLE
  5
2C49
330
1F
100
AcDbEntity
  8
SK1
100
AcDbCircle
 10
63.00000000000011
 20
-49.99999999999985
 30
0.0
 40
0.4637693698488208
  0
LINE
  5
2C4A
330
1F
100
AcDbEntity
  8
SK1
100
AcDbLine
 10
62.5362306301514
 20
-49.99999999999985
 30
0.0
 11
63.46376936984905
 21
-49.99999999999985
 31
0.0
  0
LINE
  5
2C4B
330
1F
100
AcDbEntity
  8
SK1
100
AcDbLine
 10
63.00000000000011
 20
-50.46376936984867
 30
0.0
 11
63.00000000000011
 21
-49.53623063015104
 31
0.0
  0
LINE
  5
2C57
330
1F
100
AcDbEntity
  8
1
100
AcDbLine
 10
1.00000000000648
 20
31.99993742175772
 30
0.0
 11
1.00000000000648
 21
7.199999999999846
 31
0.0
  0
DIMENSION
  5
2C6E
330
1F
100
AcDbEntity
  8
SK2
100
AcDbDimension
  2
*D2
 10
-18.94638503674835
 20
-16.00000000000013
 30
0.0
 11
-22.19672952493732
 21
0.0000000000000868
 31
0.0
 70
    32
  1
%%c<>
  3
AM_DIN
100
AcDbAlignedDimension
 13
0.0000000000002274
 23
16.00000000000031
 33
0.0
 14
0.0000000000001421
 24
-16.00000000000014
 34
0.0
 50
89.99999999999836
100
AcDbRotatedDimension
  0
DIMENSION
  5
2C9F
330
1F
100
AcDbEntity
  8
SK2
100
AcDbDimension
  2
*D3
 10
-32.4969579751353
 20
-31.99993742175805
 30
0.0
 11
-35.74695797513529
 21
-0.0000000000001646
 31
0.0
 70
    32
  1
%%c<>
  3
AM_DIN
100
AcDbAlignedDimension
 13
1.00000000000648
 23
31.99993742175772
 33
0.0
 14
1.000000000006536
 24
-31.99993742175806
 34
0.0
 50
90.0
100
AcDbRotatedDimension
  0
DIMENSION
  5
2CD0
330
1F
100
AcDbEntity
  8
2
100
AcDbDimension
  2
*D4
 10
96.97059606133301
 20
-49.99999999999986
 30
0.0
 11
96.97059606133302
 21
0.3172105200304713
 31
0.0
 70
   160
  1
%%c<>
  3
AM_DIN
100
AcDbAlignedDimension
 13
63.00000000000011
 23
49.99999999999985
 33
0.0
 14
63.00000000000011
 24
-49.99999999999985
 34
0.0
 50
90.0
100
AcDbRotatedDimension
  0
DIMENSION
  5
2D0B
330
1F
100
AcDbEntity
  8
2
100
AcDbDimension
  2
*D5
 10
63.00000000000011
 20
90.00000000000001
 30
0.0
 11
31.50000000000017
 21
93.25000000000001
 31
0.0
 70
    32
  3
AM_DIN
100
AcDbAlignedDimension
 13
0.0000000000002274
 23
30.99993742175147
 33
0.0
 14
63.00000000000011
 24
49.99999999999985
 34
0.0
100
AcDbRotatedDimension
  0
TEXT
  5
2D26
330
1F
100
AcDbEntity
  8
6
100
AcDbText
 10
102.6217563934591
 20
-4.040302414553273
 30
0.0
 40
3.5
  1
Z=6
 50
90.0
100
AcDbText
  0
TEXT
  5
2D40
330
1F
100
AcDbEntity
  8
6
100
AcDbText
 10
21.10088278929493
 20
-57.52405638232369
 30
0.0
 40
3.5
  1
4W3A100R00
100
AcDbText
  0
LINE
  5
2D5E
330
1F
100
AcDbEntity
  8
NOCUT
100
AcDbLine
 10
12.30000000001399
 20
-48.3000000000093
 30
0.0
 11
57.00000000000608
 21
-48.30000000000914
 31
0.0
  0
LINE
  5
2D5F
330
1F
100
AcDbEntity
  8
NOCUT
100
AcDbLine
 10
0.0
 20
0.0
 30
0.0
 11
58.00000000000631
 21
0.0
 31
0.0
  0
LINE
  5
2D64
330
1F
100
AcDbEntity
  8
NOCUT
100
AcDbLine
 10
0.0
 20
0.0
 30
0.0
 11
-0.0000000000002842
 21
-30.99993742175152
 31
0.0
  0
LINE
  5
2D65
330
1F
100
AcDbEntity
  8
NOCUT
100
AcDbLine
 10
9.80000000000507
 20
-35.9999374217582
 30
0.0
 11
9.80000000000524
 21
-45.80000000000061
 31
0.0
  0
ARC
  5
2D66
330
1F
100
AcDbEntity
  8
NOCUT
100
AcDbCircle
 10
5.800000000004843
 20
-35.99993742175827
 30
0.0
 40
4.000000000000213
100
AcDbArc
 50
0.0000000000048761
 51
89.99999999999593
  0
LINE
  5
2D67
330
1F
100
AcDbEntity
  8
NOCUT
100
AcDbLine
 10
9.80000000000524
 20
-45.80000000000061
 30
0.0
 11
12.30000000001399
 21
-48.3000000000093
 31
0.0
  0
LINE
  5
2D68
330
1F
100
AcDbEntity
  8
NOCUT
100
AcDbLine
 10
1.000000000006252
 20
-31.99993742175806
 30
0.0
 11
5.800000000004899
 21
-31.99993742175806
 31
0.0
  0
LINE
  5
2D69
330
1F
100
AcDbEntity
  8
NOCUT
100
AcDbLine
 10
-0.0000000000002842
 20
-30.99993742175152
 30
0.0
 11
1.000000000006195
 21
-31.999937421758
 31
0.0
  0
LINE
  5
2D73
330
1F
100
AcDbEntity
  8
NOCUT
100
AcDbLine
 10
58.00000000000631
 20
-47.30000000000891
 30
0.0
 11
58.00000000000631
 21
0.0
 31
0.0
  0
LINE
  5
2D76
330
1F
100
AcDbEntity
  8
NOCUT
100
AcDbLine
 10
57.00000000000608
 20
-48.30000000000914
 30
0.0
 11
58.00000000000631
 21
-47.30000000000891
 31
0.0
  0
LINE
  5
3036
330
1F
100
AcDbEntity
  8
1
100
AcDbLine
 10
44.00000000000022
 20
48.30000000000847
 30
0.0
 11
12.30000000001462
 21
48.30000000000868
 31
0.0
  0
LINE
  5
3037
330
1F
100
AcDbEntity
  8
SK1
100
AcDbLine
 10
58.00000000000659
 20
36.17440977312966
 30
0.0
 11
58.00000000000659
 21
47.30000000000862
 31
0.0
  0
LINE
  5
32EE
330
1F
100
AcDbEntity
  8
SK1
100
AcDbLine
 10
63.00000000000011
 20
50.46376936984867
 30
0.0
 11
63.00000000000011
 21
49.33623063015104
 31
0.0
  0
LINE
  5
32EF
330
1F
100
AcDbEntity
  8
SK1
100
AcDbLine
 10
62.3362306301513
 20
49.99999999999985
 30
0.0
 11
63.66376936984892
 21
49.99999999999985
 31
0.0
  0
CIRCLE
  5
32F1
330
1F
100
AcDbEntity
  8
SK1
100
AcDbCircle
 10
63.00000000000011
 20
49.99999999999985
 30
0.0
 40
0.6637693698488208
  0
LINE
  5
3323
330
1F
100
AcDbEntity
  8
1
100
AcDbLine
 10
44.50000000000005
 20
48.30000000000847
 30
0.0
 11
44.00000000000022
 21
48.30000000000847
 31
0.0
  0
TEXT
  5
353C
330
1F
100
AcDbEntity
  8
6
100
AcDbText
 10
8.541336105050731
 20
83.13086100393276
 30
0.0
 40
3.5
  1
Verstellweg  63+0.7
100
AcDbText
  0
ENDSEC
  0
SECTION
  2
OBJECTS
  0
DICTIONARY
  5
C
330
0
100
AcDbDictionary
  3
ACAD_GROUP
350
D
  3
ACAD_LAYOUT
350
1A
  3
ACAD_MLINESTYLE
350
17
  3
ACAD_PLOTSETTINGS
350
19
  3
ACAD_PLOTSTYLENAME
350
E
  3
ACDBHEADERROUNDTRIPXREC
350
3552
  3
ACDBVARIABLEDICTIONARY
350
216
  3
ACMDICTIONARY
350
45
  3
AMG
350
41
  3
AMGSNAPSETTINGS
350
23D
  3
DWGPROPS
350
354D
  0
DICTIONARY
  5
1F1
330
1F
100
AcDbDictionary
280
     1
  3
ACAD_INDEX
360
1F2
  3
ACAD_LAYOUTSELFREF
360
3575
  0
DICTIONARY
  5
3573
330
1B
100
AcDbDictionary
280
     1
  3
ACAD_LAYOUTSELFREF
360
3574
  0
DICTIONARY
  5
D
102
{ACAD_REACTORS
330
C
102
}
330
C
100
AcDbDictionary
  0
DICTIONARY
  5
1A
102
{ACAD_REACTORS
330
C
102
}
330
C
100
AcDbDictionary
  0
DICTIONARY
  5
17
102
{ACAD_REACTORS
330
C
102
}
330
C
100
AcDbDictionary
  3
STANDARD
350
18
  0
DICTIONARY
  5
19
102
{ACAD_REACTORS
330
C
102
}
330
C
100
AcDbDictionary
  0
ACDBDICTIONARYWDFLT
  5
E
102
{ACAD_REACTORS
330
C
102
}
330
C
100
AcDbDictionary
281
     1
  3
Normal
350
F
100
AcDbDictionaryWithDefault
340
F
  0
DICTIONARY
  5
3552
102
{ACAD_REACTORS
330
C
102
}
330
C
100
AcDbDictionary
  3
CEPSNTYPE
350
355C
  3
DIMSTYLEDATA
350
3560
  3
FINGERPRINTGUID
350
355D
  3
HYPERLINKBASE
350
3555
  3
INSUNITS
350
355B
  3
LAYOUTDICT
350
3557
  3
LWETCUNION
350
355A
  3
PLOTSETDICT
350
3558
  3
PLOTSTYLNAMDICT
350
3559
  3
PSVPSCALE
350
355F
  3
PUCSBASE
350
3563
  3
PUCSORGBACK
350
3569
  3
PUCSORGBOTTOM
350
3565
  3
PUCSORGFRONT
350
3568
  3
PUCSORGLEFT
350
3566
  3
PUCSORGRIGHT
350
3567
  3
PUCSORGTOP
350
3564
  3
PUCSORTHOREF
350
3561
  3
PUCSORTHOVIEW
350
3562
  3
STYLESHEET
350
3556
  3
TSTACKALIGN
350
3553
  3
TSTACKSIZE
350
3554
  3
UCSBASE
350
356C
  3
UCSORGBACK
350
3572
  3
UCSORGBOTTOM
350
356E
  3
UCSORGFRONT
350
3571
  3
UCSORGLEFT
350
356F
  3
UCSORGRIGHT
350
3570
  3
UCSORGTOP
350
356D
  3
UCSORTHOREF
350
356A
  3
UCSORTHOVIEW
350
356B
  3
VERSIONGUID
350
355E
  0
DICTIONARY
  5
216
102
{ACAD_REACTORS
330
C
102
}
330
C
100
AcDbDictionary
  3
DIMASSOC
350
219
  3
HIDETEXT
350
218
  3
INDEXCTL
350
217
  0
DICTIONARY
  5
45
102
{ACAD_REACTORS
330
C
102
}
330
C
100
AcDbDictionary
  3
ACMSTDDICTIONARY
350
4A
  0
DICTIONARY
  5
41
102
{ACAD_REACTORS
330
C
102
}
330
C
100
AcDbDictionary
  3
ACMGSETTINGS
350
42
  0
DICTIONARY
  5
23D
102
{ACAD_REACTORS
330
C
102
}
330
C
100
AcDbDictionary
  0
XRECORD
  5
354D
102
{ACAD_REACTORS
330
C
102
}
330
C
100
AcDbXrecord
  1
DWGPROPS COOKIE
  2

  3

  4

  6

  7

  8

  9

300
AmdtFileType=84
301
=
302
=
303
=
304
=
305
=
306
=
307
=
308
=
309
=
 40
0.0723862731481482
 41
2453599.366006042
 42
2453874.451902268
  1

 90
        1
  0
DICTIONARY
  5
1F2
102
{ACAD_REACTORS
330
1F1
102
}
330
1F1
100
AcDbDictionary
  3
*A1
350
1F3
  0
XRECORD
  5
3575
102
{ACAD_REACTORS
330
1F1
102
}
330
1F1
100
AcDbXrecord
340
1F
  0
XRECORD
  5
3574
102
{ACAD_REACTORS
330
3573
102
}
330
3573
100
AcDbXrecord
340
1B
  0
MLINESTYLE
  5
18
102
{ACAD_REACTORS
330
17
102
}
330
17
100
AcDbMlineStyle
  2
STANDARD
 70
     0
  3

 62
   256
 51
90.0
 52
90.0
 71
     2
 49
0.5
 62
   256
  6
BYLAYER
 49
-0.5
 62
   256
  6
BYLAYER
  0
ACDBPLACEHOLDER
  5
F
102
{ACAD_REACTORS
330
E
102
}
330
E
100
AcDbPlaceHolder
280
     0
  0
XRECORD
  5
355C
102
{ACAD_REACTORS
330
3552
102
}
330
3552
100
AcDbXrecord
 90
        0
  0
XRECORD
  5
3560
102
{ACAD_REACTORS
330
3552
102
}
330
3552
100
AcDbXrecord
1000
DSTYLE
1002
{
1070
    79
 70
     2
1070
   179
 70
     3
1070
   371
 70
    -1
1070
   372
 70
    -1
1002
}
  0
XRECORD
  5
355D
102
{ACAD_REACTORS
330
3552
102
}
330
3552
100
AcDbXrecord
  1
{03052709-208C-44F1-88CB-F8F0E550BC5D}
  0
XRECORD
  5
3555
102
{ACAD_REACTORS
330
3552
102
}
330
3552
100
AcDbXrecord
  1

  0
XRECORD
  5
355B
102
{ACAD_REACTORS
330
3552
102
}
330
3552
100
AcDbXrecord
 90
        4
  0
XRECORD
  5
3557
102
{ACAD_REACTORS
330
3552
102
}
330
3552
100
AcDbXrecord
340
1A
  0
XRECORD
  5
355A
102
{ACAD_REACTORS
330
3552
102
}
330
3552
100
AcDbXrecord
 90
    10781
  0
XRECORD
  5
3558
102
{ACAD_REACTORS
330
3552
102
}
330
3552
100
AcDbXrecord
340
19
  0
XRECORD
  5
3559
102
{ACAD_REACTORS
330
3552
102
}
330
3552
100
AcDbXrecord
340
E
  0
XRECORD
  5
355F
102
{ACAD_REACTORS
330
3552
102
}
330
3552
100
AcDbXrecord
 40
0.0
  0
XRECORD
  5
3563
102
{ACAD_REACTORS
330
3552
102
}
330
3552
100
AcDbXrecord
340
0
  0
XRECORD
  5
3569
102
{ACAD_REACTORS
330
3552
102
}
330
3552
100
AcDbXrecord
 10
0.0
 20
0.0
 30
0.0
  0
XRECORD
  5
3565
102
{ACAD_REACTORS
330
3552
102
}
330
3552
100
AcDbXrecord
 10
0.0
 20
0.0
 30
0.0
  0
XRECORD
  5
3568
102
{ACAD_REACTORS
330
3552
102
}
330
3552
100
AcDbXrecord
 10
0.0
 20
0.0
 30
0.0
  0
XRECORD
  5
3566
102
{ACAD_REACTORS
330
3552
102
}
330
3552
100
AcDbXrecord
 10
0.0
 20
0.0
 30
0.0
  0
XRECORD
  5
3567
102
{ACAD_REACTORS
330
3552
102
}
330
3552
100
AcDbXrecord
 10
0.0
 20
0.0
 30
0.0
  0
XRECORD
  5
3564
102
{ACAD_REACTORS
330
3552
102
}
330
3552
100
AcDbXrecord
 10
0.0
 20
0.0
 30
0.0
  0
XRECORD
  5
3561
102
{ACAD_REACTORS
330
3552
102
}
330
3552
100
AcDbXrecord
340
0
  0
XRECORD
  5
3562
102
{ACAD_REACTORS
330
3552
102
}
330
3552
100
AcDbXrecord
 70
     0
  0
XRECORD
  5
3556
102
{ACAD_REACTORS
330
3552
102
}
330
3552
100
AcDbXrecord
  1

  0
XRECORD
  5
3553
102
{ACAD_REACTORS
330
3552
102
}
330
3552
100
AcDbXrecord
 90
        1
  0
XRECORD
  5
3554
102
{ACAD_REACTORS
330
3552
102
}
330
3552
100
AcDbXrecord
 90
       70
  0
XRECORD
  5
356C
102
{ACAD_REACTORS
330
3552
102
}
330
3552
100
AcDbXrecord
340
0
  0
XRECORD
  5
3572
102
{ACAD_REACTORS
330
3552
102
}
330
3552
100
AcDbXrecord
 10
0.0
 20
0.0
 30
0.0
  0
XRECORD
  5
356E
102
{ACAD_REACTORS
330
3552
102
}
330
3552
100
AcDbXrecord
 10
0.0
 20
0.0
 30
0.0
  0
XRECORD
  5
3571
102
{ACAD_REACTORS
330
3552
102
}
330
3552
100
AcDbXrecord
 10
0.0
 20
0.0
 30
0.0
  0
XRECORD
  5
356F
102
{ACAD_REACTORS
330
3552
102
}
330
3552
100
AcDbXrecord
 10
0.0
 20
0.0
 30
0.0
  0
XRECORD
  5
3570
102
{ACAD_REACTORS
330
3552
102
}
330
3552
100
AcDbXrecord
 10
0.0
 20
0.0
 30
0.0
  0
XRECORD
  5
356D
102
{ACAD_REACTORS
330
3552
102
}
330
3552
100
AcDbXrecord
 10
0.0
 20
0.0
 30
0.0
  0
XRECORD
  5
356A
102
{ACAD_REACTORS
330
3552
102
}
330
3552
100
AcDbXrecord
340
0
  0
XRECORD
  5
356B
102
{ACAD_REACTORS
330
3552
102
}
330
3552
100
AcDbXrecord
 70
     0
  0
XRECORD
  5
355E
102
{ACAD_REACTORS
330
3552
102
}
330
3552
100
AcDbXrecord
  1
{87FEAD36-69E6-4B75-BD3A-9CEE5494A17B}
  0
DICTIONARYVAR
  5
219
102
{ACAD_REACTORS
330
216
102
}
330
216
100
DictionaryVariables
280
     0
  1
1
  0
DICTIONARYVAR
  5
218
102
{ACAD_REACTORS
330
216
102
}
330
216
100
DictionaryVariables
280
     0
  1
1
  0
DICTIONARYVAR
  5
217
102
{ACAD_REACTORS
330
216
102
}
330
216
100
DictionaryVariables
280
     0
  1
1
  0
DICTIONARY
  5
4A
102
{ACAD_REACTORS
330
45
102
}
330
45
100
AcDbDictionary
  0
DICTIONARY
  5
42
102
{ACAD_REACTORS
330
41
102
}
330
41
100
AcDbDictionary
  3
DWGSETTINGS
350
43
  0
LAYER_INDEX
  5
1F3
102
{ACAD_REACTORS
330
1F2
102
}
330
1F2
100
AcDbIndex
 40
2453874.452407511
100
AcDbLayerIndex
  8
0
360
1F4
 90
        0
  8
Defpoints
360
210
 90
        0
  8
1
360
29B
 90
       36
  8
2
360
1EC1
 90
        2
  8
4
360
1EC2
 90
        5
  8
6
360
1EC3
 90
        3
  8
SK1
360
1EC4
 90
       18
  8
SK2
360
1EC5
 90
        2
  8
SK3
360
1EC6
 90
       24
  8
NOCUT
360
1EC7
 90
       10
  8
SK4
360
3022
 90
        1
  0
XRECORD
  5
43
102
{ACAD_REACTORS
330
42
102
}
330
42
100
AcDbXrecord
  1
VERSION
140
15.0
  1
PRODUCT
  2
AutoCAD Mechanical 2000
  0
IDBUFFER
  5
1F4
330
0
100
AcDbIdBuffer
  0
IDBUFFER
  5
210
330
0
100
AcDbIdBuffer
  0
IDBUFFER
  5
29B
330
0
100
AcDbIdBuffer
330
2BA8
330
2BA9
330
2BAA
330
2BAB
330
2BAC
330
2BAD
330
2BAE
330
2BB4
330
2BB5
330
2BB6
330
2BB7
330
2BB8
330
2BB9
330
2BBA
330
2BBB
330
2BBC
330
2BC0
330
2BC1
330
2BC2
330
2BC5
330
2BC6
330
2BC7
330
2BC8
330
2BC9
330
2BCA
330
2BCB
330
2BCC
330
2BCD
330
2BCE
330
2BCF
330
2BD0
330
2BD1
330
2BD2
330
2C57
330
3036
330
3323
  0
IDBUFFER
  5
1EC1
330
0
100
AcDbIdBuffer
330
2CD0
330
2D0B
  0
IDBUFFER
  5
1EC2
330
0
100
AcDbIdBuffer
330
2BD3
330
2BD4
330
2BD5
330
2BD6
330
2C14
  0
IDBUFFER
  5
1EC3
330
0
100
AcDbIdBuffer
330
353C
330
2D26
330
2D40
  0
IDBUFFER
  5
1EC4
330
0
100
AcDbIdBuffer
330
2BAF
330
2BB0
330
2BB1
330
2BBE
330
2BBF
330
2BF4
330
2BF5
330
2BF6
330
2C3C
330
2C44
330
2C45
330
2C49
330
2C4A
330
2C4B
330
3037
330
32EE
330
32EF
330
32F1
  0
IDBUFFER
  5
1EC5
330
0
100
AcDbIdBuffer
330
2C6E
330
2C9F
  0
IDBUFFER
  5
1EC6
330
0
100
AcDbIdBuffer
330
2BD7
330
2BD8
330
2BD9
330
2BDA
330
2BDB
330
2BDC
330
2BDD
330
2BDE
330
2BDF
330
2BE0
330
2BE1
330
2BE2
330
2BE3
330
2BE4
330
2BE5
330
2BE6
330
2BE7
330
2BE8
330
2BE9
330
2BEA
330
2BEB
330
2BEC
330
2BED
330
2BEE
  0
IDBUFFER
  5
1EC7
330
0
100
AcDbIdBuffer
330
2D5E
330
2D5F
330
2D64
330
2D65
330
2D66
330
2D67
330
2D68
330
2D69
330
2D73
330
2D76
  0
IDBUFFER
  5
3022
330
0
100
AcDbIdBuffer
330
2BEF
  0
ENDSEC
  0
EOF
