  0
SECTION
  2
HEADER
  9
$ACADVER
  1
AC1015
  9
$ACADMAINTVER
 70
    10
  9
$DWGCODEPAGE
  3
ANSI_1252
  9
$INSBASE
 10
0.0
 20
0.0
 30
0.0
  9
$EXTMIN
 10
-32.17754477733342
 20
-62.52535835797664
 30
-0.0000000000112498
  9
$EXTMAX
 10
55.75621569468501
 20
85.23343095145913
 30
0.0000000000002956
  9
$LIMMIN
 10
0.0
 20
0.0
  9
$LIMMAX
 10
420.0
 20
297.0
  9
$ORTHOMODE
 70
     0
  9
$REGENMODE
 70
     1
  9
$FILLMODE
 70
     1
  9
$QTEXTMODE
 70
     0
  9
$MIRRTEXT
 70
     1
  9
$LTSCALE
 40
5.0
  9
$ATTMODE
 70
     1
  9
$TEXTSIZE
 40
3.5
  9
$TRACEWID
 40
1.0
  9
$TEXTSTYLE
  7
Standard
  9
$CLAYER
  8
0
  9
$CELTYPE
  6
ByLayer
  9
$CECOLOR
 62
   256
  9
$CELTSCALE
 40
1.0
  9
$DISPSILH
 70
     0
  9
$DIMSCALE
 40
1.0
  9
$DIMASZ
 40
2.5
  9
$DIMEXO
 40
0.625
  9
$DIMDLI
 40
3.75
  9
$DIMRND
 40
0.0
  9
$DIMDLE
 40
0.0
  9
$DIMEXE
 40
1.25
  9
$DIMTP
 40
0.0
  9
$DIMTM
 40
0.0
  9
$DIMTXT
 40
2.5
  9
$DIMCEN
 40
2.5
  9
$DIMTSZ
 40
0.0
  9
$DIMTOL
 70
     0
  9
$DIMLIM
 70
     0
  9
$DIMTIH
 70
     0
  9
$DIMTOH
 70
     0
  9
$DIMSE1
 70
     0
  9
$DIMSE2
 70
     0
  9
$DIMTAD
 70
     1
  9
$DIMZIN
 70
     8
  9
$DIMBLK
  1

  9
$DIMASO
 70
     1
  9
$DIMSHO
 70
     1
  9
$DIMPOST
  1

  9
$DIMAPOST
  1

  9
$DIMALT
 70
     0
  9
$DIMALTD
 70
     3
  9
$DIMALTF
 40
0.03937007874016
  9
$DIMLFAC
 40
1.0
  9
$DIMTOFL
 70
     1
  9
$DIMTVP
 40
0.0
  9
$DIMTIX
 70
     0
  9
$DIMSOXD
 70
     0
  9
$DIMSAH
 70
     0
  9
$DIMBLK1
  1

  9
$DIMBLK2
  1

  9
$DIMSTYLE
  2
ISO-25
  9
$DIMCLRD
 70
     0
  9
$DIMCLRE
 70
     0
  9
$DIMCLRT
 70
     0
  9
$DIMTFAC
 40
1.0
  9
$DIMGAP
 40
0.625
  9
$DIMJUST
 70
     0
  9
$DIMSD1
 70
     0
  9
$DIMSD2
 70
     0
  9
$DIMTOLJ
 70
     0
  9
$DIMTZIN
 70
     8
  9
$DIMALTZ
 70
     0
  9
$DIMALTTZ
 70
     0
  9
$DIMUPT
 70
     0
  9
$DIMDEC
 70
     2
  9
$DIMTDEC
 70
     2
  9
$DIMALTU
 70
     2
  9
$DIMALTTD
 70
     3
  9
$DIMTXSTY
  7
Standard
  9
$DIMAUNIT
 70
     0
  9
$DIMADEC
 70
     0
  9
$DIMALTRND
 40
0.0
  9
$DIMAZIN
 70
     0
  9
$DIMDSEP
 70
    44
  9
$DIMATFIT
 70
     3
  9
$DIMFRAC
 70
     0
  9
$DIMLDRBLK
  1

  9
$DIMLUNIT
 70
     2
  9
$DIMLWD
 70
    -2
  9
$DIMLWE
 70
    -2
  9
$DIMTMOVE
 70
     0
  9
$LUNITS
 70
     2
  9
$LUPREC
 70
     4
  9
$SKETCHINC
 40
1.0
  9
$FILLETRAD
 40
10.0
  9
$AUNITS
 70
     0
  9
$AUPREC
 70
     0
  9
$MENU
  1
.
  9
$ELEVATION
 40
0.0
  9
$PELEVATION
 40
0.0
  9
$THICKNESS
 40
0.0
  9
$LIMCHECK
 70
     0
  9
$CHAMFERA
 40
10.0
  9
$CHAMFERB
 40
10.0
  9
$CHAMFERC
 40
20.0
  9
$CHAMFERD
 40
0.0
  9
$SKPOLY
 70
     0
  9
$TDCREATE
 40
2454228.416767048
  9
$TDUCREATE
 40
2454228.333433715
  9
$TDUPDATE
 40
2454228.641361678
  9
$TDUUPDATE
 40
2454228.558028344
  9
$TDINDWG
 40
0.0024886227
  9
$TDUSRTIMER
 40
0.0024880903
  9
$USRTIMER
 70
     1
  9
$ANGBASE
 50
0.0
  9
$ANGDIR
 70
     0
  9
$PDMODE
 70
     0
  9
$PDSIZE
 40
0.0
  9
$PLINEWID
 40
0.0
  9
$SPLFRAME
 70
     0
  9
$SPLINETYPE
 70
     6
  9
$SPLINESEGS
 70
     8
  9
$HANDSEED
  5
325
  9
$SURFTAB1
 70
     6
  9
$SURFTAB2
 70
     6
  9
$SURFTYPE
 70
     6
  9
$SURFU
 70
     6
  9
$SURFV
 70
     6
  9
$UCSBASE
  2

  9
$UCSNAME
  2

  9
$UCSORG
 10
0.0
 20
0.0
 30
0.0
  9
$UCSXDIR
 10
1.0
 20
0.0
 30
0.0
  9
$UCSYDIR
 10
0.0
 20
1.0
 30
0.0
  9
$UCSORTHOREF
  2

  9
$UCSORTHOVIEW
 70
     0
  9
$UCSORGTOP
 10
0.0
 20
0.0
 30
0.0
  9
$UCSORGBOTTOM
 10
0.0
 20
0.0
 30
0.0
  9
$UCSORGLEFT
 10
0.0
 20
0.0
 30
0.0
  9
$UCSORGRIGHT
 10
0.0
 20
0.0
 30
0.0
  9
$UCSORGFRONT
 10
0.0
 20
0.0
 30
0.0
  9
$UCSORGBACK
 10
0.0
 20
0.0
 30
0.0
  9
$PUCSBASE
  2

  9
$PUCSNAME
  2

  9
$PUCSORG
 10
0.0
 20
0.0
 30
0.0
  9
$PUCSXDIR
 10
1.0
 20
0.0
 30
0.0
  9
$PUCSYDIR
 10
0.0
 20
1.0
 30
0.0
  9
$PUCSORTHOREF
  2

  9
$PUCSORTHOVIEW
 70
     0
  9
$PUCSORGTOP
 10
0.0
 20
0.0
 30
0.0
  9
$PUCSORGBOTTOM
 10
0.0
 20
0.0
 30
0.0
  9
$PUCSORGLEFT
 10
0.0
 20
0.0
 30
0.0
  9
$PUCSORGRIGHT
 10
0.0
 20
0.0
 30
0.0
  9
$PUCSORGFRONT
 10
0.0
 20
0.0
 30
0.0
  9
$PUCSORGBACK
 10
0.0
 20
0.0
 30
0.0
  9
$USERI1
 70
     0
  9
$USERI2
 70
     0
  9
$USERI3
 70
     0
  9
$USERI4
 70
     0
  9
$USERI5
 70
     0
  9
$USERR1
 40
0.0
  9
$USERR2
 40
0.0
  9
$USERR3
 40
0.0
  9
$USERR4
 40
0.0
  9
$USERR5
 40
0.0
  9
$WORLDVIEW
 70
     1
  9
$SHADEDGE
 70
     3
  9
$SHADEDIF
 70
    70
  9
$TILEMODE
 70
     1
  9
$MAXACTVP
 70
    64
  9
$PINSBASE
 10
0.0
 20
0.0
 30
0.0
  9
$PLIMCHECK
 70
     0
  9
$PEXTMIN
 10
1.000000000000000E+20
 20
1.000000000000000E+20
 30
1.000000000000000E+20
  9
$PEXTMAX
 10
-1.000000000000000E+20
 20
-1.000000000000000E+20
 30
-1.000000000000000E+20
  9
$PLIMMIN
 10
0.0
 20
0.0
  9
$PLIMMAX
 10
420.0
 20
297.0
  9
$UNITMODE
 70
     0
  9
$VISRETAIN
 70
     1
  9
$PLINEGEN
 70
     0
  9
$PSLTSCALE
 70
     1
  9
$TREEDEPTH
 70
  3020
  9
$CMLSTYLE
  2
Standard
  9
$CMLJUST
 70
     0
  9
$CMLSCALE
 40
20.0
  9
$PROXYGRAPHICS
 70
     1
  9
$MEASUREMENT
 70
     1
  9
$CELWEIGHT
370
    -1
  9
$ENDCAPS
280
     0
  9
$JOINSTYLE
280
     0
  9
$LWDISPLAY
290
     0
  9
$INSUNITS
 70
     4
  9
$HYPERLINKBASE
  1

  9
$STYLESHEET
  1

  9
$XEDIT
290
     1
  9
$CEPSNTYPE
380
     0
  9
$PSTYLEMODE
290
     1
  9
$FINGERPRINTGUID
  2
{B44718F4-6017-4864-9E5B-5E24A0CB3C1F}
  9
$VERSIONGUID
  2
{BD4AE432-BD36-4684-8B02-F38B3CE0A04F}
  9
$EXTNAMES
290
     1
  9
$PSVPSCALE
 40
0.0
  9
$OLESTARTUP
290
     0
  0
ENDSEC
  0
SECTION
  2
CLASSES
  0
CLASS
  1
ACDBDICTIONARYWDFLT
  2
AcDbDictionaryWithDefault
  3
AutoCAD 2000
 90
        0
280
     0
281
     0
  0
CLASS
  1
ACDBPLACEHOLDER
  2
AcDbPlaceHolder
  3
AutoCAD 2000
 90
        0
280
     0
281
     0
  0
CLASS
  1
LAYOUT
  2
AcDbLayout
  3
AutoCAD 2000
 90
        0
280
     0
281
     0
  0
ENDSEC
  0
SECTION
  2
TABLES
  0
TABLE
  2
VPORT
  5
8
330
0
100
AcDbSymbolTable
 70
     3
  0
VPORT
  5
324
330
8
100
AcDbSymbolTableRecord
100
AcDbViewportTableRecord
  2
*Active
 70
     0
 10
0.0
 20
0.0
 11
1.0
 21
1.0
 12
11.78933545867579
 22
11.35403629674124
 13
0.0
 23
0.0
 14
10.0
 24
10.0
 15
10.0
 25
10.0
 16
0.0
 26
0.0
 36
1.0
 17
0.0
 27
0.0
 37
0.0
 40
149.9370515596977
 41
2.423645320197044
 42
50.0
 43
0.0
 44
0.0
 50
0.0
 51
0.0
 71
     0
 72
   100
 73
     1
 74
     3
 75
     0
 76
     0
 77
     0
 78
     0
281
     0
 65
     1
110
0.0
120
0.0
130
0.0
111
1.0
121
0.0
131
0.0
112
0.0
122
1.0
132
0.0
 79
     0
146
0.0
  0
ENDTAB
  0
TABLE
  2
LTYPE
  5
5
330
0
100
AcDbSymbolTable
 70
     3
  0
LTYPE
  5
14
330
5
100
AcDbSymbolTableRecord
100
AcDbLinetypeTableRecord
  2
ByBlock
 70
     0
  3

 72
    65
 73
     0
 40
0.0
  0
LTYPE
  5
15
330
5
100
AcDbSymbolTableRecord
100
AcDbLinetypeTableRecord
  2
ByLayer
 70
     0
  3

 72
    65
 73
     0
 40
0.0
  0
LTYPE
  5
16
330
5
100
AcDbSymbolTableRecord
100
AcDbLinetypeTableRecord
  2
Continuous
 70
     0
  3
Solid line
 72
    65
 73
     0
 40
0.0
  0
LTYPE
  5
78
330
5
100
AcDbSymbolTableRecord
100
AcDbLinetypeTableRecord
  2
CENTER
 70
     0
  3
____ _ ____ _ ____ _ ____ _ ____ _ ____ _ ____
 72
    65
 73
     4
 40
0.6
 49
0.375
 74
     0
 49
-0.075
 74
     0
 49
0.075
 74
     0
 49
-0.075
 74
     0
  0
LTYPE
  5
79
330
5
100
AcDbSymbolTableRecord
100
AcDbLinetypeTableRecord
  2
HIDDEN
 70
     0
  3
- - - - - - - - - - - - - - - - - - - -
 72
    65
 73
     2
 40
0.2
 49
0.1
 74
     0
 49
-0.1
 74
     0
  0
ENDTAB
  0
TABLE
  2
LAYER
  5
2
330
0
100
AcDbSymbolTable
 70
    10
  0
LAYER
  5
10
330
2
100
AcDbSymbolTableRecord
100
AcDbLayerTableRecord
  2
0
 70
     0
 62
     7
  6
Continuous
370
    -3
390
F
  0
LAYER
  5
7C
330
2
100
AcDbSymbolTableRecord
100
AcDbLayerTableRecord
  2
1
 70
     0
 62
     4
  6
Continuous
370
    -3
390
F
  0
LAYER
  5
7D
330
2
100
AcDbSymbolTableRecord
100
AcDbLayerTableRecord
  2
SK3
 70
     0
 62
     1
  6
HIDDEN
370
    -3
390
F
  0
LAYER
  5
7E
330
2
100
AcDbSymbolTableRecord
100
AcDbLayerTableRecord
  2
4
 70
     0
 62
     2
  6
CENTER
370
    -3
390
F
  0
LAYER
  5
7F
330
2
100
AcDbSymbolTableRecord
100
AcDbLayerTableRecord
  2
6
 70
     0
 62
     5
  6
Continuous
370
    -3
390
F
  0
LAYER
  5
80
330
2
100
AcDbSymbolTableRecord
100
AcDbLayerTableRecord
  2
Defpoints
 70
     0
 62
     7
  6
Continuous
290
     0
370
    -3
390
F
  0
LAYER
  5
81
330
2
100
AcDbSymbolTableRecord
100
AcDbLayerTableRecord
  2
SK2
 70
     0
 62
     7
  6
Continuous
370
    -3
390
F
  0
LAYER
  5
82
330
2
100
AcDbSymbolTableRecord
100
AcDbLayerTableRecord
  2
2
 70
     0
 62
     7
  6
Continuous
370
    -3
390
F
  0
LAYER
  5
2F3
330
2
100
AcDbSymbolTableRecord
100
AcDbLayerTableRecord
  2
CUT
 70
     0
 62
     1
  6
Continuous
370
    -3
390
F
  0
LAYER
  5
316
330
2
100
AcDbSymbolTableRecord
100
AcDbLayerTableRecord
  2
NOCUT
 70
     0
 62
     7
  6
Continuous
370
    -3
390
F
  0
ENDTAB
  0
TABLE
  2
STYLE
  5
3
330
0
100
AcDbSymbolTable
 70
     1
  0
STYLE
  5
11
330
3
100
AcDbSymbolTableRecord
100
AcDbTextStyleTableRecord
  2
Standard
 70
     0
 40
3.5
 41
1.0
 50
0.0
 71
     0
 42
3.5
  3
isocp.shx
  4

  0
ENDTAB
  0
TABLE
  2
VIEW
  5
6
330
0
100
AcDbSymbolTable
 70
     0
  0
ENDTAB
  0
TABLE
  2
UCS
  5
7
330
0
100
AcDbSymbolTable
 70
     0
  0
ENDTAB
  0
TABLE
  2
APPID
  5
9
330
0
100
AcDbSymbolTable
 70
     1
  0
APPID
  5
12
330
9
100
AcDbSymbolTableRecord
100
AcDbRegAppTableRecord
  2
ACAD
 70
     0
  0
ENDTAB
  0
TABLE
  2
DIMSTYLE
  5
A
330
0
100
AcDbSymbolTable
 70
     2
100
AcDbDimStyleTable
 71
     0
  0
DIMSTYLE
105
27
102
{ACAD_REACTORS
330
13F
330
140
330
141
330
17E
330
17F
330
184
102
}
330
A
100
AcDbSymbolTableRecord
100
AcDbDimStyleTableRecord
  2
ISO-25
 70
     0
 41
2.5
 42
0.625
 43
3.75
 44
1.25
 73
     0
 74
     0
 77
     1
 78
     8
140
2.5
141
2.5
143
0.03937007874016
147
0.625
171
     3
172
     1
271
     2
272
     2
274
     3
278
    44
283
     0
284
     8
340
11
  0
DIMSTYLE
105
83
330
A
100
AcDbSymbolTableRecord
100
AcDbDimStyleTableRecord
  2
STANDARD
 70
     0
 41
2.5
 47
0.005
 48
0.005
 71
     1
 73
     0
 74
     0
 77
     1
 78
     8
140
3.5
178
     5
271
     3
272
     3
284
     8
340
11
341
2B
342
2B
343
2B
344
2B
  0
ENDTAB
  0
TABLE
  2
BLOCK_RECORD
  5
1
330
0
100
AcDbSymbolTable
 70
    10
  0
BLOCK_RECORD
  5
1F
330
1
100
AcDbSymbolTableRecord
100
AcDbBlockTableRecord
  2
*Model_Space
340
22
  0
BLOCK_RECORD
  5
1B
330
1
100
AcDbSymbolTableRecord
100
AcDbBlockTableRecord
  2
*Paper_Space
340
1E
  0
BLOCK_RECORD
  5
23
330
1
100
AcDbSymbolTableRecord
100
AcDbBlockTableRecord
  2
*Paper_Space0
340
26
  0
BLOCK_RECORD
  5
2B
330
1
100
AcDbSymbolTableRecord
100
AcDbBlockTableRecord
  2
_ARROW_FILLED
340
0
  0
BLOCK_RECORD
  5
1EC
330
1
100
AcDbSymbolTableRecord
100
AcDbBlockTableRecord
  2
*D2
340
0
  0
BLOCK_RECORD
  5
1FA
330
1
100
AcDbSymbolTableRecord
100
AcDbBlockTableRecord
  2
*D3
340
0
  0
BLOCK_RECORD
  5
206
330
1
100
AcDbSymbolTableRecord
100
AcDbBlockTableRecord
  2
*D4
340
0
  0
BLOCK_RECORD
  5
212
330
1
100
AcDbSymbolTableRecord
100
AcDbBlockTableRecord
  2
*D5
340
0
  0
BLOCK_RECORD
  5
21B
330
1
100
AcDbSymbolTableRecord
100
AcDbBlockTableRecord
  2
*D6
340
0
  0
BLOCK_RECORD
  5
229
330
1
100
AcDbSymbolTableRecord
100
AcDbBlockTableRecord
  2
*D7
340
0
  0
ENDTAB
  0
ENDSEC
  0
SECTION
  2
BLOCKS
  0
BLOCK
  5
20
330
1F
100
AcDbEntity
  8
0
100
AcDbBlockBegin
  2
*Model_Space
 70
     0
 10
0.0
 20
0.0
 30
0.0
  3
*Model_Space
  1

  0
ENDBLK
  5
21
330
1F
100
AcDbEntity
  8
0
100
AcDbBlockEnd
  0
BLOCK
  5
1C
330
1B
100
AcDbEntity
 67
     1
  8
0
100
AcDbBlockBegin
  2
*Paper_Space
 70
     0
 10
0.0
 20
0.0
 30
0.0
  3
*Paper_Space
  1

  0
ENDBLK
  5
1D
330
1B
100
AcDbEntity
 67
     1
  8
0
100
AcDbBlockEnd
  0
BLOCK
  5
24
330
23
100
AcDbEntity
  8
0
100
AcDbBlockBegin
  2
*Paper_Space0
 70
     0
 10
0.0
 20
0.0
 30
0.0
  3
*Paper_Space0
  1

  0
ENDBLK
  5
25
330
23
100
AcDbEntity
  8
0
100
AcDbBlockEnd
  0
BLOCK
  5
2D
330
2B
100
AcDbEntity
  8
0
100
AcDbBlockBegin
  2
_ARROW_FILLED
 70
     0
 10
0.0
 20
0.0
 30
0.0
  3
_ARROW_FILLED
  1

  0
SOLID
  5
2C
330
2B
100
AcDbEntity
  8
0
  6
ByBlock
 62
     0
100
AcDbTrace
 10
0.0
 20
0.0
 30
0.0
 11
-1.0
 21
0.132
 31
0.0
 12
-1.0
 22
-0.132
 32
0.0
 13
-1.0
 23
-0.132
 33
0.0
  0
ENDBLK
  5
2E
330
2B
100
AcDbEntity
  8
0
  6
ByBlock
 62
     0
100
AcDbBlockEnd
  0
BLOCK
  5
1F8
330
1EC
100
AcDbEntity
  8
0
100
AcDbBlockBegin
  2
*D2
 70
     1
 10
0.0
 20
0.0
 30
0.0
  3
*D2
  1

  0
LINE
  5
2D2
330
1EC
100
AcDbEntity
  8
2
 62
     0
370
    -2
100
AcDbLine
 10
-2.399999999999977
 20
-27.6505362394
 30
0.0
 11
-2.399999999999977
 21
-26.4005362394
 31
0.0
  0
LINE
  5
2D3
330
1EC
100
AcDbEntity
  8
2
 62
     0
370
    -2
100
AcDbLine
 10
0.0
 20
-27.6505362394
 30
0.0
 11
0.0000000000000001
 21
-26.4005362394
 31
0.0
  0
LINE
  5
2D4
330
1EC
100
AcDbEntity
  8
2
 62
     0
370
    -2
100
AcDbLine
 10
2.5
 20
-27.6505362394
 30
0.0
 11
5.0
 21
-27.6505362394
 31
0.0
  0
LINE
  5
2D5
330
1EC
100
AcDbEntity
  8
2
 62
     0
370
    -2
100
AcDbLine
 10
-4.899999999999976
 20
-27.6505362394
 30
0.0
 11
-16.43174548107791
 21
-27.6505362394
 31
0.0
  0
LINE
  5
2D6
330
1EC
100
AcDbEntity
  8
2
 62
     0
370
    -2
100
AcDbLine
 10
0.0
 20
-27.6505362394
 30
0.0
 11
-2.399999999999977
 21
-27.6505362394
 31
0.0
  0
SOLID
  5
2D7
330
1EC
100
AcDbEntity
  8
2
 62
     0
100
AcDbTrace
 10
2.5
 20
-27.23386957273332
 30
0.0
 11
2.5
 21
-28.06720290606666
 31
0.0
 12
0.0
 22
-27.6505362394
 32
0.0
 13
0.0
 23
-27.6505362394
 33
0.0
  0
SOLID
  5
2D8
330
1EC
100
AcDbEntity
  8
2
 62
     0
100
AcDbTrace
 10
-4.899999999999976
 20
-27.23386957273332
 30
0.0
 11
-4.899999999999976
 21
-28.06720290606666
 31
0.0
 12
-2.399999999999977
 22
-27.6505362394
 32
0.0
 13
-2.399999999999977
 23
-27.6505362394
 33
0.0
  0
MTEXT
  5
2D9
330
1EC
100
AcDbEntity
  8
2
 62
     0
100
AcDbMText
 10
-13.04980650469997
 20
-25.01269175121102
 30
0.0
 40
3.5
 41
0.0
 71
     5
 72
     1
  1
2,4
 73
     1
 44
1.0
  0
POINT
  5
2DA
330
1EC
100
AcDbEntity
  8
Defpoints
 62
     0
100
AcDbPoint
 10
-2.399999999999977
 20
-28.2755362394
 30
0.0
  0
POINT
  5
2DB
330
1EC
100
AcDbEntity
  8
Defpoints
 62
     0
100
AcDbPoint
 10
0.0
 20
-28.2755362394
 30
0.0
  0
POINT
  5
2DC
330
1EC
100
AcDbEntity
  8
Defpoints
 62
     0
100
AcDbPoint
 10
0.0
 20
-27.6505362394
 30
0.0
  0
ENDBLK
  5
1F9
330
1EC
100
AcDbEntity
  8
0
100
AcDbBlockEnd
  0
BLOCK
  5
204
330
1FA
100
AcDbEntity
  8
0
100
AcDbBlockBegin
  2
*D3
 70
     1
 10
0.0
 20
0.0
 30
0.0
  3
*D3
  1

  0
LINE
  5
2C9
330
1FA
100
AcDbEntity
  8
2
 62
     0
370
    -2
100
AcDbLine
 10
1.125
 20
32.0
 30
0.0
 11
13.39925562730003
 21
31.99999999999999
 31
0.0
  0
LINE
  5
2CA
330
1FA
100
AcDbEntity
  8
2
 62
     0
370
    -2
100
AcDbLine
 10
1.125
 20
-32.0
 30
0.0
 11
13.39925562730001
 21
-32.0
 31
0.0
  0
LINE
  5
2CB
330
1FA
100
AcDbEntity
  8
2
 62
     0
370
    -2
100
AcDbLine
 10
12.14925562730003
 20
29.49999999999999
 30
0.0
 11
12.14925562730001
 21
-29.5
 31
0.0
  0
SOLID
  5
2CC
330
1FA
100
AcDbEntity
  8
2
 62
     0
100
AcDbTrace
 10
11.73258896063334
 20
29.49999999999999
 30
0.0
 11
12.56592229396669
 21
29.49999999999999
 31
0.0
 12
12.14925562730003
 22
31.99999999999999
 32
0.0
 13
12.14925562730003
 23
31.99999999999999
 33
0.0
  0
SOLID
  5
2CD
330
1FA
100
AcDbEntity
  8
2
 62
     0
100
AcDbTrace
 10
11.73258896063334
 20
-29.5
 30
0.0
 11
12.56592229396668
 21
-29.5
 31
0.0
 12
12.14925562730001
 22
-32.0
 32
0.0
 13
12.14925562730001
 23
-32.0
 33
0.0
  0
MTEXT
  5
2CE
330
1FA
100
AcDbEntity
  8
2
 62
     0
100
AcDbMText
 10
9.77425562730002
 20
-2.651885835699999
 30
0.0
 40
3.5
 41
0.0
 71
     5
 72
     1
  1
%%c64
 11
0.0000000000000001
 21
1.0
 31
0.0
 73
     1
 44
1.0
  0
POINT
  5
2CF
330
1FA
100
AcDbEntity
  8
Defpoints
 62
     0
100
AcDbPoint
 10
0.5
 20
32.0
 30
0.0
  0
POINT
  5
2D0
330
1FA
100
AcDbEntity
  8
Defpoints
 62
     0
100
AcDbPoint
 10
0.5
 20
-32.0
 30
0.0
  0
POINT
  5
2D1
330
1FA
100
AcDbEntity
  8
Defpoints
 62
     0
100
AcDbPoint
 10
12.14925562730001
 20
-32.0
 30
0.0
  0
ENDBLK
  5
205
330
1FA
100
AcDbEntity
  8
0
100
AcDbBlockEnd
  0
BLOCK
  5
210
330
206
100
AcDbEntity
  8
0
100
AcDbBlockBegin
  2
*D4
 70
     1
 10
0.0
 20
0.0
 30
0.0
  3
*D4
  1

  0
LINE
  5
2C0
330
206
100
AcDbEntity
  8
2
 62
     0
370
    -2
100
AcDbLine
 10
-2.324999999999931
 20
62.5
 30
0.0
 11
-29.28676470579999
 21
62.5
 31
0.0
  0
LINE
  5
2C1
330
206
100
AcDbEntity
  8
2
 62
     0
370
    -2
100
AcDbLine
 10
-2.324999999999931
 20
-62.5
 30
0.0
 11
-29.28676470580001
 21
-62.5
 31
0.0
  0
LINE
  5
2C2
330
206
100
AcDbEntity
  8
2
 62
     0
370
    -2
100
AcDbLine
 10
-28.03676470579999
 20
60.0
 30
0.0
 11
-28.03676470580001
 21
-60.0
 31
0.0
  0
SOLID
  5
2C3
330
206
100
AcDbEntity
  8
2
 62
     0
100
AcDbTrace
 10
-28.45343137246666
 20
60.0
 30
0.0
 11
-27.62009803913333
 21
60.0
 31
0.0
 12
-28.03676470579999
 22
62.5
 32
0.0
 13
-28.03676470579999
 23
62.5
 33
0.0
  0
SOLID
  5
2C4
330
206
100
AcDbEntity
  8
2
 62
     0
100
AcDbTrace
 10
-28.45343137246669
 20
-60.0
 30
0.0
 11
-27.62009803913335
 21
-60.0
 31
0.0
 12
-28.03676470580001
 22
-62.5
 32
0.0
 13
-28.03676470580001
 23
-62.5
 33
0.0
  0
MTEXT
  5
2C5
330
206
100
AcDbEntity
  8
2
 62
     0
100
AcDbMText
 10
-30.41210919398898
 20
1.613970588299963
 30
0.0
 40
3.5
 41
0.0
 71
     5
 72
     1
  1
%%c125
 11
0.0000000000000001
 21
1.0
 31
0.0
 73
     1
 44
1.0
  0
POINT
  5
2C6
330
206
100
AcDbEntity
  8
Defpoints
 62
     0
100
AcDbPoint
 10
-1.69999999999993
 20
62.5
 30
0.0
  0
POINT
  5
2C7
330
206
100
AcDbEntity
  8
Defpoints
 62
     0
100
AcDbPoint
 10
-1.69999999999993
 20
-62.5
 30
0.0
  0
POINT
  5
2C8
330
206
100
AcDbEntity
  8
Defpoints
 62
     0
100
AcDbPoint
 10
-28.03676470580001
 20
-62.5
 30
0.0
  0
ENDBLK
  5
211
330
206
100
AcDbEntity
  8
0
100
AcDbBlockEnd
  0
BLOCK
  5
219
330
212
100
AcDbEntity
  8
0
100
AcDbBlockBegin
  2
*D5
 70
     1
 10
0.0
 20
0.0
 30
0.0
  3
*D5
  1

  0
LINE
  5
2BA
330
212
100
AcDbEntity
  8
2
 62
     0
370
    -2
100
AcDbLine
 10
-24.37511545035413
 20
79.5275226505874
 30
0.0
 11
-4.080055009889115
 21
63.75923264830136
 31
0.0
  0
MTEXT
  5
2BB
330
212
100
AcDbEntity
  8
2
 62
     0
100
AcDbMText
 10
-19.07085003026246
 20
78.74680958105253
 30
0.0
 40
3.5
 41
0.0
 71
     5
 72
     1
  1
R0,2
 11
0.7896680843156644
 21
-0.6135342831604677
 31
0.0
 73
     1
 44
1.0
  0
LINE
  5
2BC
330
212
100
AcDbEntity
  8
2
 62
     0
370
    -2
100
AcDbLine
 10
-1.950397662799899
 20
62.10459088200011
 30
0.0
 11
-2.105884799099948
 21
62.2253969404002
 31
0.0
  0
SOLID
  5
2BD
330
212
100
AcDbEntity
  8
2
 62
     0
100
AcDbTrace
 10
-3.824415725238921
 20
64.08826101676623
 30
0.0
 11
-4.335694294539306
 21
63.4302042798365
 31
0.0
 12
-2.105884799099948
 22
62.2253969404002
 32
0.0
 13
-2.105884799099948
 23
62.2253969404002
 33
0.0
  0
POINT
  5
2BE
330
212
100
AcDbEntity
  8
Defpoints
 62
     0
100
AcDbPoint
 10
-2.105884799099948
 20
62.2253969404002
 30
0.0
  0
POINT
  5
2BF
330
212
100
AcDbEntity
  8
Defpoints
 62
     0
100
AcDbPoint
 10
-1.950397662799899
 20
62.10459088200011
 30
0.0
  0
ENDBLK
  5
21A
330
212
100
AcDbEntity
  8
0
100
AcDbBlockEnd
  0
BLOCK
  5
227
330
21B
100
AcDbEntity
  8
0
100
AcDbBlockBegin
  2
*D6
 70
     1
 10
0.0
 20
0.0
 30
0.0
  3
*D6
  1

  0
LINE
  5
2AF
330
21B
100
AcDbEntity
  8
2
 62
     0
370
    -2
100
AcDbLine
 10
-2.299999999999954
 20
54.38558629159999
 30
0.0
 11
-2.29999999999995
 21
81.81148941180001
 31
0.0
  0
LINE
  5
2B0
330
21B
100
AcDbEntity
  8
2
 62
     0
370
    -2
100
AcDbLine
 10
-0.0999999999999659
 20
54.38558629159999
 30
0.0
 11
-0.0999999999999642
 21
81.81148941180001
 31
0.0
  0
LINE
  5
2B1
330
21B
100
AcDbEntity
  8
2
 62
     0
370
    -2
100
AcDbLine
 10
-4.799999999999952
 20
80.56148941180001
 30
0.0
 11
-7.299999999999952
 21
80.56148941180001
 31
0.0
  0
LINE
  5
2B2
330
21B
100
AcDbEntity
  8
2
 62
     0
370
    -2
100
AcDbLine
 10
2.400000000000034
 20
80.56148941180001
 30
0.0
 11
20.65286114643462
 21
80.56148941180001
 31
0.0
  0
LINE
  5
2B3
330
21B
100
AcDbEntity
  8
2
 62
     0
370
    -2
100
AcDbLine
 10
-2.29999999999995
 20
80.56148941180001
 30
0.0
 11
-0.0999999999999643
 21
80.56148941180001
 31
0.0
  0
SOLID
  5
2B4
330
21B
100
AcDbEntity
  8
2
 62
     0
100
AcDbTrace
 10
-4.799999999999952
 20
80.97815607846667
 30
0.0
 11
-4.799999999999952
 21
80.14482274513332
 31
0.0
 12
-2.29999999999995
 22
80.56148941180001
 32
0.0
 13
-2.29999999999995
 23
80.56148941180001
 33
0.0
  0
SOLID
  5
2B5
330
21B
100
AcDbEntity
  8
2
 62
     0
100
AcDbTrace
 10
2.400000000000034
 20
80.97815607846667
 30
0.0
 11
2.400000000000034
 21
80.14482274513332
 31
0.0
 12
-0.0999999999999643
 22
80.56148941180001
 32
0.0
 13
-0.0999999999999643
 23
80.56148941180001
 33
0.0
  0
MTEXT
  5
2B6
330
21B
100
AcDbEntity
  8
2
 62
     0
100
AcDbMText
 10
17.34081882359999
 20
83.19933389998899
 30
0.0
 40
3.5
 41
0.0
 71
     5
 72
     1
  1
2,2
 73
     1
 44
1.0
  0
POINT
  5
2B7
330
21B
100
AcDbEntity
  8
Defpoints
 62
     0
100
AcDbPoint
 10
-2.299999999999954
 20
53.76058629159999
 30
0.0
  0
POINT
  5
2B8
330
21B
100
AcDbEntity
  8
Defpoints
 62
     0
100
AcDbPoint
 10
-0.0999999999999659
 20
53.76058629159999
 30
0.0
  0
POINT
  5
2B9
330
21B
100
AcDbEntity
  8
Defpoints
 62
     0
100
AcDbPoint
 10
-0.0999999999999643
 20
80.56148941180001
 30
0.0
  0
ENDBLK
  5
228
330
21B
100
AcDbEntity
  8
0
100
AcDbBlockEnd
  0
BLOCK
  5
233
330
229
100
AcDbEntity
  8
0
100
AcDbBlockBegin
  2
*D7
 70
     1
 10
0.0
 20
0.0
 30
0.0
  3
*D7
  1

  0
LINE
  5
2A6
330
229
100
AcDbEntity
  8
SK2
 62
     0
370
    -2
100
AcDbLine
 10
0.625
 20
13.5
 30
0.0
 11
7.632665139075589
 21
13.49999999999999
 31
0.0
  0
LINE
  5
2A7
330
229
100
AcDbEntity
  8
SK2
 62
     0
370
    -2
100
AcDbLine
 10
0.625
 20
-13.5
 30
0.0
 11
7.632665139075584
 21
-13.5
 31
0.0
  0
LINE
  5
2A8
330
229
100
AcDbEntity
  8
SK2
 62
     0
370
    -2
100
AcDbLine
 10
6.382665139075589
 20
10.99999999999999
 30
0.0
 11
6.382665139075584
 21
-11.0
 31
0.0
  0
SOLID
  5
2A9
330
229
100
AcDbEntity
  8
SK2
 62
     0
100
AcDbTrace
 10
5.965998472408922
 20
10.99999999999999
 30
0.0
 11
6.799331805742255
 21
10.99999999999999
 31
0.0
 12
6.382665139075589
 22
13.49999999999999
 32
0.0
 13
6.382665139075589
 23
13.49999999999999
 33
0.0
  0
SOLID
  5
2AA
330
229
100
AcDbEntity
  8
SK2
 62
     0
100
AcDbTrace
 10
5.965998472408918
 20
-11.0
 30
0.0
 11
6.799331805742249
 21
-11.0
 31
0.0
 12
6.382665139075584
 22
-13.5
 32
0.0
 13
6.382665139075584
 23
-13.5
 33
0.0
  0
MTEXT
  5
2AB
330
229
100
AcDbEntity
  8
SK2
 62
     0
100
AcDbMText
 10
4.00732065088661
 20
-0.0000000000000001
 30
0.0
 40
3.5
 41
0.0
 71
     5
 72
     1
  1
27
 11
0.0000000000000001
 21
1.0
 31
0.0
 73
     1
 44
1.0
  0
POINT
  5
2AC
330
229
100
AcDbEntity
  8
Defpoints
 62
     0
100
AcDbPoint
 10
0.0
 20
13.5
 30
0.0
  0
POINT
  5
2AD
330
229
100
AcDbEntity
  8
Defpoints
 62
     0
100
AcDbPoint
 10
0.0
 20
-13.5
 30
0.0
  0
POINT
  5
2AE
330
229
100
AcDbEntity
  8
Defpoints
 62
     0
100
AcDbPoint
 10
6.382665139075584
 20
-13.5
 30
0.0
  0
ENDBLK
  5
234
330
229
100
AcDbEntity
  8
0
100
AcDbBlockEnd
  0
ENDSEC
  0
SECTION
  2
ENTITIES
  0
TEXT
  5
13A
330
1F
100
AcDbEntity
  8
6
100
AcDbText
 10
25.08536151582458
 20
-61.23213411586258
 30
0.0
 40
3.5
  1
31J6M125022BB-00
 41
0.8
 72
     1
 11
40.62646387802931
 21
-61.23213411586258
 31
0.0
100
AcDbText
  0
LINE
  5
13B
330
1F
100
AcDbEntity
  8
1
100
AcDbLine
 10
0.0
 20
32.0
 30
0.0
 11
0.0
 21
-32.0
 31
0.0
  0
LINE
  5
13C
330
1F
100
AcDbEntity
  8
1
100
AcDbLine
 10
-0.3999999999999772
 20
-29.51483093870001
 30
0.0
 11
-0.3999999999999772
 21
-4.5
 31
0.0
  0
LINE
  5
13D
330
1F
100
AcDbEntity
  8
1
100
AcDbLine
 10
-2.0
 20
-29.51483093870001
 30
0.0
 11
-2.0
 21
-4.5
 31
0.0
  0
LINE
  5
13E
330
1F
100
AcDbEntity
  8
1
100
AcDbLine
 10
-2.399999999999977
 20
32.0
 30
0.0
 11
-2.399999999999977
 21
-32.0
 31
0.0
  0
DIMENSION
  5
13F
330
1F
100
AcDbEntity
  8
2
100
AcDbDimension
  2
*D2
 10
0.0
 20
-27.6505362394
 30
0.0
 11
-13.04980650469997
 21
-27.6505362394
 31
0.0
 70
   160
 71
     5
 42
2.399999999999977
  3
ISO-25
100
AcDbAlignedDimension
 13
-2.399999999999977
 23
-28.2755362394
 33
0.0
 14
0.0
 24
-28.2755362394
 34
0.0
100
AcDbRotatedDimension
1001
ACAD
1000
DSTYLE
1002
{
1070
   140
1040
3.5
1002
}
  0
DIMENSION
  5
140
330
1F
100
AcDbEntity
  8
2
100
AcDbDimension
  2
*D3
 10
12.14925562730001
 20
-32.0
 30
0.0
 11
12.14925562730002
 21
-2.651885835699999
 31
0.0
 70
   160
  1
%%c<>
 71
     5
 42
64.0
  3
ISO-25
100
AcDbAlignedDimension
 13
0.5
 23
32.0
 33
0.0
 14
0.5
 24
-32.0
 34
0.0
 50
270.0
100
AcDbRotatedDimension
1001
ACAD
1000
DSTYLE
1002
{
1070
   140
1040
3.5
1002
}
  0
DIMENSION
  5
141
330
1F
100
AcDbEntity
  8
2
100
AcDbDimension
  2
*D4
 10
-28.03676470580001
 20
-62.5
 30
0.0
 11
-28.03676470580001
 21
1.613970588299963
 31
0.0
 70
   160
  1
%%c<>
 71
     5
 42
125.0
  3
ISO-25
100
AcDbAlignedDimension
 13
-1.69999999999993
 23
62.5
 33
0.0
 14
-1.69999999999993
 24
-62.5
 34
0.0
 50
270.0
100
AcDbRotatedDimension
1001
ACAD
1000
DSTYLE
1002
{
1070
   140
1040
3.5
1002
}
  0
LINE
  5
142
330
1F
100
AcDbEntity
  8
1
100
AcDbLine
 10
-2.281469620999983
 20
-53.86977684770002
 30
0.0
 11
-2.0
 21
-49.973453107
 31
0.0
  0
LINE
  5
143
330
1F
100
AcDbEntity
  8
1
100
AcDbLine
 10
-0.3999999999999772
 20
-51.0946421957
 30
0.0
 11
-0.3999999999999772
 21
-34.81535327070003
 31
0.0
  0
LINE
  5
144
330
1F
100
AcDbEntity
  8
1
100
AcDbLine
 10
-2.0
 20
-51.0946421957
 30
0.0
 11
-2.0
 21
-34.81535327070003
 31
0.0
  0
LWPOLYLINE
  5
145
330
1F
100
AcDbEntity
  8
1
100
AcDbPolyline
 90
        3
 70
     0
 43
0.0
 10
-0.1179568801999835
 20
-53.87880628440001
 10
-0.1185303789999352
 20
-53.86977684770002
 10
-0.3999999999999772
 20
-49.973453107
  0
LINE
  5
146
330
1F
100
AcDbEntity
  8
1
100
AcDbLine
 10
-2.288002494099941
 20
-62.35903994950001
 30
0.0
 11
-2.023175742899979
 21
-59.2693945197
 31
0.0
  0
LINE
  5
147
330
1F
100
AcDbEntity
  8
1
100
AcDbLine
 10
-0.1119975058999785
 20
-62.35903994950001
 30
0.0
 11
-0.3768242569999529
 21
-59.2693945197
 31
0.0
  0
LINE
  5
148
330
1F
100
AcDbEntity
  8
1
100
AcDbLine
 10
-2.09879447749995
 20
-62.49901085160001
 30
0.0
 11
-0.3012055224999699
 21
-62.49901085160001
 31
0.0
  0
LWPOLYLINE
  5
149
330
1F
100
AcDbEntity
  8
1
100
AcDbPolyline
 90
       11
 70
     0
 43
0.0
 10
-2.288002494099941
 20
-62.35903994950001
 10
-2.278966817999958
 20
-62.3829189681
 10
-2.267246867299943
 20
-62.4050589966
 10
-2.252719071199976
 20
-62.4256051488
 10
-2.235754142199994
 20
-62.4441220831
 10
-2.216571001299996
 20
-62.4602871867
 10
-2.195501451099969
 20
-62.47390738710001
 10
-2.172826343299957
 20
-62.48472092370001
 10
-2.148917450300018
 20
-62.49261124780002
 10
-2.124298335399998
 20
-62.4973490818
 10
-2.09879447749995
 20
-62.49901085160001
  0
LWPOLYLINE
  5
14A
330
1F
100
AcDbEntity
  8
1
100
AcDbPolyline
 90
       11
 70
     0
 43
0.0
 10
-0.3012055224999699
 20
-62.49901085160001
 10
-0.2757016645999784
 20
-62.4973490818
 10
-0.2510825496999587
 20
-62.49261124780002
 10
-0.2271736566999607
 20
-62.48472092370001
 10
-0.2044985489000055
 20
-62.47390738710001
 10
-0.1834289985999931
 20
-62.4602871867
 10
-0.1642458577999832
 20
-62.4441220831
 10
-0.1472809286999563
 20
-62.4256051488
 10
-0.1327531326999747
 20
-62.4050589966
 10
-0.1210331820000192
 20
-62.3829189681
 10
-0.1119975058999785
 20
-62.35903994950001
  0
LINE
  5
14B
330
1F
100
AcDbEntity
  8
1
100
AcDbLine
 10
-0.3999999999999772
 20
-59.4472508163
 30
0.0
 11
-0.3999999999999772
 21
-55.80196074839999
 31
0.0
  0
LINE
  5
14C
330
1F
100
AcDbEntity
  8
1
100
AcDbLine
 10
-2.0
 20
-59.4472508163
 30
0.0
 11
-2.0
 21
-55.80196074839999
 31
0.0
  0
LINE
  5
14D
330
1F
100
AcDbEntity
  8
1
100
AcDbLine
 10
-2.0
 20
-59.271381012
 30
0.0
 11
-0.3999999999999772
 21
-59.271381012
 31
0.0
  0
LINE
  5
14E
330
1F
100
AcDbEntity
  8
1
100
AcDbLine
 10
-0.3999999999999772
 20
-59.44742094670002
 30
0.0
 11
-2.0
 21
-59.44742094670002
 31
0.0
  0
LINE
  5
14F
330
1F
100
AcDbEntity
  8
1
100
AcDbLine
 10
-0.3999999999999772
 20
-51.07519395630001
 30
0.0
 11
-2.0
 21
-51.07519395630001
 31
0.0
  0
LINE
  5
150
330
1F
100
AcDbEntity
  8
1
100
AcDbLine
 10
-2.0
 20
-51.0946421957
 30
0.0
 11
-0.3999999999999772
 21
-51.0946421957
 31
0.0
  0
LINE
  5
151
330
1F
100
AcDbEntity
  8
1
100
AcDbLine
 10
-2.09879447749995
 20
-54.12573110890001
 30
0.0
 11
-0.3012055224999699
 21
-54.12573110890001
 31
0.0
  0
LINE
  5
152
330
1F
100
AcDbEntity
  8
1
100
AcDbLine
 10
-2.0
 20
-55.80196074839999
 30
0.0
 11
-0.3999999999999772
 21
-55.80196074839999
 31
0.0
  0
LINE
  5
153
330
1F
100
AcDbEntity
  8
1
100
AcDbLine
 10
-2.0
 20
-55.8020187319
 30
0.0
 11
-0.3999999999999772
 21
-55.8020187319
 31
0.0
  0
LINE
  5
154
330
1F
100
AcDbEntity
  8
1
100
AcDbLine
 10
-2.288002494099941
 20
-54.00451275190002
 30
0.0
 11
-2.0
 21
-51.0946421957
 31
0.0
  0
LWPOLYLINE
  5
155
330
1F
100
AcDbEntity
  8
1
100
AcDbPolyline
 90
        3
 70
     0
 43
0.0
 10
-2.281469620999983
 20
-53.86977684770002
 10
-2.282043119799991
 20
-53.87880628440001
 10
-2.283105407800007
 20
-53.8973976761
  0
LINE
  5
156
330
1F
100
AcDbEntity
  8
1
100
AcDbLine
 10
-2.283105407800007
 20
-53.8973976761
 30
0.0
 11
-2.284111015399957
 21
-53.91677836230002
 31
0.0
  0
LINE
  5
157
330
1F
100
AcDbEntity
  8
1
100
AcDbLine
 10
-2.284111015399957
 20
-53.91677836230002
 30
0.0
 11
-2.285571647300002
 21
-53.94755282640002
 31
0.0
  0
LINE
  5
158
330
1F
100
AcDbEntity
  8
1
100
AcDbLine
 10
-2.285571647300002
 20
-53.94755282640002
 30
0.0
 11
-2.288002494099941
 21
-54.00451275190002
 31
0.0
  0
LINE
  5
159
330
1F
100
AcDbEntity
  8
1
100
AcDbLine
 10
-2.0
 20
-54.4568407277
 30
0.0
 11
-2.0
 21
-55.8020187319
 31
0.0
  0
LINE
  5
15A
330
1F
100
AcDbEntity
  8
1
100
AcDbLine
 10
-2.09879447749995
 20
-54.12573110890001
 30
0.0
 11
-2.0
 21
-54.4568407277
 31
0.0
  0
LINE
  5
15B
330
1F
100
AcDbEntity
  8
1
100
AcDbLine
 10
-2.28689958899997
 20
-54.00887546689999
 30
0.0
 11
-2.000016503499976
 21
-54.97036391720001
 31
0.0
  0
LWPOLYLINE
  5
15C
330
1F
100
AcDbEntity
  8
1
100
AcDbPolyline
 90
       11
 70
     0
 43
0.0
 10
-2.288002494099941
 20
-54.00451275190002
 10
-2.278966817999958
 20
-54.02519258859999
 10
-2.267246867299943
 20
-54.04436641570001
 10
-2.252719071199976
 20
-54.06215990550001
 10
-2.235754142199994
 20
-54.07819604100001
 10
-2.216571001299996
 20
-54.09219543140003
 10
-2.195501451099969
 20
-54.10399087089999
 10
-2.172826343299957
 20
-54.11335566829999
 10
-2.148917450300018
 20
-54.1201888894
 10
-2.124298335399998
 20
-54.12429197400001
 10
-2.09879447749995
 20
-54.12573110890001
  0
LINE
  5
15D
330
1F
100
AcDbEntity
  8
1
100
AcDbLine
 10
-0.3999834963999547
 20
-54.97036391720001
 30
0.0
 11
-0.1131004110000049
 21
-54.00887546689999
 31
0.0
  0
LINE
  5
15E
330
1F
100
AcDbEntity
  8
1
100
AcDbLine
 10
-0.3999999999999772
 20
-54.4568407277
 30
0.0
 11
-0.3012055224999699
 21
-54.12573110890001
 31
0.0
  0
LINE
  5
15F
330
1F
100
AcDbEntity
  8
1
100
AcDbLine
 10
-0.3999999999999772
 20
-55.8020187319
 30
0.0
 11
-0.3999999999999772
 21
-54.4568407277
 31
0.0
  0
LINE
  5
160
330
1F
100
AcDbEntity
  8
1
100
AcDbLine
 10
-0.1119975058999785
 20
-54.00451275190002
 30
0.0
 11
-0.1134629920999828
 21
-53.96938486189999
 31
0.0
  0
LINE
  5
161
330
1F
100
AcDbEntity
  8
1
100
AcDbLine
 10
-0.1134629920999828
 20
-53.96938486189999
 30
0.0
 11
-0.1153979673999856
 21
-53.9267952362
 31
0.0
  0
LINE
  5
162
330
1F
100
AcDbEntity
  8
1
100
AcDbLine
 10
-0.1153979673999856
 20
-53.9267952362
 30
0.0
 11
-0.1168945921999693
 21
-53.8973976761
 31
0.0
  0
LINE
  5
163
330
1F
100
AcDbEntity
  8
1
100
AcDbLine
 10
-0.1168945921999693
 20
-53.8973976761
 30
0.0
 11
-0.1179568801999835
 21
-53.87880628440001
 31
0.0
  0
LINE
  5
164
330
1F
100
AcDbEntity
  8
1
100
AcDbLine
 10
-0.1119975058999785
 20
-54.00451275190002
 30
0.0
 11
-0.3999999999999772
 21
-51.0946421957
 31
0.0
  0
LWPOLYLINE
  5
165
330
1F
100
AcDbEntity
  8
1
100
AcDbPolyline
 90
       11
 70
     0
 43
0.0
 10
-0.3012055224999699
 20
-54.12573110890001
 10
-0.2757016645999784
 20
-54.12429197400001
 10
-0.2510825496999587
 20
-54.1201888894
 10
-0.2271736566999607
 20
-54.11335566829999
 10
-0.2044985489000055
 20
-54.10399087089999
 10
-0.1834289985999931
 20
-54.09219543140003
 10
-0.1642458577999832
 20
-54.07819604100001
 10
-0.1472809286999563
 20
-54.06215990550001
 10
-0.1327531326999747
 20
-54.04436641570001
 10
-0.1210331820000192
 20
-54.02519258859999
 10
-0.1119975058999785
 20
-54.00451275190002
  0
LINE
  5
166
330
1F
100
AcDbEntity
  8
1
100
AcDbLine
 10
-0.3999999999999772
 20
-46.21125715140002
 30
0.0
 11
-2.0
 21
-46.21125715140002
 31
0.0
  0
LINE
  5
167
330
1F
100
AcDbEntity
  8
1
100
AcDbLine
 10
-2.0
 20
-42.2351465724
 30
0.0
 11
-0.3999999999999772
 21
-42.2351465724
 31
0.0
  0
LINE
  5
168
330
1F
100
AcDbEntity
  8
1
100
AcDbLine
 10
-0.3999999999999772
 20
-43.51029840650002
 30
0.0
 11
-2.0
 21
-43.51029840650002
 31
0.0
  0
LINE
  5
169
330
1F
100
AcDbEntity
  8
1
100
AcDbLine
 10
-0.3999354467999865
 20
-33.2690904179
 30
0.0
 11
-0.1173173554000186
 21
-31.2541721492
 31
0.0
  0
LINE
  5
16A
330
1F
100
AcDbEntity
  8
1
100
AcDbLine
 10
-0.3999999999999772
 20
-34.8153867475
 30
0.0
 11
-0.3999999999999772
 21
-31.9538580612
 31
0.0
  0
LINE
  5
16B
330
1F
100
AcDbEntity
  8
1
100
AcDbLine
 10
-2.0
 20
-31.9538580612
 30
0.0
 11
-2.0
 21
-34.8153867475
 31
0.0
  0
LINE
  5
16C
330
1F
100
AcDbEntity
  8
1
100
AcDbLine
 10
-2.282682644599958
 20
-31.2541721492
 30
0.0
 11
-2.000064553099945
 21
-33.2690904179
 31
0.0
  0
LINE
  5
16D
330
1F
100
AcDbEntity
  8
1
100
AcDbLine
 10
-2.0
 20
-34.81535327070003
 30
0.0
 11
-0.3999999999999772
 21
-34.81535327070003
 31
0.0
  0
LINE
  5
16E
330
1F
100
AcDbEntity
  8
1
100
AcDbLine
 10
-2.0
 20
-34.8153867475
 30
0.0
 11
-0.3999999999999772
 21
-34.8153867475
 31
0.0
  0
LINE
  5
16F
330
1F
100
AcDbEntity
  8
1
100
AcDbLine
 10
-2.0
 20
-29.49950542580001
 30
0.0
 11
-0.3999999999999772
 21
-29.49950542580001
 31
0.0
  0
LINE
  5
170
330
1F
100
AcDbEntity
  8
1
100
AcDbLine
 10
-2.09879447749995
 20
-31.24950542580001
 30
0.0
 11
-0.3012055224999699
 21
-31.24950542580001
 31
0.0
  0
ARC
  5
171
330
1F
100
AcDbEntity
  8
1
100
AcDbCircle
 10
-2.799999999999954
 20
-32.692820323
 30
0.0
 40
0.8
100
AcDbArc
 50
34.66198822379999
 51
59.99999999999985
  0
LINE
  5
172
330
1F
100
AcDbEntity
  8
1
100
AcDbLine
 10
-2.288002494099941
 20
-31.17951997480003
 30
0.0
 11
-2.0
 21
-29.49950542580001
 31
0.0
  0
LWPOLYLINE
  5
173
330
1F
100
AcDbEntity
  8
1
100
AcDbPolyline
 90
        3
 70
     0
 43
0.0
 10
-2.286537007800006
 20
-31.2061685861
 10
-2.287510542999994
 20
-31.18890514700001
 10
-2.288002494099941
 20
-31.17951997480003
  0
LINE
  5
174
330
1F
100
AcDbEntity
  8
1
100
AcDbLine
 10
-2.285571647300002
 20
-31.22145770120001
 30
0.0
 11
-2.286537007800006
 21
-31.2061685861
 31
0.0
  0
LWPOLYLINE
  5
175
330
1F
100
AcDbEntity
  8
1
100
AcDbPolyline
 90
        7
 70
     0
 43
0.0
 10
-2.282631333700009
 20
-31.25456363490002
 10
-2.283105407800007
 20
-31.25078338080001
 10
-2.28361353729997
 20
-31.24603736880001
 10
-2.284111015399957
 20
-31.24067922509999
 10
-2.284602032499945
 20
-31.2347865577
 10
-2.285088092199996
 20
-31.22836765650001
 10
-2.285571647300002
 20
-31.22145770120001
  0
LINE
  5
176
330
1F
100
AcDbEntity
  8
1
100
AcDbLine
 10
-2.09879447749995
 20
-31.24950542580001
 30
0.0
 11
-2.0
 21
-31.9538580612
 31
0.0
  0
LWPOLYLINE
  5
177
330
1F
100
AcDbEntity
  8
1
100
AcDbPolyline
 90
       11
 70
     0
 43
0.0
 10
-2.288002494099941
 20
-31.17951997480003
 10
-2.278966817999958
 20
-31.19145948409999
 10
-2.267246867299943
 20
-31.20252949830001
 10
-2.252719071199976
 20
-31.2128025744
 10
-2.235754142199994
 20
-31.2220610415
 10
-2.216571001299996
 20
-31.23014359340001
 10
-2.195501451099969
 20
-31.23695369360001
 10
-2.172826343299957
 20
-31.24236046180001
 10
-2.148917450300018
 20
-31.24630562390001
 10
-2.124298335399998
 20
-31.24867454089998
 10
-2.09879447749995
 20
-31.24950542580001
  0
ARC
  5
178
330
1F
100
AcDbEntity
  8
1
100
AcDbCircle
 10
0.4000000000000341
 20
-32.692820323
 30
0.0
 40
0.8
100
AcDbArc
 50
120.0000000000001
 51
145.3380117768993
  0
LINE
  5
179
330
1F
100
AcDbEntity
  8
1
100
AcDbLine
 10
-0.3999999999999772
 20
-31.9538580612
 30
0.0
 11
-0.3012055224999699
 21
-31.24950542580001
 31
0.0
  0
LWPOLYLINE
  5
17A
330
1F
100
AcDbEntity
  8
1
100
AcDbPolyline
 90
        9
 70
     0
 43
0.0
 10
-0.1129781829999956
 20
-31.19778914720001
 10
-0.1139459599999668
 20
-31.2140536315
 10
-0.1144283525999867
 20
-31.22145770120001
 10
-0.1149119076999341
 20
-31.22836765650001
 10
-0.1153979673999856
 20
-31.2347865577
 10
-0.1158889846000193
 20
-31.24067922509999
 10
-0.1163864627000066
 20
-31.24603736880001
 10
-0.1168945921999693
 20
-31.25078338080001
 10
-0.1173686662999671
 20
-31.25456363490002
  0
LINE
  5
17B
330
1F
100
AcDbEntity
  8
1
100
AcDbLine
 10
-0.1119975058999785
 20
-31.17951997480003
 30
0.0
 11
-0.1129781829999956
 21
-31.19778914720001
 31
0.0
  0
LINE
  5
17C
330
1F
100
AcDbEntity
  8
1
100
AcDbLine
 10
-0.1119975058999785
 20
-31.17951997480003
 30
0.0
 11
-0.3999999999999772
 21
-29.49950542580001
 31
0.0
  0
LWPOLYLINE
  5
17D
330
1F
100
AcDbEntity
  8
1
100
AcDbPolyline
 90
       11
 70
     0
 43
0.0
 10
-0.3012055224999699
 20
-31.24950542580001
 10
-0.2757016645999784
 20
-31.24867454089998
 10
-0.2510825496999587
 20
-31.24630562390001
 10
-0.2271736566999607
 20
-31.24236046180001
 10
-0.2044985489000055
 20
-31.23695369360001
 10
-0.1834289985999931
 20
-31.23014359340001
 10
-0.1642458577999832
 20
-31.2220610415
 10
-0.1472809286999563
 20
-31.2128025744
 10
-0.1327531326999747
 20
-31.20252949830001
 10
-0.1210331820000192
 20
-31.19145948409999
 10
-0.1119975058999785
 20
-31.17951997480003
  0
DIMENSION
  5
17E
330
1F
100
AcDbEntity
  8
2
100
AcDbDimension
  2
*D5
 10
-1.950397662799899
 20
62.10459088200011
 30
0.0
 11
-20.68925805741228
 21
76.6637879773417
 31
0.0
 70
   164
  1
<>
 71
     5
 42
0.1969018874997275
  3
ISO-25
100
AcDbRadialDimension
 15
-2.105884799099948
 25
62.2253969404002
 35
0.0
 40
0.0
1001
ACAD
1000
DSTYLE
1002
{
1070
   140
1040
3.5
1002
}
  0
DIMENSION
  5
17F
330
1F
100
AcDbEntity
  8
2
100
AcDbDimension
  2
*D6
 10
-0.0999999999999643
 20
80.56148941180001
 30
0.0
 11
17.34081882359999
 21
80.56148941180001
 31
0.0
 70
   160
 71
     5
 42
2.199999999999988
  3
ISO-25
100
AcDbAlignedDimension
 13
-2.299999999999954
 23
53.76058629159999
 33
0.0
 14
-0.0999999999999659
 24
53.76058629159999
 34
0.0
100
AcDbRotatedDimension
1001
ACAD
1000
DSTYLE
1002
{
1070
   140
1040
3.5
1002
}
  0
LINE
  5
180
330
1F
100
AcDbEntity
  8
1
100
AcDbLine
 10
-0.3999999999999772
 20
0.0
 30
0.0
 11
-0.3999999999999772
 21
27.02112463669996
 31
0.0
  0
LINE
  5
181
330
1F
100
AcDbEntity
  8
1
100
AcDbLine
 10
-2.0
 20
0.0
 30
0.0
 11
-2.0
 21
27.02112463669996
 31
0.0
  0
LINE
  5
182
330
1F
100
AcDbEntity
  8
1
100
AcDbLine
 10
-0.3999999999999772
 20
-4.5
 30
0.0
 11
-0.3999999999999772
 21
-0.8888649322000219
 31
0.0
  0
LINE
  5
183
330
1F
100
AcDbEntity
  8
1
100
AcDbLine
 10
-2.0
 20
-0.8888649322000219
 30
0.0
 11
-2.0
 21
-4.5
 31
0.0
  0
DIMENSION
  5
184
330
1F
100
AcDbEntity
  8
SK2
100
AcDbDimension
  2
*D7
 10
6.382665139075584
 20
-13.5
 30
0.0
 11
4.00732065088661
 21
-0.0000000000000001
 31
0.0
 70
    32
 71
     5
 42
27.0
  3
ISO-25
100
AcDbAlignedDimension
 13
0.0
 23
13.5
 33
0.0
 14
0.0
 24
-13.5
 34
0.0
 50
90.0
100
AcDbRotatedDimension
1001
ACAD
1000
DSTYLE
1002
{
1070
   140
1040
3.5
1002
}
  0
LINE
  5
185
330
1F
100
AcDbEntity
  8
1
100
AcDbLine
 10
-0.3999999999999772
 20
-25.6877240576
 30
0.0
 11
-2.0
 21
-25.6877240576
 31
0.0
  0
LINE
  5
186
330
1F
100
AcDbEntity
  8
1
100
AcDbLine
 10
-0.3999999999999772
 20
-16.93717667790002
 30
0.0
 11
-2.0
 21
-16.93717667790002
 31
0.0
  0
LINE
  5
187
330
1F
100
AcDbEntity
  8
1
100
AcDbLine
 10
-0.3999999999999772
 20
-17.9260821457
 30
0.0
 11
-2.0
 21
-17.9260821457
 31
0.0
  0
LINE
  5
188
330
1F
100
AcDbEntity
  8
1
100
AcDbLine
 10
-2.0
 20
-13.88203871659999
 30
0.0
 11
-0.3999999999999772
 21
-13.88203871659999
 31
0.0
  0
LINE
  5
189
330
1F
100
AcDbEntity
  8
SK3
100
AcDbLine
 10
-2.399999999999977
 20
-13.5
 30
0.0
 11
0.0
 21
-13.5
 31
0.0
  0
LINE
  5
18A
330
1F
100
AcDbEntity
  8
1
100
AcDbLine
 10
-2.0
 20
-4.5
 30
0.0
 11
-0.3999999999999772
 21
-4.5
 31
0.0
  0
LINE
  5
18B
330
1F
100
AcDbEntity
  8
1
100
AcDbLine
 10
-2.0
 20
-4.5
 30
0.0
 11
-0.3999999999999772
 21
-4.5
 31
0.0
  0
LINE
  5
18C
330
1F
100
AcDbEntity
  8
1
100
AcDbLine
 10
-0.3999999999999772
 20
1.718813952799989
 30
0.0
 11
-2.0
 21
1.718813952799989
 31
0.0
  0
LINE
  5
18D
330
1F
100
AcDbEntity
  8
1
100
AcDbLine
 10
-2.288002494099941
 20
0.0
 30
0.0
 11
-0.1119975058999785
 21
0.0
 31
0.0
  0
LINE
  5
18E
330
1F
100
AcDbEntity
  8
4
100
AcDbLine
 10
-3.922995491899995
 20
0.0
 30
0.0
 11
1.720810625800025
 21
0.0
 31
0.0
  0
LINE
  5
18F
330
1F
100
AcDbEntity
  8
1
100
AcDbLine
 10
-2.09879447749995
 20
0.0
 30
0.0
 11
-2.0
 21
-0.8888649322000219
 31
0.0
  0
LINE
  5
190
330
1F
100
AcDbEntity
  8
1
100
AcDbLine
 10
-2.281256559499979
 20
-0.1397421850000171
 30
0.0
 11
-2.000063064100004
 21
-2.669671423800023
 31
0.0
  0
LINE
  5
191
330
1F
100
AcDbEntity
  8
1
100
AcDbLine
 10
-2.287021816899937
 20
-0.0277010222999934
 30
0.0
 11
-2.288002494099941
 21
0.0
 31
0.0
  0
LINE
  5
192
330
1F
100
AcDbEntity
  8
1
100
AcDbLine
 10
-2.285571647300002
 20
-0.0647990992000303
 30
0.0
 11
-2.287021816899937
 21
-0.0277010222999934
 31
0.0
  0
LINE
  5
193
330
1F
100
AcDbEntity
  8
1
100
AcDbLine
 10
-2.284602032499945
 20
-0.0867210226000168
 30
0.0
 11
-2.285571647300002
 21
-0.0647990992000303
 31
0.0
  0
LINE
  5
194
330
1F
100
AcDbEntity
  8
1
100
AcDbLine
 10
-2.28361353729997
 20
-0.1063706003000391
 30
0.0
 11
-2.284602032499945
 21
-0.0867210226000168
 31
0.0
  0
LWPOLYLINE
  5
195
330
1F
100
AcDbEntity
  8
1
100
AcDbPolyline
 90
        6
 70
     0
 43
0.0
 10
-2.28119897159996
 20
-0.1401011842000344
 10
-2.281469620999983
 20
-0.1374603467000384
 10
-2.282043119799991
 20
-0.1309903125000176
 10
-2.28258486539994
 20
-0.1235335304999978
 10
-2.283105407800007
 20
-0.1152734578000434
 10
-2.28361353729997
 20
-0.1063706003000391
  0
LINE
  5
196
330
1F
100
AcDbEntity
  8
1
100
AcDbLine
 10
-0.3999369358999729
 20
-2.669671423800023
 30
0.0
 11
-0.1187434403999532
 21
-0.1397421850000171
 31
0.0
  0
LINE
  5
197
330
1F
100
AcDbEntity
  8
1
100
AcDbLine
 10
-0.3999999999999772
 20
-0.8888649322000219
 30
0.0
 11
-0.3012055224999699
 21
0.0
 31
0.0
  0
LWPOLYLINE
  5
198
330
1F
100
AcDbEntity
  8
1
100
AcDbPolyline
 90
        8
 70
     0
 43
0.0
 10
-0.1149119076999341
 20
-0.07603513600003
 10
-0.1158889846000193
 20
-0.0968326592000324
 10
-0.1163864627000066
 20
-0.1063706003000391
 10
-0.1168945921999693
 20
-0.1152734578000434
 10
-0.1174151344999927
 20
-0.1235335304999978
 10
-0.1179568801999835
 20
-0.1309903125000176
 10
-0.1185303789999352
 20
-0.1374603467000384
 10
-0.1188010282999699
 20
-0.1401011842000344
  0
LINE
  5
199
330
1F
100
AcDbEntity
  8
1
100
AcDbLine
 10
-0.1139459599999668
 20
-0.0530003383000235
 30
0.0
 11
-0.1149119076999341
 21
-0.07603513600003
 31
0.0
  0
LINE
  5
19A
330
1F
100
AcDbEntity
  8
1
100
AcDbLine
 10
-0.1119975058999785
 20
0.0
 30
0.0
 11
-0.1139459599999668
 21
-0.0530003383000235
 31
0.0
  0
LINE
  5
19B
330
1F
100
AcDbEntity
  8
1
100
AcDbLine
 10
-0.3999999999999772
 20
9.930300614999991
 30
0.0
 11
-2.0
 21
9.930300614999991
 31
0.0
  0
LINE
  5
19C
330
1F
100
AcDbEntity
  8
SK3
100
AcDbLine
 10
-2.399999999999977
 20
13.5
 30
0.0
 11
0.0
 21
13.5
 31
0.0
  0
LINE
  5
19D
330
1F
100
AcDbEntity
  8
1
100
AcDbLine
 10
-2.0
 20
18.19075020259998
 30
0.0
 11
-0.3999999999999772
 21
18.19075020259998
 31
0.0
  0
LINE
  5
19E
330
1F
100
AcDbEntity
  8
1
100
AcDbLine
 10
-0.3999999999999772
 20
13.9085695695
 30
0.0
 11
-2.0
 21
13.9085695695
 31
0.0
  0
LINE
  5
19F
330
1F
100
AcDbEntity
  8
1
100
AcDbLine
 10
-0.3999999999999772
 20
31.24950542579998
 30
0.0
 11
-0.3999999999999772
 21
51.3019607484
 31
0.0
  0
LINE
  5
1A0
330
1F
100
AcDbEntity
  8
1
100
AcDbLine
 10
-2.0
 20
31.24950542579998
 30
0.0
 11
-2.0
 21
51.3019607484
 31
0.0
  0
LINE
  5
1A1
330
1F
100
AcDbEntity
  8
1
100
AcDbLine
 10
-2.09879447749995
 20
31.24950542579998
 30
0.0
 11
-2.0
 21
30.41429883759997
 31
0.0
  0
LINE
  5
1A2
330
1F
100
AcDbEntity
  8
1
100
AcDbLine
 10
-0.3999999999999772
 20
30.41429883759997
 30
0.0
 11
-0.3012055224999699
 21
31.24950542579998
 31
0.0
  0
LINE
  5
1A3
330
1F
100
AcDbEntity
  8
1
100
AcDbLine
 10
-0.1139459599999668
 20
31.1222543527
 30
0.0
 11
-0.1153979673999856
 21
31.08458134049998
 31
0.0
  0
LINE
  5
1A4
330
1F
100
AcDbEntity
  8
1
100
AcDbLine
 10
-2.285088092199996
 20
31.09667093779997
 30
0.0
 11
-2.287021816899937
 21
31.14980956919998
 31
0.0
  0
LINE
  5
1A5
330
1F
100
AcDbEntity
  8
1
100
AcDbLine
 10
-2.0
 20
27.02115811349997
 30
0.0
 11
-0.3999999999999772
 21
27.02115811349997
 31
0.0
  0
LINE
  5
1A6
330
1F
100
AcDbEntity
  8
1
100
AcDbLine
 10
-2.0
 20
27.02112463669996
 30
0.0
 11
-0.3999999999999772
 21
27.02112463669996
 31
0.0
  0
LINE
  5
1A7
330
1F
100
AcDbEntity
  8
1
100
AcDbLine
 10
-2.280867885599944
 20
31.01405564819998
 30
0.0
 11
-2.0
 21
28.63960401409999
 31
0.0
  0
LWPOLYLINE
  5
1A8
330
1F
100
AcDbEntity
  8
1
100
AcDbPolyline
 90
        4
 70
     0
 43
0.0
 10
-2.280867885599944
 20
31.01405564819998
 10
-2.281469620999983
 20
31.02236739599999
 10
-2.282043119799991
 20
31.03131601979999
 10
-2.28258486539994
 20
31.04093396529997
  0
LINE
  5
1A9
330
1F
100
AcDbEntity
  8
1
100
AcDbLine
 10
-2.280867885599944
 20
31.01405564819998
 30
0.0
 11
-2.0
 21
27.5575489595
 31
0.0
  0
LINE
  5
1AA
330
1F
100
AcDbEntity
  8
1
100
AcDbLine
 10
-2.0
 20
30.41429883759997
 30
0.0
 11
-2.0
 21
27.02115811349997
 31
0.0
  0
LINE
  5
1AB
330
1F
100
AcDbEntity
  8
1
100
AcDbLine
 10
-2.28361353729997
 20
31.06179808459998
 30
0.0
 11
-2.285088092199996
 21
31.09667093779997
 31
0.0
  0
LINE
  5
1AC
330
1F
100
AcDbEntity
  8
1
100
AcDbLine
 10
-2.28258486539994
 20
31.04093396529997
 30
0.0
 11
-2.28361353729997
 21
31.06179808459998
 31
0.0
  0
LINE
  5
1AD
330
1F
100
AcDbEntity
  8
1
100
AcDbLine
 10
-0.3999999999999772
 20
27.02115811349997
 30
0.0
 11
-0.3999999999999772
 21
30.41429883759997
 31
0.0
  0
LINE
  5
1AE
330
1F
100
AcDbEntity
  8
1
100
AcDbLine
 10
-0.3999999999999772
 20
28.63960401409999
 30
0.0
 11
-0.1191321142999868
 21
31.01405564819998
 31
0.0
  0
LINE
  5
1AF
330
1F
100
AcDbEntity
  8
1
100
AcDbLine
 10
-0.1191321142999868
 20
31.01405564819998
 30
0.0
 11
-0.3999999999999772
 21
27.5575489595
 31
0.0
  0
LWPOLYLINE
  5
1B0
330
1F
100
AcDbEntity
  8
1
100
AcDbPolyline
 90
        5
 70
     0
 43
0.0
 10
-0.1163864627000066
 20
31.06179808459998
 10
-0.1174151344999927
 20
31.04093396529997
 10
-0.1179568801999835
 20
31.03131601979999
 10
-0.1185303789999352
 20
31.02236739599999
 10
-0.1191321142999868
 20
31.01405564819998
  0
LINE
  5
1B1
330
1F
100
AcDbEntity
  8
1
100
AcDbLine
 10
-0.1153979673999856
 20
31.08458134049998
 30
0.0
 11
-0.1163864627000066
 21
31.06179808459998
 31
0.0
  0
LINE
  5
1B2
330
1F
100
AcDbEntity
  8
1
100
AcDbLine
 10
-0.3999999999999772
 20
35.12586734529998
 30
0.0
 11
-2.0
 21
35.12586734529998
 31
0.0
  0
LINE
  5
1B3
330
1F
100
AcDbEntity
  8
1
100
AcDbLine
 10
-2.09879447749995
 20
31.24950542579998
 30
0.0
 11
-0.3012055224999699
 21
31.24950542579998
 31
0.0
  0
ARC
  5
1B4
330
1F
100
AcDbEntity
  8
1
100
AcDbCircle
 10
-2.799999999999954
 20
32.69282032309996
 30
0.0
 40
0.8
100
AcDbArc
 50
300.0000000000001
 51
0.0
  0
LINE
  5
1B5
330
1F
100
AcDbEntity
  8
1
100
AcDbLine
 10
-2.287021816899937
 20
31.14980956919998
 30
0.0
 11
-2.288002494099941
 21
31.1795199748
 31
0.0
  0
LINE
  5
1B6
330
1F
100
AcDbEntity
  8
1
100
AcDbLine
 10
-2.14352778509999
 20
32.24090984649996
 30
0.0
 11
-2.0
 21
33.26418742479996
 31
0.0
  0
LINE
  5
1B7
330
1F
100
AcDbEntity
  8
1
100
AcDbLine
 10
-2.144468482599959
 20
32.23956639109998
 30
0.0
 11
-2.000737746499964
 21
33.26429090319998
 31
0.0
  0
LWPOLYLINE
  5
1B8
330
1F
100
AcDbEntity
  8
1
100
AcDbPolyline
 90
       11
 70
     0
 43
0.0
 10
-2.288002494099941
 20
31.1795199748
 10
-2.278966817999958
 20
31.19145948409999
 10
-2.267246867299943
 20
31.20252949829998
 10
-2.252719071199976
 20
31.21280257439996
 10
-2.235754142199994
 20
31.22206104159999
 10
-2.216571001299996
 20
31.23014359339999
 10
-2.195501451099969
 20
31.23695369360001
 10
-2.172826343299957
 20
31.24236046189996
 10
-2.148917450300018
 20
31.24630562389997
 10
-2.124298335399998
 20
31.24867454089998
 10
-2.09879447749995
 20
31.24950542579998
  0
ARC
  5
1B9
330
1F
100
AcDbEntity
  8
1
100
AcDbCircle
 10
0.4000000000000341
 20
32.69282032299997
 30
0.0
 40
0.8
100
AcDbArc
 50
180.0
 51
239.9999999999998
  0
LWPOLYLINE
  5
1BA
330
1F
100
AcDbEntity
  8
1
100
AcDbPolyline
 90
       11
 70
     0
 43
0.0
 10
-0.3012055224999699
 20
31.24950542579998
 10
-0.2757016645999784
 20
31.24867454089998
 10
-0.2510825496999587
 20
31.24630562389997
 10
-0.2271736566999607
 20
31.24236046189996
 10
-0.2044985489000055
 20
31.23695369360001
 10
-0.1834289985999931
 20
31.23014359339999
 10
-0.1642458577999832
 20
31.22206104159999
 10
-0.1472809286999563
 20
31.21280257439996
 10
-0.1327531326999747
 20
31.20252949829998
 10
-0.1210331820000192
 20
31.19145948409999
 10
-0.1119975058999785
 20
31.1795199748
  0
LINE
  5
1BB
330
1F
100
AcDbEntity
  8
1
100
AcDbLine
 10
-0.3992622533999679
 20
33.26429090319998
 30
0.0
 11
-0.2555315173999588
 21
32.23956639109998
 31
0.0
  0
LINE
  5
1BC
330
1F
100
AcDbEntity
  8
1
100
AcDbLine
 10
-0.3999999999999772
 20
33.26418742479996
 30
0.0
 11
-0.2564722148999863
 21
32.24090984649996
 31
0.0
  0
LINE
  5
1BD
330
1F
100
AcDbEntity
  8
1
100
AcDbLine
 10
-0.1119975058999785
 20
31.1795199748
 30
0.0
 11
-0.1139459599999668
 21
31.1222543527
 31
0.0
  0
LINE
  5
1BE
330
1F
100
AcDbEntity
  8
1
100
AcDbLine
 10
-0.3999999999999772
 20
41.027525833
 30
0.0
 11
-2.0
 21
41.027525833
 31
0.0
  0
LINE
  5
1BF
330
1F
100
AcDbEntity
  8
1
100
AcDbLine
 10
-0.3999834963999547
 20
54.97036391719996
 30
0.0
 11
-0.1131004110000049
 21
54.00887546699999
 31
0.0
  0
LINE
  5
1C0
330
1F
100
AcDbEntity
  8
1
100
AcDbLine
 10
-0.3999999999999772
 20
54.94525821519999
 30
0.0
 11
-0.1297137161000137
 21
54.03939393349997
 31
0.0
  0
LINE
  5
1C1
330
1F
100
AcDbEntity
  8
1
100
AcDbLine
 10
-0.3999999999999772
 20
54.12573110890001
 30
0.0
 11
-0.3999999999999772
 21
61.83647790749998
 31
0.0
  0
LINE
  5
1C2
330
1F
100
AcDbEntity
  8
1
100
AcDbLine
 10
-2.0
 20
54.12573110890001
 30
0.0
 11
-2.0
 21
61.83647790749998
 31
0.0
  0
LINE
  5
1C3
330
1F
100
AcDbEntity
  8
1
100
AcDbLine
 10
-2.270286283799975
 20
54.03939393349997
 30
0.0
 11
-2.0
 21
54.94525821519999
 31
0.0
  0
LINE
  5
1C4
330
1F
100
AcDbEntity
  8
1
100
AcDbLine
 10
-2.28689958899997
 20
54.00887546699999
 30
0.0
 11
-2.000016503499976
 21
54.97036391719996
 31
0.0
  0
LINE
  5
1C5
330
1F
100
AcDbEntity
  8
1
100
AcDbLine
 10
-2.0
 20
45.38934229539999
 30
0.0
 11
-0.3999999999999772
 21
45.38934229539999
 31
0.0
  0
LINE
  5
1C6
330
1F
100
AcDbEntity
  8
1
100
AcDbLine
 10
-2.09879447749995
 20
54.12573110890001
 30
0.0
 11
-0.3012055224999699
 21
54.12573110890001
 31
0.0
  0
LINE
  5
1C7
330
1F
100
AcDbEntity
  8
1
100
AcDbLine
 10
-2.0
 20
51.30201873199998
 30
0.0
 11
-0.3999999999999772
 21
51.30201873199998
 31
0.0
  0
LINE
  5
1C8
330
1F
100
AcDbEntity
  8
1
100
AcDbLine
 10
-2.0
 20
51.3019607484
 30
0.0
 11
-0.3999999999999772
 21
51.3019607484
 31
0.0
  0
LWPOLYLINE
  5
1C9
330
1F
100
AcDbEntity
  8
1
100
AcDbPolyline
 90
        8
 70
     0
 43
0.0
 10
-2.284042629700024
 20
54.0135756432
 10
-2.284111015399957
 20
54.01361102159999
 10
-2.284602032499945
 20
54.01351625889996
 10
-2.285088092199996
 20
54.01308428259998
 10
-2.285571647300002
 20
54.01235192569998
 10
-2.286054039899966
 20
54.01132646159999
 10
-2.286537007800006
 20
54.01002718130001
 10
-2.286881101299968
 20
54.00893694649997
  0
LINE
  5
1CA
330
1F
100
AcDbEntity
  8
1
100
AcDbLine
 10
-2.09879447749995
 20
54.12573110890001
 30
0.0
 11
-2.0
 21
53.56797579549999
 31
0.0
  0
LINE
  5
1CB
330
1F
100
AcDbEntity
  8
1
100
AcDbLine
 10
-2.280867885599944
 20
53.86092491709999
 30
0.0
 11
-2.0
 21
52.27525373819998
 31
0.0
  0
LINE
  5
1CC
330
1F
100
AcDbEntity
  8
1
100
AcDbLine
 10
-2.286537007800006
 20
53.96938486199999
 30
0.0
 11
-2.288002494099941
 21
54.00451275200001
 31
0.0
  0
LINE
  5
1CD
330
1F
100
AcDbEntity
  8
1
100
AcDbLine
 10
-2.284602032499945
 20
53.9267952363
 30
0.0
 11
-2.286537007800006
 21
53.96938486199999
 31
0.0
  0
LINE
  5
1CE
330
1F
100
AcDbEntity
  8
1
100
AcDbLine
 10
-2.283105407800007
 20
53.89739767619997
 30
0.0
 11
-2.284602032499945
 21
53.9267952363
 31
0.0
  0
LINE
  5
1CF
330
1F
100
AcDbEntity
  8
1
100
AcDbLine
 10
-2.282043119799991
 20
53.87880628439996
 30
0.0
 11
-2.283105407800007
 21
53.89739767619997
 31
0.0
  0
LWPOLYLINE
  5
1D0
330
1F
100
AcDbEntity
  8
1
100
AcDbPolyline
 90
        3
 70
     0
 43
0.0
 10
-2.0
 20
49.9734531071
 10
-2.281469620999983
 20
53.86977684769999
 10
-2.282043119799991
 20
53.87880628439996
  0
LINE
  5
1D1
330
1F
100
AcDbEntity
  8
1
100
AcDbLine
 10
-2.0
 20
53.56797579549999
 30
0.0
 11
-2.0
 21
51.30201873199998
 31
0.0
  0
LWPOLYLINE
  5
1D2
330
1F
100
AcDbEntity
  8
1
100
AcDbPolyline
 90
       11
 70
     0
 43
0.0
 10
-2.288002494099941
 20
54.00451275200001
 10
-2.278966817999958
 20
54.02519258869998
 10
-2.267246867299943
 20
54.04436641579997
 10
-2.252719071199976
 20
54.06215990549998
 10
-2.235754142199994
 20
54.07819604099998
 10
-2.216571001299996
 20
54.0921954314
 10
-2.195501451099969
 20
54.10399087099996
 10
-2.172826343299957
 20
54.1133556684
 10
-2.148917450300018
 20
54.12018888950001
 10
-2.124298335399998
 20
54.12429197409998
 10
-2.09879447749995
 20
54.12573110890001
  0
LWPOLYLINE
  5
1D3
330
1F
100
AcDbEntity
  8
1
100
AcDbPolyline
 90
       11
 70
     0
 43
0.0
 10
-0.3012055224999699
 20
54.12573110890001
 10
-0.2757016645999784
 20
54.12429197409998
 10
-0.2510825496999587
 20
54.12018888950001
 10
-0.2271736566999607
 20
54.1133556684
 10
-0.2044985489000055
 20
54.10399087099996
 10
-0.1834289985999931
 20
54.0921954314
 10
-0.1642458577999832
 20
54.07819604099998
 10
-0.1472809286999563
 20
54.06215990549998
 10
-0.1327531326999747
 20
54.04436641579997
 10
-0.1210331820000192
 20
54.02519258869998
 10
-0.1119975058999785
 20
54.00451275200001
  0
LWPOLYLINE
  5
1D4
330
1F
100
AcDbEntity
  8
1
100
AcDbPolyline
 90
        8
 70
     0
 43
0.0
 10
-0.1131188985999643
 20
54.00893694649997
 10
-0.1134629920999828
 20
54.01002718130001
 10
-0.1139459599999668
 20
54.01132646159999
 10
-0.1144283525999867
 20
54.01235192569998
 10
-0.1149119076999341
 20
54.01308428259998
 10
-0.1153979673999856
 20
54.01351625889996
 10
-0.1158889846000193
 20
54.01361102159999
 10
-0.1159573702999523
 20
54.0135756432
  0
LINE
  5
1D5
330
1F
100
AcDbEntity
  8
1
100
AcDbLine
 10
-0.3999999999999772
 20
51.30201873199998
 30
0.0
 11
-0.3999999999999772
 21
53.56797579549999
 31
0.0
  0
LINE
  5
1D6
330
1F
100
AcDbEntity
  8
1
100
AcDbLine
 10
-0.1185303789999352
 20
53.86977684769999
 30
0.0
 11
-0.3999999999999772
 21
49.9734531071
 31
0.0
  0
LWPOLYLINE
  5
1D7
330
1F
100
AcDbEntity
  8
1
100
AcDbPolyline
 90
        3
 70
     0
 43
0.0
 10
-0.1168945921999693
 20
53.89739767619997
 10
-0.1179568801999835
 20
53.87880628439996
 10
-0.1185303789999352
 20
53.86977684769999
  0
LINE
  5
1D8
330
1F
100
AcDbEntity
  8
1
100
AcDbLine
 10
-0.1158889846000193
 20
53.91677836239998
 30
0.0
 11
-0.1168945921999693
 21
53.89739767619997
 31
0.0
  0
LINE
  5
1D9
330
1F
100
AcDbEntity
  8
1
100
AcDbLine
 10
-0.1144283525999867
 20
53.94755282649995
 30
0.0
 11
-0.1158889846000193
 21
53.91677836239998
 31
0.0
  0
LINE
  5
1DA
330
1F
100
AcDbEntity
  8
1
100
AcDbLine
 10
-0.1119975058999785
 20
54.00451275200001
 30
0.0
 11
-0.1144283525999867
 21
53.94755282649995
 31
0.0
  0
LINE
  5
1DB
330
1F
100
AcDbEntity
  8
1
100
AcDbLine
 10
-0.3999999999999772
 20
52.27525373819998
 30
0.0
 11
-0.1191321142999868
 21
53.86092491709999
 31
0.0
  0
LINE
  5
1DC
330
1F
100
AcDbEntity
  8
1
100
AcDbLine
 10
-0.3999999999999772
 20
53.56797579549999
 30
0.0
 11
-0.3012055224999699
 21
54.12573110890001
 31
0.0
  0
LINE
  5
1DD
330
1F
100
AcDbEntity
  8
1
100
AcDbLine
 10
-2.0
 20
58.99901085169997
 30
0.0
 11
-2.288002494099941
 21
62.35903994959997
 31
0.0
  0
LINE
  5
1DE
330
1F
100
AcDbEntity
  8
1
100
AcDbLine
 10
-0.1119975058999785
 20
62.35903994959997
 30
0.0
 11
-0.3999999999999772
 21
58.99901085169997
 31
0.0
  0
LINE
  5
1DF
330
1F
100
AcDbEntity
  8
1
100
AcDbLine
 10
-0.3999999999999772
 20
57.153189682
 30
0.0
 11
-2.0
 21
57.153189682
 31
0.0
  0
LINE
  5
1E0
330
1F
100
AcDbEntity
  8
1
100
AcDbLine
 10
-2.09879447749995
 20
62.49901085169997
 30
0.0
 11
-0.3012055224999699
 21
62.49901085169997
 31
0.0
  0
LINE
  5
1E1
330
1F
100
AcDbEntity
  8
1
100
AcDbLine
 10
-2.0
 20
61.8365448611
 30
0.0
 11
-0.3999999999999772
 21
61.8365448611
 31
0.0
  0
LINE
  5
1E2
330
1F
100
AcDbEntity
  8
1
100
AcDbLine
 10
-2.0
 20
61.83647790749998
 30
0.0
 11
-0.3999999999999772
 21
61.83647790749998
 31
0.0
  0
LINE
  5
1E3
330
1F
100
AcDbEntity
  8
1
100
AcDbLine
 10
-2.0
 20
60.42589677509996
 30
0.0
 11
-0.3999999999999772
 21
60.42589677509996
 31
0.0
  0
LINE
  5
1E4
330
1F
100
AcDbEntity
  8
1
100
AcDbLine
 10
-2.09879447749995
 20
62.49901085169997
 30
0.0
 11
-2.0
 21
62.36815689880001
 31
0.0
  0
LINE
  5
1E5
330
1F
100
AcDbEntity
  8
1
100
AcDbLine
 10
-2.280867885599944
 20
62.27580285089999
 30
0.0
 11
-2.0
 21
61.90379143889996
 31
0.0
  0
LINE
  5
1E6
330
1F
100
AcDbEntity
  8
1
100
AcDbLine
 10
-2.0
 20
62.36815689880001
 30
0.0
 11
-2.0
 21
61.8365448611
 31
0.0
  0
LWPOLYLINE
  5
1E7
330
1F
100
AcDbEntity
  8
1
100
AcDbPolyline
 90
       11
 70
     0
 43
0.0
 10
-2.288002494099941
 20
62.35903994959997
 10
-2.278966817999958
 20
62.38291896819998
 10
-2.267246867299943
 20
62.40505899659999
 10
-2.252719071199976
 20
62.4256051488
 10
-2.235754142199994
 20
62.44412208319999
 10
-2.216571001299996
 20
62.4602871868
 10
-2.195501451099969
 20
62.47390738719996
 10
-2.172826343299957
 20
62.48472092380001
 10
-2.148917450300018
 20
62.49261124779997
 10
-2.124298335399998
 20
62.49734908189997
 10
-2.09879447749995
 20
62.49901085169997
  0
LWPOLYLINE
  5
1E8
330
1F
100
AcDbEntity
  8
1
100
AcDbPolyline
 90
       11
 70
     0
 43
0.0
 10
-0.3012055224999699
 20
62.49901085169997
 10
-0.2757016645999784
 20
62.49734908189997
 10
-0.2510825496999587
 20
62.49261124779997
 10
-0.2271736566999607
 20
62.48472092380001
 10
-0.2044985489000055
 20
62.47390738719996
 10
-0.1834289985999931
 20
62.4602871868
 10
-0.1642458577999832
 20
62.44412208319999
 10
-0.1472809286999563
 20
62.4256051488
 10
-0.1327531326999747
 20
62.40505899659999
 10
-0.1210331820000192
 20
62.38291896819998
 10
-0.1119975058999785
 20
62.35903994959997
  0
LINE
  5
1E9
330
1F
100
AcDbEntity
  8
1
100
AcDbLine
 10
-0.3999999999999772
 20
61.8365448611
 30
0.0
 11
-0.3999999999999772
 21
62.36815689880001
 31
0.0
  0
LINE
  5
1EA
330
1F
100
AcDbEntity
  8
1
100
AcDbLine
 10
-0.3999999999999772
 20
61.90379143889996
 30
0.0
 11
-0.1191321142999868
 21
62.27580285089999
 31
0.0
  0
LINE
  5
1EB
330
1F
100
AcDbEntity
  8
1
100
AcDbLine
 10
-0.3999999999999772
 20
62.36815689880001
 30
0.0
 11
-0.3012055224999699
 21
62.49901085169997
 31
0.0
  0
MTEXT
  5
2A4
330
1F
100
AcDbEntity
  8
6
100
AcDbMText
 10
4.910677973036511
 20
60.13312204863663
 30
0.0
 40
3.5
 41
0.8
 71
     1
 72
     5
  1
GCXF082202N
 73
     1
 44
1.0
  0
MTEXT
  5
2A5
330
1F
100
AcDbEntity
  8
6
100
AcDbMText
 10
16.26348169387211
 20
-6.028246716104744
 30
0.0
 40
3.5
 41
0.8
 71
     1
 72
     5
  1
Z=12
 11
0.0000000000000001
 21
1.0
 31
0.0
 73
     1
 44
1.0
  0
LINE
  5
2FF
330
1F
100
AcDbEntity
  8
CUT
100
AcDbLine
 10
-0.1119975058999785
 20
62.35903994959997
 30
0.0
 11
-0.3999999999999772
 21
58.99901085169997
 31
0.0
  0
LWPOLYLINE
  5
300
330
1F
100
AcDbEntity
  8
CUT
100
AcDbPolyline
 90
       11
 70
     0
 43
0.0
 10
-0.1119975058999785
 20
62.35903994959997
 10
-0.1210331819999908
 20
62.38291896819998
 10
-0.1327531326999747
 20
62.40505899669997
 10
-0.1472809286999848
 20
62.42560514889998
 10
-0.1642458577999832
 20
62.44412208319999
 10
-0.1834289985999931
 20
62.46028718679994
 10
-0.2044985488999771
 20
62.47390738719996
 10
-0.2271736566999607
 20
62.48472092379993
 10
-0.2510825496999587
 20
62.49261124789995
 10
-0.2757016645999784
 20
62.49734908189997
 10
-0.3012055224999699
 20
62.49901085169997
  0
LINE
  5
301
330
1F
100
AcDbEntity
  8
CUT
100
AcDbLine
 10
-2.28800249409997
 20
62.35903994959997
 30
0.0
 11
-1.999999999999971
 21
58.99901085169997
 31
0.0
  0
LWPOLYLINE
  5
302
330
1F
100
AcDbEntity
  8
CUT
100
AcDbPolyline
 90
       11
 70
     0
 43
0.0
 10
-2.098794477499978
 20
62.49901085169997
 10
-2.124298335399941
 20
62.49734908189997
 10
-2.14891745029996
 20
62.49261124789995
 10
-2.172826343299958
 20
62.48472092379993
 10
-2.1955014511
 20
62.47390738719996
 10
-2.216571001399983
 20
62.46028718679994
 10
-2.235754142199964
 20
62.44412208319999
 10
-2.252719071199976
 20
62.42560514889998
 10
-2.267246867299974
 20
62.40505899669997
 10
-2.278966817999986
 20
62.38291896819998
 10
-2.28800249409997
 20
62.35903994959997
  0
LINE
  5
303
330
1F
100
AcDbEntity
  8
CUT
100
AcDbLine
 10
-0.3999999999999772
 20
58.99901085169997
 30
0.0
 11
-1.999999999999971
 21
58.99901085169997
 31
0.0
  0
LINE
  5
304
330
1F
100
AcDbEntity
  8
CUT
100
AcDbLine
 10
-0.3012055224999699
 20
62.49901085169997
 30
0.0
 11
-2.098794477499978
 21
62.49901085169997
 31
0.0
  0
LWPOLYLINE
  5
320
330
1F
100
AcDbEntity
  8
NOCUT
100
AcDbPolyline
 90
        8
 70
     0
 43
0.0
 10
-0.4000000000001052
 20
-58.99901085133859
 10
-0.399999999999963
 20
-32.692820323
 42
-0.2679491924311223
 10
0.0
 20
-32.0
 10
0.0
 20
0.0
 10
-2.399999999999977
 20
0.0
 10
-2.399999999999948
 20
-31.99999999997244
 42
-0.267949192431122
 10
-2.0
 20
-32.692820323
 10
-2.0
 20
-58.99901085260939
  0
LWPOLYLINE
  5
321
330
1F
100
AcDbEntity
  8
NOCUT
100
AcDbPolyline
 90
       26
 70
     0
 43
0.0
 10
-2.0
 20
-32.69282032299996
 10
-2.0
 20
-58.99901085260939
 10
-2.288002494099941
 20
-62.35903994950001
 10
-2.278966817999958
 20
-62.3829189681
 10
-2.267246867299945
 20
-62.4050589966
 10
-2.252719071199976
 20
-62.4256051488
 10
-2.235754142199994
 20
-62.4441220831
 10
-2.216571001299996
 20
-62.4602871867
 10
-2.195501451099971
 20
-62.47390738710001
 10
-2.172826343299959
 20
-62.48472092370001
 10
-2.148917450300018
 20
-62.49261124780002
 10
-2.124298335399998
 20
-62.4973490818
 10
-2.09879447749995
 20
-62.49901085160001
 10
-0.3012055224999699
 20
-62.49901085160001
 10
-0.2757016645999784
 20
-62.4973490818
 10
-0.2510825496999587
 20
-62.49261124780002
 10
-0.2271736566999607
 20
-62.48472092370001
 10
-0.2044985489000055
 20
-62.47390738710001
 10
-0.1834289985999931
 20
-62.4602871867
 10
-0.1642458577999832
 20
-62.4441220831
 10
-0.1472809286999563
 20
-62.4256051488
 10
-0.1327531326999747
 20
-62.4050589966
 10
-0.1210331820000192
 20
-62.3829189681
 10
-0.1119975058999785
 20
-62.35903994950001
 10
-0.3999999999999772
 20
-58.99901085134009
 10
-0.3999999999999772
 20
-32.6928203230138
  0
LWPOLYLINE
  5
322
330
1F
100
AcDbEntity
  8
NOCUT
100
AcDbPolyline
 90
        2
 70
     0
 43
0.0
 10
-2.0
 20
-54.97041922866805
 10
-2.0
 20
-55.8020187319
  0
LWPOLYLINE
  5
323
330
1F
100
AcDbEntity
  8
NOCUT
100
AcDbPolyline
 90
        2
 70
     0
 43
0.0
 10
-0.3999999999999772
 20
-55.8020187319
 10
-0.3999999999999772
 20
-54.97041922900337
  0
ENDSEC
  0
SECTION
  2
OBJECTS
  0
DICTIONARY
  5
C
330
0
100
AcDbDictionary
281
     1
  3
ACAD_GROUP
350
D
  3
ACAD_LAYOUT
350
1A
  3
ACAD_MLINESTYLE
350
17
  3
ACAD_PLOTSETTINGS
350
19
  3
ACAD_PLOTSTYLENAME
350
E
  0
DICTIONARY
  5
D
102
{ACAD_REACTORS
330
C
102
}
330
C
100
AcDbDictionary
281
     1
  0
DICTIONARY
  5
1A
102
{ACAD_REACTORS
330
C
102
}
330
C
100
AcDbDictionary
281
     1
  3
Layout1
350
1E
  3
Layout2
350
26
  3
Model
350
22
  0
DICTIONARY
  5
17
102
{ACAD_REACTORS
330
C
102
}
330
C
100
AcDbDictionary
281
     1
  3
Standard
350
18
  0
DICTIONARY
  5
19
102
{ACAD_REACTORS
330
C
102
}
330
C
100
AcDbDictionary
281
     1
  0
ACDBDICTIONARYWDFLT
  5
E
102
{ACAD_REACTORS
330
C
102
}
330
C
100
AcDbDictionary
281
     1
  3
Normal
350
F
100
AcDbDictionaryWithDefault
340
F
  0
LAYOUT
  5
1E
102
{ACAD_REACTORS
330
1A
102
}
330
1A
100
AcDbPlotSettings
  1

  2
\\ingdom02\ITB2
  4

  6

 40
0.0
 41
0.0
 42
0.0
 43
0.0
 44
0.0
 45
0.0
 46
0.0
 47
0.0
 48
0.0
 49
0.0
140
0.0
141
0.0
142
1.0
143
1.0
 70
   688
 72
     0
 73
     0
 74
     5
  7

 75
    16
147
1.0
148
0.0
149
0.0
100
AcDbLayout
  1
Layout1
 70
     1
 71
     1
 10
0.0
 20
0.0
 11
420.0
 21
297.0
 12
0.0
 22
0.0
 32
0.0
 14
1.000000000000000E+20
 24
1.000000000000000E+20
 34
1.000000000000000E+20
 15
-1.000000000000000E+20
 25
-1.000000000000000E+20
 35
-1.000000000000000E+20
146
0.0
 13
0.0
 23
0.0
 33
0.0
 16
1.0
 26
0.0
 36
0.0
 17
0.0
 27
1.0
 37
0.0
 76
     0
330
1B
  0
LAYOUT
  5
26
102
{ACAD_REACTORS
330
1A
102
}
330
1A
100
AcDbPlotSettings
  1

  2
\\ingdom02\ITB2
  4

  6

 40
0.0
 41
0.0
 42
0.0
 43
0.0
 44
0.0
 45
0.0
 46
0.0
 47
0.0
 48
0.0
 49
0.0
140
0.0
141
0.0
142
1.0
143
1.0
 70
   688
 72
     0
 73
     0
 74
     5
  7

 75
    16
147
1.0
148
0.0
149
0.0
100
AcDbLayout
  1
Layout2
 70
     1
 71
     2
 10
0.0
 20
0.0
 11
12.0
 21
9.0
 12
0.0
 22
0.0
 32
0.0
 14
0.0
 24
0.0
 34
0.0
 15
0.0
 25
0.0
 35
0.0
146
0.0
 13
0.0
 23
0.0
 33
0.0
 16
1.0
 26
0.0
 36
0.0
 17
0.0
 27
1.0
 37
0.0
 76
     0
330
23
  0
LAYOUT
  5
22
102
{ACAD_REACTORS
330
1A
102
}
330
1A
100
AcDbPlotSettings
  1

  2
\\ingdom02\ITB2
  4

  6

 40
0.0
 41
0.0
 42
0.0
 43
0.0
 44
0.0
 45
0.0
 46
0.0
 47
0.0
 48
0.0
 49
0.0
140
0.0
141
0.0
142
1.0
143
1.0
 70
  1712
 72
     0
 73
     0
 74
     0
  7

 75
     0
147
1.0
148
0.0
149
0.0
100
AcDbLayout
  1
Model
 70
     1
 71
     0
 10
0.0
 20
0.0
 11
12.0
 21
9.0
 12
0.0
 22
0.0
 32
0.0
 14
0.0
 24
0.0
 34
0.0
 15
0.0
 25
0.0
 35
0.0
146
0.0
 13
0.0
 23
0.0
 33
0.0
 16
1.0
 26
0.0
 36
0.0
 17
0.0
 27
1.0
 37
0.0
 76
     0
330
1F
  0
MLINESTYLE
  5
18
102
{ACAD_REACTORS
330
17
102
}
330
17
100
AcDbMlineStyle
  2
STANDARD
 70
     0
  3

 62
   256
 51
90.0
 52
90.0
 71
     2
 49
0.5
 62
   256
  6
BYLAYER
 49
-0.5
 62
   256
  6
BYLAYER
  0
ACDBPLACEHOLDER
  5
F
102
{ACAD_REACTORS
330
E
102
}
330
E
  0
ENDSEC
  0
EOF
