  0
SECTION
  2
HEADER
  9
$ACADVER
  1
AC1015
  9
$ACADMAINTVER
 70
    10
  9
$DWGCODEPAGE
  3
ANSI_1252
  9
$INSBASE
 10
0.0
 20
0.0
 30
0.0
  9
$EXTMIN
 10
-32.01977228925136
 20
-50.0128448895847
 30
-0.0000000000112498
  9
$EXTMAX
 10
37.70954321194995
 20
72.72141227659734
 30
0.0000000000002956
  9
$LIMMIN
 10
0.0
 20
0.0
  9
$LIMMAX
 10
420.0
 20
297.0
  9
$ORTHOMODE
 70
     0
  9
$REGENMODE
 70
     1
  9
$FILLMODE
 70
     1
  9
$QTEXTMODE
 70
     0
  9
$MIRRTEXT
 70
     1
  9
$LTSCALE
 40
5.0
  9
$ATTMODE
 70
     1
  9
$TEXTSIZE
 40
3.5
  9
$TRACEWID
 40
1.0
  9
$TEXTSTYLE
  7
Standard
  9
$CLAYER
  8
0
  9
$CELTYPE
  6
ByLayer
  9
$CECOLOR
 62
   256
  9
$CELTSCALE
 40
1.0
  9
$DISPSILH
 70
     0
  9
$DIMSCALE
 40
1.0
  9
$DIMASZ
 40
2.5
  9
$DIMEXO
 40
0.625
  9
$DIMDLI
 40
3.75
  9
$DIMRND
 40
0.0
  9
$DIMDLE
 40
0.0
  9
$DIMEXE
 40
1.25
  9
$DIMTP
 40
0.0
  9
$DIMTM
 40
0.0
  9
$DIMTXT
 40
2.5
  9
$DIMCEN
 40
2.5
  9
$DIMTSZ
 40
0.0
  9
$DIMTOL
 70
     0
  9
$DIMLIM
 70
     0
  9
$DIMTIH
 70
     0
  9
$DIMTOH
 70
     0
  9
$DIMSE1
 70
     0
  9
$DIMSE2
 70
     0
  9
$DIMTAD
 70
     1
  9
$DIMZIN
 70
     8
  9
$DIMBLK
  1

  9
$DIMASO
 70
     1
  9
$DIMSHO
 70
     1
  9
$DIMPOST
  1

  9
$DIMAPOST
  1

  9
$DIMALT
 70
     0
  9
$DIMALTD
 70
     3
  9
$DIMALTF
 40
0.03937007874016
  9
$DIMLFAC
 40
1.0
  9
$DIMTOFL
 70
     1
  9
$DIMTVP
 40
0.0
  9
$DIMTIX
 70
     0
  9
$DIMSOXD
 70
     0
  9
$DIMSAH
 70
     0
  9
$DIMBLK1
  1

  9
$DIMBLK2
  1

  9
$DIMSTYLE
  2
ISO-25
  9
$DIMCLRD
 70
     0
  9
$DIMCLRE
 70
     0
  9
$DIMCLRT
 70
     0
  9
$DIMTFAC
 40
1.0
  9
$DIMGAP
 40
0.625
  9
$DIMJUST
 70
     0
  9
$DIMSD1
 70
     0
  9
$DIMSD2
 70
     0
  9
$DIMTOLJ
 70
     0
  9
$DIMTZIN
 70
     8
  9
$DIMALTZ
 70
     0
  9
$DIMALTTZ
 70
     0
  9
$DIMUPT
 70
     0
  9
$DIMDEC
 70
     2
  9
$DIMTDEC
 70
     2
  9
$DIMALTU
 70
     2
  9
$DIMALTTD
 70
     3
  9
$DIMTXSTY
  7
Standard
  9
$DIMAUNIT
 70
     0
  9
$DIMADEC
 70
     0
  9
$DIMALTRND
 40
0.0
  9
$DIMAZIN
 70
     0
  9
$DIMDSEP
 70
    44
  9
$DIMATFIT
 70
     3
  9
$DIMFRAC
 70
     0
  9
$DIMLDRBLK
  1

  9
$DIMLUNIT
 70
     2
  9
$DIMLWD
 70
    -2
  9
$DIMLWE
 70
    -2
  9
$DIMTMOVE
 70
     0
  9
$LUNITS
 70
     2
  9
$LUPREC
 70
     4
  9
$SKETCHINC
 40
1.0
  9
$FILLETRAD
 40
10.0
  9
$AUNITS
 70
     0
  9
$AUPREC
 70
     0
  9
$MENU
  1
.
  9
$ELEVATION
 40
0.0
  9
$PELEVATION
 40
0.0
  9
$THICKNESS
 40
0.0
  9
$LIMCHECK
 70
     0
  9
$CHAMFERA
 40
10.0
  9
$CHAMFERB
 40
10.0
  9
$CHAMFERC
 40
20.0
  9
$CHAMFERD
 40
0.0
  9
$SKPOLY
 70
     0
  9
$TDCREATE
 40
2454228.367034988
  9
$TDUCREATE
 40
2454228.283701655
  9
$TDUPDATE
 40
2454228.629714954
  9
$TDUUPDATE
 40
2454228.546381620
  9
$TDINDWG
 40
0.0023934375
  9
$TDUSRTIMER
 40
0.0023932639
  9
$USRTIMER
 70
     1
  9
$ANGBASE
 50
0.0
  9
$ANGDIR
 70
     0
  9
$PDMODE
 70
     0
  9
$PDSIZE
 40
0.0
  9
$PLINEWID
 40
0.0
  9
$SPLFRAME
 70
     0
  9
$SPLINETYPE
 70
     6
  9
$SPLINESEGS
 70
     8
  9
$HANDSEED
  5
2F7
  9
$SURFTAB1
 70
     6
  9
$SURFTAB2
 70
     6
  9
$SURFTYPE
 70
     6
  9
$SURFU
 70
     6
  9
$SURFV
 70
     6
  9
$UCSBASE
  2

  9
$UCSNAME
  2

  9
$UCSORG
 10
0.0
 20
0.0
 30
0.0
  9
$UCSXDIR
 10
1.0
 20
0.0
 30
0.0
  9
$UCSYDIR
 10
0.0
 20
1.0
 30
0.0
  9
$UCSORTHOREF
  2

  9
$UCSORTHOVIEW
 70
     0
  9
$UCSORGTOP
 10
0.0
 20
0.0
 30
0.0
  9
$UCSORGBOTTOM
 10
0.0
 20
0.0
 30
0.0
  9
$UCSORGLEFT
 10
0.0
 20
0.0
 30
0.0
  9
$UCSORGRIGHT
 10
0.0
 20
0.0
 30
0.0
  9
$UCSORGFRONT
 10
0.0
 20
0.0
 30
0.0
  9
$UCSORGBACK
 10
0.0
 20
0.0
 30
0.0
  9
$PUCSBASE
  2

  9
$PUCSNAME
  2

  9
$PUCSORG
 10
0.0
 20
0.0
 30
0.0
  9
$PUCSXDIR
 10
1.0
 20
0.0
 30
0.0
  9
$PUCSYDIR
 10
0.0
 20
1.0
 30
0.0
  9
$PUCSORTHOREF
  2

  9
$PUCSORTHOVIEW
 70
     0
  9
$PUCSORGTOP
 10
0.0
 20
0.0
 30
0.0
  9
$PUCSORGBOTTOM
 10
0.0
 20
0.0
 30
0.0
  9
$PUCSORGLEFT
 10
0.0
 20
0.0
 30
0.0
  9
$PUCSORGRIGHT
 10
0.0
 20
0.0
 30
0.0
  9
$PUCSORGFRONT
 10
0.0
 20
0.0
 30
0.0
  9
$PUCSORGBACK
 10
0.0
 20
0.0
 30
0.0
  9
$USERI1
 70
     0
  9
$USERI2
 70
     0
  9
$USERI3
 70
     0
  9
$USERI4
 70
     0
  9
$USERI5
 70
     0
  9
$USERR1
 40
0.0
  9
$USERR2
 40
0.0
  9
$USERR3
 40
0.0
  9
$USERR4
 40
0.0
  9
$USERR5
 40
0.0
  9
$WORLDVIEW
 70
     1
  9
$SHADEDGE
 70
     3
  9
$SHADEDIF
 70
    70
  9
$TILEMODE
 70
     1
  9
$MAXACTVP
 70
    64
  9
$PINSBASE
 10
0.0
 20
0.0
 30
0.0
  9
$PLIMCHECK
 70
     0
  9
$PEXTMIN
 10
1.000000000000000E+20
 20
1.000000000000000E+20
 30
1.000000000000000E+20
  9
$PEXTMAX
 10
-1.000000000000000E+20
 20
-1.000000000000000E+20
 30
-1.000000000000000E+20
  9
$PLIMMIN
 10
0.0
 20
0.0
  9
$PLIMMAX
 10
420.0
 20
297.0
  9
$UNITMODE
 70
     0
  9
$VISRETAIN
 70
     1
  9
$PLINEGEN
 70
     0
  9
$PSLTSCALE
 70
     1
  9
$TREEDEPTH
 70
  3020
  9
$CMLSTYLE
  2
Standard
  9
$CMLJUST
 70
     0
  9
$CMLSCALE
 40
20.0
  9
$PROXYGRAPHICS
 70
     1
  9
$MEASUREMENT
 70
     1
  9
$CELWEIGHT
370
    -1
  9
$ENDCAPS
280
     0
  9
$JOINSTYLE
280
     0
  9
$LWDISPLAY
290
     0
  9
$INSUNITS
 70
     4
  9
$HYPERLINKBASE
  1

  9
$STYLESHEET
  1

  9
$XEDIT
290
     1
  9
$CEPSNTYPE
380
     0
  9
$PSTYLEMODE
290
     1
  9
$FINGERPRINTGUID
  2
{17C5C7FF-74C5-48F7-9983-4D6EBF0B60A4}
  9
$VERSIONGUID
  2
{F183CFE8-2545-44AB-87CE-85C40C639024}
  9
$EXTNAMES
290
     1
  9
$PSVPSCALE
 40
0.0
  9
$OLESTARTUP
290
     0
  0
ENDSEC
  0
SECTION
  2
CLASSES
  0
CLASS
  1
ACDBDICTIONARYWDFLT
  2
AcDbDictionaryWithDefault
  3
AutoCAD 2000
 90
        0
280
     0
281
     0
  0
CLASS
  1
ACDBPLACEHOLDER
  2
AcDbPlaceHolder
  3
AutoCAD 2000
 90
        0
280
     0
281
     0
  0
CLASS
  1
LAYOUT
  2
AcDbLayout
  3
AutoCAD 2000
 90
        0
280
     0
281
     0
  0
ENDSEC
  0
SECTION
  2
TABLES
  0
TABLE
  2
VPORT
  5
8
330
0
100
AcDbSymbolTable
 70
     3
  0
VPORT
  5
2F6
330
8
100
AcDbSymbolTableRecord
100
AcDbViewportTableRecord
  2
*Active
 70
     0
 10
0.0
 20
0.0
 11
1.0
 21
1.0
 12
2.844885461349292
 22
11.35428369350631
 13
0.0
 23
0.0
 14
10.0
 24
10.0
 15
10.0
 25
10.0
 16
0.0
 26
0.0
 36
1.0
 17
0.0
 27
0.0
 37
0.0
 40
124.5436073946761
 41
2.423645320197044
 42
50.0
 43
0.0
 44
0.0
 50
0.0
 51
0.0
 71
     0
 72
   100
 73
     1
 74
     3
 75
     0
 76
     0
 77
     0
 78
     0
281
     0
 65
     1
110
0.0
120
0.0
130
0.0
111
1.0
121
0.0
131
0.0
112
0.0
122
1.0
132
0.0
 79
     0
146
0.0
  0
ENDTAB
  0
TABLE
  2
LTYPE
  5
5
330
0
100
AcDbSymbolTable
 70
     3
  0
LTYPE
  5
14
330
5
100
AcDbSymbolTableRecord
100
AcDbLinetypeTableRecord
  2
ByBlock
 70
     0
  3

 72
    65
 73
     0
 40
0.0
  0
LTYPE
  5
15
330
5
100
AcDbSymbolTableRecord
100
AcDbLinetypeTableRecord
  2
ByLayer
 70
     0
  3

 72
    65
 73
     0
 40
0.0
  0
LTYPE
  5
16
330
5
100
AcDbSymbolTableRecord
100
AcDbLinetypeTableRecord
  2
Continuous
 70
     0
  3
Solid line
 72
    65
 73
     0
 40
0.0
  0
LTYPE
  5
78
330
5
100
AcDbSymbolTableRecord
100
AcDbLinetypeTableRecord
  2
CENTER
 70
     0
  3
____ _ ____ _ ____ _ ____ _ ____ _ ____ _ ____
 72
    65
 73
     4
 40
0.6
 49
0.375
 74
     0
 49
-0.075
 74
     0
 49
0.075
 74
     0
 49
-0.075
 74
     0
  0
LTYPE
  5
79
330
5
100
AcDbSymbolTableRecord
100
AcDbLinetypeTableRecord
  2
HIDDEN
 70
     0
  3
- - - - - - - - - - - - - - - - - - - -
 72
    65
 73
     2
 40
0.2
 49
0.1
 74
     0
 49
-0.1
 74
     0
  0
ENDTAB
  0
TABLE
  2
LAYER
  5
2
330
0
100
AcDbSymbolTable
 70
    10
  0
LAYER
  5
10
330
2
100
AcDbSymbolTableRecord
100
AcDbLayerTableRecord
  2
0
 70
     0
 62
     7
  6
Continuous
370
    -3
390
F
  0
LAYER
  5
7C
330
2
100
AcDbSymbolTableRecord
100
AcDbLayerTableRecord
  2
Defpoints
 70
     0
 62
     7
  6
Continuous
290
     0
370
    -3
390
F
  0
LAYER
  5
7D
330
2
100
AcDbSymbolTableRecord
100
AcDbLayerTableRecord
  2
1
 70
     0
 62
     4
  6
Continuous
370
    -3
390
F
  0
LAYER
  5
7E
330
2
100
AcDbSymbolTableRecord
100
AcDbLayerTableRecord
  2
SK3
 70
     0
 62
     1
  6
HIDDEN
370
    -3
390
F
  0
LAYER
  5
7F
330
2
100
AcDbSymbolTableRecord
100
AcDbLayerTableRecord
  2
4
 70
     0
 62
     2
  6
CENTER
370
    -3
390
F
  0
LAYER
  5
80
330
2
100
AcDbSymbolTableRecord
100
AcDbLayerTableRecord
  2
6
 70
     0
 62
     5
  6
Continuous
370
    -3
390
F
  0
LAYER
  5
81
330
2
100
AcDbSymbolTableRecord
100
AcDbLayerTableRecord
  2
SK2
 70
     0
 62
     7
  6
Continuous
370
    -3
390
F
  0
LAYER
  5
82
330
2
100
AcDbSymbolTableRecord
100
AcDbLayerTableRecord
  2
2
 70
     0
 62
     7
  6
Continuous
370
    -3
390
F
  0
LAYER
  5
2D1
330
2
100
AcDbSymbolTableRecord
100
AcDbLayerTableRecord
  2
CUT
 70
     0
 62
     1
  6
Continuous
370
    -3
390
F
  0
LAYER
  5
2E8
330
2
100
AcDbSymbolTableRecord
100
AcDbLayerTableRecord
  2
NOCUT
 70
     0
 62
     7
  6
Continuous
370
    -3
390
F
  0
ENDTAB
  0
TABLE
  2
STYLE
  5
3
330
0
100
AcDbSymbolTable
 70
     1
  0
STYLE
  5
11
330
3
100
AcDbSymbolTableRecord
100
AcDbTextStyleTableRecord
  2
Standard
 70
     0
 40
3.5
 41
1.0
 50
0.0
 71
     0
 42
3.5
  3
isocp.shx
  4

  0
ENDTAB
  0
TABLE
  2
VIEW
  5
6
330
0
100
AcDbSymbolTable
 70
     0
  0
ENDTAB
  0
TABLE
  2
UCS
  5
7
330
0
100
AcDbSymbolTable
 70
     0
  0
ENDTAB
  0
TABLE
  2
APPID
  5
9
330
0
100
AcDbSymbolTable
 70
     1
  0
APPID
  5
12
330
9
100
AcDbSymbolTableRecord
100
AcDbRegAppTableRecord
  2
ACAD
 70
     0
  0
ENDTAB
  0
TABLE
  2
DIMSTYLE
  5
A
330
0
100
AcDbSymbolTable
 70
     2
100
AcDbDimStyleTable
 71
     0
  0
DIMSTYLE
105
27
102
{ACAD_REACTORS
330
12C
330
158
330
159
330
15E
330
15F
330
164
102
}
330
A
100
AcDbSymbolTableRecord
100
AcDbDimStyleTableRecord
  2
ISO-25
 70
     0
 41
2.5
 42
0.625
 43
3.75
 44
1.25
 73
     0
 74
     0
 77
     1
 78
     8
140
2.5
141
2.5
143
0.03937007874016
147
0.625
171
     3
172
     1
271
     2
272
     2
274
     3
278
    44
283
     0
284
     8
340
11
  0
DIMSTYLE
105
83
330
A
100
AcDbSymbolTableRecord
100
AcDbDimStyleTableRecord
  2
STANDARD
 70
     0
 41
2.5
 47
0.005
 48
0.005
 71
     1
 73
     0
 74
     0
 77
     1
 78
     8
140
3.5
178
     5
271
     3
272
     3
284
     8
340
11
341
2B
342
2B
343
2B
344
2B
  0
ENDTAB
  0
TABLE
  2
BLOCK_RECORD
  5
1
330
0
100
AcDbSymbolTable
 70
    10
  0
BLOCK_RECORD
  5
1F
330
1
100
AcDbSymbolTableRecord
100
AcDbBlockTableRecord
  2
*Model_Space
340
22
  0
BLOCK_RECORD
  5
1B
330
1
100
AcDbSymbolTableRecord
100
AcDbBlockTableRecord
  2
*Paper_Space
340
1E
  0
BLOCK_RECORD
  5
23
330
1
100
AcDbSymbolTableRecord
100
AcDbBlockTableRecord
  2
*Paper_Space0
340
26
  0
BLOCK_RECORD
  5
2B
330
1
100
AcDbSymbolTableRecord
100
AcDbBlockTableRecord
  2
_ARROW_FILLED
340
0
  0
BLOCK_RECORD
  5
1CA
330
1
100
AcDbSymbolTableRecord
100
AcDbBlockTableRecord
  2
*D2
340
0
  0
BLOCK_RECORD
  5
1D6
330
1
100
AcDbSymbolTableRecord
100
AcDbBlockTableRecord
  2
*D3
340
0
  0
BLOCK_RECORD
  5
1DF
330
1
100
AcDbSymbolTableRecord
100
AcDbBlockTableRecord
  2
*D4
340
0
  0
BLOCK_RECORD
  5
1ED
330
1
100
AcDbSymbolTableRecord
100
AcDbBlockTableRecord
  2
*D5
340
0
  0
BLOCK_RECORD
  5
1F9
330
1
100
AcDbSymbolTableRecord
100
AcDbBlockTableRecord
  2
*D6
340
0
  0
BLOCK_RECORD
  5
205
330
1
100
AcDbSymbolTableRecord
100
AcDbBlockTableRecord
  2
*D7
340
0
  0
ENDTAB
  0
ENDSEC
  0
SECTION
  2
BLOCKS
  0
BLOCK
  5
20
330
1F
100
AcDbEntity
  8
0
100
AcDbBlockBegin
  2
*Model_Space
 70
     0
 10
0.0
 20
0.0
 30
0.0
  3
*Model_Space
  1

  0
ENDBLK
  5
21
330
1F
100
AcDbEntity
  8
0
100
AcDbBlockEnd
  0
BLOCK
  5
1C
330
1B
100
AcDbEntity
 67
     1
  8
0
100
AcDbBlockBegin
  2
*Paper_Space
 70
     0
 10
0.0
 20
0.0
 30
0.0
  3
*Paper_Space
  1

  0
ENDBLK
  5
1D
330
1B
100
AcDbEntity
 67
     1
  8
0
100
AcDbBlockEnd
  0
BLOCK
  5
24
330
23
100
AcDbEntity
  8
0
100
AcDbBlockBegin
  2
*Paper_Space0
 70
     0
 10
0.0
 20
0.0
 30
0.0
  3
*Paper_Space0
  1

  0
ENDBLK
  5
25
330
23
100
AcDbEntity
  8
0
100
AcDbBlockEnd
  0
BLOCK
  5
2D
330
2B
100
AcDbEntity
  8
0
100
AcDbBlockBegin
  2
_ARROW_FILLED
 70
     0
 10
0.0
 20
0.0
 30
0.0
  3
_ARROW_FILLED
  1

  0
SOLID
  5
2C
330
2B
100
AcDbEntity
  8
0
  6
ByBlock
 62
     0
100
AcDbTrace
 10
0.0
 20
0.0
 30
0.0
 11
-1.0
 21
0.132
 31
0.0
 12
-1.0
 22
-0.132
 32
0.0
 13
-1.0
 23
-0.132
 33
0.0
  0
ENDBLK
  5
2E
330
2B
100
AcDbEntity
  8
0
  6
ByBlock
 62
     0
100
AcDbBlockEnd
  0
BLOCK
  5
1D4
330
1CA
100
AcDbEntity
  8
0
100
AcDbBlockBegin
  2
*D2
 70
     1
 10
0.0
 20
0.0
 30
0.0
  3
*D2
  1

  0
LINE
  5
2B2
330
1CA
100
AcDbEntity
  8
2
 62
     0
370
    -2
100
AcDbLine
 10
-2.324999999999931
 20
50.0
 30
0.0
 11
-29.28676470580005
 21
50.0
 31
0.0
  0
LINE
  5
2B3
330
1CA
100
AcDbEntity
  8
2
 62
     0
370
    -2
100
AcDbLine
 10
-2.324999999999931
 20
-50.0
 30
0.0
 11
-29.28676470580008
 21
-50.0
 31
0.0
  0
LINE
  5
2B4
330
1CA
100
AcDbEntity
  8
2
 62
     0
370
    -2
100
AcDbLine
 10
-28.03676470580005
 20
47.5
 30
0.0
 11
-28.03676470580008
 21
-47.5
 31
0.0
  0
SOLID
  5
2B5
330
1CA
100
AcDbEntity
  8
2
 62
     0
100
AcDbTrace
 10
-28.45343137246672
 20
47.5
 30
0.0
 11
-27.62009803913338
 21
47.5
 31
0.0
 12
-28.03676470580005
 22
50.0
 32
0.0
 13
-28.03676470580005
 23
50.0
 33
0.0
  0
SOLID
  5
2B6
330
1CA
100
AcDbEntity
  8
2
 62
     0
100
AcDbTrace
 10
-28.45343137246674
 20
-47.5
 30
0.0
 11
-27.62009803913341
 21
-47.5
 31
0.0
 12
-28.03676470580008
 22
-50.0
 32
0.0
 13
-28.03676470580008
 23
-50.0
 33
0.0
  0
MTEXT
  5
2B7
330
1CA
100
AcDbEntity
  8
2
 62
     0
100
AcDbMText
 10
-30.41176470580007
 20
1.291176470599907
 30
0.0
 40
3.5
 41
0.0
 71
     5
 72
     1
  1
%%c100
 11
0.0000000000000001
 21
1.0
 31
0.0
 73
     1
 44
1.0
  0
POINT
  5
2B8
330
1CA
100
AcDbEntity
  8
Defpoints
 62
     0
100
AcDbPoint
 10
-1.69999999999993
 20
50.0
 30
0.0
  0
POINT
  5
2B9
330
1CA
100
AcDbEntity
  8
Defpoints
 62
     0
100
AcDbPoint
 10
-1.69999999999993
 20
-50.0
 30
0.0
  0
POINT
  5
2BA
330
1CA
100
AcDbEntity
  8
Defpoints
 62
     0
100
AcDbPoint
 10
-28.03676470580008
 20
-50.0
 30
0.0
  0
ENDBLK
  5
1D5
330
1CA
100
AcDbEntity
  8
0
100
AcDbBlockEnd
  0
BLOCK
  5
1DD
330
1D6
100
AcDbEntity
  8
0
100
AcDbBlockBegin
  2
*D3
 70
     1
 10
0.0
 20
0.0
 30
0.0
  3
*D3
  1

  0
LINE
  5
2AC
330
1D6
100
AcDbEntity
  8
2
 62
     0
370
    -2
100
AcDbLine
 10
-24.37511545036628
 20
67.02752265057194
 30
0.0
 11
-4.080055009890278
 21
51.25923264829964
 31
0.0
  0
MTEXT
  5
2AD
330
1D6
100
AcDbEntity
  8
2
 62
     0
100
AcDbMText
 10
-19.07085003027408
 20
66.24680958104068
 30
0.0
 40
3.5
 41
0.0
 71
     5
 72
     1
  1
R0,2
 11
0.7896680843160845
 21
-0.6135342831599268
 31
0.0
 73
     1
 44
1.0
  0
LINE
  5
2AE
330
1D6
100
AcDbEntity
  8
2
 62
     0
370
    -2
100
AcDbLine
 10
-1.950397662800012
 20
49.6045908819999
 30
0.0
 11
-2.105884799100067
 21
49.72539694039983
 31
0.0
  0
SOLID
  5
2AF
330
1D6
100
AcDbEntity
  8
2
 62
     0
100
AcDbTrace
 10
-3.824415725240314
 20
51.58826101676467
 30
0.0
 11
-4.33569429454025
 21
50.93020427983461
 31
0.0
 12
-2.105884799100067
 22
49.72539694039983
 32
0.0
 13
-2.105884799100067
 23
49.72539694039983
 33
0.0
  0
POINT
  5
2B0
330
1D6
100
AcDbEntity
  8
Defpoints
 62
     0
100
AcDbPoint
 10
-2.105884799100067
 20
49.72539694039983
 30
0.0
  0
POINT
  5
2B1
330
1D6
100
AcDbEntity
  8
Defpoints
 62
     0
100
AcDbPoint
 10
-1.950397662800012
 20
49.6045908819999
 30
0.0
  0
ENDBLK
  5
1DE
330
1D6
100
AcDbEntity
  8
0
100
AcDbBlockEnd
  0
BLOCK
  5
1EB
330
1DF
100
AcDbEntity
  8
0
100
AcDbBlockBegin
  2
*D4
 70
     1
 10
0.0
 20
0.0
 30
0.0
  3
*D4
  1

  0
LINE
  5
2A1
330
1DF
100
AcDbEntity
  8
2
 62
     0
370
    -2
100
AcDbLine
 10
-2.300000000000068
 20
41.88558629159996
 30
0.0
 11
-2.300000000000065
 21
69.31148941179997
 31
0.0
  0
LINE
  5
2A2
330
1DF
100
AcDbEntity
  8
2
 62
     0
370
    -2
100
AcDbLine
 10
-0.0999999999999659
 20
41.88558629159996
 30
0.0
 11
-0.0999999999999642
 21
69.31148941179997
 31
0.0
  0
LINE
  5
2A3
330
1DF
100
AcDbEntity
  8
2
 62
     0
370
    -2
100
AcDbLine
 10
-4.800000000000066
 20
68.06148941179997
 30
0.0
 11
-7.300000000000066
 21
68.06148941179997
 31
0.0
  0
LINE
  5
2A4
330
1DF
100
AcDbEntity
  8
2
 62
     0
370
    -2
100
AcDbLine
 10
2.400000000000034
 20
68.06148941179997
 30
0.0
 11
20.65286114643457
 21
68.06148941179997
 31
0.0
  0
LINE
  5
2A5
330
1DF
100
AcDbEntity
  8
2
 62
     0
370
    -2
100
AcDbLine
 10
-2.300000000000065
 20
68.06148941179997
 30
0.0
 11
-0.0999999999999643
 21
68.06148941179997
 31
0.0
  0
SOLID
  5
2A6
330
1DF
100
AcDbEntity
  8
2
 62
     0
100
AcDbTrace
 10
-4.800000000000066
 20
68.47815607846666
 30
0.0
 11
-4.800000000000066
 21
67.64482274513331
 31
0.0
 12
-2.300000000000065
 22
68.06148941179997
 32
0.0
 13
-2.300000000000065
 23
68.06148941179997
 33
0.0
  0
SOLID
  5
2A7
330
1DF
100
AcDbEntity
  8
2
 62
     0
100
AcDbTrace
 10
2.400000000000034
 20
68.47815607846666
 30
0.0
 11
2.400000000000034
 21
67.64482274513331
 31
0.0
 12
-0.0999999999999643
 22
68.06148941179997
 32
0.0
 13
-0.0999999999999643
 23
68.06148941179997
 33
0.0
  0
MTEXT
  5
2A8
330
1DF
100
AcDbEntity
  8
2
 62
     0
100
AcDbMText
 10
17.34081882359992
 20
70.69933389998896
 30
0.0
 40
3.5
 41
0.0
 71
     5
 72
     1
  1
2,2
 73
     1
 44
1.0
  0
POINT
  5
2A9
330
1DF
100
AcDbEntity
  8
Defpoints
 62
     0
100
AcDbPoint
 10
-2.300000000000068
 20
41.26058629159996
 30
0.0
  0
POINT
  5
2AA
330
1DF
100
AcDbEntity
  8
Defpoints
 62
     0
100
AcDbPoint
 10
-0.0999999999999659
 20
41.26058629159996
 30
0.0
  0
POINT
  5
2AB
330
1DF
100
AcDbEntity
  8
Defpoints
 62
     0
100
AcDbPoint
 10
-0.0999999999999643
 20
68.06148941179997
 30
0.0
  0
ENDBLK
  5
1EC
330
1DF
100
AcDbEntity
  8
0
100
AcDbBlockEnd
  0
BLOCK
  5
1F7
330
1ED
100
AcDbEntity
  8
0
100
AcDbBlockBegin
  2
*D5
 70
     1
 10
0.0
 20
0.0
 30
0.0
  3
*D5
  1

  0
LINE
  5
298
330
1ED
100
AcDbEntity
  8
2
 62
     0
370
    -2
100
AcDbLine
 10
1.125
 20
19.5
 30
0.0
 11
13.39925562729991
 21
19.49999999999999
 31
0.0
  0
LINE
  5
299
330
1ED
100
AcDbEntity
  8
2
 62
     0
370
    -2
100
AcDbLine
 10
1.125
 20
-19.5
 30
0.0
 11
13.39925562729989
 21
-19.5
 31
0.0
  0
LINE
  5
29A
330
1ED
100
AcDbEntity
  8
2
 62
     0
370
    -2
100
AcDbLine
 10
12.14925562729991
 20
16.99999999999999
 30
0.0
 11
12.14925562729989
 21
-17.0
 31
0.0
  0
SOLID
  5
29B
330
1ED
100
AcDbEntity
  8
2
 62
     0
100
AcDbTrace
 10
11.73258896063324
 20
16.99999999999999
 30
0.0
 11
12.56592229396657
 21
16.99999999999999
 31
0.0
 12
12.14925562729991
 22
19.49999999999999
 32
0.0
 13
12.14925562729991
 23
19.49999999999999
 33
0.0
  0
SOLID
  5
29C
330
1ED
100
AcDbEntity
  8
2
 62
     0
100
AcDbTrace
 10
11.73258896063323
 20
-17.0
 30
0.0
 11
12.56592229396657
 21
-17.0
 31
0.0
 12
12.14925562729989
 22
-19.5
 32
0.0
 13
12.14925562729989
 23
-19.5
 33
0.0
  0
MTEXT
  5
29D
330
1ED
100
AcDbEntity
  8
2
 62
     0
100
AcDbMText
 10
9.774255627299908
 20
-1.615992931100038
 30
0.0
 40
3.5
 41
0.0
 71
     5
 72
     1
  1
%%c39
 11
0.0000000000000001
 21
1.0
 31
0.0
 73
     1
 44
1.0
  0
POINT
  5
29E
330
1ED
100
AcDbEntity
  8
Defpoints
 62
     0
100
AcDbPoint
 10
0.5
 20
19.5
 30
0.0
  0
POINT
  5
29F
330
1ED
100
AcDbEntity
  8
Defpoints
 62
     0
100
AcDbPoint
 10
0.5
 20
-19.5
 30
0.0
  0
POINT
  5
2A0
330
1ED
100
AcDbEntity
  8
Defpoints
 62
     0
100
AcDbPoint
 10
12.14925562729989
 20
-19.5
 30
0.0
  0
ENDBLK
  5
1F8
330
1ED
100
AcDbEntity
  8
0
100
AcDbBlockEnd
  0
BLOCK
  5
203
330
1F9
100
AcDbEntity
  8
0
100
AcDbBlockBegin
  2
*D6
 70
     1
 10
0.0
 20
0.0
 30
0.0
  3
*D6
  1

  0
LINE
  5
28F
330
1F9
100
AcDbEntity
  8
SK2
 62
     0
370
    -2
100
AcDbLine
 10
0.625
 20
11.0
 30
0.0
 11
8.07840886961174
 21
10.99999999999999
 31
0.0
  0
LINE
  5
290
330
1F9
100
AcDbEntity
  8
SK2
 62
     0
370
    -2
100
AcDbLine
 10
0.625
 20
-11.0
 30
0.0
 11
8.078408869611735
 21
-11.0
 31
0.0
  0
LINE
  5
291
330
1F9
100
AcDbEntity
  8
SK2
 62
     0
370
    -2
100
AcDbLine
 10
6.828408869611737
 20
8.499999999999998
 30
0.0
 11
6.828408869611735
 21
-8.500000000000001
 31
0.0
  0
SOLID
  5
292
330
1F9
100
AcDbEntity
  8
SK2
 62
     0
100
AcDbTrace
 10
6.411742202945072
 20
8.499999999999998
 30
0.0
 11
7.245075536278406
 21
8.499999999999998
 31
0.0
 12
6.82840886961174
 22
10.99999999999999
 32
0.0
 13
6.82840886961174
 23
10.99999999999999
 33
0.0
  0
SOLID
  5
293
330
1F9
100
AcDbEntity
  8
SK2
 62
     0
100
AcDbTrace
 10
6.411742202945068
 20
-8.500000000000001
 30
0.0
 11
7.245075536278402
 21
-8.500000000000001
 31
0.0
 12
6.828408869611735
 22
-11.0
 32
0.0
 13
6.828408869611735
 23
-11.0
 33
0.0
  0
MTEXT
  5
294
330
1F9
100
AcDbEntity
  8
SK2
 62
     0
100
AcDbMText
 10
4.453064381422761
 20
-0.0000000000000001
 30
0.0
 40
3.5
 41
0.0
 71
     5
 72
     1
  1
%%C22
 11
0.0000000000000001
 21
1.0
 31
0.0
 73
     1
 44
1.0
  0
POINT
  5
295
330
1F9
100
AcDbEntity
  8
Defpoints
 62
     0
100
AcDbPoint
 10
0.0
 20
11.0
 30
0.0
  0
POINT
  5
296
330
1F9
100
AcDbEntity
  8
Defpoints
 62
     0
100
AcDbPoint
 10
0.0
 20
-11.0
 30
0.0
  0
POINT
  5
297
330
1F9
100
AcDbEntity
  8
Defpoints
 62
     0
100
AcDbPoint
 10
6.828408869611735
 20
-11.0
 30
0.0
  0
ENDBLK
  5
204
330
1F9
100
AcDbEntity
  8
0
100
AcDbBlockEnd
  0
BLOCK
  5
211
330
205
100
AcDbEntity
  8
0
100
AcDbBlockBegin
  2
*D7
 70
     1
 10
0.0
 20
0.0
 30
0.0
  3
*D7
  1

  0
LINE
  5
284
330
205
100
AcDbEntity
  8
2
 62
     0
370
    -2
100
AcDbLine
 10
-2.399999999999977
 20
-20.625
 30
0.0
 11
-2.399999999999977
 21
-22.8454289915001
 31
0.0
  0
LINE
  5
285
330
205
100
AcDbEntity
  8
2
 62
     0
370
    -2
100
AcDbLine
 10
0.0
 20
-20.625
 30
0.0
 11
-0.0000000000000002
 21
-22.8454289915001
 31
0.0
  0
LINE
  5
286
330
205
100
AcDbEntity
  8
2
 62
     0
370
    -2
100
AcDbLine
 10
2.5
 20
-21.5954289915001
 30
0.0
 11
5.0
 21
-21.5954289915001
 31
0.0
  0
LINE
  5
287
330
205
100
AcDbEntity
  8
2
 62
     0
370
    -2
100
AcDbLine
 10
-4.899999999999976
 20
-21.5954289915001
 30
0.0
 11
-16.43174548107791
 21
-21.5954289915001
 31
0.0
  0
LINE
  5
288
330
205
100
AcDbEntity
  8
2
 62
     0
370
    -2
100
AcDbLine
 10
-0.0000000000000001
 20
-21.5954289915001
 30
0.0
 11
-2.399999999999977
 21
-21.5954289915001
 31
0.0
  0
SOLID
  5
289
330
205
100
AcDbEntity
  8
2
 62
     0
100
AcDbTrace
 10
2.5
 20
-21.17876232483344
 30
0.0
 11
2.5
 21
-22.01209565816678
 31
0.0
 12
-0.0000000000000001
 22
-21.5954289915001
 32
0.0
 13
-0.0000000000000001
 23
-21.5954289915001
 33
0.0
  0
SOLID
  5
28A
330
205
100
AcDbEntity
  8
2
 62
     0
100
AcDbTrace
 10
-4.899999999999976
 20
-21.17876232483344
 30
0.0
 11
-4.899999999999976
 21
-22.01209565816678
 31
0.0
 12
-2.399999999999977
 22
-21.5954289915001
 32
0.0
 13
-2.399999999999977
 23
-21.5954289915001
 33
0.0
  0
MTEXT
  5
28B
330
205
100
AcDbEntity
  8
2
 62
     0
100
AcDbMText
 10
-13.04980650469997
 20
-18.95758450331112
 30
0.0
 40
3.5
 41
0.0
 71
     5
 72
     1
  1
2,4
 73
     1
 44
1.0
  0
POINT
  5
28C
330
205
100
AcDbEntity
  8
Defpoints
 62
     0
100
AcDbPoint
 10
-2.399999999999977
 20
-20.0
 30
0.0
  0
POINT
  5
28D
330
205
100
AcDbEntity
  8
Defpoints
 62
     0
100
AcDbPoint
 10
0.0
 20
-20.0
 30
0.0
  0
POINT
  5
28E
330
205
100
AcDbEntity
  8
Defpoints
 62
     0
100
AcDbPoint
 10
-0.0000000000000001
 20
-21.5954289915001
 30
0.0
  0
ENDBLK
  5
212
330
205
100
AcDbEntity
  8
0
100
AcDbBlockEnd
  0
ENDSEC
  0
SECTION
  2
ENTITIES
  0
TEXT
  5
129
330
1F
100
AcDbEntity
  8
6
100
AcDbText
 10
6.752069400649373
 20
-49.1314930427098
 30
0.0
 40
3.5
  1
31J6M100022BA-00
 41
0.8
 72
     1
 11
22.4331717628541
 21
-49.1314930427098
 31
0.0
100
AcDbText
  0
LINE
  5
12A
330
1F
100
AcDbEntity
  8
1
100
AcDbLine
 10
-0.3999999999999772
 20
-37.61849000060005
 30
0.0
 11
-0.3999999999999772
 21
-19.5127563858
 31
0.0
  0
LINE
  5
12B
330
1F
100
AcDbEntity
  8
1
100
AcDbLine
 10
-2.0
 20
-37.61849000060005
 30
0.0
 11
-2.0
 21
-19.5127563858
 31
0.0
  0
DIMENSION
  5
12C
330
1F
100
AcDbEntity
  8
2
100
AcDbDimension
  2
*D2
 10
-28.03676470580008
 20
-50.0
 30
0.0
 11
-28.03676470580005
 21
1.291176470599907
 31
0.0
 70
   160
  1
%%c<>
 71
     5
 42
100.0
  3
ISO-25
100
AcDbAlignedDimension
 13
-1.69999999999993
 23
50.0
 33
0.0
 14
-1.69999999999993
 24
-50.0
 34
0.0
 50
270.0
100
AcDbRotatedDimension
1001
ACAD
1000
DSTYLE
1002
{
1070
   140
1040
3.5
1002
}
  0
LINE
  5
12D
330
1F
100
AcDbEntity
  8
1
100
AcDbLine
 10
-2.288002494099941
 20
-40.33681064240011
 30
0.0
 11
-2.0
 21
-37.61849000060005
 31
0.0
  0
LINE
  5
12E
330
1F
100
AcDbEntity
  8
1
100
AcDbLine
 10
-2.280867885599944
 20
-40.1854143109
 30
0.0
 11
-2.0
 21
-36.30045317790001
 31
0.0
  0
LINE
  5
12F
330
1F
100
AcDbEntity
  8
1
100
AcDbLine
 10
-0.1191321143001005
 20
-40.1854143109
 30
0.0
 11
-0.3999999999999772
 21
-36.30045317790001
 31
0.0
  0
LINE
  5
130
330
1F
100
AcDbEntity
  8
1
100
AcDbLine
 10
-0.1119975059000353
 20
-40.33681064240011
 30
0.0
 11
-0.3999999999999772
 21
-37.61849000060005
 31
0.0
  0
LINE
  5
131
330
1F
100
AcDbEntity
  8
1
100
AcDbLine
 10
-0.3999999999999772
 20
-46.45000000000012
 30
0.0
 11
-0.3999999999999772
 21
-42.55913687159999
 31
0.0
  0
LINE
  5
132
330
1F
100
AcDbEntity
  8
1
100
AcDbLine
 10
-2.0
 20
-46.45000000000012
 30
0.0
 11
-2.0
 21
-42.55913687159999
 31
0.0
  0
LINE
  5
133
330
1F
100
AcDbEntity
  8
1
100
AcDbLine
 10
-2.0
 20
-46.10600026340001
 30
0.0
 11
-0.3999999999999772
 21
-46.10600026340001
 31
0.0
  0
LINE
  5
134
330
1F
100
AcDbEntity
  8
1
100
AcDbLine
 10
-0.3999999999999772
 20
-46.38026286840001
 30
0.0
 11
-2.0
 21
-46.38026286840001
 31
0.0
  0
LINE
  5
135
330
1F
100
AcDbEntity
  8
1
100
AcDbLine
 10
-0.3999999999999772
 20
-46.45000000000012
 30
0.0
 11
-2.0
 21
-46.45000000000012
 31
0.0
  0
LINE
  5
136
330
1F
100
AcDbEntity
  8
1
100
AcDbLine
 10
-2.0
 20
-46.49901085159998
 30
0.0
 11
-0.3999999999999772
 21
-46.49901085159998
 31
0.0
  0
LINE
  5
137
330
1F
100
AcDbEntity
  8
1
100
AcDbLine
 10
-2.09879447749995
 20
-49.99901085160002
 30
0.0
 11
-0.3012055224999699
 21
-49.99901085160002
 31
0.0
  0
LINE
  5
138
330
1F
100
AcDbEntity
  8
1
100
AcDbLine
 10
-2.288002494099941
 20
-49.85903994950003
 30
0.0
 11
-2.0
 21
-46.49901085159998
 31
0.0
  0
LINE
  5
139
330
1F
100
AcDbEntity
  8
1
100
AcDbLine
 10
-2.0
 20
-46.49901085159998
 30
0.0
 11
-2.0
 21
-46.45000000000012
 31
0.0
  0
LWPOLYLINE
  5
13A
330
1F
100
AcDbEntity
  8
1
100
AcDbPolyline
 90
       11
 70
     0
 43
0.0
 10
-2.288002494099941
 20
-49.85903994950003
 10
-2.278966818000069
 20
-49.88291896810004
 10
-2.267246867299943
 20
-49.90505899660003
 10
-2.252719071199976
 20
-49.92560514880003
 10
-2.235754142200105
 20
-49.94412208310002
 10
-2.216571001300053
 20
-49.9602871867
 10
-2.195501451099969
 20
-49.97390738710013
 10
-2.172826343299957
 20
-49.98472092370011
 10
-2.148917450300074
 20
-49.99261124780012
 10
-2.124298335399998
 20
-49.99734908180002
 10
-2.09879447749995
 20
-49.99901085160002
  0
LINE
  5
13B
330
1F
100
AcDbEntity
  8
1
100
AcDbLine
 10
-0.3999999999999772
 20
-46.49901085159998
 30
0.0
 11
-0.3999999999999772
 21
-46.45000000000012
 31
0.0
  0
LINE
  5
13C
330
1F
100
AcDbEntity
  8
1
100
AcDbLine
 10
-0.1119975059000353
 20
-49.85903994950003
 30
0.0
 11
-0.3999999999999772
 21
-46.49901085159998
 31
0.0
  0
LWPOLYLINE
  5
13D
330
1F
100
AcDbEntity
  8
1
100
AcDbPolyline
 90
       11
 70
     0
 43
0.0
 10
-0.3012055224999699
 20
-49.99901085160002
 10
-0.2757016645999784
 20
-49.99734908180002
 10
-0.2510825497000724
 20
-49.99261124780012
 10
-0.2271736566999607
 20
-49.98472092370011
 10
-0.2044985489000055
 20
-49.97390738710013
 10
-0.1834289985999931
 20
-49.9602871867
 10
-0.1642458578000969
 20
-49.94412208310002
 10
-0.14728092870007
 20
-49.92560514880003
 10
-0.1327531326999747
 20
-49.90505899660003
 10
-0.1210331820000192
 20
-49.88291896810004
 10
-0.1119975059000353
 20
-49.85903994950003
  0
LINE
  5
13E
330
1F
100
AcDbEntity
  8
1
100
AcDbLine
 10
-2.09879447749995
 20
-40.45004948090002
 30
0.0
 11
-0.3012055224999699
 21
-40.45004948090002
 31
0.0
  0
LINE
  5
13F
330
1F
100
AcDbEntity
  8
1
100
AcDbLine
 10
-2.0
 20
-42.55913687159999
 30
0.0
 11
-0.3999999999999772
 21
-42.55913687159999
 31
0.0
  0
LWPOLYLINE
  5
140
330
1F
100
AcDbEntity
  8
1
100
AcDbPolyline
 90
        4
 70
     0
 43
0.0
 10
-2.280867885599944
 20
-40.1854143109
 10
-2.281469621000042
 20
-40.19435274850002
 10
-2.282043119800048
 20
-40.20356872580004
 10
-2.283105407800062
 20
-40.22283329990012
  0
LINE
  5
141
330
1F
100
AcDbEntity
  8
1
100
AcDbLine
 10
-2.283105407800062
 20
-40.22283329990012
 30
0.0
 11
-2.284111015399957
 21
-40.24316398850003
 31
0.0
  0
LINE
  5
142
330
1F
100
AcDbEntity
  8
1
100
AcDbLine
 10
-2.284111015399957
 20
-40.24316398850003
 30
0.0
 11
-2.285571647300059
 21
-40.27577906330003
 31
0.0
  0
LINE
  5
143
330
1F
100
AcDbEntity
  8
1
100
AcDbLine
 10
-2.285571647300059
 20
-40.27577906330003
 30
0.0
 11
-2.287510543000053
 21
-40.32384975950003
 31
0.0
  0
LINE
  5
144
330
1F
100
AcDbEntity
  8
1
100
AcDbLine
 10
-2.287510543000053
 20
-40.32384975950003
 30
0.0
 11
-2.288002494099941
 21
-40.33681064240011
 31
0.0
  0
LINE
  5
145
330
1F
100
AcDbEntity
  8
1
100
AcDbLine
 10
-2.0
 20
-40.86664810770002
 30
0.0
 11
-2.0
 21
-42.55913687159999
 31
0.0
  0
LWPOLYLINE
  5
146
330
1F
100
AcDbEntity
  8
1
100
AcDbPolyline
 90
        7
 70
     0
 43
0.0
 10
-2.285327380700095
 20
-40.35303274959999
 10
-2.285571647300059
 20
-40.35195497310013
 10
-2.286054039899966
 20
-40.34957291329999
 10
-2.286537007800061
 20
-40.34686756010001
 10
-2.287021816899937
 20
-40.34383674270003
 10
-2.287510543000053
 20
-40.34048493380004
 10
-2.288002494099941
 20
-40.33681064240011
  0
LINE
  5
147
330
1F
100
AcDbEntity
  8
1
100
AcDbLine
 10
-2.09879447749995
 20
-40.45004948090002
 30
0.0
 11
-2.0
 21
-40.86664810770002
 31
0.0
  0
LINE
  5
148
330
1F
100
AcDbEntity
  8
1
100
AcDbLine
 10
-2.285355411000068
 20
-40.35291014610002
 30
0.0
 11
-2.000027924899995
 21
-41.55608507930003
 31
0.0
  0
LWPOLYLINE
  5
149
330
1F
100
AcDbEntity
  8
1
100
AcDbPolyline
 90
       11
 70
     0
 43
0.0
 10
-2.288002494099941
 20
-40.33681064240011
 10
-2.278966818000069
 20
-40.35612917420002
 10
-2.267246867299943
 20
-40.37404083350003
 10
-2.252719071199976
 20
-40.39066301980009
 10
-2.235754142200105
 20
-40.4056435344001
 10
-2.216571001300053
 20
-40.41872137790011
 10
-2.195501451099969
 20
-40.42974035150002
 10
-2.172826343299957
 20
-40.43848868640014
 10
-2.148917450300074
 20
-40.4448720926
 10
-2.124298335399998
 20
-40.44870508090002
 10
-2.09879447749995
 20
-40.45004948090002
  0
LINE
  5
14A
330
1F
100
AcDbEntity
  8
1
100
AcDbLine
 10
-0.3999720749999369
 20
-41.55608507930003
 30
0.0
 11
-0.1146445889999654
 21
-40.35291014610002
 31
0.0
  0
LINE
  5
14B
330
1F
100
AcDbEntity
  8
1
100
AcDbLine
 10
-0.3999999999999772
 20
-40.86664810770002
 30
0.0
 11
-0.3012055224999699
 21
-40.45004948090002
 31
0.0
  0
LWPOLYLINE
  5
14C
330
1F
100
AcDbEntity
  8
1
100
AcDbPolyline
 90
        7
 70
     0
 43
0.0
 10
-0.1119975059000353
 20
-40.33681064240011
 10
-0.1124894568999935
 20
-40.34048493380004
 10
-0.1129781830001093
 20
-40.34383674270003
 10
-0.1134629920999828
 20
-40.34686756010001
 10
-0.1139459599999668
 20
-40.34957291329999
 10
-0.1144283525999867
 20
-40.35195497310013
 10
-0.1146726191999505
 20
-40.35303274959999
  0
LINE
  5
14D
330
1F
100
AcDbEntity
  8
1
100
AcDbLine
 10
-0.3999999999999772
 20
-42.55913687159999
 30
0.0
 11
-0.3999999999999772
 21
-40.86664810770002
 31
0.0
  0
LINE
  5
14E
330
1F
100
AcDbEntity
  8
1
100
AcDbLine
 10
-0.1119975059000353
 20
-40.33681064240011
 30
0.0
 11
-0.1134629920999828
 21
-40.29908964830002
 31
0.0
  0
LINE
  5
14F
330
1F
100
AcDbEntity
  8
1
100
AcDbLine
 10
-0.1134629920999828
 20
-40.29908964830002
 30
0.0
 11
-0.1153979673999856
 21
-40.2537419404
 31
0.0
  0
LINE
  5
150
330
1F
100
AcDbEntity
  8
1
100
AcDbLine
 10
-0.1153979673999856
 20
-40.2537419404
 30
0.0
 11
-0.116894592200083
 21
-40.22283329990012
 31
0.0
  0
LINE
  5
151
330
1F
100
AcDbEntity
  8
1
100
AcDbLine
 10
-0.116894592200083
 20
-40.22283329990012
 30
0.0
 11
-0.1179568802000404
 21
-40.20356872580004
 31
0.0
  0
LWPOLYLINE
  5
152
330
1F
100
AcDbEntity
  8
1
100
AcDbPolyline
 90
        3
 70
     0
 43
0.0
 10
-0.1179568802000404
 20
-40.20356872580004
 10
-0.1185303789999352
 20
-40.19435274850002
 10
-0.1191321143001005
 20
-40.1854143109
  0
LWPOLYLINE
  5
153
330
1F
100
AcDbEntity
  8
1
100
AcDbPolyline
 90
       11
 70
     0
 43
0.0
 10
-0.3012055224999699
 20
-40.45004948090002
 10
-0.2757016645999784
 20
-40.44870508090002
 10
-0.2510825497000724
 20
-40.4448720926
 10
-0.2271736566999607
 20
-40.43848868640014
 10
-0.2044985489000055
 20
-40.42974035150002
 10
-0.1834289985999931
 20
-40.41872137790011
 10
-0.1642458578000969
 20
-40.4056435344001
 10
-0.14728092870007
 20
-40.39066301980009
 10
-0.1327531326999747
 20
-40.37404083350003
 10
-0.1210331820000192
 20
-40.35612917420002
 10
-0.1119975059000353
 20
-40.33681064240011
  0
LINE
  5
154
330
1F
100
AcDbEntity
  8
1
100
AcDbLine
 10
-0.3999999999999772
 20
-32.8491074236
 30
0.0
 11
-2.0
 21
-32.8491074236
 31
0.0
  0
LINE
  5
155
330
1F
100
AcDbEntity
  8
1
100
AcDbLine
 10
-0.3999999999999772
 20
-37.60587328199999
 30
0.0
 11
-2.0
 21
-37.60587328199999
 31
0.0
  0
LINE
  5
156
330
1F
100
AcDbEntity
  8
1
100
AcDbLine
 10
-2.0
 20
-37.61849000060005
 30
0.0
 11
-0.3999999999999772
 21
-37.61849000060005
 31
0.0
  0
LINE
  5
157
330
1F
100
AcDbEntity
  8
1
100
AcDbLine
 10
-0.3999999999999772
 20
-28.55387647169998
 30
0.0
 11
-2.0
 21
-28.55387647169998
 31
0.0
  0
DIMENSION
  5
158
330
1F
100
AcDbEntity
  8
2
100
AcDbDimension
  2
*D3
 10
-1.950397662800012
 20
49.6045908819999
 30
0.0
 11
-20.68925805742245
 21
64.16378797732875
 31
0.0
 70
   164
  1
<>
 71
     5
 42
0.196901887499628
  3
ISO-25
100
AcDbRadialDimension
 15
-2.105884799100067
 25
49.72539694039983
 35
0.0
 40
0.0
1001
ACAD
1000
DSTYLE
1002
{
1070
   140
1040
3.5
1002
}
  0
DIMENSION
  5
159
330
1F
100
AcDbEntity
  8
2
100
AcDbDimension
  2
*D4
 10
-0.0999999999999643
 20
68.06148941179997
 30
0.0
 11
17.34081882359992
 21
68.06148941179997
 31
0.0
 70
   160
 71
     5
 42
2.2000000000001
  3
ISO-25
100
AcDbAlignedDimension
 13
-2.300000000000068
 23
41.26058629159996
 33
0.0
 14
-0.0999999999999659
 24
41.26058629159996
 34
0.0
100
AcDbRotatedDimension
1001
ACAD
1000
DSTYLE
1002
{
1070
   140
1040
3.5
1002
}
  0
ARC
  5
15A
330
1F
100
AcDbEntity
  8
1
100
AcDbCircle
 10
-2.799999999999954
 20
20.19282032299992
 30
0.0
 40
0.8
100
AcDbArc
 50
300.0000000000001
 51
0.0
  0
ARC
  5
15B
330
1F
100
AcDbEntity
  8
1
100
AcDbCircle
 10
0.4000000000000341
 20
20.19282032299992
 30
0.0
 40
0.8
100
AcDbArc
 50
180.0
 51
239.9999999999998
  0
LINE
  5
15C
330
1F
100
AcDbEntity
  8
1
100
AcDbLine
 10
-0.3999999999999772
 20
15.45054405509989
 30
0.0
 11
-0.3999999999999772
 21
37.2354835148999
 31
0.0
  0
LINE
  5
15D
330
1F
100
AcDbEntity
  8
1
100
AcDbLine
 10
-2.0
 20
15.45054405509989
 30
0.0
 11
-2.0
 21
37.2354835148999
 31
0.0
  0
DIMENSION
  5
15E
330
1F
100
AcDbEntity
  8
2
100
AcDbDimension
  2
*D5
 10
12.14925562729989
 20
-19.5
 30
0.0
 11
12.14925562729989
 21
-1.615992931100038
 31
0.0
 70
   160
  1
%%c<>
 71
     5
 42
39.0
  3
ISO-25
100
AcDbAlignedDimension
 13
0.5
 23
19.5
 33
0.0
 14
0.5
 24
-19.5
 34
0.0
 50
270.0
100
AcDbRotatedDimension
1001
ACAD
1000
DSTYLE
1002
{
1070
   140
1040
3.5
1002
}
  0
DIMENSION
  5
15F
330
1F
100
AcDbEntity
  8
SK2
100
AcDbDimension
  2
*D6
 10
6.828408869611735
 20
-11.0
 30
0.0
 11
4.453064381422761
 21
-0.0000000000000001
 31
0.0
 70
    32
  1
%%C<>
 71
     5
 42
22.0
  3
ISO-25
100
AcDbAlignedDimension
 13
0.0
 23
11.0
 33
0.0
 14
0.0
 24
-11.0
 34
0.0
 50
90.0
100
AcDbRotatedDimension
1001
ACAD
1000
DSTYLE
1002
{
1070
   140
1040
3.5
1002
}
  0
LINE
  5
160
330
1F
100
AcDbEntity
  8
1
100
AcDbLine
 10
0.0
 20
19.49967302799996
 30
0.0
 11
0.0
 21
-19.49967302790003
 31
0.0
  0
LINE
  5
161
330
1F
100
AcDbEntity
  8
1
100
AcDbLine
 10
-0.3999999999999772
 20
-14.36898457480001
 30
0.0
 11
-0.3999999999999772
 21
10.95324773909999
 31
0.0
  0
LINE
  5
162
330
1F
100
AcDbEntity
  8
1
100
AcDbLine
 10
-2.0
 20
-14.36898457480001
 30
0.0
 11
-2.0
 21
10.95324773909999
 31
0.0
  0
LINE
  5
163
330
1F
100
AcDbEntity
  8
1
100
AcDbLine
 10
-2.399999999999977
 20
19.49967302799996
 30
0.0
 11
-2.399999999999977
 21
-19.49967302790003
 31
0.0
  0
DIMENSION
  5
164
330
1F
100
AcDbEntity
  8
2
100
AcDbDimension
  2
*D7
 10
-0.0000000000000001
 20
-21.5954289915001
 30
0.0
 11
-13.04980650469997
 21
-21.5954289915001
 31
0.0
 70
   160
 71
     5
 42
2.399999999999977
  3
ISO-25
100
AcDbAlignedDimension
 13
-2.399999999999977
 23
-20.0
 33
0.0
 14
0.0
 24
-20.0
 34
0.0
100
AcDbRotatedDimension
1001
ACAD
1000
DSTYLE
1002
{
1070
   140
1040
3.5
1002
}
  0
LINE
  5
165
330
1F
100
AcDbEntity
  8
1
100
AcDbLine
 10
-2.288002494099941
 20
-15.4072906676
 30
0.0
 11
-2.0
 21
-14.36898457480001
 31
0.0
  0
LINE
  5
166
330
1F
100
AcDbEntity
  8
1
100
AcDbLine
 10
-0.1119975059000353
 20
-15.4072906676
 30
0.0
 11
-0.3999999999999772
 21
-14.36898457480001
 31
0.0
  0
LINE
  5
167
330
1F
100
AcDbEntity
  8
1
100
AcDbLine
 10
-2.0
 20
-26.71245901860004
 30
0.0
 11
-0.3999999999999772
 21
-26.71245901860004
 31
0.0
  0
LINE
  5
168
330
1F
100
AcDbEntity
  8
1
100
AcDbLine
 10
-2.09879447749995
 20
-15.45054405510001
 30
0.0
 11
-0.3012055224999699
 21
-15.45054405510001
 31
0.0
  0
LINE
  5
169
330
1F
100
AcDbEntity
  8
1
100
AcDbLine
 10
-2.0
 20
-19.52558512910002
 30
0.0
 11
-0.3999999999999772
 21
-19.52558512910002
 31
0.0
  0
ARC
  5
16A
330
1F
100
AcDbEntity
  8
1
100
AcDbCircle
 10
-2.799999999999954
 20
-20.19282032300003
 30
0.0
 40
0.8
100
AcDbArc
 50
0.0
 51
59.99999999999985
  0
LINE
  5
16B
330
1F
100
AcDbEntity
  8
1
100
AcDbLine
 10
-2.09879447749995
 20
-15.45054405510001
 30
0.0
 11
-2.0
 21
-16.25546874570011
 31
0.0
  0
LINE
  5
16C
330
1F
100
AcDbEntity
  8
1
100
AcDbLine
 10
-2.0
 20
-16.25546874570011
 30
0.0
 11
-2.0
 21
-19.52558512910002
 31
0.0
  0
LINE
  5
16D
330
1F
100
AcDbEntity
  8
1
100
AcDbLine
 10
-2.286537007800061
 20
-15.44066044180008
 30
0.0
 11
-2.288002494099941
 21
-15.4072906676
 31
0.0
  0
LINE
  5
16E
330
1F
100
AcDbEntity
  8
1
100
AcDbLine
 10
-2.285571647300059
 20
-15.46015458859999
 30
0.0
 11
-2.286537007800061
 21
-15.44066044180008
 31
0.0
  0
LINE
  5
16F
330
1F
100
AcDbEntity
  8
1
100
AcDbLine
 10
-2.284602032500059
 20
-15.4775079232001
 30
0.0
 11
-2.285571647300059
 21
-15.46015458859999
 31
0.0
  0
LWPOLYLINE
  5
170
330
1F
100
AcDbEntity
  8
1
100
AcDbPolyline
 90
        6
 70
     0
 43
0.0
 10
-2.282043119800048
 20
-15.51038513190013
 10
-2.28258486539994
 20
-15.50524641130008
 10
-2.283105407800062
 20
-15.49926727370011
 10
-2.283613537300082
 20
-15.49263206070008
 10
-2.284111015399957
 20
-15.48535444690003
 10
-2.284602032500059
 20
-15.4775079232001
  0
LINE
  5
171
330
1F
100
AcDbEntity
  8
1
100
AcDbLine
 10
-2.282043119800048
 20
-15.51038513190013
 30
0.0
 11
-2.00000747699994
 21
-17.80828129880012
 31
0.0
  0
LWPOLYLINE
  5
172
330
1F
100
AcDbEntity
  8
1
100
AcDbPolyline
 90
       11
 70
     0
 43
0.0
 10
-2.288002494099941
 20
-15.4072906676
 10
-2.278966818000069
 20
-15.4146696902
 10
-2.267246867299943
 20
-15.42151133520013
 10
-2.252719071199976
 20
-15.42786044540003
 10
-2.235754142200105
 20
-15.43358249280004
 10
-2.216571001300053
 20
-15.43857778450001
 10
-2.195501451099969
 20
-15.4427866579
 10
-2.172826343299957
 20
-15.4461282245
 10
-2.148917450300074
 20
-15.44856646870005
 10
-2.124298335399998
 20
-15.45003054
 10
-2.09879447749995
 20
-15.45054405510001
  0
ARC
  5
173
330
1F
100
AcDbEntity
  8
1
100
AcDbCircle
 10
0.4000000000000341
 20
-20.19282032300003
 30
0.0
 40
0.8
100
AcDbArc
 50
120.0000000000001
 51
180.0
  0
LINE
  5
174
330
1F
100
AcDbEntity
  8
1
100
AcDbLine
 10
-0.3999999999999772
 20
-16.25546874570011
 30
0.0
 11
-0.3012055224999699
 21
-15.45054405510001
 31
0.0
  0
LWPOLYLINE
  5
175
330
1F
100
AcDbEntity
  8
1
100
AcDbPolyline
 90
        8
 70
     0
 43
0.0
 10
-0.1144283525999867
 20
-15.46015458859999
 10
-0.1153979673999856
 20
-15.4775079232001
 10
-0.1158889846000761
 20
-15.48535444690003
 10
-0.1163864627000066
 20
-15.49263206070008
 10
-0.116894592200083
 20
-15.49926727370011
 10
-0.1174151344999927
 20
-15.50524641130008
 10
-0.1179568802000404
 20
-15.51038513190013
 10
-0.3999925229001064
 20
-17.80828129880012
  0
LINE
  5
176
330
1F
100
AcDbEntity
  8
1
100
AcDbLine
 10
-0.1134629920999828
 20
-15.44066044180008
 30
0.0
 11
-0.1144283525999867
 21
-15.46015458859999
 31
0.0
  0
LINE
  5
177
330
1F
100
AcDbEntity
  8
1
100
AcDbLine
 10
-0.1119975059000353
 20
-15.4072906676
 30
0.0
 11
-0.1134629920999828
 21
-15.44066044180008
 31
0.0
  0
LINE
  5
178
330
1F
100
AcDbEntity
  8
1
100
AcDbLine
 10
-0.3999999999999772
 20
-19.52558512910002
 30
0.0
 11
-0.3999999999999772
 21
-16.25546874570011
 31
0.0
  0
LWPOLYLINE
  5
179
330
1F
100
AcDbEntity
  8
1
100
AcDbPolyline
 90
       11
 70
     0
 43
0.0
 10
-0.3012055224999699
 20
-15.45054405510001
 10
-0.2757016645999784
 20
-15.45003054
 10
-0.2510825497000724
 20
-15.44856646870005
 10
-0.2271736566999607
 20
-15.4461282245
 10
-0.2044985489000055
 20
-15.4427866579
 10
-0.1834289985999931
 20
-15.43857778450001
 10
-0.1642458578000969
 20
-15.43358249280004
 10
-0.14728092870007
 20
-15.42786044540003
 10
-0.1327531326999747
 20
-15.42151133520013
 10
-0.1210331820000192
 20
-15.4146696902
 10
-0.1119975059000353
 20
-15.4072906676
  0
LINE
  5
17A
330
1F
100
AcDbEntity
  8
SK3
100
AcDbLine
 10
-2.399999999999977
 20
-11.0
 30
0.0
 11
0.0
 21
-11.0
 31
0.0
  0
LINE
  5
17B
330
1F
100
AcDbEntity
  8
1
100
AcDbLine
 10
-0.3999999999999772
 20
-11.29845110130003
 30
0.0
 11
-2.0
 21
-11.29845110130003
 31
0.0
  0
LINE
  5
17C
330
1F
100
AcDbEntity
  8
1
100
AcDbLine
 10
-2.0
 20
-14.36898457480001
 30
0.0
 11
-0.3999999999999772
 21
-14.36898457480001
 31
0.0
  0
LINE
  5
17D
330
1F
100
AcDbEntity
  8
4
100
AcDbLine
 10
-3.922995491899995
 20
0.0
 30
0.0
 11
1.720810625800025
 21
0.0
 31
0.0
  0
LINE
  5
17E
330
1F
100
AcDbEntity
  8
1
100
AcDbLine
 10
-0.3999999999999772
 20
-1.083065524300024
 30
0.0
 11
-2.0
 21
-1.083065524300024
 31
0.0
  0
LINE
  5
17F
330
1F
100
AcDbEntity
  8
1
100
AcDbLine
 10
-0.3999999999999772
 20
-3.086964439100028
 30
0.0
 11
-2.0
 21
-3.086964439100028
 31
0.0
  0
LINE
  5
180
330
1F
100
AcDbEntity
  8
1
100
AcDbLine
 10
-2.0
 20
2.884333648199969
 30
0.0
 11
-0.3999999999999772
 21
2.884333648199969
 31
0.0
  0
LINE
  5
181
330
1F
100
AcDbEntity
  8
1
100
AcDbLine
 10
-2.280867885599944
 20
15.24556335630001
 30
0.0
 11
-2.0
 21
12.72728598479983
 31
0.0
  0
LINE
  5
182
330
1F
100
AcDbEntity
  8
1
100
AcDbLine
 10
-0.3999999999999772
 20
10.95324773909999
 30
0.0
 11
-0.3999999999999772
 21
14.56474717399987
 31
0.0
  0
LINE
  5
183
330
1F
100
AcDbEntity
  8
1
100
AcDbLine
 10
-0.3999999999999772
 20
12.72728598479983
 30
0.0
 11
-0.1191321143001005
 21
15.24556335630001
 31
0.0
  0
LINE
  5
184
330
1F
100
AcDbEntity
  8
1
100
AcDbLine
 10
-0.1191321143001005
 20
15.24556335630001
 30
0.0
 11
-0.3999999999999772
 21
12.23635619739985
 31
0.0
  0
LINE
  5
185
330
1F
100
AcDbEntity
  8
1
100
AcDbLine
 10
-2.0
 20
14.56474717399987
 30
0.0
 11
-2.0
 21
10.95324773909999
 31
0.0
  0
LINE
  5
186
330
1F
100
AcDbEntity
  8
1
100
AcDbLine
 10
-2.280867885599944
 20
15.24556335630001
 30
0.0
 11
-2.0
 21
12.23635619739985
 31
0.0
  0
LINE
  5
187
330
1F
100
AcDbEntity
  8
SK3
100
AcDbLine
 10
-2.399999999999977
 20
11.0
 30
0.0
 11
0.0
 21
11.0
 31
0.0
  0
LINE
  5
188
330
1F
100
AcDbEntity
  8
1
100
AcDbLine
 10
-2.0
 20
10.9660764825
 30
0.0
 11
-0.3999999999999772
 21
10.9660764825
 31
0.0
  0
LINE
  5
189
330
1F
100
AcDbEntity
  8
1
100
AcDbLine
 10
-2.0
 20
10.95324773909999
 30
0.0
 11
-0.3999999999999772
 21
10.95324773909999
 31
0.0
  0
LINE
  5
18A
330
1F
100
AcDbEntity
  8
1
100
AcDbLine
 10
-2.09879447749995
 20
15.45054405509989
 30
0.0
 11
-0.3012055224999699
 21
15.45054405509989
 31
0.0
  0
LINE
  5
18B
330
1F
100
AcDbEntity
  8
1
100
AcDbLine
 10
-2.09879447749995
 20
15.45054405509989
 30
0.0
 11
-2.0
 21
14.56474717399987
 31
0.0
  0
LINE
  5
18C
330
1F
100
AcDbEntity
  8
1
100
AcDbLine
 10
-2.286054039899966
 20
15.34985978689991
 30
0.0
 11
-2.288002494099941
 21
15.40729066769999
 31
0.0
  0
LINE
  5
18D
330
1F
100
AcDbEntity
  8
1
100
AcDbLine
 10
-2.284602032500059
 20
15.31255473589999
 30
0.0
 11
-2.286054039899966
 21
15.34985978689991
 31
0.0
  0
LINE
  5
18E
330
1F
100
AcDbEntity
  8
1
100
AcDbLine
 10
-2.283613537300082
 20
15.2903031555
 30
0.0
 11
-2.284602032500059
 21
15.31255473589999
 31
0.0
  0
LINE
  5
18F
330
1F
100
AcDbEntity
  8
1
100
AcDbLine
 10
-2.28258486539994
 20
15.27027167299996
 30
0.0
 11
-2.283613537300082
 21
15.2903031555
 31
0.0
  0
LWPOLYLINE
  5
190
330
1F
100
AcDbEntity
  8
1
100
AcDbPolyline
 90
        4
 70
     0
 43
0.0
 10
-2.280867885599944
 20
15.24556335630001
 10
-2.281469621000042
 20
15.25300580629997
 10
-2.282043119800048
 20
15.26122675149986
 10
-2.28258486539994
 20
15.27027167299996
  0
LWPOLYLINE
  5
191
330
1F
100
AcDbEntity
  8
1
100
AcDbPolyline
 90
       11
 70
     0
 43
0.0
 10
-2.288002494099941
 20
15.40729066769999
 10
-2.278966818000069
 20
15.41466969019995
 10
-2.267246867299943
 20
15.42151133529989
 10
-2.252719071199976
 20
15.42786044549996
 10
-2.235754142200105
 20
15.43358249289997
 10
-2.216571001300053
 20
15.4385777846
 10
-2.195501451099969
 20
15.44278665799986
 10
-2.172826343299957
 20
15.4461282245
 10
-2.148917450300074
 20
15.44856646879997
 10
-2.124298335399998
 20
15.45003054
 10
-2.09879447749995
 20
15.45054405509989
  0
LWPOLYLINE
  5
192
330
1F
100
AcDbEntity
  8
1
100
AcDbPolyline
 90
       11
 70
     0
 43
0.0
 10
-0.3012055224999699
 20
15.45054405509989
 10
-0.2757016645999784
 20
15.45003054
 10
-0.2510825497000724
 20
15.44856646879997
 10
-0.2271736566999607
 20
15.4461282245
 10
-0.2044985489000055
 20
15.44278665799986
 10
-0.1834289985999931
 20
15.4385777846
 10
-0.1642458578000969
 20
15.43358249289997
 10
-0.14728092870007
 20
15.42786044549996
 10
-0.1327531326999747
 20
15.42151133529989
 10
-0.1210331820000192
 20
15.41466969019995
 10
-0.1119975059000353
 20
15.40729066769999
  0
LINE
  5
193
330
1F
100
AcDbEntity
  8
1
100
AcDbLine
 10
-0.1139459599999668
 20
15.34985978689991
 30
0.0
 11
-0.1153979673999856
 21
15.31255473589999
 31
0.0
  0
LINE
  5
194
330
1F
100
AcDbEntity
  8
1
100
AcDbLine
 10
-0.1119975059000353
 20
15.40729066769999
 30
0.0
 11
-0.1139459599999668
 21
15.34985978689991
 31
0.0
  0
LINE
  5
195
330
1F
100
AcDbEntity
  8
1
100
AcDbLine
 10
-0.3999999999999772
 20
14.56474717399987
 30
0.0
 11
-0.3012055224999699
 21
15.45054405509989
 31
0.0
  0
LWPOLYLINE
  5
196
330
1F
100
AcDbEntity
  8
1
100
AcDbPolyline
 90
        5
 70
     0
 43
0.0
 10
-0.1163864627000066
 20
15.2903031555
 10
-0.1174151344999927
 20
15.27027167299996
 10
-0.1179568802000404
 20
15.26122675149986
 10
-0.1185303789999352
 20
15.25300580629997
 10
-0.1191321143001005
 20
15.24556335630001
  0
LINE
  5
197
330
1F
100
AcDbEntity
  8
1
100
AcDbLine
 10
-0.1153979673999856
 20
15.31255473589999
 30
0.0
 11
-0.1163864627000066
 21
15.2903031555
 31
0.0
  0
LINE
  5
198
330
1F
100
AcDbEntity
  8
1
100
AcDbLine
 10
-0.3999999999999772
 20
40.45004948089995
 30
0.0
 11
-0.3999999999999772
 21
49.29503017549997
 31
0.0
  0
LINE
  5
199
330
1F
100
AcDbEntity
  8
1
100
AcDbLine
 10
-2.0
 20
40.45004948089995
 30
0.0
 11
-2.0
 21
49.29503017549997
 31
0.0
  0
LINE
  5
19A
330
1F
100
AcDbEntity
  8
1
100
AcDbLine
 10
-0.3999999999999772
 20
21.97551865639997
 30
0.0
 11
-2.0
 21
21.97551865639997
 31
0.0
  0
LINE
  5
19B
330
1F
100
AcDbEntity
  8
1
100
AcDbLine
 10
-0.3999999999999772
 20
26.66514294649994
 30
0.0
 11
-2.0
 21
26.66514294649994
 31
0.0
  0
LINE
  5
19C
330
1F
100
AcDbEntity
  8
1
100
AcDbLine
 10
-2.280867885599944
 20
40.185414311
 30
0.0
 11
-2.0
 21
36.300453178
 31
0.0
  0
LINE
  5
19D
330
1F
100
AcDbEntity
  8
1
100
AcDbLine
 10
-0.1191321143001005
 20
40.185414311
 30
0.0
 11
-0.3999999999999772
 21
36.300453178
 31
0.0
  0
LINE
  5
19E
330
1F
100
AcDbEntity
  8
1
100
AcDbLine
 10
-2.0
 20
31.37940889629998
 30
0.0
 11
-0.3999999999999772
 21
31.37940889629998
 31
0.0
  0
LINE
  5
19F
330
1F
100
AcDbEntity
  8
1
100
AcDbLine
 10
-2.09879447749995
 20
40.45004948089995
 30
0.0
 11
-0.3012055224999699
 21
40.45004948089995
 31
0.0
  0
LINE
  5
1A0
330
1F
100
AcDbEntity
  8
1
100
AcDbLine
 10
-2.0
 20
37.26906960109988
 30
0.0
 11
-0.3999999999999772
 21
37.26906960109988
 31
0.0
  0
LINE
  5
1A1
330
1F
100
AcDbEntity
  8
1
100
AcDbLine
 10
-2.0
 20
37.2354835148999
 30
0.0
 11
-0.3999999999999772
 21
37.2354835148999
 31
0.0
  0
LWPOLYLINE
  5
1A2
330
1F
100
AcDbEntity
  8
1
100
AcDbPolyline
 90
       10
 70
     0
 43
0.0
 10
-2.280867885599944
 20
40.3535265191
 10
-2.281469621000042
 20
40.35594707769996
 10
-2.282043119800048
 20
40.35755707359988
 10
-2.28258486539994
 20
40.35828737059995
 10
-2.283105407800062
 20
40.35834537699996
 10
-2.283613537300082
 20
40.35790840499998
 10
-2.284111015399957
 20
40.35699760669991
 10
-2.284602032500059
 20
40.35568861679985
 10
-2.285088092199996
 20
40.35399529979996
 10
-2.285327380700095
 20
40.35303274959995
  0
LINE
  5
1A3
330
1F
100
AcDbEntity
  8
1
100
AcDbLine
 10
-2.09879447749995
 20
40.45004948089995
 30
0.0
 11
-2.0
 21
39.82172471089984
 31
0.0
  0
LINE
  5
1A4
330
1F
100
AcDbEntity
  8
1
100
AcDbLine
 10
-2.280867885599944
 20
40.185414311
 30
0.0
 11
-2.0
 21
38.39911760549989
 31
0.0
  0
LWPOLYLINE
  5
1A5
330
1F
100
AcDbEntity
  8
1
100
AcDbPolyline
 90
        3
 70
     0
 43
0.0
 10
-2.286537007800061
 20
40.29908964829989
 10
-2.287510543000053
 20
40.32384975959995
 10
-2.288002494099941
 20
40.33681064239988
  0
LINE
  5
1A6
330
1F
100
AcDbEntity
  8
1
100
AcDbLine
 10
-2.284602032500059
 20
40.25374194049999
 30
0.0
 11
-2.286537007800061
 21
40.29908964829989
 31
0.0
  0
LINE
  5
1A7
330
1F
100
AcDbEntity
  8
1
100
AcDbLine
 10
-2.283105407800062
 20
40.22283329989995
 30
0.0
 11
-2.284602032500059
 21
40.25374194049999
 31
0.0
  0
LINE
  5
1A8
330
1F
100
AcDbEntity
  8
1
100
AcDbLine
 10
-2.282043119800048
 20
40.20356872589997
 30
0.0
 11
-2.283105407800062
 21
40.22283329989995
 31
0.0
  0
LWPOLYLINE
  5
1A9
330
1F
100
AcDbEntity
  8
1
100
AcDbPolyline
 90
        3
 70
     0
 43
0.0
 10
-2.280867885599944
 20
40.185414311
 10
-2.281469621000042
 20
40.19435274849991
 10
-2.282043119800048
 20
40.20356872589997
  0
LINE
  5
1AA
330
1F
100
AcDbEntity
  8
1
100
AcDbLine
 10
-2.0
 20
39.82172471089984
 30
0.0
 11
-2.0
 21
37.2354835148999
 31
0.0
  0
LINE
  5
1AB
330
1F
100
AcDbEntity
  8
1
100
AcDbLine
 10
-2.280867885599944
 20
40.3535265191
 30
0.0
 11
-2.0
 21
41.53789611579987
 31
0.0
  0
LINE
  5
1AC
330
1F
100
AcDbEntity
  8
1
100
AcDbLine
 10
-2.284978091300104
 20
40.35450123569995
 30
0.0
 11
-2.000027924899995
 21
41.55608507929996
 31
0.0
  0
LWPOLYLINE
  5
1AD
330
1F
100
AcDbEntity
  8
1
100
AcDbPolyline
 90
        7
 70
     0
 43
0.0
 10
-2.285327380700095
 20
40.35303274959995
 10
-2.285571647300059
 20
40.35195497309991
 10
-2.286054039899966
 20
40.34957291339996
 10
-2.286537007800061
 20
40.34686756019988
 10
-2.287021816899937
 20
40.34383674279996
 10
-2.287510543000053
 20
40.34048493379997
 10
-2.288002494099941
 20
40.33681064239988
  0
LWPOLYLINE
  5
1AE
330
1F
100
AcDbEntity
  8
1
100
AcDbPolyline
 90
       11
 70
     0
 43
0.0
 10
-2.288002494099941
 20
40.33681064239988
 10
-2.278966818000069
 20
40.35612917429999
 10
-2.267246867299943
 20
40.37404083359996
 10
-2.252719071199976
 20
40.39066301989985
 10
-2.235754142200105
 20
40.40564353439996
 10
-2.216571001300053
 20
40.41872137799987
 10
-2.195501451099969
 20
40.4297403514999
 10
-2.172826343299957
 20
40.43848868639992
 10
-2.148917450300074
 20
40.44487209269997
 10
-2.124298335399998
 20
40.44870508089997
 10
-2.09879447749995
 20
40.45004948089995
  0
LWPOLYLINE
  5
1AF
330
1F
100
AcDbEntity
  8
1
100
AcDbPolyline
 90
       11
 70
     0
 43
0.0
 10
-0.3012055224999699
 20
40.45004948089995
 10
-0.2757016645999784
 20
40.44870508089997
 10
-0.2510825497000724
 20
40.44487209269997
 10
-0.2271736566999607
 20
40.43848868639992
 10
-0.2044985489000055
 20
40.4297403514999
 10
-0.1834289985999931
 20
40.41872137799987
 10
-0.1642458578000969
 20
40.40564353439996
 10
-0.14728092870007
 20
40.39066301989985
 10
-0.1327531326999747
 20
40.37404083359996
 10
-0.1210331820000192
 20
40.35612917429999
 10
-0.1119975059000353
 20
40.33681064239988
  0
LWPOLYLINE
  5
1B0
330
1F
100
AcDbEntity
  8
1
100
AcDbPolyline
 90
       10
 70
     0
 43
0.0
 10
-0.1146726191999505
 20
40.35303274959995
 10
-0.1149119076999341
 20
40.35399529979996
 10
-0.1153979673999856
 20
40.35568861679985
 10
-0.1158889846000761
 20
40.35699760669991
 10
-0.1163864627000066
 20
40.35790840499998
 10
-0.116894592200083
 20
40.35834537699996
 10
-0.1174151344999927
 20
40.35828737059995
 10
-0.1179568802000404
 20
40.35755707359988
 10
-0.1185303789999352
 20
40.35594707769996
 10
-0.1191321143001005
 20
40.3535265191
  0
LINE
  5
1B1
330
1F
100
AcDbEntity
  8
1
100
AcDbLine
 10
-0.3999720749999369
 20
41.55608507929996
 30
0.0
 11
-0.1146445889999654
 21
40.35291014609998
 31
0.0
  0
LINE
  5
1B2
330
1F
100
AcDbEntity
  8
1
100
AcDbLine
 10
-0.3999999999999772
 20
41.53789611579987
 30
0.0
 11
-0.1191321143001005
 21
40.3535265191
 31
0.0
  0
LWPOLYLINE
  5
1B3
330
1F
100
AcDbEntity
  8
1
100
AcDbPolyline
 90
        7
 70
     0
 43
0.0
 10
-0.1119975059000353
 20
40.33681064239988
 10
-0.1124894568999935
 20
40.34048493379997
 10
-0.1129781830001093
 20
40.34383674279996
 10
-0.1134629920999828
 20
40.34686756019988
 10
-0.1139459599999668
 20
40.34957291339996
 10
-0.1144283525999867
 20
40.35195497309991
 10
-0.1146726191999505
 20
40.35303274959995
  0
LINE
  5
1B4
330
1F
100
AcDbEntity
  8
1
100
AcDbLine
 10
-0.3999999999999772
 20
37.2354835148999
 30
0.0
 11
-0.3999999999999772
 21
39.82172471089984
 31
0.0
  0
LWPOLYLINE
  5
1B5
330
1F
100
AcDbEntity
  8
1
100
AcDbPolyline
 90
        4
 70
     0
 43
0.0
 10
-0.116894592200083
 20
40.22283329989995
 10
-0.1179568802000404
 20
40.20356872589997
 10
-0.1185303789999352
 20
40.19435274849991
 10
-0.1191321143001005
 20
40.185414311
  0
LINE
  5
1B6
330
1F
100
AcDbEntity
  8
1
100
AcDbLine
 10
-0.1158889846000761
 20
40.24316398859997
 30
0.0
 11
-0.116894592200083
 21
40.22283329989995
 31
0.0
  0
LINE
  5
1B7
330
1F
100
AcDbEntity
  8
1
100
AcDbLine
 10
-0.1144283525999867
 20
40.27577906329987
 30
0.0
 11
-0.1158889846000761
 21
40.24316398859997
 31
0.0
  0
LINE
  5
1B8
330
1F
100
AcDbEntity
  8
1
100
AcDbLine
 10
-0.1119975059000353
 20
40.33681064239988
 30
0.0
 11
-0.1144283525999867
 21
40.27577906329987
 31
0.0
  0
LINE
  5
1B9
330
1F
100
AcDbEntity
  8
1
100
AcDbLine
 10
-0.3999999999999772
 20
38.39911760549989
 30
0.0
 11
-0.1191321143001005
 21
40.185414311
 31
0.0
  0
LINE
  5
1BA
330
1F
100
AcDbEntity
  8
1
100
AcDbLine
 10
-0.3999999999999772
 20
39.82172471089984
 30
0.0
 11
-0.3012055224999699
 21
40.45004948089995
 31
0.0
  0
LINE
  5
1BB
330
1F
100
AcDbEntity
  8
1
100
AcDbLine
 10
-2.0
 20
46.49901085169995
 30
0.0
 11
-2.288002494099941
 21
49.85903994959993
 31
0.0
  0
LINE
  5
1BC
330
1F
100
AcDbEntity
  8
1
100
AcDbLine
 10
-0.1119975059000353
 20
49.85903994959993
 30
0.0
 11
-0.3999999999999772
 21
46.49901085169995
 31
0.0
  0
LINE
  5
1BD
330
1F
100
AcDbEntity
  8
1
100
AcDbLine
 10
-2.0
 20
47.88861649289997
 30
0.0
 11
-0.3999999999999772
 21
47.88861649289997
 31
0.0
  0
LINE
  5
1BE
330
1F
100
AcDbEntity
  8
1
100
AcDbLine
 10
-0.3999999999999772
 20
44.22817312659996
 30
0.0
 11
-2.0
 21
44.22817312659996
 31
0.0
  0
LINE
  5
1BF
330
1F
100
AcDbEntity
  8
1
100
AcDbLine
 10
-2.09879447749995
 20
49.99901085169988
 30
0.0
 11
-0.3012055224999699
 21
49.99901085169988
 31
0.0
  0
LINE
  5
1C0
330
1F
100
AcDbEntity
  8
1
100
AcDbLine
 10
-2.0
 20
49.33654486109998
 30
0.0
 11
-0.3999999999999772
 21
49.33654486109998
 31
0.0
  0
LINE
  5
1C1
330
1F
100
AcDbEntity
  8
1
100
AcDbLine
 10
-2.0
 20
49.29503017549997
 30
0.0
 11
-0.3999999999999772
 21
49.29503017549997
 31
0.0
  0
LINE
  5
1C2
330
1F
100
AcDbEntity
  8
1
100
AcDbLine
 10
-2.09879447749995
 20
49.99901085169988
 30
0.0
 11
-2.0
 21
49.86815689880001
 31
0.0
  0
LINE
  5
1C3
330
1F
100
AcDbEntity
  8
1
100
AcDbLine
 10
-2.280867885599944
 20
49.77580285089999
 30
0.0
 11
-2.0
 21
49.40379143889996
 31
0.0
  0
LINE
  5
1C4
330
1F
100
AcDbEntity
  8
1
100
AcDbLine
 10
-2.0
 20
49.86815689880001
 30
0.0
 11
-2.0
 21
49.29503017549997
 31
0.0
  0
LWPOLYLINE
  5
1C5
330
1F
100
AcDbEntity
  8
1
100
AcDbPolyline
 90
       11
 70
     0
 43
0.0
 10
-2.288002494099941
 20
49.85903994959993
 10
-2.278966818000069
 20
49.88291896819998
 10
-2.267246867299943
 20
49.90505899659996
 10
-2.252719071199976
 20
49.9256051488
 10
-2.235754142200105
 20
49.94412208319999
 10
-2.216571001300053
 20
49.96028718679986
 10
-2.195501451099969
 20
49.97390738719996
 10
-2.172826343299957
 20
49.98472092380001
 10
-2.148917450300074
 20
49.9926112477999
 10
-2.124298335399998
 20
49.99734908189987
 10
-2.09879447749995
 20
49.99901085169988
  0
LWPOLYLINE
  5
1C6
330
1F
100
AcDbEntity
  8
1
100
AcDbPolyline
 90
       11
 70
     0
 43
0.0
 10
-0.3012055224999699
 20
49.99901085169988
 10
-0.2757016645999784
 20
49.99734908189987
 10
-0.2510825497000724
 20
49.9926112477999
 10
-0.2271736566999607
 20
49.98472092380001
 10
-0.2044985489000055
 20
49.97390738719996
 10
-0.1834289985999931
 20
49.96028718679986
 10
-0.1642458578000969
 20
49.94412208319999
 10
-0.14728092870007
 20
49.9256051488
 10
-0.1327531326999747
 20
49.90505899659996
 10
-0.1210331820000192
 20
49.88291896819998
 10
-0.1119975059000353
 20
49.85903994959993
  0
LINE
  5
1C7
330
1F
100
AcDbEntity
  8
1
100
AcDbLine
 10
-0.3999999999999772
 20
49.29503017549997
 30
0.0
 11
-0.3999999999999772
 21
49.86815689880001
 31
0.0
  0
LINE
  5
1C8
330
1F
100
AcDbEntity
  8
1
100
AcDbLine
 10
-0.3999999999999772
 20
49.40379143889996
 30
0.0
 11
-0.1191321143001005
 21
49.77580285089999
 31
0.0
  0
LINE
  5
1C9
330
1F
100
AcDbEntity
  8
1
100
AcDbLine
 10
-0.3999999999999772
 20
49.86815689880001
 30
0.0
 11
-0.3012055224999699
 21
49.99901085169988
 31
0.0
  0
MTEXT
  5
282
330
1F
100
AcDbEntity
  8
6
100
AcDbMText
 10
2.40155461815601
 20
49.30151440548389
 30
0.0
 40
3.5
 41
0.8
 71
     1
 72
     5
  1
GCXF082202N
 73
     1
 44
1.0
  0
MTEXT
  5
283
330
1F
100
AcDbEntity
  8
6
100
AcDbMText
 10
15.58746161347028
 20
-5.477297630927862
 30
0.0
 40
3.5
 41
28.8086
 71
     1
 72
     5
  1
Z=10
 11
0.0000000000000001
 21
1.0
 31
0.0
 73
     1
 44
1.0
  0
LWPOLYLINE
  5
2DD
330
1F
100
AcDbEntity
  8
CUT
100
AcDbPolyline
 90
       11
 70
     0
 43
0.0
 10
-0.1119975058999785
 20
49.85903994959988
 10
-0.1210331819999908
 20
49.8829189681999
 10
-0.1327531326999747
 20
49.90505899669988
 10
-0.1472809286999848
 20
49.9256051488999
 10
-0.1642458577999832
 20
49.9441220831999
 10
-0.1834289985999931
 20
49.96028718679985
 10
-0.2044985488999771
 20
49.97390738719988
 10
-0.2271736566999607
 20
49.98472092379985
 10
-0.2510825496999587
 20
49.99261124789986
 10
-0.2757016645999784
 20
49.99734908189989
 10
-0.3012055224999699
 20
49.99901085169988
  0
LINE
  5
2DE
330
1F
100
AcDbEntity
  8
CUT
100
AcDbLine
 10
-2.28800249409997
 20
49.85903994959988
 30
0.0
 11
-1.999999999999971
 21
46.49901085169989
 31
0.0
  0
LWPOLYLINE
  5
2DF
330
1F
100
AcDbEntity
  8
CUT
100
AcDbPolyline
 90
       11
 70
     0
 43
0.0
 10
-2.098794477499978
 20
49.99901085169988
 10
-2.124298335399941
 20
49.99734908189989
 10
-2.14891745029996
 20
49.99261124789986
 10
-2.172826343299958
 20
49.98472092379985
 10
-2.1955014511
 20
49.97390738719988
 10
-2.216571001399983
 20
49.96028718679985
 10
-2.235754142199964
 20
49.9441220831999
 10
-2.252719071199976
 20
49.9256051488999
 10
-2.267246867299974
 20
49.90505899669988
 10
-2.278966817999986
 20
49.8829189681999
 10
-2.28800249409997
 20
49.85903994959988
  0
LINE
  5
2E0
330
1F
100
AcDbEntity
  8
CUT
100
AcDbLine
 10
-0.3999999999999772
 20
46.49901085169989
 30
0.0
 11
-1.999999999999971
 21
46.49901085169989
 31
0.0
  0
LINE
  5
2E1
330
1F
100
AcDbEntity
  8
CUT
100
AcDbLine
 10
-0.3012055224999699
 20
49.99901085169988
 30
0.0
 11
-2.098794477499978
 21
49.99901085169988
 31
0.0
  0
LINE
  5
2E2
330
1F
100
AcDbEntity
  8
CUT
100
AcDbLine
 10
-0.1119975058999785
 20
49.85903994959988
 30
0.0
 11
-0.3999999999999772
 21
46.49901085169989
 31
0.0
  0
LWPOLYLINE
  5
2F5
330
1F
100
AcDbEntity
  8
NOCUT
100
AcDbPolyline
 90
       52
 70
     1
 43
0.0
 10
-2.0
 20
-41.55620283360454
 10
-2.28534991425333
 20
-40.35293332489706
 10
-2.285571647300059
 20
-40.35195497310013
 10
-2.286054039899966
 20
-40.34957291329999
 10
-2.286537007800063
 20
-40.34686756010001
 10
-2.287021816899937
 20
-40.34383674270003
 10
-2.287510543000053
 20
-40.34048493380004
 10
-2.288002494099941
 20
-40.33681064240011
 10
-2.0
 20
-37.61849000060005
 10
-1.999999999999957
 20
-20.19282032300003
 42
0.267949192431122
 10
-2.399999999999977
 20
-19.49999999997246
 10
-2.399999999999977
 20
0.0
 10
0.0
 20
0.0
 10
0.0000000000000284
 20
-19.49999999997248
 42
0.2679491924311223
 10
-0.3999999999999772
 20
-20.19282032300003
 10
-0.3999999999999772
 20
-37.61849000060005
 10
-0.1119975059000353
 20
-40.33681064240011
 10
-0.1124894568999935
 20
-40.34048493380004
 10
-0.1129781830001093
 20
-40.34383674270003
 10
-0.1134629920999828
 20
-40.34686756010001
 10
-0.1139459599999668
 20
-40.34957291329999
 10
-0.1144283525999867
 20
-40.35195497310013
 10
-0.1146500834897779
 20
-40.35293331538005
 10
-0.3999999999999772
 20
-41.55620283402646
 10
-0.3999999999999772
 20
-42.55913687159999
 10
-0.3999999999999772
 20
-46.45000000000012
 10
-0.3999999999999772
 20
-46.49901085159998
 10
-0.1119975059000353
 20
-49.85903994950003
 10
-0.1210331820000192
 20
-49.88291896810004
 10
-0.1327531326999747
 20
-49.90505899660003
 10
-0.14728092870007
 20
-49.92560514880003
 10
-0.1642458578000969
 20
-49.94412208310002
 10
-0.1834289985999931
 20
-49.9602871867
 10
-0.2044985489000055
 20
-49.97390738710013
 10
-0.2271736566999607
 20
-49.98472092370011
 10
-0.2510825497000724
 20
-49.99261124780012
 10
-0.2757016645999784
 20
-49.99734908180002
 10
-0.3012055224999699
 20
-49.99901085160002
 10
-2.09879447749995
 20
-49.99901085160002
 10
-2.124298335399998
 20
-49.99734908180002
 10
-2.148917450300075
 20
-49.99261124780012
 10
-2.172826343299959
 20
-49.98472092370011
 10
-2.195501451099971
 20
-49.97390738710013
 10
-2.216571001300053
 20
-49.9602871867
 10
-2.235754142200107
 20
-49.94412208310002
 10
-2.252719071199976
 20
-49.92560514880003
 10
-2.267246867299945
 20
-49.90505899660003
 10
-2.278966818000071
 20
-49.88291896810004
 10
-2.288002494099941
 20
-49.85903994950003
 10
-2.0
 20
-46.49901085159998
 10
-2.0
 20
-46.45000000000012
 10
-2.0
 20
-42.55913687159999
  0
ENDSEC
  0
SECTION
  2
OBJECTS
  0
DICTIONARY
  5
C
330
0
100
AcDbDictionary
281
     1
  3
ACAD_GROUP
350
D
  3
ACAD_LAYOUT
350
1A
  3
ACAD_MLINESTYLE
350
17
  3
ACAD_PLOTSETTINGS
350
19
  3
ACAD_PLOTSTYLENAME
350
E
  0
DICTIONARY
  5
D
102
{ACAD_REACTORS
330
C
102
}
330
C
100
AcDbDictionary
281
     1
  0
DICTIONARY
  5
1A
102
{ACAD_REACTORS
330
C
102
}
330
C
100
AcDbDictionary
281
     1
  3
Layout1
350
1E
  3
Layout2
350
26
  3
Model
350
22
  0
DICTIONARY
  5
17
102
{ACAD_REACTORS
330
C
102
}
330
C
100
AcDbDictionary
281
     1
  3
Standard
350
18
  0
DICTIONARY
  5
19
102
{ACAD_REACTORS
330
C
102
}
330
C
100
AcDbDictionary
281
     1
  0
ACDBDICTIONARYWDFLT
  5
E
102
{ACAD_REACTORS
330
C
102
}
330
C
100
AcDbDictionary
281
     1
  3
Normal
350
F
100
AcDbDictionaryWithDefault
340
F
  0
LAYOUT
  5
1E
102
{ACAD_REACTORS
330
1A
102
}
330
1A
100
AcDbPlotSettings
  1

  2
\\ingdom02\ITB2
  4

  6

 40
0.0
 41
0.0
 42
0.0
 43
0.0
 44
0.0
 45
0.0
 46
0.0
 47
0.0
 48
0.0
 49
0.0
140
0.0
141
0.0
142
1.0
143
1.0
 70
   688
 72
     0
 73
     0
 74
     5
  7

 75
    16
147
1.0
148
0.0
149
0.0
100
AcDbLayout
  1
Layout1
 70
     1
 71
     1
 10
0.0
 20
0.0
 11
420.0
 21
297.0
 12
0.0
 22
0.0
 32
0.0
 14
1.000000000000000E+20
 24
1.000000000000000E+20
 34
1.000000000000000E+20
 15
-1.000000000000000E+20
 25
-1.000000000000000E+20
 35
-1.000000000000000E+20
146
0.0
 13
0.0
 23
0.0
 33
0.0
 16
1.0
 26
0.0
 36
0.0
 17
0.0
 27
1.0
 37
0.0
 76
     0
330
1B
  0
LAYOUT
  5
26
102
{ACAD_REACTORS
330
1A
102
}
330
1A
100
AcDbPlotSettings
  1

  2
\\ingdom02\ITB2
  4

  6

 40
0.0
 41
0.0
 42
0.0
 43
0.0
 44
0.0
 45
0.0
 46
0.0
 47
0.0
 48
0.0
 49
0.0
140
0.0
141
0.0
142
1.0
143
1.0
 70
   688
 72
     0
 73
     0
 74
     5
  7

 75
    16
147
1.0
148
0.0
149
0.0
100
AcDbLayout
  1
Layout2
 70
     1
 71
     2
 10
0.0
 20
0.0
 11
12.0
 21
9.0
 12
0.0
 22
0.0
 32
0.0
 14
0.0
 24
0.0
 34
0.0
 15
0.0
 25
0.0
 35
0.0
146
0.0
 13
0.0
 23
0.0
 33
0.0
 16
1.0
 26
0.0
 36
0.0
 17
0.0
 27
1.0
 37
0.0
 76
     0
330
23
  0
LAYOUT
  5
22
102
{ACAD_REACTORS
330
1A
102
}
330
1A
100
AcDbPlotSettings
  1

  2
\\ingdom02\ITB2
  4

  6

 40
0.0
 41
0.0
 42
0.0
 43
0.0
 44
0.0
 45
0.0
 46
0.0
 47
0.0
 48
0.0
 49
0.0
140
0.0
141
0.0
142
1.0
143
1.0
 70
  1712
 72
     0
 73
     0
 74
     0
  7

 75
     0
147
1.0
148
0.0
149
0.0
100
AcDbLayout
  1
Model
 70
     1
 71
     0
 10
0.0
 20
0.0
 11
12.0
 21
9.0
 12
0.0
 22
0.0
 32
0.0
 14
0.0
 24
0.0
 34
0.0
 15
0.0
 25
0.0
 35
0.0
146
0.0
 13
0.0
 23
0.0
 33
0.0
 16
1.0
 26
0.0
 36
0.0
 17
0.0
 27
1.0
 37
0.0
 76
     0
330
1F
  0
MLINESTYLE
  5
18
102
{ACAD_REACTORS
330
17
102
}
330
17
100
AcDbMlineStyle
  2
STANDARD
 70
     0
  3

 62
   256
 51
90.0
 52
90.0
 71
     2
 49
0.5
 62
   256
  6
BYLAYER
 49
-0.5
 62
   256
  6
BYLAYER
  0
ACDBPLACEHOLDER
  5
F
102
{ACAD_REACTORS
330
E
102
}
330
E
  0
ENDSEC
  0
EOF
