  0
SECTION
  2
HEADER
  9
$ACADVER
  1
AC1015
  9
$ACADMAINTVER
 70
    10
  9
$DWGCODEPAGE
  3
ANSI_1252
  9
$INSBASE
 10
0.0
 20
0.0
 30
0.0
  9
$EXTMIN
 10
-24.72510373314128
 20
-37.51530874310606
 30
-0.000000000000013
  9
$EXTMAX
 10
36.71994790769952
 20
63.01078303849511
 30
0.0000000000000023
  9
$LIMMIN
 10
0.0
 20
0.0
  9
$LIMMAX
 10
420.0
 20
297.0
  9
$ORTHOMODE
 70
     0
  9
$REGENMODE
 70
     1
  9
$FILLMODE
 70
     1
  9
$QTEXTMODE
 70
     0
  9
$MIRRTEXT
 70
     1
  9
$LTSCALE
 40
5.0
  9
$ATTMODE
 70
     1
  9
$TEXTSIZE
 40
3.5
  9
$TRACEWID
 40
1.0
  9
$TEXTSTYLE
  7
Standard
  9
$CLAYER
  8
0
  9
$CELTYPE
  6
ByLayer
  9
$CECOLOR
 62
   256
  9
$CELTSCALE
 40
1.0
  9
$DISPSILH
 70
     0
  9
$DIMSCALE
 40
1.0
  9
$DIMASZ
 40
2.5
  9
$DIMEXO
 40
0.625
  9
$DIMDLI
 40
3.75
  9
$DIMRND
 40
0.0
  9
$DIMDLE
 40
0.0
  9
$DIMEXE
 40
1.25
  9
$DIMTP
 40
0.0
  9
$DIMTM
 40
0.0
  9
$DIMTXT
 40
2.5
  9
$DIMCEN
 40
2.5
  9
$DIMTSZ
 40
0.0
  9
$DIMTOL
 70
     0
  9
$DIMLIM
 70
     0
  9
$DIMTIH
 70
     0
  9
$DIMTOH
 70
     0
  9
$DIMSE1
 70
     0
  9
$DIMSE2
 70
     0
  9
$DIMTAD
 70
     1
  9
$DIMZIN
 70
     8
  9
$DIMBLK
  1

  9
$DIMASO
 70
     1
  9
$DIMSHO
 70
     1
  9
$DIMPOST
  1

  9
$DIMAPOST
  1

  9
$DIMALT
 70
     0
  9
$DIMALTD
 70
     3
  9
$DIMALTF
 40
0.03937007874016
  9
$DIMLFAC
 40
1.0
  9
$DIMTOFL
 70
     1
  9
$DIMTVP
 40
0.0
  9
$DIMTIX
 70
     0
  9
$DIMSOXD
 70
     0
  9
$DIMSAH
 70
     0
  9
$DIMBLK1
  1

  9
$DIMBLK2
  1

  9
$DIMSTYLE
  2
ISO-25
  9
$DIMCLRD
 70
     0
  9
$DIMCLRE
 70
     0
  9
$DIMCLRT
 70
     0
  9
$DIMTFAC
 40
1.0
  9
$DIMGAP
 40
0.625
  9
$DIMJUST
 70
     0
  9
$DIMSD1
 70
     0
  9
$DIMSD2
 70
     0
  9
$DIMTOLJ
 70
     0
  9
$DIMTZIN
 70
     8
  9
$DIMALTZ
 70
     0
  9
$DIMALTTZ
 70
     0
  9
$DIMUPT
 70
     0
  9
$DIMDEC
 70
     2
  9
$DIMTDEC
 70
     2
  9
$DIMALTU
 70
     2
  9
$DIMALTTD
 70
     3
  9
$DIMTXSTY
  7
Standard
  9
$DIMAUNIT
 70
     0
  9
$DIMADEC
 70
     0
  9
$DIMALTRND
 40
0.0
  9
$DIMAZIN
 70
     0
  9
$DIMDSEP
 70
    44
  9
$DIMATFIT
 70
     3
  9
$DIMFRAC
 70
     0
  9
$DIMLDRBLK
  1

  9
$DIMLUNIT
 70
     2
  9
$DIMLWD
 70
    -2
  9
$DIMLWE
 70
    -2
  9
$DIMTMOVE
 70
     0
  9
$LUNITS
 70
     2
  9
$LUPREC
 70
     4
  9
$SKETCHINC
 40
1.0
  9
$FILLETRAD
 40
10.0
  9
$AUNITS
 70
     0
  9
$AUPREC
 70
     0
  9
$MENU
  1
.
  9
$ELEVATION
 40
0.0
  9
$PELEVATION
 40
0.0
  9
$THICKNESS
 40
0.0
  9
$LIMCHECK
 70
     0
  9
$CHAMFERA
 40
10.0
  9
$CHAMFERB
 40
10.0
  9
$CHAMFERC
 40
20.0
  9
$CHAMFERD
 40
0.0
  9
$SKPOLY
 70
     0
  9
$TDCREATE
 40
2454228.351303194
  9
$TDUCREATE
 40
2454228.267969861
  9
$TDUPDATE
 40
2454228.633954189
  9
$TDUUPDATE
 40
2454228.550620856
  9
$TDINDWG
 40
0.0037109491
  9
$TDUSRTIMER
 40
0.0037104051
  9
$USRTIMER
 70
     1
  9
$ANGBASE
 50
0.0
  9
$ANGDIR
 70
     0
  9
$PDMODE
 70
     0
  9
$PDSIZE
 40
0.0
  9
$PLINEWID
 40
0.0
  9
$SPLFRAME
 70
     0
  9
$SPLINETYPE
 70
     6
  9
$SPLINESEGS
 70
     8
  9
$HANDSEED
  5
2D0
  9
$SURFTAB1
 70
     6
  9
$SURFTAB2
 70
     6
  9
$SURFTYPE
 70
     6
  9
$SURFU
 70
     6
  9
$SURFV
 70
     6
  9
$UCSBASE
  2

  9
$UCSNAME
  2

  9
$UCSORG
 10
0.0
 20
0.0
 30
0.0
  9
$UCSXDIR
 10
1.0
 20
0.0
 30
0.0
  9
$UCSYDIR
 10
0.0
 20
1.0
 30
0.0
  9
$UCSORTHOREF
  2

  9
$UCSORTHOVIEW
 70
     0
  9
$UCSORGTOP
 10
0.0
 20
0.0
 30
0.0
  9
$UCSORGBOTTOM
 10
0.0
 20
0.0
 30
0.0
  9
$UCSORGLEFT
 10
0.0
 20
0.0
 30
0.0
  9
$UCSORGRIGHT
 10
0.0
 20
0.0
 30
0.0
  9
$UCSORGFRONT
 10
0.0
 20
0.0
 30
0.0
  9
$UCSORGBACK
 10
0.0
 20
0.0
 30
0.0
  9
$PUCSBASE
  2

  9
$PUCSNAME
  2

  9
$PUCSORG
 10
0.0
 20
0.0
 30
0.0
  9
$PUCSXDIR
 10
1.0
 20
0.0
 30
0.0
  9
$PUCSYDIR
 10
0.0
 20
1.0
 30
0.0
  9
$PUCSORTHOREF
  2

  9
$PUCSORTHOVIEW
 70
     0
  9
$PUCSORGTOP
 10
0.0
 20
0.0
 30
0.0
  9
$PUCSORGBOTTOM
 10
0.0
 20
0.0
 30
0.0
  9
$PUCSORGLEFT
 10
0.0
 20
0.0
 30
0.0
  9
$PUCSORGRIGHT
 10
0.0
 20
0.0
 30
0.0
  9
$PUCSORGFRONT
 10
0.0
 20
0.0
 30
0.0
  9
$PUCSORGBACK
 10
0.0
 20
0.0
 30
0.0
  9
$USERI1
 70
     0
  9
$USERI2
 70
     0
  9
$USERI3
 70
     0
  9
$USERI4
 70
     0
  9
$USERI5
 70
     0
  9
$USERR1
 40
0.0
  9
$USERR2
 40
0.0
  9
$USERR3
 40
0.0
  9
$USERR4
 40
0.0
  9
$USERR5
 40
0.0
  9
$WORLDVIEW
 70
     1
  9
$SHADEDGE
 70
     3
  9
$SHADEDIF
 70
    70
  9
$TILEMODE
 70
     1
  9
$MAXACTVP
 70
    64
  9
$PINSBASE
 10
0.0
 20
0.0
 30
0.0
  9
$PLIMCHECK
 70
     0
  9
$PEXTMIN
 10
1.000000000000000E+20
 20
1.000000000000000E+20
 30
1.000000000000000E+20
  9
$PEXTMAX
 10
-1.000000000000000E+20
 20
-1.000000000000000E+20
 30
-1.000000000000000E+20
  9
$PLIMMIN
 10
0.0
 20
0.0
  9
$PLIMMAX
 10
420.0
 20
297.0
  9
$UNITMODE
 70
     0
  9
$VISRETAIN
 70
     1
  9
$PLINEGEN
 70
     0
  9
$PSLTSCALE
 70
     1
  9
$TREEDEPTH
 70
  3020
  9
$CMLSTYLE
  2
Standard
  9
$CMLJUST
 70
     0
  9
$CMLSCALE
 40
20.0
  9
$PROXYGRAPHICS
 70
     1
  9
$MEASUREMENT
 70
     1
  9
$CELWEIGHT
370
    -1
  9
$ENDCAPS
280
     0
  9
$JOINSTYLE
280
     0
  9
$LWDISPLAY
290
     0
  9
$INSUNITS
 70
     4
  9
$HYPERLINKBASE
  1

  9
$STYLESHEET
  1

  9
$XEDIT
290
     1
  9
$CEPSNTYPE
380
     0
  9
$PSTYLEMODE
290
     1
  9
$FINGERPRINTGUID
  2
{A6CB621A-BAE1-4D8B-8FE7-8ECC6A2B5997}
  9
$VERSIONGUID
  2
{313B7C8F-CAFD-4785-A4C8-0D6C6602B0C5}
  9
$EXTNAMES
290
     1
  9
$PSVPSCALE
 40
0.0
  9
$OLESTARTUP
290
     0
  0
ENDSEC
  0
SECTION
  2
CLASSES
  0
CLASS
  1
ACDBDICTIONARYWDFLT
  2
AcDbDictionaryWithDefault
  3
AutoCAD 2000
 90
        0
280
     0
281
     0
  0
CLASS
  1
ACDBPLACEHOLDER
  2
AcDbPlaceHolder
  3
AutoCAD 2000
 90
        0
280
     0
281
     0
  0
CLASS
  1
LAYOUT
  2
AcDbLayout
  3
AutoCAD 2000
 90
        0
280
     0
281
     0
  0
ENDSEC
  0
SECTION
  2
TABLES
  0
TABLE
  2
VPORT
  5
8
330
0
100
AcDbSymbolTable
 70
     3
  0
VPORT
  5
2CF
330
8
100
AcDbSymbolTableRecord
100
AcDbViewportTableRecord
  2
*Active
 70
     0
 10
0.0
 20
0.0
 11
1.0
 21
1.0
 12
5.997422087279119
 22
12.74773714769452
 13
0.0
 23
0.0
 14
10.0
 24
10.0
 15
10.0
 25
10.0
 16
0.0
 26
0.0
 36
1.0
 17
0.0
 27
0.0
 37
0.0
 40
102.0080489086026
 41
2.423645320197044
 42
50.0
 43
0.0
 44
0.0
 50
0.0
 51
0.0
 71
     0
 72
   100
 73
     1
 74
     3
 75
     0
 76
     0
 77
     0
 78
     0
281
     0
 65
     1
110
0.0
120
0.0
130
0.0
111
1.0
121
0.0
131
0.0
112
0.0
122
1.0
132
0.0
 79
     0
146
0.0
  0
ENDTAB
  0
TABLE
  2
LTYPE
  5
5
330
0
100
AcDbSymbolTable
 70
     3
  0
LTYPE
  5
14
330
5
100
AcDbSymbolTableRecord
100
AcDbLinetypeTableRecord
  2
ByBlock
 70
     0
  3

 72
    65
 73
     0
 40
0.0
  0
LTYPE
  5
15
330
5
100
AcDbSymbolTableRecord
100
AcDbLinetypeTableRecord
  2
ByLayer
 70
     0
  3

 72
    65
 73
     0
 40
0.0
  0
LTYPE
  5
16
330
5
100
AcDbSymbolTableRecord
100
AcDbLinetypeTableRecord
  2
Continuous
 70
     0
  3
Solid line
 72
    65
 73
     0
 40
0.0
  0
LTYPE
  5
78
330
5
100
AcDbSymbolTableRecord
100
AcDbLinetypeTableRecord
  2
CENTER
 70
     0
  3
____ _ ____ _ ____ _ ____ _ ____ _ ____ _ ____
 72
    65
 73
     4
 40
0.6
 49
0.375
 74
     0
 49
-0.075
 74
     0
 49
0.075
 74
     0
 49
-0.075
 74
     0
  0
LTYPE
  5
79
330
5
100
AcDbSymbolTableRecord
100
AcDbLinetypeTableRecord
  2
HIDDEN
 70
     0
  3
- - - - - - - - - - - - - - - - - - - -
 72
    65
 73
     2
 40
0.2
 49
0.1
 74
     0
 49
-0.1
 74
     0
  0
ENDTAB
  0
TABLE
  2
LAYER
  5
2
330
0
100
AcDbSymbolTable
 70
    10
  0
LAYER
  5
10
330
2
100
AcDbSymbolTableRecord
100
AcDbLayerTableRecord
  2
0
 70
     0
 62
     7
  6
Continuous
370
    -3
390
F
  0
LAYER
  5
7C
330
2
100
AcDbSymbolTableRecord
100
AcDbLayerTableRecord
  2
1
 70
     0
 62
     4
  6
Continuous
370
    -3
390
F
  0
LAYER
  5
7D
330
2
100
AcDbSymbolTableRecord
100
AcDbLayerTableRecord
  2
SK3
 70
     0
 62
     1
  6
HIDDEN
370
    -3
390
F
  0
LAYER
  5
7E
330
2
100
AcDbSymbolTableRecord
100
AcDbLayerTableRecord
  2
4
 70
     0
 62
     2
  6
CENTER
370
    -3
390
F
  0
LAYER
  5
7F
330
2
100
AcDbSymbolTableRecord
100
AcDbLayerTableRecord
  2
6
 70
     0
 62
     5
  6
Continuous
370
    -3
390
F
  0
LAYER
  5
80
330
2
100
AcDbSymbolTableRecord
100
AcDbLayerTableRecord
  2
Defpoints
 70
     0
 62
     7
  6
Continuous
290
     0
370
    -3
390
F
  0
LAYER
  5
81
330
2
100
AcDbSymbolTableRecord
100
AcDbLayerTableRecord
  2
SK2
 70
     0
 62
     7
  6
Continuous
370
    -3
390
F
  0
LAYER
  5
82
330
2
100
AcDbSymbolTableRecord
100
AcDbLayerTableRecord
  2
2
 70
     0
 62
     7
  6
Continuous
370
    -3
390
F
  0
LAYER
  5
297
330
2
100
AcDbSymbolTableRecord
100
AcDbLayerTableRecord
  2
CUT
 70
     0
 62
     1
  6
Continuous
370
    -3
390
F
  0
LAYER
  5
2B4
330
2
100
AcDbSymbolTableRecord
100
AcDbLayerTableRecord
  2
NOCUT
 70
     0
 62
     7
  6
Continuous
370
    -3
390
F
  0
ENDTAB
  0
TABLE
  2
STYLE
  5
3
330
0
100
AcDbSymbolTable
 70
     1
  0
STYLE
  5
11
330
3
100
AcDbSymbolTableRecord
100
AcDbTextStyleTableRecord
  2
Standard
 70
     0
 40
3.5
 41
0.8
 50
0.0
 71
     0
 42
3.5
  3
isocp.shx
  4

  0
ENDTAB
  0
TABLE
  2
VIEW
  5
6
330
0
100
AcDbSymbolTable
 70
     0
  0
ENDTAB
  0
TABLE
  2
UCS
  5
7
330
0
100
AcDbSymbolTable
 70
     0
  0
ENDTAB
  0
TABLE
  2
APPID
  5
9
330
0
100
AcDbSymbolTable
 70
     1
  0
APPID
  5
12
330
9
100
AcDbSymbolTableRecord
100
AcDbRegAppTableRecord
  2
ACAD
 70
     0
  0
ENDTAB
  0
TABLE
  2
DIMSTYLE
  5
A
330
0
100
AcDbSymbolTable
 70
     2
100
AcDbDimStyleTable
 71
     0
  0
DIMSTYLE
105
27
102
{ACAD_REACTORS
330
111
330
13A
330
13B
330
150
330
168
330
16B
102
}
330
A
100
AcDbSymbolTableRecord
100
AcDbDimStyleTableRecord
  2
ISO-25
 70
     0
 41
2.5
 42
0.625
 43
3.75
 44
1.25
 73
     0
 74
     0
 77
     1
 78
     8
140
2.5
141
2.5
143
0.03937007874016
147
0.625
171
     3
172
     1
271
     2
272
     2
274
     3
278
    44
283
     0
284
     8
340
11
  0
DIMSTYLE
105
83
330
A
100
AcDbSymbolTableRecord
100
AcDbDimStyleTableRecord
  2
STANDARD
 70
     0
 41
2.5
 47
0.005
 48
0.005
 71
     1
 73
     0
 74
     0
 77
     1
 78
     8
140
3.5
178
     5
271
     3
272
     3
284
     8
340
11
341
2B
342
2B
343
2B
344
2B
  0
ENDTAB
  0
TABLE
  2
BLOCK_RECORD
  5
1
330
0
100
AcDbSymbolTable
 70
    10
  0
BLOCK_RECORD
  5
1F
330
1
100
AcDbSymbolTableRecord
100
AcDbBlockTableRecord
  2
*Model_Space
340
22
  0
BLOCK_RECORD
  5
1B
330
1
100
AcDbSymbolTableRecord
100
AcDbBlockTableRecord
  2
*Paper_Space
340
1E
  0
BLOCK_RECORD
  5
23
330
1
100
AcDbSymbolTableRecord
100
AcDbBlockTableRecord
  2
*Paper_Space0
340
26
  0
BLOCK_RECORD
  5
2B
330
1
100
AcDbSymbolTableRecord
100
AcDbBlockTableRecord
  2
_ARROW_FILLED
340
0
  0
BLOCK_RECORD
  5
190
330
1
100
AcDbSymbolTableRecord
100
AcDbBlockTableRecord
  2
*D2
340
0
  0
BLOCK_RECORD
  5
19C
330
1
100
AcDbSymbolTableRecord
100
AcDbBlockTableRecord
  2
*D3
340
0
  0
BLOCK_RECORD
  5
1AA
330
1
100
AcDbSymbolTableRecord
100
AcDbBlockTableRecord
  2
*D4
340
0
  0
BLOCK_RECORD
  5
1B8
330
1
100
AcDbSymbolTableRecord
100
AcDbBlockTableRecord
  2
*D5
340
0
  0
BLOCK_RECORD
  5
1C1
330
1
100
AcDbSymbolTableRecord
100
AcDbBlockTableRecord
  2
*D6
340
0
  0
BLOCK_RECORD
  5
1CD
330
1
100
AcDbSymbolTableRecord
100
AcDbBlockTableRecord
  2
*D7
340
0
  0
ENDTAB
  0
ENDSEC
  0
SECTION
  2
BLOCKS
  0
BLOCK
  5
20
330
1F
100
AcDbEntity
  8
0
100
AcDbBlockBegin
  2
*Model_Space
 70
     0
 10
0.0
 20
0.0
 30
0.0
  3
*Model_Space
  1

  0
ENDBLK
  5
21
330
1F
100
AcDbEntity
  8
0
100
AcDbBlockEnd
  0
BLOCK
  5
1C
330
1B
100
AcDbEntity
 67
     1
  8
0
100
AcDbBlockBegin
  2
*Paper_Space
 70
     0
 10
0.0
 20
0.0
 30
0.0
  3
*Paper_Space
  1

  0
ENDBLK
  5
1D
330
1B
100
AcDbEntity
 67
     1
  8
0
100
AcDbBlockEnd
  0
BLOCK
  5
24
330
23
100
AcDbEntity
  8
0
100
AcDbBlockBegin
  2
*Paper_Space0
 70
     0
 10
0.0
 20
0.0
 30
0.0
  3
*Paper_Space0
  1

  0
ENDBLK
  5
25
330
23
100
AcDbEntity
  8
0
100
AcDbBlockEnd
  0
BLOCK
  5
2D
330
2B
100
AcDbEntity
  8
0
100
AcDbBlockBegin
  2
_ARROW_FILLED
 70
     0
 10
0.0
 20
0.0
 30
0.0
  3
_ARROW_FILLED
  1

  0
SOLID
  5
2C
330
2B
100
AcDbEntity
  8
0
  6
ByBlock
 62
     0
100
AcDbTrace
 10
0.0
 20
0.0
 30
0.0
 11
-1.0
 21
0.132
 31
0.0
 12
-1.0
 22
-0.132
 32
0.0
 13
-1.0
 23
-0.132
 33
0.0
  0
ENDBLK
  5
2E
330
2B
100
AcDbEntity
  8
0
  6
ByBlock
 62
     0
100
AcDbBlockEnd
  0
BLOCK
  5
19A
330
190
100
AcDbEntity
  8
0
100
AcDbBlockBegin
  2
*D2
 70
     1
 10
0.0
 20
0.0
 30
0.0
  3
*D2
  1

  0
LINE
  5
278
330
190
100
AcDbEntity
  8
2
 62
     0
370
    -2
100
AcDbLine
 10
-2.325000000000045
 20
-37.5
 30
0.0
 11
-21.99672366700012
 21
-37.49999999999999
 31
0.0
  0
LINE
  5
279
330
190
100
AcDbEntity
  8
2
 62
     0
370
    -2
100
AcDbLine
 10
-2.325000000000045
 20
37.5
 30
0.0
 11
-21.99672366700012
 21
37.5
 31
0.0
  0
LINE
  5
27A
330
190
100
AcDbEntity
  8
2
 62
     0
370
    -2
100
AcDbLine
 10
-20.74672366700013
 20
-34.99999999999999
 30
0.0
 11
-20.74672366700013
 21
35.0
 31
0.0
  0
SOLID
  5
27B
330
190
100
AcDbEntity
  8
2
 62
     0
100
AcDbTrace
 10
-21.1633903336668
 20
-34.99999999999999
 30
0.0
 11
-20.33005700033347
 21
-34.99999999999999
 31
0.0
 12
-20.74672366700013
 22
-37.49999999999999
 32
0.0
 13
-20.74672366700013
 23
-37.49999999999999
 33
0.0
  0
SOLID
  5
27C
330
190
100
AcDbEntity
  8
2
 62
     0
100
AcDbTrace
 10
-21.1633903336668
 20
35.0
 30
0.0
 11
-20.33005700033346
 21
35.0
 31
0.0
 12
-20.74672366700013
 22
37.5
 32
0.0
 13
-20.74672366700013
 23
37.5
 33
0.0
  0
MTEXT
  5
27D
330
190
100
AcDbEntity
  8
2
 62
     0
100
AcDbMText
 10
-23.12172366700014
 20
1.249071239899905
 30
0.0
 40
3.5
 41
0.0
 71
     5
 72
     1
  1
%%c75
 11
0.0000000000000001
 21
1.0
 31
0.0
 73
     1
 44
1.0
  0
POINT
  5
27E
330
190
100
AcDbEntity
  8
Defpoints
 62
     0
100
AcDbPoint
 10
-1.700000000000045
 20
-37.5
 30
0.0
  0
POINT
  5
27F
330
190
100
AcDbEntity
  8
Defpoints
 62
     0
100
AcDbPoint
 10
-1.700000000000045
 20
37.5
 30
0.0
  0
POINT
  5
280
330
190
100
AcDbEntity
  8
Defpoints
 62
     0
100
AcDbPoint
 10
-20.74672366700013
 20
37.5
 30
0.0
  0
ENDBLK
  5
19B
330
190
100
AcDbEntity
  8
0
100
AcDbBlockEnd
  0
BLOCK
  5
1A8
330
19C
100
AcDbEntity
  8
0
100
AcDbBlockBegin
  2
*D3
 70
     1
 10
0.0
 20
0.0
 30
0.0
  3
*D3
  1

  0
LINE
  5
26D
330
19C
100
AcDbEntity
  8
2
 62
     0
370
    -2
100
AcDbLine
 10
-2.30000000000001
 20
29.38558629159999
 30
0.0
 11
-2.300000000000009
 21
59.5871317646999
 31
0.0
  0
LINE
  5
26E
330
19C
100
AcDbEntity
  8
2
 62
     0
370
    -2
100
AcDbLine
 10
-0.1000000000000227
 20
29.38558629159999
 30
0.0
 11
-0.1000000000000208
 21
59.5871317646999
 31
0.0
  0
LINE
  5
26F
330
19C
100
AcDbEntity
  8
2
 62
     0
370
    -2
100
AcDbLine
 10
-4.800000000000006
 20
58.3371317646999
 30
0.0
 11
-7.300000000000008
 21
58.3371317646999
 31
0.0
  0
LINE
  5
270
330
19C
100
AcDbEntity
  8
2
 62
     0
370
    -2
100
AcDbLine
 10
2.399999999999979
 20
58.3371317646999
 30
0.0
 11
20.51892562296756
 21
58.3371317646999
 31
0.0
  0
LINE
  5
271
330
19C
100
AcDbEntity
  8
2
 62
     0
370
    -2
100
AcDbLine
 10
-2.300000000000009
 20
58.3371317646999
 30
0.0
 11
-0.1000000000000209
 21
58.3371317646999
 31
0.0
  0
SOLID
  5
272
330
19C
100
AcDbEntity
  8
2
 62
     0
100
AcDbTrace
 10
-4.800000000000006
 20
58.75379843136657
 30
0.0
 11
-4.800000000000006
 21
57.92046509803324
 31
0.0
 12
-2.300000000000009
 22
58.3371317646999
 32
0.0
 13
-2.300000000000009
 23
58.3371317646999
 33
0.0
  0
SOLID
  5
273
330
19C
100
AcDbEntity
  8
2
 62
     0
100
AcDbTrace
 10
2.399999999999979
 20
58.75379843136657
 30
0.0
 11
2.399999999999979
 21
57.92046509803324
 31
0.0
 12
-0.1000000000000209
 22
58.3371317646999
 32
0.0
 13
-0.1000000000000209
 23
58.3371317646999
 33
0.0
  0
MTEXT
  5
274
330
19C
100
AcDbEntity
  8
2
 62
     0
100
AcDbMText
 10
17.74429176469987
 20
60.97497625288887
 30
0.0
 40
3.5
 41
0.0
 71
     5
 72
     1
  1
2,2
 73
     1
 44
1.0
  0
POINT
  5
275
330
19C
100
AcDbEntity
  8
Defpoints
 62
     0
100
AcDbPoint
 10
-2.30000000000001
 20
28.76058629159999
 30
0.0
  0
POINT
  5
276
330
19C
100
AcDbEntity
  8
Defpoints
 62
     0
100
AcDbPoint
 10
-0.1000000000000227
 20
28.76058629159999
 30
0.0
  0
POINT
  5
277
330
19C
100
AcDbEntity
  8
Defpoints
 62
     0
100
AcDbPoint
 10
-0.1000000000000209
 20
58.3371317646999
 30
0.0
  0
ENDBLK
  5
1A9
330
19C
100
AcDbEntity
  8
0
100
AcDbBlockEnd
  0
BLOCK
  5
1B6
330
1AA
100
AcDbEntity
  8
0
100
AcDbBlockBegin
  2
*D4
 70
     1
 10
0.0
 20
0.0
 30
0.0
  3
*D4
  1

  0
LINE
  5
262
330
1AA
100
AcDbEntity
  8
2
 62
     0
370
    -2
100
AcDbLine
 10
-2.400000000000034
 20
20.625
 30
0.0
 11
-2.400000000000033
 21
32.95571751610001
 31
0.0
  0
LINE
  5
263
330
1AA
100
AcDbEntity
  8
2
 62
     0
370
    -2
100
AcDbLine
 10
0.0
 20
20.625
 30
0.0
 11
0.0000000000000008
 21
32.95571751610001
 31
0.0
  0
LINE
  5
264
330
1AA
100
AcDbEntity
  8
2
 62
     0
370
    -2
100
AcDbLine
 10
2.5
 20
31.70571751610001
 30
0.0
 11
5.0
 21
31.70571751610001
 31
0.0
  0
LINE
  5
265
330
1AA
100
AcDbEntity
  8
2
 62
     0
370
    -2
100
AcDbLine
 10
-4.900000000000033
 20
31.70571751610001
 30
0.0
 11
-13.61249015748035
 21
31.70571751610001
 31
0.0
  0
LINE
  5
266
330
1AA
100
AcDbEntity
  8
2
 62
     0
370
    -2
100
AcDbLine
 10
0.0000000000000007
 20
31.70571751610001
 30
0.0
 11
-2.400000000000033
 21
31.70571751610001
 31
0.0
  0
SOLID
  5
267
330
1AA
100
AcDbEntity
  8
2
 62
     0
100
AcDbTrace
 10
2.5
 20
32.12238418276667
 30
0.0
 11
2.5
 21
31.28905084943334
 31
0.0
 12
0.0000000000000007
 22
31.70571751610001
 32
0.0
 13
0.0000000000000007
 23
31.70571751610001
 33
0.0
  0
SOLID
  5
268
330
1AA
100
AcDbEntity
  8
2
 62
     0
100
AcDbTrace
 10
-4.900000000000033
 20
32.12238418276667
 30
0.0
 11
-4.900000000000033
 21
31.28905084943334
 31
0.0
 12
-2.400000000000033
 22
31.70571751610001
 32
0.0
 13
-2.400000000000033
 23
31.70571751610001
 33
0.0
  0
MTEXT
  5
269
330
1AA
100
AcDbEntity
  8
2
 62
     0
100
AcDbMText
 10
-10.781938976378
 20
34.34356200428897
 30
0.0
 40
3.5
 41
0.0
 71
     5
 72
     1
  1
2,4
 73
     1
 44
1.0
  0
POINT
  5
26A
330
1AA
100
AcDbEntity
  8
Defpoints
 62
     0
100
AcDbPoint
 10
-2.400000000000034
 20
20.0
 30
0.0
  0
POINT
  5
26B
330
1AA
100
AcDbEntity
  8
Defpoints
 62
     0
100
AcDbPoint
 10
0.0
 20
20.0
 30
0.0
  0
POINT
  5
26C
330
1AA
100
AcDbEntity
  8
Defpoints
 62
     0
100
AcDbPoint
 10
0.0000000000000007
 20
31.70571751610001
 30
0.0
  0
ENDBLK
  5
1B7
330
1AA
100
AcDbEntity
  8
0
100
AcDbBlockEnd
  0
BLOCK
  5
1BF
330
1B8
100
AcDbEntity
  8
0
100
AcDbBlockBegin
  2
*D5
 70
     1
 10
0.0
 20
0.0
 30
0.0
  3
*D5
  1

  0
LINE
  5
25C
330
1B8
100
AcDbEntity
  8
2
 62
     0
370
    -2
100
AcDbLine
 10
-17.70534929396651
 20
52.53317743955445
 30
0.0
 11
-3.877142168817312
 21
38.99142272263679
 31
0.0
  0
MTEXT
  5
25D
330
1B8
100
AcDbEntity
  8
2
 62
     0
100
AcDbMText
 10
-13.10254229840173
 20
51.71775704819395
 30
0.0
 40
3.5
 41
0.0
 71
     5
 72
     1
  1
R0,2
 11
0.714468190206862
 21
-0.6996679249347732
 31
0.0
 73
     1
 44
1.0
  0
LINE
  5
25E
330
1B8
100
AcDbEntity
  8
2
 62
     0
370
    -2
100
AcDbLine
 10
-1.950397662800128
 20
37.10459088199989
 30
0.0
 11
-2.09097169330016
 21
37.24225291029986
 31
0.0
  0
SOLID
  5
25F
330
1B8
100
AcDbEntity
  8
2
 62
     0
100
AcDbTrace
 10
-3.585613866761161
 20
39.28911780188966
 30
0.0
 11
-4.16867047087347
 21
38.69372764338393
 31
0.0
 12
-2.09097169330016
 22
37.24225291029986
 32
0.0
 13
-2.09097169330016
 23
37.24225291029986
 33
0.0
  0
POINT
  5
260
330
1B8
100
AcDbEntity
  8
Defpoints
 62
     0
100
AcDbPoint
 10
-2.09097169330016
 20
37.24225291029986
 30
0.0
  0
POINT
  5
261
330
1B8
100
AcDbEntity
  8
Defpoints
 62
     0
100
AcDbPoint
 10
-1.950397662800128
 20
37.10459088199989
 30
0.0
  0
ENDBLK
  5
1C0
330
1B8
100
AcDbEntity
  8
0
100
AcDbBlockEnd
  0
BLOCK
  5
1CB
330
1C1
100
AcDbEntity
  8
0
100
AcDbBlockBegin
  2
*D6
 70
     1
 10
0.0
 20
0.0
 30
0.0
  3
*D6
  1

  0
LINE
  5
253
330
1C1
100
AcDbEntity
  8
SK2
 62
     0
370
    -2
100
AcDbLine
 10
0.625
 20
11.0
 30
0.0
 11
10.1525916471521
 21
10.99999999999999
 31
0.0
  0
LINE
  5
254
330
1C1
100
AcDbEntity
  8
SK2
 62
     0
370
    -2
100
AcDbLine
 10
0.625
 20
-11.0000000000001
 30
0.0
 11
10.1525916471521
 21
-11.0000000000001
 31
0.0
  0
LINE
  5
255
330
1C1
100
AcDbEntity
  8
SK2
 62
     0
370
    -2
100
AcDbLine
 10
8.902591647152123
 20
8.499999999999998
 30
0.0
 11
8.902591647152117
 21
-8.500000000000115
 31
0.0
  0
SOLID
  5
256
330
1C1
100
AcDbEntity
  8
SK2
 62
     0
100
AcDbTrace
 10
8.485924980485457
 20
8.499999999999998
 30
0.0
 11
9.319258313818787
 21
8.499999999999998
 31
0.0
 12
8.902591647152123
 22
10.99999999999999
 32
0.0
 13
8.902591647152123
 23
10.99999999999999
 33
0.0
  0
SOLID
  5
257
330
1C1
100
AcDbEntity
  8
SK2
 62
     0
100
AcDbTrace
 10
8.485924980485451
 20
-8.500000000000115
 30
0.0
 11
9.319258313818783
 21
-8.500000000000115
 31
0.0
 12
8.902591647152117
 22
-11.0000000000001
 32
0.0
 13
8.902591647152117
 23
-11.0000000000001
 33
0.0
  0
MTEXT
  5
258
330
1C1
100
AcDbEntity
  8
SK2
 62
     0
100
AcDbMText
 10
6.527247158963144
 20
-0.0627451173718325
 30
0.0
 40
3.5
 41
0.0
 71
     5
 72
     1
  1
%%C22
 11
0.0000000000000001
 21
1.0
 31
0.0
 73
     1
 44
1.0
  0
POINT
  5
259
330
1C1
100
AcDbEntity
  8
Defpoints
 62
     0
100
AcDbPoint
 10
0.0
 20
11.0
 30
0.0
  0
POINT
  5
25A
330
1C1
100
AcDbEntity
  8
Defpoints
 62
     0
100
AcDbPoint
 10
0.0
 20
-11.0000000000001
 30
0.0
  0
POINT
  5
25B
330
1C1
100
AcDbEntity
  8
Defpoints
 62
     0
100
AcDbPoint
 10
8.902591647152117
 20
-11.0000000000001
 30
0.0
  0
ENDBLK
  5
1CC
330
1C1
100
AcDbEntity
  8
0
100
AcDbBlockEnd
  0
BLOCK
  5
1D7
330
1CD
100
AcDbEntity
  8
0
100
AcDbBlockBegin
  2
*D7
 70
     1
 10
0.0
 20
0.0
 30
0.0
  3
*D7
  1

  0
LINE
  5
24A
330
1CD
100
AcDbEntity
  8
2
 62
     0
370
    -2
100
AcDbLine
 10
1.124999999999886
 20
-19.5
 30
0.0
 11
17.29496278213694
 21
-19.5
 31
0.0
  0
LINE
  5
24B
330
1CD
100
AcDbEntity
  8
2
 62
     0
370
    -2
100
AcDbLine
 10
1.124999999999886
 20
19.5
 30
0.0
 11
17.29496278213694
 21
19.49999999999999
 31
0.0
  0
LINE
  5
24C
330
1CD
100
AcDbEntity
  8
2
 62
     0
370
    -2
100
AcDbLine
 10
16.04496278213694
 20
-17.0
 30
0.0
 11
16.04496278213694
 21
16.99999999999999
 31
0.0
  0
SOLID
  5
24D
330
1CD
100
AcDbEntity
  8
2
 62
     0
100
AcDbTrace
 10
15.62829611547027
 20
-17.0
 30
0.0
 11
16.4616294488036
 21
-17.0
 31
0.0
 12
16.04496278213694
 22
-19.5
 32
0.0
 13
16.04496278213694
 23
-19.5
 33
0.0
  0
SOLID
  5
24E
330
1CD
100
AcDbEntity
  8
2
 62
     0
100
AcDbTrace
 10
15.62829611547027
 20
16.99999999999999
 30
0.0
 11
16.46162944880363
 21
16.99999999999999
 31
0.0
 12
16.04496278213694
 22
19.49999999999999
 32
0.0
 13
16.04496278213694
 23
19.49999999999999
 33
0.0
  0
MTEXT
  5
24F
330
1CD
100
AcDbEntity
  8
2
 62
     0
100
AcDbMText
 10
13.66996278213695
 20
0.1225026961537881
 30
0.0
 40
3.5
 41
0.0
 71
     5
 72
     1
  1
%%c39
 11
0.0000000000000001
 21
1.0
 31
0.0
 73
     1
 44
1.0
  0
POINT
  5
250
330
1CD
100
AcDbEntity
  8
Defpoints
 62
     0
100
AcDbPoint
 10
0.4999999999998864
 20
-19.5
 30
0.0
  0
POINT
  5
251
330
1CD
100
AcDbEntity
  8
Defpoints
 62
     0
100
AcDbPoint
 10
0.4999999999998864
 20
19.5
 30
0.0
  0
POINT
  5
252
330
1CD
100
AcDbEntity
  8
Defpoints
 62
     0
100
AcDbPoint
 10
16.04496278213694
 20
19.49999999999999
 30
0.0
  0
ENDBLK
  5
1D8
330
1CD
100
AcDbEntity
  8
0
100
AcDbBlockEnd
  0
ENDSEC
  0
SECTION
  2
ENTITIES
  0
TEXT
  5
10C
330
1F
100
AcDbEntity
  8
6
100
AcDbText
 10
5.206633716391738
 20
-36.49040729794754
 30
0.0
 40
3.5
  1
31J6M075022BA-00
 41
0.8
 72
     1
 11
21.16773607859646
 21
-36.49040729794754
 31
0.0
100
AcDbText
  0
LINE
  5
10D
330
1F
100
AcDbEntity
  8
1
100
AcDbLine
 10
-0.3999698190001481
 20
-27.994473365
 30
0.0
 11
-0.116041685300047
 21
-26.45406361990009
 31
0.0
  0
LINE
  5
10E
330
1F
100
AcDbEntity
  8
1
100
AcDbLine
 10
-0.4000000000000341
 20
-27.0517995647001
 30
0.0
 11
-0.3012055225000267
 21
-26.5158048610001
 31
0.0
  0
LINE
  5
10F
330
1F
100
AcDbEntity
  8
1
100
AcDbLine
 10
-2.098794477500121
 20
-26.5158048610001
 30
0.0
 11
-2.0
 21
-27.0517995647001
 31
0.0
  0
LINE
  5
110
330
1F
100
AcDbEntity
  8
1
100
AcDbLine
 10
-2.283958314700099
 20
-26.45406361990009
 30
0.0
 11
-2.00003018100011
 21
-27.994473365
 31
0.0
  0
DIMENSION
  5
111
330
1F
100
AcDbEntity
  8
2
100
AcDbDimension
  2
*D2
 10
-20.74672366700013
 20
37.5
 30
0.0
 11
-20.74672366700013
 21
1.249071239899905
 31
0.0
 70
   160
  1
%%c<>
 71
     5
 42
75.0
  3
ISO-25
100
AcDbAlignedDimension
 13
-1.700000000000045
 23
-37.5
 33
0.0
 14
-1.700000000000045
 24
37.5
 34
0.0
 50
90.0
100
AcDbRotatedDimension
1001
ACAD
1000
DSTYLE
1002
{
1070
   140
1040
3.5
1002
}
  0
LINE
  5
112
330
1F
100
AcDbEntity
  8
1
100
AcDbLine
 10
-2.0
 20
-29.2293511821
 30
0.0
 11
-0.4000000000000341
 21
-29.2293511821
 31
0.0
  0
LINE
  5
113
330
1F
100
AcDbEntity
  8
1
100
AcDbLine
 10
-2.0
 20
-31.58917175740008
 30
0.0
 11
-0.4000000000000341
 21
-31.58917175740008
 31
0.0
  0
LINE
  5
114
330
1F
100
AcDbEntity
  8
1
100
AcDbLine
 10
-0.4000000000000341
 20
-32.1741261620001
 30
0.0
 11
-2.0
 21
-32.1741261620001
 31
0.0
  0
LINE
  5
115
330
1F
100
AcDbEntity
  8
1
100
AcDbLine
 10
-0.4000000000000341
 20
-33.9500000000001
 30
0.0
 11
-2.0
 21
-33.9500000000001
 31
0.0
  0
LINE
  5
116
330
1F
100
AcDbEntity
  8
1
100
AcDbLine
 10
-2.0
 20
-33.99901085159999
 30
0.0
 11
-0.4000000000000341
 21
-33.99901085159999
 31
0.0
  0
LINE
  5
117
330
1F
100
AcDbEntity
  8
1
100
AcDbLine
 10
-2.098794477500121
 20
-37.49901085159999
 30
0.0
 11
-0.3012055225000267
 21
-37.49901085159999
 31
0.0
  0
LINE
  5
118
330
1F
100
AcDbEntity
  8
1
100
AcDbLine
 10
-2.0
 20
-33.9500000000001
 30
0.0
 11
-2.0
 21
-29.2293511821
 31
0.0
  0
LINE
  5
119
330
1F
100
AcDbEntity
  8
1
100
AcDbLine
 10
-2.288002494100055
 20
-37.35903994950001
 30
0.0
 11
-2.0
 21
-33.99901085159999
 31
0.0
  0
LINE
  5
11A
330
1F
100
AcDbEntity
  8
1
100
AcDbLine
 10
-2.0
 20
-33.99901085159999
 30
0.0
 11
-2.0
 21
-33.9500000000001
 31
0.0
  0
LWPOLYLINE
  5
11B
330
1F
100
AcDbEntity
  8
1
100
AcDbPolyline
 90
       11
 70
     0
 43
0.0
 10
-2.288002494100055
 20
-37.35903994950001
 10
-2.278966818000069
 20
-37.3829189681001
 10
-2.267246867300059
 20
-37.40505899659999
 10
-2.252719071300134
 20
-37.4256051488
 10
-2.235754142200105
 20
-37.44412208310001
 10
-2.216571001399981
 20
-37.4602871867
 10
-2.195501451100084
 20
-37.47390738710009
 10
-2.172826343300016
 20
-37.48472092370011
 10
-2.148917450300018
 20
-37.4926112478
 10
-2.124298335399998
 20
-37.49734908179999
 10
-2.098794477500121
 20
-37.49901085159999
  0
LINE
  5
11C
330
1F
100
AcDbEntity
  8
1
100
AcDbLine
 10
-2.0
 20
-27.0517995647001
 30
0.0
 11
-2.0
 21
-29.2293511821
 31
0.0
  0
LINE
  5
11D
330
1F
100
AcDbEntity
  8
1
100
AcDbLine
 10
-0.4000000000000341
 20
-33.9500000000001
 30
0.0
 11
-0.4000000000000341
 21
-29.2293511821
 31
0.0
  0
LINE
  5
11E
330
1F
100
AcDbEntity
  8
1
100
AcDbLine
 10
-0.4000000000000341
 20
-33.99901085159999
 30
0.0
 11
-0.4000000000000341
 21
-33.9500000000001
 31
0.0
  0
LINE
  5
11F
330
1F
100
AcDbEntity
  8
1
100
AcDbLine
 10
-0.1119975059000353
 20
-37.35903994950001
 30
0.0
 11
-0.4000000000000341
 21
-33.99901085159999
 31
0.0
  0
LWPOLYLINE
  5
120
330
1F
100
AcDbEntity
  8
1
100
AcDbPolyline
 90
       11
 70
     0
 43
0.0
 10
-0.3012055225000267
 20
-37.49901085159999
 10
-0.2757016646000352
 20
-37.49734908179999
 10
-0.2510825497000724
 20
-37.4926112478
 10
-0.2271736567000175
 20
-37.48472092370011
 10
-0.2044985489000055
 20
-37.47390738710009
 10
-0.1834289985999931
 20
-37.4602871867
 10
-0.1642458578000969
 20
-37.44412208310001
 10
-0.1472809287001269
 20
-37.4256051488
 10
-0.1327531327000315
 20
-37.40505899659999
 10
-0.1210331820000192
 20
-37.3829189681001
 10
-0.1119975059000353
 20
-37.35903994950001
  0
LINE
  5
121
330
1F
100
AcDbEntity
  8
1
100
AcDbLine
 10
-0.4000000000000341
 20
-29.2293511821
 30
0.0
 11
-0.4000000000000341
 21
-27.0517995647001
 31
0.0
  0
LINE
  5
122
330
1F
100
AcDbEntity
  8
SK3
100
AcDbLine
 10
-2.400000000000034
 20
-11.0000000000001
 30
0.0
 11
0.0
 21
-11.0000000000001
 31
0.0
  0
LINE
  5
123
330
1F
100
AcDbEntity
  8
SK3
100
AcDbLine
 10
-2.400000000000034
 20
11.0
 30
0.0
 11
0.0
 21
11.0
 31
0.0
  0
LINE
  5
124
330
1F
100
AcDbEntity
  8
1
100
AcDbLine
 10
-2.098794477500121
 20
37.49901085169989
 30
0.0
 11
-0.3012055225000267
 21
37.49901085169989
 31
0.0
  0
LINE
  5
125
330
1F
100
AcDbEntity
  8
1
100
AcDbLine
 10
-2.0
 20
36.8365448611
 30
0.0
 11
-0.4000000000000341
 21
36.8365448611
 31
0.0
  0
LINE
  5
126
330
1F
100
AcDbEntity
  8
1
100
AcDbLine
 10
-2.0
 20
36.7253318568999
 30
0.0
 11
-0.4000000000000341
 21
36.7253318568999
 31
0.0
  0
LINE
  5
127
330
1F
100
AcDbEntity
  8
1
100
AcDbLine
 10
-2.0
 20
35.9590361136
 30
0.0
 11
-0.4000000000000341
 21
35.9590361136
 31
0.0
  0
LINE
  5
128
330
1F
100
AcDbEntity
  8
1
100
AcDbLine
 10
-0.4000000000000341
 20
32.69731061009989
 30
0.0
 11
-2.0
 21
32.69731061009989
 31
0.0
  0
LINE
  5
129
330
1F
100
AcDbEntity
  8
1
100
AcDbLine
 10
-2.098794477500121
 20
26.51580486099998
 30
0.0
 11
-0.3012055225000267
 21
26.51580486099998
 31
0.0
  0
LINE
  5
12A
330
1F
100
AcDbEntity
  8
1
100
AcDbLine
 10
-2.0
 20
22.86539015139998
 30
0.0
 11
-0.4000000000000341
 21
22.86539015139998
 31
0.0
  0
LINE
  5
12B
330
1F
100
AcDbEntity
  8
1
100
AcDbLine
 10
-2.0
 20
22.78675068199999
 30
0.0
 11
-0.4000000000000341
 21
22.78675068199999
 31
0.0
  0
LINE
  5
12C
330
1F
100
AcDbEntity
  8
1
100
AcDbLine
 10
-2.0
 20
19.2645848043
 30
0.0
 11
-0.4000000000000341
 21
19.2645848043
 31
0.0
  0
LINE
  5
12D
330
1F
100
AcDbEntity
  8
1
100
AcDbLine
 10
-0.4000000000000341
 20
14.83078597849998
 30
0.0
 11
-2.0
 21
14.83078597849998
 31
0.0
  0
LINE
  5
12E
330
1F
100
AcDbEntity
  8
1
100
AcDbLine
 10
-0.4000000000000341
 20
9.021369210999893
 30
0.0
 11
-2.0
 21
9.021369210999893
 31
0.0
  0
LINE
  5
12F
330
1F
100
AcDbEntity
  8
1
100
AcDbLine
 10
-0.4000000000000341
 20
1.718813952799989
 30
0.0
 11
-2.0
 21
1.718813952799989
 31
0.0
  0
LINE
  5
130
330
1F
100
AcDbEntity
  8
1
100
AcDbLine
 10
-2.288002494100055
 20
0.0
 30
0.0
 11
-0.1119975059000353
 21
0.0
 31
0.0
  0
LINE
  5
131
330
1F
100
AcDbEntity
  8
4
100
AcDbLine
 10
-9.755489350500113
 20
0.0
 30
0.0
 11
5.187215919799996
 21
0.0
 31
0.0
  0
LINE
  5
132
330
1F
100
AcDbEntity
  8
1
100
AcDbLine
 10
-2.0
 20
-4.5
 30
0.0
 11
-0.4000000000000341
 21
-4.5
 31
0.0
  0
LINE
  5
133
330
1F
100
AcDbEntity
  8
1
100
AcDbLine
 10
-2.0
 20
-8.714799009900103
 30
0.0
 11
-0.4000000000000341
 21
-8.714799009900103
 31
0.0
  0
LINE
  5
134
330
1F
100
AcDbEntity
  8
1
100
AcDbLine
 10
-0.4000000000000341
 20
-11.72341193870009
 30
0.0
 11
-2.0
 21
-11.72341193870009
 31
0.0
  0
LINE
  5
135
330
1F
100
AcDbEntity
  8
1
100
AcDbLine
 10
-0.4000000000000341
 20
-12.8467418694
 30
0.0
 11
-2.0
 21
-12.8467418694
 31
0.0
  0
LINE
  5
136
330
1F
100
AcDbEntity
  8
1
100
AcDbLine
 10
-0.4000000000000341
 20
-19.5399817910001
 30
0.0
 11
-2.0
 21
-19.5399817910001
 31
0.0
  0
LINE
  5
137
330
1F
100
AcDbEntity
  8
1
100
AcDbLine
 10
-0.4000000000000341
 20
-24.03879704659999
 30
0.0
 11
-2.0
 21
-24.03879704659999
 31
0.0
  0
LINE
  5
138
330
1F
100
AcDbEntity
  8
1
100
AcDbLine
 10
-2.0
 20
-24.0409311268001
 30
0.0
 11
-0.4000000000000341
 21
-24.0409311268001
 31
0.0
  0
LINE
  5
139
330
1F
100
AcDbEntity
  8
1
100
AcDbLine
 10
-2.098794477500121
 20
-26.5158048610001
 30
0.0
 11
-0.3012055225000267
 21
-26.5158048610001
 31
0.0
  0
DIMENSION
  5
13A
330
1F
100
AcDbEntity
  8
2
100
AcDbDimension
  2
*D3
 10
-0.1000000000000209
 20
58.3371317646999
 30
0.0
 11
17.74429176469987
 21
58.3371317646999
 31
0.0
 70
   160
 71
     5
 42
2.199999999999988
  3
ISO-25
100
AcDbAlignedDimension
 13
-2.30000000000001
 23
28.76058629159999
 33
0.0
 14
-0.1000000000000227
 24
28.76058629159999
 34
0.0
100
AcDbRotatedDimension
1001
ACAD
1000
DSTYLE
1002
{
1070
   140
1040
3.5
1002
}
  0
DIMENSION
  5
13B
330
1F
100
AcDbEntity
  8
2
100
AcDbDimension
  2
*D4
 10
0.0000000000000007
 20
31.70571751610001
 30
0.0
 11
-10.781938976378
 21
31.70571751610001
 31
0.0
 70
   160
 71
     5
 42
2.400000000000034
  3
ISO-25
100
AcDbAlignedDimension
 13
-2.400000000000034
 23
20.0
 33
0.0
 14
0.0
 24
20.0
 34
0.0
100
AcDbRotatedDimension
1001
ACAD
1000
DSTYLE
1002
{
1070
   140
1040
3.5
1002
}
  0
ARC
  5
13C
330
1F
100
AcDbEntity
  8
1
100
AcDbCircle
 10
-2.800000000000011
 20
20.19282032299992
 30
0.0
 40
0.8
100
AcDbArc
 50
299.9999999999997
 51
0.0
  0
LINE
  5
13D
330
1F
100
AcDbEntity
  8
1
100
AcDbLine
 10
-2.0
 20
0.0
 30
0.0
 11
-2.0
 21
22.78675068199999
 31
0.0
  0
LINE
  5
13E
330
1F
100
AcDbEntity
  8
1
100
AcDbLine
 10
-2.0
 20
-0.8888649322001072
 30
0.0
 11
-2.0
 21
-4.5
 31
0.0
  0
LINE
  5
13F
330
1F
100
AcDbEntity
  8
1
100
AcDbLine
 10
-2.400000000000034
 20
19.5
 30
0.0
 11
-2.400000000000034
 21
-19.5
 31
0.0
  0
LINE
  5
140
330
1F
100
AcDbEntity
  8
1
100
AcDbLine
 10
-2.0
 20
-24.03879704659999
 30
0.0
 11
-2.0
 21
-4.5
 31
0.0
  0
LINE
  5
141
330
1F
100
AcDbEntity
  8
1
100
AcDbLine
 10
-2.288002494100055
 20
-26.41683048690001
 30
0.0
 11
-2.0
 21
-24.0409311268001
 31
0.0
  0
LINE
  5
142
330
1F
100
AcDbEntity
  8
1
100
AcDbLine
 10
-2.280867885699989
 20
-26.25685331630001
 30
0.0
 11
-2.024353390100145
 21
-22.7849513807001
 31
0.0
  0
LWPOLYLINE
  5
143
330
1F
100
AcDbEntity
  8
1
100
AcDbPolyline
 90
        6
 70
     0
 43
0.0
 10
-2.280867885699989
 20
-26.25685331630001
 10
-2.281469621000154
 20
-26.26573789
 10
-2.282043119800106
 20
-26.2750440189001
 10
-2.282584865500098
 20
-26.2847859336
 10
-2.283105407800121
 20
-26.2949209421001
 10
-2.284111015400128
 20
-26.31625639540009
  0
LINE
  5
144
330
1F
100
AcDbEntity
  8
1
100
AcDbLine
 10
-2.284111015400128
 20
-26.31625639540009
 30
0.0
 11
-2.285571647300002
 21
-26.35095714150011
 31
0.0
  0
LINE
  5
145
330
1F
100
AcDbEntity
  8
1
100
AcDbLine
 10
-2.285571647300002
 20
-26.35095714150011
 30
0.0
 11
-2.288002494100055
 21
-26.41683048690001
 31
0.0
  0
LWPOLYLINE
  5
146
330
1F
100
AcDbEntity
  8
1
100
AcDbPolyline
 90
       10
 70
     0
 43
0.0
 10
-2.283931216600021
 20
-26.45420614600002
 10
-2.284111015400128
 20
-26.4531984554001
 10
-2.28460203259999
 20
-26.4500991335
 10
-2.285088092200109
 20
-26.44655285839998
 10
-2.285571647300002
 20
-26.44259690650011
 10
-2.286054039900021
 20
-26.43823345870001
 10
-2.286537007900048
 20
-26.43347930190009
 10
-2.287021817000095
 20
-26.42832789409998
 10
-2.287510543000053
 20
-26.4227781708
 10
-2.288002494100055
 20
-26.41683048690001
  0
LWPOLYLINE
  5
147
330
1F
100
AcDbEntity
  8
1
100
AcDbPolyline
 90
       11
 70
     0
 43
0.0
 10
-2.288002494100055
 20
-26.41683048690001
 10
-2.278966818000069
 20
-26.4337155029001
 10
-2.267246867300059
 20
-26.44937086720011
 10
-2.252719071300134
 20
-26.46389919070008
 10
-2.235754142200105
 20
-26.47699264050001
 10
-2.216571001399981
 20
-26.48842309490001
 10
-2.195501451100084
 20
-26.49805403100001
 10
-2.172826343300016
 20
-26.50570035599999
 10
-2.148917450300018
 20
-26.5112796577001
 10
-2.124298335399998
 20
-26.51462981230011
 10
-2.098794477500121
 20
-26.5158048610001
  0
ARC
  5
148
330
1F
100
AcDbEntity
  8
1
100
AcDbCircle
 10
-2.800000000000011
 20
-20.192820323
 30
0.0
 40
0.8
100
AcDbArc
 50
0.0
 51
60.00000000000028
  0
LINE
  5
149
330
1F
100
AcDbEntity
  8
1
100
AcDbLine
 10
-2.098794477500121
 20
0.0
 30
0.0
 11
-2.0
 21
-0.8888649322001072
 31
0.0
  0
LINE
  5
14A
330
1F
100
AcDbEntity
  8
1
100
AcDbLine
 10
-2.281256559500093
 20
-0.1397421850001308
 30
0.0
 11
-2.000063064100118
 21
-2.66967142380008
 31
0.0
  0
LINE
  5
14B
330
1F
100
AcDbEntity
  8
1
100
AcDbLine
 10
-2.287021817000095
 20
-0.0277010222999934
 30
0.0
 11
-2.288002494100055
 21
0.0
 31
0.0
  0
LINE
  5
14C
330
1F
100
AcDbEntity
  8
1
100
AcDbLine
 10
-2.285571647300002
 20
-0.0647990992000871
 30
0.0
 11
-2.287021817000095
 21
-0.0277010222999934
 31
0.0
  0
LINE
  5
14D
330
1F
100
AcDbEntity
  8
1
100
AcDbLine
 10
-2.28460203259999
 20
-0.0867210226001021
 30
0.0
 11
-2.285571647300002
 21
-0.0647990992000871
 31
0.0
  0
LINE
  5
14E
330
1F
100
AcDbEntity
  8
1
100
AcDbLine
 10
-2.283613537300024
 20
-0.1063706003000959
 30
0.0
 11
-2.28460203259999
 21
-0.0867210226001021
 31
0.0
  0
LWPOLYLINE
  5
14F
330
1F
100
AcDbEntity
  8
1
100
AcDbPolyline
 90
        6
 70
     0
 43
0.0
 10
-2.281198971700062
 20
-0.1401011842000912
 10
-2.281469621000154
 20
-0.1374603467000952
 10
-2.282043119800106
 20
-0.1309903125001313
 10
-2.282584865500098
 20
-0.1235335304999978
 10
-2.283105407800121
 20
-0.1152734578001002
 10
-2.283613537300024
 20
-0.1063706003000959
  0
DIMENSION
  5
150
330
1F
100
AcDbEntity
  8
2
100
AcDbDimension
  2
*D5
 10
-1.950397662800128
 20
37.10459088199989
 30
0.0
 11
-14.94815747775352
 21
49.83310107067043
 31
0.0
 70
   164
  1
<>
 71
     5
 42
0.1967533788443845
  3
ISO-25
100
AcDbRadialDimension
 15
-2.09097169330016
 25
37.24225291029986
 35
0.0
 40
0.0
1001
ACAD
1000
DSTYLE
1002
{
1070
   140
1040
3.5
1002
}
  0
LINE
  5
151
330
1F
100
AcDbEntity
  8
1
100
AcDbLine
 10
-2.0
 20
26.51580486099998
 30
0.0
 11
-2.0
 21
36.7253318568999
 31
0.0
  0
LINE
  5
152
330
1F
100
AcDbEntity
  8
1
100
AcDbLine
 10
-2.280867885699989
 20
26.25685331630001
 30
0.0
 11
-2.0
 21
24.2069429064999
 31
0.0
  0
LINE
  5
153
330
1F
100
AcDbEntity
  8
1
100
AcDbLine
 10
-2.280867885699989
 20
26.25685331630001
 30
0.0
 11
-2.024353390100145
 21
22.78495138079989
 31
0.0
  0
LINE
  5
154
330
1F
100
AcDbEntity
  8
1
100
AcDbLine
 10
-2.0
 20
25.79475472249999
 30
0.0
 11
-2.0
 21
22.78675068199999
 31
0.0
  0
LWPOLYLINE
  5
155
330
1F
100
AcDbEntity
  8
1
100
AcDbPolyline
 90
        7
 70
     0
 43
0.0
 10
-2.280867885699989
 20
26.45909262369992
 10
-2.281469621000154
 20
26.4601361766999
 10
-2.282043119800106
 20
26.46029229539988
 10
-2.282584865500098
 20
26.4594887279
 10
-2.283105407800121
 20
26.45794222969996
 10
-2.283613537300024
 20
26.45583881329997
 10
-2.283931216600021
 20
26.4542061461
  0
LINE
  5
156
330
1F
100
AcDbEntity
  8
1
100
AcDbLine
 10
-2.280867885699989
 20
26.45909262369992
 30
0.0
 11
-2.274375712500045
 21
26.43984824450001
 31
0.0
  0
LINE
  5
157
330
1F
100
AcDbEntity
  8
1
100
AcDbLine
 10
-2.098794477500121
 20
26.51580486099998
 30
0.0
 11
-2.0
 21
25.79475472249999
 31
0.0
  0
LWPOLYLINE
  5
158
330
1F
100
AcDbEntity
  8
1
100
AcDbPolyline
 90
        4
 70
     0
 43
0.0
 10
-2.280867885699989
 20
26.25685331630001
 10
-2.281469621000154
 20
26.26573789009989
 10
-2.282043119800106
 20
26.27504401889999
 10
-2.282584865500098
 20
26.28478593369999
  0
LINE
  5
159
330
1F
100
AcDbEntity
  8
1
100
AcDbLine
 10
-2.287021817000095
 20
26.38915273270001
 30
0.0
 11
-2.288002494100055
 21
26.416830487
 31
0.0
  0
LINE
  5
15A
330
1F
100
AcDbEntity
  8
1
100
AcDbLine
 10
-2.285088092200109
 20
26.33902293779998
 30
0.0
 11
-2.287021817000095
 21
26.38915273270001
 31
0.0
  0
LINE
  5
15B
330
1F
100
AcDbEntity
  8
1
100
AcDbLine
 10
-2.283613537300024
 20
26.30540806759997
 30
0.0
 11
-2.285088092200109
 21
26.33902293779998
 31
0.0
  0
LINE
  5
15C
330
1F
100
AcDbEntity
  8
1
100
AcDbLine
 10
-2.282584865500098
 20
26.28478593369999
 30
0.0
 11
-2.283613537300024
 21
26.30540806759997
 31
0.0
  0
LINE
  5
15D
330
1F
100
AcDbEntity
  8
1
100
AcDbLine
 10
-2.280867885699989
 20
26.45909262369992
 30
0.0
 11
-2.022153149199994
 21
27.8627108423999
 31
0.0
  0
LINE
  5
15E
330
1F
100
AcDbEntity
  8
1
100
AcDbLine
 10
-2.282960282600015
 20
26.45947829409987
 30
0.0
 11
-2.02424554620012
 21
27.86309651269998
 31
0.0
  0
LWPOLYLINE
  5
15F
330
1F
100
AcDbEntity
  8
1
100
AcDbPolyline
 90
       10
 70
     0
 43
0.0
 10
-2.283931216600021
 20
26.4542061461
 10
-2.284111015400128
 20
26.4531984555
 10
-2.28460203259999
 20
26.45009913349989
 10
-2.285088092200109
 20
26.44655285839998
 10
-2.285571647300002
 20
26.44259690659998
 10
-2.286054039900021
 20
26.43823345879988
 10
-2.286537007900048
 20
26.43347930189989
 10
-2.287021817000095
 20
26.42832789409988
 10
-2.287510543000053
 20
26.42277817089987
 10
-2.288002494100055
 20
26.416830487
  0
LWPOLYLINE
  5
160
330
1F
100
AcDbEntity
  8
1
100
AcDbPolyline
 90
       11
 70
     0
 43
0.0
 10
-2.288002494100055
 20
26.416830487
 10
-2.278966818000069
 20
26.43371550299991
 10
-2.267246867300059
 20
26.44937086719989
 10
-2.252719071300134
 20
26.46389919079989
 10
-2.235754142200105
 20
26.47699264059989
 10
-2.216571001399981
 20
26.48842309499988
 10
-2.195501451100084
 20
26.49805403099989
 10
-2.172826343300016
 20
26.50570035609998
 10
-2.148917450300018
 20
26.51127965769996
 10
-2.124298335399998
 20
26.5146298123
 10
-2.098794477500121
 20
26.51580486099998
  0
LINE
  5
161
330
1F
100
AcDbEntity
  8
1
100
AcDbLine
 10
-2.280867885699989
 20
37.27580285089999
 30
0.0
 11
-2.0
 21
36.90379143889997
 31
0.0
  0
LINE
  5
162
330
1F
100
AcDbEntity
  8
1
100
AcDbLine
 10
-2.0
 20
33.99901085169998
 30
0.0
 11
-2.288002494100055
 21
37.35903994959997
 31
0.0
  0
LINE
  5
163
330
1F
100
AcDbEntity
  8
1
100
AcDbLine
 10
-2.0
 20
37.36815689880001
 30
0.0
 11
-2.0
 21
36.7253318568999
 31
0.0
  0
LINE
  5
164
330
1F
100
AcDbEntity
  8
1
100
AcDbLine
 10
-2.098794477500121
 20
37.49901085169989
 30
0.0
 11
-2.0
 21
37.36815689880001
 31
0.0
  0
LWPOLYLINE
  5
165
330
1F
100
AcDbEntity
  8
1
100
AcDbPolyline
 90
       11
 70
     0
 43
0.0
 10
-2.288002494100055
 20
37.35903994959997
 10
-2.278966818000069
 20
37.38291896819998
 10
-2.267246867300059
 20
37.40505899659999
 10
-2.252719071300134
 20
37.4256051488
 10
-2.235754142200105
 20
37.44412208319999
 10
-2.216571001399981
 20
37.46028718679989
 10
-2.195501451100084
 20
37.47390738719997
 10
-2.172826343300016
 20
37.4847209238
 10
-2.148917450300018
 20
37.4926112477999
 10
-2.124298335399998
 20
37.4973490818999
 10
-2.098794477500121
 20
37.49901085169989
  0
ARC
  5
166
330
1F
100
AcDbEntity
  8
1
100
AcDbCircle
 10
0.3999999999999772
 20
20.19282032299992
 30
0.0
 40
0.8
100
AcDbArc
 50
180.0
 51
239.9999999999998
  0
LINE
  5
167
330
1F
100
AcDbEntity
  8
1
100
AcDbLine
 10
-0.4000000000000341
 20
0.0
 30
0.0
 11
-0.4000000000000341
 21
22.78675068199999
 31
0.0
  0
DIMENSION
  5
168
330
1F
100
AcDbEntity
  8
SK2
100
AcDbDimension
  2
*D6
 10
8.902591647152117
 20
-11.0000000000001
 30
0.0
 11
8.902591647152121
 21
-0.0627451173718328
 31
0.0
 70
   160
  1
%%C<>
 71
     5
 42
22.00000000000011
  3
ISO-25
100
AcDbAlignedDimension
 13
0.0
 23
11.0
 33
0.0
 14
0.0
 24
-11.0000000000001
 34
0.0
 50
90.0
100
AcDbRotatedDimension
1001
ACAD
1000
DSTYLE
1002
{
1070
   140
1040
3.5
1002
}
  0
LINE
  5
169
330
1F
100
AcDbEntity
  8
1
100
AcDbLine
 10
0.0
 20
19.5
 30
0.0
 11
0.0
 21
-19.5
 31
0.0
  0
LINE
  5
16A
330
1F
100
AcDbEntity
  8
1
100
AcDbLine
 10
-0.4000000000000341
 20
-4.5
 30
0.0
 11
-0.4000000000000341
 21
-0.8888649322001072
 31
0.0
  0
DIMENSION
  5
16B
330
1F
100
AcDbEntity
  8
2
100
AcDbDimension
  2
*D7
 10
16.04496278213694
 20
19.49999999999999
 30
0.0
 11
16.04496278213694
 21
0.1225026961537878
 31
0.0
 70
   160
  1
%%c<>
 71
     5
 42
39.0
  3
ISO-25
100
AcDbAlignedDimension
 13
0.4999999999998864
 23
-19.5
 33
0.0
 14
0.4999999999998864
 24
19.5
 34
0.0
 50
90.0
100
AcDbRotatedDimension
1001
ACAD
1000
DSTYLE
1002
{
1070
   140
1040
3.5
1002
}
  0
LINE
  5
16C
330
1F
100
AcDbEntity
  8
1
100
AcDbLine
 10
-0.4000000000000341
 20
-24.03879704659999
 30
0.0
 11
-0.4000000000000341
 21
-4.5
 31
0.0
  0
LWPOLYLINE
  5
16D
330
1F
100
AcDbEntity
  8
1
100
AcDbPolyline
 90
       10
 70
     0
 43
0.0
 10
-0.1119975059000353
 20
-26.41683048690001
 10
-0.1124894570001516
 20
-26.4227781708
 10
-0.1129781829999956
 20
-26.42832789409998
 10
-0.1134629921001533
 20
-26.43347930190009
 10
-0.1139459601001249
 20
-26.43823345870001
 10
-0.114428352700088
 20
-26.44259690650011
 10
-0.1149119078000922
 20
-26.44655285839998
 10
-0.1153979675000301
 20
-26.4500991335
 10
-0.115888984600133
 20
-26.4531984554001
 10
-0.1160687834001237
 20
-26.45420614600002
  0
LINE
  5
16E
330
1F
100
AcDbEntity
  8
1
100
AcDbLine
 10
-0.1119975059000353
 20
-26.41683048690001
 30
0.0
 11
-0.4000000000000341
 21
-24.0409311268001
 31
0.0
  0
LINE
  5
16F
330
1F
100
AcDbEntity
  8
1
100
AcDbLine
 10
-0.1119975059000353
 20
-26.41683048690001
 30
0.0
 11
-0.114428352700088
 21
-26.35095714150011
 31
0.0
  0
LINE
  5
170
330
1F
100
AcDbEntity
  8
1
100
AcDbLine
 10
-0.114428352700088
 20
-26.35095714150011
 30
0.0
 11
-0.115888984600133
 21
-26.31625639540009
 31
0.0
  0
LINE
  5
171
330
1F
100
AcDbEntity
  8
1
100
AcDbLine
 10
-0.115888984600133
 20
-26.31625639540009
 30
0.0
 11
-0.116894592200083
 21
-26.2949209421001
 31
0.0
  0
LINE
  5
172
330
1F
100
AcDbEntity
  8
1
100
AcDbLine
 10
-0.116894592200083
 20
-26.2949209421001
 30
0.0
 11
-0.117956880200154
 21
-26.2750440189001
 31
0.0
  0
LWPOLYLINE
  5
173
330
1F
100
AcDbEntity
  8
1
100
AcDbPolyline
 90
        3
 70
     0
 43
0.0
 10
-0.117956880200154
 20
-26.2750440189001
 10
-0.1185303790000489
 20
-26.26573789
 10
-0.1191321144000312
 20
-26.25685331630001
  0
LINE
  5
174
330
1F
100
AcDbEntity
  8
1
100
AcDbLine
 10
-0.1191321144000312
 20
-26.25685331630001
 30
0.0
 11
-0.3756466099001159
 21
-22.7849513807001
 31
0.0
  0
LWPOLYLINE
  5
175
330
1F
100
AcDbEntity
  8
1
100
AcDbPolyline
 90
       11
 70
     0
 43
0.0
 10
-0.3012055225000267
 20
-26.5158048610001
 10
-0.2757016646000352
 20
-26.51462981230011
 10
-0.2510825497000724
 20
-26.5112796577001
 10
-0.2271736567000175
 20
-26.50570035599999
 10
-0.2044985489000055
 20
-26.49805403100001
 10
-0.1834289985999931
 20
-26.48842309490001
 10
-0.1642458578000969
 20
-26.47699264050001
 10
-0.1472809287001269
 20
-26.46389919070008
 10
-0.1327531327000315
 20
-26.44937086720011
 10
-0.1210331820000192
 20
-26.4337155029001
 10
-0.1119975059000353
 20
-26.41683048690001
  0
ARC
  5
176
330
1F
100
AcDbEntity
  8
1
100
AcDbCircle
 10
0.3999999999999772
 20
-20.192820323
 30
0.0
 40
0.8
100
AcDbArc
 50
119.9999999999997
 51
180.0
  0
LINE
  5
177
330
1F
100
AcDbEntity
  8
1
100
AcDbLine
 10
-0.3999369359000866
 20
-2.66967142380008
 30
0.0
 11
-0.1187434404999976
 21
-0.1397421850001308
 31
0.0
  0
LINE
  5
178
330
1F
100
AcDbEntity
  8
1
100
AcDbLine
 10
-0.4000000000000341
 20
-0.8888649322001072
 30
0.0
 11
-0.3012055225000267
 21
0.0
 31
0.0
  0
LWPOLYLINE
  5
179
330
1F
100
AcDbEntity
  8
1
100
AcDbPolyline
 90
        8
 70
     0
 43
0.0
 10
-0.1149119078000922
 20
-0.0760351360001153
 10
-0.115888984600133
 20
-0.0968326592000892
 10
-0.1163864627000066
 20
-0.1063706003000959
 10
-0.116894592200083
 20
-0.1152734578001002
 10
-0.1174151346001508
 20
-0.1235335304999978
 10
-0.117956880200154
 20
-0.1309903125001313
 10
-0.1185303790000489
 20
-0.1374603467000952
 10
-0.1188010283000267
 20
-0.1401011842000912
  0
LINE
  5
17A
330
1F
100
AcDbEntity
  8
1
100
AcDbLine
 10
-0.1139459601001249
 20
-0.0530003383001088
 30
0.0
 11
-0.1149119078000922
 21
-0.0760351360001153
 31
0.0
  0
LINE
  5
17B
330
1F
100
AcDbEntity
  8
1
100
AcDbLine
 10
-0.1119975059000353
 20
0.0
 30
0.0
 11
-0.1139459601001249
 21
-0.0530003383001088
 31
0.0
  0
LINE
  5
17C
330
1F
100
AcDbEntity
  8
1
100
AcDbLine
 10
-0.4000000000000341
 20
26.51580486099998
 30
0.0
 11
-0.4000000000000341
 21
36.7253318568999
 31
0.0
  0
LINE
  5
17D
330
1F
100
AcDbEntity
  8
1
100
AcDbLine
 10
-0.4000000000000341
 20
22.78675068199999
 30
0.0
 11
-0.4000000000000341
 21
25.79475472249999
 31
0.0
  0
LINE
  5
17E
330
1F
100
AcDbEntity
  8
1
100
AcDbLine
 10
-0.1191321144000312
 20
26.25685331630001
 30
0.0
 11
-0.3756466099001159
 21
22.78495138079989
 31
0.0
  0
LINE
  5
17F
330
1F
100
AcDbEntity
  8
1
100
AcDbLine
 10
-0.4000000000000341
 20
24.2069429064999
 30
0.0
 11
-0.1191321144000312
 21
26.25685331630001
 31
0.0
  0
LWPOLYLINE
  5
180
330
1F
100
AcDbEntity
  8
1
100
AcDbPolyline
 90
       11
 70
     0
 43
0.0
 10
-0.3012055225000267
 20
26.51580486099998
 10
-0.2757016646000352
 20
26.5146298123
 10
-0.2510825497000724
 20
26.51127965769996
 10
-0.2271736567000175
 20
26.50570035609998
 10
-0.2044985489000055
 20
26.49805403099989
 10
-0.1834289985999931
 20
26.48842309499988
 10
-0.1642458578000969
 20
26.47699264059989
 10
-0.1472809287001269
 20
26.46389919079989
 10
-0.1327531327000315
 20
26.44937086719989
 10
-0.1210331820000192
 20
26.43371550299991
 10
-0.1119975059000353
 20
26.416830487
  0
LINE
  5
181
330
1F
100
AcDbEntity
  8
1
100
AcDbLine
 10
-0.3999698190001481
 20
27.99447336509999
 30
0.0
 11
-0.1170397174000186
 21
26.45947829409987
 31
0.0
  0
LINE
  5
182
330
1F
100
AcDbEntity
  8
1
100
AcDbLine
 10
-0.4000000000000341
 20
27.98289944949988
 30
0.0
 11
-0.1191321144000312
 21
26.45909262369992
 31
0.0
  0
LWPOLYLINE
  5
183
330
1F
100
AcDbEntity
  8
1
100
AcDbPolyline
 90
        7
 70
     0
 43
0.0
 10
-0.1160687834001237
 20
26.4542061461
 10
-0.1163864627000066
 20
26.45583881329997
 10
-0.116894592200083
 20
26.45794222969996
 10
-0.1174151346001508
 20
26.4594887279
 10
-0.117956880200154
 20
26.46029229539988
 10
-0.1185303790000489
 20
26.4601361766999
 10
-0.1191321144000312
 20
26.45909262369992
  0
LWPOLYLINE
  5
184
330
1F
100
AcDbEntity
  8
1
100
AcDbPolyline
 90
       10
 70
     0
 43
0.0
 10
-0.1119975059000353
 20
26.416830487
 10
-0.1124894570001516
 20
26.42277817089987
 10
-0.1129781829999956
 20
26.42832789409988
 10
-0.1134629921001533
 20
26.43347930189989
 10
-0.1139459601001249
 20
26.43823345879988
 10
-0.114428352700088
 20
26.44259690659998
 10
-0.1149119078000922
 20
26.44655285839998
 10
-0.1153979675000301
 20
26.45009913349989
 10
-0.115888984600133
 20
26.4531984555
 10
-0.1160687834001237
 20
26.4542061461
  0
LWPOLYLINE
  5
185
330
1F
100
AcDbEntity
  8
1
100
AcDbPolyline
 90
        4
 70
     0
 43
0.0
 10
-0.116894592200083
 20
26.29492094219997
 10
-0.117956880200154
 20
26.27504401889999
 10
-0.1185303790000489
 20
26.26573789009989
 10
-0.1191321144000312
 20
26.25685331630001
  0
LINE
  5
186
330
1F
100
AcDbEntity
  8
1
100
AcDbLine
 10
-0.115888984600133
 20
26.31625639549997
 30
0.0
 11
-0.116894592200083
 21
26.29492094219997
 31
0.0
  0
LINE
  5
187
330
1F
100
AcDbEntity
  8
1
100
AcDbLine
 10
-0.114428352700088
 20
26.35095714159987
 30
0.0
 11
-0.115888984600133
 21
26.31625639549997
 31
0.0
  0
LINE
  5
188
330
1F
100
AcDbEntity
  8
1
100
AcDbLine
 10
-0.1119975059000353
 20
26.416830487
 30
0.0
 11
-0.114428352700088
 21
26.35095714159987
 31
0.0
  0
LINE
  5
189
330
1F
100
AcDbEntity
  8
1
100
AcDbLine
 10
-0.4000000000000341
 20
25.79475472249999
 30
0.0
 11
-0.3012055225000267
 21
26.51580486099998
 31
0.0
  0
LINE
  5
18A
330
1F
100
AcDbEntity
  8
1
100
AcDbLine
 10
-0.1191321144000312
 20
26.45909262369992
 30
0.0
 11
-0.1256242875000453
 21
26.43984824450001
 31
0.0
  0
LINE
  5
18B
330
1F
100
AcDbEntity
  8
1
100
AcDbLine
 10
-0.4000000000000341
 20
36.7253318568999
 30
0.0
 11
-0.4000000000000341
 21
37.36815689880001
 31
0.0
  0
LINE
  5
18C
330
1F
100
AcDbEntity
  8
1
100
AcDbLine
 10
-0.1119975059000353
 20
37.35903994959997
 30
0.0
 11
-0.4000000000000341
 21
33.99901085169998
 31
0.0
  0
LINE
  5
18D
330
1F
100
AcDbEntity
  8
1
100
AcDbLine
 10
-0.4000000000000341
 20
36.90379143889997
 30
0.0
 11
-0.1191321144000312
 21
37.27580285089999
 31
0.0
  0
LWPOLYLINE
  5
18E
330
1F
100
AcDbEntity
  8
1
100
AcDbPolyline
 90
       11
 70
     0
 43
0.0
 10
-0.3012055225000267
 20
37.49901085169989
 10
-0.2757016646000352
 20
37.4973490818999
 10
-0.2510825497000724
 20
37.4926112477999
 10
-0.2271736567000175
 20
37.4847209238
 10
-0.2044985489000055
 20
37.47390738719997
 10
-0.1834289985999931
 20
37.46028718679989
 10
-0.1642458578000969
 20
37.44412208319999
 10
-0.1472809287001269
 20
37.4256051488
 10
-0.1327531327000315
 20
37.40505899659999
 10
-0.1210331820000192
 20
37.38291896819998
 10
-0.1119975059000353
 20
37.35903994959997
  0
LINE
  5
18F
330
1F
100
AcDbEntity
  8
1
100
AcDbLine
 10
-0.4000000000000341
 20
37.36815689880001
 30
0.0
 11
-0.3012055225000267
 21
37.49901085169989
 31
0.0
  0
MTEXT
  5
248
330
1F
100
AcDbEntity
  8
6
100
AcDbMText
 10
2.489900155867357
 20
37.7991053514736
 30
0.0
 40
3.5
 41
0.8
 71
     1
 72
     5
  1
GCXF082202N
 73
     1
 44
1.0
  0
MTEXT
  5
249
330
1F
100
AcDbEntity
  8
6
100
AcDbMText
 10
18.80415781871089
 20
-3.543032458105756
 30
0.0
 40
3.5
 41
19.8224
 71
     1
 72
     5
  1
Z=8
 11
0.0000000000000001
 21
1.0
 31
0.0
 73
     1
 44
1.0
  0
LINE
  5
2A3
330
1F
100
AcDbEntity
  8
CUT
100
AcDbLine
 10
-0.4000000000000341
 20
33.99901085169989
 30
0.0
 11
-2.000000000000026
 21
33.99901085169989
 31
0.0
  0
LINE
  5
2A4
330
1F
100
AcDbEntity
  8
CUT
100
AcDbLine
 10
-0.3012055225000267
 20
37.49901085169989
 30
0.0
 11
-2.098794477500034
 21
37.49901085169989
 31
0.0
  0
LINE
  5
2A5
330
1F
100
AcDbEntity
  8
CUT
100
AcDbLine
 10
-2.288002494100025
 20
37.35903994959989
 30
0.0
 11
-2.000000000000026
 21
33.99901085169989
 31
0.0
  0
LWPOLYLINE
  5
2A6
330
1F
100
AcDbEntity
  8
CUT
100
AcDbPolyline
 90
       11
 70
     0
 43
0.0
 10
-2.098794477500034
 20
37.49901085169989
 10
-2.124298335399998
 20
37.4973490818999
 10
-2.148917450300018
 20
37.49261124789986
 10
-2.172826343300016
 20
37.48472092379987
 10
-2.195501451100055
 20
37.47390738719988
 10
-2.216571001400041
 20
37.46028718679986
 10
-2.23575414220002
 20
37.44412208319991
 10
-2.252719071200033
 20
37.42560514889989
 10
-2.267246867300029
 20
37.40505899669989
 10
-2.278966818000041
 20
37.38291896819989
 10
-2.288002494100025
 20
37.35903994959989
  0
LINE
  5
2A7
330
1F
100
AcDbEntity
  8
CUT
100
AcDbLine
 10
-0.1119975059000353
 20
37.35903994959989
 30
0.0
 11
-0.4000000000000341
 21
33.99901085169989
 31
0.0
  0
LWPOLYLINE
  5
2A8
330
1F
100
AcDbEntity
  8
CUT
100
AcDbPolyline
 90
       11
 70
     0
 43
0.0
 10
-0.1119975059000353
 20
37.35903994959989
 10
-0.1210331820000476
 20
37.38291896819989
 10
-0.1327531327000315
 20
37.40505899669989
 10
-0.1472809287000416
 20
37.42560514889989
 10
-0.16424585780004
 20
37.44412208319991
 10
-0.1834289986000499
 20
37.46028718679986
 10
-0.2044985489000339
 20
37.47390738719988
 10
-0.2271736567000175
 20
37.48472092379987
 10
-0.2510825497000155
 20
37.49261124789986
 10
-0.2757016646000352
 20
37.4973490818999
 10
-0.3012055225000267
 20
37.49901085169989
  0
LWPOLYLINE
  5
2CE
330
1F
100
AcDbEntity
  8
NOCUT
100
AcDbPolyline
 90
       58
 70
     0
 43
0.0
 10
-0.1160938432711092
 20
-26.45434659519338
 10
-0.115888984600133
 20
-26.4531984554001
 10
-0.1153979675000301
 20
-26.4500991335
 10
-0.1149119078000922
 20
-26.44655285839998
 10
-0.114428352700088
 20
-26.44259690650011
 10
-0.1139459601001249
 20
-26.43823345870001
 10
-0.1134629921001533
 20
-26.43347930190009
 10
-0.1129781829999956
 20
-26.42832789409998
 10
-0.1124894570001516
 20
-26.4227781708
 10
-0.1119975059000353
 20
-26.41683048690001
 10
-0.4000000000000341
 20
-24.0409311268001
 10
-0.4000000000000341
 20
-20.192820323
 42
-0.267949192431124
 10
-0.0000000000000213
 20
-19.49999999997244
 10
0.0
 20
0.0
 10
-2.400000000000034
 20
0.0
 10
-2.400000000000034
 20
-19.5
 42
-0.267949192431124
 10
-2.000000000000014
 20
-20.192820323
 10
-2.0
 20
-24.0409311268001
 10
-2.288002494100055
 20
-26.41683048690001
 10
-2.287510543000053
 20
-26.4227781708
 10
-2.287021817000095
 20
-26.42832789409998
 10
-2.286537007900051
 20
-26.43347930190009
 10
-2.286054039900022
 20
-26.43823345870001
 10
-2.285571647300002
 20
-26.44259690650011
 10
-2.285088092200112
 20
-26.44655285839998
 10
-2.284602032599991
 20
-26.4500991335
 10
-2.284111015400128
 20
-26.4531984554001
 10
-2.0
 20
-28.04551163759771
 10
-2.0
 20
-29.2293511821
 10
-2.0
 20
-33.9500000000001
 10
-2.0
 20
-33.99901085159999
 10
-2.288002494100055
 20
-37.35903994950001
 10
-2.278966818000071
 20
-37.3829189681001
 10
-2.267246867300059
 20
-37.40505899659999
 10
-2.252719071300134
 20
-37.4256051488
 10
-2.235754142200107
 20
-37.44412208310001
 10
-2.216571001399984
 20
-37.4602871867
 10
-2.195501451100085
 20
-37.47390738710009
 10
-2.172826343300016
 20
-37.48472092370011
 10
-2.148917450300018
 20
-37.4926112478
 10
-2.124298335399998
 20
-37.49734908179999
 10
-2.098794477500121
 20
-37.49901085159999
 10
-0.3012055225000267
 20
-37.49901085159999
 10
-0.2757016646000352
 20
-37.49734908179999
 10
-0.2510825497000724
 20
-37.4926112478
 10
-0.2271736567000175
 20
-37.48472092370011
 10
-0.2044985489000055
 20
-37.47390738710009
 10
-0.1834289985999931
 20
-37.4602871867
 10
-0.1642458578000969
 20
-37.44412208310001
 10
-0.1472809287001269
 20
-37.4256051488
 10
-0.1327531327000315
 20
-37.40505899659999
 10
-0.1210331820000192
 20
-37.3829189681001
 10
-0.1119975059000353
 20
-37.35903994950001
 10
-0.4000000000000341
 20
-33.99901085159999
 10
-0.4000000000000341
 20
-33.9500000000001
 10
-0.4000000000000341
 20
-29.2293511821
 10
-0.4000000000000341
 20
-27.99463710751377
 10
-0.116041685300047
 20
-26.45406361990009
  0
ENDSEC
  0
SECTION
  2
OBJECTS
  0
DICTIONARY
  5
C
330
0
100
AcDbDictionary
281
     1
  3
ACAD_GROUP
350
D
  3
ACAD_LAYOUT
350
1A
  3
ACAD_MLINESTYLE
350
17
  3
ACAD_PLOTSETTINGS
350
19
  3
ACAD_PLOTSTYLENAME
350
E
  0
DICTIONARY
  5
D
102
{ACAD_REACTORS
330
C
102
}
330
C
100
AcDbDictionary
281
     1
  0
DICTIONARY
  5
1A
102
{ACAD_REACTORS
330
C
102
}
330
C
100
AcDbDictionary
281
     1
  3
Layout1
350
1E
  3
Layout2
350
26
  3
Model
350
22
  0
DICTIONARY
  5
17
102
{ACAD_REACTORS
330
C
102
}
330
C
100
AcDbDictionary
281
     1
  3
Standard
350
18
  0
DICTIONARY
  5
19
102
{ACAD_REACTORS
330
C
102
}
330
C
100
AcDbDictionary
281
     1
  0
ACDBDICTIONARYWDFLT
  5
E
102
{ACAD_REACTORS
330
C
102
}
330
C
100
AcDbDictionary
281
     1
  3
Normal
350
F
100
AcDbDictionaryWithDefault
340
F
  0
LAYOUT
  5
1E
102
{ACAD_REACTORS
330
1A
102
}
330
1A
100
AcDbPlotSettings
  1

  2
\\ingdom02\ITB2
  4

  6

 40
0.0
 41
0.0
 42
0.0
 43
0.0
 44
0.0
 45
0.0
 46
0.0
 47
0.0
 48
0.0
 49
0.0
140
0.0
141
0.0
142
1.0
143
1.0
 70
   688
 72
     0
 73
     0
 74
     5
  7

 75
    16
147
1.0
148
0.0
149
0.0
100
AcDbLayout
  1
Layout1
 70
     1
 71
     1
 10
0.0
 20
0.0
 11
420.0
 21
297.0
 12
0.0
 22
0.0
 32
0.0
 14
1.000000000000000E+20
 24
1.000000000000000E+20
 34
1.000000000000000E+20
 15
-1.000000000000000E+20
 25
-1.000000000000000E+20
 35
-1.000000000000000E+20
146
0.0
 13
0.0
 23
0.0
 33
0.0
 16
1.0
 26
0.0
 36
0.0
 17
0.0
 27
1.0
 37
0.0
 76
     0
330
1B
  0
LAYOUT
  5
26
102
{ACAD_REACTORS
330
1A
102
}
330
1A
100
AcDbPlotSettings
  1

  2
\\ingdom02\ITB2
  4

  6

 40
0.0
 41
0.0
 42
0.0
 43
0.0
 44
0.0
 45
0.0
 46
0.0
 47
0.0
 48
0.0
 49
0.0
140
0.0
141
0.0
142
1.0
143
1.0
 70
   688
 72
     0
 73
     0
 74
     5
  7

 75
    16
147
1.0
148
0.0
149
0.0
100
AcDbLayout
  1
Layout2
 70
     1
 71
     2
 10
0.0
 20
0.0
 11
12.0
 21
9.0
 12
0.0
 22
0.0
 32
0.0
 14
0.0
 24
0.0
 34
0.0
 15
0.0
 25
0.0
 35
0.0
146
0.0
 13
0.0
 23
0.0
 33
0.0
 16
1.0
 26
0.0
 36
0.0
 17
0.0
 27
1.0
 37
0.0
 76
     0
330
23
  0
LAYOUT
  5
22
102
{ACAD_REACTORS
330
1A
102
}
330
1A
100
AcDbPlotSettings
  1

  2
\\ingdom02\ITB2
  4

  6

 40
0.0
 41
0.0
 42
0.0
 43
0.0
 44
0.0
 45
0.0
 46
0.0
 47
0.0
 48
0.0
 49
0.0
140
0.0
141
0.0
142
1.0
143
1.0
 70
  1712
 72
     0
 73
     0
 74
     0
  7

 75
     0
147
1.0
148
0.0
149
0.0
100
AcDbLayout
  1
Model
 70
     1
 71
     0
 10
0.0
 20
0.0
 11
12.0
 21
9.0
 12
0.0
 22
0.0
 32
0.0
 14
0.0
 24
0.0
 34
0.0
 15
0.0
 25
0.0
 35
0.0
146
0.0
 13
0.0
 23
0.0
 33
0.0
 16
1.0
 26
0.0
 36
0.0
 17
0.0
 27
1.0
 37
0.0
 76
     0
330
1F
  0
MLINESTYLE
  5
18
102
{ACAD_REACTORS
330
17
102
}
330
17
100
AcDbMlineStyle
  2
STANDARD
 70
     0
  3

 62
   256
 51
90.0
 52
90.0
 71
     2
 49
0.5
 62
   256
  6
BYLAYER
 49
-0.5
 62
   256
  6
BYLAYER
  0
ACDBPLACEHOLDER
  5
F
102
{ACAD_REACTORS
330
E
102
}
330
E
  0
ENDSEC
  0
EOF
