  0
SECTION
  2
HEADER
  9
$ACADVER
  1
AC1015
  9
$ACADMAINTVER
 70
    10
  9
$DWGCODEPAGE
  3
ANSI_1252
  9
$INSBASE
 10
0.0
 20
0.0
 30
0.0
  9
$EXTMIN
 10
-32.17754477733342
 20
-62.52535835797664
 30
-0.0000000000000058
  9
$EXTMAX
 10
36.61018299397278
 20
82.46312507387893
 30
0.0000000000000104
  9
$LIMMIN
 10
0.0
 20
0.0
  9
$LIMMAX
 10
420.0
 20
297.0
  9
$ORTHOMODE
 70
     0
  9
$REGENMODE
 70
     1
  9
$FILLMODE
 70
     1
  9
$QTEXTMODE
 70
     0
  9
$MIRRTEXT
 70
     1
  9
$LTSCALE
 40
5.0
  9
$ATTMODE
 70
     1
  9
$TEXTSIZE
 40
3.5
  9
$TRACEWID
 40
1.0
  9
$TEXTSTYLE
  7
Standard
  9
$CLAYER
  8
0
  9
$CELTYPE
  6
ByLayer
  9
$CECOLOR
 62
   256
  9
$CELTSCALE
 40
1.0
  9
$DISPSILH
 70
     0
  9
$DIMSCALE
 40
1.0
  9
$DIMASZ
 40
2.5
  9
$DIMEXO
 40
0.625
  9
$DIMDLI
 40
3.75
  9
$DIMRND
 40
0.0
  9
$DIMDLE
 40
0.0
  9
$DIMEXE
 40
1.25
  9
$DIMTP
 40
0.0
  9
$DIMTM
 40
0.0
  9
$DIMTXT
 40
2.5
  9
$DIMCEN
 40
2.5
  9
$DIMTSZ
 40
0.0
  9
$DIMTOL
 70
     0
  9
$DIMLIM
 70
     0
  9
$DIMTIH
 70
     0
  9
$DIMTOH
 70
     0
  9
$DIMSE1
 70
     0
  9
$DIMSE2
 70
     0
  9
$DIMTAD
 70
     1
  9
$DIMZIN
 70
     8
  9
$DIMBLK
  1

  9
$DIMASO
 70
     1
  9
$DIMSHO
 70
     1
  9
$DIMPOST
  1

  9
$DIMAPOST
  1

  9
$DIMALT
 70
     0
  9
$DIMALTD
 70
     3
  9
$DIMALTF
 40
0.03937007874016
  9
$DIMLFAC
 40
1.0
  9
$DIMTOFL
 70
     1
  9
$DIMTVP
 40
0.0
  9
$DIMTIX
 70
     0
  9
$DIMSOXD
 70
     0
  9
$DIMSAH
 70
     0
  9
$DIMBLK1
  1

  9
$DIMBLK2
  1

  9
$DIMSTYLE
  2
ISO-25
  9
$DIMCLRD
 70
     0
  9
$DIMCLRE
 70
     0
  9
$DIMCLRT
 70
     0
  9
$DIMTFAC
 40
1.0
  9
$DIMGAP
 40
0.625
  9
$DIMJUST
 70
     0
  9
$DIMSD1
 70
     0
  9
$DIMSD2
 70
     0
  9
$DIMTOLJ
 70
     0
  9
$DIMTZIN
 70
     8
  9
$DIMALTZ
 70
     0
  9
$DIMALTTZ
 70
     0
  9
$DIMUPT
 70
     0
  9
$DIMDEC
 70
     2
  9
$DIMTDEC
 70
     2
  9
$DIMALTU
 70
     2
  9
$DIMALTTD
 70
     3
  9
$DIMTXSTY
  7
Standard
  9
$DIMAUNIT
 70
     0
  9
$DIMADEC
 70
     0
  9
$DIMALTRND
 40
0.0
  9
$DIMAZIN
 70
     0
  9
$DIMDSEP
 70
    44
  9
$DIMATFIT
 70
     3
  9
$DIMFRAC
 70
     0
  9
$DIMLDRBLK
  1

  9
$DIMLUNIT
 70
     2
  9
$DIMLWD
 70
    -2
  9
$DIMLWE
 70
    -2
  9
$DIMTMOVE
 70
     0
  9
$LUNITS
 70
     2
  9
$LUPREC
 70
     4
  9
$SKETCHINC
 40
1.0
  9
$FILLETRAD
 40
10.0
  9
$AUNITS
 70
     0
  9
$AUPREC
 70
     0
  9
$MENU
  1
.
  9
$ELEVATION
 40
0.0
  9
$PELEVATION
 40
0.0
  9
$THICKNESS
 40
0.0
  9
$LIMCHECK
 70
     0
  9
$CHAMFERA
 40
10.0
  9
$CHAMFERB
 40
10.0
  9
$CHAMFERC
 40
20.0
  9
$CHAMFERD
 40
0.0
  9
$SKPOLY
 70
     0
  9
$TDCREATE
 40
2454228.342058657
  9
$TDUCREATE
 40
2454228.258725324
  9
$TDUPDATE
 40
2454228.624723564
  9
$TDUUPDATE
 40
2454228.541390231
  9
$TDINDWG
 40
0.0027097569
  9
$TDUSRTIMER
 40
0.0027093981
  9
$USRTIMER
 70
     1
  9
$ANGBASE
 50
0.0
  9
$ANGDIR
 70
     0
  9
$PDMODE
 70
     0
  9
$PDSIZE
 40
0.0
  9
$PLINEWID
 40
0.0
  9
$SPLFRAME
 70
     0
  9
$SPLINETYPE
 70
     6
  9
$SPLINESEGS
 70
     8
  9
$HANDSEED
  5
320
  9
$SURFTAB1
 70
     6
  9
$SURFTAB2
 70
     6
  9
$SURFTYPE
 70
     6
  9
$SURFU
 70
     6
  9
$SURFV
 70
     6
  9
$UCSBASE
  2

  9
$UCSNAME
  2

  9
$UCSORG
 10
0.0
 20
0.0
 30
0.0
  9
$UCSXDIR
 10
1.0
 20
0.0
 30
0.0
  9
$UCSYDIR
 10
0.0
 20
1.0
 30
0.0
  9
$UCSORTHOREF
  2

  9
$UCSORTHOVIEW
 70
     0
  9
$UCSORGTOP
 10
0.0
 20
0.0
 30
0.0
  9
$UCSORGBOTTOM
 10
0.0
 20
0.0
 30
0.0
  9
$UCSORGLEFT
 10
0.0
 20
0.0
 30
0.0
  9
$UCSORGRIGHT
 10
0.0
 20
0.0
 30
0.0
  9
$UCSORGFRONT
 10
0.0
 20
0.0
 30
0.0
  9
$UCSORGBACK
 10
0.0
 20
0.0
 30
0.0
  9
$PUCSBASE
  2

  9
$PUCSNAME
  2

  9
$PUCSORG
 10
0.0
 20
0.0
 30
0.0
  9
$PUCSXDIR
 10
1.0
 20
0.0
 30
0.0
  9
$PUCSYDIR
 10
0.0
 20
1.0
 30
0.0
  9
$PUCSORTHOREF
  2

  9
$PUCSORTHOVIEW
 70
     0
  9
$PUCSORGTOP
 10
0.0
 20
0.0
 30
0.0
  9
$PUCSORGBOTTOM
 10
0.0
 20
0.0
 30
0.0
  9
$PUCSORGLEFT
 10
0.0
 20
0.0
 30
0.0
  9
$PUCSORGRIGHT
 10
0.0
 20
0.0
 30
0.0
  9
$PUCSORGFRONT
 10
0.0
 20
0.0
 30
0.0
  9
$PUCSORGBACK
 10
0.0
 20
0.0
 30
0.0
  9
$USERI1
 70
     0
  9
$USERI2
 70
     0
  9
$USERI3
 70
     0
  9
$USERI4
 70
     0
  9
$USERI5
 70
     0
  9
$USERR1
 40
0.0
  9
$USERR2
 40
0.0
  9
$USERR3
 40
0.0
  9
$USERR4
 40
0.0
  9
$USERR5
 40
0.0
  9
$WORLDVIEW
 70
     1
  9
$SHADEDGE
 70
     3
  9
$SHADEDIF
 70
    70
  9
$TILEMODE
 70
     1
  9
$MAXACTVP
 70
    64
  9
$PINSBASE
 10
0.0
 20
0.0
 30
0.0
  9
$PLIMCHECK
 70
     0
  9
$PEXTMIN
 10
1.000000000000000E+20
 20
1.000000000000000E+20
 30
1.000000000000000E+20
  9
$PEXTMAX
 10
-1.000000000000000E+20
 20
-1.000000000000000E+20
 30
-1.000000000000000E+20
  9
$PLIMMIN
 10
0.0
 20
0.0
  9
$PLIMMAX
 10
420.0
 20
297.0
  9
$UNITMODE
 70
     0
  9
$VISRETAIN
 70
     1
  9
$PLINEGEN
 70
     0
  9
$PSLTSCALE
 70
     1
  9
$TREEDEPTH
 70
  3020
  9
$CMLSTYLE
  2
Standard
  9
$CMLJUST
 70
     0
  9
$CMLSCALE
 40
20.0
  9
$PROXYGRAPHICS
 70
     1
  9
$MEASUREMENT
 70
     1
  9
$CELWEIGHT
370
    -1
  9
$ENDCAPS
280
     0
  9
$JOINSTYLE
280
     0
  9
$LWDISPLAY
290
     0
  9
$INSUNITS
 70
     4
  9
$HYPERLINKBASE
  1

  9
$STYLESHEET
  1

  9
$XEDIT
290
     1
  9
$CEPSNTYPE
380
     0
  9
$PSTYLEMODE
290
     1
  9
$FINGERPRINTGUID
  2
{93E7879C-6061-446B-B822-E4BAE103E162}
  9
$VERSIONGUID
  2
{D76CEA48-AF0D-4865-A750-0D4262F07CBB}
  9
$EXTNAMES
290
     1
  9
$PSVPSCALE
 40
0.0
  9
$OLESTARTUP
290
     0
  0
ENDSEC
  0
SECTION
  2
CLASSES
  0
CLASS
  1
ACDBDICTIONARYWDFLT
  2
AcDbDictionaryWithDefault
  3
AutoCAD 2000
 90
        0
280
     0
281
     0
  0
CLASS
  1
ACDBPLACEHOLDER
  2
AcDbPlaceHolder
  3
AutoCAD 2000
 90
        0
280
     0
281
     0
  0
CLASS
  1
LAYOUT
  2
AcDbLayout
  3
AutoCAD 2000
 90
        0
280
     0
281
     0
  0
ENDSEC
  0
SECTION
  2
TABLES
  0
TABLE
  2
VPORT
  5
8
330
0
100
AcDbSymbolTable
 70
     3
  0
VPORT
  5
31F
330
8
100
AcDbSymbolTableRecord
100
AcDbViewportTableRecord
  2
*Active
 70
     0
 10
0.0
 20
0.0
 11
1.0
 21
1.0
 12
2.21631910831968
 22
9.968883357951142
 13
0.0
 23
0.0
 14
10.0
 24
10.0
 15
10.0
 25
10.0
 16
0.0
 26
0.0
 36
1.0
 17
0.0
 27
0.0
 37
0.0
 40
147.1259057920303
 41
2.423645320197044
 42
50.0
 43
0.0
 44
0.0
 50
0.0
 51
0.0
 71
     0
 72
   100
 73
     1
 74
     3
 75
     0
 76
     0
 77
     0
 78
     0
281
     0
 65
     1
110
0.0
120
0.0
130
0.0
111
1.0
121
0.0
131
0.0
112
0.0
122
1.0
132
0.0
 79
     0
146
0.0
  0
ENDTAB
  0
TABLE
  2
LTYPE
  5
5
330
0
100
AcDbSymbolTable
 70
     3
  0
LTYPE
  5
14
330
5
100
AcDbSymbolTableRecord
100
AcDbLinetypeTableRecord
  2
ByBlock
 70
     0
  3

 72
    65
 73
     0
 40
0.0
  0
LTYPE
  5
15
330
5
100
AcDbSymbolTableRecord
100
AcDbLinetypeTableRecord
  2
ByLayer
 70
     0
  3

 72
    65
 73
     0
 40
0.0
  0
LTYPE
  5
16
330
5
100
AcDbSymbolTableRecord
100
AcDbLinetypeTableRecord
  2
Continuous
 70
     0
  3
Solid line
 72
    65
 73
     0
 40
0.0
  0
LTYPE
  5
78
330
5
100
AcDbSymbolTableRecord
100
AcDbLinetypeTableRecord
  2
CENTER
 70
     0
  3
____ _ ____ _ ____ _ ____ _ ____ _ ____ _ ____
 72
    65
 73
     4
 40
0.6
 49
0.375
 74
     0
 49
-0.075
 74
     0
 49
0.075
 74
     0
 49
-0.075
 74
     0
  0
LTYPE
  5
79
330
5
100
AcDbSymbolTableRecord
100
AcDbLinetypeTableRecord
  2
HIDDEN
 70
     0
  3
- - - - - - - - - - - - - - - - - - - -
 72
    65
 73
     2
 40
0.2
 49
0.1
 74
     0
 49
-0.1
 74
     0
  0
ENDTAB
  0
TABLE
  2
LAYER
  5
2
330
0
100
AcDbSymbolTable
 70
    10
  0
LAYER
  5
10
330
2
100
AcDbSymbolTableRecord
100
AcDbLayerTableRecord
  2
0
 70
     0
 62
     7
  6
Continuous
370
    -3
390
F
  0
LAYER
  5
7C
330
2
100
AcDbSymbolTableRecord
100
AcDbLayerTableRecord
  2
1
 70
     0
 62
     4
  6
Continuous
370
    -3
390
F
  0
LAYER
  5
7D
330
2
100
AcDbSymbolTableRecord
100
AcDbLayerTableRecord
  2
SK3
 70
     0
 62
     1
  6
HIDDEN
370
    -3
390
F
  0
LAYER
  5
7E
330
2
100
AcDbSymbolTableRecord
100
AcDbLayerTableRecord
  2
4
 70
     0
 62
     2
  6
CENTER
370
    -3
390
F
  0
LAYER
  5
7F
330
2
100
AcDbSymbolTableRecord
100
AcDbLayerTableRecord
  2
6
 70
     0
 62
     5
  6
Continuous
370
    -3
390
F
  0
LAYER
  5
80
330
2
100
AcDbSymbolTableRecord
100
AcDbLayerTableRecord
  2
Defpoints
 70
     0
 62
     7
  6
Continuous
290
     0
370
    -3
390
F
  0
LAYER
  5
81
330
2
100
AcDbSymbolTableRecord
100
AcDbLayerTableRecord
  2
SK2
 70
     0
 62
     7
  6
Continuous
370
    -3
390
F
  0
LAYER
  5
82
330
2
100
AcDbSymbolTableRecord
100
AcDbLayerTableRecord
  2
2
 70
     0
 62
     7
  6
Continuous
370
    -3
390
F
  0
LAYER
  5
2F6
330
2
100
AcDbSymbolTableRecord
100
AcDbLayerTableRecord
  2
CUT
 70
     0
 62
     1
  6
Continuous
370
    -3
390
F
  0
LAYER
  5
315
330
2
100
AcDbSymbolTableRecord
100
AcDbLayerTableRecord
  2
NOCUT
 70
     0
 62
     7
  6
Continuous
370
    -3
390
F
  0
ENDTAB
  0
TABLE
  2
STYLE
  5
3
330
0
100
AcDbSymbolTable
 70
     1
  0
STYLE
  5
11
330
3
100
AcDbSymbolTableRecord
100
AcDbTextStyleTableRecord
  2
Standard
 70
     0
 40
3.5
 41
1.0
 50
0.0
 71
     0
 42
3.5
  3
isocp.shx
  4

  0
ENDTAB
  0
TABLE
  2
VIEW
  5
6
330
0
100
AcDbSymbolTable
 70
     0
  0
ENDTAB
  0
TABLE
  2
UCS
  5
7
330
0
100
AcDbSymbolTable
 70
     0
  0
ENDTAB
  0
TABLE
  2
APPID
  5
9
330
0
100
AcDbSymbolTable
 70
     1
  0
APPID
  5
12
330
9
100
AcDbSymbolTableRecord
100
AcDbRegAppTableRecord
  2
ACAD
 70
     0
  0
ENDTAB
  0
TABLE
  2
DIMSTYLE
  5
A
330
0
100
AcDbSymbolTable
 70
     2
100
AcDbDimStyleTable
 71
     0
  0
DIMSTYLE
105
27
102
{ACAD_REACTORS
330
13E
330
13F
330
164
330
17D
330
17E
330
183
102
}
330
A
100
AcDbSymbolTableRecord
100
AcDbDimStyleTableRecord
  2
ISO-25
 70
     0
 41
2.5
 42
0.625
 43
3.75
 44
1.25
 73
     0
 74
     0
 77
     1
 78
     8
140
2.5
141
2.5
143
0.03937007874016
147
0.625
171
     3
172
     1
271
     2
272
     2
274
     3
278
    44
283
     0
284
     8
340
11
  0
DIMSTYLE
105
83
330
A
100
AcDbSymbolTableRecord
100
AcDbDimStyleTableRecord
  2
STANDARD
 70
     0
 41
2.5
 47
0.005
 48
0.005
 71
     1
 73
     0
 74
     0
 77
     1
 78
     8
140
3.5
178
     5
271
     3
272
     3
284
     8
340
11
341
2B
342
2B
343
2B
344
2B
  0
ENDTAB
  0
TABLE
  2
BLOCK_RECORD
  5
1
330
0
100
AcDbSymbolTable
 70
    10
  0
BLOCK_RECORD
  5
1F
330
1
100
AcDbSymbolTableRecord
100
AcDbBlockTableRecord
  2
*Model_Space
340
22
  0
BLOCK_RECORD
  5
1B
330
1
100
AcDbSymbolTableRecord
100
AcDbBlockTableRecord
  2
*Paper_Space
340
1E
  0
BLOCK_RECORD
  5
23
330
1
100
AcDbSymbolTableRecord
100
AcDbBlockTableRecord
  2
*Paper_Space0
340
26
  0
BLOCK_RECORD
  5
2B
330
1
100
AcDbSymbolTableRecord
100
AcDbBlockTableRecord
  2
_ARROW_FILLED
340
0
  0
BLOCK_RECORD
  5
1EA
330
1
100
AcDbSymbolTableRecord
100
AcDbBlockTableRecord
  2
*D2
340
0
  0
BLOCK_RECORD
  5
1F6
330
1
100
AcDbSymbolTableRecord
100
AcDbBlockTableRecord
  2
*D3
340
0
  0
BLOCK_RECORD
  5
202
330
1
100
AcDbSymbolTableRecord
100
AcDbBlockTableRecord
  2
*D4
340
0
  0
BLOCK_RECORD
  5
210
330
1
100
AcDbSymbolTableRecord
100
AcDbBlockTableRecord
  2
*D5
340
0
  0
BLOCK_RECORD
  5
219
330
1
100
AcDbSymbolTableRecord
100
AcDbBlockTableRecord
  2
*D6
340
0
  0
BLOCK_RECORD
  5
227
330
1
100
AcDbSymbolTableRecord
100
AcDbBlockTableRecord
  2
*D7
340
0
  0
ENDTAB
  0
ENDSEC
  0
SECTION
  2
BLOCKS
  0
BLOCK
  5
20
330
1F
100
AcDbEntity
  8
0
100
AcDbBlockBegin
  2
*Model_Space
 70
     0
 10
0.0
 20
0.0
 30
0.0
  3
*Model_Space
  1

  0
ENDBLK
  5
21
330
1F
100
AcDbEntity
  8
0
100
AcDbBlockEnd
  0
BLOCK
  5
1C
330
1B
100
AcDbEntity
 67
     1
  8
0
100
AcDbBlockBegin
  2
*Paper_Space
 70
     0
 10
0.0
 20
0.0
 30
0.0
  3
*Paper_Space
  1

  0
ENDBLK
  5
1D
330
1B
100
AcDbEntity
 67
     1
  8
0
100
AcDbBlockEnd
  0
BLOCK
  5
24
330
23
100
AcDbEntity
  8
0
100
AcDbBlockBegin
  2
*Paper_Space0
 70
     0
 10
0.0
 20
0.0
 30
0.0
  3
*Paper_Space0
  1

  0
ENDBLK
  5
25
330
23
100
AcDbEntity
  8
0
100
AcDbBlockEnd
  0
BLOCK
  5
2D
330
2B
100
AcDbEntity
  8
0
100
AcDbBlockBegin
  2
_ARROW_FILLED
 70
     0
 10
0.0
 20
0.0
 30
0.0
  3
_ARROW_FILLED
  1

  0
SOLID
  5
2C
330
2B
100
AcDbEntity
  8
0
  6
ByBlock
 62
     0
100
AcDbTrace
 10
0.0
 20
0.0
 30
0.0
 11
-1.0
 21
0.132
 31
0.0
 12
-1.0
 22
-0.132
 32
0.0
 13
-1.0
 23
-0.132
 33
0.0
  0
ENDBLK
  5
2E
330
2B
100
AcDbEntity
  8
0
  6
ByBlock
 62
     0
100
AcDbBlockEnd
  0
BLOCK
  5
1F4
330
1EA
100
AcDbEntity
  8
0
100
AcDbBlockBegin
  2
*D2
 70
     1
 10
0.0
 20
0.0
 30
0.0
  3
*D2
  1

  0
LINE
  5
2D7
330
1EA
100
AcDbEntity
  8
2
 62
     0
370
    -2
100
AcDbLine
 10
1.125
 20
32.0
 30
0.0
 11
16.54157833257131
 21
31.99999999999999
 31
0.0
  0
LINE
  5
2D8
330
1EA
100
AcDbEntity
  8
2
 62
     0
370
    -2
100
AcDbLine
 10
1.125
 20
-32.0
 30
0.0
 11
16.54157833257129
 21
-32.00000000000001
 31
0.0
  0
LINE
  5
2D9
330
1EA
100
AcDbEntity
  8
2
 62
     0
370
    -2
100
AcDbLine
 10
15.29157833257131
 20
29.49999999999999
 30
0.0
 11
15.29157833257128
 21
-29.5
 31
0.0
  0
SOLID
  5
2DA
330
1EA
100
AcDbEntity
  8
2
 62
     0
100
AcDbTrace
 10
14.87491166590464
 20
29.49999999999999
 30
0.0
 11
15.70824499923797
 21
29.49999999999999
 31
0.0
 12
15.29157833257131
 22
31.99999999999999
 32
0.0
 13
15.29157833257131
 23
31.99999999999999
 33
0.0
  0
SOLID
  5
2DB
330
1EA
100
AcDbEntity
  8
2
 62
     0
100
AcDbTrace
 10
14.87491166590463
 20
-29.5
 30
0.0
 11
15.70824499923796
 21
-29.5
 31
0.0
 12
15.29157833257128
 22
-32.0
 32
0.0
 13
15.29157833257128
 23
-32.0
 33
0.0
  0
MTEXT
  5
2DC
330
1EA
100
AcDbEntity
  8
2
 62
     0
100
AcDbMText
 10
12.9165783325713
 20
-2.185537492778165
 30
0.0
 40
3.5
 41
0.0
 71
     5
 72
     1
  1
%%c64
 11
0.0000000000000001
 21
1.0
 31
0.0
 73
     1
 44
1.0
  0
POINT
  5
2DD
330
1EA
100
AcDbEntity
  8
Defpoints
 62
     0
100
AcDbPoint
 10
0.5
 20
32.0
 30
0.0
  0
POINT
  5
2DE
330
1EA
100
AcDbEntity
  8
Defpoints
 62
     0
100
AcDbPoint
 10
0.5
 20
-32.0
 30
0.0
  0
POINT
  5
2DF
330
1EA
100
AcDbEntity
  8
Defpoints
 62
     0
100
AcDbPoint
 10
15.29157833257128
 20
-32.0
 30
0.0
  0
ENDBLK
  5
1F5
330
1EA
100
AcDbEntity
  8
0
100
AcDbBlockEnd
  0
BLOCK
  5
200
330
1F6
100
AcDbEntity
  8
0
100
AcDbBlockBegin
  2
*D3
 70
     1
 10
0.0
 20
0.0
 30
0.0
  3
*D3
  1

  0
LINE
  5
2CE
330
1F6
100
AcDbEntity
  8
2
 62
     0
370
    -2
100
AcDbLine
 10
-2.324999999999874
 20
62.49999999999997
 30
0.0
 11
-29.28676470579999
 21
62.49999999999998
 31
0.0
  0
LINE
  5
2CF
330
1F6
100
AcDbEntity
  8
2
 62
     0
370
    -2
100
AcDbLine
 10
-2.324999999999874
 20
-62.5
 30
0.0
 11
-29.28676470580001
 21
-62.5
 31
0.0
  0
LINE
  5
2D0
330
1F6
100
AcDbEntity
  8
2
 62
     0
370
    -2
100
AcDbLine
 10
-28.03676470579999
 20
59.99999999999998
 30
0.0
 11
-28.03676470580001
 21
-60.0
 31
0.0
  0
SOLID
  5
2D1
330
1F6
100
AcDbEntity
  8
2
 62
     0
100
AcDbTrace
 10
-28.45343137246666
 20
59.99999999999998
 30
0.0
 11
-27.62009803913333
 21
59.99999999999998
 31
0.0
 12
-28.03676470579999
 22
62.49999999999998
 32
0.0
 13
-28.03676470579999
 23
62.49999999999998
 33
0.0
  0
SOLID
  5
2D2
330
1F6
100
AcDbEntity
  8
2
 62
     0
100
AcDbTrace
 10
-28.45343137246669
 20
-60.0
 30
0.0
 11
-27.62009803913335
 21
-60.0
 31
0.0
 12
-28.03676470580001
 22
-62.5
 32
0.0
 13
-28.03676470580001
 23
-62.5
 33
0.0
  0
MTEXT
  5
2D3
330
1F6
100
AcDbEntity
  8
2
 62
     0
100
AcDbMText
 10
-30.41210919398898
 20
1.61397058830002
 30
0.0
 40
3.5
 41
0.0
 71
     5
 72
     1
  1
%%c125
 11
0.0000000000000001
 21
1.0
 31
0.0
 73
     1
 44
1.0
  0
POINT
  5
2D4
330
1F6
100
AcDbEntity
  8
Defpoints
 62
     0
100
AcDbPoint
 10
-1.699999999999872
 20
62.49999999999997
 30
0.0
  0
POINT
  5
2D5
330
1F6
100
AcDbEntity
  8
Defpoints
 62
     0
100
AcDbPoint
 10
-1.699999999999872
 20
-62.5
 30
0.0
  0
POINT
  5
2D6
330
1F6
100
AcDbEntity
  8
Defpoints
 62
     0
100
AcDbPoint
 10
-28.03676470580001
 20
-62.5
 30
0.0
  0
ENDBLK
  5
201
330
1F6
100
AcDbEntity
  8
0
100
AcDbBlockEnd
  0
BLOCK
  5
20E
330
202
100
AcDbEntity
  8
0
100
AcDbBlockBegin
  2
*D4
 70
     1
 10
0.0
 20
0.0
 30
0.0
  3
*D4
  1

  0
LINE
  5
2C3
330
202
100
AcDbEntity
  8
2
 62
     0
370
    -2
100
AcDbLine
 10
-2.399999999999919
 20
-28.9005362394
 30
0.0
 11
-2.399999999999919
 21
-38.89460571780858
 31
0.0
  0
LINE
  5
2C4
330
202
100
AcDbEntity
  8
2
 62
     0
370
    -2
100
AcDbLine
 10
0.0
 20
-28.9005362394
 30
0.0
 11
-0.0000000000000007
 21
-38.89460571780858
 31
0.0
  0
LINE
  5
2C5
330
202
100
AcDbEntity
  8
2
 62
     0
370
    -2
100
AcDbLine
 10
2.499999999999999
 20
-37.64460571780858
 30
0.0
 11
4.999999999999999
 21
-37.64460571780858
 31
0.0
  0
LINE
  5
2C6
330
202
100
AcDbEntity
  8
2
 62
     0
370
    -2
100
AcDbLine
 10
-4.89999999999992
 20
-37.64460571780858
 30
0.0
 11
-17.0401138828083
 21
-37.64460571780858
 31
0.0
  0
LINE
  5
2C7
330
202
100
AcDbEntity
  8
2
 62
     0
370
    -2
100
AcDbLine
 10
-0.0000000000000006
 20
-37.64460571780858
 30
0.0
 11
-2.399999999999919
 21
-37.64460571780858
 31
0.0
  0
SOLID
  5
2C8
330
202
100
AcDbEntity
  8
2
 62
     0
100
AcDbTrace
 10
2.499999999999999
 20
-37.2279390511419
 30
0.0
 11
2.499999999999999
 21
-38.06127238447525
 31
0.0
 12
-0.0000000000000006
 22
-37.64460571780858
 32
0.0
 13
-0.0000000000000006
 23
-37.64460571780858
 33
0.0
  0
SOLID
  5
2C9
330
202
100
AcDbEntity
  8
2
 62
     0
100
AcDbTrace
 10
-4.89999999999992
 20
-37.2279390511419
 30
0.0
 11
-4.89999999999992
 21
-38.06127238447525
 31
0.0
 12
-2.399999999999919
 22
-37.64460571780858
 32
0.0
 13
-2.399999999999919
 23
-37.64460571780858
 33
0.0
  0
MTEXT
  5
2CA
330
202
100
AcDbEntity
  8
2
 62
     0
100
AcDbMText
 10
-13.65817490643036
 20
-35.0067612296196
 30
0.0
 40
3.5
 41
0.0
 71
     5
 72
     1
  1
2,4
 73
     1
 44
1.0
  0
POINT
  5
2CB
330
202
100
AcDbEntity
  8
Defpoints
 62
     0
100
AcDbPoint
 10
-2.399999999999919
 20
-28.2755362394
 30
0.0
  0
POINT
  5
2CC
330
202
100
AcDbEntity
  8
Defpoints
 62
     0
100
AcDbPoint
 10
0.0
 20
-28.2755362394
 30
0.0
  0
POINT
  5
2CD
330
202
100
AcDbEntity
  8
Defpoints
 62
     0
100
AcDbPoint
 10
-0.0000000000000006
 20
-37.64460571780858
 30
0.0
  0
ENDBLK
  5
20F
330
202
100
AcDbEntity
  8
0
100
AcDbBlockEnd
  0
BLOCK
  5
217
330
210
100
AcDbEntity
  8
0
100
AcDbBlockBegin
  2
*D5
 70
     1
 10
0.0
 20
0.0
 30
0.0
  3
*D5
  1

  0
LINE
  5
2BD
330
210
100
AcDbEntity
  8
2
 62
     0
370
    -2
100
AcDbLine
 10
-19.60716310734951
 20
79.6894357782088
 30
0.0
 11
-3.588947830434352
 21
64.00303910791294
 31
0.0
  0
MTEXT
  5
2BE
330
210
100
AcDbEntity
  8
2
 62
     0
100
AcDbMText
 10
-13.81484445578789
 20
77.70866240033758
 30
0.0
 40
3.5
 41
0.0
 71
     5
 72
     1
  1
R0,16
 11
0.7144681903337045
 21
-0.6996679248052475
 31
0.0
 73
     1
 44
1.0
  0
LINE
  5
2BF
330
210
100
AcDbEntity
  8
2
 62
     0
370
    -2
100
AcDbLine
 10
-1.690318130200124
 20
62.14373967329986
 30
0.0
 11
-1.80277735460009
 21
62.25386929589982
 31
0.0
  0
SOLID
  5
2C0
330
210
100
AcDbEntity
  8
2
 62
     0
100
AcDbTrace
 10
-3.297419528432167
 20
64.30073418721865
 30
0.0
 11
-3.880476132436537
 21
63.70534402860723
 31
0.0
 12
-1.80277735460009
 22
62.25386929589982
 32
0.0
 13
-1.80277735460009
 23
62.25386929589982
 33
0.0
  0
POINT
  5
2C1
330
210
100
AcDbEntity
  8
Defpoints
 62
     0
100
AcDbPoint
 10
-1.80277735460009
 20
62.25386929589982
 30
0.0
  0
POINT
  5
2C2
330
210
100
AcDbEntity
  8
Defpoints
 62
     0
100
AcDbPoint
 10
-1.690318130200124
 20
62.14373967329986
 30
0.0
  0
ENDBLK
  5
218
330
210
100
AcDbEntity
  8
0
100
AcDbBlockEnd
  0
BLOCK
  5
225
330
219
100
AcDbEntity
  8
0
100
AcDbBlockBegin
  2
*D6
 70
     1
 10
0.0
 20
0.0
 30
0.0
  3
*D6
  1

  0
LINE
  5
2B2
330
219
100
AcDbEntity
  8
2
 62
     0
370
    -2
100
AcDbLine
 10
-2.0
 20
54.38558629159999
 30
0.0
 11
-1.999999999999998
 21
72.67499999999998
 31
0.0
  0
LINE
  5
2B3
330
219
100
AcDbEntity
  8
2
 62
     0
370
    -2
100
AcDbLine
 10
-0.3999999999999204
 20
54.38558629159999
 30
0.0
 11
-0.3999999999999193
 21
72.67499999999998
 31
0.0
  0
LINE
  5
2B4
330
219
100
AcDbEntity
  8
2
 62
     0
370
    -2
100
AcDbLine
 10
-4.499999999999999
 20
71.42499999999998
 30
0.0
 11
-6.999999999999999
 21
71.42499999999998
 31
0.0
  0
LINE
  5
2B5
330
219
100
AcDbEntity
  8
2
 62
     0
370
    -2
100
AcDbLine
 10
2.10000000000008
 20
71.42499999999998
 30
0.0
 11
4.600000000000079
 21
71.42499999999998
 31
0.0
  0
LINE
  5
2B6
330
219
100
AcDbEntity
  8
2
 62
     0
370
    -2
100
AcDbLine
 10
-1.999999999999998
 20
71.42499999999998
 30
0.0
 11
-0.3999999999999193
 21
71.42499999999998
 31
0.0
  0
SOLID
  5
2B7
330
219
100
AcDbEntity
  8
2
 62
     0
100
AcDbTrace
 10
-4.499999999999999
 20
71.84166666666666
 30
0.0
 11
-4.499999999999999
 21
71.00833333333331
 31
0.0
 12
-1.999999999999998
 22
71.42499999999998
 32
0.0
 13
-1.999999999999998
 23
71.42499999999998
 33
0.0
  0
SOLID
  5
2B8
330
219
100
AcDbEntity
  8
2
 62
     0
100
AcDbTrace
 10
2.10000000000008
 20
71.84166666666666
 30
0.0
 11
2.10000000000008
 21
71.00833333333331
 31
0.0
 12
-0.3999999999999193
 22
71.42499999999998
 32
0.0
 13
-0.3999999999999193
 23
71.42499999999998
 33
0.0
  0
MTEXT
  5
2B9
330
219
100
AcDbEntity
  8
2
 62
     0
100
AcDbMText
 10
-1.199999999999957
 20
74.06249999999999
 30
0.0
 40
3.5
 41
0.0
 71
     5
 72
     1
  1
1,6
 73
     1
 44
1.0
  0
POINT
  5
2BA
330
219
100
AcDbEntity
  8
Defpoints
 62
     0
100
AcDbPoint
 10
-2.0
 20
53.76058629159999
 30
0.0
  0
POINT
  5
2BB
330
219
100
AcDbEntity
  8
Defpoints
 62
     0
100
AcDbPoint
 10
-0.3999999999999204
 20
53.76058629159999
 30
0.0
  0
POINT
  5
2BC
330
219
100
AcDbEntity
  8
Defpoints
 62
     0
100
AcDbPoint
 10
-0.3999999999999193
 20
71.42499999999998
 30
0.0
  0
ENDBLK
  5
226
330
219
100
AcDbEntity
  8
0
100
AcDbBlockEnd
  0
BLOCK
  5
231
330
227
100
AcDbEntity
  8
0
100
AcDbBlockBegin
  2
*D7
 70
     1
 10
0.0
 20
0.0
 30
0.0
  3
*D7
  1

  0
LINE
  5
2A9
330
227
100
AcDbEntity
  8
SK2
 62
     0
370
    -2
100
AcDbLine
 10
0.625
 20
13.5
 30
0.0
 11
9.170419166216507
 21
13.49999999999999
 31
0.0
  0
LINE
  5
2AA
330
227
100
AcDbEntity
  8
SK2
 62
     0
370
    -2
100
AcDbLine
 10
0.625
 20
-13.5
 30
0.0
 11
9.170419166216499
 21
-13.5
 31
0.0
  0
LINE
  5
2AB
330
227
100
AcDbEntity
  8
SK2
 62
     0
370
    -2
100
AcDbLine
 10
7.920419166216507
 20
10.99999999999999
 30
0.0
 11
7.920419166216499
 21
-11.0
 31
0.0
  0
SOLID
  5
2AC
330
227
100
AcDbEntity
  8
SK2
 62
     0
100
AcDbTrace
 10
7.503752499549838
 20
10.99999999999999
 30
0.0
 11
8.337085832883174
 21
10.99999999999999
 31
0.0
 12
7.920419166216507
 22
13.49999999999999
 32
0.0
 13
7.920419166216507
 23
13.49999999999999
 33
0.0
  0
SOLID
  5
2AD
330
227
100
AcDbEntity
  8
SK2
 62
     0
100
AcDbTrace
 10
7.503752499549832
 20
-11.0
 30
0.0
 11
8.337085832883168
 21
-11.0
 31
0.0
 12
7.920419166216499
 22
-13.5
 32
0.0
 13
7.920419166216499
 23
-13.5
 33
0.0
  0
MTEXT
  5
2AE
330
227
100
AcDbEntity
  8
SK2
 62
     0
100
AcDbMText
 10
5.545074678027528
 20
-0.1314387324667902
 30
0.0
 40
3.5
 41
0.0
 71
     5
 72
     1
  1
%%C27
 11
0.0000000000000001
 21
1.0
 31
0.0
 73
     1
 44
1.0
  0
POINT
  5
2AF
330
227
100
AcDbEntity
  8
Defpoints
 62
     0
100
AcDbPoint
 10
0.0
 20
13.5
 30
0.0
  0
POINT
  5
2B0
330
227
100
AcDbEntity
  8
Defpoints
 62
     0
100
AcDbPoint
 10
0.0
 20
-13.5
 30
0.0
  0
POINT
  5
2B1
330
227
100
AcDbEntity
  8
Defpoints
 62
     0
100
AcDbPoint
 10
7.920419166216499
 20
-13.5
 30
0.0
  0
ENDBLK
  5
232
330
227
100
AcDbEntity
  8
0
100
AcDbBlockEnd
  0
ENDSEC
  0
SECTION
  2
ENTITIES
  0
TEXT
  5
139
330
1F
100
AcDbEntity
  8
6
100
AcDbText
 10
7.04406109846402
 20
-58.43492789750619
 30
0.0
 40
3.5
  1
31J6L125016BB-00
 41
0.8
 72
     1
 11
22.02516346066875
 21
-58.43492789750619
 31
0.0
100
AcDbText
  0
LINE
  5
13A
330
1F
100
AcDbEntity
  8
1
100
AcDbLine
 10
0.0
 20
32.0
 30
0.0
 11
0.0
 21
-32.0
 31
0.0
  0
LINE
  5
13B
330
1F
100
AcDbEntity
  8
1
100
AcDbLine
 10
-0.699999999999875
 20
-29.51483093869999
 30
0.0
 11
-0.699999999999875
 21
-4.5
 31
0.0
  0
LINE
  5
13C
330
1F
100
AcDbEntity
  8
1
100
AcDbLine
 10
-1.699999999999872
 20
-29.51483093869999
 30
0.0
 11
-1.699999999999872
 21
-4.5
 31
0.0
  0
LINE
  5
13D
330
1F
100
AcDbEntity
  8
1
100
AcDbLine
 10
-2.399999999999919
 20
32.0
 30
0.0
 11
-2.399999999999919
 21
-32.0
 31
0.0
  0
DIMENSION
  5
13E
330
1F
100
AcDbEntity
  8
2
100
AcDbDimension
  2
*D2
 10
15.29157833257128
 20
-32.0
 30
0.0
 11
15.2915783325713
 21
-2.185537492778165
 31
0.0
 70
   160
  1
%%c<>
 71
     5
 42
64.0
  3
ISO-25
100
AcDbAlignedDimension
 13
0.5
 23
32.0
 33
0.0
 14
0.5
 24
-32.0
 34
0.0
 50
270.0
100
AcDbRotatedDimension
1001
ACAD
1000
DSTYLE
1002
{
1070
   140
1040
3.5
1002
}
  0
DIMENSION
  5
13F
330
1F
100
AcDbEntity
  8
2
100
AcDbDimension
  2
*D3
 10
-28.03676470580001
 20
-62.5
 30
0.0
 11
-28.03676470580001
 21
1.61397058830002
 31
0.0
 70
   160
  1
%%c<>
 71
     5
 42
124.9999999999999
  3
ISO-25
100
AcDbAlignedDimension
 13
-1.699999999999872
 23
62.49999999999997
 33
0.0
 14
-1.699999999999872
 24
-62.5
 34
0.0
 50
270.0
100
AcDbRotatedDimension
1001
ACAD
1000
DSTYLE
1002
{
1070
   140
1040
3.5
1002
}
  0
LINE
  5
140
330
1F
100
AcDbEntity
  8
1
100
AcDbLine
 10
-1.985181990099874
 20
-53.9210677506
 30
0.0
 11
-1.699999999999872
 21
-49.97345310699998
 31
0.0
  0
LINE
  5
141
330
1F
100
AcDbEntity
  8
1
100
AcDbLine
 10
-0.699999999999875
 20
-51.0946421957
 30
0.0
 11
-0.699999999999875
 21
-34.8153532707
 31
0.0
  0
LINE
  5
142
330
1F
100
AcDbEntity
  8
1
100
AcDbLine
 10
-1.699999999999872
 20
-51.0946421957
 30
0.0
 11
-1.699999999999872
 21
-34.8153532707
 31
0.0
  0
LWPOLYLINE
  5
143
330
1F
100
AcDbEntity
  8
1
100
AcDbPolyline
 90
        3
 70
     0
 43
0.0
 10
-0.4143545304999068
 20
-53.92837235779999
 10
-0.4148180098998753
 20
-53.9210677506
 10
-0.699999999999875
 20
-49.97345310699998
  0
LINE
  5
144
330
1F
100
AcDbEntity
  8
1
100
AcDbLine
 10
-1.99040199530003
 20
-62.38703413000002
 30
0.0
 11
-1.723175742900024
 21
-59.2693945197
 31
0.0
  0
LINE
  5
145
330
1F
100
AcDbEntity
  8
1
100
AcDbLine
 10
-0.4095980047000012
 20
-62.38703413000002
 30
0.0
 11
-0.6768242570000213
 21
-59.2693945197
 31
0.0
  0
LINE
  5
146
330
1F
100
AcDbEntity
  8
1
100
AcDbLine
 10
-1.839035581999894
 20
-62.49901085160002
 30
0.0
 11
-0.560964418000026
 21
-62.49901085160002
 31
0.0
  0
LWPOLYLINE
  5
147
330
1F
100
AcDbEntity
  8
1
100
AcDbPolyline
 90
       11
 70
     0
 43
0.0
 10
-1.99040199530003
 20
-62.38703413000002
 10
-1.983173454400002
 20
-62.40613734480001
 10
-1.973797493800019
 20
-62.42384936760001
 10
-1.962175257000012
 20
-62.44028628939999
 10
-1.948603313700004
 20
-62.4550998368
 10
-1.933256801100014
 20
-62.46803191969999
 10
-1.916401160800035
 20
-62.47892808
 10
-1.898261074599985
 20
-62.48757890930001
 10
-1.879133960200021
 20
-62.49389116859997
 10
-1.859438668300015
 20
-62.49768143580002
 10
-1.839035581999894
 20
-62.49901085160002
  0
LWPOLYLINE
  5
148
330
1F
100
AcDbEntity
  8
1
100
AcDbPolyline
 90
       11
 70
     0
 43
0.0
 10
-0.560964418000026
 20
-62.49901085160002
 10
-0.5405613316000313
 20
-62.49768143580002
 10
-0.5208660396998539
 20
-62.49389116859997
 10
-0.5017389252998897
 20
-62.48757890930001
 10
-0.4835988391000117
 20
-62.47892808
 10
-0.4667431989000195
 20
-62.46803191969999
 10
-0.4513966861998713
 20
-62.4550998368
 10
-0.4378247428999205
 20
-62.44028628939999
 10
-0.4262025061000261
 20
-62.42384936760001
 10
-0.4168265456000313
 20
-62.40613734480001
 10
-0.4095980047000012
 20
-62.38703413000002
  0
LINE
  5
149
330
1F
100
AcDbEntity
  8
1
100
AcDbLine
 10
-0.699999999999875
 20
-59.4472508163
 30
0.0
 11
-0.699999999999875
 21
-55.80196074839999
 31
0.0
  0
LINE
  5
14A
330
1F
100
AcDbEntity
  8
1
100
AcDbLine
 10
-1.699999999999872
 20
-59.4472508163
 30
0.0
 11
-1.699999999999872
 21
-55.80196074839999
 31
0.0
  0
LINE
  5
14B
330
1F
100
AcDbEntity
  8
1
100
AcDbLine
 10
-1.699999999999872
 20
-59.271381012
 30
0.0
 11
-0.699999999999875
 21
-59.271381012
 31
0.0
  0
LINE
  5
14C
330
1F
100
AcDbEntity
  8
1
100
AcDbLine
 10
-0.699999999999875
 20
-59.44742094670002
 30
0.0
 11
-1.699999999999872
 21
-59.44742094670002
 31
0.0
  0
LINE
  5
14D
330
1F
100
AcDbEntity
  8
1
100
AcDbLine
 10
-0.699999999999875
 20
-51.07519395630001
 30
0.0
 11
-1.699999999999872
 21
-51.07519395630001
 31
0.0
  0
LINE
  5
14E
330
1F
100
AcDbEntity
  8
1
100
AcDbLine
 10
-1.699999999999872
 20
-51.0946421957
 30
0.0
 11
-0.699999999999875
 21
-51.0946421957
 31
0.0
  0
LINE
  5
14F
330
1F
100
AcDbEntity
  8
1
100
AcDbLine
 10
-1.839035581999894
 20
-54.12573110890001
 30
0.0
 11
-0.560964418000026
 21
-54.12573110890001
 31
0.0
  0
LINE
  5
150
330
1F
100
AcDbEntity
  8
1
100
AcDbLine
 10
-1.699999999999872
 20
-55.80196074839999
 30
0.0
 11
-0.699999999999875
 21
-55.80196074839999
 31
0.0
  0
LINE
  5
151
330
1F
100
AcDbEntity
  8
1
100
AcDbLine
 10
-1.699999999999872
 20
-55.8020187319
 30
0.0
 11
-0.699999999999875
 21
-55.8020187319
 31
0.0
  0
LINE
  5
152
330
1F
100
AcDbEntity
  8
1
100
AcDbLine
 10
-1.99040199530003
 20
-54.02875642329998
 30
0.0
 11
-1.699999999999872
 21
-51.0946421957
 31
0.0
  0
LWPOLYLINE
  5
153
330
1F
100
AcDbEntity
  8
1
100
AcDbPolyline
 90
        3
 70
     0
 43
0.0
 10
-1.985181990099874
 20
-53.9210677506
 10
-1.985645469400024
 20
-53.92837235779999
 10
-1.986499821499876
 20
-53.9433506078
  0
LINE
  5
154
330
1F
100
AcDbEntity
  8
1
100
AcDbLine
 10
-1.986499821499876
 20
-53.9433506078
 30
0.0
 11
-1.98730553509989
 21
-53.95890449059999
 31
0.0
  0
LINE
  5
155
330
1F
100
AcDbEntity
  8
1
100
AcDbLine
 10
-1.98730553509989
 20
-53.95890449059999
 30
0.0
 11
-1.988470925300019
 21
-53.9834884565
 31
0.0
  0
LINE
  5
156
330
1F
100
AcDbEntity
  8
1
100
AcDbLine
 10
-1.988470925300019
 20
-53.9834884565
 30
0.0
 11
-1.99040199530003
 21
-54.02875642329998
 31
0.0
  0
LINE
  5
157
330
1F
100
AcDbEntity
  8
1
100
AcDbLine
 10
-1.699999999999872
 20
-54.59170875979999
 30
0.0
 11
-1.699999999999872
 21
-55.8020187319
 31
0.0
  0
LINE
  5
158
330
1F
100
AcDbEntity
  8
1
100
AcDbLine
 10
-1.839035581999894
 20
-54.12573110890001
 30
0.0
 11
-1.699999999999872
 21
-54.59170875979999
 31
0.0
  0
LINE
  5
159
330
1F
100
AcDbEntity
  8
1
100
AcDbLine
 10
-1.989520365800044
 20
-54.03224426720001
 30
0.0
 11
-1.700022665899894
 21
-55.00249559580002
 31
0.0
  0
LWPOLYLINE
  5
15A
330
1F
100
AcDbEntity
  8
1
100
AcDbPolyline
 90
       11
 70
     0
 43
0.0
 10
-1.99040199530003
 20
-54.02875642329998
 10
-1.983173454400002
 20
-54.0453002927
 10
-1.973797493800019
 20
-54.06063935439999
 10
-1.962175257000012
 20
-54.07487414619999
 10
-1.948603313700004
 20
-54.08770305460001
 10
-1.933256801100014
 20
-54.09890256689999
 10
-1.916401160800035
 20
-54.10833891849996
 10
-1.898261074599985
 20
-54.11583075640002
 10
-1.879133960200021
 20
-54.12129733330003
 10
-1.859438668300015
 20
-54.12457980099997
 10
-1.839035581999894
 20
-54.12573110890001
  0
LINE
  5
15B
330
1F
100
AcDbEntity
  8
1
100
AcDbLine
 10
-0.6999773339998683
 20
-55.00249559580002
 30
0.0
 11
-0.410479634099886
 21
-54.03224426720001
 31
0.0
  0
LINE
  5
15C
330
1F
100
AcDbEntity
  8
1
100
AcDbLine
 10
-0.699999999999875
 20
-54.59170875979999
 30
0.0
 11
-0.560964418000026
 21
-54.12573110890001
 31
0.0
  0
LINE
  5
15D
330
1F
100
AcDbEntity
  8
1
100
AcDbLine
 10
-0.699999999999875
 20
-55.8020187319
 30
0.0
 11
-0.699999999999875
 21
-54.59170875979999
 31
0.0
  0
LINE
  5
15E
330
1F
100
AcDbEntity
  8
1
100
AcDbLine
 10
-0.4099876146000271
 20
-54.01921506599999
 30
0.0
 11
-0.4107605680000006
 21
-54.000882013
 31
0.0
  0
LINE
  5
15F
330
1F
100
AcDbEntity
  8
1
100
AcDbLine
 10
-0.4107605680000006
 20
-54.000882013
 30
0.0
 11
-0.4123022568999775
 21
-53.9669169215
 31
0.0
  0
LINE
  5
160
330
1F
100
AcDbEntity
  8
1
100
AcDbLine
 10
-0.4123022568999775
 20
-53.9669169215
 30
0.0
 11
-0.4135001784999873
 21
-53.9433506078
 31
0.0
  0
LINE
  5
161
330
1F
100
AcDbEntity
  8
1
100
AcDbLine
 10
-0.4135001784999873
 20
-53.9433506078
 30
0.0
 11
-0.4143545304999068
 21
-53.92837235779999
 31
0.0
  0
LINE
  5
162
330
1F
100
AcDbEntity
  8
1
100
AcDbLine
 10
-0.4095980047000012
 20
-54.02875642329998
 30
0.0
 11
-0.699999999999875
 21
-51.0946421957
 31
0.0
  0
LWPOLYLINE
  5
163
330
1F
100
AcDbEntity
  8
1
100
AcDbPolyline
 90
       11
 70
     0
 43
0.0
 10
-0.560964418000026
 20
-54.12573110890001
 10
-0.5405613316000313
 20
-54.12457980099997
 10
-0.5208660396998539
 20
-54.12129733330003
 10
-0.5017389252998897
 20
-54.11583075640002
 10
-0.4835988391000117
 20
-54.10833891849996
 10
-0.4667431989000195
 20
-54.09890256689999
 10
-0.4513966861998713
 20
-54.08770305460001
 10
-0.4378247428999205
 20
-54.07487414619999
 10
-0.4262025061000261
 20
-54.06063935439999
 10
-0.4168265456000313
 20
-54.0453002927
 10
-0.4095980047000012
 20
-54.02875642329998
  0
DIMENSION
  5
164
330
1F
100
AcDbEntity
  8
2
100
AcDbDimension
  2
*D4
 10
-0.0000000000000006
 20
-37.64460571780858
 30
0.0
 11
-13.65817490643036
 21
-37.64460571780858
 31
0.0
 70
   160
 71
     5
 42
2.399999999999919
  3
ISO-25
100
AcDbAlignedDimension
 13
-2.399999999999919
 23
-28.2755362394
 33
0.0
 14
0.0
 24
-28.2755362394
 34
0.0
100
AcDbRotatedDimension
1001
ACAD
1000
DSTYLE
1002
{
1070
   140
1040
3.5
1002
}
  0
LINE
  5
165
330
1F
100
AcDbEntity
  8
1
100
AcDbLine
 10
-0.699999999999875
 20
-46.21125715139998
 30
0.0
 11
-1.699999999999872
 21
-46.21125715139998
 31
0.0
  0
LINE
  5
166
330
1F
100
AcDbEntity
  8
1
100
AcDbLine
 10
-1.699999999999872
 20
-42.23514657239999
 30
0.0
 11
-0.699999999999875
 21
-42.23514657239999
 31
0.0
  0
LINE
  5
167
330
1F
100
AcDbEntity
  8
1
100
AcDbLine
 10
-0.699999999999875
 20
-43.51029840649999
 30
0.0
 11
-1.699999999999872
 21
-43.51029840649999
 31
0.0
  0
LINE
  5
168
330
1F
100
AcDbEntity
  8
1
100
AcDbLine
 10
-0.6999442821000345
 20
-33.29291278979999
 30
0.0
 11
-0.4138531434999777
 21
-31.25323352320001
 31
0.0
  0
LINE
  5
169
330
1F
100
AcDbEntity
  8
1
100
AcDbLine
 10
-0.699999999999875
 20
-34.8153867475
 30
0.0
 11
-0.699999999999875
 21
-32.24075596
 31
0.0
  0
LINE
  5
16A
330
1F
100
AcDbEntity
  8
1
100
AcDbLine
 10
-1.699999999999872
 20
-32.24075596
 30
0.0
 11
-1.699999999999872
 21
-34.8153867475
 31
0.0
  0
LINE
  5
16B
330
1F
100
AcDbEntity
  8
1
100
AcDbLine
 10
-1.986146856399898
 20
-31.25323352320001
 30
0.0
 11
-1.700055717899999
 21
-33.29291278979999
 31
0.0
  0
LINE
  5
16C
330
1F
100
AcDbEntity
  8
1
100
AcDbLine
 10
-1.699999999999872
 20
-34.8153532707
 30
0.0
 11
-0.699999999999875
 21
-34.8153532707
 31
0.0
  0
LINE
  5
16D
330
1F
100
AcDbEntity
  8
1
100
AcDbLine
 10
-1.699999999999872
 20
-34.8153867475
 30
0.0
 11
-0.699999999999875
 21
-34.8153867475
 31
0.0
  0
LINE
  5
16E
330
1F
100
AcDbEntity
  8
1
100
AcDbLine
 10
-1.699999999999872
 20
-29.49950542579998
 30
0.0
 11
-0.699999999999875
 21
-29.49950542579998
 31
0.0
  0
LINE
  5
16F
330
1F
100
AcDbEntity
  8
1
100
AcDbLine
 10
-1.839035581999894
 20
-31.24950542579998
 30
0.0
 11
-0.560964418000026
 21
-31.24950542579998
 31
0.0
  0
LINE
  5
170
330
1F
100
AcDbEntity
  8
1
100
AcDbLine
 10
-1.99040199530003
 20
-31.19351706500001
 30
0.0
 11
-1.699999999999872
 21
-29.49950542579998
 31
0.0
  0
LWPOLYLINE
  5
171
330
1F
100
AcDbEntity
  8
1
100
AcDbPolyline
 90
        3
 70
     0
 43
0.0
 10
-1.989239431899988
 20
-31.21467048219999
 10
-1.990012385300019
 20
-31.2009522818
 10
-1.99040199530003
 20
-31.19351706500001
  0
LINE
  5
172
330
1F
100
AcDbEntity
  8
1
100
AcDbLine
 10
-1.988470925300019
 20
-31.22686518540001
 30
0.0
 11
-1.989239431899988
 21
-31.21467048219999
 31
0.0
  0
LWPOLYLINE
  5
173
330
1F
100
AcDbEntity
  8
1
100
AcDbPolyline
 90
        7
 70
     0
 43
0.0
 10
-1.986105865899899
 20
-31.25354970970002
 10
-1.986499821499876
 20
-31.25039355520002
 10
-1.986907330899896
 20
-31.24656450820001
 10
-1.98730553509989
 20
-31.242253425
 10
-1.987697743000012
 20
-31.23752700489998
 10
-1.988085445400031
 20
-31.23238892700001
 10
-1.988470925300019
 20
-31.22686518540001
  0
LINE
  5
174
330
1F
100
AcDbEntity
  8
1
100
AcDbLine
 10
-1.839035581999894
 20
-31.24950542579998
 30
0.0
 11
-1.699999999999872
 21
-32.24075596
 31
0.0
  0
LWPOLYLINE
  5
175
330
1F
100
AcDbEntity
  8
1
100
AcDbPolyline
 90
       11
 70
     0
 43
0.0
 10
-1.99040199530003
 20
-31.19351706500001
 10
-1.983173454400002
 20
-31.20306867239998
 10
-1.973797493800019
 20
-31.21192468380002
 10
-1.962175257000012
 20
-31.22014314470002
 10
-1.948603313700004
 20
-31.2275499184
 10
-1.933256801100014
 20
-31.23401595979999
 10
-1.916401160800035
 20
-31.23946404
 10
-1.898261074599985
 20
-31.2437894546
 10
-1.879133960200021
 20
-31.24694558430002
 10
-1.859438668300015
 20
-31.24884071790001
 10
-1.839035581999894
 20
-31.24950542579998
  0
ARC
  5
176
330
1F
100
AcDbEntity
  8
1
100
AcDbCircle
 10
-2.5
 20
-32.79372539330001
 30
0.0
 40
0.8
100
AcDbArc
 50
33.05051612219966
 51
82.81924421849906
  0
LINE
  5
177
330
1F
100
AcDbEntity
  8
1
100
AcDbLine
 10
-0.699999999999875
 20
-32.24075596
 30
0.0
 11
-0.560964418000026
 21
-31.24950542579998
 31
0.0
  0
LWPOLYLINE
  5
178
330
1F
100
AcDbEntity
  8
1
100
AcDbPolyline
 90
        9
 70
     0
 43
0.0
 10
-0.4103752979999058
 20
-31.20800376579998
 10
-0.4111448849999988
 20
-31.220955535
 10
-0.4115290746000257
 20
-31.22686518540001
 10
-0.4119145546000027
 20
-31.23238892700001
 10
-0.4123022568999775
 20
-31.23752700489998
 10
-0.4126944648000406
 20
-31.242253425
 10
-0.4130926690000365
 20
-31.24656450820001
 10
-0.4135001784999873
 20
-31.25039355520002
 10
-0.4138941339998611
 20
-31.25354970970002
  0
LINE
  5
179
330
1F
100
AcDbEntity
  8
1
100
AcDbLine
 10
-0.4095980047000012
 20
-31.19351706500001
 30
0.0
 11
-0.4103752979999058
 21
-31.20800376579998
 31
0.0
  0
LINE
  5
17A
330
1F
100
AcDbEntity
  8
1
100
AcDbLine
 10
-0.4095980047000012
 20
-31.19351706500001
 30
0.0
 11
-0.699999999999875
 21
-29.49950542579998
 31
0.0
  0
LWPOLYLINE
  5
17B
330
1F
100
AcDbEntity
  8
1
100
AcDbPolyline
 90
       11
 70
     0
 43
0.0
 10
-0.560964418000026
 20
-31.24950542579998
 10
-0.5405613316000313
 20
-31.24884071790001
 10
-0.5208660396998539
 20
-31.24694558430002
 10
-0.5017389252998897
 20
-31.2437894546
 10
-0.4835988391000117
 20
-31.23946404
 10
-0.4667431989000195
 20
-31.23401595979999
 10
-0.4513966861998713
 20
-31.2275499184
 10
-0.4378247428999205
 20
-31.22014314470002
 10
-0.4262025061000261
 20
-31.21192468380002
 10
-0.4168265456000313
 20
-31.20306867239998
 10
-0.4095980047000012
 20
-31.19351706500001
  0
ARC
  5
17C
330
1F
100
AcDbEntity
  8
1
100
AcDbCircle
 10
0.0999999999999659
 20
-32.79372539330001
 30
0.0
 40
0.8
100
AcDbArc
 50
97.18075578150095
 51
146.9494838802001
  0
DIMENSION
  5
17D
330
1F
100
AcDbEntity
  8
2
100
AcDbDimension
  2
*D5
 10
-1.690318130200124
 20
62.14373967329986
 30
0.0
 11
-15.66021860746173
 21
75.82425254833244
 31
0.0
 70
   164
  1
<>
 71
     5
 42
0.1574027030474809
  3
ISO-25
100
AcDbRadialDimension
 15
-1.80277735460009
 25
62.25386929589982
 35
0.0
 40
0.0
1001
ACAD
1000
DSTYLE
1002
{
1070
   140
1040
3.5
1002
}
  0
DIMENSION
  5
17E
330
1F
100
AcDbEntity
  8
2
100
AcDbDimension
  2
*D6
 10
-0.3999999999999193
 20
71.42499999999998
 30
0.0
 11
-1.199999999999959
 21
71.42499999999998
 31
0.0
 70
   160
 71
     5
 42
1.600000000000077
  3
ISO-25
100
AcDbAlignedDimension
 13
-2.0
 23
53.76058629159999
 33
0.0
 14
-0.3999999999999204
 24
53.76058629159999
 34
0.0
100
AcDbRotatedDimension
1001
ACAD
1000
DSTYLE
1002
{
1070
   140
1040
3.5
1002
}
  0
LINE
  5
17F
330
1F
100
AcDbEntity
  8
1
100
AcDbLine
 10
-0.699999999999875
 20
0.0
 30
0.0
 11
-0.699999999999875
 21
27.02112463670002
 31
0.0
  0
LINE
  5
180
330
1F
100
AcDbEntity
  8
1
100
AcDbLine
 10
-1.699999999999872
 20
0.0
 30
0.0
 11
-1.699999999999872
 21
27.02112463670002
 31
0.0
  0
LINE
  5
181
330
1F
100
AcDbEntity
  8
1
100
AcDbLine
 10
-0.699999999999875
 20
-4.5
 30
0.0
 11
-0.699999999999875
 21
-1.250918637300002
 31
0.0
  0
LINE
  5
182
330
1F
100
AcDbEntity
  8
1
100
AcDbLine
 10
-1.699999999999872
 20
-1.250918637300002
 30
0.0
 11
-1.699999999999872
 21
-4.5
 31
0.0
  0
DIMENSION
  5
183
330
1F
100
AcDbEntity
  8
SK2
100
AcDbDimension
  2
*D7
 10
7.920419166216499
 20
-13.5
 30
0.0
 11
7.920419166216503
 21
-0.1314387324667905
 31
0.0
 70
   160
  1
%%C<>
 71
     5
 42
27.0
  3
ISO-25
100
AcDbAlignedDimension
 13
0.0
 23
13.5
 33
0.0
 14
0.0
 24
-13.5
 34
0.0
 50
90.0
100
AcDbRotatedDimension
1001
ACAD
1000
DSTYLE
1002
{
1070
   140
1040
3.5
1002
}
  0
LINE
  5
184
330
1F
100
AcDbEntity
  8
1
100
AcDbLine
 10
-0.699999999999875
 20
-25.68772405759998
 30
0.0
 11
-1.699999999999872
 21
-25.68772405759998
 31
0.0
  0
LINE
  5
185
330
1F
100
AcDbEntity
  8
1
100
AcDbLine
 10
-0.699999999999875
 20
-16.93717667790002
 30
0.0
 11
-1.699999999999872
 21
-16.93717667790002
 31
0.0
  0
LINE
  5
186
330
1F
100
AcDbEntity
  8
1
100
AcDbLine
 10
-0.699999999999875
 20
-17.9260821457
 30
0.0
 11
-1.699999999999872
 21
-17.9260821457
 31
0.0
  0
LINE
  5
187
330
1F
100
AcDbEntity
  8
1
100
AcDbLine
 10
-1.699999999999872
 20
-13.88203871659999
 30
0.0
 11
-0.699999999999875
 21
-13.88203871659999
 31
0.0
  0
LINE
  5
188
330
1F
100
AcDbEntity
  8
SK3
100
AcDbLine
 10
-2.399999999999919
 20
-13.5
 30
0.0
 11
0.0
 21
-13.5
 31
0.0
  0
LINE
  5
189
330
1F
100
AcDbEntity
  8
1
100
AcDbLine
 10
-1.699999999999872
 20
-4.5
 30
0.0
 11
-0.699999999999875
 21
-4.5
 31
0.0
  0
LINE
  5
18A
330
1F
100
AcDbEntity
  8
1
100
AcDbLine
 10
-1.699999999999872
 20
-4.5
 30
0.0
 11
-0.699999999999875
 21
-4.5
 31
0.0
  0
LINE
  5
18B
330
1F
100
AcDbEntity
  8
1
100
AcDbLine
 10
-0.699999999999875
 20
1.718813952799989
 30
0.0
 11
-1.699999999999872
 21
1.718813952799989
 31
0.0
  0
LINE
  5
18C
330
1F
100
AcDbEntity
  8
1
100
AcDbLine
 10
-1.99040199530003
 20
0.0
 30
0.0
 11
-0.4095980047000012
 21
0.0
 31
0.0
  0
LINE
  5
18D
330
1F
100
AcDbEntity
  8
4
100
AcDbLine
 10
-3.922995491899995
 20
0.0
 30
0.0
 11
1.72081062579997
 21
0.0
 31
0.0
  0
LINE
  5
18E
330
1F
100
AcDbEntity
  8
1
100
AcDbLine
 10
-1.839035581999894
 20
0.0
 30
0.0
 11
-1.699999999999872
 21
-1.250918637300002
 31
0.0
  0
LINE
  5
18F
330
1F
100
AcDbEntity
  8
1
100
AcDbLine
 10
-1.985006204500051
 20
-0.1117851384000232
 30
0.0
 11
-1.700053047799995
 21
-2.675540468800022
 31
0.0
  0
LINE
  5
190
330
1F
100
AcDbEntity
  8
1
100
AcDbLine
 10
-1.989624701900025
 20
-0.0219634570999858
 30
0.0
 11
-1.99040199530003
 21
0.0
 31
0.0
  0
LINE
  5
191
330
1F
100
AcDbEntity
  8
1
100
AcDbLine
 10
-1.988470925300019
 20
-0.0515143029000171
 30
0.0
 11
-1.989624701900025
 21
-0.0219634570999858
 31
0.0
  0
LINE
  5
192
330
1F
100
AcDbEntity
  8
1
100
AcDbLine
 10
-1.987697743000012
 20
-0.069033476899989
 30
0.0
 11
-1.988470925300019
 21
-0.0515143029000171
 31
0.0
  0
LINE
  5
193
330
1F
100
AcDbEntity
  8
1
100
AcDbLine
 10
-1.986907330899896
 20
-0.084793107500019
 30
0.0
 11
-1.987697743000012
 21
-0.069033476899989
 31
0.0
  0
LWPOLYLINE
  5
194
330
1F
100
AcDbEntity
  8
1
100
AcDbPolyline
 90
        6
 70
     0
 43
0.0
 10
-1.984959856100033
 20
-0.1120680623000112
 10
-1.985181990099874
 20
-0.109895346400009
 10
-1.985645469400024
 20
-0.1046517798000082
 10
-1.986081735899914
 20
-0.0986227397000335
 10
-1.986499821499876
 20
-0.0919593930999838
 10
-1.986907330899896
 20
-0.084793107500019
  0
LINE
  5
195
330
1F
100
AcDbEntity
  8
1
100
AcDbLine
 10
-0.6999469520999924
 20
-2.675540468800022
 30
0.0
 11
-0.4149937954000509
 21
-0.1117851384000232
 31
0.0
  0
LINE
  5
196
330
1F
100
AcDbEntity
  8
1
100
AcDbLine
 10
-0.699999999999875
 20
-1.250918637300002
 30
0.0
 11
-0.560964418000026
 21
0.0
 31
0.0
  0
LWPOLYLINE
  5
197
330
1F
100
AcDbEntity
  8
1
100
AcDbPolyline
 90
        8
 70
     0
 43
0.0
 10
-0.4119145546000027
 20
-0.0604890680999972
 10
-0.4126944648000406
 20
-0.0771328922999999
 10
-0.4130926690000365
 20
-0.084793107500019
 10
-0.4135001784999873
 20
-0.0919593930999838
 10
-0.4139182639999035
 20
-0.0986227397000335
 10
-0.4143545304999068
 20
-0.1046517798000082
 10
-0.4148180098998753
 20
-0.109895346400009
 10
-0.4150401437998994
 20
-0.1120680623000112
  0
LINE
  5
198
330
1F
100
AcDbEntity
  8
1
100
AcDbLine
 10
-0.4111448849999988
 20
-0.0421026202999997
 30
0.0
 11
-0.4119145546000027
 21
-0.0604890680999972
 31
0.0
  0
LINE
  5
199
330
1F
100
AcDbEntity
  8
1
100
AcDbLine
 10
-0.4095980047000012
 20
0.0
 30
0.0
 11
-0.4111448849999988
 21
-0.0421026202999997
 31
0.0
  0
LINE
  5
19A
330
1F
100
AcDbEntity
  8
1
100
AcDbLine
 10
-0.699999999999875
 20
9.930300614999991
 30
0.0
 11
-1.699999999999872
 21
9.930300614999991
 31
0.0
  0
LINE
  5
19B
330
1F
100
AcDbEntity
  8
SK3
100
AcDbLine
 10
-2.399999999999919
 20
13.5
 30
0.0
 11
0.0
 21
13.5
 31
0.0
  0
LINE
  5
19C
330
1F
100
AcDbEntity
  8
1
100
AcDbLine
 10
-1.699999999999872
 20
18.19075020260001
 30
0.0
 11
-0.699999999999875
 21
18.19075020260001
 31
0.0
  0
LINE
  5
19D
330
1F
100
AcDbEntity
  8
1
100
AcDbLine
 10
-0.699999999999875
 20
13.9085695695
 30
0.0
 11
-1.699999999999872
 21
13.9085695695
 31
0.0
  0
LINE
  5
19E
330
1F
100
AcDbEntity
  8
1
100
AcDbLine
 10
-0.699999999999875
 20
31.24950542580001
 30
0.0
 11
-0.699999999999875
 21
51.3019607484
 31
0.0
  0
LINE
  5
19F
330
1F
100
AcDbEntity
  8
1
100
AcDbLine
 10
-1.699999999999872
 20
31.24950542580001
 30
0.0
 11
-1.699999999999872
 21
51.3019607484
 31
0.0
  0
LINE
  5
1A0
330
1F
100
AcDbEntity
  8
1
100
AcDbLine
 10
-1.839035581999894
 20
31.24950542580001
 30
0.0
 11
-1.699999999999872
 21
30.07410132399998
 31
0.0
  0
LINE
  5
1A1
330
1F
100
AcDbEntity
  8
1
100
AcDbLine
 10
-0.699999999999875
 20
30.07410132399998
 30
0.0
 11
-0.560964418000026
 21
31.24950542580001
 31
0.0
  0
LINE
  5
1A2
330
1F
100
AcDbEntity
  8
1
100
AcDbLine
 10
-0.4123022568999775
 20
31.11795751560001
 30
0.0
 11
-0.4130926690000365
 21
31.09969853779997
 31
0.0
  0
LINE
  5
1A3
330
1F
100
AcDbEntity
  8
1
100
AcDbLine
 10
-1.98730553509989
 20
31.10865533670002
 30
0.0
 11
-1.988470925300019
 21
31.13763979549998
 31
0.0
  0
LINE
  5
1A4
330
1F
100
AcDbEntity
  8
1
100
AcDbLine
 10
-1.699999999999872
 20
27.02115811350001
 30
0.0
 11
-0.699999999999875
 21
27.02115811350001
 31
0.0
  0
LINE
  5
1A5
330
1F
100
AcDbEntity
  8
1
100
AcDbLine
 10
-1.699999999999872
 20
27.02112463670002
 30
0.0
 11
-0.699999999999875
 21
27.02112463670002
 31
0.0
  0
LINE
  5
1A6
330
1F
100
AcDbEntity
  8
1
100
AcDbLine
 10
-1.984694308500024
 20
31.06114560369997
 30
0.0
 11
-1.699999999999872
 21
28.65434546529995
 31
0.0
  0
LWPOLYLINE
  5
1A7
330
1F
100
AcDbEntity
  8
1
100
AcDbPolyline
 90
        3
 70
     0
 43
0.0
 10
-1.986081735899914
 20
31.08290575409998
 10
-1.986907330899896
 20
31.09969853779997
 10
-1.98730553509989
 20
31.10865533670002
  0
LWPOLYLINE
  5
1A8
330
1F
100
AcDbEntity
  8
1
100
AcDbPolyline
 90
        4
 70
     0
 43
0.0
 10
-1.984694308500024
 20
31.06114560369997
 10
-1.985181990099874
 20
31.06789487299995
 10
-1.985645469400024
 20
31.0751395645
 10
-1.986081735899914
 20
31.08290575409998
  0
LINE
  5
1A9
330
1F
100
AcDbEntity
  8
1
100
AcDbLine
 10
-1.984694308500024
 20
31.06114560369997
 30
0.0
 11
-1.699999999999872
 21
27.5575489595
 31
0.0
  0
LINE
  5
1AA
330
1F
100
AcDbEntity
  8
1
100
AcDbLine
 10
-1.699999999999872
 20
30.07410132399998
 30
0.0
 11
-1.699999999999872
 21
27.02115811350001
 31
0.0
  0
LINE
  5
1AB
330
1F
100
AcDbEntity
  8
1
100
AcDbLine
 10
-0.699999999999875
 20
28.65434546529995
 30
0.0
 11
-0.4153056914000218
 21
31.06114560369997
 31
0.0
  0
LINE
  5
1AC
330
1F
100
AcDbEntity
  8
1
100
AcDbLine
 10
-0.4153056914000218
 20
31.06114560369997
 30
0.0
 11
-0.699999999999875
 21
27.5575489595
 31
0.0
  0
LWPOLYLINE
  5
1AD
330
1F
100
AcDbEntity
  8
1
100
AcDbPolyline
 90
        5
 70
     0
 43
0.0
 10
-0.4130926690000365
 20
31.09969853779997
 10
-0.4139182639999035
 20
31.08290575409998
 10
-0.4143545304999068
 20
31.0751395645
 10
-0.4148180098998753
 20
31.06789487299995
 10
-0.4153056914000218
 20
31.06114560369997
  0
LINE
  5
1AE
330
1F
100
AcDbEntity
  8
1
100
AcDbLine
 10
-0.699999999999875
 20
27.02115811350001
 30
0.0
 11
-0.699999999999875
 21
30.07410132399998
 31
0.0
  0
LINE
  5
1AF
330
1F
100
AcDbEntity
  8
1
100
AcDbLine
 10
-0.699999999999875
 20
35.12586734529998
 30
0.0
 11
-1.699999999999872
 21
35.12586734529998
 31
0.0
  0
LINE
  5
1B0
330
1F
100
AcDbEntity
  8
1
100
AcDbLine
 10
-1.839035581999894
 20
31.24950542580001
 30
0.0
 11
-0.560964418000026
 21
31.24950542580001
 31
0.0
  0
LWPOLYLINE
  5
1B1
330
1F
100
AcDbEntity
  8
1
100
AcDbPolyline
 90
        3
 70
     0
 43
0.0
 10
-1.988470925300019
 20
31.13763979549998
 10
-1.990012385300019
 20
31.1815363988
 10
-1.99040199530003
 20
31.19351706499998
  0
LINE
  5
1B2
330
1F
100
AcDbEntity
  8
1
100
AcDbLine
 10
-1.830361991000015
 20
32.35960705619999
 30
0.0
 11
-1.699999999999872
 21
33.28901945089998
 31
0.0
  0
LINE
  5
1B3
330
1F
100
AcDbEntity
  8
1
100
AcDbLine
 10
-1.831106260499893
 20
32.35859138429997
 30
0.0
 11
-1.700590197199858
 21
33.2891022336
 31
0.0
  0
LWPOLYLINE
  5
1B4
330
1F
100
AcDbEntity
  8
1
100
AcDbPolyline
 90
       11
 70
     0
 43
0.0
 10
-1.99040199530003
 20
31.19351706499998
 10
-1.983173454400002
 20
31.20306867249999
 10
-1.973797493800019
 20
31.21192468379998
 10
-1.962175257000012
 20
31.22014314470002
 10
-1.948603313700004
 20
31.2275499184
 10
-1.933256801100014
 20
31.23401595989999
 10
-1.916401160800035
 20
31.23946404
 10
-1.898261074599985
 20
31.24378945469999
 10
-1.879133960200021
 20
31.24694558429998
 10
-1.859438668300015
 20
31.24884071790001
 10
-1.839035581999894
 20
31.24950542580001
  0
ARC
  5
1B5
330
1F
100
AcDbEntity
  8
1
100
AcDbCircle
 10
-2.5
 20
32.79372539330001
 30
0.0
 40
0.8
100
AcDbArc
 50
277.1807557815009
 51
0.0
  0
LWPOLYLINE
  5
1B6
330
1F
100
AcDbEntity
  8
1
100
AcDbPolyline
 90
       11
 70
     0
 43
0.0
 10
-0.560964418000026
 20
31.24950542580001
 10
-0.5405613316000313
 20
31.24884071790001
 10
-0.5208660396998539
 20
31.24694558429998
 10
-0.5017389252998897
 20
31.24378945469999
 10
-0.4835988391000117
 20
31.23946404
 10
-0.4667431989000195
 20
31.23401595989999
 10
-0.4513966861998713
 20
31.2275499184
 10
-0.4378247428999205
 20
31.22014314470002
 10
-0.4262025061000261
 20
31.21192468379998
 10
-0.4168265456000313
 20
31.20306867249999
 10
-0.4095980047000012
 20
31.19351706499998
  0
LINE
  5
1B7
330
1F
100
AcDbEntity
  8
1
100
AcDbLine
 10
-0.6994098026999041
 20
33.2891022336
 30
0.0
 11
-0.5688937393999824
 21
32.35859138429997
 31
0.0
  0
LINE
  5
1B8
330
1F
100
AcDbEntity
  8
1
100
AcDbLine
 10
-0.699999999999875
 20
33.28901945089998
 30
0.0
 11
-0.5696380089999025
 21
32.35960705630001
 31
0.0
  0
LINE
  5
1B9
330
1F
100
AcDbEntity
  8
1
100
AcDbLine
 10
-0.4111448849999988
 20
31.14803165749998
 30
0.0
 11
-0.4123022568999775
 21
31.11795751560001
 31
0.0
  0
LINE
  5
1BA
330
1F
100
AcDbEntity
  8
1
100
AcDbLine
 10
-0.4095980047000012
 20
31.19351706499998
 30
0.0
 11
-0.4111448849999988
 21
31.14803165749998
 31
0.0
  0
ARC
  5
1BB
330
1F
100
AcDbEntity
  8
1
100
AcDbCircle
 10
0.0999999999999659
 20
32.79372539330001
 30
0.0
 40
0.8
100
AcDbArc
 50
180.0
 51
262.8192442184988
  0
LINE
  5
1BC
330
1F
100
AcDbEntity
  8
1
100
AcDbLine
 10
-0.699999999999875
 20
41.027525833
 30
0.0
 11
-1.699999999999872
 21
41.027525833
 31
0.0
  0
LINE
  5
1BD
330
1F
100
AcDbEntity
  8
1
100
AcDbLine
 10
-0.6999773339998683
 20
55.00249559580002
 30
0.0
 11
-0.410479634099886
 21
54.03224426729999
 31
0.0
  0
LINE
  5
1BE
330
1F
100
AcDbEntity
  8
1
100
AcDbLine
 10
-0.699999999999875
 20
54.9824427499
 30
0.0
 11
-0.4237709729000019
 21
54.05666136859999
 31
0.0
  0
LINE
  5
1BF
330
1F
100
AcDbEntity
  8
1
100
AcDbLine
 10
-0.699999999999875
 20
54.12573110890001
 30
0.0
 11
-0.699999999999875
 21
61.83647790749998
 31
0.0
  0
LINE
  5
1C0
330
1F
100
AcDbEntity
  8
1
100
AcDbLine
 10
-1.699999999999872
 20
54.12573110890001
 30
0.0
 11
-1.699999999999872
 21
61.83647790749998
 31
0.0
  0
LINE
  5
1C1
330
1F
100
AcDbEntity
  8
1
100
AcDbLine
 10
-1.976229027000043
 20
54.05666136859999
 30
0.0
 11
-1.699999999999872
 21
54.9824427499
 31
0.0
  0
LINE
  5
1C2
330
1F
100
AcDbEntity
  8
1
100
AcDbLine
 10
-1.989520365800044
 20
54.03224426729999
 30
0.0
 11
-1.700022665899894
 21
55.00249559580002
 31
0.0
  0
LINE
  5
1C3
330
1F
100
AcDbEntity
  8
1
100
AcDbLine
 10
-1.699999999999872
 20
45.38934229539999
 30
0.0
 11
-0.699999999999875
 21
45.38934229539999
 31
0.0
  0
LINE
  5
1C4
330
1F
100
AcDbEntity
  8
1
100
AcDbLine
 10
-1.839035581999894
 20
54.12573110890001
 30
0.0
 11
-0.560964418000026
 21
54.12573110890001
 31
0.0
  0
LINE
  5
1C5
330
1F
100
AcDbEntity
  8
1
100
AcDbLine
 10
-1.699999999999872
 20
51.30201873199998
 30
0.0
 11
-0.699999999999875
 21
51.30201873199998
 31
0.0
  0
LINE
  5
1C6
330
1F
100
AcDbEntity
  8
1
100
AcDbLine
 10
-1.699999999999872
 20
51.3019607484
 30
0.0
 11
-0.699999999999875
 21
51.3019607484
 31
0.0
  0
LWPOLYLINE
  5
1C7
330
1F
100
AcDbEntity
  8
1
100
AcDbPolyline
 90
        8
 70
     0
 43
0.0
 10
-1.987235549499928
 20
54.03600342739999
 10
-1.98730553509989
 20
54.03603738289999
 10
-1.987697743000012
 20
54.03595039850003
 10
-1.988085445400031
 20
54.03559539529997
 10
-1.988470925300019
 20
54.03500275940004
 10
-1.988855114899877
 20
54.03417862709996
 10
-1.989239431899988
 20
54.03313861490002
 10
-1.989505079900025
 20
54.03229500200009
  0
LINE
  5
1C8
330
1F
100
AcDbEntity
  8
1
100
AcDbLine
 10
-1.839035581999894
 20
54.12573110890001
 30
0.0
 11
-1.699999999999872
 21
53.34079012250001
 31
0.0
  0
LINE
  5
1C9
330
1F
100
AcDbEntity
  8
1
100
AcDbLine
 10
-1.984694308500024
 20
53.91388615549996
 30
0.0
 11
-1.699999999999872
 21
52.30661247669999
 31
0.0
  0
LINE
  5
1CA
330
1F
100
AcDbEntity
  8
1
100
AcDbLine
 10
-1.989239431899988
 20
54.000882013
 30
0.0
 11
-1.99040199530003
 21
54.02875642339997
 31
0.0
  0
LINE
  5
1CB
330
1F
100
AcDbEntity
  8
1
100
AcDbLine
 10
-1.987697743000012
 20
53.9669169216
 30
0.0
 11
-1.989239431899988
 21
54.000882013
 31
0.0
  0
LINE
  5
1CC
330
1F
100
AcDbEntity
  8
1
100
AcDbLine
 10
-1.986499821499876
 20
53.9433506078
 30
0.0
 11
-1.987697743000012
 21
53.9669169216
 31
0.0
  0
LINE
  5
1CD
330
1F
100
AcDbEntity
  8
1
100
AcDbLine
 10
-1.985645469400024
 20
53.92837235779999
 30
0.0
 11
-1.986499821499876
 21
53.9433506078
 31
0.0
  0
LWPOLYLINE
  5
1CE
330
1F
100
AcDbEntity
  8
1
100
AcDbPolyline
 90
        3
 70
     0
 43
0.0
 10
-1.699999999999872
 20
49.97345310709997
 10
-1.985181990099874
 20
53.9210677506999
 10
-1.985645469400024
 20
53.92837235779999
  0
LINE
  5
1CF
330
1F
100
AcDbEntity
  8
1
100
AcDbLine
 10
-1.699999999999872
 20
53.34079012250001
 30
0.0
 11
-1.699999999999872
 21
51.30201873199998
 31
0.0
  0
LWPOLYLINE
  5
1D0
330
1F
100
AcDbEntity
  8
1
100
AcDbPolyline
 90
       11
 70
     0
 43
0.0
 10
-1.99040199530003
 20
54.02875642339997
 10
-1.983173454400002
 20
54.04530029270009
 10
-1.973797493800019
 20
54.06063935440002
 10
-1.962175257000012
 20
54.07487414619996
 10
-1.948603313700004
 20
54.08770305459999
 10
-1.933256801100014
 20
54.09890256690002
 10
-1.916401160800035
 20
54.10833891860002
 10
-1.898261074599985
 20
54.1158307565
 10
-1.879133960200021
 20
54.12129733340001
 10
-1.859438668300015
 20
54.1245798011
 10
-1.839035581999894
 20
54.12573110890001
  0
LWPOLYLINE
  5
1D1
330
1F
100
AcDbEntity
  8
1
100
AcDbPolyline
 90
       11
 70
     0
 43
0.0
 10
-0.560964418000026
 20
54.12573110890001
 10
-0.5405613316000313
 20
54.1245798011
 10
-0.5208660396998539
 20
54.12129733340001
 10
-0.5017389252998897
 20
54.1158307565
 10
-0.4835988391000117
 20
54.10833891860002
 10
-0.4667431989000195
 20
54.09890256690002
 10
-0.4513966861998713
 20
54.08770305459999
 10
-0.4378247428999205
 20
54.07487414619996
 10
-0.4262025061000261
 20
54.06063935440002
 10
-0.4168265456000313
 20
54.04530029270009
 10
-0.4095980047000012
 20
54.02875642339997
  0
LWPOLYLINE
  5
1D2
330
1F
100
AcDbEntity
  8
1
100
AcDbPolyline
 90
        8
 70
     0
 43
0.0
 10
-0.4104949199999055
 20
54.03229500200009
 10
-0.4107605680000006
 20
54.03313861490002
 10
-0.4111448849999988
 20
54.03417862709996
 10
-0.4115290746000257
 20
54.03500275940004
 10
-0.4119145546000027
 20
54.03559539529997
 10
-0.4123022568999775
 20
54.03595039850003
 10
-0.4126944648000406
 20
54.03603738289999
 10
-0.4127644504000048
 20
54.03600342739999
  0
LINE
  5
1D3
330
1F
100
AcDbEntity
  8
1
100
AcDbLine
 10
-0.4148180098998753
 20
53.9210677506999
 30
0.0
 11
-0.699999999999875
 21
49.97345310709997
 31
0.0
  0
LWPOLYLINE
  5
1D4
330
1F
100
AcDbEntity
  8
1
100
AcDbPolyline
 90
        3
 70
     0
 43
0.0
 10
-0.4135001784999873
 20
53.9433506078
 10
-0.4143545304999068
 20
53.92837235779999
 10
-0.4148180098998753
 20
53.9210677506999
  0
LINE
  5
1D5
330
1F
100
AcDbEntity
  8
1
100
AcDbLine
 10
-0.4126944648000406
 20
53.95890449060003
 30
0.0
 11
-0.4135001784999873
 21
53.9433506078
 31
0.0
  0
LINE
  5
1D6
330
1F
100
AcDbEntity
  8
1
100
AcDbLine
 10
-0.4115290746000257
 20
53.9834884565
 30
0.0
 11
-0.4126944648000406
 21
53.95890449060003
 31
0.0
  0
LINE
  5
1D7
330
1F
100
AcDbEntity
  8
1
100
AcDbLine
 10
-0.4095980047000012
 20
54.02875642339997
 30
0.0
 11
-0.4115290746000257
 21
53.9834884565
 31
0.0
  0
LINE
  5
1D8
330
1F
100
AcDbEntity
  8
1
100
AcDbLine
 10
-0.699999999999875
 20
51.30201873199998
 30
0.0
 11
-0.699999999999875
 21
53.34079012250001
 31
0.0
  0
LINE
  5
1D9
330
1F
100
AcDbEntity
  8
1
100
AcDbLine
 10
-0.699999999999875
 20
52.30661247669999
 30
0.0
 11
-0.4153056914000218
 21
53.91388615549996
 31
0.0
  0
LINE
  5
1DA
330
1F
100
AcDbEntity
  8
1
100
AcDbLine
 10
-0.699999999999875
 20
53.34079012250001
 30
0.0
 11
-0.560964418000026
 21
54.12573110890001
 31
0.0
  0
LINE
  5
1DB
330
1F
100
AcDbEntity
  8
1
100
AcDbLine
 10
-1.699999999999872
 20
58.99901085170004
 30
0.0
 11
-1.99040199530003
 21
62.38703412999999
 31
0.0
  0
LINE
  5
1DC
330
1F
100
AcDbEntity
  8
1
100
AcDbLine
 10
-0.4095980047000012
 20
62.38703412999999
 30
0.0
 11
-0.699999999999875
 21
58.99901085170004
 31
0.0
  0
LINE
  5
1DD
330
1F
100
AcDbEntity
  8
1
100
AcDbLine
 10
-0.699999999999875
 20
57.15318968200008
 30
0.0
 11
-1.699999999999872
 21
57.15318968200008
 31
0.0
  0
LINE
  5
1DE
330
1F
100
AcDbEntity
  8
1
100
AcDbLine
 10
-1.839035581999894
 20
62.49901085170002
 30
0.0
 11
-0.560964418000026
 21
62.49901085170002
 31
0.0
  0
LINE
  5
1DF
330
1F
100
AcDbEntity
  8
1
100
AcDbLine
 10
-1.699999999999872
 20
61.8365448611
 30
0.0
 11
-0.699999999999875
 21
61.8365448611
 31
0.0
  0
LINE
  5
1E0
330
1F
100
AcDbEntity
  8
1
100
AcDbLine
 10
-1.699999999999872
 20
61.83647790749998
 30
0.0
 11
-0.699999999999875
 21
61.83647790749998
 31
0.0
  0
LINE
  5
1E1
330
1F
100
AcDbEntity
  8
1
100
AcDbLine
 10
-1.699999999999872
 20
60.42589677510003
 30
0.0
 11
-0.699999999999875
 21
60.42589677510003
 31
0.0
  0
LINE
  5
1E2
330
1F
100
AcDbEntity
  8
1
100
AcDbLine
 10
-1.839035581999894
 20
62.49901085170002
 30
0.0
 11
-1.699999999999872
 21
62.31485728409999
 31
0.0
  0
LINE
  5
1E3
330
1F
100
AcDbEntity
  8
1
100
AcDbLine
 10
-1.984694308500024
 20
62.32044445100004
 30
0.0
 11
-1.699999999999872
 21
61.94336491619996
 31
0.0
  0
LINE
  5
1E4
330
1F
100
AcDbEntity
  8
1
100
AcDbLine
 10
-1.699999999999872
 20
62.31485728409999
 30
0.0
 11
-1.699999999999872
 21
61.8365448611
 31
0.0
  0
LWPOLYLINE
  5
1E5
330
1F
100
AcDbEntity
  8
1
100
AcDbPolyline
 90
       11
 70
     0
 43
0.0
 10
-1.99040199530003
 20
62.38703412999999
 10
-1.983173454400002
 20
62.40613734490004
 10
-1.973797493800019
 20
62.42384936760001
 10
-1.962175257000012
 20
62.44028628939999
 10
-1.948603313700004
 20
62.45509983690002
 10
-1.933256801100014
 20
62.46803191979998
 10
-1.916401160800035
 20
62.47892808010002
 10
-1.898261074599985
 20
62.48757890929996
 10
-1.879133960200021
 20
62.49389116860001
 10
-1.859438668300015
 20
62.49768143579998
 10
-1.839035581999894
 20
62.49901085170002
  0
LWPOLYLINE
  5
1E6
330
1F
100
AcDbEntity
  8
1
100
AcDbPolyline
 90
       11
 70
     0
 43
0.0
 10
-0.560964418000026
 20
62.49901085170002
 10
-0.5405613316000313
 20
62.49768143579998
 10
-0.5208660396998539
 20
62.49389116860001
 10
-0.5017389252998897
 20
62.48757890929996
 10
-0.4835988391000117
 20
62.47892808010002
 10
-0.4667431989000195
 20
62.46803191979998
 10
-0.4513966861998713
 20
62.45509983690002
 10
-0.4378247428999205
 20
62.44028628939999
 10
-0.4262025061000261
 20
62.42384936760001
 10
-0.4168265456000313
 20
62.40613734490004
 10
-0.4095980047000012
 20
62.38703412999999
  0
LINE
  5
1E7
330
1F
100
AcDbEntity
  8
1
100
AcDbLine
 10
-0.699999999999875
 20
61.8365448611
 30
0.0
 11
-0.699999999999875
 21
62.31485728409999
 31
0.0
  0
LINE
  5
1E8
330
1F
100
AcDbEntity
  8
1
100
AcDbLine
 10
-0.699999999999875
 20
61.94336491619996
 30
0.0
 11
-0.4153056914000218
 21
62.32044445100004
 31
0.0
  0
LINE
  5
1E9
330
1F
100
AcDbEntity
  8
1
100
AcDbLine
 10
-0.699999999999875
 20
62.31485728409999
 30
0.0
 11
-0.560964418000026
 21
62.49901085170002
 31
0.0
  0
MTEXT
  5
2A2
330
1F
100
AcDbEntity
  8
6
100
AcDbMText
 10
19.70440963703962
 20
-5.548157848817425
 30
0.0
 40
3.5
 41
30.7552
 71
     1
 72
     5
  1
Z=12
 11
0.0000000000000001
 21
1.0
 31
0.0
 73
     1
 44
1.0
  0
MTEXT
  5
2A8
330
1F
100
AcDbEntity
  8
6
100
AcDbMText
 10
2.533528027062914
 20
59.44459539710917
 30
0.0
 40
3.5
 41
40.05329999999999
 71
     1
 72
     5
  1
GCXF071601N
 73
     1
 44
1.0
  0
LINE
  5
302
330
1F
100
AcDbEntity
  8
CUT
100
AcDbLine
 10
-0.560964418000026
 20
62.49901085170002
 30
0.0
 11
-1.839035582000007
 21
62.49901085170002
 31
0.0
  0
LINE
  5
303
330
1F
100
AcDbEntity
  8
CUT
100
AcDbLine
 10
-0.4095980047000012
 20
62.38703413000012
 30
0.0
 11
-0.6999999999999888
 21
58.99901085170007
 31
0.0
  0
LWPOLYLINE
  5
304
330
1F
100
AcDbEntity
  8
CUT
100
AcDbPolyline
 90
       11
 70
     0
 43
0.0
 10
-1.839035582000007
 20
62.49901085170002
 10
-1.859438668300015
 20
62.49768143580009
 10
-1.879133960199993
 20
62.49389116860012
 10
-1.898261074600014
 20
62.4875789093001
 10
-1.916401160800005
 20
62.4789280801001
 10
-1.933256801100014
 20
62.46803191970013
 10
-1.94860331370009
 20
62.4550998369
 10
-1.962175257000012
 20
62.44028628940011
 10
-1.973797493800019
 20
62.4238493676001
 10
-1.983173454400031
 20
62.40613734490014
 10
-1.990401995300031
 20
62.38703413000012
  0
LINE
  5
305
330
1F
100
AcDbEntity
  8
CUT
100
AcDbLine
 10
-0.6999999999999888
 20
58.99901085170007
 30
0.0
 11
-1.699999999999988
 21
58.99901085170007
 31
0.0
  0
LINE
  5
306
330
1F
100
AcDbEntity
  8
CUT
100
AcDbLine
 10
-1.990401995300031
 20
62.38703413000012
 30
0.0
 11
-1.699999999999988
 21
58.99901085170007
 31
0.0
  0
LWPOLYLINE
  5
307
330
1F
100
AcDbEntity
  8
CUT
100
AcDbPolyline
 90
       11
 70
     0
 43
0.0
 10
-0.4095980047000012
 20
62.38703413000012
 10
-0.4168265456000029
 20
62.40613734490014
 10
-0.4262025060999976
 20
62.4238493676001
 10
-0.4378247430000215
 20
62.44028628940011
 10
-0.4513966862000133
 20
62.4550998369
 10
-0.4667431989000194
 20
62.46803191970013
 10
-0.4835988390999832
 20
62.4789280801001
 10
-0.5017389253000886
 20
62.4875789093001
 10
-0.520866039699996
 20
62.49389116860012
 10
-0.5405613317000189
 20
62.49768143580009
 10
-0.560964418000026
 20
62.49901085170002
  0
LWPOLYLINE
  5
31D
330
1F
100
AcDbEntity
  8
NOCUT
100
AcDbPolyline
 90
       10
 70
     0
 43
0.0
 10
-1.699999999999874
 20
-58.99901085262115
 10
-1.699999999999874
 20
-33.29331002910723
 10
-1.831767256878208
 20
-32.35387882798461
 42
0.2192485906143261
 10
-2.39999999999992
 20
-32.0
 10
-2.39999999999992
 20
0.0
 10
0.0
 20
0.0
 10
-0.0000000000006253
 20
-31.99999999998071
 42
0.2192485905793673
 10
-0.5682327430631915
 20
-32.35387882789533
 10
-0.699999999999875
 20
-33.29331002910505
 10
-0.699999999999875
 20
-58.99901085135683
  0
LWPOLYLINE
  5
31E
330
1F
100
AcDbEntity
  8
NOCUT
100
AcDbPolyline
 90
       26
 70
     0
 43
0.0
 10
-1.699999999999874
 20
-33.29331002910723
 10
-1.699999999999874
 20
-58.99901085262119
 10
-1.990401995300032
 20
-62.38703413000002
 10
-1.983173454400002
 20
-62.40613734480001
 10
-1.97379749380002
 20
-62.42384936760001
 10
-1.962175257000012
 20
-62.44028628939999
 10
-1.948603313700004
 20
-62.4550998368
 10
-1.933256801100014
 20
-62.46803191969999
 10
-1.916401160800035
 20
-62.47892808
 10
-1.898261074599986
 20
-62.48757890930001
 10
-1.879133960200022
 20
-62.49389116859997
 10
-1.859438668300015
 20
-62.49768143580002
 10
-1.839035581999894
 20
-62.49901085160002
 10
-0.560964418000026
 20
-62.49901085160002
 10
-0.5405613316000313
 20
-62.49768143580002
 10
-0.5208660396998539
 20
-62.49389116859997
 10
-0.5017389252998897
 20
-62.48757890930001
 10
-0.4835988391000115
 20
-62.47892808
 10
-0.4667431989000193
 20
-62.46803191969999
 10
-0.4513966861998711
 20
-62.4550998368
 10
-0.4378247428999203
 20
-62.44028628939999
 10
-0.4262025061000259
 20
-62.42384936760001
 10
-0.4168265456000313
 20
-62.40613734480001
 10
-0.4095980047000012
 20
-62.38703413000002
 10
-0.699999999999875
 20
-58.99901085135683
 10
-0.699999999999875
 20
-33.29331002910513
  0
ENDSEC
  0
SECTION
  2
OBJECTS
  0
DICTIONARY
  5
C
330
0
100
AcDbDictionary
281
     1
  3
ACAD_GROUP
350
D
  3
ACAD_LAYOUT
350
1A
  3
ACAD_MLINESTYLE
350
17
  3
ACAD_PLOTSETTINGS
350
19
  3
ACAD_PLOTSTYLENAME
350
E
  0
DICTIONARY
  5
D
102
{ACAD_REACTORS
330
C
102
}
330
C
100
AcDbDictionary
281
     1
  0
DICTIONARY
  5
1A
102
{ACAD_REACTORS
330
C
102
}
330
C
100
AcDbDictionary
281
     1
  3
Layout1
350
1E
  3
Layout2
350
26
  3
Model
350
22
  0
DICTIONARY
  5
17
102
{ACAD_REACTORS
330
C
102
}
330
C
100
AcDbDictionary
281
     1
  3
Standard
350
18
  0
DICTIONARY
  5
19
102
{ACAD_REACTORS
330
C
102
}
330
C
100
AcDbDictionary
281
     1
  0
ACDBDICTIONARYWDFLT
  5
E
102
{ACAD_REACTORS
330
C
102
}
330
C
100
AcDbDictionary
281
     1
  3
Normal
350
F
100
AcDbDictionaryWithDefault
340
F
  0
LAYOUT
  5
1E
102
{ACAD_REACTORS
330
1A
102
}
330
1A
100
AcDbPlotSettings
  1

  2
\\ingdom02\ITB2
  4

  6

 40
0.0
 41
0.0
 42
0.0
 43
0.0
 44
0.0
 45
0.0
 46
0.0
 47
0.0
 48
0.0
 49
0.0
140
0.0
141
0.0
142
1.0
143
1.0
 70
   688
 72
     0
 73
     0
 74
     5
  7

 75
    16
147
1.0
148
0.0
149
0.0
100
AcDbLayout
  1
Layout1
 70
     1
 71
     1
 10
0.0
 20
0.0
 11
420.0
 21
297.0
 12
0.0
 22
0.0
 32
0.0
 14
1.000000000000000E+20
 24
1.000000000000000E+20
 34
1.000000000000000E+20
 15
-1.000000000000000E+20
 25
-1.000000000000000E+20
 35
-1.000000000000000E+20
146
0.0
 13
0.0
 23
0.0
 33
0.0
 16
1.0
 26
0.0
 36
0.0
 17
0.0
 27
1.0
 37
0.0
 76
     0
330
1B
  0
LAYOUT
  5
26
102
{ACAD_REACTORS
330
1A
102
}
330
1A
100
AcDbPlotSettings
  1

  2
\\ingdom02\ITB2
  4

  6

 40
0.0
 41
0.0
 42
0.0
 43
0.0
 44
0.0
 45
0.0
 46
0.0
 47
0.0
 48
0.0
 49
0.0
140
0.0
141
0.0
142
1.0
143
1.0
 70
   688
 72
     0
 73
     0
 74
     5
  7

 75
    16
147
1.0
148
0.0
149
0.0
100
AcDbLayout
  1
Layout2
 70
     1
 71
     2
 10
0.0
 20
0.0
 11
12.0
 21
9.0
 12
0.0
 22
0.0
 32
0.0
 14
0.0
 24
0.0
 34
0.0
 15
0.0
 25
0.0
 35
0.0
146
0.0
 13
0.0
 23
0.0
 33
0.0
 16
1.0
 26
0.0
 36
0.0
 17
0.0
 27
1.0
 37
0.0
 76
     0
330
23
  0
LAYOUT
  5
22
102
{ACAD_REACTORS
330
1A
102
}
330
1A
100
AcDbPlotSettings
  1

  2
\\ingdom02\ITB2
  4

  6

 40
0.0
 41
0.0
 42
0.0
 43
0.0
 44
0.0
 45
0.0
 46
0.0
 47
0.0
 48
0.0
 49
0.0
140
0.0
141
0.0
142
1.0
143
1.0
 70
  1712
 72
     0
 73
     0
 74
     0
  7

 75
     0
147
1.0
148
0.0
149
0.0
100
AcDbLayout
  1
Model
 70
     1
 71
     0
 10
0.0
 20
0.0
 11
12.0
 21
9.0
 12
0.0
 22
0.0
 32
0.0
 14
0.0
 24
0.0
 34
0.0
 15
0.0
 25
0.0
 35
0.0
146
0.0
 13
0.0
 23
0.0
 33
0.0
 16
1.0
 26
0.0
 36
0.0
 17
0.0
 27
1.0
 37
0.0
 76
     0
330
1F
  0
MLINESTYLE
  5
18
102
{ACAD_REACTORS
330
17
102
}
330
17
100
AcDbMlineStyle
  2
STANDARD
 70
     0
  3

 62
   256
 51
90.0
 52
90.0
 71
     2
 49
0.5
 62
   256
  6
BYLAYER
 49
-0.5
 62
   256
  6
BYLAYER
  0
ACDBPLACEHOLDER
  5
F
102
{ACAD_REACTORS
330
E
102
}
330
E
  0
ENDSEC
  0
EOF
