  0
SECTION
  2
HEADER
  9
$ACADVER
  1
AC1015
  9
$ACADMAINTVER
 70
    10
  9
$DWGCODEPAGE
  3
ANSI_1252
  9
$INSBASE
 10
0.0
 20
0.0
 30
0.0
  9
$EXTMIN
 10
-31.99907941371441
 20
-50.02343407324906
 30
-0.0000000000000058
  9
$EXTMAX
 10
71.46003554212211
 20
68.74332150322175
 30
0.0000000000000104
  9
$LIMMIN
 10
0.0
 20
0.0
  9
$LIMMAX
 10
420.0
 20
297.0
  9
$ORTHOMODE
 70
     0
  9
$REGENMODE
 70
     1
  9
$FILLMODE
 70
     1
  9
$QTEXTMODE
 70
     0
  9
$MIRRTEXT
 70
     1
  9
$LTSCALE
 40
5.0
  9
$ATTMODE
 70
     1
  9
$TEXTSIZE
 40
3.5
  9
$TRACEWID
 40
1.0
  9
$TEXTSTYLE
  7
Standard
  9
$CLAYER
  8
0
  9
$CELTYPE
  6
ByLayer
  9
$CECOLOR
 62
   256
  9
$CELTSCALE
 40
1.0
  9
$DISPSILH
 70
     0
  9
$DIMSCALE
 40
1.0
  9
$DIMASZ
 40
2.5
  9
$DIMEXO
 40
0.625
  9
$DIMDLI
 40
3.75
  9
$DIMRND
 40
0.0
  9
$DIMDLE
 40
0.0
  9
$DIMEXE
 40
1.25
  9
$DIMTP
 40
0.0
  9
$DIMTM
 40
0.0
  9
$DIMTXT
 40
2.5
  9
$DIMCEN
 40
2.5
  9
$DIMTSZ
 40
0.0
  9
$DIMTOL
 70
     0
  9
$DIMLIM
 70
     0
  9
$DIMTIH
 70
     0
  9
$DIMTOH
 70
     0
  9
$DIMSE1
 70
     0
  9
$DIMSE2
 70
     0
  9
$DIMTAD
 70
     1
  9
$DIMZIN
 70
     8
  9
$DIMBLK
  1

  9
$DIMASO
 70
     1
  9
$DIMSHO
 70
     1
  9
$DIMPOST
  1

  9
$DIMAPOST
  1

  9
$DIMALT
 70
     0
  9
$DIMALTD
 70
     3
  9
$DIMALTF
 40
0.03937007874016
  9
$DIMLFAC
 40
1.0
  9
$DIMTOFL
 70
     1
  9
$DIMTVP
 40
0.0
  9
$DIMTIX
 70
     0
  9
$DIMSOXD
 70
     0
  9
$DIMSAH
 70
     0
  9
$DIMBLK1
  1

  9
$DIMBLK2
  1

  9
$DIMSTYLE
  2
ISO-25
  9
$DIMCLRD
 70
     0
  9
$DIMCLRE
 70
     0
  9
$DIMCLRT
 70
     0
  9
$DIMTFAC
 40
1.0
  9
$DIMGAP
 40
0.625
  9
$DIMJUST
 70
     0
  9
$DIMSD1
 70
     0
  9
$DIMSD2
 70
     0
  9
$DIMTOLJ
 70
     0
  9
$DIMTZIN
 70
     8
  9
$DIMALTZ
 70
     0
  9
$DIMALTTZ
 70
     0
  9
$DIMUPT
 70
     0
  9
$DIMDEC
 70
     2
  9
$DIMTDEC
 70
     2
  9
$DIMALTU
 70
     2
  9
$DIMALTTD
 70
     3
  9
$DIMTXSTY
  7
Standard
  9
$DIMAUNIT
 70
     0
  9
$DIMADEC
 70
     0
  9
$DIMALTRND
 40
0.0
  9
$DIMAZIN
 70
     0
  9
$DIMDSEP
 70
    44
  9
$DIMATFIT
 70
     3
  9
$DIMFRAC
 70
     0
  9
$DIMLDRBLK
  1

  9
$DIMLUNIT
 70
     2
  9
$DIMLWD
 70
    -2
  9
$DIMLWE
 70
    -2
  9
$DIMTMOVE
 70
     0
  9
$LUNITS
 70
     2
  9
$LUPREC
 70
     4
  9
$SKETCHINC
 40
1.0
  9
$FILLETRAD
 40
10.0
  9
$AUNITS
 70
     0
  9
$AUPREC
 70
     0
  9
$MENU
  1
.
  9
$ELEVATION
 40
0.0
  9
$PELEVATION
 40
0.0
  9
$THICKNESS
 40
0.0
  9
$LIMCHECK
 70
     0
  9
$CHAMFERA
 40
10.0
  9
$CHAMFERB
 40
10.0
  9
$CHAMFERC
 40
20.0
  9
$CHAMFERD
 40
0.0
  9
$SKPOLY
 70
     0
  9
$TDCREATE
 40
2454225.610784387
  9
$TDUCREATE
 40
2454225.527451053
  9
$TDUPDATE
 40
2454228.617028808
  9
$TDUUPDATE
 40
2454228.533695475
  9
$TDINDWG
 40
0.0023635880
  9
$TDUSRTIMER
 40
0.0023630556
  9
$USRTIMER
 70
     1
  9
$ANGBASE
 50
0.0
  9
$ANGDIR
 70
     0
  9
$PDMODE
 70
     0
  9
$PDSIZE
 40
0.0
  9
$PLINEWID
 40
0.0
  9
$SPLFRAME
 70
     0
  9
$SPLINETYPE
 70
     6
  9
$SPLINESEGS
 70
     8
  9
$HANDSEED
  5
2C8
  9
$SURFTAB1
 70
     6
  9
$SURFTAB2
 70
     6
  9
$SURFTYPE
 70
     6
  9
$SURFU
 70
     6
  9
$SURFV
 70
     6
  9
$UCSBASE
  2

  9
$UCSNAME
  2

  9
$UCSORG
 10
0.0
 20
0.0
 30
0.0
  9
$UCSXDIR
 10
1.0
 20
0.0
 30
0.0
  9
$UCSYDIR
 10
0.0
 20
1.0
 30
0.0
  9
$UCSORTHOREF
  2

  9
$UCSORTHOVIEW
 70
     0
  9
$UCSORGTOP
 10
0.0
 20
0.0
 30
0.0
  9
$UCSORGBOTTOM
 10
0.0
 20
0.0
 30
0.0
  9
$UCSORGLEFT
 10
0.0
 20
0.0
 30
0.0
  9
$UCSORGRIGHT
 10
0.0
 20
0.0
 30
0.0
  9
$UCSORGFRONT
 10
0.0
 20
0.0
 30
0.0
  9
$UCSORGBACK
 10
0.0
 20
0.0
 30
0.0
  9
$PUCSBASE
  2

  9
$PUCSNAME
  2

  9
$PUCSORG
 10
0.0
 20
0.0
 30
0.0
  9
$PUCSXDIR
 10
1.0
 20
0.0
 30
0.0
  9
$PUCSYDIR
 10
0.0
 20
1.0
 30
0.0
  9
$PUCSORTHOREF
  2

  9
$PUCSORTHOVIEW
 70
     0
  9
$PUCSORGTOP
 10
0.0
 20
0.0
 30
0.0
  9
$PUCSORGBOTTOM
 10
0.0
 20
0.0
 30
0.0
  9
$PUCSORGLEFT
 10
0.0
 20
0.0
 30
0.0
  9
$PUCSORGRIGHT
 10
0.0
 20
0.0
 30
0.0
  9
$PUCSORGFRONT
 10
0.0
 20
0.0
 30
0.0
  9
$PUCSORGBACK
 10
0.0
 20
0.0
 30
0.0
  9
$USERI1
 70
     0
  9
$USERI2
 70
     0
  9
$USERI3
 70
     0
  9
$USERI4
 70
     0
  9
$USERI5
 70
     0
  9
$USERR1
 40
0.0
  9
$USERR2
 40
0.0
  9
$USERR3
 40
0.0
  9
$USERR4
 40
0.0
  9
$USERR5
 40
0.0
  9
$WORLDVIEW
 70
     1
  9
$SHADEDGE
 70
     3
  9
$SHADEDIF
 70
    70
  9
$TILEMODE
 70
     1
  9
$MAXACTVP
 70
    64
  9
$PINSBASE
 10
0.0
 20
0.0
 30
0.0
  9
$PLIMCHECK
 70
     0
  9
$PEXTMIN
 10
1.000000000000000E+20
 20
1.000000000000000E+20
 30
1.000000000000000E+20
  9
$PEXTMAX
 10
-1.000000000000000E+20
 20
-1.000000000000000E+20
 30
-1.000000000000000E+20
  9
$PLIMMIN
 10
0.0
 20
0.0
  9
$PLIMMAX
 10
420.0
 20
297.0
  9
$UNITMODE
 70
     0
  9
$VISRETAIN
 70
     1
  9
$PLINEGEN
 70
     0
  9
$PSLTSCALE
 70
     1
  9
$TREEDEPTH
 70
  3020
  9
$CMLSTYLE
  2
Standard
  9
$CMLJUST
 70
     0
  9
$CMLSCALE
 40
20.0
  9
$PROXYGRAPHICS
 70
     1
  9
$MEASUREMENT
 70
     1
  9
$CELWEIGHT
370
    -1
  9
$ENDCAPS
280
     0
  9
$JOINSTYLE
280
     0
  9
$LWDISPLAY
290
     0
  9
$INSUNITS
 70
     4
  9
$HYPERLINKBASE
  1

  9
$STYLESHEET
  1

  9
$XEDIT
290
     1
  9
$CEPSNTYPE
380
     0
  9
$PSTYLEMODE
290
     1
  9
$FINGERPRINTGUID
  2
{D56710E0-999A-4B91-83D2-300E8D9E81B0}
  9
$VERSIONGUID
  2
{C7BC78AA-676D-44E9-B26C-C13069893642}
  9
$EXTNAMES
290
     1
  9
$PSVPSCALE
 40
0.0
  9
$OLESTARTUP
290
     0
  0
ENDSEC
  0
SECTION
  2
CLASSES
  0
CLASS
  1
ACDBDICTIONARYWDFLT
  2
AcDbDictionaryWithDefault
  3
AutoCAD 2000
 90
        0
280
     0
281
     0
  0
CLASS
  1
ACDBPLACEHOLDER
  2
AcDbPlaceHolder
  3
AutoCAD 2000
 90
        0
280
     0
281
     0
  0
CLASS
  1
LAYOUT
  2
AcDbLayout
  3
AutoCAD 2000
 90
        0
280
     0
281
     0
  0
ENDSEC
  0
SECTION
  2
TABLES
  0
TABLE
  2
VPORT
  5
8
330
0
100
AcDbSymbolTable
 70
     3
  0
VPORT
  5
2C7
330
8
100
AcDbSymbolTableRecord
100
AcDbViewportTableRecord
  2
*Active
 70
     0
 10
0.0
 20
0.0
 11
1.0
 21
1.0
 12
19.73047806420383
 22
9.359943714986336
 13
0.0
 23
0.0
 14
10.0
 24
10.0
 15
10.0
 25
10.0
 16
0.0
 26
0.0
 36
1.0
 17
0.0
 27
0.0
 37
0.0
 40
120.5176168380404
 41
2.423645320197044
 42
50.0
 43
0.0
 44
0.0
 50
0.0
 51
0.0
 71
     0
 72
   100
 73
     1
 74
     3
 75
     0
 76
     0
 77
     0
 78
     0
281
     0
 65
     1
110
0.0
120
0.0
130
0.0
111
1.0
121
0.0
131
0.0
112
0.0
122
1.0
132
0.0
 79
     0
146
0.0
  0
ENDTAB
  0
TABLE
  2
LTYPE
  5
5
330
0
100
AcDbSymbolTable
 70
     3
  0
LTYPE
  5
14
330
5
100
AcDbSymbolTableRecord
100
AcDbLinetypeTableRecord
  2
ByBlock
 70
     0
  3

 72
    65
 73
     0
 40
0.0
  0
LTYPE
  5
15
330
5
100
AcDbSymbolTableRecord
100
AcDbLinetypeTableRecord
  2
ByLayer
 70
     0
  3

 72
    65
 73
     0
 40
0.0
  0
LTYPE
  5
16
330
5
100
AcDbSymbolTableRecord
100
AcDbLinetypeTableRecord
  2
Continuous
 70
     0
  3
Solid line
 72
    65
 73
     0
 40
0.0
  0
LTYPE
  5
78
330
5
100
AcDbSymbolTableRecord
100
AcDbLinetypeTableRecord
  2
CENTER
 70
     0
  3
____ _ ____ _ ____ _ ____ _ ____ _ ____ _ ____
 72
    65
 73
     4
 40
0.6
 49
0.375
 74
     0
 49
-0.075
 74
     0
 49
0.075
 74
     0
 49
-0.075
 74
     0
  0
LTYPE
  5
79
330
5
100
AcDbSymbolTableRecord
100
AcDbLinetypeTableRecord
  2
HIDDEN
 70
     0
  3
- - - - - - - - - - - - - - - - - - - -
 72
    65
 73
     2
 40
0.2
 49
0.1
 74
     0
 49
-0.1
 74
     0
  0
ENDTAB
  0
TABLE
  2
LAYER
  5
2
330
0
100
AcDbSymbolTable
 70
    10
  0
LAYER
  5
10
330
2
100
AcDbSymbolTableRecord
100
AcDbLayerTableRecord
  2
0
 70
     0
 62
     7
  6
Continuous
370
    -3
390
F
  0
LAYER
  5
7C
330
2
100
AcDbSymbolTableRecord
100
AcDbLayerTableRecord
  2
Defpoints
 70
     0
 62
     7
  6
Continuous
290
     0
370
    -3
390
F
  0
LAYER
  5
7D
330
2
100
AcDbSymbolTableRecord
100
AcDbLayerTableRecord
  2
1
 70
     0
 62
     4
  6
Continuous
370
    -3
390
F
  0
LAYER
  5
7E
330
2
100
AcDbSymbolTableRecord
100
AcDbLayerTableRecord
  2
SK3
 70
     0
 62
     1
  6
HIDDEN
370
    -3
390
F
  0
LAYER
  5
7F
330
2
100
AcDbSymbolTableRecord
100
AcDbLayerTableRecord
  2
4
 70
     0
 62
     2
  6
CENTER
370
    -3
390
F
  0
LAYER
  5
80
330
2
100
AcDbSymbolTableRecord
100
AcDbLayerTableRecord
  2
6
 70
     0
 62
     5
  6
Continuous
370
    -3
390
F
  0
LAYER
  5
81
330
2
100
AcDbSymbolTableRecord
100
AcDbLayerTableRecord
  2
SK2
 70
     0
 62
     7
  6
Continuous
370
    -3
390
F
  0
LAYER
  5
82
330
2
100
AcDbSymbolTableRecord
100
AcDbLayerTableRecord
  2
2
 70
     0
 62
     7
  6
Continuous
370
    -3
390
F
  0
LAYER
  5
2A2
330
2
100
AcDbSymbolTableRecord
100
AcDbLayerTableRecord
  2
CUT
 70
     0
 62
     1
  6
Continuous
370
    -3
390
F
  0
LAYER
  5
2BF
330
2
100
AcDbSymbolTableRecord
100
AcDbLayerTableRecord
  2
NOCUT
 70
     0
 62
     7
  6
Continuous
370
    -3
390
F
  0
ENDTAB
  0
TABLE
  2
STYLE
  5
3
330
0
100
AcDbSymbolTable
 70
     1
  0
STYLE
  5
11
330
3
100
AcDbSymbolTableRecord
100
AcDbTextStyleTableRecord
  2
Standard
 70
     0
 40
3.5
 41
1.0
 50
0.0
 71
     0
 42
3.5
  3
isocp.shx
  4

  0
ENDTAB
  0
TABLE
  2
VIEW
  5
6
330
0
100
AcDbSymbolTable
 70
     0
  0
ENDTAB
  0
TABLE
  2
UCS
  5
7
330
0
100
AcDbSymbolTable
 70
     0
  0
ENDTAB
  0
TABLE
  2
APPID
  5
9
330
0
100
AcDbSymbolTable
 70
     1
  0
APPID
  5
12
330
9
100
AcDbSymbolTableRecord
100
AcDbRegAppTableRecord
  2
ACAD
 70
     0
  0
ENDTAB
  0
TABLE
  2
DIMSTYLE
  5
A
330
0
100
AcDbSymbolTable
 70
     2
100
AcDbDimStyleTable
 71
     0
  0
DIMSTYLE
105
27
102
{ACAD_REACTORS
330
12B
330
156
330
15B
330
15C
330
161
330
195
102
}
330
A
100
AcDbSymbolTableRecord
100
AcDbDimStyleTableRecord
  2
ISO-25
 70
     0
 41
2.5
 42
0.625
 43
3.75
 44
1.25
 73
     0
 74
     0
 77
     1
 78
     8
140
2.5
141
2.5
143
0.03937007874016
147
0.625
171
     3
172
     1
271
     2
272
     2
274
     3
278
    44
283
     0
284
     8
340
11
  0
DIMSTYLE
105
83
330
A
100
AcDbSymbolTableRecord
100
AcDbDimStyleTableRecord
  2
STANDARD
 70
     0
 41
2.5
 47
0.005
 48
0.005
 71
     1
 73
     0
 74
     0
 77
     1
 78
     8
140
3.5
178
     5
271
     3
272
     3
284
     8
340
11
341
2B
342
2B
343
2B
344
2B
  0
ENDTAB
  0
TABLE
  2
BLOCK_RECORD
  5
1
330
0
100
AcDbSymbolTable
 70
    10
  0
BLOCK_RECORD
  5
1F
330
1
100
AcDbSymbolTableRecord
100
AcDbBlockTableRecord
  2
*Model_Space
340
22
  0
BLOCK_RECORD
  5
1B
330
1
100
AcDbSymbolTableRecord
100
AcDbBlockTableRecord
  2
*Paper_Space
340
1E
  0
BLOCK_RECORD
  5
23
330
1
100
AcDbSymbolTableRecord
100
AcDbBlockTableRecord
  2
*Paper_Space0
340
26
  0
BLOCK_RECORD
  5
2B
330
1
100
AcDbSymbolTableRecord
100
AcDbBlockTableRecord
  2
_ARROW_FILLED
340
0
  0
BLOCK_RECORD
  5
1C8
330
1
100
AcDbSymbolTableRecord
100
AcDbBlockTableRecord
  2
*D2
340
0
  0
BLOCK_RECORD
  5
1D4
330
1
100
AcDbSymbolTableRecord
100
AcDbBlockTableRecord
  2
*D3
340
0
  0
BLOCK_RECORD
  5
1DD
330
1
100
AcDbSymbolTableRecord
100
AcDbBlockTableRecord
  2
*D4
340
0
  0
BLOCK_RECORD
  5
1E9
330
1
100
AcDbSymbolTableRecord
100
AcDbBlockTableRecord
  2
*D5
340
0
  0
BLOCK_RECORD
  5
1F5
330
1
100
AcDbSymbolTableRecord
100
AcDbBlockTableRecord
  2
*D6
340
0
  0
BLOCK_RECORD
  5
203
330
1
100
AcDbSymbolTableRecord
100
AcDbBlockTableRecord
  2
*D7
340
0
  0
ENDTAB
  0
ENDSEC
  0
SECTION
  2
BLOCKS
  0
BLOCK
  5
20
330
1F
100
AcDbEntity
  8
0
100
AcDbBlockBegin
  2
*Model_Space
 70
     0
 10
0.0
 20
0.0
 30
0.0
  3
*Model_Space
  1

  0
ENDBLK
  5
21
330
1F
100
AcDbEntity
  8
0
100
AcDbBlockEnd
  0
BLOCK
  5
1C
330
1B
100
AcDbEntity
 67
     1
  8
0
100
AcDbBlockBegin
  2
*Paper_Space
 70
     0
 10
0.0
 20
0.0
 30
0.0
  3
*Paper_Space
  1

  0
ENDBLK
  5
1D
330
1B
100
AcDbEntity
 67
     1
  8
0
100
AcDbBlockEnd
  0
BLOCK
  5
24
330
23
100
AcDbEntity
  8
0
100
AcDbBlockBegin
  2
*Paper_Space0
 70
     0
 10
0.0
 20
0.0
 30
0.0
  3
*Paper_Space0
  1

  0
ENDBLK
  5
25
330
23
100
AcDbEntity
  8
0
100
AcDbBlockEnd
  0
BLOCK
  5
2D
330
2B
100
AcDbEntity
  8
0
100
AcDbBlockBegin
  2
_ARROW_FILLED
 70
     0
 10
0.0
 20
0.0
 30
0.0
  3
_ARROW_FILLED
  1

  0
SOLID
  5
2C
330
2B
100
AcDbEntity
  8
0
  6
ByBlock
 62
     0
100
AcDbTrace
 10
0.0
 20
0.0
 30
0.0
 11
-1.0
 21
0.132
 31
0.0
 12
-1.0
 22
-0.132
 32
0.0
 13
-1.0
 23
-0.132
 33
0.0
  0
ENDBLK
  5
2E
330
2B
100
AcDbEntity
  8
0
  6
ByBlock
 62
     0
100
AcDbBlockEnd
  0
BLOCK
  5
1D2
330
1C8
100
AcDbEntity
  8
0
100
AcDbBlockBegin
  2
*D2
 70
     1
 10
0.0
 20
0.0
 30
0.0
  3
*D2
  1

  0
LINE
  5
27C
330
1C8
100
AcDbEntity
  8
2
 62
     0
370
    -2
100
AcDbLine
 10
-2.324999999999988
 20
49.99999999999989
 30
0.0
 11
-29.28676470580011
 21
49.99999999999989
 31
0.0
  0
LINE
  5
27D
330
1C8
100
AcDbEntity
  8
2
 62
     0
370
    -2
100
AcDbLine
 10
-2.324999999999988
 20
-50.0
 30
0.0
 11
-29.28676470580013
 21
-50.0
 31
0.0
  0
LINE
  5
27E
330
1C8
100
AcDbEntity
  8
2
 62
     0
370
    -2
100
AcDbLine
 10
-28.03676470580011
 20
47.49999999999989
 30
0.0
 11
-28.03676470580013
 21
-47.49999999999999
 31
0.0
  0
SOLID
  5
27F
330
1C8
100
AcDbEntity
  8
2
 62
     0
100
AcDbTrace
 10
-28.45343137246678
 20
47.49999999999989
 30
0.0
 11
-27.62009803913343
 21
47.49999999999989
 31
0.0
 12
-28.03676470580011
 22
49.99999999999989
 32
0.0
 13
-28.03676470580011
 23
49.99999999999989
 33
0.0
  0
SOLID
  5
280
330
1C8
100
AcDbEntity
  8
2
 62
     0
100
AcDbTrace
 10
-28.4534313724668
 20
-47.49999999999999
 30
0.0
 11
-27.62009803913346
 21
-47.49999999999999
 31
0.0
 12
-28.03676470580013
 22
-50.0
 32
0.0
 13
-28.03676470580013
 23
-50.0
 33
0.0
  0
MTEXT
  5
281
330
1C8
100
AcDbEntity
  8
2
 62
     0
100
AcDbMText
 10
-30.41176470580012
 20
1.291176470599907
 30
0.0
 40
3.5
 41
0.0
 71
     5
 72
     1
  1
%%c100
 11
0.0000000000000001
 21
1.0
 31
0.0
 73
     1
 44
1.0
  0
POINT
  5
282
330
1C8
100
AcDbEntity
  8
Defpoints
 62
     0
100
AcDbPoint
 10
-1.699999999999988
 20
49.99999999999989
 30
0.0
  0
POINT
  5
283
330
1C8
100
AcDbEntity
  8
Defpoints
 62
     0
100
AcDbPoint
 10
-1.699999999999988
 20
-50.0
 30
0.0
  0
POINT
  5
284
330
1C8
100
AcDbEntity
  8
Defpoints
 62
     0
100
AcDbPoint
 10
-28.03676470580013
 20
-50.0
 30
0.0
  0
ENDBLK
  5
1D3
330
1C8
100
AcDbEntity
  8
0
100
AcDbBlockEnd
  0
BLOCK
  5
1DB
330
1D4
100
AcDbEntity
  8
0
100
AcDbBlockBegin
  2
*D3
 70
     1
 10
0.0
 20
0.0
 30
0.0
  3
*D3
  1

  0
LINE
  5
276
330
1D4
100
AcDbEntity
  8
2
 62
     0
370
    -2
100
AcDbLine
 10
-22.86986002737144
 20
65.5259171689618
 30
0.0
 11
-3.816473185938484
 21
51.23810711252414
 31
0.0
  0
MTEXT
  5
277
330
1D4
100
AcDbEntity
  8
2
 62
     0
100
AcDbMText
 10
-16.86782098728199
 20
64.32178017635918
 30
0.0
 40
3.5
 41
0.0
 71
     5
 72
     1
  1
R0,16
 11
0.8000449449753398
 21
-0.599940068689703
 31
0.0
 73
     1
 44
1.0
  0
LINE
  5
278
330
1D4
100
AcDbEntity
  8
2
 62
     0
370
    -2
100
AcDbLine
 10
-1.690318130200124
 20
49.6437396732999
 30
0.0
 11
-1.816360823500133
 21
49.73825694079988
 31
0.0
  0
SOLID
  5
279
330
1D4
100
AcDbEntity
  8
2
 62
     0
100
AcDbTrace
 10
-3.566498157317773
 20
51.57145917293052
 30
0.0
 11
-4.066448214559191
 21
50.90475505211775
 31
0.0
 12
-1.816360823500133
 22
49.73825694079988
 32
0.0
 13
-1.816360823500133
 23
49.73825694079988
 33
0.0
  0
POINT
  5
27A
330
1D4
100
AcDbEntity
  8
Defpoints
 62
     0
100
AcDbPoint
 10
-1.816360823500133
 20
49.73825694079988
 30
0.0
  0
POINT
  5
27B
330
1D4
100
AcDbEntity
  8
Defpoints
 62
     0
100
AcDbPoint
 10
-1.690318130200124
 20
49.6437396732999
 30
0.0
  0
ENDBLK
  5
1DC
330
1D4
100
AcDbEntity
  8
0
100
AcDbBlockEnd
  0
BLOCK
  5
1E7
330
1DD
100
AcDbEntity
  8
0
100
AcDbBlockBegin
  2
*D4
 70
     1
 10
0.0
 20
0.0
 30
0.0
  3
*D4
  1

  0
LINE
  5
26D
330
1DD
100
AcDbEntity
  8
SK2
 62
     0
370
    -2
100
AcDbLine
 10
0.625
 20
11.0
 30
0.0
 11
11.87827185460389
 21
10.99999999999999
 31
0.0
  0
LINE
  5
26E
330
1DD
100
AcDbEntity
  8
SK2
 62
     0
370
    -2
100
AcDbLine
 10
0.6250000000001707
 20
-11.0
 30
0.0
 11
11.87827185460389
 21
-11.0
 31
0.0
  0
LINE
  5
26F
330
1DD
100
AcDbEntity
  8
SK2
 62
     0
370
    -2
100
AcDbLine
 10
10.62827185460389
 20
8.499999999999998
 30
0.0
 11
10.62827185460389
 21
-8.500000000000001
 31
0.0
  0
SOLID
  5
270
330
1DD
100
AcDbEntity
  8
SK2
 62
     0
100
AcDbTrace
 10
10.21160518793723
 20
8.499999999999998
 30
0.0
 11
11.04493852127056
 21
8.499999999999998
 31
0.0
 12
10.62827185460389
 22
10.99999999999999
 32
0.0
 13
10.62827185460389
 23
10.99999999999999
 33
0.0
  0
SOLID
  5
271
330
1DD
100
AcDbEntity
  8
SK2
 62
     0
100
AcDbTrace
 10
10.21160518793722
 20
-8.500000000000001
 30
0.0
 11
11.04493852127055
 21
-8.500000000000001
 31
0.0
 12
10.62827185460389
 22
-11.0
 32
0.0
 13
10.62827185460389
 23
-11.0
 33
0.0
  0
MTEXT
  5
272
330
1DD
100
AcDbEntity
  8
SK2
 62
     0
100
AcDbMText
 10
8.252927366414919
 20
0.2063603685215017
 30
0.0
 40
3.5
 41
0.0
 71
     5
 72
     1
  1
%%C22
 11
0.0000000000000001
 21
1.0
 31
0.0
 73
     1
 44
1.0
  0
POINT
  5
273
330
1DD
100
AcDbEntity
  8
Defpoints
 62
     0
100
AcDbPoint
 10
0.0
 20
11.0
 30
0.0
  0
POINT
  5
274
330
1DD
100
AcDbEntity
  8
Defpoints
 62
     0
100
AcDbPoint
 10
0.0000000000001705
 20
-11.0
 30
0.0
  0
POINT
  5
275
330
1DD
100
AcDbEntity
  8
Defpoints
 62
     0
100
AcDbPoint
 10
10.62827185460389
 20
-11.0
 30
0.0
  0
ENDBLK
  5
1E8
330
1DD
100
AcDbEntity
  8
0
100
AcDbBlockEnd
  0
BLOCK
  5
1F3
330
1E9
100
AcDbEntity
  8
0
100
AcDbBlockBegin
  2
*D5
 70
     1
 10
0.0
 20
0.0
 30
0.0
  3
*D5
  1

  0
LINE
  5
264
330
1E9
100
AcDbEntity
  8
2
 62
     0
370
    -2
100
AcDbLine
 10
1.125
 20
19.5
 30
0.0
 11
21.1436717650131
 21
19.49999999999999
 31
0.0
  0
LINE
  5
265
330
1E9
100
AcDbEntity
  8
2
 62
     0
370
    -2
100
AcDbLine
 10
1.125
 20
-19.5
 30
0.0
 11
21.14367176501307
 21
-19.5
 31
0.0
  0
LINE
  5
266
330
1E9
100
AcDbEntity
  8
2
 62
     0
370
    -2
100
AcDbLine
 10
19.8936717650131
 20
16.99999999999999
 30
0.0
 11
19.89367176501309
 21
-17.0
 31
0.0
  0
SOLID
  5
267
330
1E9
100
AcDbEntity
  8
2
 62
     0
100
AcDbTrace
 10
19.47700509834642
 20
16.99999999999999
 30
0.0
 11
20.31033843167976
 21
16.99999999999999
 31
0.0
 12
19.8936717650131
 22
19.49999999999999
 32
0.0
 13
19.8936717650131
 23
19.49999999999999
 33
0.0
  0
SOLID
  5
268
330
1E9
100
AcDbEntity
  8
2
 62
     0
100
AcDbTrace
 10
19.47700509834642
 20
-17.0
 30
0.0
 11
20.31033843167976
 21
-17.0
 31
0.0
 12
19.89367176501309
 22
-19.5
 32
0.0
 13
19.89367176501309
 23
-19.5
 33
0.0
  0
MTEXT
  5
269
330
1E9
100
AcDbEntity
  8
2
 62
     0
100
AcDbMText
 10
17.51867176501307
 20
-0.7805231725780855
 30
0.0
 40
3.5
 41
0.0
 71
     5
 72
     1
  1
%%c39
 11
0.0000000000000001
 21
1.0
 31
0.0
 73
     1
 44
1.0
  0
POINT
  5
26A
330
1E9
100
AcDbEntity
  8
Defpoints
 62
     0
100
AcDbPoint
 10
0.5
 20
19.5
 30
0.0
  0
POINT
  5
26B
330
1E9
100
AcDbEntity
  8
Defpoints
 62
     0
100
AcDbPoint
 10
0.5
 20
-19.5
 30
0.0
  0
POINT
  5
26C
330
1E9
100
AcDbEntity
  8
Defpoints
 62
     0
100
AcDbPoint
 10
19.89367176501309
 20
-19.5
 30
0.0
  0
ENDBLK
  5
1F4
330
1E9
100
AcDbEntity
  8
0
100
AcDbBlockEnd
  0
BLOCK
  5
201
330
1F5
100
AcDbEntity
  8
0
100
AcDbBlockBegin
  2
*D6
 70
     1
 10
0.0
 20
0.0
 30
0.0
  3
*D6
  1

  0
LINE
  5
259
330
1F5
100
AcDbEntity
  8
2
 62
     0
370
    -2
100
AcDbLine
 10
-2.399999999999977
 20
-20.62500000000011
 30
0.0
 11
-2.399999999999977
 21
-22.84542899150019
 31
0.0
  0
LINE
  5
25A
330
1F5
100
AcDbEntity
  8
2
 62
     0
370
    -2
100
AcDbLine
 10
0.0
 20
-20.62500000000011
 30
0.0
 11
-0.0000000000000002
 21
-22.84542899150019
 31
0.0
  0
LINE
  5
25B
330
1F5
100
AcDbEntity
  8
2
 62
     0
370
    -2
100
AcDbLine
 10
2.5
 20
-21.59542899150019
 30
0.0
 11
5.0
 21
-21.59542899150019
 31
0.0
  0
LINE
  5
25C
330
1F5
100
AcDbEntity
  8
2
 62
     0
370
    -2
100
AcDbLine
 10
-4.899999999999976
 20
-21.59542899150019
 30
0.0
 11
-16.43174548107798
 21
-21.59542899150019
 31
0.0
  0
LINE
  5
25D
330
1F5
100
AcDbEntity
  8
2
 62
     0
370
    -2
100
AcDbLine
 10
-0.0000000000000001
 20
-21.59542899150019
 30
0.0
 11
-2.399999999999977
 21
-21.59542899150019
 31
0.0
  0
SOLID
  5
25E
330
1F5
100
AcDbEntity
  8
2
 62
     0
100
AcDbTrace
 10
2.5
 20
-21.17876232483353
 30
0.0
 11
2.5
 21
-22.01209565816685
 31
0.0
 12
-0.0000000000000001
 22
-21.59542899150019
 32
0.0
 13
-0.0000000000000001
 23
-21.59542899150019
 33
0.0
  0
SOLID
  5
25F
330
1F5
100
AcDbEntity
  8
2
 62
     0
100
AcDbTrace
 10
-4.899999999999976
 20
-21.17876232483353
 30
0.0
 11
-4.899999999999976
 21
-22.01209565816685
 31
0.0
 12
-2.399999999999977
 22
-21.59542899150019
 32
0.0
 13
-2.399999999999977
 23
-21.59542899150019
 33
0.0
  0
MTEXT
  5
260
330
1F5
100
AcDbEntity
  8
2
 62
     0
100
AcDbMText
 10
-13.04980650470003
 20
-18.95758450331122
 30
0.0
 40
3.5
 41
0.0
 71
     5
 72
     1
  1
2,4
 73
     1
 44
1.0
  0
POINT
  5
261
330
1F5
100
AcDbEntity
  8
Defpoints
 62
     0
100
AcDbPoint
 10
-2.399999999999977
 20
-20.00000000000011
 30
0.0
  0
POINT
  5
262
330
1F5
100
AcDbEntity
  8
Defpoints
 62
     0
100
AcDbPoint
 10
0.0
 20
-20.00000000000011
 30
0.0
  0
POINT
  5
263
330
1F5
100
AcDbEntity
  8
Defpoints
 62
     0
100
AcDbPoint
 10
-0.0000000000000001
 20
-21.59542899150019
 30
0.0
  0
ENDBLK
  5
202
330
1F5
100
AcDbEntity
  8
0
100
AcDbBlockEnd
  0
BLOCK
  5
20F
330
203
100
AcDbEntity
  8
0
100
AcDbBlockBegin
  2
*D7
 70
     1
 10
0.0
 20
0.0
 30
0.0
  3
*D7
  1

  0
LINE
  5
24E
330
203
100
AcDbEntity
  8
2
 62
     0
370
    -2
100
AcDbLine
 10
-2.0
 20
50.77249022079989
 30
0.0
 11
-1.999999999999999
 21
61.9514111059
 31
0.0
  0
LINE
  5
24F
330
203
100
AcDbEntity
  8
2
 62
     0
370
    -2
100
AcDbLine
 10
-0.3999999999999772
 20
50.86344246939997
 30
0.0
 11
-0.3999999999999765
 21
61.9514111059
 31
0.0
  0
LINE
  5
250
330
203
100
AcDbEntity
  8
2
 62
     0
370
    -2
100
AcDbLine
 10
-4.499999999999999
 20
60.7014111059
 30
0.0
 11
-6.999999999999999
 21
60.7014111059
 31
0.0
  0
LINE
  5
251
330
203
100
AcDbEntity
  8
2
 62
     0
370
    -2
100
AcDbLine
 10
2.100000000000023
 20
60.7014111059
 30
0.0
 11
18.51182987542205
 21
60.7014111059
 31
0.0
  0
LINE
  5
252
330
203
100
AcDbEntity
  8
2
 62
     0
370
    -2
100
AcDbLine
 10
-1.999999999999999
 20
60.7014111059
 30
0.0
 11
-0.3999999999999766
 21
60.7014111059
 31
0.0
  0
SOLID
  5
253
330
203
100
AcDbEntity
  8
2
 62
     0
100
AcDbTrace
 10
-4.499999999999999
 20
61.11807777256667
 30
0.0
 11
-4.499999999999999
 21
60.28474443923334
 31
0.0
 12
-1.999999999999999
 22
60.7014111059
 32
0.0
 13
-1.999999999999999
 23
60.7014111059
 33
0.0
  0
SOLID
  5
254
330
203
100
AcDbEntity
  8
2
 62
     0
100
AcDbTrace
 10
2.100000000000023
 20
61.11807777256667
 30
0.0
 11
2.100000000000023
 21
60.28474443923334
 31
0.0
 12
-0.3999999999999766
 22
60.7014111059
 32
0.0
 13
-0.3999999999999766
 23
60.7014111059
 33
0.0
  0
MTEXT
  5
255
330
203
100
AcDbEntity
  8
2
 62
     0
100
AcDbMText
 10
15.6125188518
 20
63.33891110590001
 30
0.0
 40
3.5
 41
0.0
 71
     5
 72
     1
  1
1,6
 73
     1
 44
1.0
  0
POINT
  5
256
330
203
100
AcDbEntity
  8
Defpoints
 62
     0
100
AcDbPoint
 10
-2.0
 20
50.14749022079989
 30
0.0
  0
POINT
  5
257
330
203
100
AcDbEntity
  8
Defpoints
 62
     0
100
AcDbPoint
 10
-0.3999999999999772
 20
50.23844246939997
 30
0.0
  0
POINT
  5
258
330
203
100
AcDbEntity
  8
Defpoints
 62
     0
100
AcDbPoint
 10
-0.3999999999999766
 20
60.7014111059
 30
0.0
  0
ENDBLK
  5
210
330
203
100
AcDbEntity
  8
0
100
AcDbBlockEnd
  0
ENDSEC
  0
SECTION
  2
ENTITIES
  0
TEXT
  5
128
330
1F
100
AcDbEntity
  8
6
100
AcDbText
 10
28.82933216362313
 20
-48.32949355473561
 30
0.0
 40
5.0
  1
31J6L100016BA-00
 41
0.8
 72
     1
 11
50.43090696677274
 21
-48.32949355473561
 31
0.0
100
AcDbText
  0
LINE
  5
129
330
1F
100
AcDbEntity
  8
1
100
AcDbLine
 10
-0.6999999999999888
 20
-37.61849000060002
 30
0.0
 11
-0.6999999999999888
 21
-19.51275638580009
 31
0.0
  0
LINE
  5
12A
330
1F
100
AcDbEntity
  8
1
100
AcDbLine
 10
-1.699999999999988
 20
-37.61849000060002
 30
0.0
 11
-1.699999999999988
 21
-19.51275638580009
 31
0.0
  0
DIMENSION
  5
12B
330
1F
100
AcDbEntity
  8
2
100
AcDbDimension
  2
*D2
 10
-28.03676470580013
 20
-50.0
 30
0.0
 11
-28.03676470580012
 21
1.291176470599907
 31
0.0
 70
   160
  1
%%c<>
 71
     5
 42
99.99999999999987
  3
ISO-25
100
AcDbAlignedDimension
 13
-1.699999999999988
 23
49.99999999999989
 33
0.0
 14
-1.699999999999988
 24
-50.0
 34
0.0
 50
270.0
100
AcDbRotatedDimension
  0
LINE
  5
12C
330
1F
100
AcDbEntity
  8
1
100
AcDbLine
 10
-1.990401995299975
 20
-40.3594584101
 30
0.0
 11
-1.699999999999988
 21
-37.61849000060002
 31
0.0
  0
LINE
  5
12D
330
1F
100
AcDbEntity
  8
1
100
AcDbLine
 10
-1.984694308499966
 20
-40.23834134489999
 30
0.0
 11
-1.699999999999988
 21
-36.30045317790009
 31
0.0
  0
LINE
  5
12E
330
1F
100
AcDbEntity
  8
1
100
AcDbLine
 10
-0.4153056914001354
 20
-40.23834134489999
 30
0.0
 11
-0.6999999999999888
 21
-36.30045317790009
 31
0.0
  0
LINE
  5
12F
330
1F
100
AcDbEntity
  8
1
100
AcDbLine
 10
-0.4095980047001151
 20
-40.3594584101
 30
0.0
 11
-0.6999999999999888
 21
-37.61849000060002
 31
0.0
  0
LINE
  5
130
330
1F
100
AcDbEntity
  8
1
100
AcDbLine
 10
-0.6999999999999888
 20
-46.4500000000001
 30
0.0
 11
-0.6999999999999888
 21
-42.55913687160009
 31
0.0
  0
LINE
  5
131
330
1F
100
AcDbEntity
  8
1
100
AcDbLine
 10
-1.699999999999988
 20
-46.4500000000001
 30
0.0
 11
-1.699999999999988
 21
-42.55913687160009
 31
0.0
  0
LINE
  5
132
330
1F
100
AcDbEntity
  8
1
100
AcDbLine
 10
-1.699999999999988
 20
-46.10600026340009
 30
0.0
 11
-0.6999999999999888
 21
-46.10600026340009
 31
0.0
  0
LINE
  5
133
330
1F
100
AcDbEntity
  8
1
100
AcDbLine
 10
-0.6999999999999888
 20
-46.38026286839997
 30
0.0
 11
-1.699999999999988
 21
-46.38026286839997
 31
0.0
  0
LINE
  5
134
330
1F
100
AcDbEntity
  8
1
100
AcDbLine
 10
-0.6999999999999888
 20
-46.4500000000001
 30
0.0
 11
-1.699999999999988
 21
-46.4500000000001
 31
0.0
  0
LINE
  5
135
330
1F
100
AcDbEntity
  8
1
100
AcDbLine
 10
-1.699999999999988
 20
-46.49901085159998
 30
0.0
 11
-0.6999999999999888
 21
-46.49901085159998
 31
0.0
  0
LINE
  5
136
330
1F
100
AcDbEntity
  8
1
100
AcDbLine
 10
-1.839035582000006
 20
-49.99901085159999
 30
0.0
 11
-0.5609644180000828
 21
-49.99901085159999
 31
0.0
  0
LINE
  5
137
330
1F
100
AcDbEntity
  8
1
100
AcDbLine
 10
-1.990401995299975
 20
-49.88703413000002
 30
0.0
 11
-1.699999999999988
 21
-46.49901085159998
 31
0.0
  0
LINE
  5
138
330
1F
100
AcDbEntity
  8
1
100
AcDbLine
 10
-1.699999999999988
 20
-46.49901085159998
 30
0.0
 11
-1.699999999999988
 21
-46.4500000000001
 31
0.0
  0
LWPOLYLINE
  5
139
330
1F
100
AcDbEntity
  8
1
100
AcDbPolyline
 90
       11
 70
     0
 43
0.0
 10
-1.990401995299975
 20
-49.88703413000002
 10
-1.983173454400002
 20
-49.9061373448001
 10
-1.973797493800134
 20
-49.9238493676001
 10
-1.962175257000124
 20
-49.94028628939997
 10
-1.948603313700004
 20
-49.95509983680012
 10
-1.933256801100128
 20
-49.96803191969999
 10
-1.916401160800148
 20
-49.9789280800001
 10
-1.8982610746001
 20
-49.9875789093001
 10
-1.879133960200021
 20
-49.99389116859997
 10
-1.859438668299958
 20
-49.99768143579998
 10
-1.839035582000006
 20
-49.99901085159999
  0
LINE
  5
13A
330
1F
100
AcDbEntity
  8
1
100
AcDbLine
 10
-0.6999999999999888
 20
-46.49901085159998
 30
0.0
 11
-0.6999999999999888
 21
-46.4500000000001
 31
0.0
  0
LINE
  5
13B
330
1F
100
AcDbEntity
  8
1
100
AcDbLine
 10
-0.4095980047001151
 20
-49.88703413000002
 30
0.0
 11
-0.6999999999999888
 21
-46.49901085159998
 31
0.0
  0
LWPOLYLINE
  5
13C
330
1F
100
AcDbEntity
  8
1
100
AcDbPolyline
 90
       11
 70
     0
 43
0.0
 10
-0.5609644180000828
 20
-49.99901085159999
 10
-0.5405613315999746
 20
-49.99768143579998
 10
-0.5208660397001382
 20
-49.99389116859997
 10
-0.501738925300117
 20
-49.9875789093001
 10
-0.4835988391001253
 20
-49.9789280800001
 10
-0.4667431989001332
 20
-49.96803191969999
 10
-0.451396686199985
 20
-49.95509983680012
 10
-0.4378247429000341
 20
-49.94028628939997
 10
-0.4262025061000261
 20
-49.9238493676001
 10
-0.4168265455999747
 20
-49.9061373448001
 10
-0.4095980047001151
 20
-49.88703413000002
  0
LINE
  5
13D
330
1F
100
AcDbEntity
  8
1
100
AcDbLine
 10
-1.839035582000006
 20
-40.45004948090009
 30
0.0
 11
-0.5609644180000828
 21
-40.45004948090009
 31
0.0
  0
LINE
  5
13E
330
1F
100
AcDbEntity
  8
1
100
AcDbLine
 10
-1.699999999999988
 20
-42.55913687160009
 30
0.0
 11
-0.6999999999999888
 21
-42.55913687160009
 31
0.0
  0
LWPOLYLINE
  5
13F
330
1F
100
AcDbEntity
  8
1
100
AcDbPolyline
 90
        4
 70
     0
 43
0.0
 10
-1.984694308499966
 20
-40.23834134489999
 10
-1.985181990099988
 20
-40.24559436230001
 10
-1.985645469399969
 20
-40.25305101799999
 10
-1.986499821499988
 20
-40.26857524440001
  0
LINE
  5
140
330
1F
100
AcDbEntity
  8
1
100
AcDbLine
 10
-1.986499821499988
 20
-40.26857524440001
 30
0.0
 11
-1.987305535100119
 21
-40.2848947967
 31
0.0
  0
LINE
  5
141
330
1F
100
AcDbEntity
  8
1
100
AcDbLine
 10
-1.987305535100119
 20
-40.2848947967
 30
0.0
 11
-1.988470925300076
 21
-40.3109525981001
 31
0.0
  0
LINE
  5
142
330
1F
100
AcDbEntity
  8
1
100
AcDbLine
 10
-1.988470925300076
 20
-40.3109525981001
 30
0.0
 11
-1.990401995299975
 21
-40.3594584101
 31
0.0
  0
LINE
  5
143
330
1F
100
AcDbEntity
  8
1
100
AcDbLine
 10
-1.699999999999988
 20
-41.03633764200012
 30
0.0
 11
-1.699999999999988
 21
-42.55913687160009
 31
0.0
  0
LWPOLYLINE
  5
144
330
1F
100
AcDbEntity
  8
1
100
AcDbPolyline
 90
        7
 70
     0
 43
0.0
 10
-1.988261857600149
 20
-40.37243629659999
 10
-1.988470925300076
 20
-40.37151129320006
 10
-1.98885511489999
 20
-40.36960543020009
 10
-1.9892394319001
 20
-40.36744547419996
 10
-1.98962470189997
 20
-40.36503169870011
 10
-1.990012385300133
 20
-40.36236999900009
 10
-1.990401995299975
 20
-40.3594584101
  0
LINE
  5
145
330
1F
100
AcDbEntity
  8
1
100
AcDbLine
 10
-1.839035582000006
 20
-40.45004948090009
 30
0.0
 11
-1.699999999999988
 21
-41.03633764200012
 31
0.0
  0
LINE
  5
146
330
1F
100
AcDbEntity
  8
1
100
AcDbLine
 10
-1.988282759700154
 20
-40.3723446294
 30
0.0
 11
-1.700013401799989
 21
-41.58792490999998
 31
0.0
  0
LWPOLYLINE
  5
147
330
1F
100
AcDbEntity
  8
1
100
AcDbPolyline
 90
       11
 70
     0
 43
0.0
 10
-1.990401995299975
 20
-40.3594584101
 10
-1.983173454400002
 20
-40.37491323560002
 10
-1.973797493800134
 20
-40.389242563
 10
-1.962175257000124
 20
-40.40254031200009
 10
-1.948603313700004
 20
-40.41452472370011
 10
-1.933256801100128
 20
-40.4249869985001
 10
-1.916401160800148
 20
-40.4338021774001
 10
-1.8982610746001
 20
-40.4408008453
 10
-1.879133960200021
 20
-40.4459075703001
 10
-1.859438668299958
 20
-40.44897396090019
 10
-1.839035582000006
 20
-40.45004948090009
  0
LINE
  5
148
330
1F
100
AcDbEntity
  8
1
100
AcDbLine
 10
-0.6999865981999847
 20
-41.58792490999998
 30
0.0
 11
-0.4117172402000051
 21
-40.3723446294
 31
0.0
  0
LINE
  5
149
330
1F
100
AcDbEntity
  8
1
100
AcDbLine
 10
-0.6999999999999888
 20
-41.03633764200012
 30
0.0
 11
-0.5609644180000828
 21
-40.45004948090009
 31
0.0
  0
LWPOLYLINE
  5
14A
330
1F
100
AcDbEntity
  8
1
100
AcDbPolyline
 90
        7
 70
     0
 43
0.0
 10
-0.4095980047001151
 20
-40.3594584101
 10
-0.4099876145999703
 20
-40.36236999900009
 10
-0.4103752980001333
 20
-40.36503169870011
 10
-0.4107605680000006
 20
-40.36744547419996
 10
-0.4111448850001125
 20
-40.36960543020009
 10
-0.4115290745999687
 20
-40.37151129320006
 10
-0.4117381423000098
 20
-40.37243629659999
  0
LINE
  5
14B
330
1F
100
AcDbEntity
  8
1
100
AcDbLine
 10
-0.6999999999999888
 20
-42.55913687160009
 30
0.0
 11
-0.6999999999999888
 21
-41.03633764200012
 31
0.0
  0
LINE
  5
14C
330
1F
100
AcDbEntity
  8
1
100
AcDbLine
 10
-0.4095980047001151
 20
-40.3594584101
 30
0.0
 11
-0.4107605680000006
 21
-40.32952556450001
 31
0.0
  0
LINE
  5
14D
330
1F
100
AcDbEntity
  8
1
100
AcDbLine
 10
-0.4107605680000006
 20
-40.32952556450001
 30
0.0
 11
-0.4123022569000911
 21
-40.29335738020009
 31
0.0
  0
LINE
  5
14E
330
1F
100
AcDbEntity
  8
1
100
AcDbLine
 10
-0.4123022569000911
 20
-40.29335738020009
 30
0.0
 11
-0.413500178500158
 21
-40.26857524440001
 31
0.0
  0
LINE
  5
14F
330
1F
100
AcDbEntity
  8
1
100
AcDbLine
 10
-0.413500178500158
 20
-40.26857524440001
 30
0.0
 11
-0.4143545305001341
 21
-40.25305101799999
 31
0.0
  0
LWPOLYLINE
  5
150
330
1F
100
AcDbEntity
  8
1
100
AcDbPolyline
 90
        3
 70
     0
 43
0.0
 10
-0.4143545305001341
 20
-40.25305101799999
 10
-0.414818009899989
 20
-40.24559436230001
 10
-0.4153056914001354
 20
-40.23834134489999
  0
LWPOLYLINE
  5
151
330
1F
100
AcDbEntity
  8
1
100
AcDbPolyline
 90
       11
 70
     0
 43
0.0
 10
-0.5609644180000828
 20
-40.45004948090009
 10
-0.5405613315999746
 20
-40.44897396090019
 10
-0.5208660397001382
 20
-40.4459075703001
 10
-0.501738925300117
 20
-40.4408008453
 10
-0.4835988391001253
 20
-40.4338021774001
 10
-0.4667431989001332
 20
-40.4249869985001
 10
-0.451396686199985
 20
-40.41452472370011
 10
-0.4378247429000341
 20
-40.40254031200009
 10
-0.4262025061000261
 20
-40.389242563
 10
-0.4168265455999747
 20
-40.37491323560002
 10
-0.4095980047001151
 20
-40.3594584101
  0
LINE
  5
152
330
1F
100
AcDbEntity
  8
1
100
AcDbLine
 10
-0.6999999999999888
 20
-32.8491074236
 30
0.0
 11
-1.699999999999988
 21
-32.8491074236
 31
0.0
  0
LINE
  5
153
330
1F
100
AcDbEntity
  8
1
100
AcDbLine
 10
-0.6999999999999888
 20
-37.60587328200012
 30
0.0
 11
-1.699999999999988
 21
-37.60587328200012
 31
0.0
  0
LINE
  5
154
330
1F
100
AcDbEntity
  8
1
100
AcDbLine
 10
-1.699999999999988
 20
-37.61849000060002
 30
0.0
 11
-0.6999999999999888
 21
-37.61849000060002
 31
0.0
  0
LINE
  5
155
330
1F
100
AcDbEntity
  8
1
100
AcDbLine
 10
-0.6999999999999888
 20
-28.55387647169998
 30
0.0
 11
-1.699999999999988
 21
-28.55387647169998
 31
0.0
  0
DIMENSION
  5
156
330
1F
100
AcDbEntity
  8
2
100
AcDbDimension
  2
*D3
 10
-1.690318130200124
 20
49.6437396732999
 30
0.0
 11
-18.45016291845109
 21
62.21166163398672
 31
0.0
 70
   164
  1
<>
 71
     5
 42
0.1575445155820496
  3
ISO-25
100
AcDbRadialDimension
 15
-1.816360823500133
 25
49.73825694079988
 35
0.0
 40
0.0
  0
ARC
  5
157
330
1F
100
AcDbEntity
  8
1
100
AcDbCircle
 10
-2.5
 20
20.29372539329997
 30
0.0
 40
0.8
100
AcDbArc
 50
277.1807557815009
 51
0.0
  0
ARC
  5
158
330
1F
100
AcDbEntity
  8
1
100
AcDbCircle
 10
0.0999999999999091
 20
20.29372539329997
 30
0.0
 40
0.8
100
AcDbArc
 50
180.0
 51
262.8192442184988
  0
LINE
  5
159
330
1F
100
AcDbEntity
  8
1
100
AcDbLine
 10
-0.6999999999999888
 20
15.45054405509989
 30
0.0
 11
-0.6999999999999888
 21
37.23548351489978
 31
0.0
  0
LINE
  5
15A
330
1F
100
AcDbEntity
  8
1
100
AcDbLine
 10
-1.699999999999988
 20
15.45054405509989
 30
0.0
 11
-1.699999999999988
 21
37.23548351489978
 31
0.0
  0
DIMENSION
  5
15B
330
1F
100
AcDbEntity
  8
SK2
100
AcDbDimension
  2
*D4
 10
10.62827185460389
 20
-11.0
 30
0.0
 11
10.62827185460389
 21
0.2063603685215014
 31
0.0
 70
   160
  1
%%C<>
 71
     5
 42
22.0
  3
ISO-25
100
AcDbAlignedDimension
 13
0.0
 23
11.0
 33
0.0
 14
0.0000000000001705
 24
-11.0
 34
0.0
 50
90.0
100
AcDbRotatedDimension
  0
DIMENSION
  5
15C
330
1F
100
AcDbEntity
  8
2
100
AcDbDimension
  2
*D5
 10
19.89367176501309
 20
-19.5
 30
0.0
 11
19.89367176501309
 21
-0.7805231725780857
 31
0.0
 70
   160
  1
%%c<>
 71
     5
 42
39.0
  3
ISO-25
100
AcDbAlignedDimension
 13
0.5
 23
19.5
 33
0.0
 14
0.5
 24
-19.5
 34
0.0
 50
270.0
100
AcDbRotatedDimension
  0
LINE
  5
15D
330
1F
100
AcDbEntity
  8
1
100
AcDbLine
 10
0.0
 20
19.49967302799996
 30
0.0
 11
0.0
 21
-19.4996730279
 31
0.0
  0
LINE
  5
15E
330
1F
100
AcDbEntity
  8
1
100
AcDbLine
 10
-0.6999999999999888
 20
-14.3689845748
 30
0.0
 11
-0.6999999999999888
 21
10.95324773909999
 31
0.0
  0
LINE
  5
15F
330
1F
100
AcDbEntity
  8
1
100
AcDbLine
 10
-1.699999999999988
 20
-14.3689845748
 30
0.0
 11
-1.699999999999988
 21
10.95324773909999
 31
0.0
  0
LINE
  5
160
330
1F
100
AcDbEntity
  8
1
100
AcDbLine
 10
-2.399999999999977
 20
19.49967302799996
 30
0.0
 11
-2.399999999999977
 21
-19.4996730279
 31
0.0
  0
DIMENSION
  5
161
330
1F
100
AcDbEntity
  8
2
100
AcDbDimension
  2
*D6
 10
-0.0000000000000001
 20
-21.59542899150019
 30
0.0
 11
-13.04980650470003
 21
-21.59542899150019
 31
0.0
 70
   160
 71
     5
 42
2.399999999999977
  3
ISO-25
100
AcDbAlignedDimension
 13
-2.399999999999977
 23
-20.00000000000011
 33
0.0
 14
0.0
 24
-20.00000000000011
 34
0.0
100
AcDbRotatedDimension
  0
LINE
  5
162
330
1F
100
AcDbEntity
  8
1
100
AcDbLine
 10
-1.990401995299975
 20
-15.41594134510009
 30
0.0
 11
-1.699999999999988
 21
-14.3689845748
 31
0.0
  0
LINE
  5
163
330
1F
100
AcDbEntity
  8
1
100
AcDbLine
 10
-0.4095980047001151
 20
-15.41594134510009
 30
0.0
 11
-0.6999999999999888
 21
-14.3689845748
 31
0.0
  0
LINE
  5
164
330
1F
100
AcDbEntity
  8
1
100
AcDbLine
 10
-1.699999999999988
 20
-26.71245901860001
 30
0.0
 11
-0.6999999999999888
 21
-26.71245901860001
 31
0.0
  0
LINE
  5
165
330
1F
100
AcDbEntity
  8
1
100
AcDbLine
 10
-1.839035582000006
 20
-15.45054405510009
 30
0.0
 11
-0.5609644180000828
 21
-15.45054405510009
 31
0.0
  0
LINE
  5
166
330
1F
100
AcDbEntity
  8
1
100
AcDbLine
 10
-1.699999999999988
 20
-19.52558512909999
 30
0.0
 11
-0.6999999999999888
 21
-19.52558512909999
 31
0.0
  0
ARC
  5
167
330
1F
100
AcDbEntity
  8
1
100
AcDbCircle
 10
-2.5
 20
-20.29372539330009
 30
0.0
 40
0.8
100
AcDbArc
 50
0.0
 51
82.81924421849906
  0
LINE
  5
168
330
1F
100
AcDbEntity
  8
1
100
AcDbLine
 10
-1.839035582000006
 20
-15.45054405510009
 30
0.0
 11
-1.699999999999988
 21
-16.58333179450008
 31
0.0
  0
LINE
  5
169
330
1F
100
AcDbEntity
  8
1
100
AcDbLine
 10
-1.985645469399969
 20
-15.49832288360019
 30
0.0
 11
-1.700014719700106
 21
-17.82551064340012
 31
0.0
  0
LINE
  5
16A
330
1F
100
AcDbEntity
  8
1
100
AcDbLine
 10
-1.699999999999988
 20
-16.58333179450008
 30
0.0
 11
-1.699999999999988
 21
-19.52558512909999
 31
0.0
  0
LINE
  5
16B
330
1F
100
AcDbEntity
  8
1
100
AcDbLine
 10
-1.9892394319001
 20
-15.4424279252
 30
0.0
 11
-1.990401995299975
 21
-15.41594134510009
 31
0.0
  0
LINE
  5
16C
330
1F
100
AcDbEntity
  8
1
100
AcDbLine
 10
-1.988470925300076
 20
-15.4579724687001
 30
0.0
 11
-1.9892394319001
 21
-15.4424279252
 31
0.0
  0
LINE
  5
16D
330
1F
100
AcDbEntity
  8
1
100
AcDbLine
 10
-1.987697743000125
 20
-15.47184671760001
 30
0.0
 11
-1.988470925300076
 21
-15.4579724687001
 31
0.0
  0
LWPOLYLINE
  5
16E
330
1F
100
AcDbEntity
  8
1
100
AcDbPolyline
 90
        6
 70
     0
 43
0.0
 10
-1.985645469399969
 20
-15.49832288360019
 10
-1.986081735900026
 20
-15.49416175290008
 10
-1.986499821499988
 20
-15.48933181500012
 10
-1.986907330900123
 20
-15.48398542470008
 10
-1.987305535100119
 20
-15.47813573220008
 10
-1.987697743000125
 20
-15.47184671760001
  0
LWPOLYLINE
  5
16F
330
1F
100
AcDbEntity
  8
1
100
AcDbPolyline
 90
       11
 70
     0
 43
0.0
 10
-1.990401995299975
 20
-15.41594134510009
 10
-1.983173454400002
 20
-15.42184456310009
 10
-1.973797493800134
 20
-15.42731787920009
 10
-1.962175257000124
 20
-15.43239716730018
 10
-1.948603313700004
 20
-15.43697480530019
 10
-1.933256801100128
 20
-15.44097103859999
 10
-1.916401160800148
 20
-15.44433813740022
 10
-1.8982610746001
 20
-15.4470113906
 10
-1.879133960200021
 20
-15.44896198600002
 10
-1.859438668299958
 20
-15.45013324300001
 10
-1.839035582000006
 20
-15.45054405510009
  0
ARC
  5
170
330
1F
100
AcDbEntity
  8
1
100
AcDbCircle
 10
0.0999999999999091
 20
-20.29372539330009
 30
0.0
 40
0.8
100
AcDbArc
 50
97.18075578150095
 51
180.0
  0
LINE
  5
171
330
1F
100
AcDbEntity
  8
1
100
AcDbLine
 10
-0.6999999999999888
 20
-16.58333179450008
 30
0.0
 11
-0.5609644180000828
 21
-15.45054405510009
 31
0.0
  0
LWPOLYLINE
  5
172
330
1F
100
AcDbEntity
  8
1
100
AcDbPolyline
 90
        8
 70
     0
 43
0.0
 10
-0.4115290745999687
 20
-15.4579724687001
 10
-0.4123022569000911
 20
-15.47184671760001
 10
-0.4126944648000972
 20
-15.47813573220008
 10
-0.4130926689999799
 20
-15.48398542470008
 10
-0.413500178500158
 20
-15.48933181500012
 10
-0.4139182639999607
 20
-15.49416175290008
 10
-0.4143545305001341
 20
-15.49832288360019
 10
-0.6999852801999964
 20
-17.82551064340012
  0
LINE
  5
173
330
1F
100
AcDbEntity
  8
1
100
AcDbLine
 10
-0.4107605680000006
 20
-15.4424279252
 30
0.0
 11
-0.4115290745999687
 21
-15.4579724687001
 31
0.0
  0
LINE
  5
174
330
1F
100
AcDbEntity
  8
1
100
AcDbLine
 10
-0.4095980047001151
 20
-15.41594134510009
 30
0.0
 11
-0.4107605680000006
 21
-15.4424279252
 31
0.0
  0
LINE
  5
175
330
1F
100
AcDbEntity
  8
1
100
AcDbLine
 10
-0.6999999999999888
 20
-19.52558512909999
 30
0.0
 11
-0.6999999999999888
 21
-16.58333179450008
 31
0.0
  0
LWPOLYLINE
  5
176
330
1F
100
AcDbEntity
  8
1
100
AcDbPolyline
 90
       11
 70
     0
 43
0.0
 10
-0.5609644180000828
 20
-15.45054405510009
 10
-0.5405613315999746
 20
-15.45013324300001
 10
-0.5208660397001382
 20
-15.44896198600002
 10
-0.501738925300117
 20
-15.4470113906
 10
-0.4835988391001253
 20
-15.44433813740022
 10
-0.4667431989001332
 20
-15.44097103859999
 10
-0.451396686199985
 20
-15.43697480530019
 10
-0.4378247429000341
 20
-15.43239716730018
 10
-0.4262025061000261
 20
-15.42731787920009
 10
-0.4168265455999747
 20
-15.42184456310009
 10
-0.4095980047001151
 20
-15.41594134510009
  0
LINE
  5
177
330
1F
100
AcDbEntity
  8
SK3
100
AcDbLine
 10
-2.399999999999977
 20
-11.0
 30
0.0
 11
0.0
 21
-11.0
 31
0.0
  0
LINE
  5
178
330
1F
100
AcDbEntity
  8
1
100
AcDbLine
 10
-0.6999999999999888
 20
-11.2984511013
 30
0.0
 11
-1.699999999999988
 21
-11.2984511013
 31
0.0
  0
LINE
  5
179
330
1F
100
AcDbEntity
  8
1
100
AcDbLine
 10
-1.699999999999988
 20
-14.3689845748
 30
0.0
 11
-0.6999999999999888
 21
-14.3689845748
 31
0.0
  0
LINE
  5
17A
330
1F
100
AcDbEntity
  8
4
100
AcDbLine
 10
-3.922995491899995
 20
0.0
 30
0.0
 11
1.720810625800024
 21
0.0
 31
0.0
  0
LINE
  5
17B
330
1F
100
AcDbEntity
  8
1
100
AcDbLine
 10
-0.6999999999999888
 20
-1.083065524299994
 30
0.0
 11
-1.699999999999988
 21
-1.083065524299994
 31
0.0
  0
LINE
  5
17C
330
1F
100
AcDbEntity
  8
1
100
AcDbLine
 10
-0.6999999999999888
 20
-3.0869644391
 30
0.0
 11
-1.699999999999988
 21
-3.0869644391
 31
0.0
  0
LINE
  5
17D
330
1F
100
AcDbEntity
  8
1
100
AcDbLine
 10
-1.699999999999988
 20
2.884333648199998
 30
0.0
 11
-0.6999999999999888
 21
2.884333648199998
 31
0.0
  0
LINE
  5
17E
330
1F
100
AcDbEntity
  8
1
100
AcDbLine
 10
-1.984694308499966
 20
15.28655949610001
 30
0.0
 11
-1.699999999999988
 21
12.73397420029991
 31
0.0
  0
LINE
  5
17F
330
1F
100
AcDbEntity
  8
1
100
AcDbLine
 10
-0.6999999999999888
 20
10.95324773909999
 30
0.0
 11
-0.6999999999999888
 21
14.20394315179986
 31
0.0
  0
LINE
  5
180
330
1F
100
AcDbEntity
  8
1
100
AcDbLine
 10
-1.984694308499966
 20
15.28655949610001
 30
0.0
 11
-1.699999999999988
 21
12.23635619739988
 31
0.0
  0
LINE
  5
181
330
1F
100
AcDbEntity
  8
1
100
AcDbLine
 10
-0.6999999999999888
 20
12.73397420029991
 30
0.0
 11
-0.4153056914001354
 21
15.28655949610001
 31
0.0
  0
LINE
  5
182
330
1F
100
AcDbEntity
  8
1
100
AcDbLine
 10
-0.4153056914001354
 20
15.28655949610001
 30
0.0
 11
-0.6999999999999888
 21
12.23635619739988
 31
0.0
  0
LINE
  5
183
330
1F
100
AcDbEntity
  8
1
100
AcDbLine
 10
-1.699999999999988
 20
14.20394315179986
 30
0.0
 11
-1.699999999999988
 21
10.95324773909999
 31
0.0
  0
LINE
  5
184
330
1F
100
AcDbEntity
  8
SK3
100
AcDbLine
 10
-2.399999999999977
 20
11.0
 30
0.0
 11
0.0
 21
11.0
 31
0.0
  0
LINE
  5
185
330
1F
100
AcDbEntity
  8
1
100
AcDbLine
 10
-1.699999999999988
 20
10.96607648249988
 30
0.0
 11
-0.6999999999999888
 21
10.96607648249988
 31
0.0
  0
LINE
  5
186
330
1F
100
AcDbEntity
  8
1
100
AcDbLine
 10
-1.699999999999988
 20
10.95324773909999
 30
0.0
 11
-0.6999999999999888
 21
10.95324773909999
 31
0.0
  0
LINE
  5
187
330
1F
100
AcDbEntity
  8
1
100
AcDbLine
 10
-1.839035582000006
 20
15.45054405509989
 30
0.0
 11
-0.5609644180000828
 21
15.45054405509989
 31
0.0
  0
LINE
  5
188
330
1F
100
AcDbEntity
  8
1
100
AcDbLine
 10
-1.839035582000006
 20
15.45054405509989
 30
0.0
 11
-1.699999999999988
 21
14.20394315179986
 31
0.0
  0
LINE
  5
189
330
1F
100
AcDbEntity
  8
1
100
AcDbLine
 10
-1.98885511489999
 20
15.37032256329978
 30
0.0
 11
-1.990401995299975
 21
15.41594134509989
 31
0.0
  0
LINE
  5
18A
330
1F
100
AcDbEntity
  8
1
100
AcDbLine
 10
-1.987697743000125
 20
15.3405372416
 30
0.0
 11
-1.98885511489999
 21
15.37032256329978
 31
0.0
  0
LINE
  5
18B
330
1F
100
AcDbEntity
  8
1
100
AcDbLine
 10
-1.986907330900123
 20
15.32269934979978
 30
0.0
 11
-1.987697743000125
 21
15.3405372416
 31
0.0
  0
LINE
  5
18C
330
1F
100
AcDbEntity
  8
1
100
AcDbLine
 10
-1.986081735900026
 20
15.3065701543999
 30
0.0
 11
-1.986907330900123
 21
15.32269934979978
 31
0.0
  0
LWPOLYLINE
  5
18D
330
1F
100
AcDbEntity
  8
1
100
AcDbPolyline
 90
        4
 70
     0
 43
0.0
 10
-1.984694308499966
 20
15.28655949610001
 10
-1.985181990099988
 20
15.29260550619992
 10
-1.985645469399969
 20
15.29926336939999
 10
-1.986081735900026
 20
15.3065701543999
  0
LWPOLYLINE
  5
18E
330
1F
100
AcDbEntity
  8
1
100
AcDbPolyline
 90
       11
 70
     0
 43
0.0
 10
-1.990401995299975
 20
15.41594134509989
 10
-1.983173454400002
 20
15.42184456319998
 10
-1.973797493800134
 20
15.42731787919999
 10
-1.962175257000124
 20
15.43239716739989
 10
-1.948603313700004
 20
15.43697480529989
 10
-1.933256801100128
 20
15.44097103869997
 10
-1.916401160800148
 20
15.44433813739991
 10
-1.8982610746001
 20
15.44701139069998
 10
-1.879133960200021
 20
15.44896198599991
 10
-1.859438668299958
 20
15.45013324299992
 10
-1.839035582000006
 20
15.45054405509989
  0
LWPOLYLINE
  5
18F
330
1F
100
AcDbEntity
  8
1
100
AcDbPolyline
 90
       11
 70
     0
 43
0.0
 10
-0.5609644180000828
 20
15.45054405509989
 10
-0.5405613315999746
 20
15.45013324299992
 10
-0.5208660397001382
 20
15.44896198599991
 10
-0.501738925300117
 20
15.44701139069998
 10
-0.4835988391001253
 20
15.44433813739991
 10
-0.4667431989001332
 20
15.44097103869997
 10
-0.451396686199985
 20
15.43697480529989
 10
-0.4378247429000341
 20
15.43239716739989
 10
-0.4262025061000261
 20
15.42731787919999
 10
-0.4168265455999747
 20
15.42184456319998
 10
-0.4095980047001151
 20
15.41594134509989
  0
LINE
  5
190
330
1F
100
AcDbEntity
  8
1
100
AcDbLine
 10
-0.6999999999999888
 20
14.20394315179986
 30
0.0
 11
-0.5609644180000828
 21
15.45054405509989
 31
0.0
  0
LWPOLYLINE
  5
191
330
1F
100
AcDbEntity
  8
1
100
AcDbPolyline
 90
        5
 70
     0
 43
0.0
 10
-0.4130926689999799
 20
15.32269934979978
 10
-0.4139182639999607
 20
15.3065701543999
 10
-0.4143545305001341
 20
15.29926336939999
 10
-0.414818009899989
 20
15.29260550619992
 10
-0.4153056914001354
 20
15.28655949610001
  0
LINE
  5
192
330
1F
100
AcDbEntity
  8
1
100
AcDbLine
 10
-0.4123022569000911
 20
15.3405372416
 30
0.0
 11
-0.4130926689999799
 21
15.32269934979978
 31
0.0
  0
LINE
  5
193
330
1F
100
AcDbEntity
  8
1
100
AcDbLine
 10
-0.4111448850001125
 20
15.37032256329978
 30
0.0
 11
-0.4123022569000911
 21
15.3405372416
 31
0.0
  0
LINE
  5
194
330
1F
100
AcDbEntity
  8
1
100
AcDbLine
 10
-0.4095980047001151
 20
15.41594134509989
 30
0.0
 11
-0.4111448850001125
 21
15.37032256329978
 31
0.0
  0
DIMENSION
  5
195
330
1F
100
AcDbEntity
  8
2
100
AcDbDimension
  2
*D7
 10
-0.3999999999999766
 20
60.7014111059
 30
0.0
 11
15.6125188518
 21
60.7014111059
 31
0.0
 70
   160
 71
     5
 42
1.600000000000022
  3
ISO-25
100
AcDbAlignedDimension
 13
-2.0
 23
50.14749022079989
 33
0.0
 14
-0.3999999999999772
 24
50.23844246939997
 34
0.0
100
AcDbRotatedDimension
  0
LINE
  5
196
330
1F
100
AcDbEntity
  8
1
100
AcDbLine
 10
-0.6999999999999888
 20
40.45004948089998
 30
0.0
 11
-0.6999999999999888
 21
49.2950301754999
 31
0.0
  0
LINE
  5
197
330
1F
100
AcDbEntity
  8
1
100
AcDbLine
 10
-1.699999999999988
 20
40.45004948089998
 30
0.0
 11
-1.699999999999988
 21
49.2950301754999
 31
0.0
  0
LINE
  5
198
330
1F
100
AcDbEntity
  8
1
100
AcDbLine
 10
-0.6999999999999888
 20
21.97551865639999
 30
0.0
 11
-1.699999999999988
 21
21.97551865639999
 31
0.0
  0
LINE
  5
199
330
1F
100
AcDbEntity
  8
1
100
AcDbLine
 10
-0.6999999999999888
 20
26.66514294649987
 30
0.0
 11
-1.699999999999988
 21
26.66514294649987
 31
0.0
  0
LINE
  5
19A
330
1F
100
AcDbEntity
  8
1
100
AcDbLine
 10
-1.984694308499966
 20
40.23834134500001
 30
0.0
 11
-1.699999999999988
 21
36.300453178
 31
0.0
  0
LINE
  5
19B
330
1F
100
AcDbEntity
  8
1
100
AcDbLine
 10
-0.4153056914001354
 20
40.23834134500001
 30
0.0
 11
-0.6999999999999888
 21
36.300453178
 31
0.0
  0
LINE
  5
19C
330
1F
100
AcDbEntity
  8
1
100
AcDbLine
 10
-1.699999999999988
 20
31.37940889629998
 30
0.0
 11
-0.6999999999999888
 21
31.37940889629998
 31
0.0
  0
LINE
  5
19D
330
1F
100
AcDbEntity
  8
1
100
AcDbLine
 10
-1.839035582000006
 20
40.45004948089998
 30
0.0
 11
-0.5609644180000828
 21
40.45004948089998
 31
0.0
  0
LINE
  5
19E
330
1F
100
AcDbEntity
  8
1
100
AcDbLine
 10
-1.699999999999988
 20
37.26906960109978
 30
0.0
 11
-0.6999999999999888
 21
37.26906960109978
 31
0.0
  0
LINE
  5
19F
330
1F
100
AcDbEntity
  8
1
100
AcDbLine
 10
-1.699999999999988
 20
37.23548351489978
 30
0.0
 11
-0.6999999999999888
 21
37.23548351489978
 31
0.0
  0
LWPOLYLINE
  5
1A0
330
1F
100
AcDbEntity
  8
1
100
AcDbPolyline
 90
       10
 70
     0
 43
0.0
 10
-1.984694308499966
 20
40.3728311113999
 10
-1.985181990099988
 20
40.37478409019999
 10
-1.985645469399969
 20
40.37607656359989
 10
-1.986081735900026
 20
40.37665049770001
 10
-1.986499821499988
 20
40.37667999469983
 10
-1.986907330900123
 20
40.37631404839987
 10
-1.987305535100119
 20
40.37556994989997
 10
-1.987697743000125
 20
40.3745110994999
 10
-1.988085445400145
 20
40.37314816309989
 10
-1.988261857600149
 20
40.37243629659989
  0
LINE
  5
1A1
330
1F
100
AcDbEntity
  8
1
100
AcDbLine
 10
-1.839035582000006
 20
40.45004948089998
 30
0.0
 11
-1.699999999999988
 21
39.56579458829988
 31
0.0
  0
LINE
  5
1A2
330
1F
100
AcDbEntity
  8
1
100
AcDbLine
 10
-1.984694308499966
 20
40.23834134500001
 30
0.0
 11
-1.699999999999988
 21
38.42770890399989
 31
0.0
  0
LINE
  5
1A3
330
1F
100
AcDbEntity
  8
1
100
AcDbLine
 10
-1.9892394319001
 20
40.32952556459989
 30
0.0
 11
-1.990401995299975
 21
40.35945841009989
 31
0.0
  0
LINE
  5
1A4
330
1F
100
AcDbEntity
  8
1
100
AcDbLine
 10
-1.987697743000125
 20
40.29335738020001
 30
0.0
 11
-1.9892394319001
 21
40.32952556459989
 31
0.0
  0
LINE
  5
1A5
330
1F
100
AcDbEntity
  8
1
100
AcDbLine
 10
-1.986499821499988
 20
40.2685752445
 30
0.0
 11
-1.987697743000125
 21
40.29335738020001
 31
0.0
  0
LINE
  5
1A6
330
1F
100
AcDbEntity
  8
1
100
AcDbLine
 10
-1.985645469399969
 20
40.25305101799992
 30
0.0
 11
-1.986499821499988
 21
40.2685752445
 31
0.0
  0
LWPOLYLINE
  5
1A7
330
1F
100
AcDbEntity
  8
1
100
AcDbPolyline
 90
        3
 70
     0
 43
0.0
 10
-1.984694308499966
 20
40.23834134500001
 10
-1.985181990099988
 20
40.24559436229987
 10
-1.985645469399969
 20
40.25305101799992
  0
LINE
  5
1A8
330
1F
100
AcDbEntity
  8
1
100
AcDbLine
 10
-1.699999999999988
 20
39.56579458829988
 30
0.0
 11
-1.699999999999988
 21
37.23548351489978
 31
0.0
  0
LINE
  5
1A9
330
1F
100
AcDbEntity
  8
1
100
AcDbLine
 10
-1.984694308499966
 20
40.3728311113999
 30
0.0
 11
-1.699999999999988
 21
41.5733360484999
 31
0.0
  0
LINE
  5
1AA
330
1F
100
AcDbEntity
  8
1
100
AcDbLine
 10
-1.988282759700154
 20
40.3723446293999
 30
0.0
 11
-1.700013401799989
 21
41.58792490999998
 31
0.0
  0
LWPOLYLINE
  5
1AB
330
1F
100
AcDbEntity
  8
1
100
AcDbPolyline
 90
        7
 70
     0
 43
0.0
 10
-1.988261857600149
 20
40.37243629659989
 10
-1.988470925300076
 20
40.37151129329989
 10
-1.98885511489999
 20
40.3696054302999
 10
-1.9892394319001
 20
40.36744547419989
 10
-1.98962470189997
 20
40.36503169869999
 10
-1.990012385300133
 20
40.3623699990998
 10
-1.990401995299975
 20
40.35945841009989
  0
LWPOLYLINE
  5
1AC
330
1F
100
AcDbEntity
  8
1
100
AcDbPolyline
 90
       11
 70
     0
 43
0.0
 10
-1.990401995299975
 20
40.35945841009989
 10
-1.983173454400002
 20
40.37491323559989
 10
-1.973797493800134
 20
40.38924256299989
 10
-1.962175257000124
 20
40.4025403120999
 10
-1.948603313700004
 20
40.41452472369999
 10
-1.933256801100128
 20
40.42498699859999
 10
-1.916401160800148
 20
40.43380217739989
 10
-1.8982610746001
 20
40.44080084529992
 10
-1.879133960200021
 20
40.44590757029991
 10
-1.859438668299958
 20
40.44897396089999
 10
-1.839035582000006
 20
40.45004948089998
  0
LWPOLYLINE
  5
1AD
330
1F
100
AcDbEntity
  8
1
100
AcDbPolyline
 90
       11
 70
     0
 43
0.0
 10
-0.5609644180000828
 20
40.45004948089998
 10
-0.5405613315999746
 20
40.44897396089999
 10
-0.5208660397001382
 20
40.44590757029991
 10
-0.501738925300117
 20
40.44080084529992
 10
-0.4835988391001253
 20
40.43380217739989
 10
-0.4667431989001332
 20
40.42498699859999
 10
-0.451396686199985
 20
40.41452472369999
 10
-0.4378247429000341
 20
40.4025403120999
 10
-0.4262025061000261
 20
40.38924256299989
 10
-0.4168265455999747
 20
40.37491323559989
 10
-0.4095980047001151
 20
40.35945841009989
  0
LWPOLYLINE
  5
1AE
330
1F
100
AcDbEntity
  8
1
100
AcDbPolyline
 90
       10
 70
     0
 43
0.0
 10
-0.4117381423000098
 20
40.37243629659989
 10
-0.4119145546000027
 20
40.37314816309989
 10
-0.4123022569000911
 20
40.3745110994999
 10
-0.4126944648000972
 20
40.37556994989997
 10
-0.4130926689999799
 20
40.37631404839987
 10
-0.413500178500158
 20
40.37667999469983
 10
-0.4139182639999607
 20
40.37665049770001
 10
-0.4143545305001341
 20
40.37607656359989
 10
-0.414818009899989
 20
40.37478409019999
 10
-0.4153056914001354
 20
40.3728311113999
  0
LINE
  5
1AF
330
1F
100
AcDbEntity
  8
1
100
AcDbLine
 10
-0.6999865981999847
 20
41.58792490999998
 30
0.0
 11
-0.4117172402000051
 21
40.3723446293999
 31
0.0
  0
LINE
  5
1B0
330
1F
100
AcDbEntity
  8
1
100
AcDbLine
 10
-0.6999999999999888
 20
41.5733360484999
 30
0.0
 11
-0.4153056914001354
 21
40.3728311113999
 31
0.0
  0
LWPOLYLINE
  5
1B1
330
1F
100
AcDbEntity
  8
1
100
AcDbPolyline
 90
        7
 70
     0
 43
0.0
 10
-0.4095980047001151
 20
40.35945841009989
 10
-0.4099876145999703
 20
40.3623699990998
 10
-0.4103752980001333
 20
40.36503169869999
 10
-0.4107605680000006
 20
40.36744547419989
 10
-0.4111448850001125
 20
40.3696054302999
 10
-0.4115290745999687
 20
40.37151129329989
 10
-0.4117381423000098
 20
40.37243629659989
  0
LINE
  5
1B2
330
1F
100
AcDbEntity
  8
1
100
AcDbLine
 10
-0.6999999999999888
 20
37.23548351489978
 30
0.0
 11
-0.6999999999999888
 21
39.56579458829988
 31
0.0
  0
LWPOLYLINE
  5
1B3
330
1F
100
AcDbEntity
  8
1
100
AcDbPolyline
 90
        4
 70
     0
 43
0.0
 10
-0.413500178500158
 20
40.2685752445
 10
-0.4143545305001341
 20
40.25305101799992
 10
-0.414818009899989
 20
40.24559436229987
 10
-0.4153056914001354
 20
40.23834134500001
  0
LINE
  5
1B4
330
1F
100
AcDbEntity
  8
1
100
AcDbLine
 10
-0.4126944648000972
 20
40.2848947968
 30
0.0
 11
-0.413500178500158
 21
40.2685752445
 31
0.0
  0
LINE
  5
1B5
330
1F
100
AcDbEntity
  8
1
100
AcDbLine
 10
-0.4115290745999687
 20
40.3109525982
 30
0.0
 11
-0.4126944648000972
 21
40.2848947968
 31
0.0
  0
LINE
  5
1B6
330
1F
100
AcDbEntity
  8
1
100
AcDbLine
 10
-0.4095980047001151
 20
40.35945841009989
 30
0.0
 11
-0.4115290745999687
 21
40.3109525982
 31
0.0
  0
LINE
  5
1B7
330
1F
100
AcDbEntity
  8
1
100
AcDbLine
 10
-0.6999999999999888
 20
38.42770890399989
 30
0.0
 11
-0.4153056914001354
 21
40.23834134500001
 31
0.0
  0
LINE
  5
1B8
330
1F
100
AcDbEntity
  8
1
100
AcDbLine
 10
-0.6999999999999888
 20
39.56579458829988
 30
0.0
 11
-0.5609644180000828
 21
40.45004948089998
 31
0.0
  0
LINE
  5
1B9
330
1F
100
AcDbEntity
  8
1
100
AcDbLine
 10
-1.699999999999988
 20
46.49901085169989
 30
0.0
 11
-1.990401995299975
 21
49.88703412999999
 31
0.0
  0
LINE
  5
1BA
330
1F
100
AcDbEntity
  8
1
100
AcDbLine
 10
-0.4095980047001151
 20
49.88703412999999
 30
0.0
 11
-0.6999999999999888
 21
46.49901085169989
 31
0.0
  0
LINE
  5
1BB
330
1F
100
AcDbEntity
  8
1
100
AcDbLine
 10
-1.699999999999988
 20
47.88861649290001
 30
0.0
 11
-0.6999999999999888
 21
47.88861649290001
 31
0.0
  0
LINE
  5
1BC
330
1F
100
AcDbEntity
  8
1
100
AcDbLine
 10
-0.6999999999999888
 20
44.22817312659996
 30
0.0
 11
-1.699999999999988
 21
44.22817312659996
 31
0.0
  0
LINE
  5
1BD
330
1F
100
AcDbEntity
  8
1
100
AcDbLine
 10
-1.839035582000006
 20
49.99901085169978
 30
0.0
 11
-0.5609644180000828
 21
49.99901085169978
 31
0.0
  0
LINE
  5
1BE
330
1F
100
AcDbEntity
  8
1
100
AcDbLine
 10
-1.699999999999988
 20
49.3365448611
 30
0.0
 11
-0.6999999999999888
 21
49.3365448611
 31
0.0
  0
LINE
  5
1BF
330
1F
100
AcDbEntity
  8
1
100
AcDbLine
 10
-1.699999999999988
 20
49.2950301754999
 30
0.0
 11
-0.6999999999999888
 21
49.2950301754999
 31
0.0
  0
LINE
  5
1C0
330
1F
100
AcDbEntity
  8
1
100
AcDbLine
 10
-1.839035582000006
 20
49.99901085169978
 30
0.0
 11
-1.699999999999988
 21
49.81485728409999
 31
0.0
  0
LINE
  5
1C1
330
1F
100
AcDbEntity
  8
1
100
AcDbLine
 10
-1.984694308499966
 20
49.8204444509999
 30
0.0
 11
-1.699999999999988
 21
49.44336491619989
 31
0.0
  0
LINE
  5
1C2
330
1F
100
AcDbEntity
  8
1
100
AcDbLine
 10
-1.699999999999988
 20
49.81485728409999
 30
0.0
 11
-1.699999999999988
 21
49.2950301754999
 31
0.0
  0
LWPOLYLINE
  5
1C3
330
1F
100
AcDbEntity
  8
1
100
AcDbPolyline
 90
       11
 70
     0
 43
0.0
 10
-1.990401995299975
 20
49.88703412999999
 10
-1.983173454400002
 20
49.90613734489997
 10
-1.973797493800134
 20
49.92384936759997
 10
-1.962175257000124
 20
49.94028628939989
 10
-1.948603313700004
 20
49.9550998368999
 10
-1.933256801100128
 20
49.96803191979987
 10
-1.916401160800148
 20
49.97892808009989
 10
-1.8982610746001
 20
49.98757890930001
 10
-1.879133960200021
 20
49.99389116860001
 10
-1.859438668299958
 20
49.99768143579979
 10
-1.839035582000006
 20
49.99901085169978
  0
LWPOLYLINE
  5
1C4
330
1F
100
AcDbEntity
  8
1
100
AcDbPolyline
 90
       11
 70
     0
 43
0.0
 10
-0.5609644180000828
 20
49.99901085169978
 10
-0.5405613315999746
 20
49.99768143579979
 10
-0.5208660397001382
 20
49.99389116860001
 10
-0.501738925300117
 20
49.98757890930001
 10
-0.4835988391001253
 20
49.97892808009989
 10
-0.4667431989001332
 20
49.96803191979987
 10
-0.451396686199985
 20
49.9550998368999
 10
-0.4378247429000341
 20
49.94028628939989
 10
-0.4262025061000261
 20
49.92384936759997
 10
-0.4168265455999747
 20
49.90613734489997
 10
-0.4095980047001151
 20
49.88703412999999
  0
LINE
  5
1C5
330
1F
100
AcDbEntity
  8
1
100
AcDbLine
 10
-0.6999999999999888
 20
49.2950301754999
 30
0.0
 11
-0.6999999999999888
 21
49.81485728409999
 31
0.0
  0
LINE
  5
1C6
330
1F
100
AcDbEntity
  8
1
100
AcDbLine
 10
-0.6999999999999888
 20
49.44336491619989
 30
0.0
 11
-0.4153056914001354
 21
49.8204444509999
 31
0.0
  0
LINE
  5
1C7
330
1F
100
AcDbEntity
  8
1
100
AcDbLine
 10
-0.6999999999999888
 20
49.81485728409999
 30
0.0
 11
-0.5609644180000828
 21
49.99901085169978
 31
0.0
  0
MTEXT
  5
28A
330
1F
100
AcDbEntity
  8
6
100
AcDbMText
 10
24.76526639049097
 20
-3.360955739835388
 30
0.0
 40
3.5
 41
26.0901
 71
     1
 72
     5
  1
Z=10
 11
0.0000000000000001
 21
1.0
 31
0.0
 73
     1
 44
1.0
  0
MTEXT
  5
28B
330
1F
100
AcDbEntity
  8
6
100
AcDbMText
 10
2.228193168271898
 20
49.63167289040848
 30
0.0
 40
3.5
 41
26.0901
 71
     1
 72
     5
  1
GCXF071601N
 73
     1
 44
1.0
  0
LWPOLYLINE
  5
2AE
330
1F
100
AcDbEntity
  8
CUT
100
AcDbPolyline
 90
       11
 70
     0
 43
0.0
 10
-0.4095980047000582
 20
49.88703412999988
 10
-0.4168265456000598
 20
49.90613734489989
 10
-0.4262025061000543
 20
49.92384936759984
 10
-0.4378247430000785
 20
49.94028628939986
 10
-0.45139668620007
 20
49.95509983689975
 10
-0.4667431989000761
 20
49.96803191969988
 10
-0.48359883910004
 20
49.97892808009985
 10
-0.5017389253001454
 20
49.98757890929987
 10
-0.5208660397000529
 20
49.99389116859987
 10
-0.5405613317000757
 20
49.99768143579984
 10
-0.5609644180000828
 20
49.99901085169978
  0
LWPOLYLINE
  5
2AF
330
1F
100
AcDbEntity
  8
CUT
100
AcDbPolyline
 90
       11
 70
     0
 43
0.0
 10
-1.839035582000064
 20
49.99901085169978
 10
-1.859438668300071
 20
49.99768143579984
 10
-1.87913396020005
 20
49.99389116859987
 10
-1.89826107460007
 20
49.98757890929987
 10
-1.916401160800063
 20
49.97892808009985
 10
-1.93325680110007
 20
49.96803191969988
 10
-1.948603313700147
 20
49.95509983689975
 10
-1.962175257000069
 20
49.94028628939986
 10
-1.973797493800076
 20
49.92384936759984
 10
-1.983173454400088
 20
49.90613734489989
 10
-1.990401995300089
 20
49.88703412999988
  0
LINE
  5
2B0
330
1F
100
AcDbEntity
  8
CUT
100
AcDbLine
 10
-0.5609644180000828
 20
49.99901085169978
 30
0.0
 11
-1.839035582000064
 21
49.99901085169978
 31
0.0
  0
LINE
  5
2B1
330
1F
100
AcDbEntity
  8
CUT
100
AcDbLine
 10
-0.7000000000000455
 20
46.49901085169982
 30
0.0
 11
-1.700000000000045
 21
46.49901085169982
 31
0.0
  0
LINE
  5
2B2
330
1F
100
AcDbEntity
  8
CUT
100
AcDbLine
 10
-1.990401995300089
 20
49.88703412999988
 30
0.0
 11
-1.700000000000045
 21
46.49901085169982
 31
0.0
  0
LINE
  5
2B3
330
1F
100
AcDbEntity
  8
CUT
100
AcDbLine
 10
-0.4095980047000582
 20
49.88703412999988
 30
0.0
 11
-0.7000000000000455
 21
46.49901085169982
 31
0.0
  0
LWPOLYLINE
  5
2C6
330
1F
100
AcDbEntity
  8
NOCUT
100
AcDbPolyline
 90
       52
 70
     1
 43
0.0
 10
-1.699999999999988
 20
-41.5879814229916
 10
-1.988278846018658
 20
-40.37236113269432
 10
-1.988470925300077
 20
-40.37151129320006
 10
-1.98885511489999
 20
-40.36960543020009
 10
-1.989239431900102
 20
-40.36744547419996
 10
-1.98962470189997
 20
-40.36503169870011
 10
-1.990012385300133
 20
-40.36236999900009
 10
-1.990401995299976
 20
-40.3594584101
 10
-1.699999999999988
 20
-37.61849000060002
 10
-1.700000000000002
 20
-20.29372539330009
 42
0.3779644730090145
 10
-2.399999999999977
 20
-19.49999999998071
 10
-2.399999999999977
 20
0.0
 10
0.0
 20
0.0
 10
-0.0000000000006821
 20
-19.49999999998078
 42
0.3779644730090144
 10
-0.7000000000000881
 20
-20.29372539330009
 10
-0.6999999999999887
 20
-37.61849000060002
 10
-0.4095980047001149
 20
-40.3594584101
 10
-0.4099876145999702
 20
-40.36236999900009
 10
-0.4103752980001332
 20
-40.36503169870011
 10
-0.4107605680000006
 20
-40.36744547419996
 10
-0.4111448850001125
 20
-40.36960543020009
 10
-0.4115290745999687
 20
-40.37151129320006
 10
-0.411721153881274
 20
-40.37236113269336
 10
-0.6999999999999887
 20
-41.58798142299158
 10
-0.6999999999999887
 20
-42.55913687160009
 10
-0.6999999999999887
 20
-46.4500000000001
 10
-0.6999999999999887
 20
-46.49901085159998
 10
-0.4095980047001149
 20
-49.88703413000002
 10
-0.4168265455999745
 20
-49.9061373448001
 10
-0.4262025061000259
 20
-49.9238493676001
 10
-0.437824742900034
 20
-49.94028628939997
 10
-0.4513966861999848
 20
-49.95509983680012
 10
-0.466743198900133
 20
-49.96803191969999
 10
-0.4835988391001252
 20
-49.9789280800001
 10
-0.501738925300117
 20
-49.9875789093001
 10
-0.5208660397001382
 20
-49.99389116859997
 10
-0.5405613315999745
 20
-49.99768143579998
 10
-0.5609644180000828
 20
-49.99901085159999
 10
-1.839035582000008
 20
-49.99901085159999
 10
-1.859438668299958
 20
-49.99768143579998
 10
-1.879133960200022
 20
-49.99389116859997
 10
-1.8982610746001
 20
-49.9875789093001
 10
-1.916401160800148
 20
-49.9789280800001
 10
-1.933256801100128
 20
-49.96803191969999
 10
-1.948603313700004
 20
-49.95509983680012
 10
-1.962175257000126
 20
-49.94028628939997
 10
-1.973797493800134
 20
-49.9238493676001
 10
-1.983173454400002
 20
-49.9061373448001
 10
-1.990401995299976
 20
-49.88703413000002
 10
-1.699999999999988
 20
-46.49901085159998
 10
-1.699999999999988
 20
-46.4500000000001
 10
-1.699999999999988
 20
-42.55913687160009
  0
ENDSEC
  0
SECTION
  2
OBJECTS
  0
DICTIONARY
  5
C
330
0
100
AcDbDictionary
281
     1
  3
ACAD_GROUP
350
D
  3
ACAD_LAYOUT
350
1A
  3
ACAD_MLINESTYLE
350
17
  3
ACAD_PLOTSETTINGS
350
19
  3
ACAD_PLOTSTYLENAME
350
E
  0
DICTIONARY
  5
D
102
{ACAD_REACTORS
330
C
102
}
330
C
100
AcDbDictionary
281
     1
  0
DICTIONARY
  5
1A
102
{ACAD_REACTORS
330
C
102
}
330
C
100
AcDbDictionary
281
     1
  3
Layout1
350
1E
  3
Layout2
350
26
  3
Model
350
22
  0
DICTIONARY
  5
17
102
{ACAD_REACTORS
330
C
102
}
330
C
100
AcDbDictionary
281
     1
  3
Standard
350
18
  0
DICTIONARY
  5
19
102
{ACAD_REACTORS
330
C
102
}
330
C
100
AcDbDictionary
281
     1
  0
ACDBDICTIONARYWDFLT
  5
E
102
{ACAD_REACTORS
330
C
102
}
330
C
100
AcDbDictionary
281
     1
  3
Normal
350
F
100
AcDbDictionaryWithDefault
340
F
  0
LAYOUT
  5
1E
102
{ACAD_REACTORS
330
1A
102
}
330
1A
100
AcDbPlotSettings
  1

  2
\\ingdom02\ITB2
  4

  6

 40
0.0
 41
0.0
 42
0.0
 43
0.0
 44
0.0
 45
0.0
 46
0.0
 47
0.0
 48
0.0
 49
0.0
140
0.0
141
0.0
142
1.0
143
1.0
 70
   688
 72
     0
 73
     0
 74
     5
  7

 75
    16
147
1.0
148
0.0
149
0.0
100
AcDbLayout
  1
Layout1
 70
     1
 71
     1
 10
0.0
 20
0.0
 11
420.0
 21
297.0
 12
0.0
 22
0.0
 32
0.0
 14
1.000000000000000E+20
 24
1.000000000000000E+20
 34
1.000000000000000E+20
 15
-1.000000000000000E+20
 25
-1.000000000000000E+20
 35
-1.000000000000000E+20
146
0.0
 13
0.0
 23
0.0
 33
0.0
 16
1.0
 26
0.0
 36
0.0
 17
0.0
 27
1.0
 37
0.0
 76
     0
330
1B
  0
LAYOUT
  5
26
102
{ACAD_REACTORS
330
1A
102
}
330
1A
100
AcDbPlotSettings
  1

  2
\\ingdom02\ITB2
  4

  6

 40
0.0
 41
0.0
 42
0.0
 43
0.0
 44
0.0
 45
0.0
 46
0.0
 47
0.0
 48
0.0
 49
0.0
140
0.0
141
0.0
142
1.0
143
1.0
 70
   688
 72
     0
 73
     0
 74
     5
  7

 75
    16
147
1.0
148
0.0
149
0.0
100
AcDbLayout
  1
Layout2
 70
     1
 71
     2
 10
0.0
 20
0.0
 11
12.0
 21
9.0
 12
0.0
 22
0.0
 32
0.0
 14
0.0
 24
0.0
 34
0.0
 15
0.0
 25
0.0
 35
0.0
146
0.0
 13
0.0
 23
0.0
 33
0.0
 16
1.0
 26
0.0
 36
0.0
 17
0.0
 27
1.0
 37
0.0
 76
     0
330
23
  0
LAYOUT
  5
22
102
{ACAD_REACTORS
330
1A
102
}
330
1A
100
AcDbPlotSettings
  1

  2
\\ingdom02\ITB2
  4

  6

 40
0.0
 41
0.0
 42
0.0
 43
0.0
 44
0.0
 45
0.0
 46
0.0
 47
0.0
 48
0.0
 49
0.0
140
0.0
141
0.0
142
1.0
143
1.0
 70
  1712
 72
     0
 73
     0
 74
     0
  7

 75
     0
147
1.0
148
0.0
149
0.0
100
AcDbLayout
  1
Model
 70
     1
 71
     0
 10
0.0
 20
0.0
 11
12.0
 21
9.0
 12
0.0
 22
0.0
 32
0.0
 14
0.0
 24
0.0
 34
0.0
 15
0.0
 25
0.0
 35
0.0
146
0.0
 13
0.0
 23
0.0
 33
0.0
 16
1.0
 26
0.0
 36
0.0
 17
0.0
 27
1.0
 37
0.0
 76
     0
330
1F
  0
MLINESTYLE
  5
18
102
{ACAD_REACTORS
330
17
102
}
330
17
100
AcDbMlineStyle
  2
STANDARD
 70
     0
  3

 62
   256
 51
90.0
 52
90.0
 71
     2
 49
0.5
 62
   256
  6
BYLAYER
 49
-0.5
 62
   256
  6
BYLAYER
  0
ACDBPLACEHOLDER
  5
F
102
{ACAD_REACTORS
330
E
102
}
330
E
  0
ENDSEC
  0
EOF
