  0
SECTION
  2
HEADER
  9
$ACADVER
  1
AC1015
  9
$ACADMAINTVER
 70
    10
  9
$DWGCODEPAGE
  3
ANSI_1252
  9
$INSBASE
 10
0.0
 20
0.0
 30
0.0
  9
$EXTMIN
 10
-24.72510373314128
 20
-37.51530874310606
 30
-0.0000000000000058
  9
$EXTMAX
 10
69.25766464985986
 20
59.36132094647803
 30
0.0000000000000104
  9
$LIMMIN
 10
0.0
 20
0.0
  9
$LIMMAX
 10
420.0
 20
297.0
  9
$ORTHOMODE
 70
     0
  9
$REGENMODE
 70
     1
  9
$FILLMODE
 70
     1
  9
$QTEXTMODE
 70
     0
  9
$MIRRTEXT
 70
     1
  9
$LTSCALE
 40
5.0
  9
$ATTMODE
 70
     1
  9
$TEXTSIZE
 40
3.5
  9
$TRACEWID
 40
1.0
  9
$TEXTSTYLE
  7
Standard
  9
$CLAYER
  8
0
  9
$CELTYPE
  6
ByLayer
  9
$CECOLOR
 62
   256
  9
$CELTSCALE
 40
1.0
  9
$DISPSILH
 70
     0
  9
$DIMSCALE
 40
1.0
  9
$DIMASZ
 40
2.5
  9
$DIMEXO
 40
0.625
  9
$DIMDLI
 40
3.75
  9
$DIMRND
 40
0.0
  9
$DIMDLE
 40
0.0
  9
$DIMEXE
 40
1.25
  9
$DIMTP
 40
0.0
  9
$DIMTM
 40
0.0
  9
$DIMTXT
 40
2.5
  9
$DIMCEN
 40
2.5
  9
$DIMTSZ
 40
0.0
  9
$DIMTOL
 70
     0
  9
$DIMLIM
 70
     0
  9
$DIMTIH
 70
     0
  9
$DIMTOH
 70
     0
  9
$DIMSE1
 70
     0
  9
$DIMSE2
 70
     0
  9
$DIMTAD
 70
     1
  9
$DIMZIN
 70
     8
  9
$DIMBLK
  1

  9
$DIMASO
 70
     1
  9
$DIMSHO
 70
     1
  9
$DIMPOST
  1

  9
$DIMAPOST
  1

  9
$DIMALT
 70
     0
  9
$DIMALTD
 70
     3
  9
$DIMALTF
 40
0.03937007874016
  9
$DIMLFAC
 40
1.0
  9
$DIMTOFL
 70
     1
  9
$DIMTVP
 40
0.0
  9
$DIMTIX
 70
     0
  9
$DIMSOXD
 70
     0
  9
$DIMSAH
 70
     0
  9
$DIMBLK1
  1

  9
$DIMBLK2
  1

  9
$DIMSTYLE
  2
ISO-25
  9
$DIMCLRD
 70
     0
  9
$DIMCLRE
 70
     0
  9
$DIMCLRT
 70
     0
  9
$DIMTFAC
 40
1.0
  9
$DIMGAP
 40
0.625
  9
$DIMJUST
 70
     0
  9
$DIMSD1
 70
     0
  9
$DIMSD2
 70
     0
  9
$DIMTOLJ
 70
     0
  9
$DIMTZIN
 70
     8
  9
$DIMALTZ
 70
     0
  9
$DIMALTTZ
 70
     0
  9
$DIMUPT
 70
     0
  9
$DIMDEC
 70
     2
  9
$DIMTDEC
 70
     2
  9
$DIMALTU
 70
     2
  9
$DIMALTTD
 70
     3
  9
$DIMTXSTY
  7
Standard
  9
$DIMAUNIT
 70
     0
  9
$DIMADEC
 70
     0
  9
$DIMALTRND
 40
0.0
  9
$DIMAZIN
 70
     0
  9
$DIMDSEP
 70
    44
  9
$DIMATFIT
 70
     3
  9
$DIMFRAC
 70
     0
  9
$DIMLDRBLK
  1

  9
$DIMLUNIT
 70
     2
  9
$DIMLWD
 70
    -2
  9
$DIMLWE
 70
    -2
  9
$DIMTMOVE
 70
     0
  9
$LUNITS
 70
     2
  9
$LUPREC
 70
     4
  9
$SKETCHINC
 40
1.0
  9
$FILLETRAD
 40
10.0
  9
$AUNITS
 70
     0
  9
$AUPREC
 70
     0
  9
$MENU
  1
.
  9
$ELEVATION
 40
0.0
  9
$PELEVATION
 40
0.0
  9
$THICKNESS
 40
0.0
  9
$LIMCHECK
 70
     0
  9
$CHAMFERA
 40
10.0
  9
$CHAMFERB
 40
10.0
  9
$CHAMFERC
 40
20.0
  9
$CHAMFERD
 40
0.0
  9
$SKPOLY
 70
     0
  9
$TDCREATE
 40
2454225.590009352
  9
$TDUCREATE
 40
2454225.506676019
  9
$TDUPDATE
 40
2454228.570114953
  9
$TDUUPDATE
 40
2454228.486781620
  9
$TDINDWG
 40
0.0030817130
  9
$TDUSRTIMER
 40
0.0030815278
  9
$USRTIMER
 70
     1
  9
$ANGBASE
 50
0.0
  9
$ANGDIR
 70
     0
  9
$PDMODE
 70
     0
  9
$PDSIZE
 40
0.0
  9
$PLINEWID
 40
0.0
  9
$SPLFRAME
 70
     0
  9
$SPLINETYPE
 70
     6
  9
$SPLINESEGS
 70
     8
  9
$HANDSEED
  5
28E
  9
$SURFTAB1
 70
     6
  9
$SURFTAB2
 70
     6
  9
$SURFTYPE
 70
     6
  9
$SURFU
 70
     6
  9
$SURFV
 70
     6
  9
$UCSBASE
  2

  9
$UCSNAME
  2

  9
$UCSORG
 10
0.0
 20
0.0
 30
0.0
  9
$UCSXDIR
 10
1.0
 20
0.0
 30
0.0
  9
$UCSYDIR
 10
0.0
 20
1.0
 30
0.0
  9
$UCSORTHOREF
  2

  9
$UCSORTHOVIEW
 70
     0
  9
$UCSORGTOP
 10
0.0
 20
0.0
 30
0.0
  9
$UCSORGBOTTOM
 10
0.0
 20
0.0
 30
0.0
  9
$UCSORGLEFT
 10
0.0
 20
0.0
 30
0.0
  9
$UCSORGRIGHT
 10
0.0
 20
0.0
 30
0.0
  9
$UCSORGFRONT
 10
0.0
 20
0.0
 30
0.0
  9
$UCSORGBACK
 10
0.0
 20
0.0
 30
0.0
  9
$PUCSBASE
  2

  9
$PUCSNAME
  2

  9
$PUCSORG
 10
0.0
 20
0.0
 30
0.0
  9
$PUCSXDIR
 10
1.0
 20
0.0
 30
0.0
  9
$PUCSYDIR
 10
0.0
 20
1.0
 30
0.0
  9
$PUCSORTHOREF
  2

  9
$PUCSORTHOVIEW
 70
     0
  9
$PUCSORGTOP
 10
0.0
 20
0.0
 30
0.0
  9
$PUCSORGBOTTOM
 10
0.0
 20
0.0
 30
0.0
  9
$PUCSORGLEFT
 10
0.0
 20
0.0
 30
0.0
  9
$PUCSORGRIGHT
 10
0.0
 20
0.0
 30
0.0
  9
$PUCSORGFRONT
 10
0.0
 20
0.0
 30
0.0
  9
$PUCSORGBACK
 10
0.0
 20
0.0
 30
0.0
  9
$USERI1
 70
     0
  9
$USERI2
 70
     0
  9
$USERI3
 70
     0
  9
$USERI4
 70
     0
  9
$USERI5
 70
     0
  9
$USERR1
 40
0.0
  9
$USERR2
 40
0.0
  9
$USERR3
 40
0.0
  9
$USERR4
 40
0.0
  9
$USERR5
 40
0.0
  9
$WORLDVIEW
 70
     1
  9
$SHADEDGE
 70
     3
  9
$SHADEDIF
 70
    70
  9
$TILEMODE
 70
     1
  9
$MAXACTVP
 70
    64
  9
$PINSBASE
 10
0.0
 20
0.0
 30
0.0
  9
$PLIMCHECK
 70
     0
  9
$PEXTMIN
 10
1.000000000000000E+20
 20
1.000000000000000E+20
 30
1.000000000000000E+20
  9
$PEXTMAX
 10
-1.000000000000000E+20
 20
-1.000000000000000E+20
 30
-1.000000000000000E+20
  9
$PLIMMIN
 10
0.0
 20
0.0
  9
$PLIMMAX
 10
420.0
 20
297.0
  9
$UNITMODE
 70
     0
  9
$VISRETAIN
 70
     1
  9
$PLINEGEN
 70
     0
  9
$PSLTSCALE
 70
     1
  9
$TREEDEPTH
 70
  3020
  9
$CMLSTYLE
  2
Standard
  9
$CMLJUST
 70
     0
  9
$CMLSCALE
 40
20.0
  9
$PROXYGRAPHICS
 70
     1
  9
$MEASUREMENT
 70
     1
  9
$CELWEIGHT
370
    -1
  9
$ENDCAPS
280
     0
  9
$JOINSTYLE
280
     0
  9
$LWDISPLAY
290
     0
  9
$INSUNITS
 70
     4
  9
$HYPERLINKBASE
  1

  9
$STYLESHEET
  1

  9
$XEDIT
290
     1
  9
$CEPSNTYPE
380
     0
  9
$PSTYLEMODE
290
     1
  9
$FINGERPRINTGUID
  2
{40B183DF-4849-4600-95D9-6C1ECA45DE90}
  9
$VERSIONGUID
  2
{5FAFC20F-4B93-4644-A297-BD304587EC66}
  9
$EXTNAMES
290
     1
  9
$PSVPSCALE
 40
0.0
  9
$OLESTARTUP
290
     0
  0
ENDSEC
  0
SECTION
  2
CLASSES
  0
CLASS
  1
ACDBDICTIONARYWDFLT
  2
AcDbDictionaryWithDefault
  3
AutoCAD 2000
 90
        0
280
     0
281
     0
  0
CLASS
  1
ACDBPLACEHOLDER
  2
AcDbPlaceHolder
  3
AutoCAD 2000
 90
        0
280
     0
281
     0
  0
CLASS
  1
LAYOUT
  2
AcDbLayout
  3
AutoCAD 2000
 90
        0
280
     0
281
     0
  0
ENDSEC
  0
SECTION
  2
TABLES
  0
TABLE
  2
VPORT
  5
8
330
0
100
AcDbSymbolTable
 70
     3
  0
VPORT
  5
28D
330
8
100
AcDbSymbolTableRecord
100
AcDbViewportTableRecord
  2
*Active
 70
     0
 10
0.0
 20
0.0
 11
1.0
 21
1.0
 12
22.26628045835929
 22
10.92300610168598
 13
0.0
 23
0.0
 14
10.0
 24
10.0
 15
10.0
 25
10.0
 16
0.0
 26
0.0
 36
1.0
 17
0.0
 27
0.0
 37
0.0
 40
98.30478639262466
 41
2.423645320197044
 42
50.0
 43
0.0
 44
0.0
 50
0.0
 51
0.0
 71
     0
 72
   100
 73
     1
 74
     3
 75
     0
 76
     0
 77
     0
 78
     0
281
     0
 65
     1
110
0.0
120
0.0
130
0.0
111
1.0
121
0.0
131
0.0
112
0.0
122
1.0
132
0.0
 79
     0
146
0.0
  0
ENDTAB
  0
TABLE
  2
LTYPE
  5
5
330
0
100
AcDbSymbolTable
 70
     3
  0
LTYPE
  5
14
330
5
100
AcDbSymbolTableRecord
100
AcDbLinetypeTableRecord
  2
ByBlock
 70
     0
  3

 72
    65
 73
     0
 40
0.0
  0
LTYPE
  5
15
330
5
100
AcDbSymbolTableRecord
100
AcDbLinetypeTableRecord
  2
ByLayer
 70
     0
  3

 72
    65
 73
     0
 40
0.0
  0
LTYPE
  5
16
330
5
100
AcDbSymbolTableRecord
100
AcDbLinetypeTableRecord
  2
Continuous
 70
     0
  3
Solid line
 72
    65
 73
     0
 40
0.0
  0
LTYPE
  5
78
330
5
100
AcDbSymbolTableRecord
100
AcDbLinetypeTableRecord
  2
CENTER
 70
     0
  3
____ _ ____ _ ____ _ ____ _ ____ _ ____ _ ____
 72
    65
 73
     4
 40
0.6
 49
0.375
 74
     0
 49
-0.075
 74
     0
 49
0.075
 74
     0
 49
-0.075
 74
     0
  0
LTYPE
  5
79
330
5
100
AcDbSymbolTableRecord
100
AcDbLinetypeTableRecord
  2
HIDDEN
 70
     0
  3
- - - - - - - - - - - - - - - - - - - -
 72
    65
 73
     2
 40
0.2
 49
0.1
 74
     0
 49
-0.1
 74
     0
  0
ENDTAB
  0
TABLE
  2
LAYER
  5
2
330
0
100
AcDbSymbolTable
 70
    11
  0
LAYER
  5
10
330
2
100
AcDbSymbolTableRecord
100
AcDbLayerTableRecord
  2
0
 70
     0
 62
     7
  6
Continuous
370
    -3
390
F
  0
LAYER
  5
7C
330
2
100
AcDbSymbolTableRecord
100
AcDbLayerTableRecord
  2
Defpoints
 70
     0
 62
     7
  6
Continuous
290
     0
370
    -3
390
F
  0
LAYER
  5
7D
330
2
100
AcDbSymbolTableRecord
100
AcDbLayerTableRecord
  2
2
 70
     0
 62
     7
  6
Continuous
370
    -3
390
F
  0
LAYER
  5
7E
330
2
100
AcDbSymbolTableRecord
100
AcDbLayerTableRecord
  2
1
 70
     0
 62
     4
  6
Continuous
370
    -3
390
F
  0
LAYER
  5
7F
330
2
100
AcDbSymbolTableRecord
100
AcDbLayerTableRecord
  2
SK3
 70
     0
 62
     1
  6
HIDDEN
370
    -3
390
F
  0
LAYER
  5
80
330
2
100
AcDbSymbolTableRecord
100
AcDbLayerTableRecord
  2
4
 70
     0
 62
     2
  6
CENTER
370
    -3
390
F
  0
LAYER
  5
81
330
2
100
AcDbSymbolTableRecord
100
AcDbLayerTableRecord
  2
6
 70
     0
 62
     5
  6
Continuous
370
    -3
390
F
  0
LAYER
  5
82
330
2
100
AcDbSymbolTableRecord
100
AcDbLayerTableRecord
  2
SK2
 70
     0
 62
     7
  6
Continuous
370
    -3
390
F
  0
LAYER
  5
25D
330
2
100
AcDbSymbolTableRecord
100
AcDbLayerTableRecord
  2
NOCUT
 70
     0
 62
     7
  6
Continuous
370
    -3
390
F
  0
LAYER
  5
27B
330
2
100
AcDbSymbolTableRecord
100
AcDbLayerTableRecord
  2
CUT
 70
     0
 62
     1
  6
Continuous
370
    -3
390
F
  0
ENDTAB
  0
TABLE
  2
STYLE
  5
3
330
0
100
AcDbSymbolTable
 70
     1
  0
STYLE
  5
11
330
3
100
AcDbSymbolTableRecord
100
AcDbTextStyleTableRecord
  2
Standard
 70
     0
 40
3.5
 41
1.0
 50
0.0
 71
     0
 42
3.5
  3
isocp.shx
  4

  0
ENDTAB
  0
TABLE
  2
VIEW
  5
6
330
0
100
AcDbSymbolTable
 70
     0
  0
ENDTAB
  0
TABLE
  2
UCS
  5
7
330
0
100
AcDbSymbolTable
 70
     0
  0
ENDTAB
  0
TABLE
  2
APPID
  5
9
330
0
100
AcDbSymbolTable
 70
     1
  0
APPID
  5
12
330
9
100
AcDbSymbolTableRecord
100
AcDbRegAppTableRecord
  2
ACAD
 70
     0
  0
ENDTAB
  0
TABLE
  2
DIMSTYLE
  5
A
330
0
100
AcDbSymbolTable
 70
     2
100
AcDbDimStyleTable
 71
     0
  0
DIMSTYLE
105
27
102
{ACAD_REACTORS
330
10E
330
123
330
124
330
154
330
16B
330
16E
102
}
330
A
100
AcDbSymbolTableRecord
100
AcDbDimStyleTableRecord
  2
ISO-25
 70
     0
 41
2.5
 42
0.625
 43
3.75
 44
1.25
 73
     0
 74
     0
 77
     1
 78
     8
140
2.5
141
2.5
143
0.03937007874016
147
0.625
171
     3
172
     1
271
     2
272
     2
274
     3
278
    44
283
     0
284
     8
340
11
  0
DIMSTYLE
105
83
330
A
100
AcDbSymbolTableRecord
100
AcDbDimStyleTableRecord
  2
STANDARD
 70
     0
 41
2.5
 47
0.005
 48
0.005
 71
     1
 73
     0
 74
     0
 77
     1
 78
     8
140
3.5
178
     5
271
     3
272
     3
284
     8
340
11
341
2B
342
2B
343
2B
344
2B
  0
ENDTAB
  0
TABLE
  2
BLOCK_RECORD
  5
1
330
0
100
AcDbSymbolTable
 70
    10
  0
BLOCK_RECORD
  5
1F
330
1
100
AcDbSymbolTableRecord
100
AcDbBlockTableRecord
  2
*Model_Space
340
22
  0
BLOCK_RECORD
  5
1B
330
1
100
AcDbSymbolTableRecord
100
AcDbBlockTableRecord
  2
*Paper_Space
340
1E
  0
BLOCK_RECORD
  5
23
330
1
100
AcDbSymbolTableRecord
100
AcDbBlockTableRecord
  2
*Paper_Space0
340
26
  0
BLOCK_RECORD
  5
2B
330
1
100
AcDbSymbolTableRecord
100
AcDbBlockTableRecord
  2
_ARROW_FILLED
340
0
  0
BLOCK_RECORD
  5
192
330
1
100
AcDbSymbolTableRecord
100
AcDbBlockTableRecord
  2
*D2
340
0
  0
BLOCK_RECORD
  5
19E
330
1
100
AcDbSymbolTableRecord
100
AcDbBlockTableRecord
  2
*D3
340
0
  0
BLOCK_RECORD
  5
1AC
330
1
100
AcDbSymbolTableRecord
100
AcDbBlockTableRecord
  2
*D4
340
0
  0
BLOCK_RECORD
  5
1BA
330
1
100
AcDbSymbolTableRecord
100
AcDbBlockTableRecord
  2
*D5
340
0
  0
BLOCK_RECORD
  5
1C3
330
1
100
AcDbSymbolTableRecord
100
AcDbBlockTableRecord
  2
*D6
340
0
  0
BLOCK_RECORD
  5
1CF
330
1
100
AcDbSymbolTableRecord
100
AcDbBlockTableRecord
  2
*D7
340
0
  0
ENDTAB
  0
ENDSEC
  0
SECTION
  2
BLOCKS
  0
BLOCK
  5
20
330
1F
100
AcDbEntity
  8
0
100
AcDbBlockBegin
  2
*Model_Space
 70
     0
 10
0.0
 20
0.0
 30
0.0
  3
*Model_Space
  1

  0
ENDBLK
  5
21
330
1F
100
AcDbEntity
  8
0
100
AcDbBlockEnd
  0
BLOCK
  5
1C
330
1B
100
AcDbEntity
 67
     1
  8
0
100
AcDbBlockBegin
  2
*Paper_Space
 70
     0
 10
0.0
 20
0.0
 30
0.0
  3
*Paper_Space
  1

  0
ENDBLK
  5
1D
330
1B
100
AcDbEntity
 67
     1
  8
0
100
AcDbBlockEnd
  0
BLOCK
  5
24
330
23
100
AcDbEntity
  8
0
100
AcDbBlockBegin
  2
*Paper_Space0
 70
     0
 10
0.0
 20
0.0
 30
0.0
  3
*Paper_Space0
  1

  0
ENDBLK
  5
25
330
23
100
AcDbEntity
  8
0
100
AcDbBlockEnd
  0
BLOCK
  5
2D
330
2B
100
AcDbEntity
  8
0
100
AcDbBlockBegin
  2
_ARROW_FILLED
 70
     0
 10
0.0
 20
0.0
 30
0.0
  3
_ARROW_FILLED
  1

  0
SOLID
  5
2C
330
2B
100
AcDbEntity
  8
0
  6
ByBlock
 62
     0
100
AcDbTrace
 10
0.0
 20
0.0
 30
0.0
 11
-1.0
 21
0.132
 31
0.0
 12
-1.0
 22
-0.132
 32
0.0
 13
-1.0
 23
-0.132
 33
0.0
  0
ENDBLK
  5
2E
330
2B
100
AcDbEntity
  8
0
  6
ByBlock
 62
     0
100
AcDbBlockEnd
  0
BLOCK
  5
19C
330
192
100
AcDbEntity
  8
0
100
AcDbBlockBegin
  2
*D2
 70
     1
 10
0.0
 20
0.0
 30
0.0
  3
*D2
  1

  0
LINE
  5
241
330
192
100
AcDbEntity
  8
2
 62
     0
370
    -2
100
AcDbLine
 10
-2.324999999999931
 20
-37.5
 30
0.0
 11
-21.99672366699997
 21
-37.49999999999999
 31
0.0
  0
LINE
  5
242
330
192
100
AcDbEntity
  8
2
 62
     0
370
    -2
100
AcDbLine
 10
-2.324999999999931
 20
37.5
 30
0.0
 11
-21.99672366699995
 21
37.5
 31
0.0
  0
LINE
  5
243
330
192
100
AcDbEntity
  8
2
 62
     0
370
    -2
100
AcDbLine
 10
-20.74672366699997
 20
-34.99999999999999
 30
0.0
 11
-20.74672366699995
 21
35.0
 31
0.0
  0
SOLID
  5
244
330
192
100
AcDbEntity
  8
2
 62
     0
100
AcDbTrace
 10
-21.16339033366664
 20
-34.99999999999999
 30
0.0
 11
-20.33005700033331
 21
-34.99999999999999
 31
0.0
 12
-20.74672366699997
 22
-37.49999999999999
 32
0.0
 13
-20.74672366699997
 23
-37.49999999999999
 33
0.0
  0
SOLID
  5
245
330
192
100
AcDbEntity
  8
2
 62
     0
100
AcDbTrace
 10
-21.16339033366663
 20
35.0
 30
0.0
 11
-20.33005700033329
 21
35.0
 31
0.0
 12
-20.74672366699995
 22
37.5
 32
0.0
 13
-20.74672366699995
 23
37.5
 33
0.0
  0
MTEXT
  5
246
330
192
100
AcDbEntity
  8
2
 62
     0
100
AcDbMText
 10
-23.12172366699996
 20
1.249071239899959
 30
0.0
 40
3.5
 41
0.0
 71
     5
 72
     1
  1
%%c75
 11
0.0000000000000001
 21
1.0
 31
0.0
 73
     1
 44
1.0
  0
POINT
  5
247
330
192
100
AcDbEntity
  8
Defpoints
 62
     0
100
AcDbPoint
 10
-1.69999999999993
 20
-37.5
 30
0.0
  0
POINT
  5
248
330
192
100
AcDbEntity
  8
Defpoints
 62
     0
100
AcDbPoint
 10
-1.69999999999993
 20
37.5
 30
0.0
  0
POINT
  5
249
330
192
100
AcDbEntity
  8
Defpoints
 62
     0
100
AcDbPoint
 10
-20.74672366699995
 20
37.5
 30
0.0
  0
ENDBLK
  5
19D
330
192
100
AcDbEntity
  8
0
100
AcDbBlockEnd
  0
BLOCK
  5
1AA
330
19E
100
AcDbEntity
  8
0
100
AcDbBlockBegin
  2
*D3
 70
     1
 10
0.0
 20
0.0
 30
0.0
  3
*D3
  1

  0
LINE
  5
236
330
19E
100
AcDbEntity
  8
2
 62
     0
370
    -2
100
AcDbLine
 10
-2.0
 20
37.94007371949999
 30
0.0
 11
-1.999999999999998
 21
55.97511186239998
 31
0.0
  0
LINE
  5
237
330
19E
100
AcDbEntity
  8
2
 62
     0
370
    -2
100
AcDbLine
 10
-0.3999999999999772
 20
37.97708228419998
 30
0.0
 11
-0.3999999999999761
 21
55.97511186239998
 31
0.0
  0
LINE
  5
238
330
19E
100
AcDbEntity
  8
2
 62
     0
370
    -2
100
AcDbLine
 10
-4.499999999999999
 20
54.72511186239998
 30
0.0
 11
-6.999999999999999
 21
54.72511186239998
 31
0.0
  0
LINE
  5
239
330
19E
100
AcDbEntity
  8
2
 62
     0
370
    -2
100
AcDbLine
 10
2.100000000000023
 20
54.72511186239998
 30
0.0
 11
13.5002552118221
 21
54.72511186239998
 31
0.0
  0
LINE
  5
23A
330
19E
100
AcDbEntity
  8
2
 62
     0
370
    -2
100
AcDbLine
 10
-1.999999999999998
 20
54.72511186239998
 30
0.0
 11
-0.3999999999999762
 21
54.72511186239998
 31
0.0
  0
SOLID
  5
23B
330
19E
100
AcDbEntity
  8
2
 62
     0
100
AcDbTrace
 10
-4.499999999999999
 20
55.14177852906665
 30
0.0
 11
-4.499999999999999
 21
54.30844519573332
 31
0.0
 12
-1.999999999999998
 22
54.72511186239998
 32
0.0
 13
-1.999999999999998
 23
54.72511186239998
 33
0.0
  0
SOLID
  5
23C
330
19E
100
AcDbEntity
  8
2
 62
     0
100
AcDbTrace
 10
2.100000000000023
 20
55.14177852906665
 30
0.0
 11
2.100000000000023
 21
54.30844519573332
 31
0.0
 12
-0.3999999999999762
 22
54.72511186239998
 32
0.0
 13
-0.3999999999999762
 23
54.72511186239998
 33
0.0
  0
MTEXT
  5
23D
330
19E
100
AcDbEntity
  8
2
 62
     0
100
AcDbMText
 10
10.60094418820006
 20
57.36261186239999
 30
0.0
 40
3.5
 41
0.0
 71
     5
 72
     1
  1
1,6
 73
     1
 44
1.0
  0
POINT
  5
23E
330
19E
100
AcDbEntity
  8
Defpoints
 62
     0
100
AcDbPoint
 10
-2.0
 20
37.31507371949999
 30
0.0
  0
POINT
  5
23F
330
19E
100
AcDbEntity
  8
Defpoints
 62
     0
100
AcDbPoint
 10
-0.3999999999999772
 20
37.35208228419998
 30
0.0
  0
POINT
  5
240
330
19E
100
AcDbEntity
  8
Defpoints
 62
     0
100
AcDbPoint
 10
-0.3999999999999762
 20
54.72511186239998
 30
0.0
  0
ENDBLK
  5
1AB
330
19E
100
AcDbEntity
  8
0
100
AcDbBlockEnd
  0
BLOCK
  5
1B8
330
1AC
100
AcDbEntity
  8
0
100
AcDbBlockBegin
  2
*D4
 70
     1
 10
0.0
 20
0.0
 30
0.0
  3
*D4
  1

  0
LINE
  5
22B
330
1AC
100
AcDbEntity
  8
2
 62
     0
370
    -2
100
AcDbLine
 10
-2.399999999999977
 20
20.625
 30
0.0
 11
-2.399999999999976
 21
32.95571751610001
 31
0.0
  0
LINE
  5
22C
330
1AC
100
AcDbEntity
  8
2
 62
     0
370
    -2
100
AcDbLine
 10
0.0
 20
20.625
 30
0.0
 11
0.0000000000000008
 21
32.95571751610001
 31
0.0
  0
LINE
  5
22D
330
1AC
100
AcDbEntity
  8
2
 62
     0
370
    -2
100
AcDbLine
 10
2.5
 20
31.70571751610001
 30
0.0
 11
5.0
 21
31.70571751610001
 31
0.0
  0
LINE
  5
22E
330
1AC
100
AcDbEntity
  8
2
 62
     0
370
    -2
100
AcDbLine
 10
-4.899999999999976
 20
31.70571751610001
 30
0.0
 11
-14.16387795275588
 21
31.70571751610001
 31
0.0
  0
LINE
  5
22F
330
1AC
100
AcDbEntity
  8
2
 62
     0
370
    -2
100
AcDbLine
 10
0.0000000000000007
 20
31.70571751610001
 30
0.0
 11
-2.399999999999976
 21
31.70571751610001
 31
0.0
  0
SOLID
  5
230
330
1AC
100
AcDbEntity
  8
2
 62
     0
100
AcDbTrace
 10
2.5
 20
32.12238418276667
 30
0.0
 11
2.5
 21
31.28905084943334
 31
0.0
 12
0.0000000000000007
 22
31.70571751610001
 32
0.0
 13
0.0000000000000007
 23
31.70571751610001
 33
0.0
  0
SOLID
  5
231
330
1AC
100
AcDbEntity
  8
2
 62
     0
100
AcDbTrace
 10
-4.899999999999976
 20
32.12238418276667
 30
0.0
 11
-4.899999999999976
 21
31.28905084943334
 31
0.0
 12
-2.399999999999976
 22
31.70571751610001
 32
0.0
 13
-2.399999999999976
 23
31.70571751610001
 33
0.0
  0
MTEXT
  5
232
330
1AC
100
AcDbEntity
  8
2
 62
     0
100
AcDbMText
 10
-10.78193897637792
 20
34.34356200428897
 30
0.0
 40
3.5
 41
0.0
 71
     5
 72
     1
  1
2,4
 73
     1
 44
1.0
  0
POINT
  5
233
330
1AC
100
AcDbEntity
  8
Defpoints
 62
     0
100
AcDbPoint
 10
-2.399999999999977
 20
20.0
 30
0.0
  0
POINT
  5
234
330
1AC
100
AcDbEntity
  8
Defpoints
 62
     0
100
AcDbPoint
 10
0.0
 20
20.0
 30
0.0
  0
POINT
  5
235
330
1AC
100
AcDbEntity
  8
Defpoints
 62
     0
100
AcDbPoint
 10
0.0000000000000007
 20
31.70571751610001
 30
0.0
  0
ENDBLK
  5
1B9
330
1AC
100
AcDbEntity
  8
0
100
AcDbBlockEnd
  0
BLOCK
  5
1C1
330
1BA
100
AcDbEntity
  8
0
100
AcDbBlockBegin
  2
*D5
 70
     1
 10
0.0
 20
0.0
 30
0.0
  3
*D5
  1

  0
LINE
  5
225
330
1BA
100
AcDbEntity
  8
2
 62
     0
370
    -2
100
AcDbLine
 10
-19.60716310047342
 20
54.68943578700007
 30
0.0
 11
-3.588947829655587
 21
39.00303910870835
 31
0.0
  0
MTEXT
  5
226
330
1BA
100
AcDbEntity
  8
2
 62
     0
100
AcDbMText
 10
-13.81484444979343
 20
52.7086624065507
 30
0.0
 40
3.5
 41
0.0
 71
     5
 72
     1
  1
R0,16
 11
0.7144681900222875
 21
-0.6996679251232522
 31
0.0
 73
     1
 44
1.0
  0
LINE
  5
227
330
1BA
100
AcDbEntity
  8
2
 62
     0
370
    -2
100
AcDbLine
 10
-1.690318130299946
 20
37.14373967330014
 30
0.0
 11
-1.802777354599868
 21
37.25386929590021
 31
0.0
  0
SOLID
  5
228
330
1BA
100
AcDbEntity
  8
2
 62
     0
100
AcDbTrace
 10
-3.297419527520896
 20
39.30073418788428
 30
0.0
 11
-3.880476131790278
 21
38.70534402953239
 31
0.0
 12
-1.802777354599868
 22
37.25386929590021
 32
0.0
 13
-1.802777354599868
 23
37.25386929590021
 33
0.0
  0
POINT
  5
229
330
1BA
100
AcDbEntity
  8
Defpoints
 62
     0
100
AcDbPoint
 10
-1.802777354599868
 20
37.25386929590021
 30
0.0
  0
POINT
  5
22A
330
1BA
100
AcDbEntity
  8
Defpoints
 62
     0
100
AcDbPoint
 10
-1.690318130299946
 20
37.14373967330014
 30
0.0
  0
ENDBLK
  5
1C2
330
1BA
100
AcDbEntity
  8
0
100
AcDbBlockEnd
  0
BLOCK
  5
1CD
330
1C3
100
AcDbEntity
  8
0
100
AcDbBlockBegin
  2
*D6
 70
     1
 10
0.0
 20
0.0
 30
0.0
  3
*D6
  1

  0
LINE
  5
21C
330
1C3
100
AcDbEntity
  8
2
 62
     0
370
    -2
100
AcDbLine
 10
1.125
 20
-19.5
 30
0.0
 11
18.73491738811355
 21
-19.5
 31
0.0
  0
LINE
  5
21D
330
1C3
100
AcDbEntity
  8
2
 62
     0
370
    -2
100
AcDbLine
 10
1.125
 20
19.5
 30
0.0
 11
18.73491738811355
 21
19.49999999999999
 31
0.0
  0
LINE
  5
21E
330
1C3
100
AcDbEntity
  8
2
 62
     0
370
    -2
100
AcDbLine
 10
17.48491738811355
 20
-17.0
 30
0.0
 11
17.48491738811356
 21
16.99999999999999
 31
0.0
  0
SOLID
  5
21F
330
1C3
100
AcDbEntity
  8
2
 62
     0
100
AcDbTrace
 10
17.06825072144686
 20
-17.0
 30
0.0
 11
17.90158405478021
 21
-17.0
 31
0.0
 12
17.48491738811355
 22
-19.5
 32
0.0
 13
17.48491738811355
 23
-19.5
 33
0.0
  0
SOLID
  5
220
330
1C3
100
AcDbEntity
  8
2
 62
     0
100
AcDbTrace
 10
17.06825072144689
 20
16.99999999999999
 30
0.0
 11
17.90158405478023
 21
16.99999999999999
 31
0.0
 12
17.48491738811356
 22
19.49999999999999
 32
0.0
 13
17.48491738811356
 23
19.49999999999999
 33
0.0
  0
MTEXT
  5
221
330
1C3
100
AcDbEntity
  8
2
 62
     0
100
AcDbMText
 10
15.10991738811355
 20
0.2106006895211013
 30
0.0
 40
3.5
 41
0.0
 71
     5
 72
     1
  1
%%c39
 11
0.0000000000000001
 21
1.0
 31
0.0
 73
     1
 44
1.0
  0
POINT
  5
222
330
1C3
100
AcDbEntity
  8
Defpoints
 62
     0
100
AcDbPoint
 10
0.5
 20
-19.5
 30
0.0
  0
POINT
  5
223
330
1C3
100
AcDbEntity
  8
Defpoints
 62
     0
100
AcDbPoint
 10
0.5
 20
19.5
 30
0.0
  0
POINT
  5
224
330
1C3
100
AcDbEntity
  8
Defpoints
 62
     0
100
AcDbPoint
 10
17.48491738811356
 20
19.49999999999999
 30
0.0
  0
ENDBLK
  5
1CE
330
1C3
100
AcDbEntity
  8
0
100
AcDbBlockEnd
  0
BLOCK
  5
1D9
330
1CF
100
AcDbEntity
  8
0
100
AcDbBlockBegin
  2
*D7
 70
     1
 10
0.0
 20
0.0
 30
0.0
  3
*D7
  1

  0
LINE
  5
213
330
1CF
100
AcDbEntity
  8
SK2
 62
     0
370
    -2
100
AcDbLine
 10
0.625
 20
11.00000000000002
 30
0.0
 11
11.51298806478405
 21
11.00000000000002
 31
0.0
  0
LINE
  5
214
330
1CF
100
AcDbEntity
  8
SK2
 62
     0
370
    -2
100
AcDbLine
 10
0.625
 20
-11.00000000000002
 30
0.0
 11
11.51298806478405
 21
-11.00000000000002
 31
0.0
  0
LINE
  5
215
330
1CF
100
AcDbEntity
  8
SK2
 62
     0
370
    -2
100
AcDbLine
 10
10.26298806478405
 20
8.500000000000055
 30
0.0
 11
10.26298806478405
 21
-8.50000000000003
 31
0.0
  0
SOLID
  5
216
330
1CF
100
AcDbEntity
  8
SK2
 62
     0
100
AcDbTrace
 10
9.846321398117387
 20
8.500000000000055
 30
0.0
 11
10.67965473145072
 21
8.500000000000055
 31
0.0
 12
10.26298806478405
 22
11.00000000000002
 32
0.0
 13
10.26298806478405
 23
11.00000000000002
 33
0.0
  0
SOLID
  5
217
330
1CF
100
AcDbEntity
  8
SK2
 62
     0
100
AcDbTrace
 10
9.846321398117382
 20
-8.50000000000003
 30
0.0
 11
10.67965473145071
 21
-8.50000000000003
 31
0.0
 12
10.26298806478405
 22
-11.00000000000002
 32
0.0
 13
10.26298806478405
 23
-11.00000000000002
 33
0.0
  0
MTEXT
  5
218
330
1CF
100
AcDbEntity
  8
SK2
 62
     0
100
AcDbMText
 10
7.887643576595077
 20
0.0745349292314759
 30
0.0
 40
3.5
 41
0.0
 71
     5
 72
     1
  1
%%C22
 11
0.0000000000000001
 21
1.0
 31
0.0
 73
     1
 44
1.0
  0
POINT
  5
219
330
1CF
100
AcDbEntity
  8
Defpoints
 62
     0
100
AcDbPoint
 10
0.0
 20
11.00000000000002
 30
0.0
  0
POINT
  5
21A
330
1CF
100
AcDbEntity
  8
Defpoints
 62
     0
100
AcDbPoint
 10
0.0
 20
-11.00000000000002
 30
0.0
  0
POINT
  5
21B
330
1CF
100
AcDbEntity
  8
Defpoints
 62
     0
100
AcDbPoint
 10
10.26298806478405
 20
-11.00000000000002
 30
0.0
  0
ENDBLK
  5
1DA
330
1CF
100
AcDbEntity
  8
0
100
AcDbBlockEnd
  0
ENDSEC
  0
SECTION
  2
ENTITIES
  0
TEXT
  5
10D
330
1F
100
AcDbEntity
  8
6
100
AcDbText
 10
25.8405687962592
 20
-36.16934689244831
 30
0.0
 40
5.0
  1
31J6L075016BA-00
 41
0.8
 72
     1
 11
47.84214359940881
 21
-36.16934689244831
 31
0.0
100
AcDbText
  0
DIMENSION
  5
10E
330
1F
100
AcDbEntity
  8
2
100
AcDbDimension
  2
*D2
 10
-20.74672366699995
 20
37.5
 30
0.0
 11
-20.74672366699997
 21
1.249071239899959
 31
0.0
 70
   160
  1
%%c<>
 71
     5
 42
75.0
  3
ISO-25
100
AcDbAlignedDimension
 13
-1.69999999999993
 23
-37.5
 33
0.0
 14
-1.69999999999993
 24
37.5
 34
0.0
 50
90.0
100
AcDbRotatedDimension
  0
LINE
  5
10F
330
1F
100
AcDbEntity
  8
1
100
AcDbLine
 10
-0.6999666778999654
 20
-28.02421092599999
 30
0.0
 11
-0.4128310984999646
 21
-26.46639966240002
 31
0.0
  0
LINE
  5
110
330
1F
100
AcDbEntity
  8
1
100
AcDbLine
 10
-0.6999999999999318
 20
-27.27012167570001
 30
0.0
 11
-0.5609644179999691
 21
-26.51580486100002
 31
0.0
  0
LINE
  5
111
330
1F
100
AcDbEntity
  8
1
100
AcDbLine
 10
-1.839035581999951
 20
-26.51580486100002
 30
0.0
 11
-1.69999999999993
 21
-27.27012167570001
 31
0.0
  0
LINE
  5
112
330
1F
100
AcDbEntity
  8
1
100
AcDbLine
 10
-1.987168901499954
 20
-26.46639966240002
 30
0.0
 11
-1.700033322100011
 21
-28.02421092599999
 31
0.0
  0
LINE
  5
113
330
1F
100
AcDbEntity
  8
1
100
AcDbLine
 10
-1.69999999999993
 20
-29.2293511821
 30
0.0
 11
-0.6999999999999318
 21
-29.2293511821
 31
0.0
  0
LINE
  5
114
330
1F
100
AcDbEntity
  8
1
100
AcDbLine
 10
-1.69999999999993
 20
-31.5891717574
 30
0.0
 11
-0.6999999999999318
 21
-31.5891717574
 31
0.0
  0
LINE
  5
115
330
1F
100
AcDbEntity
  8
1
100
AcDbLine
 10
-0.6999999999999318
 20
-32.17412616200001
 30
0.0
 11
-1.69999999999993
 21
-32.17412616200001
 31
0.0
  0
LINE
  5
116
330
1F
100
AcDbEntity
  8
1
100
AcDbLine
 10
-0.6999999999999318
 20
-33.95000000000001
 30
0.0
 11
-1.69999999999993
 21
-33.95000000000001
 31
0.0
  0
LINE
  5
117
330
1F
100
AcDbEntity
  8
1
100
AcDbLine
 10
-1.69999999999993
 20
-33.99901085159999
 30
0.0
 11
-0.6999999999999318
 21
-33.99901085159999
 31
0.0
  0
LINE
  5
118
330
1F
100
AcDbEntity
  8
1
100
AcDbLine
 10
-1.839035581999951
 20
-37.49901085159999
 30
0.0
 11
-0.5609644179999691
 21
-37.49901085159999
 31
0.0
  0
LINE
  5
119
330
1F
100
AcDbEntity
  8
1
100
AcDbLine
 10
-1.69999999999993
 20
-33.95000000000001
 30
0.0
 11
-1.69999999999993
 21
-29.2293511821
 31
0.0
  0
LINE
  5
11A
330
1F
100
AcDbEntity
  8
1
100
AcDbLine
 10
-1.990401995299975
 20
-37.38703413000001
 30
0.0
 11
-1.69999999999993
 21
-33.99901085159999
 31
0.0
  0
LINE
  5
11B
330
1F
100
AcDbEntity
  8
1
100
AcDbLine
 10
-1.69999999999993
 20
-33.99901085159999
 30
0.0
 11
-1.69999999999993
 21
-33.95000000000001
 31
0.0
  0
LWPOLYLINE
  5
11C
330
1F
100
AcDbEntity
  8
1
100
AcDbPolyline
 90
       11
 70
     0
 43
0.0
 10
-1.990401995299975
 20
-37.38703413000001
 10
-1.983173454400002
 20
-37.40613734480001
 10
-1.973797493800019
 20
-37.4238493676
 10
-1.962175257000012
 20
-37.4402862894
 10
-1.94860331379999
 20
-37.45509983679999
 10
-1.933256801100014
 20
-37.46803191970002
 10
-1.916401160899965
 20
-37.47892808
 10
-1.898261074699973
 20
-37.48757890929999
 10
-1.879133960300008
 20
-37.49389116860001
 10
-1.859438668299958
 20
-37.49768143579997
 10
-1.839035581999951
 20
-37.49901085159999
  0
LINE
  5
11D
330
1F
100
AcDbEntity
  8
1
100
AcDbLine
 10
-1.69999999999993
 20
-27.27012167570001
 30
0.0
 11
-1.69999999999993
 21
-29.2293511821
 31
0.0
  0
LINE
  5
11E
330
1F
100
AcDbEntity
  8
1
100
AcDbLine
 10
-0.6999999999999318
 20
-33.95000000000001
 30
0.0
 11
-0.6999999999999318
 21
-29.2293511821
 31
0.0
  0
LINE
  5
11F
330
1F
100
AcDbEntity
  8
1
100
AcDbLine
 10
-0.6999999999999318
 20
-33.99901085159999
 30
0.0
 11
-0.6999999999999318
 21
-33.95000000000001
 31
0.0
  0
LINE
  5
120
330
1F
100
AcDbEntity
  8
1
100
AcDbLine
 10
-0.4095980047000012
 20
-37.38703413000001
 30
0.0
 11
-0.6999999999999318
 21
-33.99901085159999
 31
0.0
  0
LWPOLYLINE
  5
121
330
1F
100
AcDbEntity
  8
1
100
AcDbPolyline
 90
       11
 70
     0
 43
0.0
 10
-0.5609644179999691
 20
-37.49901085159999
 10
-0.540561331699962
 20
-37.49768143579997
 10
-0.5208660397999552
 20
-37.49389116860001
 10
-0.5017389253999909
 20
-37.48757890929999
 10
-0.4835988390999546
 20
-37.47892808
 10
-0.4667431988999624
 20
-37.46803191970002
 10
-0.451396686199985
 20
-37.45509983679999
 10
-0.4378247429999649
 20
-37.4402862894
 10
-0.4262025061999566
 20
-37.4238493676
 10
-0.4168265455999747
 20
-37.40613734480001
 10
-0.4095980047000012
 20
-37.38703413000001
  0
LINE
  5
122
330
1F
100
AcDbEntity
  8
1
100
AcDbLine
 10
-0.6999999999999318
 20
-29.2293511821
 30
0.0
 11
-0.6999999999999318
 21
-27.27012167570001
 31
0.0
  0
DIMENSION
  5
123
330
1F
100
AcDbEntity
  8
2
100
AcDbDimension
  2
*D3
 10
-0.3999999999999762
 20
54.72511186239998
 30
0.0
 11
10.60094418820006
 21
54.72511186239998
 31
0.0
 70
   160
 71
     5
 42
1.600000000000022
  3
ISO-25
100
AcDbAlignedDimension
 13
-2.0
 23
37.31507371949999
 33
0.0
 14
-0.3999999999999772
 24
37.35208228419998
 34
0.0
100
AcDbRotatedDimension
  0
DIMENSION
  5
124
330
1F
100
AcDbEntity
  8
2
100
AcDbDimension
  2
*D4
 10
0.0000000000000007
 20
31.70571751610001
 30
0.0
 11
-10.78193897637792
 21
31.70571751610001
 31
0.0
 70
   160
 71
     5
 42
2.399999999999977
  3
ISO-25
100
AcDbAlignedDimension
 13
-2.399999999999977
 23
20.0
 33
0.0
 14
0.0
 24
20.0
 34
0.0
100
AcDbRotatedDimension
  0
ARC
  5
125
330
1F
100
AcDbEntity
  8
1
100
AcDbCircle
 10
0.1000000000000227
 20
-20.29372539330001
 30
0.0
 40
0.8
100
AcDbArc
 50
97.18075578150095
 51
180.0
  0
ARC
  5
126
330
1F
100
AcDbEntity
  8
1
100
AcDbCircle
 10
0.1000000000000227
 20
20.29372539329997
 30
0.0
 40
0.8
100
AcDbArc
 50
180.0
 51
262.8192442184988
  0
LINE
  5
127
330
1F
100
AcDbEntity
  8
1
100
AcDbLine
 10
-1.839035581999951
 20
37.49901085169998
 30
0.0
 11
-0.5609644179999691
 21
37.49901085169998
 31
0.0
  0
LINE
  5
128
330
1F
100
AcDbEntity
  8
1
100
AcDbLine
 10
-1.69999999999993
 20
36.8365448611
 30
0.0
 11
-0.6999999999999318
 21
36.8365448611
 31
0.0
  0
LINE
  5
129
330
1F
100
AcDbEntity
  8
1
100
AcDbLine
 10
-1.69999999999993
 20
36.72533185689997
 30
0.0
 11
-0.6999999999999318
 21
36.72533185689997
 31
0.0
  0
LINE
  5
12A
330
1F
100
AcDbEntity
  8
1
100
AcDbLine
 10
-1.69999999999993
 20
35.9590361136
 30
0.0
 11
-0.6999999999999318
 21
35.9590361136
 31
0.0
  0
LINE
  5
12B
330
1F
100
AcDbEntity
  8
1
100
AcDbLine
 10
-0.6999999999999318
 20
32.69731061009997
 30
0.0
 11
-1.69999999999993
 21
32.69731061009997
 31
0.0
  0
LINE
  5
12C
330
1F
100
AcDbEntity
  8
1
100
AcDbLine
 10
-1.839035581999951
 20
26.51580486099998
 30
0.0
 11
-0.5609644179999691
 21
26.51580486099998
 31
0.0
  0
LINE
  5
12D
330
1F
100
AcDbEntity
  8
1
100
AcDbLine
 10
-1.69999999999993
 20
22.86539015139998
 30
0.0
 11
-0.6999999999999318
 21
22.86539015139998
 31
0.0
  0
LINE
  5
12E
330
1F
100
AcDbEntity
  8
1
100
AcDbLine
 10
-1.69999999999993
 20
22.78675068199999
 30
0.0
 11
-0.6999999999999318
 21
22.78675068199999
 31
0.0
  0
LINE
  5
12F
330
1F
100
AcDbEntity
  8
1
100
AcDbLine
 10
-1.69999999999993
 20
19.2645848043
 30
0.0
 11
-0.6999999999999318
 21
19.2645848043
 31
0.0
  0
LINE
  5
130
330
1F
100
AcDbEntity
  8
1
100
AcDbLine
 10
-0.6999999999999318
 20
14.83078597849998
 30
0.0
 11
-1.69999999999993
 21
14.83078597849998
 31
0.0
  0
LINE
  5
131
330
1F
100
AcDbEntity
  8
1
100
AcDbLine
 10
-0.6999999999999318
 20
9.021369210999976
 30
0.0
 11
-1.69999999999993
 21
9.021369210999976
 31
0.0
  0
LINE
  5
132
330
1F
100
AcDbEntity
  8
1
100
AcDbLine
 10
-0.6999999999999318
 20
1.718813952799989
 30
0.0
 11
-1.69999999999993
 21
1.718813952799989
 31
0.0
  0
LINE
  5
133
330
1F
100
AcDbEntity
  8
1
100
AcDbLine
 10
-1.990401995299975
 20
0.0
 30
0.0
 11
-0.4095980047000012
 21
0.0
 31
0.0
  0
LINE
  5
134
330
1F
100
AcDbEntity
  8
1
100
AcDbLine
 10
-1.69999999999993
 20
-4.5
 30
0.0
 11
-0.6999999999999318
 21
-4.5
 31
0.0
  0
LINE
  5
135
330
1F
100
AcDbEntity
  8
1
100
AcDbLine
 10
-1.69999999999993
 20
-8.714799009900017
 30
0.0
 11
-0.6999999999999318
 21
-8.714799009900017
 31
0.0
  0
LINE
  5
136
330
1F
100
AcDbEntity
  8
1
100
AcDbLine
 10
-0.6999999999999318
 20
-11.72341193870001
 30
0.0
 11
-1.69999999999993
 21
-11.72341193870001
 31
0.0
  0
LINE
  5
137
330
1F
100
AcDbEntity
  8
1
100
AcDbLine
 10
-0.6999999999999318
 20
-12.8467418694
 30
0.0
 11
-1.69999999999993
 21
-12.8467418694
 31
0.0
  0
LINE
  5
138
330
1F
100
AcDbEntity
  8
1
100
AcDbLine
 10
-0.6999999999999318
 20
-19.539981791
 30
0.0
 11
-1.69999999999993
 21
-19.539981791
 31
0.0
  0
LINE
  5
139
330
1F
100
AcDbEntity
  8
1
100
AcDbLine
 10
-0.6999999999999318
 20
-24.03879704659999
 30
0.0
 11
-1.69999999999993
 21
-24.03879704659999
 31
0.0
  0
LINE
  5
13A
330
1F
100
AcDbEntity
  8
1
100
AcDbLine
 10
-1.69999999999993
 20
-24.04093112680001
 30
0.0
 11
-0.6999999999999318
 21
-24.04093112680001
 31
0.0
  0
LINE
  5
13B
330
1F
100
AcDbEntity
  8
1
100
AcDbLine
 10
-1.839035581999951
 20
-26.51580486100002
 30
0.0
 11
-0.5609644179999691
 21
-26.51580486100002
 31
0.0
  0
LINE
  5
13C
330
1F
100
AcDbEntity
  8
4
100
AcDbLine
 10
-9.755489350499942
 20
0.0
 30
0.0
 11
5.187215919799996
 21
0.0
 31
0.0
  0
LINE
  5
13D
330
1F
100
AcDbEntity
  8
SK3
100
AcDbLine
 10
-2.399999999999977
 20
-11.00000000000002
 30
0.0
 11
0.0
 21
-11.00000000000002
 31
0.0
  0
LINE
  5
13E
330
1F
100
AcDbEntity
  8
SK3
100
AcDbLine
 10
-2.399999999999977
 20
11.00000000000002
 30
0.0
 11
0.0
 21
11.00000000000002
 31
0.0
  0
ARC
  5
13F
330
1F
100
AcDbEntity
  8
1
100
AcDbCircle
 10
-2.5
 20
20.29372539329997
 30
0.0
 40
0.8
100
AcDbArc
 50
277.1807557815009
 51
0.0
  0
LINE
  5
140
330
1F
100
AcDbEntity
  8
1
100
AcDbLine
 10
-1.69999999999993
 20
0.0
 30
0.0
 11
-1.69999999999993
 21
22.78675068199999
 31
0.0
  0
LINE
  5
141
330
1F
100
AcDbEntity
  8
1
100
AcDbLine
 10
-1.69999999999993
 20
-1.250918637300002
 30
0.0
 11
-1.69999999999993
 21
-4.5
 31
0.0
  0
LINE
  5
142
330
1F
100
AcDbEntity
  8
1
100
AcDbLine
 10
-2.399999999999977
 20
19.5
 30
0.0
 11
-2.399999999999977
 21
-19.5
 31
0.0
  0
LINE
  5
143
330
1F
100
AcDbEntity
  8
1
100
AcDbLine
 10
-1.69999999999993
 20
-24.03879704659999
 30
0.0
 11
-1.69999999999993
 21
-4.5
 31
0.0
  0
LINE
  5
144
330
1F
100
AcDbEntity
  8
1
100
AcDbLine
 10
-1.990401995299975
 20
-26.43662536170001
 30
0.0
 11
-1.69999999999993
 21
-24.04093112680001
 31
0.0
  0
LINE
  5
145
330
1F
100
AcDbEntity
  8
1
100
AcDbLine
 10
-1.984694308499966
 20
-26.3086436252
 30
0.0
 11
-1.724353390099963
 21
-22.78495138070002
 31
0.0
  0
LWPOLYLINE
  5
146
330
1F
100
AcDbEntity
  8
1
100
AcDbPolyline
 90
        5
 70
     0
 43
0.0
 10
-1.984694308499966
 20
-26.3086436252
 10
-1.985181990099929
 20
-26.31585477130002
 10
-1.985645469500013
 20
-26.3233860425
 10
-1.98608173599996
 20
-26.33124823240001
 10
-1.986907330999995
 20
-26.34783807039999
  0
LINE
  5
147
330
1F
100
AcDbEntity
  8
1
100
AcDbLine
 10
-1.986907330999995
 20
-26.34783807039999
 30
0.0
 11
-1.987697743099943
 21
-26.36550237930001
 31
0.0
  0
LINE
  5
148
330
1F
100
AcDbEntity
  8
1
100
AcDbLine
 10
-1.987697743099943
 20
-26.36550237930001
 30
0.0
 11
-1.988470925399951
 21
-26.38426873480003
 31
0.0
  0
LINE
  5
149
330
1F
100
AcDbEntity
  8
1
100
AcDbLine
 10
-1.988470925399951
 20
-26.38426873480003
 30
0.0
 11
-1.990401995299975
 21
-26.43662536170001
 31
0.0
  0
LWPOLYLINE
  5
14A
330
1F
100
AcDbEntity
  8
1
100
AcDbPolyline
 90
       10
 70
     0
 43
0.0
 10
-1.987145655400013
 20
-26.46652229030002
 10
-1.987305535199993
 20
-26.4656220601
 10
-1.987697743099943
 20
-26.4631304586
 10
-1.988085445399971
 20
-26.46028703060002
 10
-1.988470925399951
 20
-26.4571209606
 10
-1.988855114899931
 20
-26.45363529820002
 10
-1.989239431999975
 20
-26.4498435655
 10
-1.989624702000014
 20
-26.4457435285
 10
-1.990012385399948
 20
-26.44133774470001
 10
-1.990401995299975
 20
-26.43662536170001
  0
LWPOLYLINE
  5
14B
330
1F
100
AcDbEntity
  8
1
100
AcDbPolyline
 90
       11
 70
     0
 43
0.0
 10
-1.990401995299975
 20
-26.43662536170001
 10
-1.983173454400002
 20
-26.45013337450001
 10
-1.973797493800019
 20
-26.4626576659
 10
-1.962175257000012
 20
-26.47428032480002
 10
-1.94860331379999
 20
-26.48475508460001
 10
-1.933256801100014
 20
-26.49389944810002
 10
-1.916401160899965
 20
-26.501604197
 10
-1.898261074699973
 20
-26.50772125700001
 10
-1.879133960300008
 20
-26.5121846984
 10
-1.859438668299958
 20
-26.51486482200001
 10
-1.839035581999951
 20
-26.51580486100002
  0
ARC
  5
14C
330
1F
100
AcDbEntity
  8
1
100
AcDbCircle
 10
-2.5
 20
-20.29372539330001
 30
0.0
 40
0.8
100
AcDbArc
 50
0.0
 51
82.81924421849906
  0
LINE
  5
14D
330
1F
100
AcDbEntity
  8
1
100
AcDbLine
 10
-1.839035581999951
 20
0.0
 30
0.0
 11
-1.69999999999993
 21
-1.250918637300002
 31
0.0
  0
LINE
  5
14E
330
1F
100
AcDbEntity
  8
1
100
AcDbLine
 10
-1.985006204599983
 20
-0.1117851383999948
 30
0.0
 11
-1.700053047899984
 21
-2.675540468800022
 31
0.0
  0
LINE
  5
14F
330
1F
100
AcDbEntity
  8
1
100
AcDbLine
 10
-1.989624702000014
 20
-0.0219634570999858
 30
0.0
 11
-1.990401995299975
 21
0.0
 31
0.0
  0
LINE
  5
150
330
1F
100
AcDbEntity
  8
1
100
AcDbLine
 10
-1.988470925399951
 20
-0.0515143029000171
 30
0.0
 11
-1.989624702000014
 21
-0.0219634570999858
 31
0.0
  0
LINE
  5
151
330
1F
100
AcDbEntity
  8
1
100
AcDbLine
 10
-1.987697743099943
 20
-0.0690334769000174
 30
0.0
 11
-1.988470925399951
 21
-0.0515143029000171
 31
0.0
  0
LINE
  5
152
330
1F
100
AcDbEntity
  8
1
100
AcDbLine
 10
-1.986907330999995
 20
-0.0847931074999906
 30
0.0
 11
-1.987697743099943
 21
-0.0690334769000174
 31
0.0
  0
LWPOLYLINE
  5
153
330
1F
100
AcDbEntity
  8
1
100
AcDbPolyline
 90
        6
 70
     0
 43
0.0
 10
-1.984959856199964
 20
-0.1120680623000112
 10
-1.985181990099929
 20
-0.109895346400009
 10
-1.985645469500013
 20
-0.1046517798000082
 10
-1.98608173599996
 20
-0.098622739700005
 10
-1.986499821499933
 20
-0.0919593931000122
 10
-1.986907330999995
 20
-0.0847931074999906
  0
DIMENSION
  5
154
330
1F
100
AcDbEntity
  8
2
100
AcDbDimension
  2
*D5
 10
-1.690318130299946
 20
37.14373967330014
 30
0.0
 11
-15.660218602306
 21
50.82425255536692
 31
0.0
 70
   164
  1
<>
 71
     5
 42
0.1574027029760678
  3
ISO-25
100
AcDbRadialDimension
 15
-1.802777354599868
 25
37.25386929590021
 35
0.0
 40
0.0
  0
LINE
  5
155
330
1F
100
AcDbEntity
  8
1
100
AcDbLine
 10
-1.69999999999993
 20
26.51580486099998
 30
0.0
 11
-1.69999999999993
 21
36.72533185689997
 31
0.0
  0
LINE
  5
156
330
1F
100
AcDbEntity
  8
1
100
AcDbLine
 10
-1.984694308499966
 20
26.30864362529999
 30
0.0
 11
-1.69999999999993
 21
24.23080612059996
 31
0.0
  0
LINE
  5
157
330
1F
100
AcDbEntity
  8
1
100
AcDbLine
 10
-1.984694308499966
 20
26.30864362529999
 30
0.0
 11
-1.724353390099963
 21
22.78495138079998
 31
0.0
  0
LINE
  5
158
330
1F
100
AcDbEntity
  8
1
100
AcDbLine
 10
-1.69999999999993
 20
25.50105557340001
 30
0.0
 11
-1.69999999999993
 21
22.78675068199999
 31
0.0
  0
LWPOLYLINE
  5
159
330
1F
100
AcDbEntity
  8
1
100
AcDbPolyline
 90
        7
 70
     0
 43
0.0
 10
-1.984694308499966
 20
26.47043507119997
 10
-1.985181990099929
 20
26.47127026069998
 10
-1.985645469500013
 20
26.47138600889999
 10
-1.98608173599996
 20
26.47072184859998
 10
-1.986499821499933
 20
26.46945918099999
 10
-1.986907330999995
 20
26.46775363309996
 10
-1.987145655400013
 20
26.46652229029998
  0
LINE
  5
15A
330
1F
100
AcDbEntity
  8
1
100
AcDbLine
 10
-1.984694308499966
 20
26.47043507119997
 30
0.0
 11
-1.979500569999968
 21
26.45503956779998
 31
0.0
  0
LINE
  5
15B
330
1F
100
AcDbEntity
  8
1
100
AcDbLine
 10
-1.839035581999951
 20
26.51580486099998
 30
0.0
 11
-1.69999999999993
 21
25.50105557340001
 31
0.0
  0
LWPOLYLINE
  5
15C
330
1F
100
AcDbEntity
  8
1
100
AcDbPolyline
 90
        3
 70
     0
 43
0.0
 10
-1.986499821499933
 20
26.33940895999998
 10
-1.987305535199993
 20
26.35653967779997
 10
-1.987697743099943
 20
26.36550237930001
  0
LINE
  5
15D
330
1F
100
AcDbEntity
  8
1
100
AcDbLine
 10
-1.985645469500013
 20
26.3233860425
 30
0.0
 11
-1.986499821499933
 21
26.33940895999998
 31
0.0
  0
LWPOLYLINE
  5
15E
330
1F
100
AcDbEntity
  8
1
100
AcDbPolyline
 90
        3
 70
     0
 43
0.0
 10
-1.984694308499966
 20
26.30864362529999
 10
-1.985181990099929
 20
26.31585477139998
 10
-1.985645469500013
 20
26.3233860425
  0
LINE
  5
15F
330
1F
100
AcDbEntity
  8
1
100
AcDbLine
 10
-1.989239431999975
 20
26.40422584169996
 30
0.0
 11
-1.990401995299975
 21
26.43662536179999
 31
0.0
  0
LINE
  5
160
330
1F
100
AcDbEntity
  8
1
100
AcDbLine
 10
-1.987697743099943
 20
26.36550237930001
 30
0.0
 11
-1.989239431999975
 21
26.40422584169996
 31
0.0
  0
LINE
  5
161
330
1F
100
AcDbEntity
  8
1
100
AcDbLine
 10
-1.984694308499966
 20
26.47043507119997
 30
0.0
 11
-1.69999999999993
 21
28.01500158359998
 31
0.0
  0
LINE
  5
162
330
1F
100
AcDbEntity
  8
1
100
AcDbLine
 10
-1.986368226100012
 20
26.4707436075
 30
0.0
 11
-1.701673917599975
 21
28.01531011979998
 31
0.0
  0
LWPOLYLINE
  5
163
330
1F
100
AcDbEntity
  8
1
100
AcDbPolyline
 90
       10
 70
     0
 43
0.0
 10
-1.987145655400013
 20
26.46652229029998
 10
-1.987305535199993
 20
26.46562206009996
 10
-1.987697743099943
 20
26.4631304586
 10
-1.988085445399971
 20
26.46028703059997
 10
-1.988470925399951
 20
26.45712096069999
 10
-1.988855114899931
 20
26.4536352982
 10
-1.989239431999975
 20
26.44984356549997
 10
-1.989624702000014
 20
26.44574352849997
 10
-1.990012385399948
 20
26.44133774479999
 10
-1.990401995299975
 20
26.43662536179999
  0
LWPOLYLINE
  5
164
330
1F
100
AcDbEntity
  8
1
100
AcDbPolyline
 90
       11
 70
     0
 43
0.0
 10
-1.990401995299975
 20
26.43662536179999
 10
-1.983173454400002
 20
26.4501333746
 10
-1.973797493800019
 20
26.46265766599998
 10
-1.962175257000012
 20
26.47428032479999
 10
-1.94860331379999
 20
26.48475508469997
 10
-1.933256801100014
 20
26.49389944819998
 10
-1.916401160899965
 20
26.501604197
 10
-1.898261074699973
 20
26.50772125709996
 10
-1.879133960300008
 20
26.5121846984
 10
-1.859438668299958
 20
26.51486482199999
 10
-1.839035581999951
 20
26.51580486099998
  0
LINE
  5
165
330
1F
100
AcDbEntity
  8
1
100
AcDbLine
 10
-1.69999999999993
 20
33.99901085169998
 30
0.0
 11
-1.990401995299975
 21
37.38703412999999
 31
0.0
  0
LINE
  5
166
330
1F
100
AcDbEntity
  8
1
100
AcDbLine
 10
-1.69999999999993
 20
37.31485728409997
 30
0.0
 11
-1.69999999999993
 21
36.72533185689997
 31
0.0
  0
LINE
  5
167
330
1F
100
AcDbEntity
  8
1
100
AcDbLine
 10
-1.839035581999951
 20
37.49901085169998
 30
0.0
 11
-1.69999999999993
 21
37.31485728409997
 31
0.0
  0
LINE
  5
168
330
1F
100
AcDbEntity
  8
1
100
AcDbLine
 10
-1.984694308499966
 20
37.32044445099997
 30
0.0
 11
-1.69999999999993
 21
36.94336491619996
 31
0.0
  0
LWPOLYLINE
  5
169
330
1F
100
AcDbEntity
  8
1
100
AcDbPolyline
 90
       11
 70
     0
 43
0.0
 10
-1.990401995299975
 20
37.38703412999999
 10
-1.983173454400002
 20
37.40613734489997
 10
-1.973797493800019
 20
37.42384936759997
 10
-1.962175257000012
 20
37.44028628939996
 10
-1.94860331379999
 20
37.45509983689997
 10
-1.933256801100014
 20
37.46803191979998
 10
-1.916401160899965
 20
37.47892808009999
 10
-1.898261074699973
 20
37.48757890929999
 10
-1.879133960300008
 20
37.49389116860001
 10
-1.859438668299958
 20
37.49768143579996
 10
-1.839035581999951
 20
37.49901085169998
  0
LINE
  5
16A
330
1F
100
AcDbEntity
  8
1
100
AcDbLine
 10
-0.6999999999999318
 20
0.0
 30
0.0
 11
-0.6999999999999318
 21
22.78675068199999
 31
0.0
  0
DIMENSION
  5
16B
330
1F
100
AcDbEntity
  8
2
100
AcDbDimension
  2
*D6
 10
17.48491738811356
 20
19.49999999999999
 30
0.0
 11
17.48491738811355
 21
0.210600689521101
 31
0.0
 70
   160
  1
%%c<>
 71
     5
 42
39.0
  3
ISO-25
100
AcDbAlignedDimension
 13
0.5
 23
-19.5
 33
0.0
 14
0.5
 24
19.5
 34
0.0
 50
90.0
100
AcDbRotatedDimension
  0
LINE
  5
16C
330
1F
100
AcDbEntity
  8
1
100
AcDbLine
 10
0.0
 20
19.5
 30
0.0
 11
0.0
 21
-19.5
 31
0.0
  0
LINE
  5
16D
330
1F
100
AcDbEntity
  8
1
100
AcDbLine
 10
-0.6999999999999318
 20
-4.5
 30
0.0
 11
-0.6999999999999318
 21
-1.250918637300002
 31
0.0
  0
DIMENSION
  5
16E
330
1F
100
AcDbEntity
  8
SK2
100
AcDbDimension
  2
*D7
 10
10.26298806478405
 20
-11.00000000000002
 30
0.0
 11
10.26298806478405
 21
0.0745349292314757
 31
0.0
 70
   160
  1
%%C<>
 71
     5
 42
22.00000000000007
  3
ISO-25
100
AcDbAlignedDimension
 13
0.0
 23
11.00000000000002
 33
0.0
 14
0.0
 24
-11.00000000000002
 34
0.0
 50
90.0
100
AcDbRotatedDimension
  0
LINE
  5
16F
330
1F
100
AcDbEntity
  8
1
100
AcDbLine
 10
-0.6999999999999318
 20
-24.03879704659999
 30
0.0
 11
-0.6999999999999318
 21
-4.5
 31
0.0
  0
LWPOLYLINE
  5
170
330
1F
100
AcDbEntity
  8
1
100
AcDbPolyline
 90
       10
 70
     0
 43
0.0
 10
-0.4095980047000012
 20
-26.43662536170001
 10
-0.4099876146999577
 20
-26.44133774470001
 10
-0.4103752980999503
 20
-26.4457435285
 10
-0.4107605680999316
 20
-26.4498435655
 10
-0.4111448850999297
 20
-26.45363529820002
 10
-0.4115290745999687
 20
-26.4571209606
 10
-0.4119145546000027
 20
-26.46028703060002
 10
-0.4123022569999649
 20
-26.4631304586
 10
-0.4126944648999711
 20
-26.4656220601
 10
-0.4128543445999642
 20
-26.46652229030002
  0
LINE
  5
171
330
1F
100
AcDbEntity
  8
1
100
AcDbLine
 10
-0.4095980047000012
 20
-26.43662536170001
 30
0.0
 11
-0.4115290745999687
 21
-26.38426873480003
 31
0.0
  0
LINE
  5
172
330
1F
100
AcDbEntity
  8
1
100
AcDbLine
 10
-0.4115290745999687
 20
-26.38426873480003
 30
0.0
 11
-0.4126944648999711
 21
-26.3565396777
 31
0.0
  0
LINE
  5
173
330
1F
100
AcDbEntity
  8
1
100
AcDbLine
 10
-0.4126944648999711
 20
-26.3565396777
 30
0.0
 11
-0.4135001784999305
 21
-26.33940895990003
 31
0.0
  0
LINE
  5
174
330
1F
100
AcDbEntity
  8
1
100
AcDbLine
 10
-0.4135001784999305
 20
-26.33940895990003
 30
0.0
 11
-0.414354530599951
 21
-26.3233860425
 31
0.0
  0
LWPOLYLINE
  5
175
330
1F
100
AcDbEntity
  8
1
100
AcDbPolyline
 90
        3
 70
     0
 43
0.0
 10
-0.414354530599951
 20
-26.3233860425
 10
-0.4148180098999319
 20
-26.31585477130002
 10
-0.4153056914999528
 20
-26.3086436252
  0
LINE
  5
176
330
1F
100
AcDbEntity
  8
1
100
AcDbLine
 10
-0.4153056914999528
 20
-26.3086436252
 30
0.0
 11
-0.6756466098999569
 21
-22.78495138070002
 31
0.0
  0
LINE
  5
177
330
1F
100
AcDbEntity
  8
1
100
AcDbLine
 10
-0.4095980047000012
 20
-26.43662536170001
 30
0.0
 11
-0.6999999999999318
 21
-24.04093112680001
 31
0.0
  0
LWPOLYLINE
  5
178
330
1F
100
AcDbEntity
  8
1
100
AcDbPolyline
 90
       11
 70
     0
 43
0.0
 10
-0.5609644179999691
 20
-26.51580486100002
 10
-0.540561331699962
 20
-26.51486482200001
 10
-0.5208660397999552
 20
-26.5121846984
 10
-0.5017389253999909
 20
-26.50772125700001
 10
-0.4835988390999546
 20
-26.501604197
 10
-0.4667431988999624
 20
-26.49389944810002
 10
-0.451396686199985
 20
-26.48475508460001
 10
-0.4378247429999649
 20
-26.47428032480002
 10
-0.4262025061999566
 20
-26.4626576659
 10
-0.4168265455999747
 20
-26.45013337450001
 10
-0.4095980047000012
 20
-26.43662536170001
  0
LINE
  5
179
330
1F
100
AcDbEntity
  8
1
100
AcDbLine
 10
-0.6999469520999924
 20
-2.675540468800022
 30
0.0
 11
-0.4149937954999814
 21
-0.1117851383999948
 31
0.0
  0
LINE
  5
17A
330
1F
100
AcDbEntity
  8
1
100
AcDbLine
 10
-0.6999999999999318
 20
-1.250918637300002
 30
0.0
 11
-0.5609644179999691
 21
0.0
 31
0.0
  0
LWPOLYLINE
  5
17B
330
1F
100
AcDbEntity
  8
1
100
AcDbPolyline
 90
        8
 70
     0
 43
0.0
 10
-0.4119145546000027
 20
-0.0604890681000256
 10
-0.4126944648999711
 20
-0.0771328922999999
 10
-0.4130926690999674
 20
-0.0847931074999906
 10
-0.4135001784999305
 20
-0.0919593931000122
 10
-0.413918264099948
 20
-0.098622739700005
 10
-0.414354530599951
 20
-0.1046517798000082
 10
-0.4148180098999319
 20
-0.109895346400009
 10
-0.4150401439000009
 20
-0.1120680623000112
  0
LINE
  5
17C
330
1F
100
AcDbEntity
  8
1
100
AcDbLine
 10
-0.4111448850999297
 20
-0.0421026203000281
 30
0.0
 11
-0.4119145546000027
 21
-0.0604890681000256
 31
0.0
  0
LINE
  5
17D
330
1F
100
AcDbEntity
  8
1
100
AcDbLine
 10
-0.4095980047000012
 20
0.0
 30
0.0
 11
-0.4111448850999297
 21
-0.0421026203000281
 31
0.0
  0
LINE
  5
17E
330
1F
100
AcDbEntity
  8
1
100
AcDbLine
 10
-0.6999999999999318
 20
26.51580486099998
 30
0.0
 11
-0.6999999999999318
 21
36.72533185689997
 31
0.0
  0
LINE
  5
17F
330
1F
100
AcDbEntity
  8
1
100
AcDbLine
 10
-0.6999999999999318
 20
22.78675068199999
 30
0.0
 11
-0.6999999999999318
 21
25.50105557340001
 31
0.0
  0
LINE
  5
180
330
1F
100
AcDbEntity
  8
1
100
AcDbLine
 10
-0.4153056914999528
 20
26.30864362529999
 30
0.0
 11
-0.6756466098999569
 21
22.78495138079998
 31
0.0
  0
LINE
  5
181
330
1F
100
AcDbEntity
  8
1
100
AcDbLine
 10
-0.6999999999999318
 20
24.23080612059996
 30
0.0
 11
-0.4153056914999528
 21
26.30864362529999
 31
0.0
  0
LWPOLYLINE
  5
182
330
1F
100
AcDbEntity
  8
1
100
AcDbPolyline
 90
       11
 70
     0
 43
0.0
 10
-0.5609644179999691
 20
26.51580486099998
 10
-0.540561331699962
 20
26.51486482199999
 10
-0.5208660397999552
 20
26.5121846984
 10
-0.5017389253999909
 20
26.50772125709996
 10
-0.4835988390999546
 20
26.501604197
 10
-0.4667431988999624
 20
26.49389944819998
 10
-0.451396686199985
 20
26.48475508469997
 10
-0.4378247429999649
 20
26.47428032479999
 10
-0.4262025061999566
 20
26.46265766599998
 10
-0.4168265455999747
 20
26.4501333746
 10
-0.4095980047000012
 20
26.43662536179999
  0
LINE
  5
183
330
1F
100
AcDbEntity
  8
1
100
AcDbLine
 10
-0.6983260823999446
 20
28.01531011979998
 30
0.0
 11
-0.4136317738999651
 21
26.4707436075
 31
0.0
  0
LINE
  5
184
330
1F
100
AcDbEntity
  8
1
100
AcDbLine
 10
-0.6999999999999318
 20
28.01500158359998
 30
0.0
 11
-0.4153056914999528
 21
26.47043507119997
 31
0.0
  0
LWPOLYLINE
  5
185
330
1F
100
AcDbEntity
  8
1
100
AcDbPolyline
 90
        7
 70
     0
 43
0.0
 10
-0.4128543445999642
 20
26.46652229029998
 10
-0.4130926690999674
 20
26.46775363309996
 10
-0.4135001784999305
 20
26.46945918099999
 10
-0.413918264099948
 20
26.47072184859998
 10
-0.414354530599951
 20
26.47138600889999
 10
-0.4148180098999319
 20
26.47127026069998
 10
-0.4153056914999528
 20
26.47043507119997
  0
LWPOLYLINE
  5
186
330
1F
100
AcDbEntity
  8
1
100
AcDbPolyline
 90
       10
 70
     0
 43
0.0
 10
-0.4095980047000012
 20
26.43662536179999
 10
-0.4099876146999577
 20
26.44133774479999
 10
-0.4103752980999503
 20
26.44574352849997
 10
-0.4107605680999316
 20
26.44984356549997
 10
-0.4111448850999297
 20
26.4536352982
 10
-0.4115290745999687
 20
26.45712096069999
 10
-0.4119145546000027
 20
26.46028703059997
 10
-0.4123022569999649
 20
26.4631304586
 10
-0.4126944648999711
 20
26.46562206009996
 10
-0.4128543445999642
 20
26.46652229029998
  0
LWPOLYLINE
  5
187
330
1F
100
AcDbEntity
  8
1
100
AcDbPolyline
 90
        4
 70
     0
 43
0.0
 10
-0.4135001784999305
 20
26.33940895999998
 10
-0.414354530599951
 20
26.3233860425
 10
-0.4148180098999319
 20
26.31585477139998
 10
-0.4153056914999528
 20
26.30864362529999
  0
LINE
  5
188
330
1F
100
AcDbEntity
  8
1
100
AcDbLine
 10
-0.4126944648999711
 20
26.35653967779997
 30
0.0
 11
-0.4135001784999305
 21
26.33940895999998
 31
0.0
  0
LINE
  5
189
330
1F
100
AcDbEntity
  8
1
100
AcDbLine
 10
-0.4115290745999687
 20
26.3842687348
 30
0.0
 11
-0.4126944648999711
 21
26.35653967779997
 31
0.0
  0
LINE
  5
18A
330
1F
100
AcDbEntity
  8
1
100
AcDbLine
 10
-0.4095980047000012
 20
26.43662536179999
 30
0.0
 11
-0.4115290745999687
 21
26.3842687348
 31
0.0
  0
LINE
  5
18B
330
1F
100
AcDbEntity
  8
1
100
AcDbLine
 10
-0.6999999999999318
 20
25.50105557340001
 30
0.0
 11
-0.5609644179999691
 21
26.51580486099998
 31
0.0
  0
LINE
  5
18C
330
1F
100
AcDbEntity
  8
1
100
AcDbLine
 10
-0.4153056914999528
 20
26.47043507119997
 30
0.0
 11
-0.42049942999995
 21
26.45503956779998
 31
0.0
  0
LINE
  5
18D
330
1F
100
AcDbEntity
  8
1
100
AcDbLine
 10
-0.6999999999999318
 20
36.72533185689997
 30
0.0
 11
-0.6999999999999318
 21
37.31485728409997
 31
0.0
  0
LINE
  5
18E
330
1F
100
AcDbEntity
  8
1
100
AcDbLine
 10
-0.4095980047000012
 20
37.38703412999999
 30
0.0
 11
-0.6999999999999318
 21
33.99901085169998
 31
0.0
  0
LWPOLYLINE
  5
18F
330
1F
100
AcDbEntity
  8
1
100
AcDbPolyline
 90
       11
 70
     0
 43
0.0
 10
-0.5609644179999691
 20
37.49901085169998
 10
-0.540561331699962
 20
37.49768143579996
 10
-0.5208660397999552
 20
37.49389116860001
 10
-0.5017389253999909
 20
37.48757890929999
 10
-0.4835988390999546
 20
37.47892808009999
 10
-0.4667431988999624
 20
37.46803191979998
 10
-0.451396686199985
 20
37.45509983689997
 10
-0.4378247429999649
 20
37.44028628939996
 10
-0.4262025061999566
 20
37.42384936759997
 10
-0.4168265455999747
 20
37.40613734489997
 10
-0.4095980047000012
 20
37.38703412999999
  0
LINE
  5
190
330
1F
100
AcDbEntity
  8
1
100
AcDbLine
 10
-0.6999999999999318
 20
36.94336491619996
 30
0.0
 11
-0.4153056914999528
 21
37.32044445099997
 31
0.0
  0
LINE
  5
191
330
1F
100
AcDbEntity
  8
1
100
AcDbLine
 10
-0.6999999999999318
 20
37.31485728409997
 30
0.0
 11
-0.5609644179999691
 21
37.49901085169998
 31
0.0
  0
MTEXT
  5
24F
330
1F
100
AcDbEntity
  8
6
100
AcDbMText
 10
22.03573229334482
 20
-0.6752957135123268
 30
0.0
 40
3.5
 41
26.605
 71
     1
 72
     5
  1
Z=8
 11
0.0000000000000001
 21
1.0
 31
0.0
 73
     1
 44
1.0
  0
MTEXT
  5
251
330
1F
100
AcDbEntity
  8
6
100
AcDbMText
 10
2.919992070826879
 20
37.49659080273588
 30
0.0
 40
3.5
 41
38.223
 71
     1
 72
     5
  1
GCXF071601N
 73
     1
 44
1.0
  0
LWPOLYLINE
  5
264
330
1F
100
AcDbEntity
  8
NOCUT
100
AcDbPolyline
 90
       71
 70
     1
 43
0.0
 10
-0.6999999999999318
 20
-28.0243917100838
 10
-0.4128713440353664
 20
-26.46661800855026
 10
-0.4126944648999711
 20
-26.4656220601
 10
-0.4123022569999649
 20
-26.4631304586
 10
-0.4119145546000027
 20
-26.46028703060002
 10
-0.4115290745999687
 20
-26.4571209606
 10
-0.4111448850999297
 20
-26.45363529820002
 10
-0.4107605680999315
 20
-26.4498435655
 10
-0.4103752980999503
 20
-26.4457435285
 10
-0.4099876146999577
 20
-26.44133774470001
 10
-0.4095980047000012
 20
-26.43662536170001
 10
-0.4115290745999687
 20
-26.38426873480003
 10
-0.4126944648999711
 20
-26.3565396777
 10
-0.4135001784999305
 20
-26.33940895990003
 10
-0.414354530599951
 20
-26.3233860425
 10
-0.4148180098999319
 20
-26.31585477130002
 10
-0.4153056914999526
 20
-26.3086436252
 10
-0.6999999999999318
 20
-22.45533031171878
 10
-0.6999999999999318
 20
-20.29372539330001
 42
-0.3779644730090144
 10
-0.0000000000005684
 20
-19.49999999998071
 10
0.0
 20
0.0
 10
-2.399999999999977
 20
0.0
 10
-2.399999999999977
 20
-19.5
 42
-0.3779644730090145
 10
-1.700000000000002
 20
-20.29372539330001
 10
-1.69999999999993
 20
-22.45533031171801
 10
-1.984694308499966
 20
-26.3086436252
 10
-1.98518199009993
 20
-26.31585477130002
 10
-1.985645469500013
 20
-26.3233860425
 10
-1.98608173599996
 20
-26.33124823240001
 10
-1.986907330999996
 20
-26.34783807039999
 10
-1.987697743099943
 20
-26.36550237930001
 10
-1.988470925399951
 20
-26.38426873480003
 10
-1.990401995299975
 20
-26.43662536170001
 10
-1.990012385399949
 20
-26.44133774470001
 10
-1.989624702000014
 20
-26.4457435285
 10
-1.989239431999975
 20
-26.4498435655
 10
-1.988855114899933
 20
-26.45363529820002
 10
-1.988470925399951
 20
-26.4571209606
 10
-1.988085445399973
 20
-26.46028703060002
 10
-1.987697743099943
 20
-26.4631304586
 10
-1.987305535199993
 20
-26.4656220601
 10
-1.987128655674594
 20
-26.46661801012342
 10
-1.69999999999993
 20
-28.02439171008442
 10
-1.69999999999993
 20
-29.2293511821
 10
-1.69999999999993
 20
-33.95000000000001
 10
-1.69999999999993
 20
-33.99901085159999
 10
-1.990401995299975
 20
-37.38703413000001
 10
-1.983173454400002
 20
-37.40613734480001
 10
-1.973797493800019
 20
-37.4238493676
 10
-1.962175257000012
 20
-37.4402862894
 10
-1.948603313799991
 20
-37.45509983679999
 10
-1.933256801100014
 20
-37.46803191970002
 10
-1.916401160899965
 20
-37.47892808
 10
-1.898261074699973
 20
-37.48757890929999
 10
-1.879133960300008
 20
-37.49389116860001
 10
-1.859438668299958
 20
-37.49768143579997
 10
-1.839035581999951
 20
-37.49901085159999
 10
-0.5609644179999691
 20
-37.49901085159999
 10
-0.540561331699962
 20
-37.49768143579997
 10
-0.5208660397999552
 20
-37.49389116860001
 10
-0.5017389253999909
 20
-37.48757890929999
 10
-0.4835988390999546
 20
-37.47892808
 10
-0.4667431988999624
 20
-37.46803191970002
 10
-0.4513966861999849
 20
-37.45509983679999
 10
-0.4378247429999648
 20
-37.4402862894
 10
-0.4262025061999566
 20
-37.4238493676
 10
-0.4168265455999746
 20
-37.40613734480001
 10
-0.4095980047000012
 20
-37.38703413000001
 10
-0.6999999999999318
 20
-33.99901085159999
 10
-0.6999999999999318
 20
-33.95000000000001
 10
-0.6999999999999318
 20
-29.2293511821
  0
LINE
  5
287
330
1F
100
AcDbEntity
  8
CUT
100
AcDbLine
 10
-1.990401995299976
 20
37.38703413000007
 30
0.0
 11
-1.699999999999931
 21
33.99901085170003
 31
0.0
  0
LINE
  5
288
330
1F
100
AcDbEntity
  8
CUT
100
AcDbLine
 10
-0.4095980046999444
 20
37.38703413000007
 30
0.0
 11
-0.6999999999999318
 21
33.99901085170003
 31
0.0
  0
LINE
  5
289
330
1F
100
AcDbEntity
  8
CUT
100
AcDbLine
 10
-0.6999999999999318
 20
33.99901085170003
 30
0.0
 11
-1.699999999999931
 21
33.99901085170003
 31
0.0
  0
LWPOLYLINE
  5
28A
330
1F
100
AcDbEntity
  8
CUT
100
AcDbPolyline
 90
       11
 70
     0
 43
0.0
 10
-0.4095980046999444
 20
37.38703413000007
 10
-0.4168265455999461
 20
37.40613734490009
 10
-0.4262025060999406
 20
37.42384936760004
 10
-0.4378247429999647
 20
37.44028628940006
 10
-0.4513966861999564
 20
37.45509983689996
 10
-0.4667431988999624
 20
37.46803191970008
 10
-0.4835988390999262
 20
37.47892808010004
 10
-0.5017389253000318
 20
37.48757890930005
 10
-0.5208660396999392
 20
37.49389116860007
 10
-0.540561331699962
 20
37.49768143580004
 10
-0.5609644179999691
 20
37.49901085169998
  0
LWPOLYLINE
  5
28B
330
1F
100
AcDbEntity
  8
CUT
100
AcDbPolyline
 90
       11
 70
     0
 43
0.0
 10
-1.839035581999951
 20
37.49901085169998
 10
-1.859438668299958
 20
37.49768143580004
 10
-1.879133960199936
 20
37.49389116860007
 10
-1.898261074599957
 20
37.48757890930005
 10
-1.916401160799949
 20
37.47892808010004
 10
-1.933256801099958
 20
37.46803191970008
 10
-1.948603313700033
 20
37.45509983689996
 10
-1.962175256999955
 20
37.44028628940006
 10
-1.973797493799963
 20
37.42384936760004
 10
-1.983173454399974
 20
37.40613734490009
 10
-1.990401995299976
 20
37.38703413000007
  0
LINE
  5
28C
330
1F
100
AcDbEntity
  8
CUT
100
AcDbLine
 10
-0.5609644179999691
 20
37.49901085169998
 30
0.0
 11
-1.839035581999951
 21
37.49901085169998
 31
0.0
  0
ENDSEC
  0
SECTION
  2
OBJECTS
  0
DICTIONARY
  5
C
330
0
100
AcDbDictionary
281
     1
  3
ACAD_GROUP
350
D
  3
ACAD_LAYOUT
350
1A
  3
ACAD_MLINESTYLE
350
17
  3
ACAD_PLOTSETTINGS
350
19
  3
ACAD_PLOTSTYLENAME
350
E
  0
DICTIONARY
  5
D
102
{ACAD_REACTORS
330
C
102
}
330
C
100
AcDbDictionary
281
     1
  0
DICTIONARY
  5
1A
102
{ACAD_REACTORS
330
C
102
}
330
C
100
AcDbDictionary
281
     1
  3
Layout1
350
1E
  3
Layout2
350
26
  3
Model
350
22
  0
DICTIONARY
  5
17
102
{ACAD_REACTORS
330
C
102
}
330
C
100
AcDbDictionary
281
     1
  3
Standard
350
18
  0
DICTIONARY
  5
19
102
{ACAD_REACTORS
330
C
102
}
330
C
100
AcDbDictionary
281
     1
  0
ACDBDICTIONARYWDFLT
  5
E
102
{ACAD_REACTORS
330
C
102
}
330
C
100
AcDbDictionary
281
     1
  3
Normal
350
F
100
AcDbDictionaryWithDefault
340
F
  0
LAYOUT
  5
1E
102
{ACAD_REACTORS
330
1A
102
}
330
1A
100
AcDbPlotSettings
  1

  2
\\ingdom02\ITB2
  4

  6

 40
0.0
 41
0.0
 42
0.0
 43
0.0
 44
0.0
 45
0.0
 46
0.0
 47
0.0
 48
0.0
 49
0.0
140
0.0
141
0.0
142
1.0
143
1.0
 70
   688
 72
     0
 73
     0
 74
     5
  7

 75
    16
147
1.0
148
0.0
149
0.0
100
AcDbLayout
  1
Layout1
 70
     1
 71
     1
 10
0.0
 20
0.0
 11
420.0
 21
297.0
 12
0.0
 22
0.0
 32
0.0
 14
1.000000000000000E+20
 24
1.000000000000000E+20
 34
1.000000000000000E+20
 15
-1.000000000000000E+20
 25
-1.000000000000000E+20
 35
-1.000000000000000E+20
146
0.0
 13
0.0
 23
0.0
 33
0.0
 16
1.0
 26
0.0
 36
0.0
 17
0.0
 27
1.0
 37
0.0
 76
     0
330
1B
  0
LAYOUT
  5
26
102
{ACAD_REACTORS
330
1A
102
}
330
1A
100
AcDbPlotSettings
  1

  2
\\ingdom02\ITB2
  4

  6

 40
0.0
 41
0.0
 42
0.0
 43
0.0
 44
0.0
 45
0.0
 46
0.0
 47
0.0
 48
0.0
 49
0.0
140
0.0
141
0.0
142
1.0
143
1.0
 70
   688
 72
     0
 73
     0
 74
     5
  7

 75
    16
147
1.0
148
0.0
149
0.0
100
AcDbLayout
  1
Layout2
 70
     1
 71
     2
 10
0.0
 20
0.0
 11
12.0
 21
9.0
 12
0.0
 22
0.0
 32
0.0
 14
0.0
 24
0.0
 34
0.0
 15
0.0
 25
0.0
 35
0.0
146
0.0
 13
0.0
 23
0.0
 33
0.0
 16
1.0
 26
0.0
 36
0.0
 17
0.0
 27
1.0
 37
0.0
 76
     0
330
23
  0
LAYOUT
  5
22
102
{ACAD_REACTORS
330
1A
102
}
330
1A
100
AcDbPlotSettings
  1

  2
\\ingdom02\ITB2
  4

  6

 40
0.0
 41
0.0
 42
0.0
 43
0.0
 44
0.0
 45
0.0
 46
0.0
 47
0.0
 48
0.0
 49
0.0
140
0.0
141
0.0
142
1.0
143
1.0
 70
  1712
 72
     0
 73
     0
 74
     0
  7

 75
     0
147
1.0
148
0.0
149
0.0
100
AcDbLayout
  1
Model
 70
     1
 71
     0
 10
0.0
 20
0.0
 11
12.0
 21
9.0
 12
0.0
 22
0.0
 32
0.0
 14
0.0
 24
0.0
 34
0.0
 15
0.0
 25
0.0
 35
0.0
146
0.0
 13
0.0
 23
0.0
 33
0.0
 16
1.0
 26
0.0
 36
0.0
 17
0.0
 27
1.0
 37
0.0
 76
     0
330
1F
  0
MLINESTYLE
  5
18
102
{ACAD_REACTORS
330
17
102
}
330
17
100
AcDbMlineStyle
  2
STANDARD
 70
     0
  3

 62
   256
 51
90.0
 52
90.0
 71
     2
 49
0.5
 62
   256
  6
BYLAYER
 49
-0.5
 62
   256
  6
BYLAYER
  0
ACDBPLACEHOLDER
  5
F
102
{ACAD_REACTORS
330
E
102
}
330
E
  0
ENDSEC
  0
EOF
