  0
SECTION
  2
HEADER
  9
$ACADVER
  1
AC1014
  9
$ACADMAINTVER
 70
     9
  9
$DWGCODEPAGE
  3
ANSI_1252
  9
$INSBASE
 10
0.0
 20
0.0
 30
0.0
  9
$EXTMIN
 10
-31.83212134055134
 20
-30.58960611546069
 30
-0.0000000000112498
  9
$EXTMAX
 10
67.0996576183511
 20
79.83469893430617
 30
0.0000000000002956
  9
$LIMMIN
 10
0.0
 20
0.0
  9
$LIMMAX
 10
420.0
 20
297.0
  9
$ORTHOMODE
 70
     0
  9
$REGENMODE
 70
     1
  9
$FILLMODE
 70
     1
  9
$QTEXTMODE
 70
     0
  9
$MIRRTEXT
 70
     1
  9
$DRAGMODE
 70
     2
  9
$LTSCALE
 40
1.0
  9
$OSMODE
 70
  2599
  9
$ATTMODE
 70
     1
  9
$TEXTSIZE
 40
2.5
  9
$TRACEWID
 40
1.0
  9
$TEXTSTYLE
  7
STANDARD
  9
$CLAYER
  8
0
  9
$CELTYPE
  6
BYLAYER
  9
$CECOLOR
 62
   256
  9
$CELTSCALE
 40
1.0
  9
$DELOBJ
 70
     1
  9
$DISPSILH
 70
     0
  9
$DIMSCALE
 40
1.0
  9
$DIMASZ
 40
2.5
  9
$DIMEXO
 40
0.0
  9
$DIMDLI
 40
10.0
  9
$DIMRND
 40
0.0
  9
$DIMDLE
 40
0.0
  9
$DIMEXE
 40
1.0
  9
$DIMTP
 40
0.1
  9
$DIMTM
 40
0.1
  9
$DIMTXT
 40
3.5
  9
$DIMCEN
 40
0.0
  9
$DIMTSZ
 40
0.0
  9
$DIMTOL
 70
     0
  9
$DIMLIM
 70
     0
  9
$DIMTIH
 70
     0
  9
$DIMTOH
 70
     0
  9
$DIMSE1
 70
     0
  9
$DIMSE2
 70
     0
  9
$DIMTAD
 70
     1
  9
$DIMZIN
 70
     8
  9
$DIMBLK
  1

  9
$DIMASO
 70
     1
  9
$DIMSHO
 70
     1
  9
$DIMPOST
  1

  9
$DIMAPOST
  1
"
  9
$DIMALT
 70
     0
  9
$DIMALTD
 70
     2
  9
$DIMALTF
 40
0.0393701
  9
$DIMLFAC
 40
1.0
  9
$DIMTOFL
 70
     1
  9
$DIMTVP
 40
0.0
  9
$DIMTIX
 70
     0
  9
$DIMSOXD
 70
     0
  9
$DIMSAH
 70
     0
  9
$DIMBLK1
  1

  9
$DIMBLK2
  1

  9
$DIMSTYLE
  2
AM_DIN
  9
$DIMCLRD
 70
   256
  9
$DIMCLRE
 70
   256
  9
$DIMCLRT
 70
     2
  9
$DIMTFAC
 40
0.71
  9
$DIMGAP
 40
1.5
  9
$DIMJUST
 70
     0
  9
$DIMSD1
 70
     0
  9
$DIMSD2
 70
     0
  9
$DIMTOLJ
 70
     0
  9
$DIMTZIN
 70
     8
  9
$DIMALTZ
 70
     0
  9
$DIMALTTZ
 70
     0
  9
$DIMFIT
 70
     3
  9
$DIMUPT
 70
     0
  9
$DIMUNIT
 70
     2
  9
$DIMDEC
 70
     2
  9
$DIMTDEC
 70
     2
  9
$DIMALTU
 70
     2
  9
$DIMALTTD
 70
     2
  9
$DIMTXSTY
  7
STANDARD
  9
$DIMAUNIT
 70
     0
  9
$LUNITS
 70
     2
  9
$LUPREC
 70
     2
  9
$SKETCHINC
 40
1.0
  9
$FILLETRAD
 40
2.0
  9
$AUNITS
 70
     0
  9
$AUPREC
 70
     0
  9
$MENU
  1
.
  9
$ELEVATION
 40
0.0
  9
$PELEVATION
 40
0.0
  9
$THICKNESS
 40
0.0
  9
$LIMCHECK
 70
     0
  9
$BLIPMODE
 70
     0
  9
$CHAMFERA
 40
2.5
  9
$CHAMFERB
 40
2.5
  9
$CHAMFERC
 40
20.0
  9
$CHAMFERD
 40
0.0
  9
$SKPOLY
 70
     0
  9
$TDCREATE
 40
2453599.366006042
  9
$TDUPDATE
 40
2453610.498845220
  9
$TDINDWG
 40
0.0365117477
  9
$TDUSRTIMER
 40
0.0364874074
  9
$USRTIMER
 70
     1
  9
$ANGBASE
 50
0.0
  9
$ANGDIR
 70
     0
  9
$PDMODE
 70
     0
  9
$PDSIZE
 40
0.0
  9
$PLINEWID
 40
0.0
  9
$COORDS
 70
     0
  9
$SPLFRAME
 70
     0
  9
$SPLINETYPE
 70
     6
  9
$SPLINESEGS
 70
     8
  9
$ATTDIA
 70
     1
  9
$ATTREQ
 70
     1
  9
$HANDLING
 70
 22529
  9
$HANDSEED
  5
251F
  9
$SURFTAB1
 70
     6
  9
$SURFTAB2
 70
     6
  9
$SURFTYPE
 70
     6
  9
$SURFU
 70
     6
  9
$SURFV
 70
     6
  9
$UCSNAME
  2

  9
$UCSORG
 10
0.0
 20
0.0
 30
0.0
  9
$UCSXDIR
 10
1.0
 20
0.0
 30
0.0
  9
$UCSYDIR
 10
0.0
 20
1.0
 30
0.0
  9
$PUCSNAME
  2

  9
$PUCSORG
 10
0.0
 20
0.0
 30
0.0
  9
$PUCSXDIR
 10
1.0
 20
0.0
 30
0.0
  9
$PUCSYDIR
 10
0.0
 20
1.0
 30
0.0
  9
$USERI1
 70
     0
  9
$USERI2
 70
     0
  9
$USERI3
 70
     0
  9
$USERI4
 70
     0
  9
$USERI5
 70
     0
  9
$USERR1
 40
0.0
  9
$USERR2
 40
0.0
  9
$USERR3
 40
0.0
  9
$USERR4
 40
0.0
  9
$USERR5
 40
0.0
  9
$WORLDVIEW
 70
     1
  9
$SHADEDGE
 70
     3
  9
$SHADEDIF
 70
    70
  9
$TILEMODE
 70
     1
  9
$MAXACTVP
 70
    64
  9
$PINSBASE
 10
0.0
 20
0.0
 30
0.0
  9
$PLIMCHECK
 70
     0
  9
$PEXTMIN
 10
1.000000000000000E+20
 20
1.000000000000000E+20
 30
1.000000000000000E+20
  9
$PEXTMAX
 10
-1.000000000000000E+20
 20
-1.000000000000000E+20
 30
-1.000000000000000E+20
  9
$PLIMMIN
 10
0.0
 20
0.0
  9
$PLIMMAX
 10
420.0
 20
297.0
  9
$UNITMODE
 70
     0
  9
$VISRETAIN
 70
     1
  9
$PLINEGEN
 70
     0
  9
$PSLTSCALE
 70
     1
  9
$TREEDEPTH
 70
  3020
  9
$PICKSTYLE
 70
     0
  9
$CMLSTYLE
  2
STANDARD
  9
$CMLJUST
 70
     0
  9
$CMLSCALE
 40
20.0
  9
$PROXYGRAPHICS
 70
     1
  9
$MEASUREMENT
 70
     1
  0
ENDSEC
  0
SECTION
  2
CLASSES
  0
CLASS
  1
ACDBDICTIONARYWDFLT
  2
AcDbDictionaryWithDefault
  3
AutoCAD 2000
 90
        0
280
     0
281
     0
  0
CLASS
  1
ACDBPLACEHOLDER
  2
AcDbPlaceHolder
  3
AutoCAD 2000
 90
        0
280
     0
281
     0
  0
CLASS
  1
LAYOUT
  2
AcDbLayout
  3
AutoCAD 2000
 90
        0
280
     0
281
     0
  0
CLASS
  1
ACME_DOCUMENT
  2
AcMeDbDoc
  3
AcMeServices
 90
        0
280
     0
281
     0
  0
CLASS
  1
ACMESCOPE
  2
AcMeScope
  3
AcMeServices
 90
        0
280
     0
281
     0
  0
CLASS
  1
ACMECOMMANDHISTORY
  2
AcMeCommandHistory
  3
AcMeServices
 90
        0
280
     0
281
     0
  0
CLASS
  1
ACIMSYSVARMAN
  2
AcImSysVarManager
  3
AcMeServices
 90
        0
280
     0
281
     0
  0
CLASS
  1
ACIMREALSYSVAR
  2
AcImRealSysVar
  3
AcMeServices
 90
        0
280
     0
281
     0
  0
CLASS
  1
ACIMINTSYSVAR
  2
AcImIntSysVar
  3
AcMeServices
 90
        0
280
     0
281
     0
  0
CLASS
  1
ACMEDRAWINGMAN
  2
AcMeDrawingMan
  3
AcMeServices
 90
        0
280
     0
281
     0
  0
CLASS
  1
ACMEVIEW
  2
AcMeView
  3
AcMeServices
 90
        0
280
     0
281
     0
  0
CLASS
  1
ACDBENTITYCACHE
  2
AcMeEntityCache
  3
AcMeServices
 90
        0
280
     0
281
     0
  0
CLASS
  1
GSMANAGER
  2
AcMeGSManager
  3
AcMeServices
 90
        0
280
     0
281
     0
  0
CLASS
  1
AMDTINTERNALREACTOR
  2
AmdtInternalReactor
  3
AcMeServices
 90
        0
280
     0
281
     0
  0
CLASS
  1
ACMESTATEMGR
  2
AcMeStateMgr
  3
AcMeServices
 90
        0
280
     0
281
     0
  0
CLASS
  1
ACGREFMASTER
  2
AcGrefMaster
  3
AcAttribServices
 90
        0
280
     0
281
     0
  0
CLASS
  1
ACME_DATABASE
  2
AcMeDbDatabase
  3
AcMeServices
 90
        0
280
     0
281
     0
  0
CLASS
  1
ACRFINSADJUSTERMGR
  2
AcRfInsAdjusterMgr
  3
AcMeServices
 90
        0
280
     0
281
     0
  0
CLASS
  1
ACGREFACADMASTER
  2
AcGrefacadMaster
  3
AcGrefServices
 90
        0
280
     0
281
     0
  0
CLASS
  1
AMIMASTER
  2
AmiMaster
  3
AmiServices
 90
        0
280
     0
281
     0
  0
CLASS
  1
AMGSETTINGSOBJ
  2
AmgSettingsObj
  3
"AcadM|Product Description: AutoCAD Mechanical 2000|Company: Autodesk"
 90
        0
280
     0
281
     0
  0
CLASS
  1
ACMDATADICTIONARY
  2
AcmDataDictionary
  3
"AcmSymBB|Product Description: AutoCAD Mechanical 2000|Company: Autodesk"
 90
        0
280
     0
281
     0
  0
CLASS
  1
ACMDATAENTRYBLOCK
  2
AcmDataEntryBlock
  3
"AcmSymBB|Product Description: AutoCAD Mechanical 2000|Company: Autodesk"
 90
        0
280
     0
281
     0
  0
CLASS
  1
ACIMSTRSYSVAR
  2
AcImStrSysVar
  3
AcMeServices
 90
        0
280
     0
281
     0
  0
CLASS
  1
ACMSTANDARDDIN
  2
AcmStandardDIN
  3
"Amdt_StdImp|Product Description: AutoCAD Mechanical 2000|Company: Autodesk"
 90
        0
280
     0
281
     0
  0
CLASS
  1
AMGOBJPROPCFG
  2
AmgObjPropCfg
  3
"AmgLay|Product Description: AutoCAD Mechanical 2000|Company: Autodesk"
 90
        1
280
     0
281
     0
  0
CLASS
  1
AMDTEDGESTANDARDDIN
  2
AmdtEdgeStdDIN
  3
"Amdt_StdImp|Product Description: AutoCAD Mechanical 2000|Company: Autodesk"
 90
        0
280
     0
281
     0
  0
CLASS
  1
ACMSURFSTANDARDDIN
  2
AcmSurfTextStdDIN
  3
"Amdt_StdImp|Product Description: AutoCAD Mechanical 2000|Company: Autodesk"
 90
        0
280
     0
281
     0
  0
CLASS
  1
ACMFCFSTANDARDDIN
  2
AcmFCFStdDIN
  3
"Amdt_StdImp|Product Description: AutoCAD Mechanical 2000|Company: Autodesk"
 90
        0
280
     0
281
     0
  0
CLASS
  1
ACMWELDSTANDARDDIN
  2
AcmWeldingStdDIN
  3
"Amdt_StdImp|Product Description: AutoCAD Mechanical 2000|Company: Autodesk"
 90
        0
280
     0
281
     0
  0
CLASS
  1
ACMIDSTANDARDDIN
  2
AcmIdStdDIN
  3
"Amdt_StdImp|Product Description: AutoCAD Mechanical 2000|Company: Autodesk"
 90
        0
280
     0
281
     0
  0
CLASS
  1
ACMDATUMSTANDARDDIN
  2
AcmDatumStdDIN
  3
"Amdt_StdImp|Product Description: AutoCAD Mechanical 2000|Company: Autodesk"
 90
        0
280
     0
281
     0
  0
CLASS
  1
ACMBOMSTANDARDDIN
  2
AcmBOMStdDIN
  3
"Amdt_StdImp|Product Description: AutoCAD Mechanical 2000|Company: Autodesk"
 90
        0
280
     0
281
     0
  0
CLASS
  1
ACMDETAILSTANDARDDIN
  2
AmdtDetailSymStdDIN
  3
"Amdt_StdImp|Product Description: AutoCAD Mechanical 2000|Company: Autodesk"
 90
        0
280
     0
281
     0
  0
CLASS
  1
ACMSECTIONSTANDARDDIN
  2
AmdtSectionSymStdDIN
  3
"Amdt_StdImp|Product Description: AutoCAD Mechanical 2000|Company: Autodesk"
 90
        0
280
     0
281
     0
  0
CLASS
  1
ACMCENTERLINESTANDARDDIN
  2
AmdtCenterLineStdDIN
  3
"Amdt_StdImp|Product Description: AutoCAD Mechanical 2000|Company: Autodesk"
 90
        0
280
     0
281
     0
  0
CLASS
  1
ACMNOTESTANDARDDIN
  2
AmdtNoteStdDIN
  3
"Amdt_StdImp|Product Description: AutoCAD Mechanical 2000|Company: Autodesk"
 90
        0
280
     0
281
     0
  0
CLASS
  1
ACAMGLAYSTD
  2
AcAmgLayStd
  3
"AcAmgLayStd|Product Description: AutoCAD Mechanical 2000|Company: Autodesk"
 90
        0
280
     0
281
     0
  0
CLASS
  1
ACAMGDIMSTD
  2
AcAmgDimStd
  3
"AcAmgDimStd|Product Description: AutoCAD Mechanical 2000|Company: Autodesk"
 90
        0
280
     0
281
     0
  0
CLASS
  1
ACAMGHOLECHARTSTDDIN
  2
AcAmgHoleChartStdDIN
  3
ACMSYMBB_MODULE_NAME
 90
        0
280
     0
281
     0
  0
CLASS
  1
ACAMGTITLESTD
  2
AcAmgTitleStd
  3
"TITLEAPP"
 90
        0
280
     0
281
     0
  0
CLASS
  1
ACMSTANDARDANSI
  2
AcmStandardANSI
  3
"Amdt_StdImp|Product Description: AutoCAD Mechanical 2000|Company: Autodesk"
 90
        0
280
     0
281
     0
  0
CLASS
  1
ACMSURFSTANDARDANSI
  2
AcmSurfTextStdANSI
  3
"Amdt_StdImp|Product Description: AutoCAD Mechanical 2000|Company: Autodesk"
 90
        0
280
     0
281
     0
  0
CLASS
  1
ACMFCFSTANDARDANSI
  2
AcmFCFStdANSI
  3
"Amdt_StdImp|Product Description: AutoCAD Mechanical 2000|Company: Autodesk"
 90
        0
280
     0
281
     0
  0
CLASS
  1
ACMWELDSTANDARDANSI
  2
AcmWeldingStdANSI
  3
"Amdt_StdImp|Product Description: AutoCAD Mechanical 2000|Company: Autodesk"
 90
        0
280
     0
281
     0
  0
CLASS
  1
ACMIDSTANDARDANSI
  2
AcmIdStdANSI
  3
"Amdt_StdImp|Product Description: AutoCAD Mechanical 2000|Company: Autodesk"
 90
        0
280
     0
281
     0
  0
CLASS
  1
ACMDATUMSTANDARDANSI
  2
AcmDatumStdANSI
  3
"Amdt_StdImp|Product Description: AutoCAD Mechanical 2000|Company: Autodesk"
 90
        0
280
     0
281
     0
  0
CLASS
  1
ACMBOMSTANDARDANSI
  2
AcmBOMStdANSI
  3
"Amdt_StdImp|Product Description: AutoCAD Mechanical 2000|Company: Autodesk"
 90
        0
280
     0
281
     0
  0
CLASS
  1
ACMDETAILSTANDARDANSI
  2
AmdtDetailSymStdANSI
  3
"Amdt_StdImp|Product Description: AutoCAD Mechanical 2000|Company: Autodesk"
 90
        0
280
     0
281
     0
  0
CLASS
  1
ACMSECTIONSTANDARDANSI
  2
AmdtSectionSymStdANSI
  3
"Amdt_StdImp|Product Description: AutoCAD Mechanical 2000|Company: Autodesk"
 90
        0
280
     0
281
     0
  0
CLASS
  1
ACMCENTERLINESTANDARDANSI
  2
AmdtCenterLineStdANSI
  3
"Amdt_StdImp|Product Description: AutoCAD Mechanical 2000|Company: Autodesk"
 90
        0
280
     0
281
     0
  0
CLASS
  1
ACMNOTESTANDARDANSI
  2
AmdtNoteStdANSI
  3
"Amdt_StdImp|Product Description: AutoCAD Mechanical 2000|Company: Autodesk"
 90
        0
280
     0
281
     0
  0
CLASS
  1
ACAMGHOLECHARTSTDANSI
  2
AcAmgHoleChartStdANSI
  3
ACMSYMBB_MODULE_NAME
 90
        0
280
     0
281
     0
  0
CLASS
  1
ACAMGFILTERDAT
  2
AcAmgFilterDat
  3
"AcadM|Product Description: AutoCAD Mechanical 2000|Company: Autodesk"
 90
        0
280
     0
281
     0
  0
CLASS
  1
AMDTFORMULAUPDATEDISPATCHER
  2
AmdtFormulaUpdateDispatcher
  3
AcMeServices
 90
        0
280
     0
281
     0
  0
CLASS
  1
LAYER_INDEX
  2
AcDbLayerIndex
  3
AutoCAD 2000
 90
        0
280
     0
281
     0
  0
CLASS
  1
IDBUFFER
  2
AcDbIdBuffer
  3
AutoCAD 2000
 90
        0
280
     0
281
     0
  0
CLASS
  1
DICTIONARYVAR
  2
AcDbDictionaryVar
  3
AutoCAD 2000
 90
        0
280
     0
281
     0
  0
CLASS
  1
DIMASSOC
  2
AcDbDimAssoc
  3
"AcDbDimAssoc|Product Desc:     AcDim ARX App For Dimension|Company:          Autodesk, Inc.|WEB Address:      www.autodesk.com"
 90
        0
280
     0
281
     0
  0
CLASS
  1
ACMDIMBREAKPERSREACTOR
  2
AcmDimBreakPersReactor
  3
amgDimApp().moduleName()
 90
     1023
280
     0
281
     0
  0
CLASS
  1
ACMSURFSYM
  2
AcmSurfaceTexture
  3
"AcmSymBB|Product Description: AutoCAD Mechanical 2000|Company: Autodesk"
 90
     1023
280
     0
281
     1
  0
CLASS
  1
ACMFCFRAME
  2
AcmFCF
  3
"AcmSymBB|Product Description: AutoCAD Mechanical 2000|Company: Autodesk"
 90
     1023
280
     0
281
     1
  0
CLASS
  1
LONG_TRANSACTION
  2
AcDbLongTransaction
  3
AutoCAD 2000
 90
        0
280
     0
281
     0
  0
CLASS
  1
LWPOLYLINE
  2
AcDbPolyline
  3
AutoCAD 2000
 90
        0
280
     0
281
     1
  0
CLASS
  1
HATCH
  2
AcDbHatch
  3
AutoCAD 2000
 90
        0
280
     0
281
     1
  0
CLASS
  1
XRECORD
  2
AcDbXrecord
  3
AutoCAD 2000
 90
        0
280
     0
281
     0
  0
ENDSEC
  0
SECTION
  2
TABLES
  0
TABLE
  2
VPORT
  5
8
330
0
100
AcDbSymbolTable
 70
    50
  0
VPORT
  5
24F8
330
8
100
AcDbSymbolTableRecord
100
AcDbViewportTableRecord
  2
*ACTIVE
 70
     0
 10
0.0
 20
0.0
 11
1.0
 21
1.0
 12
194.0839393297243
 22
133.2051969422696
 13
0.0
 23
0.0
 14
2.5
 24
2.5
 15
10.0
 25
10.0
 16
0.0
 26
0.0
 36
1.0
 17
0.0
 27
0.0
 37
0.0
 40
331.2027267711458
 41
1.694290976058931
 42
50.0
 43
0.0
 44
0.0
 50
0.0
 51
0.0
 71
     0
 72
 10000
 73
     1
 74
     3
 75
     0
 76
     0
 77
     0
 78
     0
  0
ENDTAB
  0
TABLE
  2
LTYPE
  5
5
330
0
100
AcDbSymbolTable
 70
    16
  0
LTYPE
  5
14
330
5
100
AcDbSymbolTableRecord
100
AcDbLinetypeTableRecord
  2
BYBLOCK
 70
     0
  3

 72
    65
 73
     0
 40
0.0
  0
LTYPE
  5
15
330
5
100
AcDbSymbolTableRecord
100
AcDbLinetypeTableRecord
  2
BYLAYER
 70
     0
  3

 72
    65
 73
     0
 40
0.0
  0
LTYPE
  5
16
330
5
100
AcDbSymbolTableRecord
100
AcDbLinetypeTableRecord
  2
CONTINUOUS
 70
     0
  3
Solid line
 72
    65
 73
     0
 40
0.0
  0
LTYPE
  5
50
330
5
100
AcDbSymbolTableRecord
100
AcDbLinetypeTableRecord
  2
AMCONSTR
 70
     0
  3
_______________________
 72
    65
 73
     2
 40
9999.0
 49
9999.0
 74
     0
 49
0.0
 74
     0
  0
LTYPE
  5
55
330
5
100
AcDbSymbolTableRecord
100
AcDbLinetypeTableRecord
  2
AMZIGZAG
 70
     0
  3
/\/-/\/-/\/-/\/-/\/-/\/
 72
    65
 73
     2
 40
11.00009999999999
 49
0.0001
 74
     4
 75
   135
340
54
 46
0.04
 50
0.0
 44
0.0
 45
0.0
 49
-11.0
 74
     0
  0
LTYPE
  5
56
330
5
100
AcDbSymbolTableRecord
100
AcDbLinetypeTableRecord
  2
AM_DIN_F_W050
 70
     0
  3
__ __ __ __ __ __ __ __ __ __ __ __ __ __ __
 72
    65
 73
     2
 40
6.25
 49
4.75
 74
     0
 49
-1.5
 74
     0
  0
LTYPE
  5
57
330
5
100
AcDbSymbolTableRecord
100
AcDbLinetypeTableRecord
  2
AM_DIN_G_W050
 70
     0
  3
____ . ____ . ____ . ____ . ____ . ____ . ____
 72
    65
 73
     4
 40
13.75
 49
9.75
 74
     0
 49
-1.5
 74
     0
 49
1.0
 74
     0
 49
-1.5
 74
     0
  0
LTYPE
  5
58
330
5
100
AcDbSymbolTableRecord
100
AcDbLinetypeTableRecord
  2
AM_DIN_K_W050
 70
     0
  3
_____ . . _____ . . _____ . . ____ .. ____
 72
    65
 73
     6
 40
16.25
 49
9.75
 74
     0
 49
-1.5
 74
     0
 49
1.0
 74
     0
 49
-1.5
 74
     0
 49
1.0
 74
     0
 49
-1.5
 74
     0
  0
LTYPE
  5
59
330
5
100
AcDbSymbolTableRecord
100
AcDbLinetypeTableRecord
  2
AM_DIN_G_W050X2
 70
     0
  3
__ . __ . __ . __ . __ . __
 72
    65
 73
     4
 40
6.875
 49
4.75
 74
     0
 49
-0.875
 74
     0
 49
0.375
 74
     0
 49
-0.875
 74
     0
  0
LTYPE
  5
5A
330
5
100
AcDbSymbolTableRecord
100
AcDbLinetypeTableRecord
  2
AM_DIN_F_W050X2
 70
     0
  3
 _ _ _ _ _ _ _ _ _ _ _ _
 72
    65
 73
     2
 40
3.125
 49
2.25
 74
     0
 49
-0.875
 74
     0
  0
LTYPE
  5
68
330
5
100
AcDbSymbolTableRecord
100
AcDbLinetypeTableRecord
  2
ACDINWELD
 70
     0
  3
_ _ _ _ _
 72
    65
 73
     2
 40
2.0
 49
2.0
 74
     0
 49
-1.0
 74
     0
  0
LTYPE
  5
69
330
5
100
AcDbSymbolTableRecord
100
AcDbLinetypeTableRecord
  2
ACDINTGB
 70
     0
  3
__ . . __ . .
 72
    65
 73
     6
 40
9.0
 49
4.0
 74
     0
 49
-1.0
 74
     0
 49
1.0
 74
     0
 49
-1.0
 74
     0
 49
1.0
 74
     0
 49
-1.0
 74
     0
  0
LTYPE
  5
6A
330
5
100
AcDbSymbolTableRecord
100
AcDbLinetypeTableRecord
  2
ACDINTGL
 70
     0
  3
_ _ _ _ _
 72
    65
 73
     2
 40
3.0
 49
2.0
 74
     0
 49
-1.0
 74
     0
  0
LTYPE
  5
6C
330
5
100
AcDbSymbolTableRecord
100
AcDbLinetypeTableRecord
  2
CENTER
 70
     0
  3
__ . __
 72
    65
 73
     4
 40
7.0
 49
4.0
 74
     0
 49
-1.0
 74
     0
 49
1.0
 74
     0
 49
-1.0
 74
     0
  0
LTYPE
  5
1E2C
330
5
100
AcDbSymbolTableRecord
100
AcDbLinetypeTableRecord
  2
PHANTOM2
 70
     0
  3
Phantom (.5x) ___ _ _ ___ _ _ ___ _ _ ___ _ _
 72
    65
 73
     6
 40
1.25
 49
0.625
 74
     0
 49
-0.125
 74
     0
 49
0.125
 74
     0
 49
-0.125
 74
     0
 49
0.125
 74
     0
 49
-0.125
 74
     0
  0
LTYPE
  5
1E2D
330
5
100
AcDbSymbolTableRecord
100
AcDbLinetypeTableRecord
  2
ACANSTGB
 70
     0
  3
__ . . __ . .
 72
    65
 73
     6
 40
0.35433070866
 49
0.15748031496
 74
     0
 49
-0.03937007874
 74
     0
 49
0.03937007874
 74
     0
 49
-0.03937007874
 74
     0
 49
0.03937007874
 74
     0
 49
-0.03937007874
 74
     0
  0
LTYPE
  5
1E2E
330
5
100
AcDbSymbolTableRecord
100
AcDbLinetypeTableRecord
  2
ACANSTGL
 70
     0
  3
_ _ _ _ _
 72
    65
 73
     2
 40
0.11811023622
 49
0.07874015748
 74
     0
 49
-0.03937007874
 74
     0
  0
LTYPE
  5
1E2F
330
5
100
AcDbSymbolTableRecord
100
AcDbLinetypeTableRecord
  2
DASHED
 70
     0
  3
__ __ __ __ __ __ __ __ __ __ __ __ __ __ __ __
 72
    65
 73
     2
 40
19.05
 49
12.7
 74
     0
 49
-6.349999999999998
 74
     0
  0
ENDTAB
  0
TABLE
  2
LAYER
  5
2
330
0
100
AcDbSymbolTable
 70
    14
  0
LAYER
  5
10
330
2
100
AcDbSymbolTableRecord
100
AcDbLayerTableRecord
  2
0
 70
     0
 62
     7
  6
CONTINUOUS
  0
LAYER
  5
263
330
2
100
AcDbSymbolTableRecord
100
AcDbLayerTableRecord
  2
DEFPOINTS
 70
     0
 62
     7
  6
CONTINUOUS
  0
LAYER
  5
1E30
330
2
100
AcDbSymbolTableRecord
100
AcDbLayerTableRecord
  2
1
 70
     0
 62
     4
  6
CONTINUOUS
  0
LAYER
  5
1E31
330
2
100
AcDbSymbolTableRecord
100
AcDbLayerTableRecord
  2
2
 70
     0
 62
     7
  6
CONTINUOUS
  0
LAYER
  5
1E32
330
2
100
AcDbSymbolTableRecord
100
AcDbLayerTableRecord
  2
4
 70
     0
 62
     2
  6
CENTER
  0
LAYER
  5
1E33
330
2
100
AcDbSymbolTableRecord
100
AcDbLayerTableRecord
  2
6
 70
     0
 62
     5
  6
CONTINUOUS
  0
LAYER
  5
1E34
330
2
100
AcDbSymbolTableRecord
100
AcDbLayerTableRecord
  2
SK1
 70
     0
 62
     4
  6
CONTINUOUS
  0
LAYER
  5
1E35
330
2
100
AcDbSymbolTableRecord
100
AcDbLayerTableRecord
  2
SK2
 70
     0
 62
     7
  6
CONTINUOUS
  0
LAYER
  5
1E36
330
2
100
AcDbSymbolTableRecord
100
AcDbLayerTableRecord
  2
SK3
 70
     0
 62
     1
  6
DASHED
  0
LAYER
  5
1E37
330
2
100
AcDbSymbolTableRecord
100
AcDbLayerTableRecord
  2
CUT
 70
     0
 62
     1
  6
CONTINUOUS
  0
LAYER
  5
1E38
330
2
100
AcDbSymbolTableRecord
100
AcDbLayerTableRecord
  2
NOCUT
 70
     0
 62
     7
  6
CONTINUOUS
  0
ENDTAB
  0
TABLE
  2
STYLE
  5
3
330
0
100
AcDbSymbolTable
 70
     6
  0
STYLE
  5
11
330
3
100
AcDbSymbolTableRecord
100
AcDbTextStyleTableRecord
  2
STANDARD
 70
     0
 40
0.0
 41
1.0
 50
0.0
 71
     0
 42
2.5
  3
ISOCP.SHX
  4

  0
STYLE
  5
54
330
3
100
AcDbSymbolTableRecord
100
AcDbTextStyleTableRecord
  2

 70
     1
 40
0.0
 41
1.0
 50
0.0
 71
     0
 42
2.5
  3
ltypeshp.shx
  4

  0
STYLE
  5
5B
330
3
100
AcDbSymbolTableRecord
100
AcDbTextStyleTableRecord
  2
ACDINTS
 70
     0
 40
1.0
 41
1.0
 50
0.0
 71
     0
 42
2.5
  3
isocp.shx
  4

  0
STYLE
  5
67
330
3
100
AcDbSymbolTableRecord
100
AcDbTextStyleTableRecord
  2
ACDINGDT
 70
     0
 40
0.0
 41
1.0
 50
0.0
 71
     0
 42
2.5
  3
amgdt.shx
  4

  0
STYLE
  5
1E39
330
3
100
AcDbSymbolTableRecord
100
AcDbTextStyleTableRecord
  2
ACANSTS
 70
     0
 40
1.0
 41
1.0
 50
0.0
 71
     0
 42
0.2
  3
romans.shx
  4

  0
STYLE
  5
1E3A
330
3
100
AcDbSymbolTableRecord
100
AcDbTextStyleTableRecord
  2
ACANSGDT
 70
     0
 40
0.0
 41
1.0
 50
0.0
 71
     0
 42
0.2
  3
amgdtans.shx
  4

  0
ENDTAB
  0
TABLE
  2
VIEW
  5
6
330
0
100
AcDbSymbolTable
 70
     0
  0
ENDTAB
  0
TABLE
  2
UCS
  5
7
330
0
100
AcDbSymbolTable
 70
     0
  0
ENDTAB
  0
TABLE
  2
APPID
  5
9
330
0
100
AcDbSymbolTable
 70
    53
  0
APPID
  5
12
330
9
100
AcDbSymbolTableRecord
100
AcDbRegAppTableRecord
  2
ACAD
 70
     0
  0
APPID
  5
2C
330
9
100
AcDbSymbolTableRecord
100
AcDbRegAppTableRecord
  2
MCAD_NO_VIS
 70
     0
  0
APPID
  5
2D
330
9
100
AcDbSymbolTableRecord
100
AcDbRegAppTableRecord
  2
ACAD_TEMP_GRAPHIC
 70
     0
  0
APPID
  5
3E
330
9
100
AcDbSymbolTableRecord
100
AcDbRegAppTableRecord
  2
ACATTRIBSERVICES
 70
     0
  0
APPID
  5
29A
330
9
100
AcDbSymbolTableRecord
100
AcDbRegAppTableRecord
  2
GENIUS_GENDIMSH_14
 70
     0
  0
APPID
  5
588
330
9
100
AcDbSymbolTableRecord
100
AcDbRegAppTableRecord
  2
GENIUS12
 70
     0
  0
APPID
  5
589
330
9
100
AcDbSymbolTableRecord
100
AcDbRegAppTableRecord
  2
GENIUS_GENOENT_13
 70
     0
  0
APPID
  5
58A
330
9
100
AcDbSymbolTableRecord
100
AcDbRegAppTableRecord
  2
GENIUS_GENODEF_13
 70
     0
  0
APPID
  5
58B
330
9
100
AcDbSymbolTableRecord
100
AcDbRegAppTableRecord
  2
GENIUS_GENOBJ-N-RSBK_13
 70
     0
  0
APPID
  5
58C
330
9
100
AcDbSymbolTableRecord
100
AcDbRegAppTableRecord
  2
GENIUS_GENOBJ-N-DIM12_13
 70
     0
  0
APPID
  5
58D
330
9
100
AcDbSymbolTableRecord
100
AcDbRegAppTableRecord
  2
GENIUS_GENSCALE_13
 70
     0
  0
APPID
  5
58E
330
9
100
AcDbSymbolTableRecord
100
AcDbRegAppTableRecord
  2
GENIUS_GENCFG_13
 70
     0
  0
APPID
  5
58F
330
9
100
AcDbSymbolTableRecord
100
AcDbRegAppTableRecord
  2
GENIUS_GENCFG0_13
 70
     0
  0
APPID
  5
590
330
9
100
AcDbSymbolTableRecord
100
AcDbRegAppTableRecord
  2
GENIUS_GENCFG1_13
 70
     0
  0
APPID
  5
591
330
9
100
AcDbSymbolTableRecord
100
AcDbRegAppTableRecord
  2
GENIUS_GENCFG2_13
 70
     0
  0
APPID
  5
592
330
9
100
AcDbSymbolTableRecord
100
AcDbRegAppTableRecord
  2
GENIUS_GENCFG3_13
 70
     0
  0
APPID
  5
593
330
9
100
AcDbSymbolTableRecord
100
AcDbRegAppTableRecord
  2
GENIUS_GENCFG4_13
 70
     0
  0
APPID
  5
594
330
9
100
AcDbSymbolTableRecord
100
AcDbRegAppTableRecord
  2
GENIUS_GEVCFG0_13
 70
     0
  0
APPID
  5
595
330
9
100
AcDbSymbolTableRecord
100
AcDbRegAppTableRecord
  2
GENIUS_GENOBJ-F-SUF_13
 70
     0
  0
APPID
  5
596
330
9
100
AcDbSymbolTableRecord
100
AcDbRegAppTableRecord
  2
GENIUS_GEFCFG0_13
 70
     0
  0
APPID
  5
597
330
9
100
AcDbSymbolTableRecord
100
AcDbRegAppTableRecord
  2
GEV_VCCNULL_SWITCH_OFF
 70
     0
  0
APPID
  5
598
330
9
100
AcDbSymbolTableRecord
100
AcDbRegAppTableRecord
  2
GENIUS_GENDTOL_13
 70
     0
  0
APPID
  5
599
330
9
100
AcDbSymbolTableRecord
100
AcDbRegAppTableRecord
  2
GENIUS_GENDIM_13
 70
     0
  0
APPID
  5
59A
330
9
100
AcDbSymbolTableRecord
100
AcDbRegAppTableRecord
  2
GENIUS_GE3DTOL_13
 70
     0
  0
APPID
  5
59B
330
9
100
AcDbSymbolTableRecord
100
AcDbRegAppTableRecord
  2
AD_DRAW
 70
     0
  0
APPID
  5
59C
330
9
100
AcDbSymbolTableRecord
100
AcDbRegAppTableRecord
  2
ASURF_PCURVE_APPNAME
 70
     0
  0
APPID
  5
59D
330
9
100
AcDbSymbolTableRecord
100
AcDbRegAppTableRecord
  2
AMG_3D2D_5_0
 70
     0
  0
APPID
  5
59E
330
9
100
AcDbSymbolTableRecord
100
AcDbRegAppTableRecord
  2
DESIGNERASSEMBLIES
 70
     0
  0
APPID
  5
59F
330
9
100
AcDbSymbolTableRecord
100
AcDbRegAppTableRecord
  2
ACADM_DIM_EDIT
 70
     0
  0
APPID
  5
5A0
330
9
100
AcDbSymbolTableRecord
100
AcDbRegAppTableRecord
  2
AMDT_DM_ADJ
 70
     0
  0
APPID
  5
5A1
330
9
100
AcDbSymbolTableRecord
100
AcDbRegAppTableRecord
  2
GENIUS_GENSCREG_15
 70
     0
  0
APPID
  5
5A2
330
9
100
AcDbSymbolTableRecord
100
AcDbRegAppTableRecord
  2
GENIUS_GENOBJ-N-SDF_13
 70
     0
  0
APPID
  5
6E4
330
9
100
AcDbSymbolTableRecord
100
AcDbRegAppTableRecord
  2
GENIUS_GENOBJ-N-FIL_13
 70
     0
  0
APPID
  5
C65
330
9
100
AcDbSymbolTableRecord
100
AcDbRegAppTableRecord
  2
GENIUS_GENHINW_13
 70
     0
  0
APPID
  5
C66
330
9
100
AcDbSymbolTableRecord
100
AcDbRegAppTableRecord
  2
GENIUS_GENOBJ-F-TOLL_13
 70
     0
  0
APPID
  5
C67
330
9
100
AcDbSymbolTableRecord
100
AcDbRegAppTableRecord
  2
GENIUS_GENOREF_13
 70
     0
  0
APPID
  5
C68
330
9
100
AcDbSymbolTableRecord
100
AcDbRegAppTableRecord
  2
GENIUS_GENOLIS_13
 70
     0
  0
APPID
  5
C69
330
9
100
AcDbSymbolTableRecord
100
AcDbRegAppTableRecord
  2
GENIUS_GEFTOLC_13
 70
     0
  0
APPID
  5
C6A
330
9
100
AcDbSymbolTableRecord
100
AcDbRegAppTableRecord
  2
GENIUS_GENOBJ-F-TOL_13
 70
     0
  0
APPID
  5
C6B
330
9
100
AcDbSymbolTableRecord
100
AcDbRegAppTableRecord
  2
GENIUS_GENOBJ-N-RSSYM_13
 70
     0
  0
APPID
  5
C6C
330
9
100
AcDbSymbolTableRecord
100
AcDbRegAppTableRecord
  2
GENIUS_GENSYMENT_13
 70
     0
  0
APPID
  5
C6D
330
9
100
AcDbSymbolTableRecord
100
AcDbRegAppTableRecord
  2
GENIUS_GENSCSYM_13
 70
     0
  0
APPID
  5
1E42
330
9
100
AcDbSymbolTableRecord
100
AcDbRegAppTableRecord
  2
GENIUS_GENBLLY_14
 70
     0
  0
APPID
  5
1E43
330
9
100
AcDbSymbolTableRecord
100
AcDbRegAppTableRecord
  2
GENIUS_GENTRA_14
 70
     0
  0
APPID
  5
1E44
330
9
100
AcDbSymbolTableRecord
100
AcDbRegAppTableRecord
  2
GENIUS_GENOBJ-N-TIT_13
 70
     0
  0
APPID
  5
1E45
330
9
100
AcDbSymbolTableRecord
100
AcDbRegAppTableRecord
  2
GENIUS_GENTITLE_13
 70
     0
  0
APPID
  5
1E46
330
9
100
AcDbSymbolTableRecord
100
AcDbRegAppTableRecord
  2
ACADIGES
 70
     0
  0
APPID
  5
1E47
330
9
100
AcDbSymbolTableRecord
100
AcDbRegAppTableRecord
  2
GENIUS_GENOBJ-N-HTC_13
 70
     0
  0
APPID
  5
1E48
330
9
100
AcDbSymbolTableRecord
100
AcDbRegAppTableRecord
  2
GENIUS_GENHATCH_13
 70
     0
  0
APPID
  5
1E49
330
9
100
AcDbSymbolTableRecord
100
AcDbRegAppTableRecord
  2
GENIUS_GENOBJ-N-CRS_13
 70
     0
  0
APPID
  5
1E4A
330
9
100
AcDbSymbolTableRecord
100
AcDbRegAppTableRecord
  2
GENIUS_GENFIL_13
 70
     0
  0
APPID
  5
1E4B
330
9
100
AcDbSymbolTableRecord
100
AcDbRegAppTableRecord
  2
GENIUS_GENOBJ-N-CHA_13
 70
     0
  0
APPID
  5
1E4C
330
9
100
AcDbSymbolTableRecord
100
AcDbRegAppTableRecord
  2
GENIUS_GENOBJ-N-CEN_13
 70
     0
  0
ENDTAB
  0
TABLE
  2
DIMSTYLE
  5
A
330
0
100
AcDbSymbolTable
 70
    14
  0
DIMSTYLE
105
6F
102
{ACAD_REACTORS
330
1AEA
330
2070
330
20A1
330
20FB
330
247E
102
}
330
A
100
AcDbSymbolTableRecord
100
AcDbDimStyleTableRecord
  2
AM_DIN
 70
     0
  3

  4
"
  5

  6

  7

 40
1.0
 41
2.5
 42
0.0
 43
10.0
 44
1.0
 45
0.0
 46
0.0
 47
0.1
 48
0.1
140
3.5
141
0.0
142
0.0
143
0.0393701
144
1.0
145
0.0
146
0.71
147
1.5
 71
     0
 72
     0
 73
     0
 74
     0
 75
     0
 76
     0
 77
     1
 78
     8
170
     0
171
     2
172
     1
173
     0
174
     0
175
     0
176
   256
177
   256
178
     2
270
     2
271
     2
272
     2
273
     2
274
     2
340
11
275
     0
280
     0
281
     0
282
     0
283
     0
284
     8
285
     0
286
     0
287
     3
288
     0
  0
DIMSTYLE
105
70
330
A
100
AcDbSymbolTableRecord
100
AcDbDimStyleTableRecord
  2
AM_DIN$3
 70
     0
  3

  4
"
  5

  6

  7

 40
1.0
 41
3.5
 42
0.0
 43
10.0
 44
1.0
 45
0.0
 46
0.0
 47
0.1
 48
0.1
140
3.5
141
0.0
142
0.0
143
0.0393701
144
1.0
145
0.0
146
0.71
147
1.5
 71
     0
 72
     0
 73
     0
 74
     1
 75
     0
 76
     0
 77
     1
 78
     8
170
     0
171
     2
172
     0
173
     0
174
     0
175
     0
176
   256
177
   256
178
     2
270
     2
271
     2
272
     2
273
     2
274
     2
340
11
275
     0
280
     0
281
     0
282
     0
283
     0
284
     8
285
     0
286
     0
287
     0
288
     1
  0
DIMSTYLE
105
71
330
A
100
AcDbSymbolTableRecord
100
AcDbDimStyleTableRecord
  2
AM_DIN$4
 70
     0
  3

  4
"
  5

  6

  7

 40
1.0
 41
3.5
 42
0.0
 43
10.0
 44
1.0
 45
0.0
 46
0.0
 47
0.1
 48
0.1
140
3.5
141
0.0
142
0.0
143
0.0393701
144
1.0
145
0.0
146
0.71
147
1.5
 71
     0
 72
     0
 73
     0
 74
     1
 75
     0
 76
     0
 77
     1
 78
     8
170
     0
171
     2
172
     0
173
     0
174
     0
175
     0
176
   256
177
   256
178
     2
270
     2
271
     2
272
     2
273
     2
274
     2
340
11
275
     0
280
     0
281
     0
282
     0
283
     0
284
     8
285
     0
286
     0
287
     0
288
     1
  0
DIMSTYLE
105
72
330
A
100
AcDbSymbolTableRecord
100
AcDbDimStyleTableRecord
  2
AM_DIN$6
 70
     0
  3

  4
"
  5

  6

  7

 40
1.0
 41
3.5
 42
0.0
 43
0.0
 44
1.0
 45
0.0
 46
0.0
 47
0.1
 48
0.1
140
3.5
141
0.0
142
0.0
143
0.0393701
144
1.0
145
0.0
146
0.71
147
1.5
 71
     0
 72
     0
 73
     0
 74
     0
 75
     0
 76
     0
 77
     0
 78
     8
170
     0
171
     2
172
     1
173
     0
174
     0
175
     0
176
   256
177
   256
178
     2
270
     2
271
     2
272
     2
273
     2
274
     2
340
11
275
     0
280
     0
281
     0
282
     0
283
     0
284
     8
285
     0
286
     0
287
     3
288
     0
  0
DIMSTYLE
105
73
330
A
100
AcDbSymbolTableRecord
100
AcDbDimStyleTableRecord
  2
AM_DIN$7
 70
     0
  3

  4
"
  5

  6

  7

 40
1.0
 41
3.5
 42
0.0
 43
10.0
 44
1.0
 45
0.0
 46
0.0
 47
0.1
 48
0.1
140
3.5
141
0.0
142
0.0
143
0.0393701
144
1.0
145
0.0
146
0.71
147
1.5
 71
     0
 72
     0
 73
     0
 74
     0
 75
     0
 76
     0
 77
     1
 78
     8
170
     0
171
     2
172
     1
173
     0
174
     0
175
     0
176
   256
177
   256
178
     2
270
     2
271
     2
272
     2
273
     2
274
     2
340
11
275
     0
280
     0
281
     0
282
     0
283
     0
284
     8
285
     0
286
     0
287
     3
288
     0
  0
DIMSTYLE
105
74
330
A
100
AcDbSymbolTableRecord
100
AcDbDimStyleTableRecord
  2
AM_DIN$SF
 70
     0
  3

  4
"
  5

  6

  7

 40
1.0
 41
2.5
 42
1.0
 43
10.0
 44
1.0
 45
0.0
 46
0.0
 47
0.1
 48
0.1
140
3.5
141
0.0
142
0.0
143
0.0393701
144
1.0
145
0.0
146
0.71
147
1.5
 71
     0
 72
     0
 73
     0
 74
     0
 75
     1
 76
     1
 77
     1
 78
     8
170
     0
171
     2
172
     1
173
     0
174
     0
175
     0
176
   256
177
   256
178
     2
270
     2
271
     2
272
     3
273
     2
274
     4
340
11
275
     0
280
     0
281
     0
282
     0
283
     0
284
     8
285
     0
286
     0
287
     3
288
     0
  0
DIMSTYLE
105
79
330
A
100
AcDbSymbolTableRecord
100
AcDbDimStyleTableRecord
  2
AM_DIN$SH
 70
     0
  3

  4
"
  5

  6
GENAXEH
  7

 40
1.0
 41
2.5
 42
1.0
 43
10.0
 44
1.0
 45
0.0
 46
0.0
 47
0.1
 48
0.1
140
3.5
141
0.0
142
0.0
143
0.0393701
144
2.0
145
0.0
146
0.71
147
1.5
 71
     0
 72
     0
 73
     0
 74
     0
 75
     1
 76
     1
 77
     1
 78
     8
170
     0
171
     2
172
     1
173
     1
174
     0
175
     0
176
   256
177
   256
178
     2
270
     2
271
     2
272
     3
273
     2
274
     4
340
11
275
     0
280
     0
281
     0
282
     0
283
     0
284
     8
285
     0
286
     0
287
     3
288
     0
  0
DIMSTYLE
105
1E3B
330
A
100
AcDbSymbolTableRecord
100
AcDbDimStyleTableRecord
  2
STANDARD
 70
     0
  3

  4

  5

  6

  7

 40
1.0
 41
0.18
 42
0.0625
 43
0.38
 44
0.18
 45
0.0
 46
0.0
 47
0.0
 48
0.0
140
0.18
141
0.09
142
0.0
143
25.4
144
1.0
145
0.0
146
1.0
147
0.09
 71
     0
 72
     0
 73
     1
 74
     1
 75
     0
 76
     0
 77
     0
 78
     0
170
     0
171
     2
172
     0
173
     0
174
     0
175
     0
176
     0
177
     0
178
     0
270
     2
271
     2
272
     2
273
     2
274
     2
340
11
275
     0
280
     0
281
     0
282
     0
283
     1
284
     8
285
     8
286
     8
287
     5
288
     0
  0
DIMSTYLE
105
1E3C
330
A
100
AcDbSymbolTableRecord
100
AcDbDimStyleTableRecord
  2
AM_ANSI
 70
     0
  3

  4
mm
  5

  6

  7

 40
1.0
 41
0.1
 42
0.0
 43
0.5
 44
0.1
 45
0.0
 46
0.0
 47
0.1
 48
0.1
140
0.12
141
0.0
142
0.0
143
25.4
144
1.0
145
0.0
146
0.71
147
0.06
 71
     0
 72
     0
 73
     1
 74
     1
 75
     0
 76
     0
 77
     0
 78
     7
170
     0
171
     2
172
     0
173
     0
174
     0
175
     0
176
   256
177
   256
178
     2
270
     2
271
     2
272
     2
273
     2
274
     2
340
11
275
     0
280
     0
281
     0
282
     0
283
     1
284
     8
285
     8
286
     8
287
     5
288
     0
  0
DIMSTYLE
105
1E3D
330
A
100
AcDbSymbolTableRecord
100
AcDbDimStyleTableRecord
  2
AM_ANSI$3
 70
     0
  3

  4
mm
  5

  6

  7

 40
1.0
 41
0.1
 42
0.0
 43
0.5
 44
0.1
 45
0.0
 46
0.0
 47
0.1
 48
0.1
140
0.12
141
0.0
142
0.0
143
25.4
144
1.0
145
0.0
146
0.71
147
0.06
 71
     0
 72
     0
 73
     1
 74
     1
 75
     0
 76
     0
 77
     0
 78
     7
170
     0
171
     2
172
     0
173
     0
174
     0
175
     0
176
   256
177
   256
178
     2
270
     2
271
     2
272
     2
273
     2
274
     2
340
11
275
     0
280
     0
281
     0
282
     0
283
     1
284
     8
285
     8
286
     8
287
     5
288
     0
  0
DIMSTYLE
105
1E3E
330
A
100
AcDbSymbolTableRecord
100
AcDbDimStyleTableRecord
  2
AM_ANSI$4
 70
     0
  3

  4
mm
  5

  6

  7

 40
1.0
 41
0.1
 42
0.0
 43
0.5
 44
0.1
 45
0.0
 46
0.0
 47
0.1
 48
0.1
140
0.12
141
0.0
142
0.0
143
25.4
144
1.0
145
0.0
146
0.71
147
0.06
 71
     0
 72
     0
 73
     1
 74
     1
 75
     0
 76
     0
 77
     0
 78
     7
170
     0
171
     2
172
     0
173
     0
174
     0
175
     0
176
   256
177
   256
178
     2
270
     2
271
     2
272
     2
273
     2
274
     2
340
11
275
     0
280
     0
281
     0
282
     0
283
     1
284
     8
285
     8
286
     8
287
     5
288
     0
  0
DIMSTYLE
105
1E3F
330
A
100
AcDbSymbolTableRecord
100
AcDbDimStyleTableRecord
  2
AM_ANSI$7
 70
     0
  3

  4
mm
  5

  6

  7

 40
1.0
 41
0.1
 42
0.0
 43
0.5
 44
0.1
 45
0.0
 46
0.0
 47
0.1
 48
0.1
140
0.24
141
0.0
142
0.0
143
25.4
144
1.0
145
0.0
146
0.71
147
0.06
 71
     0
 72
     0
 73
     1
 74
     1
 75
     0
 76
     0
 77
     0
 78
     7
170
     0
171
     2
172
     0
173
     0
174
     0
175
     0
176
   256
177
   256
178
     2
270
     2
271
     2
272
     2
273
     2
274
     2
340
11
275
     0
280
     0
281
     0
282
     0
283
     1
284
     8
285
     8
286
     8
287
     5
288
     0
  0
DIMSTYLE
105
1E40
330
A
100
AcDbSymbolTableRecord
100
AcDbDimStyleTableRecord
  2
AM_ANSI$SF
 70
     0
  3

  4
mm
  5

  6

  7

 40
1.0
 41
0.1
 42
0.05
 43
0.5
 44
0.1
 45
0.0
 46
0.0
 47
0.1
 48
0.1
140
0.12
141
0.0
142
0.0
143
25.4
144
1.0
145
0.0
146
0.71
147
0.06
 71
     0
 72
     0
 73
     1
 74
     1
 75
     1
 76
     1
 77
     0
 78
     7
170
     0
171
     2
172
     0
173
     0
174
     0
175
     0
176
   256
177
   256
178
     2
270
     2
271
     2
272
     2
273
     2
274
     2
340
11
275
     0
280
     0
281
     0
282
     0
283
     1
284
     8
285
     8
286
     8
287
     5
288
     0
  0
DIMSTYLE
105
1E41
330
A
100
AcDbSymbolTableRecord
100
AcDbDimStyleTableRecord
  2
AM_ANSI$SH
 70
     0
  3

  4
mm
  5

  6

  7

 40
1.0
 41
0.1
 42
0.05
 43
0.5
 44
0.1
 45
0.0
 46
0.0
 47
0.1
 48
0.1
140
0.12
141
0.0
142
0.0
143
25.4
144
1.0
145
0.0
146
0.71
147
0.06
 71
     0
 72
     0
 73
     1
 74
     1
 75
     1
 76
     1
 77
     0
 78
     7
170
     0
171
     2
172
     0
173
     1
174
     0
175
     0
176
   256
177
   256
178
     2
270
     2
271
     2
272
     2
273
     2
274
     2
340
11
275
     0
280
     0
281
     0
282
     0
283
     1
284
     8
285
     8
286
     8
287
     5
288
     0
  0
ENDTAB
  0
TABLE
  2
BLOCK_RECORD
  5
1
330
0
100
AcDbSymbolTable
 70
    23
  0
BLOCK_RECORD
  5
1F
102
{ACAD_XDICTIONARY
360
1F1
102
}
330
1
100
AcDbSymbolTableRecord
100
AcDbBlockTableRecord
  2
*MODEL_SPACE
  0
BLOCK_RECORD
  5
1B
102
{ACAD_XDICTIONARY
360
251A
102
}
330
1
100
AcDbSymbolTableRecord
100
AcDbBlockTableRecord
  2
*PAPER_SPACE
  0
BLOCK_RECORD
  5
75
330
1
100
AcDbSymbolTableRecord
100
AcDbBlockTableRecord
  2
GENAXEH
  0
BLOCK_RECORD
  5
1B0F
330
1
100
AcDbSymbolTableRecord
100
AcDbBlockTableRecord
  2
*D2
  0
BLOCK_RECORD
  5
2071
330
1
100
AcDbSymbolTableRecord
100
AcDbBlockTableRecord
  2
*D4
  0
BLOCK_RECORD
  5
20A2
330
1
100
AcDbSymbolTableRecord
100
AcDbBlockTableRecord
  2
*D5
  0
BLOCK_RECORD
  5
20FC
330
1
100
AcDbSymbolTableRecord
100
AcDbBlockTableRecord
  2
*D6
  0
BLOCK_RECORD
  5
2499
330
1
100
AcDbSymbolTableRecord
100
AcDbBlockTableRecord
  2
*D22
  0
ENDTAB
  0
ENDSEC
  0
SECTION
  2
BLOCKS
  0
BLOCK
  5
20
330
1F
100
AcDbEntity
  8
0
100
AcDbBlockBegin
  2
*MODEL_SPACE
 70
     0
 10
0.0
 20
0.0
 30
0.0
  3
*MODEL_SPACE
  1

  0
ENDBLK
  5
21
330
1F
100
AcDbEntity
  8
0
100
AcDbBlockEnd
  0
BLOCK
  5
1C
330
1B
100
AcDbEntity
 67
     1
  8
0
100
AcDbBlockBegin
  2
*PAPER_SPACE
 70
     0
 10
0.0
 20
0.0
 30
0.0
  3
*PAPER_SPACE
  1

  0
ENDBLK
  5
1D
330
1B
100
AcDbEntity
 67
     1
  8
0
100
AcDbBlockEnd
  0
BLOCK
  5
77
330
75
100
AcDbEntity
  8
0
100
AcDbBlockBegin
  2
GENAXEH
 70
     0
 10
0.0
 20
0.0
 30
0.0
  3
GENAXEH
  1

  0
LINE
  5
76
330
75
100
AcDbEntity
  8
0
100
AcDbLine
 10
-1.0
 20
0.0
 30
0.0
 11
1.0
 21
0.0
 31
0.0
  0
ENDBLK
  5
78
330
75
100
AcDbEntity
  8
0
100
AcDbBlockEnd
  0
BLOCK
  5
1B19
330
1B0F
100
AcDbEntity
  8
0
100
AcDbBlockBegin
  2
*D2
 70
     1
 10
0.0
 20
0.0
 30
0.0
  3
*D2
  1

  0
LINE
  5
2236
330
1B0F
100
AcDbEntity
  8
SK2
100
AcDbLine
 10
0.0
 20
-11.0
 30
0.0
 11
-13.6340347691214
 21
-10.99999999999999
 31
0.0
  0
LINE
  5
2237
330
1B0F
100
AcDbEntity
  8
SK2
100
AcDbLine
 10
0.0
 20
11.0
 30
0.0
 11
-13.63403476912139
 21
11.0
 31
0.0
  0
LINE
  5
2238
330
1B0F
100
AcDbEntity
  8
SK2
100
AcDbLine
 10
-12.6340347691214
 20
-8.499999999999996
 30
0.0
 11
-12.6340347691214
 21
8.500000000000003
 31
0.0
  0
SOLID
  5
2239
330
1B0F
100
AcDbEntity
  8
SK2
100
AcDbTrace
 10
-13.05070143578807
 20
-8.499999999999996
 30
0.0
 11
-12.21736810245473
 21
-8.499999999999996
 31
0.0
 12
-12.6340347691214
 22
-10.99999999999999
 32
0.0
 13
-12.6340347691214
 23
-10.99999999999999
 33
0.0
  0
SOLID
  5
223A
330
1B0F
100
AcDbEntity
  8
SK2
100
AcDbTrace
 10
-13.05070143578806
 20
8.500000000000003
 30
0.0
 11
-12.21736810245473
 21
8.500000000000003
 31
0.0
 12
-12.6340347691214
 22
11.0
 32
0.0
 13
-12.6340347691214
 23
11.0
 33
0.0
  0
MTEXT
  5
223B
330
1B0F
100
AcDbEntity
  8
SK2
 62
     2
100
AcDbMText
 10
-15.88437925731037
 20
0.0000000000000012
 30
0.0
 40
3.5
 41
0.0
 71
     5
 72
     1
  1
%%c22
 11
0.0000000000000001
 21
1.0
 31
0.0
1001
ACAD
1000
MTEXTBEGIN
1070
    73
1070
     1
1070
    44
1040
1.0
1070
    74
1070
     0
1000
MTEXTEND
  0
POINT
  5
223C
330
1B0F
100
AcDbEntity
  8
DEFPOINTS
 62
     0
100
AcDbPoint
 10
0.0
 20
-11.0
 30
0.0
  0
POINT
  5
223D
330
1B0F
100
AcDbEntity
  8
DEFPOINTS
 62
     0
100
AcDbPoint
 10
0.0
 20
11.0
 30
0.0
  0
POINT
  5
223E
330
1B0F
100
AcDbEntity
  8
DEFPOINTS
 62
     0
100
AcDbPoint
 10
-12.6340347691214
 20
11.0
 30
0.0
  0
ENDBLK
  5
1B1A
330
1B0F
100
AcDbEntity
  8
0
100
AcDbBlockEnd
  0
BLOCK
  5
207B
330
2071
100
AcDbEntity
  8
0
100
AcDbBlockBegin
  2
*D4
 70
     1
 10
0.0
 20
0.0
 30
0.0
  3
*D4
  1

  0
LINE
  5
2248
330
2071
100
AcDbEntity
  8
2
100
AcDbLine
 10
40.00000000000006
 20
20.0
 30
0.0
 11
57.61871998255146
 21
19.99999999999999
 31
0.0
  0
LINE
  5
2249
330
2071
100
AcDbEntity
  8
2
100
AcDbLine
 10
40.00000000000016
 20
-20.0
 30
0.0
 11
57.61871998255145
 21
-20.0
 31
0.0
  0
LINE
  5
224A
330
2071
100
AcDbEntity
  8
2
100
AcDbLine
 10
56.61871998255146
 20
17.49999999999999
 30
0.0
 11
56.61871998255144
 21
-17.5
 31
0.0
  0
SOLID
  5
224B
330
2071
100
AcDbEntity
  8
2
100
AcDbTrace
 10
56.20205331588479
 20
17.49999999999999
 30
0.0
 11
57.03538664921812
 21
17.49999999999999
 31
0.0
 12
56.61871998255146
 22
19.99999999999999
 32
0.0
 13
56.61871998255146
 23
19.99999999999999
 33
0.0
  0
SOLID
  5
224C
330
2071
100
AcDbEntity
  8
2
100
AcDbTrace
 10
56.20205331588478
 20
-17.5
 30
0.0
 11
57.03538664921811
 21
-17.5
 31
0.0
 12
56.61871998255144
 22
-20.0
 32
0.0
 13
56.61871998255144
 23
-20.0
 33
0.0
  0
MTEXT
  5
224D
330
2071
100
AcDbEntity
  8
2
 62
     2
100
AcDbMText
 10
53.36871998255145
 20
1.490012803389277
 30
0.0
 40
3.5
 41
0.0
 71
     5
 72
     1
  1
%%c40
 11
0.0000000000000001
 21
1.0
 31
0.0
1001
ACAD
1000
MTEXTBEGIN
1070
    73
1070
     1
1070
    44
1040
1.0
1070
    74
1070
     0
1000
MTEXTEND
  0
POINT
  5
224E
330
2071
100
AcDbEntity
  8
DEFPOINTS
 62
     0
100
AcDbPoint
 10
40.00000000000006
 20
20.0
 30
0.0
  0
POINT
  5
224F
330
2071
100
AcDbEntity
  8
DEFPOINTS
 62
     0
100
AcDbPoint
 10
40.00000000000016
 20
-20.0
 30
0.0
  0
POINT
  5
2250
330
2071
100
AcDbEntity
  8
DEFPOINTS
 62
     0
100
AcDbPoint
 10
56.61871998255144
 20
-20.0
 30
0.0
  0
ENDBLK
  5
207C
330
2071
100
AcDbEntity
  8
0
100
AcDbBlockEnd
  0
BLOCK
  5
20AC
330
20A2
100
AcDbEntity
  8
0
100
AcDbBlockBegin
  2
*D5
 70
     1
 10
0.0
 20
0.0
 30
0.0
  3
*D5
  1

  0
LINE
  5
223F
330
20A2
100
AcDbEntity
  8
SK2
100
AcDbLine
 10
2.000000000000056
 20
19.27113434341683
 30
0.0
 11
-27.99097358200679
 21
19.27113434341684
 31
0.0
  0
LINE
  5
2240
330
20A2
100
AcDbEntity
  8
SK2
100
AcDbLine
 10
2.000000000001818
 20
-19.27113434343363
 30
0.0
 11
-27.9909735820068
 21
-19.27113434343361
 31
0.0
  0
LINE
  5
2241
330
20A2
100
AcDbEntity
  8
SK2
100
AcDbLine
 10
-26.99097358200679
 20
16.77113434341683
 30
0.0
 11
-26.9909735820068
 21
-16.77113434343362
 31
0.0
  0
SOLID
  5
2242
330
20A2
100
AcDbEntity
  8
SK2
100
AcDbTrace
 10
-27.40764024867346
 20
16.77113434341683
 30
0.0
 11
-26.57430691534012
 21
16.77113434341683
 31
0.0
 12
-26.99097358200679
 22
19.27113434341683
 32
0.0
 13
-26.99097358200679
 23
19.27113434341683
 33
0.0
  0
SOLID
  5
2243
330
20A2
100
AcDbEntity
  8
SK2
100
AcDbTrace
 10
-27.40764024867347
 20
-16.77113434343362
 30
0.0
 11
-26.57430691534013
 21
-16.77113434343362
 31
0.0
 12
-26.9909735820068
 22
-19.27113434343362
 32
0.0
 13
-26.9909735820068
 23
-19.27113434343362
 33
0.0
  0
MTEXT
  5
2244
330
20A2
100
AcDbEntity
  8
SK2
 62
     2
100
AcDbMText
 10
-30.2409735820068
 20
-0.0000000000083966
 30
0.0
 40
3.5
 41
0.0
 71
     5
 72
     1
  1
ø38
 11
0.0000000000000001
 21
1.0
 31
0.0
1001
ACAD
1000
MTEXTBEGIN
1070
    73
1070
     1
1070
    44
1040
1.0
1070
    74
1070
     0
1000
MTEXTEND
  0
POINT
  5
2245
330
20A2
100
AcDbEntity
  8
DEFPOINTS
 62
     0
100
AcDbPoint
 10
2.000000000000056
 20
19.27113434341683
 30
0.0
  0
POINT
  5
2246
330
20A2
100
AcDbEntity
  8
DEFPOINTS
 62
     0
100
AcDbPoint
 10
2.000000000001818
 20
-19.27113434343363
 30
0.0
  0
POINT
  5
2247
330
20A2
100
AcDbEntity
  8
DEFPOINTS
 62
     0
100
AcDbPoint
 10
-26.9909735820068
 20
-19.27113434343362
 30
0.0
  0
ENDBLK
  5
20AD
330
20A2
100
AcDbEntity
  8
0
100
AcDbBlockEnd
  0
BLOCK
  5
2106
330
20FC
100
AcDbEntity
  8
0
100
AcDbBlockBegin
  2
*D6
 70
     1
 10
0.0
 20
0.0
 30
0.0
  3
*D6
  1

  0
LINE
  5
222D
330
20FC
100
AcDbEntity
  8
2
100
AcDbLine
 10
40.00000000000006
 20
20.0
 30
0.0
 11
40.00000000000006
 21
76.00000000000012
 31
0.0
  0
LINE
  5
222E
330
20FC
100
AcDbEntity
  8
2
100
AcDbLine
 10
0.0000000000000568
 20
17.27113434341683
 30
0.0
 11
0.0000000000000604
 21
76.00000000000012
 31
0.0
  0
LINE
  5
222F
330
20FC
100
AcDbEntity
  8
2
100
AcDbLine
 10
37.50000000000005
 20
75.00000000000011
 30
0.0
 11
2.50000000000006
 21
75.00000000000011
 31
0.0
  0
SOLID
  5
2230
330
20FC
100
AcDbEntity
  8
2
100
AcDbTrace
 10
37.50000000000005
 20
75.41666666666678
 30
0.0
 11
37.50000000000005
 21
74.58333333333344
 31
0.0
 12
40.00000000000006
 22
75.00000000000011
 32
0.0
 13
40.00000000000006
 23
75.00000000000011
 33
0.0
  0
SOLID
  5
2231
330
20FC
100
AcDbEntity
  8
2
100
AcDbTrace
 10
2.50000000000006
 20
75.41666666666678
 30
0.0
 11
2.50000000000006
 21
74.58333333333344
 31
0.0
 12
0.0000000000000604
 22
75.00000000000011
 32
0.0
 13
0.0000000000000604
 23
75.00000000000011
 33
0.0
  0
MTEXT
  5
2232
330
20FC
100
AcDbEntity
  8
2
 62
     2
100
AcDbMText
 10
20.00000000000005
 20
78.25000000000011
 30
0.0
 40
3.5
 41
0.0
 71
     5
 72
     1
  1
40
1001
ACAD
1000
MTEXTBEGIN
1070
    73
1070
     1
1070
    44
1040
1.0
1070
    74
1070
     0
1000
MTEXTEND
  0
POINT
  5
2233
330
20FC
100
AcDbEntity
  8
DEFPOINTS
 62
     0
100
AcDbPoint
 10
40.00000000000006
 20
20.0
 30
0.0
  0
POINT
  5
2234
330
20FC
100
AcDbEntity
  8
DEFPOINTS
 62
     0
100
AcDbPoint
 10
0.0000000000000568
 20
17.27113434341683
 30
0.0
  0
POINT
  5
2235
330
20FC
100
AcDbEntity
  8
DEFPOINTS
 62
     0
100
AcDbPoint
 10
0.0000000000000604
 20
75.00000000000011
 30
0.0
  0
ENDBLK
  5
2107
330
20FC
100
AcDbEntity
  8
0
100
AcDbBlockEnd
  0
BLOCK
  5
24A5
330
2499
100
AcDbEntity
  8
0
100
AcDbBlockBegin
  2
*D22
 70
     1
 10
0.0
 20
0.0
 30
0.0
  3
*D22
  1

  0
LINE
  5
24EB
330
2499
100
AcDbEntity
  8
2
100
AcDbLine
 10
40.00000000000006
 20
20.0
 30
0.0
 11
40.00000000000006
 21
61.00000000000012
 31
0.0
  0
LINE
  5
24EC
330
2499
100
AcDbEntity
  8
2
100
AcDbLine
 10
34.30000000000006
 20
20.10450318701845
 30
0.0
 11
34.30000000000006
 21
61.00000000000012
 31
0.0
  0
LINE
  5
24ED
330
2499
100
AcDbEntity
  8
2
100
AcDbLine
 10
42.50000000000006
 20
60.00000000000011
 30
0.0
 11
45.00000000000006
 21
60.00000000000011
 31
0.0
  0
LINE
  5
24EE
330
2499
100
AcDbEntity
  8
2
100
AcDbLine
 10
31.80000000000006
 20
60.00000000000011
 30
0.0
 11
29.30000000000006
 21
60.00000000000011
 31
0.0
  0
LINE
  5
24EF
330
2499
100
AcDbEntity
  8
2
100
AcDbLine
 10
40.00000000000006
 20
60.00000000000011
 30
0.0
 11
34.30000000000006
 21
60.00000000000011
 31
0.0
  0
SOLID
  5
24F0
330
2499
100
AcDbEntity
  8
2
100
AcDbTrace
 10
42.50000000000006
 20
60.41666666666678
 30
0.0
 11
42.50000000000006
 21
59.58333333333345
 31
0.0
 12
40.00000000000006
 22
60.00000000000011
 32
0.0
 13
40.00000000000006
 23
60.00000000000011
 33
0.0
  0
SOLID
  5
24F1
330
2499
100
AcDbEntity
  8
2
100
AcDbTrace
 10
31.80000000000006
 20
60.41666666666678
 30
0.0
 11
31.80000000000006
 21
59.58333333333345
 31
0.0
 12
34.30000000000006
 22
60.00000000000011
 32
0.0
 13
34.30000000000006
 23
60.00000000000011
 33
0.0
  0
MTEXT
  5
24F2
330
2499
100
AcDbEntity
  8
2
 62
     2
100
AcDbMText
 10
37.15000000000006
 20
63.25000000000011
 30
0.0
 40
3.5
 41
0.0
 71
     5
 72
     1
  1
5.7
1001
ACAD
1000
MTEXTBEGIN
1070
    73
1070
     1
1070
    44
1040
1.0
1070
    74
1070
     0
1000
MTEXTEND
  0
POINT
  5
24F3
330
2499
100
AcDbEntity
  8
DEFPOINTS
 62
     0
100
AcDbPoint
 10
40.00000000000006
 20
20.0
 30
0.0
  0
POINT
  5
24F4
330
2499
100
AcDbEntity
  8
DEFPOINTS
 62
     0
100
AcDbPoint
 10
34.30000000000006
 20
20.10450318701845
 30
0.0
  0
POINT
  5
24F5
330
2499
100
AcDbEntity
  8
DEFPOINTS
 62
     0
100
AcDbPoint
 10
34.30000000000006
 20
60.00000000000011
 30
0.0
  0
ENDBLK
  5
24A6
330
2499
100
AcDbEntity
  8
0
100
AcDbBlockEnd
  0
ENDSEC
  0
SECTION
  2
ENTITIES
  0
LINE
  5
1AE6
330
1F
100
AcDbEntity
  8
1
100
AcDbLine
 10
0.0000000000000568
 20
-17.27113434343363
 30
0.0
 11
0.0
 21
-5.199999999999988
 31
0.0
  0
DIMENSION
  5
1AEA
330
1F
100
AcDbEntity
  8
SK2
100
AcDbDimension
  2
*D2
 10
-12.6340347691214
 20
11.0
 30
0.0
 11
-15.88437925731037
 21
0.0000000000000012
 31
0.0
 70
    32
  1
%%c<>
  3
AM_DIN
100
AcDbAlignedDimension
 13
0.0
 23
-11.0
 33
0.0
 14
0.0
 24
11.0
 34
0.0
 50
270.0
100
AcDbRotatedDimension
  0
LINE
  5
1AEB
330
1F
100
AcDbEntity
  8
1
100
AcDbLine
 10
0.0
 20
5.199999999999988
 30
0.0
 11
0.0000000000000568
 21
17.27113434341683
 31
0.0
  0
LINE
  5
1AED
330
1F
100
AcDbEntity
  8
SK3
100
AcDbLine
 10
28.00000000000006
 20
-8.999999999996873
 30
0.0
 11
28.00000000000006
 21
9.000000000003069
 31
0.0
  0
LINE
  5
1AEE
330
1F
100
AcDbEntity
  8
SK3
100
AcDbLine
 10
21.00000000000016
 20
-11.0
 30
0.0
 11
21.00000000000016
 21
11.0
 31
0.0
  0
LINE
  5
1AEF
330
1F
100
AcDbEntity
  8
SK3
100
AcDbLine
 10
28.00000000000006
 20
9.000000000003069
 30
0.0
 11
38.99679480008382
 21
9.000000000003126
 31
0.0
  0
LINE
  5
1AF2
330
1F
100
AcDbEntity
  8
SK3
100
AcDbLine
 10
21.00000000000016
 20
11.0
 30
0.0
 11
0.0
 21
11.0
 31
0.0
  0
LINE
  5
1AF7
330
1F
100
AcDbEntity
  8
SK3
100
AcDbLine
 10
38.99679480008382
 20
-8.999999999996973
 30
0.0
 11
28.00000000000006
 21
-8.999999999996873
 31
0.0
  0
LINE
  5
1AF8
330
1F
100
AcDbEntity
  8
SK3
100
AcDbLine
 10
21.00000000000016
 20
5.500000000003126
 30
0.0
 11
28.00000000000006
 21
5.500000000003126
 31
0.0
  0
LINE
  5
1AF9
330
1F
100
AcDbEntity
  8
SK3
100
AcDbLine
 10
21.00000000000016
 20
-5.499999999996873
 30
0.0
 11
28.00000000000006
 21
-5.499999999996816
 31
0.0
  0
LINE
  5
1AFA
330
1F
100
AcDbEntity
  8
SK1
100
AcDbLine
 10
6.300000000000068
 20
-5.199999999999988
 30
0.0
 11
6.300000000000068
 21
5.199999999999988
 31
0.0
  0
LINE
  5
1AFB
330
1F
100
AcDbEntity
  8
SK1
100
AcDbLine
 10
6.300000000000068
 20
5.199999999999988
 30
0.0
 11
0.0
 21
5.199999999999988
 31
0.0
  0
LINE
  5
1AFC
330
1F
100
AcDbEntity
  8
SK1
100
AcDbLine
 10
0.0
 20
-5.199999999999988
 30
0.0
 11
6.300000000000068
 21
-5.199999999999988
 31
0.0
  0
LINE
  5
1AFD
330
1F
100
AcDbEntity
  8
SK3
100
AcDbLine
 10
0.0000000000001137
 20
-10.99999999999994
 30
0.0
 11
21.00000000000016
 21
-11.0
 31
0.0
  0
LINE
  5
1F97
330
1F
100
AcDbEntity
  8
1
100
AcDbLine
 10
28.153482806976
 20
12.2711343434168
 30
0.0
 11
38.99679480008359
 21
12.2711343434168
 31
0.0
  0
ARC
  5
1F98
330
1F
100
AcDbEntity
  8
1
100
AcDbCircle
 10
28.153482806976
 20
20.2711343434168
 30
0.0
 40
8.0
100
AcDbArc
 50
187.1807557814585
 51
270.0
1001
GENIUS_GENOBJ-N-FIL_13
1002
{
1000
OWNER
1000
GEN
1002
}
1001
GENIUS_GENODEF_13
1002
{
1000
HIER
1070
     0
1002
}
1002
{
1000
MANEDIT
1070
     0
1002
}
1002
{
1000
NOSEL
1070
     0
1002
}
1002
{
1000
BEHIND
1070
     0
1002
}
1002
{
1000
OTHER
1070
     0
1002
}
1002
{
1000
REACTOR
1002
}
  0
LINE
  5
1F99
330
1F
100
AcDbEntity
  8
4
100
AcDbLine
 10
20.06122434286368
 20
10.25000000000014
 30
0.0
 11
28.90739861709841
 21
13.52965468452907
 31
0.0
  0
LINE
  5
1FAA
330
1F
100
AcDbEntity
  8
SK1
100
AcDbLine
 10
40.00000000000006
 20
20.46376936984882
 30
0.0
 11
40.00000000000006
 21
19.53623063015118
 31
0.0
  0
LINE
  5
1FAF
330
1F
100
AcDbEntity
  8
SK1
100
AcDbLine
 10
39.53623063015124
 20
20.0
 30
0.0
 11
40.46376936984887
 21
20.0
 31
0.0
  0
CIRCLE
  5
1FB0
330
1F
100
AcDbEntity
  8
SK1
100
AcDbCircle
 10
40.00000000000006
 20
20.0
 30
0.0
 40
0.4637693698488208
  0
LINE
  5
1FB7
330
1F
100
AcDbEntity
  8
1
100
AcDbLine
 10
33.83303323511335
 20
19.27113434341674
 30
0.0
 11
2.000000000000056
 21
19.27113434341683
 31
0.0
  0
LINE
  5
1FF1
330
1F
100
AcDbEntity
  8
SK3
 48
0.3
100
AcDbLine
 10
28.15348280697634
 20
-12.2711343434168
 30
0.0
 11
38.99679480008393
 21
-12.27113434341708
 31
0.0
  0
ARC
  5
1FF2
330
1F
100
AcDbEntity
  8
SK3
 48
0.3
100
AcDbCircle
 10
28.15348280697611
 20
-20.27113434341683
 30
0.0
 40
8.0
100
AcDbArc
 50
90.0
 51
172.8192442185398
1001
GENIUS_GENOBJ-N-FIL_13
1002
{
1000
OWNER
1000
GEN
1002
}
1001
GENIUS_GENODEF_13
1002
{
1000
HIER
1070
     0
1002
}
1002
{
1000
MANEDIT
1070
     0
1002
}
1002
{
1000
NOSEL
1070
     0
1002
}
1002
{
1000
BEHIND
1070
     0
1002
}
1002
{
1000
OTHER
1070
     0
1002
}
1002
{
1000
REACTOR
1002
}
  0
LINE
  5
2000
330
1F
100
AcDbEntity
  8
SK1
100
AcDbLine
 10
40.00000000000016
 20
-20.0
 30
0.0
 11
40.00000000000016
 21
-19.53623063015118
 31
0.0
  0
LINE
  5
2003
330
1F
100
AcDbEntity
  8
SK1
100
AcDbLine
 10
39.53623063015135
 20
-20.0
 30
0.0
 11
40.46376936984898
 21
-20.0
 31
0.0
  0
CIRCLE
  5
2004
330
1F
100
AcDbEntity
  8
SK1
100
AcDbCircle
 10
40.00000000000016
 20
-20.0
 30
0.0
 40
0.4637693698488208
  0
LINE
  5
201C
330
1F
100
AcDbEntity
  8
1
100
AcDbLine
 10
38.99679480008382
 20
15.89776970094197
 30
0.0
 11
38.99679480008382
 21
-19.27113434340083
 31
0.0
  0
LINE
  5
201F
330
1F
100
AcDbEntity
  8
1
100
AcDbLine
 10
38.99679480008382
 20
-19.27113434340083
 30
0.0
 11
33.83303323511024
 21
-19.2711343434054
 31
0.0
  0
ARC
  5
2023
330
1F
100
AcDbEntity
  8
1
100
AcDbCircle
 10
2.000000000000056
 20
17.27113434341683
 30
0.0
 40
2.0
100
AcDbArc
 50
89.99999999999984
 51
180.0
1001
GENIUS_GENODEF_13
1002
{
1000
HIER
1070
     0
1002
}
1002
{
1000
MANEDIT
1070
     0
1002
}
1002
{
1000
NOSEL
1070
     0
1002
}
1002
{
1000
BEHIND
1070
     0
1002
}
1002
{
1000
OTHER
1070
     0
1002
}
1002
{
1000
REACTOR
1002
}
1001
GENIUS_GENOBJ-N-FIL_13
1002
{
1000
OWNER
1000
GEN
1002
}
  0
ARC
  5
2025
330
1F
100
AcDbEntity
  8
1
100
AcDbCircle
 10
2.000000000000056
 20
-17.27113434343363
 30
0.0
 40
2.0
100
AcDbArc
 50
180.0
 51
270.0000000000508
1001
GENIUS_GENOBJ-N-FIL_13
1002
{
1000
OWNER
1000
GEN
1002
}
1001
GENIUS_GENODEF_13
1002
{
1000
HIER
1070
     0
1002
}
1002
{
1000
MANEDIT
1070
     0
1002
}
1002
{
1000
NOSEL
1070
     0
1002
}
1002
{
1000
BEHIND
1070
     0
1002
}
1002
{
1000
OTHER
1070
     0
1002
}
1002
{
1000
REACTOR
1002
}
  0
LINE
  5
2044
330
1F
100
AcDbEntity
  8
4
100
AcDbLine
 10
41.86111685705435
 20
-0.0000000000000426
 30
0.0
 11
0.0
 21
0.000000000000199
 31
0.0
  0
LINE
  5
2045
330
1F
100
AcDbEntity
  8
SK1
100
AcDbLine
 10
-3.200115174948678
 20
0.0
 30
0.0
 11
3.200115174948678
 21
0.0
 31
0.0
  0
CIRCLE
  5
2046
330
1F
100
AcDbEntity
  8
SK1
100
AcDbCircle
 10
0.0
 20
0.0
 30
0.0
 40
3.200115174948665
  0
LINE
  5
2047
330
1F
100
AcDbEntity
  8
SK1
100
AcDbLine
 10
0.0
 20
3.200115174948678
 30
0.0
 11
0.0
 21
-3.200115174948678
 31
0.0
  0
DIMENSION
  5
2070
330
1F
100
AcDbEntity
  8
2
100
AcDbDimension
  2
*D4
 10
56.61871998255144
 20
-20.0
 30
0.0
 11
56.61871998255145
 21
1.490012803389276
 31
0.0
 70
   160
  1
%%c<>
  3
AM_DIN
100
AcDbAlignedDimension
 13
40.00000000000006
 23
20.0
 33
0.0
 14
40.00000000000016
 24
-20.0
 34
0.0
 50
90.0
100
AcDbRotatedDimension
  0
DIMENSION
  5
20A1
330
1F
100
AcDbEntity
  8
SK2
100
AcDbDimension
  2
*D5
 10
-26.9909735820068
 20
-19.27113434343362
 30
0.0
 11
-30.2409735820068
 21
-0.0000000000083966
 31
0.0
 70
    32
  1
ø38
  3
AM_DIN
100
AcDbAlignedDimension
 13
2.000000000000056
 23
19.27113434341683
 33
0.0
 14
2.000000000001818
 24
-19.27113434343363
 34
0.0
 50
90.0
100
AcDbRotatedDimension
  0
DIMENSION
  5
20FB
330
1F
100
AcDbEntity
  8
2
100
AcDbDimension
  2
*D6
 10
0.0000000000000604
 20
75.00000000000011
 30
0.0
 11
20.00000000000005
 21
78.25000000000011
 31
0.0
 70
    32
  3
AM_DIN
100
AcDbAlignedDimension
 13
40.00000000000006
 23
20.0
 33
0.0
 14
0.0000000000000568
 24
17.27113434341683
 34
0.0
100
AcDbRotatedDimension
  0
TEXT
  5
2173
330
1F
100
AcDbEntity
  8
6
100
AcDbText
 10
62.90023860784362
 20
-2.221554654040801
 30
0.0
 40
3.5
  1
Z10
 50
90.0
100
AcDbText
  0
TEXT
  5
2175
330
1F
100
AcDbEntity
  8
6
100
AcDbText
 10
19.55302878044057
 20
-30.54849151986411
 30
0.0
 40
3.5
  1
2J1D040R00
100
AcDbText
  0
LINE
  5
217A
330
1F
100
AcDbEntity
  8
NOCUT
100
AcDbLine
 10
38.99679480008382
 20
-0.0000000000000284
 30
0.0
 11
-0.0000000000000568
 21
0.000000000000199
 31
0.0
  0
LINE
  5
217E
330
1F
100
AcDbEntity
  8
NOCUT
100
AcDbLine
 10
38.99679480008382
 20
-19.27113434340083
 30
0.0
 11
33.83303323511024
 21
-19.2711343434054
 31
0.0
  0
LINE
  5
2181
330
1F
100
AcDbEntity
  8
NOCUT
100
AcDbLine
 10
0.0000000000000568
 20
-17.27113434343363
 30
0.0
 11
-0.0000000000000568
 21
0.000000000000199
 31
0.0
  0
ARC
  5
2182
330
1F
100
AcDbEntity
  8
NOCUT
100
AcDbCircle
 10
2.000000000000056
 20
-17.27113434343363
 30
0.0
 40
2.0
100
AcDbArc
 50
180.0
 51
270.0000000000508
1001
GENIUS_GENOBJ-N-FIL_13
1002
{
1000
OWNER
1000
GEN
1002
}
1001
GENIUS_GENODEF_13
1002
{
1000
HIER
1070
     0
1002
}
1002
{
1000
MANEDIT
1070
     0
1002
}
1002
{
1000
NOSEL
1070
     0
1002
}
1002
{
1000
BEHIND
1070
     0
1002
}
1002
{
1000
OTHER
1070
     0
1002
}
1002
{
1000
REACTOR
1002
}
  0
LINE
  5
2186
330
1F
100
AcDbEntity
  8
NOCUT
100
AcDbLine
 10
38.99679480008382
 20
-0.0000000000000284
 30
0.0
 11
38.99679480008382
 21
-19.27113434340083
 31
0.0
  0
TEXT
  5
2477
330
1F
100
AcDbEntity
  8
6
100
AcDbText
 10
46.44880765705716
 20
25.33300097896136
 30
0.0
 40
2.5
  1
AOMT060202R
100
AcDbText
  0
DIMENSION
  5
247E
330
1F
100
AcDbEntity
  8
2
100
AcDbDimension
  2
*D22
 10
34.30000000000006
 20
60.00000000000011
 30
0.0
 11
37.15000000000006
 21
60.00000000000011
 31
0.0
 70
   160
  3
AM_DIN
100
AcDbAlignedDimension
 13
40.00000000000006
 23
20.0
 33
0.0
 14
34.30000000000006
 24
20.10450318701845
 34
0.0
100
AcDbRotatedDimension
  0
CIRCLE
  5
247F
330
1F
100
AcDbEntity
  8
1
100
AcDbCircle
 10
36.62068379221636
 20
18.00117611384308
 30
0.0
 40
1.255206518985224
  0
LINE
  5
2480
330
1F
100
AcDbEntity
  8
1
100
AcDbLine
 10
34.04140480196156
 20
19.99608236055634
 30
0.0
 11
33.26751850344825
 21
17.30364525848562
 31
0.0
  0
LINE
  5
2481
330
1F
100
AcDbEntity
  8
CUT
100
AcDbLine
 10
34.04140480196156
 20
19.99608236055634
 30
0.0
 11
33.26751850344825
 21
17.30364525848562
 31
0.0
  0
ARC
  5
2482
330
1F
100
AcDbEntity
  8
1
100
AcDbCircle
 10
39.19578257189158
 20
174.2727739410875
 30
0.0
 40
158.3751292476171
100
AcDbArc
 50
267.9151181052122
 51
269.9493100169676
  0
ARC
  5
2483
330
1F
100
AcDbEntity
  8
CUT
100
AcDbCircle
 10
39.19578257189158
 20
174.2727739410875
 30
0.0
 40
158.3751292476171
100
AcDbArc
 50
267.9151181052122
 51
269.9493100169676
  0
ARC
  5
2484
330
1F
100
AcDbEntity
  8
1
100
AcDbCircle
 10
33.44136758443272
 20
16.20235222768619
 30
0.0
 40
0.2
100
AcDbArc
 50
180.8929251581096
 51
267.9151181052105
1001
GENIUS_GENODEF_13
1002
{
1000
HIER
1070
     0
1002
}
1002
{
1000
MANEDIT
1070
     0
1002
}
1002
{
1000
NOSEL
1070
     0
1002
}
1002
{
1000
BEHIND
1070
     0
1002
}
1002
{
1000
OTHER
1070
     0
1002
}
1002
{
1000
REACTOR
1002
}
1001
GENIUS_GENOBJ-N-FIL_13
1002
{
1000
OWNER
1000
GEN
1002
}
  0
ARC
  5
2485
330
1F
100
AcDbEntity
  8
CUT
100
AcDbCircle
 10
33.44136758443272
 20
16.20235222768619
 30
0.0
 40
0.2
100
AcDbArc
 50
180.8929251581096
 51
267.9151181052105
1001
GENIUS_GENODEF_13
1002
{
1000
HIER
1070
     0
1002
}
1002
{
1000
MANEDIT
1070
     0
1002
}
1002
{
1000
NOSEL
1070
     0
1002
}
1002
{
1000
BEHIND
1070
     0
1002
}
1002
{
1000
OTHER
1070
     0
1002
}
1002
{
1000
REACTOR
1002
}
1001
GENIUS_GENOBJ-N-FIL_13
1002
{
1000
OWNER
1000
GEN
1002
}
  0
LINE
  5
2486
330
1F
100
AcDbEntity
  8
1
100
AcDbLine
 10
33.24139187155532
 20
16.19923545705806
 30
0.0
 11
33.22872719126911
 21
17.01181641689659
 31
0.0
  0
ARC
  5
2487
330
1F
100
AcDbEntity
  8
1
100
AcDbCircle
 10
34.22860575565644
 20
17.02740027003719
 30
0.0
 40
1.0
100
AcDbArc
 50
163.9637789131361
 51
180.8929251581054
1001
GENIUS_GENODEF_13
1002
{
1000
HIER
1070
     0
1002
}
1002
{
1000
MANEDIT
1070
     0
1002
}
1002
{
1000
NOSEL
1070
     0
1002
}
1002
{
1000
BEHIND
1070
     0
1002
}
1002
{
1000
OTHER
1070
     0
1002
}
1002
{
1000
REACTOR
1002
}
1001
GENIUS_GENOBJ-N-FIL_13
1002
{
1000
OWNER
1000
GEN
1002
}
  0
LINE
  5
2488
330
1F
100
AcDbEntity
  8
CUT
100
AcDbLine
 10
33.24139187155532
 20
16.19923545705806
 30
0.0
 11
33.22872719126911
 21
17.01181641689659
 31
0.0
  0
ARC
  5
2489
330
1F
100
AcDbEntity
  8
CUT
100
AcDbCircle
 10
34.22860575565644
 20
17.02740027003719
 30
0.0
 40
1.0
100
AcDbArc
 50
163.9637789131361
 51
180.8929251581054
1001
GENIUS_GENODEF_13
1002
{
1000
HIER
1070
     0
1002
}
1002
{
1000
MANEDIT
1070
     0
1002
}
1002
{
1000
NOSEL
1070
     0
1002
}
1002
{
1000
BEHIND
1070
     0
1002
}
1002
{
1000
OTHER
1070
     0
1002
}
1002
{
1000
REACTOR
1002
}
1001
GENIUS_GENOBJ-N-FIL_13
1002
{
1000
OWNER
1000
GEN
1002
}
  0
LINE
  5
248A
330
1F
100
AcDbEntity
  8
0
100
AcDbLine
 10
34.30000000000006
 20
20.10450318701845
 30
0.0
 11
34.30000000000006
 21
20.53531050939352
 31
0.0
  0
ARC
  5
248B
330
1F
100
AcDbEntity
  8
1
100
AcDbCircle
 10
34.18556788979276
 20
19.95464561228909
 30
0.0
 40
0.15
100
AcDbArc
 50
89.94931001695949
 51
163.9637789131396
1001
GENIUS_GENOBJ-N-FIL_13
1002
{
1000
OWNER
1000
GEN
1002
}
1001
GENIUS_GENODEF_13
1002
{
1000
HIER
1070
     0
1002
}
1002
{
1000
MANEDIT
1070
     0
1002
}
1002
{
1000
NOSEL
1070
     0
1002
}
1002
{
1000
BEHIND
1070
     0
1002
}
1002
{
1000
OTHER
1070
     0
1002
}
1002
{
1000
REACTOR
1002
}
  0
ARC
  5
248C
330
1F
100
AcDbEntity
  8
CUT
100
AcDbCircle
 10
34.18556788979276
 20
19.95464561228909
 30
0.0
 40
0.15
100
AcDbArc
 50
89.94931001695949
 51
163.9637789131396
1001
GENIUS_GENOBJ-N-FIL_13
1002
{
1000
OWNER
1000
GEN
1002
}
1001
GENIUS_GENODEF_13
1002
{
1000
HIER
1070
     0
1002
}
1002
{
1000
MANEDIT
1070
     0
1002
}
1002
{
1000
NOSEL
1070
     0
1002
}
1002
{
1000
BEHIND
1070
     0
1002
}
1002
{
1000
OTHER
1070
     0
1002
}
1002
{
1000
REACTOR
1002
}
  0
ARC
  5
248D
330
1F
100
AcDbEntity
  8
1
100
AcDbCircle
 10
34.04558501254129
 20
-138.2704217134012
 30
0.0
 40
158.3751292476171
100
AcDbArc
 50
87.91511810521221
 51
89.94931001696762
  0
ARC
  5
248E
330
1F
100
AcDbEntity
  8
CUT
100
AcDbCircle
 10
34.04558501254129
 20
-138.2704217134012
 30
0.0
 40
158.3751292476171
100
AcDbArc
 50
87.91511810521221
 51
89.94931001696762
  0
LINE
  5
248F
330
1F
100
AcDbEntity
  8
1
100
AcDbLine
 10
39.19996278247129
 20
16.00626986712994
 30
0.0
 11
39.97384908098456
 21
18.69870696920058
 31
0.0
  0
LINE
  5
2490
330
1F
100
AcDbEntity
  8
CUT
100
AcDbLine
 10
39.19996278247129
 20
16.00626986712994
 30
0.0
 11
39.97384908098456
 21
18.69870696920058
 31
0.0
  0
ARC
  5
2491
330
1F
100
AcDbEntity
  8
1
100
AcDbCircle
 10
39.05579969464005
 20
16.04770661539721
 30
0.0
 40
0.15
100
AcDbArc
 50
269.9493100169253
 51
343.9637789131317
1001
GENIUS_GENOBJ-N-FIL_13
1002
{
1000
OWNER
1000
GEN
1002
}
1001
GENIUS_GENODEF_13
1002
{
1000
HIER
1070
     0
1002
}
1002
{
1000
MANEDIT
1070
     0
1002
}
1002
{
1000
NOSEL
1070
     0
1002
}
1002
{
1000
BEHIND
1070
     0
1002
}
1002
{
1000
OTHER
1070
     0
1002
}
1002
{
1000
REACTOR
1002
}
  0
ARC
  5
2492
330
1F
100
AcDbEntity
  8
CUT
100
AcDbCircle
 10
39.05579969464005
 20
16.04770661539721
 30
0.0
 40
0.15
100
AcDbArc
 50
269.9493100169253
 51
343.9637789131317
1001
GENIUS_GENOBJ-N-FIL_13
1002
{
1000
OWNER
1000
GEN
1002
}
1001
GENIUS_GENODEF_13
1002
{
1000
HIER
1070
     0
1002
}
1002
{
1000
MANEDIT
1070
     0
1002
}
1002
{
1000
NOSEL
1070
     0
1002
}
1002
{
1000
BEHIND
1070
     0
1002
}
1002
{
1000
OTHER
1070
     0
1002
}
1002
{
1000
REACTOR
1002
}
  0
ARC
  5
2493
330
1F
100
AcDbEntity
  8
1
100
AcDbCircle
 10
39.01276182877632
 20
18.97495195764901
 30
0.0
 40
1.0
100
AcDbArc
 50
343.9637789131365
 51
0.8929251581055208
1001
GENIUS_GENODEF_13
1002
{
1000
HIER
1070
     0
1002
}
1002
{
1000
MANEDIT
1070
     0
1002
}
1002
{
1000
NOSEL
1070
     0
1002
}
1002
{
1000
BEHIND
1070
     0
1002
}
1002
{
1000
OTHER
1070
     0
1002
}
1002
{
1000
REACTOR
1002
}
1001
GENIUS_GENOBJ-N-FIL_13
1002
{
1000
OWNER
1000
GEN
1002
}
  0
ARC
  5
2494
330
1F
100
AcDbEntity
  8
CUT
100
AcDbCircle
 10
39.01276182877632
 20
18.97495195764901
 30
0.0
 40
1.0
100
AcDbArc
 50
343.9637789131365
 51
0.8929251581055208
1001
GENIUS_GENODEF_13
1002
{
1000
HIER
1070
     0
1002
}
1002
{
1000
MANEDIT
1070
     0
1002
}
1002
{
1000
NOSEL
1070
     0
1002
}
1002
{
1000
BEHIND
1070
     0
1002
}
1002
{
1000
OTHER
1070
     0
1002
}
1002
{
1000
REACTOR
1002
}
1001
GENIUS_GENOBJ-N-FIL_13
1002
{
1000
OWNER
1000
GEN
1002
}
  0
LINE
  5
2495
330
1F
100
AcDbEntity
  8
1
100
AcDbLine
 10
39.99997571287747
 20
19.80311677062813
 30
0.0
 11
40.0126403931637
 21
18.99053581078961
 31
0.0
  0
LINE
  5
2496
330
1F
100
AcDbEntity
  8
CUT
100
AcDbLine
 10
39.99997571287747
 20
19.80311677062813
 30
0.0
 11
40.0126403931637
 21
18.99053581078961
 31
0.0
  0
ARC
  5
2497
330
1F
100
AcDbEntity
  8
1
100
AcDbCircle
 10
39.80000000000007
 20
19.8
 30
0.0
 40
0.2
100
AcDbArc
 50
0.8929251581095913
 51
87.91511810521058
1001
GENIUS_GENODEF_13
1002
{
1000
HIER
1070
     0
1002
}
1002
{
1000
MANEDIT
1070
     0
1002
}
1002
{
1000
NOSEL
1070
     0
1002
}
1002
{
1000
BEHIND
1070
     0
1002
}
1002
{
1000
OTHER
1070
     0
1002
}
1002
{
1000
REACTOR
1002
}
1001
GENIUS_GENOBJ-N-FIL_13
1002
{
1000
OWNER
1000
GEN
1002
}
  0
ARC
  5
2498
330
1F
100
AcDbEntity
  8
CUT
100
AcDbCircle
 10
39.80000000000007
 20
19.8
 30
0.0
 40
0.2
100
AcDbArc
 50
0.8929251581095913
 51
87.91511810521058
1001
GENIUS_GENODEF_13
1002
{
1000
HIER
1070
     0
1002
}
1002
{
1000
MANEDIT
1070
     0
1002
}
1002
{
1000
NOSEL
1070
     0
1002
}
1002
{
1000
BEHIND
1070
     0
1002
}
1002
{
1000
OTHER
1070
     0
1002
}
1002
{
1000
REACTOR
1002
}
1001
GENIUS_GENOBJ-N-FIL_13
1002
{
1000
OWNER
1000
GEN
1002
}
  0
ARC
  5
24B2
330
1F
100
AcDbEntity
  8
SK3
100
AcDbCircle
 10
34.22860575565656
 20
-17.02740027003708
 30
0.0
 40
1.0
100
AcDbArc
 50
179.1070748418936
 51
196.036221086863
1001
GENIUS_GENODEF_13
1002
{
1000
HIER
1070
     0
1002
}
1002
{
1000
MANEDIT
1070
     0
1002
}
1002
{
1000
NOSEL
1070
     0
1002
}
1002
{
1000
BEHIND
1070
     0
1002
}
1002
{
1000
OTHER
1070
     0
1002
}
1002
{
1000
REACTOR
1002
}
1001
GENIUS_GENOBJ-N-FIL_13
1002
{
1000
OWNER
1000
GEN
1002
}
  0
CIRCLE
  5
24B3
330
1F
100
AcDbEntity
  8
SK3
100
AcDbCircle
 10
36.62068379221651
 20
-18.00117611384303
 30
0.0
 40
1.255206518985224
  0
LINE
  5
24B4
330
1F
100
AcDbEntity
  8
1
 48
0.5
100
AcDbLine
 10
34.04253084776073
 20
-19.99999999999998
 30
0.0
 11
33.83303323511024
 21
-19.27113434340541
 31
0.0
  0
ARC
  5
24B5
330
1F
100
AcDbEntity
  8
SK3
 48
0.5
100
AcDbCircle
 10
39.19578257188959
 20
-174.2727739410875
 30
0.0
 40
158.3751292476171
100
AcDbArc
 50
90.07198833903467
 51
92.08488189478776
  0
LINE
  5
24B6
330
1F
100
AcDbEntity
  8
SK3
 48
0.3
100
AcDbLine
 10
33.24139187155543
 20
-16.19923545705793
 30
0.0
 11
33.2287271912692
 21
-17.01181641689645
 31
0.0
  0
ARC
  5
24B7
330
1F
100
AcDbEntity
  8
SK3
100
AcDbCircle
 10
33.44136758443287
 20
-16.2023522276861
 30
0.0
 40
0.2
100
AcDbArc
 50
92.08488189478941
 51
179.1070748418896
1001
GENIUS_GENODEF_13
1002
{
1000
HIER
1070
     0
1002
}
1002
{
1000
MANEDIT
1070
     0
1002
}
1002
{
1000
NOSEL
1070
     0
1002
}
1002
{
1000
BEHIND
1070
     0
1002
}
1002
{
1000
OTHER
1070
     0
1002
}
1002
{
1000
REACTOR
1002
}
1001
GENIUS_GENOBJ-N-FIL_13
1002
{
1000
OWNER
1000
GEN
1002
}
  0
ARC
  5
24B8
330
1F
100
AcDbEntity
  8
1
100
AcDbCircle
 10
34.18556788979285
 20
-19.95464561228902
 30
0.0
 40
0.15
100
AcDbArc
 50
196.0362210868595
 51
270.0506899830405
1001
GENIUS_GENOBJ-N-FIL_13
1002
{
1000
OWNER
1000
GEN
1002
}
1001
GENIUS_GENODEF_13
1002
{
1000
HIER
1070
     0
1002
}
1002
{
1000
MANEDIT
1070
     0
1002
}
1002
{
1000
NOSEL
1070
     0
1002
}
1002
{
1000
BEHIND
1070
     0
1002
}
1002
{
1000
OTHER
1070
     0
1002
}
1002
{
1000
REACTOR
1002
}
  0
ARC
  5
24B9
330
1F
100
AcDbEntity
  8
1
100
AcDbCircle
 10
34.04558501254354
 20
138.2704217134013
 30
0.0
 40
158.3751292476171
100
AcDbArc
 50
270.0506899830323
 51
272.0848818947877
  0
LINE
  5
24BA
330
1F
100
AcDbEntity
  8
1
100
AcDbLine
 10
39.19996278247145
 20
-16.00626986712993
 30
0.0
 11
39.97384908098467
 21
-18.69870696920058
 31
0.0
  0
ARC
  5
24BB
330
1F
100
AcDbEntity
  8
1
100
AcDbCircle
 10
39.01276182877646
 20
-18.97495195764899
 30
0.0
 40
1.0
100
AcDbArc
 50
359.1070748418936
 51
16.03622108686307
1001
GENIUS_GENODEF_13
1002
{
1000
HIER
1070
     0
1002
}
1002
{
1000
MANEDIT
1070
     0
1002
}
1002
{
1000
NOSEL
1070
     0
1002
}
1002
{
1000
BEHIND
1070
     0
1002
}
1002
{
1000
OTHER
1070
     0
1002
}
1002
{
1000
REACTOR
1002
}
1001
GENIUS_GENOBJ-N-FIL_13
1002
{
1000
OWNER
1000
GEN
1002
}
  0
LINE
  5
24BC
330
1F
100
AcDbEntity
  8
1
100
AcDbLine
 10
39.99997571287758
 20
-19.80311677062813
 30
0.0
 11
40.01264039316382
 21
-18.99053581078961
 31
0.0
  0
ARC
  5
24BD
330
1F
100
AcDbEntity
  8
1
100
AcDbCircle
 10
39.19578257188959
 20
-174.2727739410875
 30
0.0
 40
158.3751292476171
100
AcDbArc
 50
90.05068998303235
 51
90.07198833903467
  0
ARC
  5
24BE
330
1F
100
AcDbEntity
  8
1
100
AcDbCircle
 10
39.05579969464023
 20
-16.0477066153972
 30
0.0
 40
0.15
100
AcDbArc
 50
16.03622108686744
 51
90.0506899830747
1001
GENIUS_GENOBJ-N-FIL_13
1002
{
1000
OWNER
1000
GEN
1002
}
1001
GENIUS_GENODEF_13
1002
{
1000
HIER
1070
     0
1002
}
1002
{
1000
MANEDIT
1070
     0
1002
}
1002
{
1000
NOSEL
1070
     0
1002
}
1002
{
1000
BEHIND
1070
     0
1002
}
1002
{
1000
OTHER
1070
     0
1002
}
1002
{
1000
REACTOR
1002
}
  0
ARC
  5
24BF
330
1F
100
AcDbEntity
  8
1
100
AcDbCircle
 10
39.80000000000018
 20
-19.8
 30
0.0
 40
0.2
100
AcDbArc
 50
272.0848818947894
 51
359.1070748418895
1001
GENIUS_GENODEF_13
1002
{
1000
HIER
1070
     0
1002
}
1002
{
1000
MANEDIT
1070
     0
1002
}
1002
{
1000
NOSEL
1070
     0
1002
}
1002
{
1000
BEHIND
1070
     0
1002
}
1002
{
1000
OTHER
1070
     0
1002
}
1002
{
1000
REACTOR
1002
}
1001
GENIUS_GENOBJ-N-FIL_13
1002
{
1000
OWNER
1000
GEN
1002
}
  0
LINE
  5
24C1
330
1F
100
AcDbEntity
  8
NOCUT
100
AcDbLine
 10
33.83303323511024
 20
-19.2711343434054
 30
0.0
 11
2.000000000001762
 21
-19.27113434343363
 31
0.0
  0
LINE
  5
24C2
330
1F
100
AcDbEntity
  8
1
100
AcDbLine
 10
33.83303323511024
 20
-19.2711343434054
 30
0.0
 11
2.000000000001818
 21
-19.27113434343363
 31
0.0
  0
LINE
  5
24C3
330
1F
100
AcDbEntity
  8
SK3
 48
0.5
100
AcDbLine
 10
33.83303323511024
 20
-19.27113434340541
 30
0.0
 11
33.2675185034484
 21
-17.30364525848553
 31
0.0
  0
ENDSEC
  0
SECTION
  2
OBJECTS
  0
DICTIONARY
  5
C
330
0
100
AcDbDictionary
  3
ACAD_GROUP
350
D
  3
ACAD_LAYOUT
350
1A
  3
ACAD_MLINESTYLE
350
17
  3
ACAD_PLOTSETTINGS
350
19
  3
ACAD_PLOTSTYLENAME
350
E
  3
ACDBHEADERROUNDTRIPXREC
350
24F9
  3
ACDBVARIABLEDICTIONARY
350
216
  3
ACMDICTIONARY
350
45
  3
AMG
350
41
  3
AMGSNAPSETTINGS
350
23D
  3
DWGPROPS
350
2284
  0
DICTIONARY
  5
1F1
330
1F
100
AcDbDictionary
280
     1
  3
ACAD_INDEX
360
1F2
  3
ACAD_LAYOUTSELFREF
360
251C
  0
DICTIONARY
  5
251A
330
1B
100
AcDbDictionary
280
     1
  3
ACAD_LAYOUTSELFREF
360
251B
  0
DICTIONARY
  5
D
102
{ACAD_REACTORS
330
C
102
}
330
C
100
AcDbDictionary
  0
DICTIONARY
  5
1A
102
{ACAD_REACTORS
330
C
102
}
330
C
100
AcDbDictionary
  0
DICTIONARY
  5
17
102
{ACAD_REACTORS
330
C
102
}
330
C
100
AcDbDictionary
  3
STANDARD
350
18
  0
DICTIONARY
  5
19
102
{ACAD_REACTORS
330
C
102
}
330
C
100
AcDbDictionary
  0
ACDBDICTIONARYWDFLT
  5
E
102
{ACAD_REACTORS
330
C
102
}
330
C
100
AcDbDictionary
281
     1
  3
Normal
350
F
100
AcDbDictionaryWithDefault
340
F
  0
DICTIONARY
  5
24F9
102
{ACAD_REACTORS
330
C
102
}
330
C
100
AcDbDictionary
  3
CEPSNTYPE
350
2503
  3
DIMSTYLEDATA
350
2507
  3
FINGERPRINTGUID
350
2504
  3
HYPERLINKBASE
350
24FC
  3
INSUNITS
350
2502
  3
LAYOUTDICT
350
24FE
  3
LWETCUNION
350
2501
  3
PLOTSETDICT
350
24FF
  3
PLOTSTYLNAMDICT
350
2500
  3
PSVPSCALE
350
2506
  3
PUCSBASE
350
250A
  3
PUCSORGBACK
350
2510
  3
PUCSORGBOTTOM
350
250C
  3
PUCSORGFRONT
350
250F
  3
PUCSORGLEFT
350
250D
  3
PUCSORGRIGHT
350
250E
  3
PUCSORGTOP
350
250B
  3
PUCSORTHOREF
350
2508
  3
PUCSORTHOVIEW
350
2509
  3
STYLESHEET
350
24FD
  3
TSTACKALIGN
350
24FA
  3
TSTACKSIZE
350
24FB
  3
UCSBASE
350
2513
  3
UCSORGBACK
350
2519
  3
UCSORGBOTTOM
350
2515
  3
UCSORGFRONT
350
2518
  3
UCSORGLEFT
350
2516
  3
UCSORGRIGHT
350
2517
  3
UCSORGTOP
350
2514
  3
UCSORTHOREF
350
2511
  3
UCSORTHOVIEW
350
2512
  3
VERSIONGUID
350
2505
  0
DICTIONARY
  5
216
102
{ACAD_REACTORS
330
C
102
}
330
C
100
AcDbDictionary
  3
DIMASSOC
350
219
  3
HIDETEXT
350
218
  3
INDEXCTL
350
217
  0
DICTIONARY
  5
45
102
{ACAD_REACTORS
330
C
102
}
330
C
100
AcDbDictionary
  3
ACMSTDDICTIONARY
350
4A
  0
DICTIONARY
  5
41
102
{ACAD_REACTORS
330
C
102
}
330
C
100
AcDbDictionary
  3
ACMGSETTINGS
350
42
  0
DICTIONARY
  5
23D
102
{ACAD_REACTORS
330
C
102
}
330
C
100
AcDbDictionary
  0
XRECORD
  5
2284
102
{ACAD_REACTORS
330
C
102
}
330
C
100
AcDbXrecord
  1
DWGPROPS COOKIE
  2

  3

  4

  6

  7

  8

  9

300
AmdtFileType=84
301
=
302
=
303
=
304
=
305
=
306
=
307
=
308
=
309
=
 40
0.0316227777777778
 41
2453599.366006042
 42
2453610.493765578
  1

 90
        1
  0
DICTIONARY
  5
1F2
102
{ACAD_REACTORS
330
1F1
102
}
330
1F1
100
AcDbDictionary
  3
*A1
350
1F3
  0
XRECORD
  5
251C
102
{ACAD_REACTORS
330
1F1
102
}
330
1F1
100
AcDbXrecord
340
1F
  0
XRECORD
  5
251B
102
{ACAD_REACTORS
330
251A
102
}
330
251A
100
AcDbXrecord
340
1B
  0
MLINESTYLE
  5
18
102
{ACAD_REACTORS
330
17
102
}
330
17
100
AcDbMlineStyle
  2
STANDARD
 70
     0
  3

 62
   256
 51
90.0
 52
90.0
 71
     2
 49
0.5
 62
   256
  6
BYLAYER
 49
-0.5
 62
   256
  6
BYLAYER
  0
ACDBPLACEHOLDER
  5
F
102
{ACAD_REACTORS
330
E
102
}
330
E
100
AcDbPlaceHolder
280
     0
  0
XRECORD
  5
2503
102
{ACAD_REACTORS
330
24F9
102
}
330
24F9
100
AcDbXrecord
 90
        0
  0
XRECORD
  5
2507
102
{ACAD_REACTORS
330
24F9
102
}
330
24F9
100
AcDbXrecord
1000
DSTYLE
1002
{
1070
    79
 70
     2
1070
   371
 70
    -1
1070
   372
 70
    -1
1002
}
  0
XRECORD
  5
2504
102
{ACAD_REACTORS
330
24F9
102
}
330
24F9
100
AcDbXrecord
  1
{03052709-208C-44F1-88CB-F8F0E550BC5D}
  0
XRECORD
  5
24FC
102
{ACAD_REACTORS
330
24F9
102
}
330
24F9
100
AcDbXrecord
  1

  0
XRECORD
  5
2502
102
{ACAD_REACTORS
330
24F9
102
}
330
24F9
100
AcDbXrecord
 90
        4
  0
XRECORD
  5
24FE
102
{ACAD_REACTORS
330
24F9
102
}
330
24F9
100
AcDbXrecord
340
1A
  0
XRECORD
  5
2501
102
{ACAD_REACTORS
330
24F9
102
}
330
24F9
100
AcDbXrecord
 90
    10781
  0
XRECORD
  5
24FF
102
{ACAD_REACTORS
330
24F9
102
}
330
24F9
100
AcDbXrecord
340
19
  0
XRECORD
  5
2500
102
{ACAD_REACTORS
330
24F9
102
}
330
24F9
100
AcDbXrecord
340
E
  0
XRECORD
  5
2506
102
{ACAD_REACTORS
330
24F9
102
}
330
24F9
100
AcDbXrecord
 40
0.0
  0
XRECORD
  5
250A
102
{ACAD_REACTORS
330
24F9
102
}
330
24F9
100
AcDbXrecord
340
0
  0
XRECORD
  5
2510
102
{ACAD_REACTORS
330
24F9
102
}
330
24F9
100
AcDbXrecord
 10
0.0
 20
0.0
 30
0.0
  0
XRECORD
  5
250C
102
{ACAD_REACTORS
330
24F9
102
}
330
24F9
100
AcDbXrecord
 10
0.0
 20
0.0
 30
0.0
  0
XRECORD
  5
250F
102
{ACAD_REACTORS
330
24F9
102
}
330
24F9
100
AcDbXrecord
 10
0.0
 20
0.0
 30
0.0
  0
XRECORD
  5
250D
102
{ACAD_REACTORS
330
24F9
102
}
330
24F9
100
AcDbXrecord
 10
0.0
 20
0.0
 30
0.0
  0
XRECORD
  5
250E
102
{ACAD_REACTORS
330
24F9
102
}
330
24F9
100
AcDbXrecord
 10
0.0
 20
0.0
 30
0.0
  0
XRECORD
  5
250B
102
{ACAD_REACTORS
330
24F9
102
}
330
24F9
100
AcDbXrecord
 10
0.0
 20
0.0
 30
0.0
  0
XRECORD
  5
2508
102
{ACAD_REACTORS
330
24F9
102
}
330
24F9
100
AcDbXrecord
340
0
  0
XRECORD
  5
2509
102
{ACAD_REACTORS
330
24F9
102
}
330
24F9
100
AcDbXrecord
 70
     0
  0
XRECORD
  5
24FD
102
{ACAD_REACTORS
330
24F9
102
}
330
24F9
100
AcDbXrecord
  1

  0
XRECORD
  5
24FA
102
{ACAD_REACTORS
330
24F9
102
}
330
24F9
100
AcDbXrecord
 90
        1
  0
XRECORD
  5
24FB
102
{ACAD_REACTORS
330
24F9
102
}
330
24F9
100
AcDbXrecord
 90
       70
  0
XRECORD
  5
2513
102
{ACAD_REACTORS
330
24F9
102
}
330
24F9
100
AcDbXrecord
340
0
  0
XRECORD
  5
2519
102
{ACAD_REACTORS
330
24F9
102
}
330
24F9
100
AcDbXrecord
 10
0.0
 20
0.0
 30
0.0
  0
XRECORD
  5
2515
102
{ACAD_REACTORS
330
24F9
102
}
330
24F9
100
AcDbXrecord
 10
0.0
 20
0.0
 30
0.0
  0
XRECORD
  5
2518
102
{ACAD_REACTORS
330
24F9
102
}
330
24F9
100
AcDbXrecord
 10
0.0
 20
0.0
 30
0.0
  0
XRECORD
  5
2516
102
{ACAD_REACTORS
330
24F9
102
}
330
24F9
100
AcDbXrecord
 10
0.0
 20
0.0
 30
0.0
  0
XRECORD
  5
2517
102
{ACAD_REACTORS
330
24F9
102
}
330
24F9
100
AcDbXrecord
 10
0.0
 20
0.0
 30
0.0
  0
XRECORD
  5
2514
102
{ACAD_REACTORS
330
24F9
102
}
330
24F9
100
AcDbXrecord
 10
0.0
 20
0.0
 30
0.0
  0
XRECORD
  5
2511
102
{ACAD_REACTORS
330
24F9
102
}
330
24F9
100
AcDbXrecord
340
0
  0
XRECORD
  5
2512
102
{ACAD_REACTORS
330
24F9
102
}
330
24F9
100
AcDbXrecord
 70
     0
  0
XRECORD
  5
2505
102
{ACAD_REACTORS
330
24F9
102
}
330
24F9
100
AcDbXrecord
  1
{050638CF-12A8-434E-8540-AA8BDC91A032}
  0
DICTIONARYVAR
  5
219
102
{ACAD_REACTORS
330
216
102
}
330
216
100
DictionaryVariables
280
     0
  1
1
  0
DICTIONARYVAR
  5
218
102
{ACAD_REACTORS
330
216
102
}
330
216
100
DictionaryVariables
280
     0
  1
1
  0
DICTIONARYVAR
  5
217
102
{ACAD_REACTORS
330
216
102
}
330
216
100
DictionaryVariables
280
     0
  1
1
  0
DICTIONARY
  5
4A
102
{ACAD_REACTORS
330
45
102
}
330
45
100
AcDbDictionary
  0
DICTIONARY
  5
42
102
{ACAD_REACTORS
330
41
102
}
330
41
100
AcDbDictionary
  3
DWGSETTINGS
350
43
  0
LAYER_INDEX
  5
1F3
102
{ACAD_REACTORS
330
1F2
102
}
330
1F2
100
AcDbIndex
 40
2453610.49884522
100
AcDbLayerIndex
  8
0
360
1F4
 90
        1
  8
Defpoints
360
210
 90
        0
  8
1
360
29B
 90
       32
  8
2
360
2251
 90
        3
  8
4
360
2252
 90
        2
  8
6
360
2253
 90
        3
  8
SK1
360
2254
 90
       12
  8
SK2
360
2255
 90
        2
  8
SK3
360
2256
 90
       16
  8
CUT
360
2257
 90
       12
  8
NOCUT
360
2258
 90
        6
  0
XRECORD
  5
43
102
{ACAD_REACTORS
330
42
102
}
330
42
100
AcDbXrecord
  1
VERSION
140
15.0
  1
PRODUCT
  2
AutoCAD Mechanical 2000
  0
IDBUFFER
  5
1F4
330
0
100
AcDbIdBuffer
330
248A
  0
IDBUFFER
  5
210
330
0
100
AcDbIdBuffer
  0
IDBUFFER
  5
29B
330
0
100
AcDbIdBuffer
330
24C2
330
1AE6
330
1AEB
330
1F97
330
1F98
330
1FB7
330
201C
330
201F
330
2023
330
2025
330
247F
330
2480
330
2482
330
2484
330
2486
330
2487
330
248B
330
248D
330
248F
330
2491
330
2493
330
2495
330
2497
330
24B4
330
24B8
330
24B9
330
24BA
330
24BB
330
24BC
330
24BD
330
24BE
330
24BF
  0
IDBUFFER
  5
2251
330
0
100
AcDbIdBuffer
330
2070
330
20FB
330
247E
  0
IDBUFFER
  5
2252
330
0
100
AcDbIdBuffer
330
1F99
330
2044
  0
IDBUFFER
  5
2253
330
0
100
AcDbIdBuffer
330
2173
330
2175
330
2477
  0
IDBUFFER
  5
2254
330
0
100
AcDbIdBuffer
330
1AFA
330
1AFB
330
1AFC
330
1FAA
330
1FAF
330
1FB0
330
2000
330
2003
330
2004
330
2045
330
2046
330
2047
  0
IDBUFFER
  5
2255
330
0
100
AcDbIdBuffer
330
1AEA
330
20A1
  0
IDBUFFER
  5
2256
330
0
100
AcDbIdBuffer
330
1AED
330
1AEE
330
1AEF
330
1AF2
330
1AF7
330
1AF8
330
1AF9
330
1AFD
330
1FF1
330
1FF2
330
24B2
330
24B3
330
24B5
330
24B6
330
24B7
330
24C3
  0
IDBUFFER
  5
2257
330
0
100
AcDbIdBuffer
330
2481
330
2483
330
2485
330
2488
330
2489
330
248C
330
248E
330
2490
330
2492
330
2494
330
2496
330
2498
  0
IDBUFFER
  5
2258
330
0
100
AcDbIdBuffer
330
24C1
330
217A
330
217E
330
2181
330
2182
330
2186
  0
ENDSEC
  0
EOF
