  0
SECTION
  2
HEADER
  9
$ACADVER
  1
AC1014
  9
$ACADMAINTVER
 70
     9
  9
$DWGCODEPAGE
  3
ANSI_1252
  9
$INSBASE
 10
0.0
 20
0.0
 30
0.0
  9
$EXTMIN
 10
-33.87109642017012
 20
-24.54187025042397
 30
0.0
  9
$EXTMAX
 10
57.48152754389167
 20
80.00068897637794
 30
0.0
  9
$LIMMIN
 10
0.0
 20
0.0
  9
$LIMMAX
 10
420.0
 20
297.0
  9
$ORTHOMODE
 70
     0
  9
$REGENMODE
 70
     1
  9
$FILLMODE
 70
     1
  9
$QTEXTMODE
 70
     0
  9
$MIRRTEXT
 70
     1
  9
$DRAGMODE
 70
     2
  9
$LTSCALE
 40
1.0
  9
$OSMODE
 70
  2599
  9
$ATTMODE
 70
     1
  9
$TEXTSIZE
 40
2.5
  9
$TRACEWID
 40
1.0
  9
$TEXTSTYLE
  7
STANDARD
  9
$CLAYER
  8
0
  9
$CELTYPE
  6
BYLAYER
  9
$CECOLOR
 62
   256
  9
$CELTSCALE
 40
1.0
  9
$DELOBJ
 70
     1
  9
$DISPSILH
 70
     0
  9
$DIMSCALE
 40
1.0
  9
$DIMASZ
 40
2.5
  9
$DIMEXO
 40
0.0
  9
$DIMDLI
 40
10.0
  9
$DIMRND
 40
0.0
  9
$DIMDLE
 40
0.0
  9
$DIMEXE
 40
1.0
  9
$DIMTP
 40
0.1
  9
$DIMTM
 40
0.1
  9
$DIMTXT
 40
3.5
  9
$DIMCEN
 40
0.0
  9
$DIMTSZ
 40
0.0
  9
$DIMTOL
 70
     0
  9
$DIMLIM
 70
     0
  9
$DIMTIH
 70
     0
  9
$DIMTOH
 70
     0
  9
$DIMSE1
 70
     0
  9
$DIMSE2
 70
     0
  9
$DIMTAD
 70
     1
  9
$DIMZIN
 70
     8
  9
$DIMBLK
  1

  9
$DIMASO
 70
     1
  9
$DIMSHO
 70
     1
  9
$DIMPOST
  1

  9
$DIMAPOST
  1
"
  9
$DIMALT
 70
     0
  9
$DIMALTD
 70
     2
  9
$DIMALTF
 40
0.0393701
  9
$DIMLFAC
 40
1.0
  9
$DIMTOFL
 70
     1
  9
$DIMTVP
 40
0.0
  9
$DIMTIX
 70
     0
  9
$DIMSOXD
 70
     0
  9
$DIMSAH
 70
     0
  9
$DIMBLK1
  1

  9
$DIMBLK2
  1

  9
$DIMSTYLE
  2
AM_DIN
  9
$DIMCLRD
 70
   256
  9
$DIMCLRE
 70
   256
  9
$DIMCLRT
 70
     2
  9
$DIMTFAC
 40
0.71
  9
$DIMGAP
 40
1.5
  9
$DIMJUST
 70
     0
  9
$DIMSD1
 70
     0
  9
$DIMSD2
 70
     0
  9
$DIMTOLJ
 70
     0
  9
$DIMTZIN
 70
     8
  9
$DIMALTZ
 70
     0
  9
$DIMALTTZ
 70
     0
  9
$DIMFIT
 70
     3
  9
$DIMUPT
 70
     0
  9
$DIMUNIT
 70
     2
  9
$DIMDEC
 70
     2
  9
$DIMTDEC
 70
     2
  9
$DIMALTU
 70
     2
  9
$DIMALTTD
 70
     2
  9
$DIMTXSTY
  7
STANDARD
  9
$DIMAUNIT
 70
     0
  9
$LUNITS
 70
     2
  9
$LUPREC
 70
     2
  9
$SKETCHINC
 40
1.0
  9
$FILLETRAD
 40
2.0
  9
$AUNITS
 70
     0
  9
$AUPREC
 70
     0
  9
$MENU
  1
.
  9
$ELEVATION
 40
0.0
  9
$PELEVATION
 40
0.0
  9
$THICKNESS
 40
0.0
  9
$LIMCHECK
 70
     0
  9
$BLIPMODE
 70
     0
  9
$CHAMFERA
 40
2.5
  9
$CHAMFERB
 40
2.5
  9
$CHAMFERC
 40
20.0
  9
$CHAMFERD
 40
0.0
  9
$SKPOLY
 70
     0
  9
$TDCREATE
 40
2453599.697857361
  9
$TDUPDATE
 40
2453610.492125254
  9
$TDINDWG
 40
0.0351037153
  9
$TDUSRTIMER
 40
0.0349168750
  9
$USRTIMER
 70
     1
  9
$ANGBASE
 50
0.0
  9
$ANGDIR
 70
     0
  9
$PDMODE
 70
     0
  9
$PDSIZE
 40
0.0
  9
$PLINEWID
 40
0.0
  9
$COORDS
 70
     0
  9
$SPLFRAME
 70
     0
  9
$SPLINETYPE
 70
     6
  9
$SPLINESEGS
 70
     8
  9
$ATTDIA
 70
     1
  9
$ATTREQ
 70
     1
  9
$HANDLING
 70
 22529
  9
$HANDSEED
  5
1824
  9
$SURFTAB1
 70
     6
  9
$SURFTAB2
 70
     6
  9
$SURFTYPE
 70
     6
  9
$SURFU
 70
     6
  9
$SURFV
 70
     6
  9
$UCSNAME
  2

  9
$UCSORG
 10
0.0
 20
0.0
 30
0.0
  9
$UCSXDIR
 10
1.0
 20
0.0
 30
0.0
  9
$UCSYDIR
 10
0.0
 20
1.0
 30
0.0
  9
$PUCSNAME
  2

  9
$PUCSORG
 10
0.0
 20
0.0
 30
0.0
  9
$PUCSXDIR
 10
1.0
 20
0.0
 30
0.0
  9
$PUCSYDIR
 10
0.0
 20
1.0
 30
0.0
  9
$USERI1
 70
     0
  9
$USERI2
 70
     0
  9
$USERI3
 70
     0
  9
$USERI4
 70
     0
  9
$USERI5
 70
     0
  9
$USERR1
 40
0.0
  9
$USERR2
 40
0.0
  9
$USERR3
 40
0.0
  9
$USERR4
 40
0.0
  9
$USERR5
 40
0.0
  9
$WORLDVIEW
 70
     1
  9
$SHADEDGE
 70
     3
  9
$SHADEDIF
 70
    70
  9
$TILEMODE
 70
     1
  9
$MAXACTVP
 70
    64
  9
$PINSBASE
 10
0.0
 20
0.0
 30
0.0
  9
$PLIMCHECK
 70
     0
  9
$PEXTMIN
 10
1.000000000000000E+20
 20
1.000000000000000E+20
 30
1.000000000000000E+20
  9
$PEXTMAX
 10
-1.000000000000000E+20
 20
-1.000000000000000E+20
 30
-1.000000000000000E+20
  9
$PLIMMIN
 10
0.0
 20
0.0
  9
$PLIMMAX
 10
420.0
 20
297.0
  9
$UNITMODE
 70
     0
  9
$VISRETAIN
 70
     1
  9
$PLINEGEN
 70
     0
  9
$PSLTSCALE
 70
     1
  9
$TREEDEPTH
 70
  3020
  9
$PICKSTYLE
 70
     0
  9
$CMLSTYLE
  2
STANDARD
  9
$CMLJUST
 70
     0
  9
$CMLSCALE
 40
20.0
  9
$PROXYGRAPHICS
 70
     1
  9
$MEASUREMENT
 70
     1
  0
ENDSEC
  0
SECTION
  2
CLASSES
  0
CLASS
  1
ACDBDICTIONARYWDFLT
  2
AcDbDictionaryWithDefault
  3
AutoCAD 2000
 90
        0
280
     0
281
     0
  0
CLASS
  1
ACDBPLACEHOLDER
  2
AcDbPlaceHolder
  3
AutoCAD 2000
 90
        0
280
     0
281
     0
  0
CLASS
  1
LAYOUT
  2
AcDbLayout
  3
AutoCAD 2000
 90
        0
280
     0
281
     0
  0
CLASS
  1
ACME_DOCUMENT
  2
AcMeDbDoc
  3
AcMeServices
 90
        0
280
     0
281
     0
  0
CLASS
  1
ACMESCOPE
  2
AcMeScope
  3
AcMeServices
 90
        0
280
     0
281
     0
  0
CLASS
  1
ACMECOMMANDHISTORY
  2
AcMeCommandHistory
  3
AcMeServices
 90
        0
280
     0
281
     0
  0
CLASS
  1
ACIMSYSVARMAN
  2
AcImSysVarManager
  3
AcMeServices
 90
        0
280
     0
281
     0
  0
CLASS
  1
ACIMREALSYSVAR
  2
AcImRealSysVar
  3
AcMeServices
 90
        0
280
     0
281
     0
  0
CLASS
  1
ACIMINTSYSVAR
  2
AcImIntSysVar
  3
AcMeServices
 90
        0
280
     0
281
     0
  0
CLASS
  1
ACMEDRAWINGMAN
  2
AcMeDrawingMan
  3
AcMeServices
 90
        0
280
     0
281
     0
  0
CLASS
  1
ACMEVIEW
  2
AcMeView
  3
AcMeServices
 90
        0
280
     0
281
     0
  0
CLASS
  1
ACDBENTITYCACHE
  2
AcMeEntityCache
  3
AcMeServices
 90
        0
280
     0
281
     0
  0
CLASS
  1
GSMANAGER
  2
AcMeGSManager
  3
AcMeServices
 90
        0
280
     0
281
     0
  0
CLASS
  1
AMDTINTERNALREACTOR
  2
AmdtInternalReactor
  3
AcMeServices
 90
        0
280
     0
281
     0
  0
CLASS
  1
ACMESTATEMGR
  2
AcMeStateMgr
  3
AcMeServices
 90
        0
280
     0
281
     0
  0
CLASS
  1
ACGREFMASTER
  2
AcGrefMaster
  3
AcAttribServices
 90
        0
280
     0
281
     0
  0
CLASS
  1
ACME_DATABASE
  2
AcMeDbDatabase
  3
AcMeServices
 90
        0
280
     0
281
     0
  0
CLASS
  1
ACRFINSADJUSTERMGR
  2
AcRfInsAdjusterMgr
  3
AcMeServices
 90
        0
280
     0
281
     0
  0
CLASS
  1
ACGREFACADMASTER
  2
AcGrefacadMaster
  3
AcGrefServices
 90
        0
280
     0
281
     0
  0
CLASS
  1
AMIMASTER
  2
AmiMaster
  3
AmiServices
 90
        0
280
     0
281
     0
  0
CLASS
  1
AMGSETTINGSOBJ
  2
AmgSettingsObj
  3
"AcadM|Product Description: AutoCAD Mechanical 2000|Company: Autodesk"
 90
        0
280
     0
281
     0
  0
CLASS
  1
ACMDATADICTIONARY
  2
AcmDataDictionary
  3
"AcmSymBB|Product Description: AutoCAD Mechanical 2000|Company: Autodesk"
 90
        0
280
     0
281
     0
  0
CLASS
  1
ACMDATAENTRYBLOCK
  2
AcmDataEntryBlock
  3
"AcmSymBB|Product Description: AutoCAD Mechanical 2000|Company: Autodesk"
 90
        0
280
     0
281
     0
  0
CLASS
  1
ACIMSTRSYSVAR
  2
AcImStrSysVar
  3
AcMeServices
 90
        0
280
     0
281
     0
  0
CLASS
  1
ACMSTANDARDDIN
  2
AcmStandardDIN
  3
"Amdt_StdImp|Product Description: AutoCAD Mechanical 2000|Company: Autodesk"
 90
        0
280
     0
281
     0
  0
CLASS
  1
AMGOBJPROPCFG
  2
AmgObjPropCfg
  3
"AmgLay|Product Description: AutoCAD Mechanical 2000|Company: Autodesk"
 90
        1
280
     0
281
     0
  0
CLASS
  1
AMDTEDGESTANDARDDIN
  2
AmdtEdgeStdDIN
  3
"Amdt_StdImp|Product Description: AutoCAD Mechanical 2000|Company: Autodesk"
 90
        0
280
     0
281
     0
  0
CLASS
  1
ACMSURFSTANDARDDIN
  2
AcmSurfTextStdDIN
  3
"Amdt_StdImp|Product Description: AutoCAD Mechanical 2000|Company: Autodesk"
 90
        0
280
     0
281
     0
  0
CLASS
  1
ACMFCFSTANDARDDIN
  2
AcmFCFStdDIN
  3
"Amdt_StdImp|Product Description: AutoCAD Mechanical 2000|Company: Autodesk"
 90
        0
280
     0
281
     0
  0
CLASS
  1
ACMWELDSTANDARDDIN
  2
AcmWeldingStdDIN
  3
"Amdt_StdImp|Product Description: AutoCAD Mechanical 2000|Company: Autodesk"
 90
        0
280
     0
281
     0
  0
CLASS
  1
ACMIDSTANDARDDIN
  2
AcmIdStdDIN
  3
"Amdt_StdImp|Product Description: AutoCAD Mechanical 2000|Company: Autodesk"
 90
        0
280
     0
281
     0
  0
CLASS
  1
ACMDATUMSTANDARDDIN
  2
AcmDatumStdDIN
  3
"Amdt_StdImp|Product Description: AutoCAD Mechanical 2000|Company: Autodesk"
 90
        0
280
     0
281
     0
  0
CLASS
  1
ACMBOMSTANDARDDIN
  2
AcmBOMStdDIN
  3
"Amdt_StdImp|Product Description: AutoCAD Mechanical 2000|Company: Autodesk"
 90
        0
280
     0
281
     0
  0
CLASS
  1
ACMDETAILSTANDARDDIN
  2
AmdtDetailSymStdDIN
  3
"Amdt_StdImp|Product Description: AutoCAD Mechanical 2000|Company: Autodesk"
 90
        0
280
     0
281
     0
  0
CLASS
  1
ACMSECTIONSTANDARDDIN
  2
AmdtSectionSymStdDIN
  3
"Amdt_StdImp|Product Description: AutoCAD Mechanical 2000|Company: Autodesk"
 90
        0
280
     0
281
     0
  0
CLASS
  1
ACMCENTERLINESTANDARDDIN
  2
AmdtCenterLineStdDIN
  3
"Amdt_StdImp|Product Description: AutoCAD Mechanical 2000|Company: Autodesk"
 90
        0
280
     0
281
     0
  0
CLASS
  1
ACMNOTESTANDARDDIN
  2
AmdtNoteStdDIN
  3
"Amdt_StdImp|Product Description: AutoCAD Mechanical 2000|Company: Autodesk"
 90
        0
280
     0
281
     0
  0
CLASS
  1
ACAMGLAYSTD
  2
AcAmgLayStd
  3
"AcAmgLayStd|Product Description: AutoCAD Mechanical 2000|Company: Autodesk"
 90
        0
280
     0
281
     0
  0
CLASS
  1
ACAMGDIMSTD
  2
AcAmgDimStd
  3
"AcAmgDimStd|Product Description: AutoCAD Mechanical 2000|Company: Autodesk"
 90
        0
280
     0
281
     0
  0
CLASS
  1
ACAMGHOLECHARTSTDDIN
  2
AcAmgHoleChartStdDIN
  3
ACMSYMBB_MODULE_NAME
 90
        0
280
     0
281
     0
  0
CLASS
  1
ACAMGTITLESTD
  2
AcAmgTitleStd
  3
"TITLEAPP"
 90
        0
280
     0
281
     0
  0
CLASS
  1
ACMSTANDARDANSI
  2
AcmStandardANSI
  3
"Amdt_StdImp|Product Description: AutoCAD Mechanical 2000|Company: Autodesk"
 90
        0
280
     0
281
     0
  0
CLASS
  1
ACMSURFSTANDARDANSI
  2
AcmSurfTextStdANSI
  3
"Amdt_StdImp|Product Description: AutoCAD Mechanical 2000|Company: Autodesk"
 90
        0
280
     0
281
     0
  0
CLASS
  1
ACMFCFSTANDARDANSI
  2
AcmFCFStdANSI
  3
"Amdt_StdImp|Product Description: AutoCAD Mechanical 2000|Company: Autodesk"
 90
        0
280
     0
281
     0
  0
CLASS
  1
ACMWELDSTANDARDANSI
  2
AcmWeldingStdANSI
  3
"Amdt_StdImp|Product Description: AutoCAD Mechanical 2000|Company: Autodesk"
 90
        0
280
     0
281
     0
  0
CLASS
  1
ACMIDSTANDARDANSI
  2
AcmIdStdANSI
  3
"Amdt_StdImp|Product Description: AutoCAD Mechanical 2000|Company: Autodesk"
 90
        0
280
     0
281
     0
  0
CLASS
  1
ACMDATUMSTANDARDANSI
  2
AcmDatumStdANSI
  3
"Amdt_StdImp|Product Description: AutoCAD Mechanical 2000|Company: Autodesk"
 90
        0
280
     0
281
     0
  0
CLASS
  1
ACMBOMSTANDARDANSI
  2
AcmBOMStdANSI
  3
"Amdt_StdImp|Product Description: AutoCAD Mechanical 2000|Company: Autodesk"
 90
        0
280
     0
281
     0
  0
CLASS
  1
ACMDETAILSTANDARDANSI
  2
AmdtDetailSymStdANSI
  3
"Amdt_StdImp|Product Description: AutoCAD Mechanical 2000|Company: Autodesk"
 90
        0
280
     0
281
     0
  0
CLASS
  1
ACMSECTIONSTANDARDANSI
  2
AmdtSectionSymStdANSI
  3
"Amdt_StdImp|Product Description: AutoCAD Mechanical 2000|Company: Autodesk"
 90
        0
280
     0
281
     0
  0
CLASS
  1
ACMCENTERLINESTANDARDANSI
  2
AmdtCenterLineStdANSI
  3
"Amdt_StdImp|Product Description: AutoCAD Mechanical 2000|Company: Autodesk"
 90
        0
280
     0
281
     0
  0
CLASS
  1
ACMNOTESTANDARDANSI
  2
AmdtNoteStdANSI
  3
"Amdt_StdImp|Product Description: AutoCAD Mechanical 2000|Company: Autodesk"
 90
        0
280
     0
281
     0
  0
CLASS
  1
ACAMGHOLECHARTSTDANSI
  2
AcAmgHoleChartStdANSI
  3
ACMSYMBB_MODULE_NAME
 90
        0
280
     0
281
     0
  0
CLASS
  1
ACAMGFILTERDAT
  2
AcAmgFilterDat
  3
"AcadM|Product Description: AutoCAD Mechanical 2000|Company: Autodesk"
 90
        0
280
     0
281
     0
  0
CLASS
  1
AMDTFORMULAUPDATEDISPATCHER
  2
AmdtFormulaUpdateDispatcher
  3
AcMeServices
 90
        0
280
     0
281
     0
  0
CLASS
  1
LAYER_INDEX
  2
AcDbLayerIndex
  3
AutoCAD 2000
 90
        0
280
     0
281
     0
  0
CLASS
  1
IDBUFFER
  2
AcDbIdBuffer
  3
AutoCAD 2000
 90
        0
280
     0
281
     0
  0
CLASS
  1
DICTIONARYVAR
  2
AcDbDictionaryVar
  3
AutoCAD 2000
 90
        0
280
     0
281
     0
  0
CLASS
  1
DIMASSOC
  2
AcDbDimAssoc
  3
"AcDbDimAssoc|Product Desc:     AcDim ARX App For Dimension|Company:          Autodesk, Inc.|WEB Address:      www.autodesk.com"
 90
        0
280
     0
281
     0
  0
CLASS
  1
LONG_TRANSACTION
  2
AcDbLongTransaction
  3
AutoCAD 2000
 90
        0
280
     0
281
     0
  0
CLASS
  1
LWPOLYLINE
  2
AcDbPolyline
  3
AutoCAD 2000
 90
        0
280
     0
281
     1
  0
CLASS
  1
HATCH
  2
AcDbHatch
  3
AutoCAD 2000
 90
        0
280
     0
281
     1
  0
CLASS
  1
XRECORD
  2
AcDbXrecord
  3
AutoCAD 2000
 90
        0
280
     0
281
     0
  0
CLASS
  1
ACMTHREADLINESTANDARDDIN
  2
AmdtThreadLineStdDIN
  3
"Amdt_StdImp|Product Description: AutoCAD Mechanical 2000|Company: Autodesk"
 90
        0
280
     0
281
     0
  0
CLASS
  1
LONG_TRANSACTION
  2
AcDbLongTransaction
  3
AutoCAD 2000
 90
        0
280
     0
281
     0
  0
CLASS
  1
LWPOLYLINE
  2
AcDbPolyline
  3
AutoCAD 2000
 90
        0
280
     0
281
     1
  0
CLASS
  1
HATCH
  2
AcDbHatch
  3
AutoCAD 2000
 90
        0
280
     0
281
     1
  0
CLASS
  1
XRECORD
  2
AcDbXrecord
  3
AutoCAD 2000
 90
        0
280
     0
281
     0
  0
ENDSEC
  0
SECTION
  2
TABLES
  0
TABLE
  2
VPORT
  5
8
330
0
100
AcDbSymbolTable
 70
     3
  0
VPORT
  5
1800
330
8
100
AcDbSymbolTableRecord
100
AcDbViewportTableRecord
  2
*ACTIVE
 70
     0
 10
0.0
 20
0.0
 11
1.0
 21
1.0
 12
193.0517029986736
 22
136.2186841294595
 13
0.0
 23
0.0
 14
2.5
 24
2.5
 15
10.0
 25
10.0
 16
0.0
 26
0.0
 36
1.0
 17
0.0
 27
0.0
 37
0.0
 40
325.1092784146958
 41
1.694290976058931
 42
50.0
 43
0.0
 44
0.0
 50
0.0
 51
0.0
 71
     0
 72
 10000
 73
     1
 74
     3
 75
     0
 76
     0
 77
     0
 78
     0
  0
ENDTAB
  0
TABLE
  2
LTYPE
  5
5
330
0
100
AcDbSymbolTable
 70
    22
  0
LTYPE
  5
14
330
5
100
AcDbSymbolTableRecord
100
AcDbLinetypeTableRecord
  2
BYBLOCK
 70
     0
  3

 72
    65
 73
     0
 40
0.0
  0
LTYPE
  5
15
330
5
100
AcDbSymbolTableRecord
100
AcDbLinetypeTableRecord
  2
BYLAYER
 70
     0
  3

 72
    65
 73
     0
 40
0.0
  0
LTYPE
  5
16
330
5
100
AcDbSymbolTableRecord
100
AcDbLinetypeTableRecord
  2
CONTINUOUS
 70
     0
  3
Solid line
 72
    65
 73
     0
 40
0.0
  0
LTYPE
  5
50
330
5
100
AcDbSymbolTableRecord
100
AcDbLinetypeTableRecord
  2
AMCONSTR
 70
     0
  3
_______________________
 72
    65
 73
     2
 40
9999.0
 49
9999.0
 74
     0
 49
0.0
 74
     0
  0
LTYPE
  5
55
330
5
100
AcDbSymbolTableRecord
100
AcDbLinetypeTableRecord
  2
AMZIGZAG
 70
     0
  3
/\/-/\/-/\/-/\/-/\/-/\/
 72
    65
 73
     2
 40
11.00009999999999
 49
0.0001
 74
     4
 75
   135
340
54
 46
0.04
 50
0.0
 44
0.0
 45
0.0
 49
-11.0
 74
     0
  0
LTYPE
  5
56
330
5
100
AcDbSymbolTableRecord
100
AcDbLinetypeTableRecord
  2
AM_DIN_F_W050
 70
     0
  3
__ __ __ __ __ __ __ __ __ __ __ __ __ __ __
 72
    65
 73
     2
 40
6.25
 49
4.75
 74
     0
 49
-1.5
 74
     0
  0
LTYPE
  5
57
330
5
100
AcDbSymbolTableRecord
100
AcDbLinetypeTableRecord
  2
AM_DIN_G_W050
 70
     0
  3
____ . ____ . ____ . ____ . ____ . ____ . ____
 72
    65
 73
     4
 40
13.75
 49
9.75
 74
     0
 49
-1.5
 74
     0
 49
1.0
 74
     0
 49
-1.5
 74
     0
  0
LTYPE
  5
58
330
5
100
AcDbSymbolTableRecord
100
AcDbLinetypeTableRecord
  2
AM_DIN_K_W050
 70
     0
  3
_____ . . _____ . . _____ . . ____ .. ____
 72
    65
 73
     6
 40
16.25
 49
9.75
 74
     0
 49
-1.5
 74
     0
 49
1.0
 74
     0
 49
-1.5
 74
     0
 49
1.0
 74
     0
 49
-1.5
 74
     0
  0
LTYPE
  5
59
330
5
100
AcDbSymbolTableRecord
100
AcDbLinetypeTableRecord
  2
AM_DIN_G_W050X2
 70
     0
  3
__ . __ . __ . __ . __ . __
 72
    65
 73
     4
 40
6.875
 49
4.75
 74
     0
 49
-0.875
 74
     0
 49
0.375
 74
     0
 49
-0.875
 74
     0
  0
LTYPE
  5
5A
330
5
100
AcDbSymbolTableRecord
100
AcDbLinetypeTableRecord
  2
AM_DIN_F_W050X2
 70
     0
  3
 _ _ _ _ _ _ _ _ _ _ _ _
 72
    65
 73
     2
 40
3.125
 49
2.25
 74
     0
 49
-0.875
 74
     0
  0
LTYPE
  5
68
330
5
100
AcDbSymbolTableRecord
100
AcDbLinetypeTableRecord
  2
ACDINWELD
 70
     0
  3
_ _ _ _ _
 72
    65
 73
     2
 40
2.0
 49
2.0
 74
     0
 49
-1.0
 74
     0
  0
LTYPE
  5
69
330
5
100
AcDbSymbolTableRecord
100
AcDbLinetypeTableRecord
  2
ACDINTGB
 70
     0
  3
__ . . __ . .
 72
    65
 73
     6
 40
9.0
 49
4.0
 74
     0
 49
-1.0
 74
     0
 49
1.0
 74
     0
 49
-1.0
 74
     0
 49
1.0
 74
     0
 49
-1.0
 74
     0
  0
LTYPE
  5
6A
330
5
100
AcDbSymbolTableRecord
100
AcDbLinetypeTableRecord
  2
ACDINTGL
 70
     0
  3
_ _ _ _ _
 72
    65
 73
     2
 40
3.0
 49
2.0
 74
     0
 49
-1.0
 74
     0
  0
LTYPE
  5
6C
330
5
100
AcDbSymbolTableRecord
100
AcDbLinetypeTableRecord
  2
CENTER
 70
     0
  3
Mitte ____ _ ____ _ ____ _ ____ _ ____ _ ____
 72
    65
 73
     4
 40
50.8
 49
31.75
 74
     0
 49
-6.349999999999999
 74
     0
 49
6.349999999999999
 74
     0
 49
-6.349999999999999
 74
     0
  0
LTYPE
  5
AFA
330
5
100
AcDbSymbolTableRecord
100
AcDbLinetypeTableRecord
  2
PHANTOM2
 70
     0
  3
Phantom (.5x) ___ _ _ ___ _ _ ___ _ _ ___ _ _
 72
    65
 73
     6
 40
1.25
 49
0.625
 74
     0
 49
-0.125
 74
     0
 49
0.125
 74
     0
 49
-0.125
 74
     0
 49
0.125
 74
     0
 49
-0.125
 74
     0
  0
LTYPE
  5
AFB
330
5
100
AcDbSymbolTableRecord
100
AcDbLinetypeTableRecord
  2
ACANSTGB
 70
     0
  3
__ . . __ . .
 72
    65
 73
     6
 40
0.35433070866
 49
0.15748031496
 74
     0
 49
-0.03937007874
 74
     0
 49
0.03937007874
 74
     0
 49
-0.03937007874
 74
     0
 49
0.03937007874
 74
     0
 49
-0.03937007874
 74
     0
  0
LTYPE
  5
AFC
330
5
100
AcDbSymbolTableRecord
100
AcDbLinetypeTableRecord
  2
ACANSTGL
 70
     0
  3
_ _ _ _ _
 72
    65
 73
     2
 40
0.11811023622
 49
0.07874015748
 74
     0
 49
-0.03937007874
 74
     0
  0
LTYPE
  5
AFD
330
5
100
AcDbSymbolTableRecord
100
AcDbLinetypeTableRecord
  2
DASHED
 70
     0
  3
__ __ __ __ __ __ __ __ __ __ __ __ __ __ __ __
 72
    65
 73
     2
 40
19.05
 49
12.7
 74
     0
 49
-6.349999999999997
 74
     0
  0
LTYPE
  5
17A3
330
5
100
AcDbSymbolTableRecord
100
AcDbLinetypeTableRecord
  2
GEN3
 70
     0
  3
-- -- -- -- -- -- -- -- -- -- -- -- -- -- --
 72
    65
 73
     2
 40
6.25
 49
4.75
 74
     0
 49
-1.5
 74
     0
  0
LTYPE
  5
17E9
330
5
100
AcDbSymbolTableRecord
100
AcDbLinetypeTableRecord
  2
AM_ISO02W050
 70
     0
  3
__ __ __ __ __ __ __ __ __ __ __ __ __ __ __
 72
    65
 73
     2
 40
7.5
 49
6.0
 74
     0
 49
-1.5
 74
     0
  0
LTYPE
  5
17EA
330
5
100
AcDbSymbolTableRecord
100
AcDbLinetypeTableRecord
  2
AM_ISO08W050
 70
     0
  3
____ . ____ . ____ . ____ . ____ . ____ . ____
 72
    65
 73
     4
 40
18.0
 49
12.0
 74
     0
 49
-1.5
 74
     0
 49
3.0
 74
     0
 49
-1.5
 74
     0
  0
LTYPE
  5
17EB
330
5
100
AcDbSymbolTableRecord
100
AcDbLinetypeTableRecord
  2
AM_ISO09W050
 70
     0
  3
_____ . . _____ . . _____ . . ____ .. ____
 72
    65
 73
     6
 40
22.5
 49
12.0
 74
     0
 49
-1.5
 74
     0
 49
3.0
 74
     0
 49
-1.5
 74
     0
 49
3.0
 74
     0
 49
-1.5
 74
     0
  0
LTYPE
  5
17EC
330
5
100
AcDbSymbolTableRecord
100
AcDbLinetypeTableRecord
  2
AM_ISO08W050X2
 70
     0
  3
__ . __ . __ . __ . __ . __
 72
    65
 73
     4
 40
9.0
 49
6.0
 74
     0
 49
-0.75
 74
     0
 49
1.5
 74
     0
 49
-0.75
 74
     0
  0
LTYPE
  5
17ED
330
5
100
AcDbSymbolTableRecord
100
AcDbLinetypeTableRecord
  2
AM_ISO02W050X2
 70
     0
  3
 _ _ _ _ _ _ _ _ _ _ _ _
 72
    65
 73
     2
 40
3.75
 49
3.0
 74
     0
 49
-0.75
 74
     0
  0
ENDTAB
  0
TABLE
  2
LAYER
  5
2
330
0
100
AcDbSymbolTable
 70
    11
  0
LAYER
  5
10
330
2
100
AcDbSymbolTableRecord
100
AcDbLayerTableRecord
  2
0
 70
     0
 62
     7
  6
CONTINUOUS
  0
LAYER
  5
263
330
2
100
AcDbSymbolTableRecord
100
AcDbLayerTableRecord
  2
DEFPOINTS
 70
     0
 62
     7
  6
CONTINUOUS
  0
LAYER
  5
AFE
330
2
100
AcDbSymbolTableRecord
100
AcDbLayerTableRecord
  2
1
 70
     0
 62
     4
  6
CONTINUOUS
  0
LAYER
  5
AFF
330
2
100
AcDbSymbolTableRecord
100
AcDbLayerTableRecord
  2
2
 70
     0
 62
     7
  6
CONTINUOUS
  0
LAYER
  5
B00
330
2
100
AcDbSymbolTableRecord
100
AcDbLayerTableRecord
  2
4
 70
     0
 62
     2
  6
CENTER
  0
LAYER
  5
B01
330
2
100
AcDbSymbolTableRecord
100
AcDbLayerTableRecord
  2
6
 70
     0
 62
     5
  6
CONTINUOUS
  0
LAYER
  5
B02
330
2
100
AcDbSymbolTableRecord
100
AcDbLayerTableRecord
  2
SK1
 70
     0
 62
     4
  6
CONTINUOUS
  0
LAYER
  5
B03
330
2
100
AcDbSymbolTableRecord
100
AcDbLayerTableRecord
  2
SK2
 70
     0
 62
     7
  6
CONTINUOUS
  0
LAYER
  5
B04
330
2
100
AcDbSymbolTableRecord
100
AcDbLayerTableRecord
  2
SK3
 70
     0
 62
     1
  6
DASHED
  0
LAYER
  5
B06
330
2
100
AcDbSymbolTableRecord
100
AcDbLayerTableRecord
  2
CUT
 70
     0
 62
     1
  6
CONTINUOUS
  0
LAYER
  5
B07
330
2
100
AcDbSymbolTableRecord
100
AcDbLayerTableRecord
  2
NOCUT
 70
     0
 62
     7
  6
CONTINUOUS
  0
ENDTAB
  0
TABLE
  2
STYLE
  5
3
330
0
100
AcDbSymbolTable
 70
     6
  0
STYLE
  5
11
330
3
100
AcDbSymbolTableRecord
100
AcDbTextStyleTableRecord
  2
STANDARD
 70
     0
 40
0.0
 41
1.0
 50
0.0
 71
     0
 42
2.5
  3
ISOCP.SHX
  4

  0
STYLE
  5
54
330
3
100
AcDbSymbolTableRecord
100
AcDbTextStyleTableRecord
  2

 70
     1
 40
0.0
 41
1.0
 50
0.0
 71
     0
 42
2.5
  3
ltypeshp.shx
  4

  0
STYLE
  5
5B
330
3
100
AcDbSymbolTableRecord
100
AcDbTextStyleTableRecord
  2
ACDINTS
 70
     0
 40
1.0
 41
1.0
 50
0.0
 71
     0
 42
3.5
  3
isocp.shx
  4

  0
STYLE
  5
67
330
3
100
AcDbSymbolTableRecord
100
AcDbTextStyleTableRecord
  2
ACDINGDT
 70
     0
 40
0.0
 41
1.0
 50
0.0
 71
     0
 42
3.5
  3
amgdt.shx
  4

  0
STYLE
  5
B08
330
3
100
AcDbSymbolTableRecord
100
AcDbTextStyleTableRecord
  2
ACANSTS
 70
     0
 40
1.0
 41
1.0
 50
0.0
 71
     0
 42
0.2
  3
romans.shx
  4

  0
STYLE
  5
B09
330
3
100
AcDbSymbolTableRecord
100
AcDbTextStyleTableRecord
  2
ACANSGDT
 70
     0
 40
0.0
 41
1.0
 50
0.0
 71
     0
 42
0.2
  3
amgdtans.shx
  4

  0
ENDTAB
  0
TABLE
  2
VIEW
  5
6
330
0
100
AcDbSymbolTable
 70
     0
  0
ENDTAB
  0
TABLE
  2
UCS
  5
7
330
0
100
AcDbSymbolTable
 70
     0
  0
ENDTAB
  0
TABLE
  2
APPID
  5
9
330
0
100
AcDbSymbolTable
 70
    54
  0
APPID
  5
12
330
9
100
AcDbSymbolTableRecord
100
AcDbRegAppTableRecord
  2
ACAD
 70
     0
  0
APPID
  5
2C
330
9
100
AcDbSymbolTableRecord
100
AcDbRegAppTableRecord
  2
MCAD_NO_VIS
 70
     0
  0
APPID
  5
2D
330
9
100
AcDbSymbolTableRecord
100
AcDbRegAppTableRecord
  2
ACAD_TEMP_GRAPHIC
 70
     0
  0
APPID
  5
3E
330
9
100
AcDbSymbolTableRecord
100
AcDbRegAppTableRecord
  2
ACATTRIBSERVICES
 70
     0
  0
APPID
  5
29A
330
9
100
AcDbSymbolTableRecord
100
AcDbRegAppTableRecord
  2
GENIUS_GENDIMSH_14
 70
     0
  0
APPID
  5
551
330
9
100
AcDbSymbolTableRecord
100
AcDbRegAppTableRecord
  2
GENIUS12
 70
     0
  0
APPID
  5
552
330
9
100
AcDbSymbolTableRecord
100
AcDbRegAppTableRecord
  2
GENIUS_GENOENT_13
 70
     0
  0
APPID
  5
553
330
9
100
AcDbSymbolTableRecord
100
AcDbRegAppTableRecord
  2
GENIUS_GENODEF_13
 70
     0
  0
APPID
  5
554
330
9
100
AcDbSymbolTableRecord
100
AcDbRegAppTableRecord
  2
GENIUS_GENOBJ-N-RSBK_13
 70
     0
  0
APPID
  5
555
330
9
100
AcDbSymbolTableRecord
100
AcDbRegAppTableRecord
  2
GENIUS_GENOBJ-N-DIM12_13
 70
     0
  0
APPID
  5
556
330
9
100
AcDbSymbolTableRecord
100
AcDbRegAppTableRecord
  2
GENIUS_GENSCALE_13
 70
     0
  0
APPID
  5
557
330
9
100
AcDbSymbolTableRecord
100
AcDbRegAppTableRecord
  2
GENIUS_GENCFG_13
 70
     0
1001
GENIUS_GENCFG0_13
1000
GEN
  0
APPID
  5
558
330
9
100
AcDbSymbolTableRecord
100
AcDbRegAppTableRecord
  2
GENIUS_GENCFG0_13
 70
     0
1001
GENIUS_GENCFG_13
1071
1125135997
1000
558
1000
GEN
1070
     0
  0
APPID
  5
559
330
9
100
AcDbSymbolTableRecord
100
AcDbRegAppTableRecord
  2
GENIUS_GENCFG1_13
 70
     0
  0
APPID
  5
55A
330
9
100
AcDbSymbolTableRecord
100
AcDbRegAppTableRecord
  2
GENIUS_GENCFG2_13
 70
     0
  0
APPID
  5
55B
330
9
100
AcDbSymbolTableRecord
100
AcDbRegAppTableRecord
  2
GENIUS_GENCFG3_13
 70
     0
  0
APPID
  5
55C
330
9
100
AcDbSymbolTableRecord
100
AcDbRegAppTableRecord
  2
GENIUS_GENCFG4_13
 70
     0
  0
APPID
  5
55D
330
9
100
AcDbSymbolTableRecord
100
AcDbRegAppTableRecord
  2
GENIUS_GEVCFG0_13
 70
     0
  0
APPID
  5
55E
330
9
100
AcDbSymbolTableRecord
100
AcDbRegAppTableRecord
  2
GENIUS_GENOBJ-F-SUF_13
 70
     0
  0
APPID
  5
55F
330
9
100
AcDbSymbolTableRecord
100
AcDbRegAppTableRecord
  2
GENIUS_GEFCFG0_13
 70
     0
  0
APPID
  5
560
330
9
100
AcDbSymbolTableRecord
100
AcDbRegAppTableRecord
  2
GEV_VCCNULL_SWITCH_OFF
 70
     0
  0
APPID
  5
561
330
9
100
AcDbSymbolTableRecord
100
AcDbRegAppTableRecord
  2
GENIUS_GENDTOL_13
 70
     0
  0
APPID
  5
562
330
9
100
AcDbSymbolTableRecord
100
AcDbRegAppTableRecord
  2
GENIUS_GENDIM_13
 70
     0
  0
APPID
  5
563
330
9
100
AcDbSymbolTableRecord
100
AcDbRegAppTableRecord
  2
GENIUS_GE3DTOL_13
 70
     0
  0
APPID
  5
564
330
9
100
AcDbSymbolTableRecord
100
AcDbRegAppTableRecord
  2
AD_DRAW
 70
     0
  0
APPID
  5
565
330
9
100
AcDbSymbolTableRecord
100
AcDbRegAppTableRecord
  2
ASURF_PCURVE_APPNAME
 70
     0
  0
APPID
  5
566
330
9
100
AcDbSymbolTableRecord
100
AcDbRegAppTableRecord
  2
AMG_3D2D_5_0
 70
     0
  0
APPID
  5
567
330
9
100
AcDbSymbolTableRecord
100
AcDbRegAppTableRecord
  2
DESIGNERASSEMBLIES
 70
     0
  0
APPID
  5
568
330
9
100
AcDbSymbolTableRecord
100
AcDbRegAppTableRecord
  2
ACADM_DIM_EDIT
 70
     0
  0
APPID
  5
569
330
9
100
AcDbSymbolTableRecord
100
AcDbRegAppTableRecord
  2
AMDT_DM_ADJ
 70
     0
  0
APPID
  5
56A
330
9
100
AcDbSymbolTableRecord
100
AcDbRegAppTableRecord
  2
GENIUS_GENSCREG_15
 70
     0
  0
APPID
  5
56B
330
9
100
AcDbSymbolTableRecord
100
AcDbRegAppTableRecord
  2
GENIUS_GENOBJ-N-SDF_13
 70
     0
  0
APPID
  5
56C
330
9
100
AcDbSymbolTableRecord
100
AcDbRegAppTableRecord
  2
GENIUS_GENOBJ-N-FIL_13
 70
     0
  0
APPID
  5
56D
330
9
100
AcDbSymbolTableRecord
100
AcDbRegAppTableRecord
  2
GENIUS_GENHINW_13
 70
     0
  0
APPID
  5
56E
330
9
100
AcDbSymbolTableRecord
100
AcDbRegAppTableRecord
  2
GENIUS_GENOBJ-F-TOLL_13
 70
     0
  0
APPID
  5
56F
330
9
100
AcDbSymbolTableRecord
100
AcDbRegAppTableRecord
  2
GENIUS_GENOREF_13
 70
     0
  0
APPID
  5
570
330
9
100
AcDbSymbolTableRecord
100
AcDbRegAppTableRecord
  2
GENIUS_GENOLIS_13
 70
     0
  0
APPID
  5
571
330
9
100
AcDbSymbolTableRecord
100
AcDbRegAppTableRecord
  2
GENIUS_GEFTOLC_13
 70
     0
  0
APPID
  5
572
330
9
100
AcDbSymbolTableRecord
100
AcDbRegAppTableRecord
  2
GENIUS_GENOBJ-F-TOL_13
 70
     0
  0
APPID
  5
573
330
9
100
AcDbSymbolTableRecord
100
AcDbRegAppTableRecord
  2
GENIUS_GENOBJ-N-RSSYM_13
 70
     0
  0
APPID
  5
574
330
9
100
AcDbSymbolTableRecord
100
AcDbRegAppTableRecord
  2
GENIUS_GENSYMENT_13
 70
     0
  0
APPID
  5
575
330
9
100
AcDbSymbolTableRecord
100
AcDbRegAppTableRecord
  2
GENIUS_GENSCSYM_13
 70
     0
  0
APPID
  5
B11
330
9
100
AcDbSymbolTableRecord
100
AcDbRegAppTableRecord
  2
GENIUS_GENBLLY_14
 70
     0
  0
APPID
  5
B12
330
9
100
AcDbSymbolTableRecord
100
AcDbRegAppTableRecord
  2
GENIUS_GENTRA_14
 70
     0
  0
APPID
  5
B13
330
9
100
AcDbSymbolTableRecord
100
AcDbRegAppTableRecord
  2
GENIUS_GENOBJ-N-TIT_13
 70
     0
  0
APPID
  5
B14
330
9
100
AcDbSymbolTableRecord
100
AcDbRegAppTableRecord
  2
GENIUS_GENTITLE_13
 70
     0
  0
APPID
  5
B15
330
9
100
AcDbSymbolTableRecord
100
AcDbRegAppTableRecord
  2
ACADIGES
 70
     0
  0
APPID
  5
B16
330
9
100
AcDbSymbolTableRecord
100
AcDbRegAppTableRecord
  2
GENIUS_GENOBJ-N-HTC_13
 70
     0
  0
APPID
  5
B17
330
9
100
AcDbSymbolTableRecord
100
AcDbRegAppTableRecord
  2
GENIUS_GENHATCH_13
 70
     0
  0
APPID
  5
B18
330
9
100
AcDbSymbolTableRecord
100
AcDbRegAppTableRecord
  2
GENIUS_GENOBJ-N-CRS_13
 70
     0
  0
APPID
  5
B19
330
9
100
AcDbSymbolTableRecord
100
AcDbRegAppTableRecord
  2
GENIUS_GENFIL_13
 70
     0
  0
APPID
  5
B1A
330
9
100
AcDbSymbolTableRecord
100
AcDbRegAppTableRecord
  2
GENIUS_GENOBJ-N-CHA_13
 70
     0
  0
APPID
  5
B1B
330
9
100
AcDbSymbolTableRecord
100
AcDbRegAppTableRecord
  2
GENIUS_GENOBJ-N-CEN_13
 70
     0
  0
APPID
  5
179F
330
9
100
AcDbSymbolTableRecord
100
AcDbRegAppTableRecord
  2
AMG_3D2D_5_00
 70
     0
  0
ENDTAB
  0
TABLE
  2
DIMSTYLE
  5
A
330
0
100
AcDbSymbolTable
 70
    14
  0
DIMSTYLE
105
6F
102
{ACAD_REACTORS
330
657
330
FAE
330
1332
330
139A
102
}
330
A
100
AcDbSymbolTableRecord
100
AcDbDimStyleTableRecord
  2
AM_DIN
 70
     0
  3

  4
"
  5

  6

  7

 40
1.0
 41
2.5
 42
1.0
 43
10.0
 44
1.0
 45
0.0
 46
0.0
 47
0.1
 48
0.1
140
3.5
141
0.0
142
0.0
143
0.0393701
144
1.0
145
0.0
146
0.71
147
1.5
 71
     0
 72
     0
 73
     0
 74
     0
 75
     0
 76
     0
 77
     1
 78
     8
170
     0
171
     2
172
     1
173
     0
174
     0
175
     0
176
   256
177
   256
178
     2
270
     2
271
     2
272
     3
273
     2
274
     4
340
11
275
     0
280
     0
281
     0
282
     0
283
     0
284
     8
285
     0
286
     0
287
     3
288
     0
  0
DIMSTYLE
105
70
330
A
100
AcDbSymbolTableRecord
100
AcDbDimStyleTableRecord
  2
AM_DIN$3
 70
     0
  3

  4
"
  5

  6

  7

 40
1.0
 41
2.5
 42
1.0
 43
10.0
 44
1.0
 45
0.0
 46
0.0
 47
0.1
 48
0.1
140
3.5
141
0.0
142
0.0
143
0.0393701
144
1.0
145
0.0
146
0.71
147
1.5
 71
     0
 72
     0
 73
     0
 74
     1
 75
     0
 76
     0
 77
     1
 78
     8
170
     0
171
     2
172
     0
173
     0
174
     0
175
     0
176
   256
177
   256
178
     2
270
     2
271
     2
272
     3
273
     2
274
     4
340
11
275
     0
280
     0
281
     0
282
     0
283
     0
284
     8
285
     0
286
     0
287
     0
288
     1
  0
DIMSTYLE
105
71
330
A
100
AcDbSymbolTableRecord
100
AcDbDimStyleTableRecord
  2
AM_DIN$4
 70
     0
  3

  4
"
  5

  6

  7

 40
1.0
 41
2.5
 42
1.0
 43
10.0
 44
1.0
 45
0.0
 46
0.0
 47
0.1
 48
0.1
140
3.5
141
0.0
142
0.0
143
0.0393701
144
1.0
145
0.0
146
0.71
147
1.5
 71
     0
 72
     0
 73
     0
 74
     1
 75
     0
 76
     0
 77
     1
 78
     8
170
     0
171
     2
172
     0
173
     0
174
     0
175
     0
176
   256
177
   256
178
     2
270
     2
271
     2
272
     3
273
     2
274
     4
340
11
275
     0
280
     0
281
     0
282
     0
283
     0
284
     8
285
     0
286
     0
287
     0
288
     1
  0
DIMSTYLE
105
72
330
A
100
AcDbSymbolTableRecord
100
AcDbDimStyleTableRecord
  2
AM_DIN$6
 70
     0
  3

  4
"
  5

  6

  7

 40
1.0
 41
2.5
 42
1.0
 43
10.0
 44
1.0
 45
0.0
 46
0.0
 47
0.1
 48
0.1
140
3.5
141
0.0
142
0.0
143
0.0393701
144
1.0
145
0.0
146
0.71
147
1.5
 71
     0
 72
     0
 73
     0
 74
     0
 75
     0
 76
     0
 77
     0
 78
     8
170
     0
171
     2
172
     1
173
     0
174
     0
175
     0
176
   256
177
   256
178
     2
270
     2
271
     2
272
     3
273
     2
274
     4
340
11
275
     0
280
     0
281
     0
282
     0
283
     0
284
     8
285
     0
286
     0
287
     3
288
     0
  0
DIMSTYLE
105
73
330
A
100
AcDbSymbolTableRecord
100
AcDbDimStyleTableRecord
  2
AM_DIN$7
 70
     0
  3

  4
"
  5

  6

  7

 40
1.0
 41
2.5
 42
1.0
 43
10.0
 44
1.0
 45
0.0
 46
0.0
 47
0.1
 48
0.1
140
5.0
141
0.0
142
0.0
143
0.0393701
144
1.0
145
0.0
146
0.71
147
1.5
 71
     0
 72
     0
 73
     0
 74
     0
 75
     0
 76
     0
 77
     1
 78
     8
170
     0
171
     2
172
     1
173
     0
174
     0
175
     0
176
   256
177
   256
178
     2
270
     2
271
     2
272
     3
273
     2
274
     4
340
11
275
     0
280
     0
281
     0
282
     0
283
     0
284
     8
285
     0
286
     0
287
     3
288
     0
  0
DIMSTYLE
105
74
330
A
100
AcDbSymbolTableRecord
100
AcDbDimStyleTableRecord
  2
AM_DIN$SF
 70
     0
  3

  4
"
  5

  6

  7

 40
1.0
 41
2.5
 42
1.0
 43
10.0
 44
1.0
 45
0.0
 46
0.0
 47
0.1
 48
0.1
140
3.5
141
0.0
142
0.0
143
0.0393701
144
1.0
145
0.0
146
0.71
147
1.5
 71
     0
 72
     0
 73
     0
 74
     0
 75
     1
 76
     1
 77
     1
 78
     8
170
     0
171
     2
172
     1
173
     0
174
     0
175
     0
176
   256
177
   256
178
     2
270
     2
271
     2
272
     3
273
     2
274
     4
340
11
275
     0
280
     0
281
     0
282
     0
283
     0
284
     8
285
     0
286
     0
287
     3
288
     0
  0
DIMSTYLE
105
79
330
A
100
AcDbSymbolTableRecord
100
AcDbDimStyleTableRecord
  2
AM_DIN$SH
 70
     0
  3

  4
"
  5

  6
GENAXEH
  7

 40
1.0
 41
2.5
 42
1.0
 43
10.0
 44
1.0
 45
0.0
 46
0.0
 47
0.1
 48
0.1
140
3.5
141
0.0
142
0.0
143
0.0393701
144
2.0
145
0.0
146
0.71
147
1.5
 71
     0
 72
     0
 73
     0
 74
     0
 75
     1
 76
     1
 77
     1
 78
     8
170
     0
171
     2
172
     1
173
     1
174
     0
175
     0
176
   256
177
   256
178
     2
270
     2
271
     2
272
     3
273
     2
274
     4
340
11
275
     0
280
     0
281
     0
282
     0
283
     0
284
     8
285
     0
286
     0
287
     3
288
     0
  0
DIMSTYLE
105
B0A
330
A
100
AcDbSymbolTableRecord
100
AcDbDimStyleTableRecord
  2
STANDARD
 70
     0
  3

  4

  5

  6

  7

 40
1.0
 41
0.18
 42
0.0625
 43
0.38
 44
0.18
 45
0.0
 46
0.0
 47
0.0
 48
0.0
140
0.18
141
0.09
142
0.0
143
25.4
144
1.0
145
0.0
146
1.0
147
0.09
 71
     0
 72
     0
 73
     1
 74
     1
 75
     0
 76
     0
 77
     0
 78
     0
170
     0
171
     2
172
     0
173
     0
174
     0
175
     0
176
     0
177
     0
178
     0
270
     2
271
     2
272
     2
273
     2
274
     2
340
11
275
     0
280
     0
281
     0
282
     0
283
     1
284
     8
285
     8
286
     8
287
     3
288
     0
  0
DIMSTYLE
105
B0B
102
{ACAD_REACTORS
330
161A
102
}
330
A
100
AcDbSymbolTableRecord
100
AcDbDimStyleTableRecord
  2
AM_ANSI
 70
     0
  3

  4
mm
  5

  6

  7

 40
1.0
 41
0.1
 42
0.0
 43
0.5
 44
0.1
 45
0.0
 46
0.0
 47
0.1
 48
0.1
140
0.12
141
0.0
142
0.0
143
25.4
144
1.0
145
0.0
146
0.71
147
0.06
 71
     0
 72
     0
 73
     1
 74
     1
 75
     0
 76
     0
 77
     0
 78
     7
170
     0
171
     2
172
     0
173
     0
174
     0
175
     0
176
   256
177
   256
178
     2
270
     2
271
     2
272
     2
273
     2
274
     2
340
11
275
     0
280
     0
281
     0
282
     0
283
     1
284
     8
285
     8
286
     8
287
     3
288
     0
  0
DIMSTYLE
105
B0C
330
A
100
AcDbSymbolTableRecord
100
AcDbDimStyleTableRecord
  2
AM_ANSI$3
 70
     0
  3

  4
mm
  5

  6

  7

 40
1.0
 41
0.1
 42
0.0
 43
0.5
 44
0.1
 45
0.0
 46
0.0
 47
0.1
 48
0.1
140
0.12
141
0.0
142
0.0
143
25.4
144
1.0
145
0.0
146
0.71
147
0.06
 71
     0
 72
     0
 73
     1
 74
     1
 75
     0
 76
     0
 77
     0
 78
     7
170
     0
171
     2
172
     0
173
     0
174
     0
175
     0
176
   256
177
   256
178
     2
270
     2
271
     2
272
     2
273
     2
274
     2
340
11
275
     0
280
     0
281
     0
282
     0
283
     1
284
     8
285
     8
286
     8
287
     3
288
     0
  0
DIMSTYLE
105
B0D
330
A
100
AcDbSymbolTableRecord
100
AcDbDimStyleTableRecord
  2
AM_ANSI$4
 70
     0
  3

  4
mm
  5

  6

  7

 40
1.0
 41
0.1
 42
0.0
 43
0.5
 44
0.1
 45
0.0
 46
0.0
 47
0.1
 48
0.1
140
0.12
141
0.0
142
0.0
143
25.4
144
1.0
145
0.0
146
0.71
147
0.06
 71
     0
 72
     0
 73
     1
 74
     1
 75
     0
 76
     0
 77
     0
 78
     7
170
     0
171
     2
172
     0
173
     0
174
     0
175
     0
176
   256
177
   256
178
     2
270
     2
271
     2
272
     2
273
     2
274
     2
340
11
275
     0
280
     0
281
     0
282
     0
283
     1
284
     8
285
     8
286
     8
287
     3
288
     0
  0
DIMSTYLE
105
B0E
330
A
100
AcDbSymbolTableRecord
100
AcDbDimStyleTableRecord
  2
AM_ANSI$7
 70
     0
  3

  4
mm
  5

  6

  7

 40
1.0
 41
0.1
 42
0.0
 43
0.5
 44
0.1
 45
0.0
 46
0.0
 47
0.1
 48
0.1
140
0.24
141
0.0
142
0.0
143
25.4
144
1.0
145
0.0
146
0.71
147
0.06
 71
     0
 72
     0
 73
     1
 74
     1
 75
     0
 76
     0
 77
     0
 78
     7
170
     0
171
     2
172
     0
173
     0
174
     0
175
     0
176
   256
177
   256
178
     2
270
     2
271
     2
272
     2
273
     2
274
     2
340
11
275
     0
280
     0
281
     0
282
     0
283
     1
284
     8
285
     8
286
     8
287
     3
288
     0
  0
DIMSTYLE
105
B0F
330
A
100
AcDbSymbolTableRecord
100
AcDbDimStyleTableRecord
  2
AM_ANSI$SF
 70
     0
  3

  4
mm
  5

  6

  7

 40
1.0
 41
0.1
 42
0.05
 43
0.5
 44
0.1
 45
0.0
 46
0.0
 47
0.1
 48
0.1
140
0.12
141
0.0
142
0.0
143
25.4
144
1.0
145
0.0
146
0.71
147
0.06
 71
     0
 72
     0
 73
     1
 74
     1
 75
     1
 76
     1
 77
     0
 78
     7
170
     0
171
     2
172
     0
173
     0
174
     0
175
     0
176
   256
177
   256
178
     2
270
     2
271
     2
272
     2
273
     2
274
     2
340
11
275
     0
280
     0
281
     0
282
     0
283
     1
284
     8
285
     8
286
     8
287
     3
288
     0
  0
DIMSTYLE
105
B10
330
A
100
AcDbSymbolTableRecord
100
AcDbDimStyleTableRecord
  2
AM_ANSI$SH
 70
     0
  3

  4
mm
  5

  6

  7

 40
1.0
 41
0.1
 42
0.05
 43
0.5
 44
0.1
 45
0.0
 46
0.0
 47
0.1
 48
0.1
140
0.12
141
0.0
142
0.0
143
25.4
144
1.0
145
0.0
146
0.71
147
0.06
 71
     0
 72
     0
 73
     1
 74
     1
 75
     1
 76
     1
 77
     0
 78
     7
170
     0
171
     2
172
     0
173
     1
174
     0
175
     0
176
   256
177
   256
178
     2
270
     2
271
     2
272
     2
273
     2
274
     2
340
11
275
     0
280
     0
281
     0
282
     0
283
     1
284
     8
285
     8
286
     8
287
     3
288
     0
  0
ENDTAB
  0
TABLE
  2
BLOCK_RECORD
  5
1
330
0
100
AcDbSymbolTable
 70
     6
  0
BLOCK_RECORD
  5
1F
102
{ACAD_XDICTIONARY
360
1F1
102
}
330
1
100
AcDbSymbolTableRecord
100
AcDbBlockTableRecord
  2
*MODEL_SPACE
  0
BLOCK_RECORD
  5
1B
102
{ACAD_XDICTIONARY
360
1790
102
}
330
1
100
AcDbSymbolTableRecord
100
AcDbBlockTableRecord
  2
*PAPER_SPACE
  0
BLOCK_RECORD
  5
75
330
1
100
AcDbSymbolTableRecord
100
AcDbBlockTableRecord
  2
GENAXEH
  0
BLOCK_RECORD
  5
712
330
1
100
AcDbSymbolTableRecord
100
AcDbBlockTableRecord
  2
*D1
  0
BLOCK_RECORD
  5
FAF
330
1
100
AcDbSymbolTableRecord
100
AcDbBlockTableRecord
  2
*D2
  0
BLOCK_RECORD
  5
1333
330
1
100
AcDbSymbolTableRecord
100
AcDbBlockTableRecord
  2
*D3
  0
BLOCK_RECORD
  5
139B
330
1
100
AcDbSymbolTableRecord
100
AcDbBlockTableRecord
  2
*D4
  0
BLOCK_RECORD
  5
1636
330
1
100
AcDbSymbolTableRecord
100
AcDbBlockTableRecord
  2
*D5
  0
ENDTAB
  0
ENDSEC
  0
SECTION
  2
BLOCKS
  0
BLOCK
  5
20
330
1F
100
AcDbEntity
  8
0
100
AcDbBlockBegin
  2
*MODEL_SPACE
 70
     0
 10
0.0
 20
0.0
 30
0.0
  3
*MODEL_SPACE
  1

  0
ENDBLK
  5
21
330
1F
100
AcDbEntity
  8
0
100
AcDbBlockEnd
  0
BLOCK
  5
1C
330
1B
100
AcDbEntity
 67
     1
  8
0
100
AcDbBlockBegin
  2
*PAPER_SPACE
 70
     0
 10
0.0
 20
0.0
 30
0.0
  3
*PAPER_SPACE
  1

  0
ENDBLK
  5
1D
330
1B
100
AcDbEntity
 67
     1
  8
0
100
AcDbBlockEnd
  0
BLOCK
  5
17E4
330
75
100
AcDbEntity
  8
0
100
AcDbBlockBegin
  2
GENAXEH
 70
     0
 10
0.0
 20
0.0
 30
0.0
  3
GENAXEH
  1

  0
LINE
  5
17E3
330
75
100
AcDbEntity
  8
0
100
AcDbLine
 10
-1.0
 20
0.0
 30
0.0
 11
1.0
 21
0.0
 31
0.0
  0
ENDBLK
  5
17E5
330
75
100
AcDbEntity
  8
0
100
AcDbBlockEnd
  0
BLOCK
  5
71C
330
712
100
AcDbEntity
  8
0
100
AcDbBlockBegin
  2
*D1
 70
     1
 10
0.0
 20
0.0
 30
0.0
  3
*D1
  1

  0
LINE
  5
1018
330
712
100
AcDbEntity
  8
SK2
100
AcDbLine
 10
0.0
 20
-8.0
 30
0.0
 11
-17.77266089567603
 21
-7.999999999999995
 31
0.0
  0
LINE
  5
1019
330
712
100
AcDbEntity
  8
SK2
100
AcDbLine
 10
0.0
 20
8.0
 30
0.0
 11
-17.77266089567603
 21
8.000000000000005
 31
0.0
  0
LINE
  5
101A
330
712
100
AcDbEntity
  8
SK2
100
AcDbLine
 10
-16.77266089567603
 20
-5.499999999999995
 30
0.0
 11
-16.77266089567603
 21
5.500000000000004
 31
0.0
  0
SOLID
  5
101B
330
712
100
AcDbEntity
  8
SK2
100
AcDbTrace
 10
-17.18932756234269
 20
-5.499999999999995
 30
0.0
 11
-16.35599422900936
 21
-5.499999999999995
 31
0.0
 12
-16.77266089567603
 22
-7.999999999999995
 32
0.0
 13
-16.77266089567603
 23
-7.999999999999995
 33
0.0
  0
SOLID
  5
101C
330
712
100
AcDbEntity
  8
SK2
100
AcDbTrace
 10
-17.18932756234269
 20
5.500000000000004
 30
0.0
 11
-16.35599422900936
 21
5.500000000000004
 31
0.0
 12
-16.77266089567603
 22
8.000000000000005
 32
0.0
 13
-16.77266089567603
 23
8.000000000000005
 33
0.0
  0
MTEXT
  5
101D
330
712
100
AcDbEntity
  8
SK2
 62
     2
100
AcDbMText
 10
-20.02266089567603
 20
0.0000000000000028
 30
0.0
 40
3.5
 41
0.0
 71
     5
 72
     1
  1
%%c16
 11
0.0000000000000001
 21
1.0
 31
0.0
1001
ACAD
1000
MTEXTBEGIN
1070
    73
1070
     1
1070
    44
1040
1.0
1070
    74
1070
     0
1000
MTEXTEND
  0
POINT
  5
101E
330
712
100
AcDbEntity
  8
DEFPOINTS
 62
     0
100
AcDbPoint
 10
0.0
 20
-8.0
 30
0.0
  0
POINT
  5
101F
330
712
100
AcDbEntity
  8
DEFPOINTS
 62
     0
100
AcDbPoint
 10
0.0
 20
8.0
 30
0.0
  0
POINT
  5
1020
330
712
100
AcDbEntity
  8
DEFPOINTS
 62
     0
100
AcDbPoint
 10
-16.77266089567603
 20
8.000000000000005
 30
0.0
  0
ENDBLK
  5
71D
330
712
100
AcDbEntity
  8
0
100
AcDbBlockEnd
  0
BLOCK
  5
FB9
330
FAF
100
AcDbEntity
  8
0
100
AcDbBlockBegin
  2
*D2
 70
     1
 10
0.0
 20
0.0
 30
0.0
  3
*D2
  1

  0
LINE
  5
100F
330
FAF
100
AcDbEntity
  8
SK2
100
AcDbLine
 10
2.000000000000112
 20
15.2711343434168
 30
0.0
 11
-30.0447184674142
 21
15.2711343434168
 31
0.0
  0
LINE
  5
1010
330
FAF
100
AcDbEntity
  8
SK2
100
AcDbLine
 10
1.999999999999771
 20
-15.27113434341648
 30
0.0
 11
-30.04471846741421
 21
-15.27113434341648
 31
0.0
  0
LINE
  5
1011
330
FAF
100
AcDbEntity
  8
SK2
100
AcDbLine
 10
-29.04471846741421
 20
12.77113434341681
 30
0.0
 11
-29.04471846741421
 21
-12.77113434341648
 31
0.0
  0
SOLID
  5
1012
330
FAF
100
AcDbEntity
  8
SK2
100
AcDbTrace
 10
-29.46138513408087
 20
12.77113434341681
 30
0.0
 11
-28.62805180074754
 21
12.77113434341681
 31
0.0
 12
-29.04471846741421
 22
15.2711343434168
 32
0.0
 13
-29.04471846741421
 23
15.2711343434168
 33
0.0
  0
SOLID
  5
1013
330
FAF
100
AcDbEntity
  8
SK2
100
AcDbTrace
 10
-29.46138513408087
 20
-12.77113434341648
 30
0.0
 11
-28.62805180074754
 21
-12.77113434341648
 31
0.0
 12
-29.04471846741421
 22
-15.27113434341648
 32
0.0
 13
-29.04471846741421
 23
-15.27113434341648
 33
0.0
  0
MTEXT
  5
1014
330
FAF
100
AcDbEntity
  8
SK2
 62
     2
100
AcDbMText
 10
-32.29471846741421
 20
0.0000000000001603
 30
0.0
 40
3.5
 41
0.0
 71
     5
 72
     1
  1
ø30
 11
0.0000000000000001
 21
1.0
 31
0.0
1001
ACAD
1000
MTEXTBEGIN
1070
    73
1070
     1
1070
    44
1040
1.0
1070
    74
1070
     0
1000
MTEXTEND
  0
POINT
  5
1015
330
FAF
100
AcDbEntity
  8
DEFPOINTS
 62
     0
100
AcDbPoint
 10
2.000000000000112
 20
15.2711343434168
 30
0.0
  0
POINT
  5
1016
330
FAF
100
AcDbEntity
  8
DEFPOINTS
 62
     0
100
AcDbPoint
 10
1.999999999999771
 20
-15.27113434341648
 30
0.0
  0
POINT
  5
1017
330
FAF
100
AcDbEntity
  8
DEFPOINTS
 62
     0
100
AcDbPoint
 10
-29.04471846741421
 20
-15.27113434341648
 30
0.0
  0
ENDBLK
  5
FBA
330
FAF
100
AcDbEntity
  8
0
100
AcDbBlockEnd
  0
BLOCK
  5
133D
330
1333
100
AcDbEntity
  8
0
100
AcDbBlockBegin
  2
*D3
 70
     1
 10
0.0
 20
0.0
 30
0.0
  3
*D3
  1

  0
LINE
  5
172D
330
1333
100
AcDbEntity
  8
2
100
AcDbLine
 10
32.0
 20
16.0
 30
0.0
 11
51.22910506815173
 21
15.99999999999999
 31
0.0
  0
LINE
  5
172E
330
1333
100
AcDbEntity
  8
2
100
AcDbLine
 10
31.99999999999999
 20
-16.0
 30
0.0
 11
51.22910506815173
 21
-16.0
 31
0.0
  0
LINE
  5
172F
330
1333
100
AcDbEntity
  8
2
100
AcDbLine
 10
50.22910506815174
 20
13.49999999999999
 30
0.0
 11
50.22910506815174
 21
-13.5
 31
0.0
  0
SOLID
  5
1730
330
1333
100
AcDbEntity
  8
2
100
AcDbTrace
 10
49.81243840148508
 20
13.49999999999999
 30
0.0
 11
50.6457717348184
 21
13.49999999999999
 31
0.0
 12
50.22910506815176
 22
15.99999999999999
 32
0.0
 13
50.22910506815176
 23
15.99999999999999
 33
0.0
  0
SOLID
  5
1731
330
1333
100
AcDbEntity
  8
2
100
AcDbTrace
 10
49.81243840148508
 20
-13.5
 30
0.0
 11
50.6457717348184
 21
-13.5
 31
0.0
 12
50.22910506815174
 22
-16.0
 32
0.0
 13
50.22910506815174
 23
-16.0
 33
0.0
  0
MTEXT
  5
1732
330
1333
100
AcDbEntity
  8
2
 62
     2
100
AcDbMText
 10
46.97876057996276
 20
0.0000000000000035
 30
0.0
 40
3.5
 41
0.0
 71
     5
 72
     1
  1
%%c32
 11
0.0000000000000001
 21
1.0
 31
0.0
1001
ACAD
1000
MTEXTBEGIN
1070
    73
1070
     1
1070
    44
1040
1.0
1070
    74
1070
     0
1000
MTEXTEND
  0
POINT
  5
1733
330
1333
100
AcDbEntity
  8
DEFPOINTS
 62
     0
100
AcDbPoint
 10
32.0
 20
16.0
 30
0.0
  0
POINT
  5
1734
330
1333
100
AcDbEntity
  8
DEFPOINTS
 62
     0
100
AcDbPoint
 10
31.99999999999999
 20
-16.0
 30
0.0
  0
POINT
  5
1735
330
1333
100
AcDbEntity
  8
DEFPOINTS
 62
     0
100
AcDbPoint
 10
50.22910506815174
 20
-16.0
 30
0.0
  0
ENDBLK
  5
133E
330
1333
100
AcDbEntity
  8
0
100
AcDbBlockEnd
  0
BLOCK
  5
13A5
330
139B
100
AcDbEntity
  8
0
100
AcDbBlockBegin
  2
*D4
 70
     1
 10
0.0
 20
0.0
 30
0.0
  3
*D4
  1

  0
LINE
  5
171B
330
139B
100
AcDbEntity
  8
2
100
AcDbLine
 10
32.0
 20
16.0
 30
0.0
 11
32.00000000000001
 21
76.0
 31
0.0
  0
LINE
  5
171C
330
139B
100
AcDbEntity
  8
2
100
AcDbLine
 10
0.0000000000001137
 20
13.2711343434168
 30
0.0
 11
0.0000000000001175
 21
76.0
 31
0.0
  0
LINE
  5
171D
330
139B
100
AcDbEntity
  8
2
100
AcDbLine
 10
29.50000000000001
 20
75.0
 30
0.0
 11
2.500000000000116
 21
75.0
 31
0.0
  0
SOLID
  5
171E
330
139B
100
AcDbEntity
  8
2
100
AcDbTrace
 10
29.50000000000001
 20
75.41666666666667
 30
0.0
 11
29.50000000000001
 21
74.58333333333333
 31
0.0
 12
32.00000000000001
 22
75.0
 32
0.0
 13
32.00000000000001
 23
75.0
 33
0.0
  0
SOLID
  5
171F
330
139B
100
AcDbEntity
  8
2
100
AcDbTrace
 10
2.500000000000116
 20
75.41666666666667
 30
0.0
 11
2.500000000000116
 21
74.58333333333333
 31
0.0
 12
0.0000000000001175
 22
75.0
 32
0.0
 13
0.0000000000001175
 23
75.0
 33
0.0
  0
MTEXT
  5
1720
330
139B
100
AcDbEntity
  8
2
 62
     2
100
AcDbMText
 10
16.00000000000006
 20
78.25034448818897
 30
0.0
 40
3.5
 41
0.0
 71
     5
 72
     1
  1
32
1001
ACAD
1000
MTEXTBEGIN
1070
    73
1070
     1
1070
    44
1040
1.0
1070
    74
1070
     0
1000
MTEXTEND
  0
POINT
  5
1721
330
139B
100
AcDbEntity
  8
DEFPOINTS
 62
     0
100
AcDbPoint
 10
32.0
 20
16.0
 30
0.0
  0
POINT
  5
1722
330
139B
100
AcDbEntity
  8
DEFPOINTS
 62
     0
100
AcDbPoint
 10
0.0000000000001137
 20
13.2711343434168
 30
0.0
  0
POINT
  5
1723
330
139B
100
AcDbEntity
  8
DEFPOINTS
 62
     0
100
AcDbPoint
 10
0.0000000000001175
 20
75.0
 30
0.0
  0
ENDBLK
  5
13A6
330
139B
100
AcDbEntity
  8
0
100
AcDbBlockEnd
  0
BLOCK
  5
1640
330
1636
100
AcDbEntity
  8
0
100
AcDbBlockBegin
  2
*D5
 70
     1
 10
0.0
 20
0.0
 30
0.0
  3
*D5
  1

  0
LINE
  5
1712
330
1636
100
AcDbEntity
  8
2
100
AcDbLine
 10
32.0
 20
16.0
 30
0.0
 11
32.0
 21
60.1
 31
0.0
  0
LINE
  5
1713
330
1636
100
AcDbEntity
  8
2
100
AcDbLine
 10
26.3
 20
16.10450318701843
 30
0.0
 11
26.3
 21
60.1
 31
0.0
  0
LINE
  5
1714
330
1636
100
AcDbEntity
  8
2
100
AcDbLine
 10
29.5
 20
60.0
 30
0.0
 11
28.8
 21
60.0
 31
0.0
  0
MTEXT
  5
1715
330
1636
100
AcDbEntity
  8
2
 62
     2
100
AcDbMText
 10
29.32968590568611
 20
62.89939521526331
 30
0.0
 40
3.5
 41
0.0
 71
     5
 72
     1
  1
\A1;5.7
1001
ACAD
1000
MTEXTBEGIN
1070
    73
1070
     1
1070
    44
1040
1.0
1070
    74
1070
     0
1000
MTEXTEND
  0
SOLID
  5
1716
330
1636
100
AcDbEntity
  8
2
100
AcDbTrace
 10
29.5
 20
60.41666666666666
 30
0.0
 11
29.5
 21
59.58333333333333
 31
0.0
 12
32.0
 22
60.0
 32
0.0
 13
32.0
 23
60.0
 33
0.0
  0
SOLID
  5
1717
330
1636
100
AcDbEntity
  8
2
100
AcDbTrace
 10
28.8
 20
60.41666666666666
 30
0.0
 11
28.8
 21
59.58333333333333
 31
0.0
 12
26.3
 22
60.0
 32
0.0
 13
26.3
 23
60.0
 33
0.0
  0
POINT
  5
1718
330
1636
100
AcDbEntity
  8
DEFPOINTS
 62
     0
100
AcDbPoint
 10
32.0
 20
16.0
 30
0.0
  0
POINT
  5
1719
330
1636
100
AcDbEntity
  8
DEFPOINTS
 62
     0
100
AcDbPoint
 10
26.3
 20
16.10450318701843
 30
0.0
  0
POINT
  5
171A
330
1636
100
AcDbEntity
  8
DEFPOINTS
 62
     0
100
AcDbPoint
 10
26.3
 20
60.0
 30
0.0
  0
ENDBLK
  5
1641
330
1636
100
AcDbEntity
  8
0
100
AcDbBlockEnd
  0
ENDSEC
  0
SECTION
  2
ENTITIES
  0
LINE
  5
648
330
1F
100
AcDbEntity
  8
1
100
AcDbLine
 10
-0.0000000000002274
 20
-13.27113434341632
 30
0.0
 11
0.0
 21
-4.199999999999987
 31
0.0
  0
LINE
  5
649
330
1F
100
AcDbEntity
  8
SK1
100
AcDbLine
 10
0.0
 20
-4.199999999999987
 30
0.0
 11
5.599999999999909
 21
-4.199999999999987
 31
0.0
  0
LINE
  5
64A
330
1F
100
AcDbEntity
  8
SK1
100
AcDbLine
 10
5.599999999999909
 20
-4.199999999999987
 30
0.0
 11
5.599999999999909
 21
4.199999999999987
 31
0.0
  0
LINE
  5
64B
330
1F
100
AcDbEntity
  8
SK1
100
AcDbLine
 10
5.599999999999909
 20
4.199999999999987
 30
0.0
 11
0.0
 21
4.199999999999987
 31
0.0
  0
LINE
  5
64C
330
1F
100
AcDbEntity
  8
1
100
AcDbLine
 10
0.0
 20
4.199999999999987
 30
0.0
 11
0.0000000000001137
 21
13.2711343434168
 31
0.0
  0
LINE
  5
64F
330
1F
100
AcDbEntity
  8
SK3
 48
0.5
100
AcDbLine
 10
18.0
 20
-7.999999999999755
 30
0.0
 11
18.0
 21
7.999999999999943
 31
0.0
  0
LINE
  5
650
330
1F
100
AcDbEntity
  8
SK3
 48
0.5
100
AcDbLine
 10
18.0
 20
7.999999999999943
 30
0.0
 11
0.0
 21
8.000000000000056
 31
0.0
  0
LINE
  5
651
330
1F
100
AcDbEntity
  8
SK3
 48
0.5
100
AcDbLine
 10
18.0
 20
-4.249999999999943
 30
0.0
 11
22.0
 21
-4.249999999999943
 31
0.0
  0
LINE
  5
652
330
1F
100
AcDbEntity
  8
SK3
 48
0.5
100
AcDbLine
 10
18.0
 20
4.250000000000055
 30
0.0
 11
22.0
 21
4.250000000000055
 31
0.0
  0
LINE
  5
653
330
1F
100
AcDbEntity
  8
SK3
 48
0.5
100
AcDbLine
 10
30.99679480008376
 20
-6.750000000000027
 30
0.0
 11
22.0
 21
-6.750000000000056
 31
0.0
  0
LINE
  5
654
330
1F
100
AcDbEntity
  8
SK3
 48
0.5
100
AcDbLine
 10
22.0
 20
-6.750000000000056
 30
0.0
 11
22.0
 21
6.750000000000056
 31
0.0
  0
LINE
  5
655
330
1F
100
AcDbEntity
  8
SK3
 48
0.5
100
AcDbLine
 10
22.0
 20
6.750000000000056
 30
0.0
 11
30.99679480008376
 21
6.750000000000056
 31
0.0
  0
DIMENSION
  5
657
330
1F
100
AcDbEntity
  8
SK2
100
AcDbDimension
  2
*D1
 10
-16.77266089567603
 20
8.000000000000005
 30
0.0
 11
-20.02266089567603
 21
0.0000000000000028
 31
0.0
 70
    32
  1
%%c<>
  3
AM_DIN
100
AcDbAlignedDimension
 13
0.0
 23
-8.0
 33
0.0
 14
0.0
 24
8.0
 34
0.0
 50
270.0
100
AcDbRotatedDimension
  0
LINE
  5
DBE
330
1F
100
AcDbEntity
  8
1
100
AcDbLine
 10
30.99679480008375
 20
11.89776970094194
 30
0.0
 11
30.99679480008376
 21
-15.27113434341686
 31
0.0
  0
LINE
  5
DD1
330
1F
100
AcDbEntity
  8
1
100
AcDbLine
 10
8.73798966739481
 20
15.27113434341678
 30
0.0
 11
2.000000000000112
 21
15.2711343434168
 31
0.0
  0
CIRCLE
  5
E0C
330
1F
100
AcDbEntity
  8
SK1
100
AcDbCircle
 10
0.0
 20
0.0
 30
0.0
 40
3.200115174948664
  0
LINE
  5
E0D
330
1F
100
AcDbEntity
  8
SK1
100
AcDbLine
 10
0.0
 20
3.200115174948678
 30
0.0
 11
0.0
 21
-3.200115174948678
 31
0.0
  0
LINE
  5
E0E
330
1F
100
AcDbEntity
  8
SK1
100
AcDbLine
 10
-3.200115174948678
 20
0.0
 30
0.0
 11
3.200115174948678
 21
0.0
 31
0.0
  0
LINE
  5
E0F
330
1F
100
AcDbEntity
  8
4
100
AcDbLine
 10
33.89758141999607
 20
0.0
 30
0.0
 11
0.0
 21
0.000000000000199
 31
0.0
  0
ARC
  5
E36
330
1F
100
AcDbEntity
  8
1
100
AcDbCircle
 10
2.000000000000112
 20
13.2711343434168
 30
0.0
 40
2.0
100
AcDbArc
 50
89.99999999999984
 51
180.0
1001
GENIUS_GENODEF_13
1002
{
1000
HIER
1070
     0
1002
}
1002
{
1000
MANEDIT
1070
     0
1002
}
1002
{
1000
NOSEL
1070
     0
1002
}
1002
{
1000
BEHIND
1070
     0
1002
}
1002
{
1000
OTHER
1070
     0
1002
}
1002
{
1000
REACTOR
1002
}
1001
GENIUS_GENOBJ-N-FIL_13
1002
{
1000
OWNER
1000
GEN
1002
}
  0
LINE
  5
E40
330
1F
100
AcDbEntity
  8
1
100
AcDbLine
 10
8.737989667394186
 20
-15.27113434341642
 30
0.0
 11
1.999999999999771
 21
-15.27113434341628
 31
0.0
  0
ARC
  5
E41
330
1F
100
AcDbEntity
  8
1
100
AcDbCircle
 10
1.999999999999771
 20
-13.27113434341632
 30
0.0
 40
2.0
100
AcDbArc
 50
180.0
 51
270.0
1001
GENIUS_GENODEF_13
1002
{
1000
HIER
1070
     0
1002
}
1002
{
1000
MANEDIT
1070
     0
1002
}
1002
{
1000
NOSEL
1070
     0
1002
}
1002
{
1000
BEHIND
1070
     0
1002
}
1002
{
1000
OTHER
1070
     0
1002
}
1002
{
1000
REACTOR
1002
}
1001
GENIUS_GENOBJ-N-FIL_13
1002
{
1000
OWNER
1000
GEN
1002
}
  0
LINE
  5
E63
330
1F
100
AcDbEntity
  8
NOCUT
100
AcDbLine
 10
30.99679480008364
 20
-0.0000000000001705
 30
0.0
 11
30.99679480008364
 21
-15.27113434341686
 31
0.0
  0
LINE
  5
E68
330
1F
100
AcDbEntity
  8
NOCUT
100
AcDbLine
 10
8.737989667394389
 20
-15.27113434341663
 30
0.0
 11
1.999999999999658
 21
-15.27113434341648
 31
0.0
  0
LINE
  5
E69
330
1F
100
AcDbEntity
  8
NOCUT
100
AcDbLine
 10
-0.0000000000003411
 20
-13.27113434341651
 30
0.0
 11
0.0
 21
0.0
 31
0.0
  0
ARC
  5
E6A
330
1F
100
AcDbEntity
  8
NOCUT
100
AcDbCircle
 10
1.999999999999658
 20
-13.27113434341651
 30
0.0
 40
2.0
100
AcDbArc
 50
180.0
 51
270.0
1001
GENIUS_GENODEF_13
1002
{
1000
HIER
1070
     0
1002
}
1002
{
1000
MANEDIT
1070
     0
1002
}
1002
{
1000
NOSEL
1070
     0
1002
}
1002
{
1000
BEHIND
1070
     0
1002
}
1002
{
1000
OTHER
1070
     0
1002
}
1002
{
1000
REACTOR
1002
}
1001
GENIUS_GENOBJ-N-FIL_13
1002
{
1000
OWNER
1000
GEN
1002
}
  0
LINE
  5
E82
330
1F
100
AcDbEntity
  8
NOCUT
100
AcDbLine
 10
30.99679480008364
 20
-0.0000000000001705
 30
0.0
 11
0.0
 21
0.0
 31
0.0
  0
TEXT
  5
ED9
330
1F
100
AcDbEntity
  8
6
100
AcDbText
 10
55.50802220076434
 20
-2.860321633890265
 30
0.0
 40
3.5
  1
Z=8
 50
90.0
100
AcDbText
  0
TEXT
  5
EDB
330
1F
100
AcDbEntity
  8
6
100
AcDbText
 10
33.85377163837984
 20
-24.51752997353192
 30
0.0
 40
3.5
  1
2J1D032R00
100
AcDbText
  0
DIMENSION
  5
FAE
330
1F
100
AcDbEntity
  8
SK2
100
AcDbDimension
  2
*D2
 10
-29.04471846741421
 20
-15.27113434341648
 30
0.0
 11
-32.29471846741421
 21
0.0000000000001603
 31
0.0
 70
    32
  1
ø30
  3
AM_DIN
100
AcDbAlignedDimension
 13
2.000000000000112
 23
15.2711343434168
 33
0.0
 14
1.999999999999771
 24
-15.27113434341648
 34
0.0
 50
90.0
100
AcDbRotatedDimension
  0
LINE
  5
129A
330
1F
100
AcDbEntity
  8
1
100
AcDbLine
 10
25.83303323511328
 20
15.27113434341674
 30
0.0
 11
10.23798966739468
 21
15.27113434341674
 31
0.0
  0
CIRCLE
  5
12B6
330
1F
100
AcDbEntity
  8
SK1
100
AcDbCircle
 10
32.0
 20
16.0
 30
0.0
 40
0.4637693698488209
  0
LINE
  5
12B7
330
1F
100
AcDbEntity
  8
SK1
100
AcDbLine
 10
31.53623063015118
 20
16.0
 30
0.0
 11
32.46376936984882
 21
16.0
 31
0.0
  0
LINE
  5
12B8
330
1F
100
AcDbEntity
  8
SK1
100
AcDbLine
 10
32.0
 20
16.46376936984881
 30
0.0
 11
32.0
 21
15.53623063015117
 31
0.0
  0
LINE
  5
12C2
330
1F
100
AcDbEntity
  8
4
100
AcDbLine
 10
15.96453224229871
 20
5.884693316188349
 30
0.0
 11
24.87973940176736
 21
10.7392630399769
 31
0.0
  0
LINE
  5
12D8
330
1F
100
AcDbEntity
  8
1
100
AcDbLine
 10
30.99679480008376
 20
-15.27113434341686
 30
0.0
 11
10.23798966739467
 21
-15.27113434341686
 31
0.0
  0
CIRCLE
  5
12E8
330
1F
100
AcDbEntity
  8
SK1
100
AcDbCircle
 10
32.0
 20
-16.0
 30
0.0
 40
0.4637693698488209
  0
LINE
  5
12E9
330
1F
100
AcDbEntity
  8
SK1
100
AcDbLine
 10
31.53623063015118
 20
-16.0
 30
0.0
 11
32.46376936984882
 21
-16.0
 31
0.0
  0
LINE
  5
12EA
330
1F
100
AcDbEntity
  8
SK1
100
AcDbLine
 10
32.0
 20
-16.46376936984881
 30
0.0
 11
32.0
 21
-15.53623063015117
 31
0.0
  0
LINE
  5
12F6
330
1F
100
AcDbEntity
  8
1
100
AcDbLine
 10
8.73798966739481
 20
15.27113434341678
 30
0.0
 11
10.23798966739468
 21
15.27113434341674
 31
0.0
  0
LINE
  5
130D
330
1F
100
AcDbEntity
  8
1
100
AcDbLine
 10
8.737989667394641
 20
-15.27113434341688
 30
0.0
 11
10.2379896673945
 21
-15.27113434341669
 31
0.0
  0
LINE
  5
1317
330
1F
100
AcDbEntity
  8
NOCUT
100
AcDbLine
 10
8.737989667394389
 20
-15.27113434341663
 30
0.0
 11
10.23798966739467
 21
-15.27113434341686
 31
0.0
  0
LINE
  5
1318
330
1F
100
AcDbEntity
  8
NOCUT
100
AcDbLine
 10
10.23798966739467
 20
-15.27113434341686
 30
0.0
 11
30.99679480008364
 21
-15.27113434341686
 31
0.0
  0
DIMENSION
  5
1332
330
1F
100
AcDbEntity
  8
2
100
AcDbDimension
  2
*D3
 10
50.22910506815174
 20
-16.0
 30
0.0
 11
46.97876057996276
 21
0.0000000000000035
 31
0.0
 70
    32
  1
%%c<>
  3
AM_DIN
100
AcDbAlignedDimension
 13
32.0
 23
16.0
 33
0.0
 14
32.0
 24
-16.0
 34
0.0
 50
90.0
100
AcDbRotatedDimension
  0
DIMENSION
  5
139A
330
1F
100
AcDbEntity
  8
2
100
AcDbDimension
  2
*D4
 10
0.0000000000001175
 20
75.0
 30
0.0
 11
16.00000000000006
 21
78.25034448818897
 31
0.0
 70
    32
  3
AM_DIN
100
AcDbAlignedDimension
 13
32.0
 23
16.0
 33
0.0
 14
0.0000000000001137
 24
13.2711343434168
 34
0.0
100
AcDbRotatedDimension
  0
TEXT
  5
1610
330
1F
100
AcDbEntity
  8
6
100
AcDbText
 10
34.35202689963921
 20
20.66015685948062
 30
0.0
 40
2.5
  1
AOMT060202R
100
AcDbText
  0
DIMENSION
  5
161A
330
1F
100
AcDbEntity
  8
2
100
AcDbDimension
  2
*D5
 10
26.3
 20
60.0
 30
0.0
 11
29.32968590568611
 21
62.89939521526331
 31
0.0
 70
   160
  3
AM_ANSI
100
AcDbAlignedDimension
 13
32.0
 23
16.0
 33
0.0
 14
26.3
 24
16.10450318701843
 34
0.0
100
AcDbRotatedDimension
1001
ACAD
1000
DSTYLE
1002
{
1070
   140
1040
3.5
1070
    41
1040
2.5
1070
   271
1070
     1
1002
}
  0
CIRCLE
  5
161B
330
1F
100
AcDbEntity
  8
1
100
AcDbCircle
 10
28.62068379221631
 20
14.00117611384308
 30
0.0
 40
1.255206518985224
  0
ARC
  5
161C
330
1F
100
AcDbEntity
  8
1
100
AcDbCircle
 10
26.18556788979271
 20
15.95464561228911
 30
0.0
 40
0.15
100
AcDbArc
 50
89.94931001695787
 51
163.9637789131391
1001
GENIUS_GENOBJ-N-FIL_13
1002
{
1000
OWNER
1000
GEN
1002
}
1001
GENIUS_GENODEF_13
1002
{
1000
HIER
1070
     0
1002
}
1002
{
1000
MANEDIT
1070
     0
1002
}
1002
{
1000
NOSEL
1070
     0
1002
}
1002
{
1000
BEHIND
1070
     0
1002
}
1002
{
1000
OTHER
1070
     0
1002
}
1002
{
1000
REACTOR
1002
}
  0
ARC
  5
161D
330
1F
100
AcDbEntity
  8
CUT
100
AcDbCircle
 10
26.18556788979271
 20
15.95464561228911
 30
0.0
 40
0.15
100
AcDbArc
 50
89.94931001695787
 51
163.9637789131391
1001
GENIUS_GENOBJ-N-FIL_13
1002
{
1000
OWNER
1000
GEN
1002
}
1001
GENIUS_GENODEF_13
1002
{
1000
HIER
1070
     0
1002
}
1002
{
1000
MANEDIT
1070
     0
1002
}
1002
{
1000
NOSEL
1070
     0
1002
}
1002
{
1000
BEHIND
1070
     0
1002
}
1002
{
1000
OTHER
1070
     0
1002
}
1002
{
1000
REACTOR
1002
}
  0
ARC
  5
161E
330
1F
100
AcDbEntity
  8
1
100
AcDbCircle
 10
26.22860575565638
 20
13.02740027003719
 30
0.0
 40
1.0
100
AcDbArc
 50
163.9637789131365
 51
180.8929251581053
1001
GENIUS_GENODEF_13
1002
{
1000
HIER
1070
     0
1002
}
1002
{
1000
MANEDIT
1070
     0
1002
}
1002
{
1000
NOSEL
1070
     0
1002
}
1002
{
1000
BEHIND
1070
     0
1002
}
1002
{
1000
OTHER
1070
     0
1002
}
1002
{
1000
REACTOR
1002
}
1001
GENIUS_GENOBJ-N-FIL_13
1002
{
1000
OWNER
1000
GEN
1002
}
  0
ARC
  5
161F
330
1F
100
AcDbEntity
  8
CUT
100
AcDbCircle
 10
26.22860575565638
 20
13.02740027003719
 30
0.0
 40
1.0
100
AcDbArc
 50
163.9637789131365
 51
180.8929251581053
1001
GENIUS_GENODEF_13
1002
{
1000
HIER
1070
     0
1002
}
1002
{
1000
MANEDIT
1070
     0
1002
}
1002
{
1000
NOSEL
1070
     0
1002
}
1002
{
1000
BEHIND
1070
     0
1002
}
1002
{
1000
OTHER
1070
     0
1002
}
1002
{
1000
REACTOR
1002
}
1001
GENIUS_GENOBJ-N-FIL_13
1002
{
1000
OWNER
1000
GEN
1002
}
  0
ARC
  5
1620
330
1F
100
AcDbEntity
  8
1
100
AcDbCircle
 10
25.44136758443267
 20
12.2023522276862
 30
0.0
 40
0.2
100
AcDbArc
 50
180.8929251581096
 51
267.9151181052088
1001
GENIUS_GENODEF_13
1002
{
1000
HIER
1070
     0
1002
}
1002
{
1000
MANEDIT
1070
     0
1002
}
1002
{
1000
NOSEL
1070
     0
1002
}
1002
{
1000
BEHIND
1070
     0
1002
}
1002
{
1000
OTHER
1070
     0
1002
}
1002
{
1000
REACTOR
1002
}
1001
GENIUS_GENOBJ-N-FIL_13
1002
{
1000
OWNER
1000
GEN
1002
}
  0
ARC
  5
1621
330
1F
100
AcDbEntity
  8
CUT
100
AcDbCircle
 10
25.44136758443267
 20
12.2023522276862
 30
0.0
 40
0.2
100
AcDbArc
 50
180.8929251581096
 51
267.9151181052088
1001
GENIUS_GENODEF_13
1002
{
1000
HIER
1070
     0
1002
}
1002
{
1000
MANEDIT
1070
     0
1002
}
1002
{
1000
NOSEL
1070
     0
1002
}
1002
{
1000
BEHIND
1070
     0
1002
}
1002
{
1000
OTHER
1070
     0
1002
}
1002
{
1000
REACTOR
1002
}
1001
GENIUS_GENOBJ-N-FIL_13
1002
{
1000
OWNER
1000
GEN
1002
}
  0
LINE
  5
1622
330
1F
100
AcDbEntity
  8
1
100
AcDbLine
 10
25.24139187155526
 20
12.19923545705808
 30
0.0
 11
25.22872719126906
 21
13.0118164168966
 31
0.0
  0
LINE
  5
1623
330
1F
100
AcDbEntity
  8
CUT
100
AcDbLine
 10
25.24139187155526
 20
12.19923545705808
 30
0.0
 11
25.22872719126906
 21
13.0118164168966
 31
0.0
  0
LINE
  5
1624
330
1F
100
AcDbEntity
  8
1
100
AcDbLine
 10
26.0414048019615
 20
15.99608236055635
 30
0.0
 11
25.2675185034482
 21
13.30364525848563
 31
0.0
  0
LINE
  5
1625
330
1F
100
AcDbEntity
  8
CUT
100
AcDbLine
 10
26.0414048019615
 20
15.99608236055635
 30
0.0
 11
25.2675185034482
 21
13.30364525848563
 31
0.0
  0
ARC
  5
1626
330
1F
100
AcDbEntity
  8
1
100
AcDbCircle
 10
31.19578257189151
 20
170.2727739410874
 30
0.0
 40
158.375129247617
100
AcDbArc
 50
267.9151181052104
 51
269.9493100169675
  0
ARC
  5
1627
330
1F
100
AcDbEntity
  8
CUT
100
AcDbCircle
 10
31.19578257189151
 20
170.2727739410874
 30
0.0
 40
158.375129247617
100
AcDbArc
 50
267.9151181052104
 51
269.9493100169675
  0
ARC
  5
1629
330
1F
100
AcDbEntity
  8
1
100
AcDbCircle
 10
21.31879174731242
 20
17.389044335814
 30
0.0
 40
7.373518414479389
100
AcDbArc
 50
196.6923086121765
 51
274.881291592169
1001
GENIUS_GENOBJ-N-FIL_13
1002
{
1000
OWNER
1000
GEN
1002
}
1001
GENIUS_GENODEF_13
1002
{
1000
HIER
1070
     0
1002
}
1002
{
1000
MANEDIT
1070
     0
1002
}
1002
{
1000
NOSEL
1070
     0
1002
}
1002
{
1000
BEHIND
1070
     0
1002
}
1002
{
1000
OTHER
1070
     0
1002
}
1002
{
1000
REACTOR
1002
}
  0
ARC
  5
162A
330
1F
100
AcDbEntity
  8
1
100
AcDbCircle
 10
31.05579969464
 20
12.04770661539723
 30
0.0
 40
0.15
100
AcDbArc
 50
269.9493100169253
 51
343.9637789131317
1001
GENIUS_GENOBJ-N-FIL_13
1002
{
1000
OWNER
1000
GEN
1002
}
1001
GENIUS_GENODEF_13
1002
{
1000
HIER
1070
     0
1002
}
1002
{
1000
MANEDIT
1070
     0
1002
}
1002
{
1000
NOSEL
1070
     0
1002
}
1002
{
1000
BEHIND
1070
     0
1002
}
1002
{
1000
OTHER
1070
     0
1002
}
1002
{
1000
REACTOR
1002
}
  0
ARC
  5
162B
330
1F
100
AcDbEntity
  8
CUT
100
AcDbCircle
 10
31.05579969464
 20
12.04770661539723
 30
0.0
 40
0.15
100
AcDbArc
 50
269.9493100169253
 51
343.9637789131317
1001
GENIUS_GENOBJ-N-FIL_13
1002
{
1000
OWNER
1000
GEN
1002
}
1001
GENIUS_GENODEF_13
1002
{
1000
HIER
1070
     0
1002
}
1002
{
1000
MANEDIT
1070
     0
1002
}
1002
{
1000
NOSEL
1070
     0
1002
}
1002
{
1000
BEHIND
1070
     0
1002
}
1002
{
1000
OTHER
1070
     0
1002
}
1002
{
1000
REACTOR
1002
}
  0
LINE
  5
162C
330
1F
100
AcDbEntity
  8
1
100
AcDbLine
 10
31.19996278247123
 20
12.00626986712994
 30
0.0
 11
31.97384908098451
 21
14.69870696920058
 31
0.0
  0
LINE
  5
162D
330
1F
100
AcDbEntity
  8
CUT
100
AcDbLine
 10
31.19996278247123
 20
12.00626986712994
 30
0.0
 11
31.97384908098451
 21
14.69870696920058
 31
0.0
  0
LINE
  5
162E
330
1F
100
AcDbEntity
  8
1
100
AcDbLine
 10
31.99997571287741
 20
15.80311677062814
 30
0.0
 11
32.01264039316365
 21
14.99053581078961
 31
0.0
  0
LINE
  5
162F
330
1F
100
AcDbEntity
  8
CUT
100
AcDbLine
 10
31.99997571287741
 20
15.80311677062814
 30
0.0
 11
32.01264039316365
 21
14.99053581078961
 31
0.0
  0
ARC
  5
1630
330
1F
100
AcDbEntity
  8
1
100
AcDbCircle
 10
31.01276182877626
 20
14.974951957649
 30
0.0
 40
1.0
100
AcDbArc
 50
343.9637789131368
 51
0.8929251581055208
1001
GENIUS_GENODEF_13
1002
{
1000
HIER
1070
     0
1002
}
1002
{
1000
MANEDIT
1070
     0
1002
}
1002
{
1000
NOSEL
1070
     0
1002
}
1002
{
1000
BEHIND
1070
     0
1002
}
1002
{
1000
OTHER
1070
     0
1002
}
1002
{
1000
REACTOR
1002
}
1001
GENIUS_GENOBJ-N-FIL_13
1002
{
1000
OWNER
1000
GEN
1002
}
  0
ARC
  5
1631
330
1F
100
AcDbEntity
  8
CUT
100
AcDbCircle
 10
31.01276182877626
 20
14.974951957649
 30
0.0
 40
1.0
100
AcDbArc
 50
343.9637789131368
 51
0.8929251581055208
1001
GENIUS_GENODEF_13
1002
{
1000
HIER
1070
     0
1002
}
1002
{
1000
MANEDIT
1070
     0
1002
}
1002
{
1000
NOSEL
1070
     0
1002
}
1002
{
1000
BEHIND
1070
     0
1002
}
1002
{
1000
OTHER
1070
     0
1002
}
1002
{
1000
REACTOR
1002
}
1001
GENIUS_GENOBJ-N-FIL_13
1002
{
1000
OWNER
1000
GEN
1002
}
  0
ARC
  5
1632
330
1F
100
AcDbEntity
  8
1
100
AcDbCircle
 10
26.04558501254123
 20
-142.2704217134013
 30
0.0
 40
158.375129247617
100
AcDbArc
 50
87.91511810521221
 51
89.94931001696603
  0
ARC
  5
1633
330
1F
100
AcDbEntity
  8
CUT
100
AcDbCircle
 10
26.04558501254123
 20
-142.2704217134013
 30
0.0
 40
158.375129247617
100
AcDbArc
 50
87.91511810521221
 51
89.94931001696603
  0
ARC
  5
1634
330
1F
100
AcDbEntity
  8
1
100
AcDbCircle
 10
31.79999999999997
 20
15.79999999999991
 30
0.0
 40
0.2
100
AcDbArc
 50
0.8929251581099983
 51
87.91511810520894
1001
GENIUS_GENODEF_13
1002
{
1000
HIER
1070
     0
1002
}
1002
{
1000
MANEDIT
1070
     0
1002
}
1002
{
1000
NOSEL
1070
     0
1002
}
1002
{
1000
BEHIND
1070
     0
1002
}
1002
{
1000
OTHER
1070
     0
1002
}
1002
{
1000
REACTOR
1002
}
1001
GENIUS_GENOBJ-N-FIL_13
1002
{
1000
OWNER
1000
GEN
1002
}
  0
ARC
  5
1635
330
1F
100
AcDbEntity
  8
CUT
100
AcDbCircle
 10
31.80000000000001
 20
15.8
 30
0.0
 40
0.2
100
AcDbArc
 50
0.8929251581099983
 51
87.91511810520894
1001
GENIUS_GENODEF_13
1002
{
1000
HIER
1070
     0
1002
}
1002
{
1000
MANEDIT
1070
     0
1002
}
1002
{
1000
NOSEL
1070
     0
1002
}
1002
{
1000
BEHIND
1070
     0
1002
}
1002
{
1000
OTHER
1070
     0
1002
}
1002
{
1000
REACTOR
1002
}
1001
GENIUS_GENOBJ-N-FIL_13
1002
{
1000
OWNER
1000
GEN
1002
}
  0
ARC
  5
164B
330
1F
100
AcDbEntity
  8
SK3
 48
0.3
100
AcDbCircle
 10
21.7538086618979
 20
-17.27113434341688
 30
0.0
 40
8.0
100
AcDbArc
 50
89.99999999999836
 51
165.5224878140699
1001
GENIUS_GENOBJ-N-FIL_13
1002
{
1000
OWNER
1000
GEN
1002
}
1001
GENIUS_GENODEF_13
1002
{
1000
HIER
1070
     0
1002
}
1002
{
1000
MANEDIT
1070
     0
1002
}
1002
{
1000
NOSEL
1070
     0
1002
}
1002
{
1000
BEHIND
1070
     0
1002
}
1002
{
1000
OTHER
1070
     0
1002
}
1002
{
1000
REACTOR
1002
}
  0
ARC
  5
164D
330
1F
100
AcDbEntity
  8
1
100
AcDbCircle
 10
26.04558501254337
 20
142.2704217134013
 30
0.0
 40
158.375129247617
100
AcDbArc
 50
270.0506899830323
 51
272.0848818947876
  0
ARC
  5
164E
330
1F
100
AcDbEntity
  8
1
100
AcDbCircle
 10
26.18556788979264
 20
-15.95464561228901
 30
0.0
 40
0.15
100
AcDbArc
 50
196.0362210868598
 51
270.0506899830405
1001
GENIUS_GENOBJ-N-FIL_13
1002
{
1000
OWNER
1000
GEN
1002
}
1001
GENIUS_GENODEF_13
1002
{
1000
HIER
1070
     0
1002
}
1002
{
1000
MANEDIT
1070
     0
1002
}
1002
{
1000
NOSEL
1070
     0
1002
}
1002
{
1000
BEHIND
1070
     0
1002
}
1002
{
1000
OTHER
1070
     0
1002
}
1002
{
1000
REACTOR
1002
}
  0
LINE
  5
164F
330
1F
100
AcDbEntity
  8
1
100
AcDbLine
 10
26.0414048019615
 20
-15.99608236055624
 30
0.0
 11
25.83303323511364
 21
-15.27113434341795
 31
0.0
  0
LINE
  5
1650
330
1F
100
AcDbEntity
  8
SK3
100
AcDbLine
 10
25.83303323511364
 20
-15.27113434341795
 30
0.0
 11
25.26751850344822
 21
-13.30364525848553
 31
0.0
  0
CIRCLE
  5
1651
330
1F
100
AcDbEntity
  8
SK3
100
AcDbCircle
 10
28.62068379221631
 20
-14.00117611384303
 30
0.0
 40
1.255206518985224
  0
ARC
  5
1652
330
1F
100
AcDbEntity
  8
SK3
100
AcDbCircle
 10
31.19578257188942
 20
-170.2727739410874
 30
0.0
 40
158.375129247617
100
AcDbArc
 50
90.07198833903467
 51
92.08488189478776
  0
ARC
  5
1653
330
1F
100
AcDbEntity
  8
SK3
100
AcDbCircle
 10
26.22860575565642
 20
-13.02740027003712
 30
0.0
 40
1.0
100
AcDbArc
 50
179.1070748418935
 51
196.0362210868625
1001
GENIUS_GENODEF_13
1002
{
1000
HIER
1070
     0
1002
}
1002
{
1000
MANEDIT
1070
     0
1002
}
1002
{
1000
NOSEL
1070
     0
1002
}
1002
{
1000
BEHIND
1070
     0
1002
}
1002
{
1000
OTHER
1070
     0
1002
}
1002
{
1000
REACTOR
1002
}
1001
GENIUS_GENOBJ-N-FIL_13
1002
{
1000
OWNER
1000
GEN
1002
}
  0
LINE
  5
1654
330
1F
100
AcDbEntity
  8
SK3
100
AcDbLine
 10
25.24139187155531
 20
-12.19923545705797
 30
0.0
 11
25.22872719126906
 21
-13.0118164168965
 31
0.0
  0
ARC
  5
1655
330
1F
100
AcDbEntity
  8
SK3
100
AcDbCircle
 10
25.44136758443267
 20
-12.2023522276861
 30
0.0
 40
0.2
100
AcDbArc
 50
92.0848818947894
 51
179.1070748418896
1001
GENIUS_GENODEF_13
1002
{
1000
HIER
1070
     0
1002
}
1002
{
1000
MANEDIT
1070
     0
1002
}
1002
{
1000
NOSEL
1070
     0
1002
}
1002
{
1000
BEHIND
1070
     0
1002
}
1002
{
1000
OTHER
1070
     0
1002
}
1002
{
1000
REACTOR
1002
}
1001
GENIUS_GENOBJ-N-FIL_13
1002
{
1000
OWNER
1000
GEN
1002
}
  0
LINE
  5
1656
330
1F
100
AcDbEntity
  8
1
100
AcDbLine
 10
31.19996278247128
 20
-12.00626986712992
 30
0.0
 11
31.97384908098451
 21
-14.69870696920058
 31
0.0
  0
ARC
  5
1657
330
1F
100
AcDbEntity
  8
1
100
AcDbCircle
 10
31.01276182877626
 20
-14.97495195764899
 30
0.0
 40
1.0
100
AcDbArc
 50
359.1070748418936
 51
16.03622108686267
1001
GENIUS_GENODEF_13
1002
{
1000
HIER
1070
     0
1002
}
1002
{
1000
MANEDIT
1070
     0
1002
}
1002
{
1000
NOSEL
1070
     0
1002
}
1002
{
1000
BEHIND
1070
     0
1002
}
1002
{
1000
OTHER
1070
     0
1002
}
1002
{
1000
REACTOR
1002
}
1001
GENIUS_GENOBJ-N-FIL_13
1002
{
1000
OWNER
1000
GEN
1002
}
  0
LINE
  5
1658
330
1F
100
AcDbEntity
  8
1
100
AcDbLine
 10
31.99997571287741
 20
-15.80311677062813
 30
0.0
 11
32.01264039316362
 21
-14.9905358107896
 31
0.0
  0
ARC
  5
1659
330
1F
100
AcDbEntity
  8
1
100
AcDbCircle
 10
31.05579969464002
 20
-12.04770661539719
 30
0.0
 40
0.15
100
AcDbArc
 50
16.03622108686743
 51
90.0506899830747
1001
GENIUS_GENOBJ-N-FIL_13
1002
{
1000
OWNER
1000
GEN
1002
}
1001
GENIUS_GENODEF_13
1002
{
1000
HIER
1070
     0
1002
}
1002
{
1000
MANEDIT
1070
     0
1002
}
1002
{
1000
NOSEL
1070
     0
1002
}
1002
{
1000
BEHIND
1070
     0
1002
}
1002
{
1000
OTHER
1070
     0
1002
}
1002
{
1000
REACTOR
1002
}
  0
ARC
  5
165A
330
1F
100
AcDbEntity
  8
1
100
AcDbCircle
 10
31.19578257188942
 20
-170.2727739410874
 30
0.0
 40
158.375129247617
100
AcDbArc
 50
90.05068998303235
 51
90.07198833903467
  0
ARC
  5
165B
330
1F
100
AcDbEntity
  8
1
100
AcDbCircle
 10
31.80000000000001
 20
-15.79999999999999
 30
0.0
 40
0.2
100
AcDbArc
 50
272.0848818947894
 51
359.1070748418895
1001
GENIUS_GENODEF_13
1002
{
1000
HIER
1070
     0
1002
}
1002
{
1000
MANEDIT
1070
     0
1002
}
1002
{
1000
NOSEL
1070
     0
1002
}
1002
{
1000
BEHIND
1070
     0
1002
}
1002
{
1000
OTHER
1070
     0
1002
}
1002
{
1000
REACTOR
1002
}
1001
GENIUS_GENOBJ-N-FIL_13
1002
{
1000
OWNER
1000
GEN
1002
}
  0
LINE
  5
1739
330
1F
100
AcDbEntity
  8
SK3
 48
0.5
100
AcDbLine
 10
18.0
 20
-7.999999999999755
 30
0.0
 11
-0.0000000000000924
 21
-7.999999999999656
 31
0.0
  0
LINE
  5
1760
330
1F
100
AcDbEntity
  8
1
100
AcDbLine
 10
21.94621614292832
 20
10.0422686868335
 30
0.0
 11
30.99679480008382
 21
10.0422686868335
 31
0.0
  0
LINE
  5
176B
330
1F
100
AcDbEntity
  8
SK3
 48
0.3
100
AcDbLine
 10
21.75380866189812
 20
-9.271134343416882
 30
0.0
 11
30.99679480008362
 21
-9.271134343417095
 31
0.0
  0
ENDSEC
  0
SECTION
  2
OBJECTS
  0
DICTIONARY
  5
C
330
0
100
AcDbDictionary
  3
ACAD_GROUP
350
D
  3
ACAD_LAYOUT
350
1A
  3
ACAD_MLINESTYLE
350
17
  3
ACAD_PLOTSETTINGS
350
19
  3
ACAD_PLOTSTYLENAME
350
E
  3
ACDBHEADERROUNDTRIPXREC
350
1801
  3
ACDBVARIABLEDICTIONARY
350
216
  3
ACMDICTIONARY
350
45
  3
AMG
350
41
  3
AMGSNAPSETTINGS
350
23D
  3
DWGPROPS
350
17FE
  0
DICTIONARY
  5
1F1
330
1F
100
AcDbDictionary
280
     1
  3
ACAD_INDEX
360
1F2
  3
ACAD_LAYOUTSELFREF
360
1823
  0
DICTIONARY
  5
1790
330
1B
100
AcDbDictionary
280
     1
  3
ACAD_LAYOUTSELFREF
360
1822
  0
DICTIONARY
  5
D
102
{ACAD_REACTORS
330
C
102
}
330
C
100
AcDbDictionary
  0
DICTIONARY
  5
1A
102
{ACAD_REACTORS
330
C
102
}
330
C
100
AcDbDictionary
  0
DICTIONARY
  5
17
102
{ACAD_REACTORS
330
C
102
}
330
C
100
AcDbDictionary
  3
STANDARD
350
18
  0
DICTIONARY
  5
19
102
{ACAD_REACTORS
330
C
102
}
330
C
100
AcDbDictionary
  0
ACDBDICTIONARYWDFLT
  5
E
102
{ACAD_REACTORS
330
C
102
}
330
C
100
AcDbDictionary
281
     1
  3
Normal
350
F
100
AcDbDictionaryWithDefault
340
F
  0
DICTIONARY
  5
1801
102
{ACAD_REACTORS
330
C
102
}
330
C
100
AcDbDictionary
  3
CEPSNTYPE
350
180B
  3
DIMSTYLEDATA
350
180F
  3
FINGERPRINTGUID
350
180C
  3
HYPERLINKBASE
350
1804
  3
INSUNITS
350
180A
  3
LAYOUTDICT
350
1806
  3
LWETCUNION
350
1809
  3
PLOTSETDICT
350
1807
  3
PLOTSTYLNAMDICT
350
1808
  3
PSVPSCALE
350
180E
  3
PUCSBASE
350
1812
  3
PUCSORGBACK
350
1818
  3
PUCSORGBOTTOM
350
1814
  3
PUCSORGFRONT
350
1817
  3
PUCSORGLEFT
350
1815
  3
PUCSORGRIGHT
350
1816
  3
PUCSORGTOP
350
1813
  3
PUCSORTHOREF
350
1810
  3
PUCSORTHOVIEW
350
1811
  3
STYLESHEET
350
1805
  3
TSTACKALIGN
350
1802
  3
TSTACKSIZE
350
1803
  3
UCSBASE
350
181B
  3
UCSORGBACK
350
1821
  3
UCSORGBOTTOM
350
181D
  3
UCSORGFRONT
350
1820
  3
UCSORGLEFT
350
181E
  3
UCSORGRIGHT
350
181F
  3
UCSORGTOP
350
181C
  3
UCSORTHOREF
350
1819
  3
UCSORTHOVIEW
350
181A
  3
VERSIONGUID
350
180D
  0
DICTIONARY
  5
216
102
{ACAD_REACTORS
330
C
102
}
330
C
100
AcDbDictionary
  3
DIMASSOC
350
219
  3
HIDETEXT
350
218
  3
INDEXCTL
350
217
  0
DICTIONARY
  5
45
102
{ACAD_REACTORS
330
C
102
}
330
C
100
AcDbDictionary
  3
ACMSTDDICTIONARY
350
4A
  0
DICTIONARY
  5
41
102
{ACAD_REACTORS
330
C
102
}
330
C
100
AcDbDictionary
  3
ACMGSETTINGS
350
42
  0
DICTIONARY
  5
23D
102
{ACAD_REACTORS
330
C
102
}
330
C
100
AcDbDictionary
  0
XRECORD
  5
17FE
102
{ACAD_REACTORS
330
C
102
}
330
C
100
AcDbXrecord
  1
DWGPROPS COOKIE
  2

  3

  4

  6

  7

  8

  9

300
AmdtFileType=84
301
=
302
=
303
=
304
=
305
=
306
=
307
=
308
=
309
=
 40
0.0349416782407408
 41
2453599.697857361
 42
2453610.491182697
  1

 90
        1
  0
DICTIONARY
  5
1F2
102
{ACAD_REACTORS
330
1F1
102
}
330
1F1
100
AcDbDictionary
  3
*A1
350
1F3
  0
XRECORD
  5
1823
102
{ACAD_REACTORS
330
1F1
102
}
330
1F1
100
AcDbXrecord
340
1F
  0
XRECORD
  5
1822
102
{ACAD_REACTORS
330
1790
102
}
330
1790
100
AcDbXrecord
340
1B
  0
MLINESTYLE
  5
18
102
{ACAD_REACTORS
330
17
102
}
330
17
100
AcDbMlineStyle
  2
STANDARD
 70
     0
  3

 62
   256
 51
90.0
 52
90.0
 71
     2
 49
0.5
 62
   256
  6
BYLAYER
 49
-0.5
 62
   256
  6
BYLAYER
  0
ACDBPLACEHOLDER
  5
F
102
{ACAD_REACTORS
330
E
102
}
330
E
100
AcDbPlaceHolder
280
     0
  0
XRECORD
  5
180B
102
{ACAD_REACTORS
330
1801
102
}
330
1801
100
AcDbXrecord
 90
        0
  0
XRECORD
  5
180F
102
{ACAD_REACTORS
330
1801
102
}
330
1801
100
AcDbXrecord
1000
DSTYLE
1002
{
1070
    79
 70
     2
1070
   371
 70
    -1
1070
   372
 70
    -1
1002
}
  0
XRECORD
  5
180C
102
{ACAD_REACTORS
330
1801
102
}
330
1801
100
AcDbXrecord
  1
{03052709-208C-44F1-88CB-F8F0E550BC5D}
  0
XRECORD
  5
1804
102
{ACAD_REACTORS
330
1801
102
}
330
1801
100
AcDbXrecord
  1

  0
XRECORD
  5
180A
102
{ACAD_REACTORS
330
1801
102
}
330
1801
100
AcDbXrecord
 90
        4
  0
XRECORD
  5
1806
102
{ACAD_REACTORS
330
1801
102
}
330
1801
100
AcDbXrecord
340
1A
  0
XRECORD
  5
1809
102
{ACAD_REACTORS
330
1801
102
}
330
1801
100
AcDbXrecord
 90
    10781
  0
XRECORD
  5
1807
102
{ACAD_REACTORS
330
1801
102
}
330
1801
100
AcDbXrecord
340
19
  0
XRECORD
  5
1808
102
{ACAD_REACTORS
330
1801
102
}
330
1801
100
AcDbXrecord
340
E
  0
XRECORD
  5
180E
102
{ACAD_REACTORS
330
1801
102
}
330
1801
100
AcDbXrecord
 40
0.0
  0
XRECORD
  5
1812
102
{ACAD_REACTORS
330
1801
102
}
330
1801
100
AcDbXrecord
340
0
  0
XRECORD
  5
1818
102
{ACAD_REACTORS
330
1801
102
}
330
1801
100
AcDbXrecord
 10
0.0
 20
0.0
 30
0.0
  0
XRECORD
  5
1814
102
{ACAD_REACTORS
330
1801
102
}
330
1801
100
AcDbXrecord
 10
0.0
 20
0.0
 30
0.0
  0
XRECORD
  5
1817
102
{ACAD_REACTORS
330
1801
102
}
330
1801
100
AcDbXrecord
 10
0.0
 20
0.0
 30
0.0
  0
XRECORD
  5
1815
102
{ACAD_REACTORS
330
1801
102
}
330
1801
100
AcDbXrecord
 10
0.0
 20
0.0
 30
0.0
  0
XRECORD
  5
1816
102
{ACAD_REACTORS
330
1801
102
}
330
1801
100
AcDbXrecord
 10
0.0
 20
0.0
 30
0.0
  0
XRECORD
  5
1813
102
{ACAD_REACTORS
330
1801
102
}
330
1801
100
AcDbXrecord
 10
0.0
 20
0.0
 30
0.0
  0
XRECORD
  5
1810
102
{ACAD_REACTORS
330
1801
102
}
330
1801
100
AcDbXrecord
340
0
  0
XRECORD
  5
1811
102
{ACAD_REACTORS
330
1801
102
}
330
1801
100
AcDbXrecord
 70
     0
  0
XRECORD
  5
1805
102
{ACAD_REACTORS
330
1801
102
}
330
1801
100
AcDbXrecord
  1

  0
XRECORD
  5
1802
102
{ACAD_REACTORS
330
1801
102
}
330
1801
100
AcDbXrecord
 90
        1
  0
XRECORD
  5
1803
102
{ACAD_REACTORS
330
1801
102
}
330
1801
100
AcDbXrecord
 90
       70
  0
XRECORD
  5
181B
102
{ACAD_REACTORS
330
1801
102
}
330
1801
100
AcDbXrecord
340
0
  0
XRECORD
  5
1821
102
{ACAD_REACTORS
330
1801
102
}
330
1801
100
AcDbXrecord
 10
0.0
 20
0.0
 30
0.0
  0
XRECORD
  5
181D
102
{ACAD_REACTORS
330
1801
102
}
330
1801
100
AcDbXrecord
 10
0.0
 20
0.0
 30
0.0
  0
XRECORD
  5
1820
102
{ACAD_REACTORS
330
1801
102
}
330
1801
100
AcDbXrecord
 10
0.0
 20
0.0
 30
0.0
  0
XRECORD
  5
181E
102
{ACAD_REACTORS
330
1801
102
}
330
1801
100
AcDbXrecord
 10
0.0
 20
0.0
 30
0.0
  0
XRECORD
  5
181F
102
{ACAD_REACTORS
330
1801
102
}
330
1801
100
AcDbXrecord
 10
0.0
 20
0.0
 30
0.0
  0
XRECORD
  5
181C
102
{ACAD_REACTORS
330
1801
102
}
330
1801
100
AcDbXrecord
 10
0.0
 20
0.0
 30
0.0
  0
XRECORD
  5
1819
102
{ACAD_REACTORS
330
1801
102
}
330
1801
100
AcDbXrecord
340
0
  0
XRECORD
  5
181A
102
{ACAD_REACTORS
330
1801
102
}
330
1801
100
AcDbXrecord
 70
     0
  0
XRECORD
  5
180D
102
{ACAD_REACTORS
330
1801
102
}
330
1801
100
AcDbXrecord
  1
{9DF082E7-83D4-44BF-B33C-336198F0E232}
  0
DICTIONARYVAR
  5
219
102
{ACAD_REACTORS
330
216
102
}
330
216
100
DictionaryVariables
280
     0
  1
1
  0
DICTIONARYVAR
  5
218
102
{ACAD_REACTORS
330
216
102
}
330
216
100
DictionaryVariables
280
     0
  1
1
  0
DICTIONARYVAR
  5
217
102
{ACAD_REACTORS
330
216
102
}
330
216
100
DictionaryVariables
280
     0
  1
1
  0
DICTIONARY
  5
4A
102
{ACAD_REACTORS
330
45
102
}
330
45
100
AcDbDictionary
  0
DICTIONARY
  5
42
102
{ACAD_REACTORS
330
41
102
}
330
41
100
AcDbDictionary
  3
DWGSETTINGS
350
17A0
  0
LAYER_INDEX
  5
1F3
102
{ACAD_REACTORS
330
1F2
102
}
330
1F2
100
AcDbIndex
 40
2453610.492125254
100
AcDbLayerIndex
  8
0
360
1F4
 90
        0
  8
DEFPOINTS
360
29B
 90
        0
  8
1
360
FE0
 90
       35
  8
2
360
FE1
 90
        3
  8
4
360
FE2
 90
        2
  8
6
360
FE3
 90
        3
  8
SK1
360
FE4
 90
       12
  8
SK2
360
FE5
 90
        2
  8
SK3
360
FE6
 90
       16
  8
CUT
360
FE8
 90
       12
  8
NOCUT
360
FE9
 90
        7
  0
XRECORD
  5
17A0
102
{ACAD_REACTORS
330
42
102
}
330
42
100
AcDbXrecord
  1
VERSION
140
15.0
  1
PRODUCT
  2
AutoCAD Mechanical 2000
  0
IDBUFFER
  5
1F4
330
0
100
AcDbIdBuffer
  0
IDBUFFER
  5
29B
330
0
100
AcDbIdBuffer
  0
IDBUFFER
  5
FE0
330
0
100
AcDbIdBuffer
330
648
330
64C
330
DBE
330
DD1
330
E36
330
E40
330
E41
330
129A
330
12D8
330
12F6
330
130D
330
161B
330
161C
330
161E
330
1620
330
1622
330
1624
330
1626
330
1629
330
162A
330
162C
330
162E
330
1630
330
1632
330
1634
330
164D
330
164E
330
164F
330
1656
330
1657
330
1658
330
1659
330
165A
330
165B
330
1760
  0
IDBUFFER
  5
FE1
330
0
100
AcDbIdBuffer
330
1332
330
139A
330
161A
  0
IDBUFFER
  5
FE2
330
0
100
AcDbIdBuffer
330
E0F
330
12C2
  0
IDBUFFER
  5
FE3
330
0
100
AcDbIdBuffer
330
ED9
330
EDB
330
1610
  0
IDBUFFER
  5
FE4
330
0
100
AcDbIdBuffer
330
649
330
64A
330
64B
330
E0C
330
E0D
330
E0E
330
12B6
330
12B7
330
12B8
330
12E8
330
12E9
330
12EA
  0
IDBUFFER
  5
FE5
330
0
100
AcDbIdBuffer
330
657
330
FAE
  0
IDBUFFER
  5
FE6
330
0
100
AcDbIdBuffer
330
64F
330
650
330
651
330
652
330
653
330
654
330
655
330
164B
330
1650
330
1651
330
1652
330
1653
330
1654
330
1655
330
1739
330
176B
  0
IDBUFFER
  5
FE8
330
0
100
AcDbIdBuffer
330
161D
330
161F
330
1621
330
1623
330
1625
330
1627
330
162B
330
162D
330
162F
330
1631
330
1633
330
1635
  0
IDBUFFER
  5
FE9
330
0
100
AcDbIdBuffer
330
E63
330
E68
330
E69
330
E6A
330
E82
330
1317
330
1318
  0
ENDSEC
  0
EOF
