  0
SECTION
  2
HEADER
  9
$ACADVER
  1
AC1014
  9
$ACADMAINTVER
 70
     9
  9
$DWGCODEPAGE
  3
ANSI_1252
  9
$INSBASE
 10
0.0
 20
0.0
 30
0.0
  9
$EXTMIN
 10
-43.07266507109932
 20
-68.41818788629632
 30
-0.0000000000000053
  9
$EXTMAX
 10
109.5583691428169
 20
95.00466750252655
 30
0.0000000000000099
  9
$LIMMIN
 10
0.0
 20
0.0
  9
$LIMMAX
 10
420.0
 20
297.0
  9
$ORTHOMODE
 70
     0
  9
$REGENMODE
 70
     1
  9
$FILLMODE
 70
     1
  9
$QTEXTMODE
 70
     0
  9
$MIRRTEXT
 70
     1
  9
$DRAGMODE
 70
     2
  9
$LTSCALE
 40
1.0
  9
$OSMODE
 70
  2599
  9
$ATTMODE
 70
     1
  9
$TEXTSIZE
 40
2.5
  9
$TRACEWID
 40
1.0
  9
$TEXTSTYLE
  7
STANDARD
  9
$CLAYER
  8
0
  9
$CELTYPE
  6
BYLAYER
  9
$CECOLOR
 62
   256
  9
$CELTSCALE
 40
1.0
  9
$DELOBJ
 70
     1
  9
$DISPSILH
 70
     0
  9
$DIMSCALE
 40
1.0
  9
$DIMASZ
 40
2.5
  9
$DIMEXO
 40
0.0
  9
$DIMDLI
 40
10.0
  9
$DIMRND
 40
0.0
  9
$DIMDLE
 40
0.0
  9
$DIMEXE
 40
1.0
  9
$DIMTP
 40
0.1
  9
$DIMTM
 40
0.1
  9
$DIMTXT
 40
3.5
  9
$DIMCEN
 40
0.0
  9
$DIMTSZ
 40
0.0
  9
$DIMTOL
 70
     0
  9
$DIMLIM
 70
     0
  9
$DIMTIH
 70
     0
  9
$DIMTOH
 70
     0
  9
$DIMSE1
 70
     0
  9
$DIMSE2
 70
     0
  9
$DIMTAD
 70
     1
  9
$DIMZIN
 70
     8
  9
$DIMBLK
  1

  9
$DIMASO
 70
     1
  9
$DIMSHO
 70
     1
  9
$DIMPOST
  1

  9
$DIMAPOST
  1
"
  9
$DIMALT
 70
     0
  9
$DIMALTD
 70
     2
  9
$DIMALTF
 40
0.0393701
  9
$DIMLFAC
 40
1.0
  9
$DIMTOFL
 70
     1
  9
$DIMTVP
 40
0.0
  9
$DIMTIX
 70
     0
  9
$DIMSOXD
 70
     0
  9
$DIMSAH
 70
     0
  9
$DIMBLK1
  1

  9
$DIMBLK2
  1

  9
$DIMSTYLE
  2
AM_DIN
  9
$DIMCLRD
 70
   256
  9
$DIMCLRE
 70
   256
  9
$DIMCLRT
 70
     2
  9
$DIMTFAC
 40
0.71
  9
$DIMGAP
 40
1.5
  9
$DIMJUST
 70
     0
  9
$DIMSD1
 70
     0
  9
$DIMSD2
 70
     0
  9
$DIMTOLJ
 70
     0
  9
$DIMTZIN
 70
     8
  9
$DIMALTZ
 70
     0
  9
$DIMALTTZ
 70
     0
  9
$DIMFIT
 70
     3
  9
$DIMUPT
 70
     0
  9
$DIMUNIT
 70
     2
  9
$DIMDEC
 70
     2
  9
$DIMTDEC
 70
     2
  9
$DIMALTU
 70
     2
  9
$DIMALTTD
 70
     2
  9
$DIMTXSTY
  7
STANDARD
  9
$DIMAUNIT
 70
     0
  9
$LUNITS
 70
     2
  9
$LUPREC
 70
     2
  9
$SKETCHINC
 40
1.0
  9
$FILLETRAD
 40
5.0
  9
$AUNITS
 70
     0
  9
$AUPREC
 70
     0
  9
$MENU
  1
.
  9
$ELEVATION
 40
0.0
  9
$PELEVATION
 40
0.0
  9
$THICKNESS
 40
0.0
  9
$LIMCHECK
 70
     0
  9
$BLIPMODE
 70
     0
  9
$CHAMFERA
 40
2.5
  9
$CHAMFERB
 40
2.5
  9
$CHAMFERC
 40
20.0
  9
$CHAMFERD
 40
0.0
  9
$SKPOLY
 70
     0
  9
$TDCREATE
 40
2453599.366006042
  9
$TDUPDATE
 40
2453610.448292905
  9
$TDINDWG
 40
0.0426265741
  9
$TDUSRTIMER
 40
0.0426022338
  9
$USRTIMER
 70
     1
  9
$ANGBASE
 50
0.0
  9
$ANGDIR
 70
     0
  9
$PDMODE
 70
     0
  9
$PDSIZE
 40
0.0
  9
$PLINEWID
 40
0.0
  9
$COORDS
 70
     0
  9
$SPLFRAME
 70
     0
  9
$SPLINETYPE
 70
     6
  9
$SPLINESEGS
 70
     8
  9
$ATTDIA
 70
     1
  9
$ATTREQ
 70
     1
  9
$HANDLING
 70
 22529
  9
$HANDSEED
  5
26EA
  9
$SURFTAB1
 70
     6
  9
$SURFTAB2
 70
     6
  9
$SURFTYPE
 70
     6
  9
$SURFU
 70
     6
  9
$SURFV
 70
     6
  9
$UCSNAME
  2

  9
$UCSORG
 10
0.0
 20
0.0
 30
0.0
  9
$UCSXDIR
 10
1.0
 20
0.0
 30
0.0
  9
$UCSYDIR
 10
0.0
 20
1.0
 30
0.0
  9
$PUCSNAME
  2

  9
$PUCSORG
 10
0.0
 20
0.0
 30
0.0
  9
$PUCSXDIR
 10
1.0
 20
0.0
 30
0.0
  9
$PUCSYDIR
 10
0.0
 20
1.0
 30
0.0
  9
$USERI1
 70
     0
  9
$USERI2
 70
     0
  9
$USERI3
 70
     0
  9
$USERI4
 70
     0
  9
$USERI5
 70
     0
  9
$USERR1
 40
0.0
  9
$USERR2
 40
0.0
  9
$USERR3
 40
0.0
  9
$USERR4
 40
0.0
  9
$USERR5
 40
0.0
  9
$WORLDVIEW
 70
     1
  9
$SHADEDGE
 70
     3
  9
$SHADEDIF
 70
    70
  9
$TILEMODE
 70
     1
  9
$MAXACTVP
 70
    64
  9
$PINSBASE
 10
0.0
 20
0.0
 30
0.0
  9
$PLIMCHECK
 70
     0
  9
$PEXTMIN
 10
1.000000000000000E+20
 20
1.000000000000000E+20
 30
1.000000000000000E+20
  9
$PEXTMAX
 10
-1.000000000000000E+20
 20
-1.000000000000000E+20
 30
-1.000000000000000E+20
  9
$PLIMMIN
 10
0.0
 20
0.0
  9
$PLIMMAX
 10
420.0
 20
297.0
  9
$UNITMODE
 70
     0
  9
$VISRETAIN
 70
     1
  9
$PLINEGEN
 70
     0
  9
$PSLTSCALE
 70
     1
  9
$TREEDEPTH
 70
  3020
  9
$PICKSTYLE
 70
     0
  9
$CMLSTYLE
  2
STANDARD
  9
$CMLJUST
 70
     0
  9
$CMLSCALE
 40
20.0
  9
$PROXYGRAPHICS
 70
     1
  9
$MEASUREMENT
 70
     1
  0
ENDSEC
  0
SECTION
  2
CLASSES
  0
CLASS
  1
ACDBDICTIONARYWDFLT
  2
AcDbDictionaryWithDefault
  3
AutoCAD 2000
 90
        0
280
     0
281
     0
  0
CLASS
  1
ACDBPLACEHOLDER
  2
AcDbPlaceHolder
  3
AutoCAD 2000
 90
        0
280
     0
281
     0
  0
CLASS
  1
LAYOUT
  2
AcDbLayout
  3
AutoCAD 2000
 90
        0
280
     0
281
     0
  0
CLASS
  1
ACME_DOCUMENT
  2
AcMeDbDoc
  3
AcMeServices
 90
        0
280
     0
281
     0
  0
CLASS
  1
ACMESCOPE
  2
AcMeScope
  3
AcMeServices
 90
        0
280
     0
281
     0
  0
CLASS
  1
ACMECOMMANDHISTORY
  2
AcMeCommandHistory
  3
AcMeServices
 90
        0
280
     0
281
     0
  0
CLASS
  1
ACIMSYSVARMAN
  2
AcImSysVarManager
  3
AcMeServices
 90
        0
280
     0
281
     0
  0
CLASS
  1
ACIMREALSYSVAR
  2
AcImRealSysVar
  3
AcMeServices
 90
        0
280
     0
281
     0
  0
CLASS
  1
ACIMINTSYSVAR
  2
AcImIntSysVar
  3
AcMeServices
 90
        0
280
     0
281
     0
  0
CLASS
  1
ACMEDRAWINGMAN
  2
AcMeDrawingMan
  3
AcMeServices
 90
        0
280
     0
281
     0
  0
CLASS
  1
ACMEVIEW
  2
AcMeView
  3
AcMeServices
 90
        0
280
     0
281
     0
  0
CLASS
  1
ACDBENTITYCACHE
  2
AcMeEntityCache
  3
AcMeServices
 90
        0
280
     0
281
     0
  0
CLASS
  1
GSMANAGER
  2
AcMeGSManager
  3
AcMeServices
 90
        0
280
     0
281
     0
  0
CLASS
  1
AMDTINTERNALREACTOR
  2
AmdtInternalReactor
  3
AcMeServices
 90
        0
280
     0
281
     0
  0
CLASS
  1
ACMESTATEMGR
  2
AcMeStateMgr
  3
AcMeServices
 90
        0
280
     0
281
     0
  0
CLASS
  1
ACGREFMASTER
  2
AcGrefMaster
  3
AcAttribServices
 90
        0
280
     0
281
     0
  0
CLASS
  1
ACME_DATABASE
  2
AcMeDbDatabase
  3
AcMeServices
 90
        0
280
     0
281
     0
  0
CLASS
  1
ACRFINSADJUSTERMGR
  2
AcRfInsAdjusterMgr
  3
AcMeServices
 90
        0
280
     0
281
     0
  0
CLASS
  1
ACGREFACADMASTER
  2
AcGrefacadMaster
  3
AcGrefServices
 90
        0
280
     0
281
     0
  0
CLASS
  1
AMIMASTER
  2
AmiMaster
  3
AmiServices
 90
        0
280
     0
281
     0
  0
CLASS
  1
AMGSETTINGSOBJ
  2
AmgSettingsObj
  3
"AcadM|Product Description: AutoCAD Mechanical 2000|Company: Autodesk"
 90
        0
280
     0
281
     0
  0
CLASS
  1
ACMDATADICTIONARY
  2
AcmDataDictionary
  3
"AcmSymBB|Product Description: AutoCAD Mechanical 2000|Company: Autodesk"
 90
        0
280
     0
281
     0
  0
CLASS
  1
ACMDATAENTRYBLOCK
  2
AcmDataEntryBlock
  3
"AcmSymBB|Product Description: AutoCAD Mechanical 2000|Company: Autodesk"
 90
        0
280
     0
281
     0
  0
CLASS
  1
ACIMSTRSYSVAR
  2
AcImStrSysVar
  3
AcMeServices
 90
        0
280
     0
281
     0
  0
CLASS
  1
ACMSTANDARDDIN
  2
AcmStandardDIN
  3
"Amdt_StdImp|Product Description: AutoCAD Mechanical 2000|Company: Autodesk"
 90
        0
280
     0
281
     0
  0
CLASS
  1
AMGOBJPROPCFG
  2
AmgObjPropCfg
  3
"AmgLay|Product Description: AutoCAD Mechanical 2000|Company: Autodesk"
 90
        1
280
     0
281
     0
  0
CLASS
  1
AMDTEDGESTANDARDDIN
  2
AmdtEdgeStdDIN
  3
"Amdt_StdImp|Product Description: AutoCAD Mechanical 2000|Company: Autodesk"
 90
        0
280
     0
281
     0
  0
CLASS
  1
ACMSURFSTANDARDDIN
  2
AcmSurfTextStdDIN
  3
"Amdt_StdImp|Product Description: AutoCAD Mechanical 2000|Company: Autodesk"
 90
        0
280
     0
281
     0
  0
CLASS
  1
ACMFCFSTANDARDDIN
  2
AcmFCFStdDIN
  3
"Amdt_StdImp|Product Description: AutoCAD Mechanical 2000|Company: Autodesk"
 90
        0
280
     0
281
     0
  0
CLASS
  1
ACMWELDSTANDARDDIN
  2
AcmWeldingStdDIN
  3
"Amdt_StdImp|Product Description: AutoCAD Mechanical 2000|Company: Autodesk"
 90
        0
280
     0
281
     0
  0
CLASS
  1
ACMIDSTANDARDDIN
  2
AcmIdStdDIN
  3
"Amdt_StdImp|Product Description: AutoCAD Mechanical 2000|Company: Autodesk"
 90
        0
280
     0
281
     0
  0
CLASS
  1
ACMDATUMSTANDARDDIN
  2
AcmDatumStdDIN
  3
"Amdt_StdImp|Product Description: AutoCAD Mechanical 2000|Company: Autodesk"
 90
        0
280
     0
281
     0
  0
CLASS
  1
ACMBOMSTANDARDDIN
  2
AcmBOMStdDIN
  3
"Amdt_StdImp|Product Description: AutoCAD Mechanical 2000|Company: Autodesk"
 90
        0
280
     0
281
     0
  0
CLASS
  1
ACMDETAILSTANDARDDIN
  2
AmdtDetailSymStdDIN
  3
"Amdt_StdImp|Product Description: AutoCAD Mechanical 2000|Company: Autodesk"
 90
        0
280
     0
281
     0
  0
CLASS
  1
ACMSECTIONSTANDARDDIN
  2
AmdtSectionSymStdDIN
  3
"Amdt_StdImp|Product Description: AutoCAD Mechanical 2000|Company: Autodesk"
 90
        0
280
     0
281
     0
  0
CLASS
  1
ACMCENTERLINESTANDARDDIN
  2
AmdtCenterLineStdDIN
  3
"Amdt_StdImp|Product Description: AutoCAD Mechanical 2000|Company: Autodesk"
 90
        0
280
     0
281
     0
  0
CLASS
  1
ACMNOTESTANDARDDIN
  2
AmdtNoteStdDIN
  3
"Amdt_StdImp|Product Description: AutoCAD Mechanical 2000|Company: Autodesk"
 90
        0
280
     0
281
     0
  0
CLASS
  1
ACAMGLAYSTD
  2
AcAmgLayStd
  3
"AcAmgLayStd|Product Description: AutoCAD Mechanical 2000|Company: Autodesk"
 90
        0
280
     0
281
     0
  0
CLASS
  1
ACAMGDIMSTD
  2
AcAmgDimStd
  3
"AcAmgDimStd|Product Description: AutoCAD Mechanical 2000|Company: Autodesk"
 90
        0
280
     0
281
     0
  0
CLASS
  1
ACAMGHOLECHARTSTDDIN
  2
AcAmgHoleChartStdDIN
  3
ACMSYMBB_MODULE_NAME
 90
        0
280
     0
281
     0
  0
CLASS
  1
ACAMGTITLESTD
  2
AcAmgTitleStd
  3
"TITLEAPP"
 90
        0
280
     0
281
     0
  0
CLASS
  1
ACMSTANDARDANSI
  2
AcmStandardANSI
  3
"Amdt_StdImp|Product Description: AutoCAD Mechanical 2000|Company: Autodesk"
 90
        0
280
     0
281
     0
  0
CLASS
  1
ACMSURFSTANDARDANSI
  2
AcmSurfTextStdANSI
  3
"Amdt_StdImp|Product Description: AutoCAD Mechanical 2000|Company: Autodesk"
 90
        0
280
     0
281
     0
  0
CLASS
  1
ACMFCFSTANDARDANSI
  2
AcmFCFStdANSI
  3
"Amdt_StdImp|Product Description: AutoCAD Mechanical 2000|Company: Autodesk"
 90
        0
280
     0
281
     0
  0
CLASS
  1
ACMWELDSTANDARDANSI
  2
AcmWeldingStdANSI
  3
"Amdt_StdImp|Product Description: AutoCAD Mechanical 2000|Company: Autodesk"
 90
        0
280
     0
281
     0
  0
CLASS
  1
ACMIDSTANDARDANSI
  2
AcmIdStdANSI
  3
"Amdt_StdImp|Product Description: AutoCAD Mechanical 2000|Company: Autodesk"
 90
        0
280
     0
281
     0
  0
CLASS
  1
ACMDATUMSTANDARDANSI
  2
AcmDatumStdANSI
  3
"Amdt_StdImp|Product Description: AutoCAD Mechanical 2000|Company: Autodesk"
 90
        0
280
     0
281
     0
  0
CLASS
  1
ACMBOMSTANDARDANSI
  2
AcmBOMStdANSI
  3
"Amdt_StdImp|Product Description: AutoCAD Mechanical 2000|Company: Autodesk"
 90
        0
280
     0
281
     0
  0
CLASS
  1
ACMDETAILSTANDARDANSI
  2
AmdtDetailSymStdANSI
  3
"Amdt_StdImp|Product Description: AutoCAD Mechanical 2000|Company: Autodesk"
 90
        0
280
     0
281
     0
  0
CLASS
  1
ACMSECTIONSTANDARDANSI
  2
AmdtSectionSymStdANSI
  3
"Amdt_StdImp|Product Description: AutoCAD Mechanical 2000|Company: Autodesk"
 90
        0
280
     0
281
     0
  0
CLASS
  1
ACMCENTERLINESTANDARDANSI
  2
AmdtCenterLineStdANSI
  3
"Amdt_StdImp|Product Description: AutoCAD Mechanical 2000|Company: Autodesk"
 90
        0
280
     0
281
     0
  0
CLASS
  1
ACMNOTESTANDARDANSI
  2
AmdtNoteStdANSI
  3
"Amdt_StdImp|Product Description: AutoCAD Mechanical 2000|Company: Autodesk"
 90
        0
280
     0
281
     0
  0
CLASS
  1
ACAMGHOLECHARTSTDANSI
  2
AcAmgHoleChartStdANSI
  3
ACMSYMBB_MODULE_NAME
 90
        0
280
     0
281
     0
  0
CLASS
  1
ACAMGFILTERDAT
  2
AcAmgFilterDat
  3
"AcadM|Product Description: AutoCAD Mechanical 2000|Company: Autodesk"
 90
        0
280
     0
281
     0
  0
CLASS
  1
AMDTFORMULAUPDATEDISPATCHER
  2
AmdtFormulaUpdateDispatcher
  3
AcMeServices
 90
        0
280
     0
281
     0
  0
CLASS
  1
LAYER_INDEX
  2
AcDbLayerIndex
  3
AutoCAD 2000
 90
        0
280
     0
281
     0
  0
CLASS
  1
IDBUFFER
  2
AcDbIdBuffer
  3
AutoCAD 2000
 90
        0
280
     0
281
     0
  0
CLASS
  1
DICTIONARYVAR
  2
AcDbDictionaryVar
  3
AutoCAD 2000
 90
        0
280
     0
281
     0
  0
CLASS
  1
DIMASSOC
  2
AcDbDimAssoc
  3
"AcDbDimAssoc|Product Desc:     AcDim ARX App For Dimension|Company:          Autodesk, Inc.|WEB Address:      www.autodesk.com"
 90
        0
280
     0
281
     0
  0
CLASS
  1
ACMDIMBREAKPERSREACTOR
  2
AcmDimBreakPersReactor
  3
amgDimApp().moduleName()
 90
     1023
280
     0
281
     0
  0
CLASS
  1
ACMSURFSYM
  2
AcmSurfaceTexture
  3
"AcmSymBB|Product Description: AutoCAD Mechanical 2000|Company: Autodesk"
 90
     1023
280
     0
281
     1
  0
CLASS
  1
ACMFCFRAME
  2
AcmFCF
  3
"AcmSymBB|Product Description: AutoCAD Mechanical 2000|Company: Autodesk"
 90
     1023
280
     0
281
     1
  0
CLASS
  1
LONG_TRANSACTION
  2
AcDbLongTransaction
  3
AutoCAD 2000
 90
        0
280
     0
281
     0
  0
CLASS
  1
LWPOLYLINE
  2
AcDbPolyline
  3
AutoCAD 2000
 90
        0
280
     0
281
     1
  0
CLASS
  1
HATCH
  2
AcDbHatch
  3
AutoCAD 2000
 90
        0
280
     0
281
     1
  0
CLASS
  1
XRECORD
  2
AcDbXrecord
  3
AutoCAD 2000
 90
        0
280
     0
281
     0
  0
ENDSEC
  0
SECTION
  2
TABLES
  0
TABLE
  2
VPORT
  5
8
330
0
100
AcDbSymbolTable
 70
     5
  0
VPORT
  5
26C3
330
8
100
AcDbSymbolTableRecord
100
AcDbViewportTableRecord
  2
*ACTIVE
 70
     0
 10
0.0
 20
0.0
 11
1.0
 21
1.0
 12
188.4636674644503
 22
114.2909060568518
 13
0.0
 23
0.0
 14
2.5
 24
2.5
 15
10.0
 25
10.0
 16
0.0
 26
0.0
 36
1.0
 17
0.0
 27
0.0
 37
0.0
 40
369.4485355468069
 41
1.694290976058931
 42
50.0
 43
0.0
 44
0.0
 50
0.0
 51
0.0
 71
     0
 72
 10000
 73
     1
 74
     3
 75
     0
 76
     0
 77
     0
 78
     0
  0
ENDTAB
  0
TABLE
  2
LTYPE
  5
5
330
0
100
AcDbSymbolTable
 70
    16
  0
LTYPE
  5
14
330
5
100
AcDbSymbolTableRecord
100
AcDbLinetypeTableRecord
  2
BYBLOCK
 70
     0
  3

 72
    65
 73
     0
 40
0.0
  0
LTYPE
  5
15
330
5
100
AcDbSymbolTableRecord
100
AcDbLinetypeTableRecord
  2
BYLAYER
 70
     0
  3

 72
    65
 73
     0
 40
0.0
  0
LTYPE
  5
16
330
5
100
AcDbSymbolTableRecord
100
AcDbLinetypeTableRecord
  2
CONTINUOUS
 70
     0
  3
Solid line
 72
    65
 73
     0
 40
0.0
  0
LTYPE
  5
50
330
5
100
AcDbSymbolTableRecord
100
AcDbLinetypeTableRecord
  2
AMCONSTR
 70
     0
  3
_______________________
 72
    65
 73
     2
 40
9999.0
 49
9999.0
 74
     0
 49
0.0
 74
     0
  0
LTYPE
  5
55
330
5
100
AcDbSymbolTableRecord
100
AcDbLinetypeTableRecord
  2
AMZIGZAG
 70
     0
  3
/\/-/\/-/\/-/\/-/\/-/\/
 72
    65
 73
     2
 40
11.00009999999999
 49
0.0001
 74
     4
 75
   135
340
54
 46
0.04
 50
0.0
 44
0.0
 45
0.0
 49
-11.0
 74
     0
  0
LTYPE
  5
56
330
5
100
AcDbSymbolTableRecord
100
AcDbLinetypeTableRecord
  2
AM_DIN_F_W050
 70
     0
  3
__ __ __ __ __ __ __ __ __ __ __ __ __ __ __
 72
    65
 73
     2
 40
6.25
 49
4.75
 74
     0
 49
-1.5
 74
     0
  0
LTYPE
  5
57
330
5
100
AcDbSymbolTableRecord
100
AcDbLinetypeTableRecord
  2
AM_DIN_G_W050
 70
     0
  3
____ . ____ . ____ . ____ . ____ . ____ . ____
 72
    65
 73
     4
 40
13.75
 49
9.75
 74
     0
 49
-1.5
 74
     0
 49
1.0
 74
     0
 49
-1.5
 74
     0
  0
LTYPE
  5
58
330
5
100
AcDbSymbolTableRecord
100
AcDbLinetypeTableRecord
  2
AM_DIN_K_W050
 70
     0
  3
_____ . . _____ . . _____ . . ____ .. ____
 72
    65
 73
     6
 40
16.25
 49
9.75
 74
     0
 49
-1.5
 74
     0
 49
1.0
 74
     0
 49
-1.5
 74
     0
 49
1.0
 74
     0
 49
-1.5
 74
     0
  0
LTYPE
  5
59
330
5
100
AcDbSymbolTableRecord
100
AcDbLinetypeTableRecord
  2
AM_DIN_G_W050X2
 70
     0
  3
__ . __ . __ . __ . __ . __
 72
    65
 73
     4
 40
6.875
 49
4.75
 74
     0
 49
-0.875
 74
     0
 49
0.375
 74
     0
 49
-0.875
 74
     0
  0
LTYPE
  5
5A
330
5
100
AcDbSymbolTableRecord
100
AcDbLinetypeTableRecord
  2
AM_DIN_F_W050X2
 70
     0
  3
 _ _ _ _ _ _ _ _ _ _ _ _
 72
    65
 73
     2
 40
3.125
 49
2.25
 74
     0
 49
-0.875
 74
     0
  0
LTYPE
  5
68
330
5
100
AcDbSymbolTableRecord
100
AcDbLinetypeTableRecord
  2
ACDINWELD
 70
     0
  3
_ _ _ _ _
 72
    65
 73
     2
 40
2.0
 49
2.0
 74
     0
 49
-1.0
 74
     0
  0
LTYPE
  5
69
330
5
100
AcDbSymbolTableRecord
100
AcDbLinetypeTableRecord
  2
ACDINTGB
 70
     0
  3
__ . . __ . .
 72
    65
 73
     6
 40
9.0
 49
4.0
 74
     0
 49
-1.0
 74
     0
 49
1.0
 74
     0
 49
-1.0
 74
     0
 49
1.0
 74
     0
 49
-1.0
 74
     0
  0
LTYPE
  5
6A
330
5
100
AcDbSymbolTableRecord
100
AcDbLinetypeTableRecord
  2
ACDINTGL
 70
     0
  3
_ _ _ _ _
 72
    65
 73
     2
 40
3.0
 49
2.0
 74
     0
 49
-1.0
 74
     0
  0
LTYPE
  5
6C
330
5
100
AcDbSymbolTableRecord
100
AcDbLinetypeTableRecord
  2
CENTER
 70
     0
  3
__ . __
 72
    65
 73
     4
 40
7.0
 49
4.0
 74
     0
 49
-1.0
 74
     0
 49
1.0
 74
     0
 49
-1.0
 74
     0
  0
LTYPE
  5
2027
330
5
100
AcDbSymbolTableRecord
100
AcDbLinetypeTableRecord
  2
PHANTOM2
 70
     0
  3
Phantom (.5x) ___ _ _ ___ _ _ ___ _ _ ___ _ _
 72
    65
 73
     6
 40
1.25
 49
0.625
 74
     0
 49
-0.125
 74
     0
 49
0.125
 74
     0
 49
-0.125
 74
     0
 49
0.125
 74
     0
 49
-0.125
 74
     0
  0
LTYPE
  5
2028
330
5
100
AcDbSymbolTableRecord
100
AcDbLinetypeTableRecord
  2
ACANSTGB
 70
     0
  3
__ . . __ . .
 72
    65
 73
     6
 40
0.35433070866
 49
0.15748031496
 74
     0
 49
-0.03937007874
 74
     0
 49
0.03937007874
 74
     0
 49
-0.03937007874
 74
     0
 49
0.03937007874
 74
     0
 49
-0.03937007874
 74
     0
  0
LTYPE
  5
2029
330
5
100
AcDbSymbolTableRecord
100
AcDbLinetypeTableRecord
  2
ACANSTGL
 70
     0
  3
_ _ _ _ _
 72
    65
 73
     2
 40
0.11811023622
 49
0.07874015748
 74
     0
 49
-0.03937007874
 74
     0
  0
LTYPE
  5
202A
330
5
100
AcDbSymbolTableRecord
100
AcDbLinetypeTableRecord
  2
DASHED
 70
     0
  3
__ __ __ __ __ __ __ __ __ __ __ __ __ __ __ __
 72
    65
 73
     2
 40
19.05
 49
12.7
 74
     0
 49
-6.349999999999998
 74
     0
  0
ENDTAB
  0
TABLE
  2
LAYER
  5
2
330
0
100
AcDbSymbolTable
 70
    11
  0
LAYER
  5
10
330
2
100
AcDbSymbolTableRecord
100
AcDbLayerTableRecord
  2
0
 70
     0
 62
     7
  6
CONTINUOUS
  0
LAYER
  5
263
330
2
100
AcDbSymbolTableRecord
100
AcDbLayerTableRecord
  2
DEFPOINTS
 70
     0
 62
     7
  6
CONTINUOUS
  0
LAYER
  5
202B
330
2
100
AcDbSymbolTableRecord
100
AcDbLayerTableRecord
  2
1
 70
     0
 62
     4
  6
CONTINUOUS
  0
LAYER
  5
202C
330
2
100
AcDbSymbolTableRecord
100
AcDbLayerTableRecord
  2
2
 70
     0
 62
     7
  6
CONTINUOUS
  0
LAYER
  5
202D
330
2
100
AcDbSymbolTableRecord
100
AcDbLayerTableRecord
  2
4
 70
     0
 62
     2
  6
CENTER
  0
LAYER
  5
202E
330
2
100
AcDbSymbolTableRecord
100
AcDbLayerTableRecord
  2
6
 70
     0
 62
     5
  6
CONTINUOUS
  0
LAYER
  5
202F
330
2
100
AcDbSymbolTableRecord
100
AcDbLayerTableRecord
  2
SK1
 70
     0
 62
     4
  6
CONTINUOUS
  0
LAYER
  5
2030
330
2
100
AcDbSymbolTableRecord
100
AcDbLayerTableRecord
  2
SK2
 70
     0
 62
     7
  6
CONTINUOUS
  0
LAYER
  5
2031
330
2
100
AcDbSymbolTableRecord
100
AcDbLayerTableRecord
  2
SK3
 70
     0
 62
     1
  6
DASHED
  0
LAYER
  5
2032
330
2
100
AcDbSymbolTableRecord
100
AcDbLayerTableRecord
  2
CUT
 70
     0
 62
     1
  6
CONTINUOUS
  0
LAYER
  5
2033
330
2
100
AcDbSymbolTableRecord
100
AcDbLayerTableRecord
  2
NOCUT
 70
     0
 62
     7
  6
CONTINUOUS
  0
ENDTAB
  0
TABLE
  2
STYLE
  5
3
330
0
100
AcDbSymbolTable
 70
     6
  0
STYLE
  5
11
330
3
100
AcDbSymbolTableRecord
100
AcDbTextStyleTableRecord
  2
STANDARD
 70
     0
 40
0.0
 41
1.0
 50
0.0
 71
     0
 42
2.5
  3
ISOCP.SHX
  4

  0
STYLE
  5
54
330
3
100
AcDbSymbolTableRecord
100
AcDbTextStyleTableRecord
  2

 70
     1
 40
0.0
 41
1.0
 50
0.0
 71
     0
 42
2.5
  3
ltypeshp.shx
  4

  0
STYLE
  5
5B
330
3
100
AcDbSymbolTableRecord
100
AcDbTextStyleTableRecord
  2
ACDINTS
 70
     0
 40
1.0
 41
1.0
 50
0.0
 71
     0
 42
2.5
  3
isocp.shx
  4

  0
STYLE
  5
67
330
3
100
AcDbSymbolTableRecord
100
AcDbTextStyleTableRecord
  2
ACDINGDT
 70
     0
 40
0.0
 41
1.0
 50
0.0
 71
     0
 42
2.5
  3
amgdt.shx
  4

  0
STYLE
  5
2034
330
3
100
AcDbSymbolTableRecord
100
AcDbTextStyleTableRecord
  2
ACANSTS
 70
     0
 40
1.0
 41
1.0
 50
0.0
 71
     0
 42
0.2
  3
romans.shx
  4

  0
STYLE
  5
2035
330
3
100
AcDbSymbolTableRecord
100
AcDbTextStyleTableRecord
  2
ACANSGDT
 70
     0
 40
0.0
 41
1.0
 50
0.0
 71
     0
 42
0.2
  3
amgdtans.shx
  4

  0
ENDTAB
  0
TABLE
  2
VIEW
  5
6
330
0
100
AcDbSymbolTable
 70
     0
  0
ENDTAB
  0
TABLE
  2
UCS
  5
7
330
0
100
AcDbSymbolTable
 70
     0
  0
ENDTAB
  0
TABLE
  2
APPID
  5
9
330
0
100
AcDbSymbolTable
 70
    54
  0
APPID
  5
12
330
9
100
AcDbSymbolTableRecord
100
AcDbRegAppTableRecord
  2
ACAD
 70
     0
  0
APPID
  5
2C
330
9
100
AcDbSymbolTableRecord
100
AcDbRegAppTableRecord
  2
MCAD_NO_VIS
 70
     0
  0
APPID
  5
2D
330
9
100
AcDbSymbolTableRecord
100
AcDbRegAppTableRecord
  2
ACAD_TEMP_GRAPHIC
 70
     0
  0
APPID
  5
3E
330
9
100
AcDbSymbolTableRecord
100
AcDbRegAppTableRecord
  2
ACATTRIBSERVICES
 70
     0
  0
APPID
  5
29A
330
9
100
AcDbSymbolTableRecord
100
AcDbRegAppTableRecord
  2
GENIUS_GENDIMSH_14
 70
     0
  0
APPID
  5
588
330
9
100
AcDbSymbolTableRecord
100
AcDbRegAppTableRecord
  2
GENIUS12
 70
     0
  0
APPID
  5
589
330
9
100
AcDbSymbolTableRecord
100
AcDbRegAppTableRecord
  2
GENIUS_GENOENT_13
 70
     0
  0
APPID
  5
58A
330
9
100
AcDbSymbolTableRecord
100
AcDbRegAppTableRecord
  2
GENIUS_GENODEF_13
 70
     0
  0
APPID
  5
58B
330
9
100
AcDbSymbolTableRecord
100
AcDbRegAppTableRecord
  2
GENIUS_GENOBJ-N-RSBK_13
 70
     0
  0
APPID
  5
58C
330
9
100
AcDbSymbolTableRecord
100
AcDbRegAppTableRecord
  2
GENIUS_GENOBJ-N-DIM12_13
 70
     0
  0
APPID
  5
58D
330
9
100
AcDbSymbolTableRecord
100
AcDbRegAppTableRecord
  2
GENIUS_GENSCALE_13
 70
     0
  0
APPID
  5
58E
330
9
100
AcDbSymbolTableRecord
100
AcDbRegAppTableRecord
  2
GENIUS_GENCFG_13
 70
     0
  0
APPID
  5
58F
330
9
100
AcDbSymbolTableRecord
100
AcDbRegAppTableRecord
  2
GENIUS_GENCFG0_13
 70
     0
  0
APPID
  5
590
330
9
100
AcDbSymbolTableRecord
100
AcDbRegAppTableRecord
  2
GENIUS_GENCFG1_13
 70
     0
  0
APPID
  5
591
330
9
100
AcDbSymbolTableRecord
100
AcDbRegAppTableRecord
  2
GENIUS_GENCFG2_13
 70
     0
  0
APPID
  5
592
330
9
100
AcDbSymbolTableRecord
100
AcDbRegAppTableRecord
  2
GENIUS_GENCFG3_13
 70
     0
  0
APPID
  5
593
330
9
100
AcDbSymbolTableRecord
100
AcDbRegAppTableRecord
  2
GENIUS_GENCFG4_13
 70
     0
  0
APPID
  5
594
330
9
100
AcDbSymbolTableRecord
100
AcDbRegAppTableRecord
  2
GENIUS_GEVCFG0_13
 70
     0
  0
APPID
  5
595
330
9
100
AcDbSymbolTableRecord
100
AcDbRegAppTableRecord
  2
GENIUS_GENOBJ-F-SUF_13
 70
     0
  0
APPID
  5
596
330
9
100
AcDbSymbolTableRecord
100
AcDbRegAppTableRecord
  2
GENIUS_GEFCFG0_13
 70
     0
  0
APPID
  5
597
330
9
100
AcDbSymbolTableRecord
100
AcDbRegAppTableRecord
  2
GEV_VCCNULL_SWITCH_OFF
 70
     0
  0
APPID
  5
598
330
9
100
AcDbSymbolTableRecord
100
AcDbRegAppTableRecord
  2
GENIUS_GENDTOL_13
 70
     0
  0
APPID
  5
599
330
9
100
AcDbSymbolTableRecord
100
AcDbRegAppTableRecord
  2
GENIUS_GENDIM_13
 70
     0
  0
APPID
  5
59A
330
9
100
AcDbSymbolTableRecord
100
AcDbRegAppTableRecord
  2
GENIUS_GE3DTOL_13
 70
     0
  0
APPID
  5
59B
330
9
100
AcDbSymbolTableRecord
100
AcDbRegAppTableRecord
  2
AD_DRAW
 70
     0
  0
APPID
  5
59C
330
9
100
AcDbSymbolTableRecord
100
AcDbRegAppTableRecord
  2
ASURF_PCURVE_APPNAME
 70
     0
  0
APPID
  5
59D
330
9
100
AcDbSymbolTableRecord
100
AcDbRegAppTableRecord
  2
AMG_3D2D_5_0
 70
     0
  0
APPID
  5
59E
330
9
100
AcDbSymbolTableRecord
100
AcDbRegAppTableRecord
  2
DESIGNERASSEMBLIES
 70
     0
  0
APPID
  5
59F
330
9
100
AcDbSymbolTableRecord
100
AcDbRegAppTableRecord
  2
ACADM_DIM_EDIT
 70
     0
  0
APPID
  5
5A0
330
9
100
AcDbSymbolTableRecord
100
AcDbRegAppTableRecord
  2
AMDT_DM_ADJ
 70
     0
  0
APPID
  5
5A1
330
9
100
AcDbSymbolTableRecord
100
AcDbRegAppTableRecord
  2
GENIUS_GENSCREG_15
 70
     0
  0
APPID
  5
5A2
330
9
100
AcDbSymbolTableRecord
100
AcDbRegAppTableRecord
  2
GENIUS_GENOBJ-N-SDF_13
 70
     0
  0
APPID
  5
6E4
330
9
100
AcDbSymbolTableRecord
100
AcDbRegAppTableRecord
  2
GENIUS_GENOBJ-N-FIL_13
 70
     0
  0
APPID
  5
C65
330
9
100
AcDbSymbolTableRecord
100
AcDbRegAppTableRecord
  2
GENIUS_GENHINW_13
 70
     0
  0
APPID
  5
C66
330
9
100
AcDbSymbolTableRecord
100
AcDbRegAppTableRecord
  2
GENIUS_GENOBJ-F-TOLL_13
 70
     0
  0
APPID
  5
C67
330
9
100
AcDbSymbolTableRecord
100
AcDbRegAppTableRecord
  2
GENIUS_GENOREF_13
 70
     0
  0
APPID
  5
C68
330
9
100
AcDbSymbolTableRecord
100
AcDbRegAppTableRecord
  2
GENIUS_GENOLIS_13
 70
     0
  0
APPID
  5
C69
330
9
100
AcDbSymbolTableRecord
100
AcDbRegAppTableRecord
  2
GENIUS_GEFTOLC_13
 70
     0
  0
APPID
  5
C6A
330
9
100
AcDbSymbolTableRecord
100
AcDbRegAppTableRecord
  2
GENIUS_GENOBJ-F-TOL_13
 70
     0
  0
APPID
  5
C6B
330
9
100
AcDbSymbolTableRecord
100
AcDbRegAppTableRecord
  2
GENIUS_GENOBJ-N-RSSYM_13
 70
     0
  0
APPID
  5
C6C
330
9
100
AcDbSymbolTableRecord
100
AcDbRegAppTableRecord
  2
GENIUS_GENSYMENT_13
 70
     0
  0
APPID
  5
C6D
330
9
100
AcDbSymbolTableRecord
100
AcDbRegAppTableRecord
  2
GENIUS_GENSCSYM_13
 70
     0
  0
APPID
  5
203D
330
9
100
AcDbSymbolTableRecord
100
AcDbRegAppTableRecord
  2
GENIUS_GENBLLY_14
 70
     0
  0
APPID
  5
203E
330
9
100
AcDbSymbolTableRecord
100
AcDbRegAppTableRecord
  2
GENIUS_GENTRA_14
 70
     0
  0
APPID
  5
203F
330
9
100
AcDbSymbolTableRecord
100
AcDbRegAppTableRecord
  2
GENIUS_GENOBJ-N-TIT_13
 70
     0
  0
APPID
  5
2040
330
9
100
AcDbSymbolTableRecord
100
AcDbRegAppTableRecord
  2
GENIUS_GENTITLE_13
 70
     0
  0
APPID
  5
2041
330
9
100
AcDbSymbolTableRecord
100
AcDbRegAppTableRecord
  2
ACADIGES
 70
     0
  0
APPID
  5
2042
330
9
100
AcDbSymbolTableRecord
100
AcDbRegAppTableRecord
  2
GENIUS_GENOBJ-N-HTC_13
 70
     0
  0
APPID
  5
2043
330
9
100
AcDbSymbolTableRecord
100
AcDbRegAppTableRecord
  2
GENIUS_GENHATCH_13
 70
     0
  0
APPID
  5
2044
330
9
100
AcDbSymbolTableRecord
100
AcDbRegAppTableRecord
  2
GENIUS_GENOBJ-N-CRS_13
 70
     0
  0
APPID
  5
2045
330
9
100
AcDbSymbolTableRecord
100
AcDbRegAppTableRecord
  2
GENIUS_GENFIL_13
 70
     0
  0
APPID
  5
2046
330
9
100
AcDbSymbolTableRecord
100
AcDbRegAppTableRecord
  2
GENIUS_GENOBJ-N-CHA_13
 70
     0
  0
APPID
  5
2047
330
9
100
AcDbSymbolTableRecord
100
AcDbRegAppTableRecord
  2
GENIUS_GENOBJ-N-CEN_13
 70
     0
  0
APPID
  5
2048
330
9
100
AcDbSymbolTableRecord
100
AcDbRegAppTableRecord
  2
AD_SKETCHDIM
 70
     0
  0
ENDTAB
  0
TABLE
  2
DIMSTYLE
  5
A
330
0
100
AcDbSymbolTable
 70
    14
  0
DIMSTYLE
105
6F
102
{ACAD_REACTORS
330
1A04
330
222A
330
23A7
330
23E9
330
264B
102
}
330
A
100
AcDbSymbolTableRecord
100
AcDbDimStyleTableRecord
  2
AM_DIN
 70
     0
  3

  4
"
  5

  6

  7

 40
1.0
 41
2.5
 42
0.0
 43
10.0
 44
1.0
 45
0.0
 46
0.0
 47
0.1
 48
0.1
140
3.5
141
0.0
142
0.0
143
0.0393701
144
1.0
145
0.0
146
0.71
147
1.5
 71
     0
 72
     0
 73
     0
 74
     0
 75
     0
 76
     0
 77
     1
 78
     8
170
     0
171
     2
172
     1
173
     0
174
     0
175
     0
176
   256
177
   256
178
     2
270
     2
271
     2
272
     2
273
     2
274
     2
340
11
275
     0
280
     0
281
     0
282
     0
283
     0
284
     8
285
     0
286
     0
287
     3
288
     0
  0
DIMSTYLE
105
70
330
A
100
AcDbSymbolTableRecord
100
AcDbDimStyleTableRecord
  2
AM_DIN$3
 70
     0
  3

  4
"
  5

  6

  7

 40
1.0
 41
3.5
 42
0.0
 43
10.0
 44
1.0
 45
0.0
 46
0.0
 47
0.1
 48
0.1
140
3.5
141
0.0
142
0.0
143
0.0393701
144
1.0
145
0.0
146
0.71
147
1.5
 71
     0
 72
     0
 73
     0
 74
     1
 75
     0
 76
     0
 77
     1
 78
     8
170
     0
171
     2
172
     0
173
     0
174
     0
175
     0
176
   256
177
   256
178
     2
270
     2
271
     2
272
     2
273
     2
274
     2
340
11
275
     0
280
     0
281
     0
282
     0
283
     0
284
     8
285
     0
286
     0
287
     0
288
     1
  0
DIMSTYLE
105
71
330
A
100
AcDbSymbolTableRecord
100
AcDbDimStyleTableRecord
  2
AM_DIN$4
 70
     0
  3

  4
"
  5

  6

  7

 40
1.0
 41
3.5
 42
0.0
 43
10.0
 44
1.0
 45
0.0
 46
0.0
 47
0.1
 48
0.1
140
3.5
141
0.0
142
0.0
143
0.0393701
144
1.0
145
0.0
146
0.71
147
1.5
 71
     0
 72
     0
 73
     0
 74
     1
 75
     0
 76
     0
 77
     1
 78
     8
170
     0
171
     2
172
     0
173
     0
174
     0
175
     0
176
   256
177
   256
178
     2
270
     2
271
     2
272
     2
273
     2
274
     2
340
11
275
     0
280
     0
281
     0
282
     0
283
     0
284
     8
285
     0
286
     0
287
     0
288
     1
  0
DIMSTYLE
105
72
330
A
100
AcDbSymbolTableRecord
100
AcDbDimStyleTableRecord
  2
AM_DIN$6
 70
     0
  3

  4
"
  5

  6

  7

 40
1.0
 41
3.5
 42
0.0
 43
0.0
 44
1.0
 45
0.0
 46
0.0
 47
0.1
 48
0.1
140
3.5
141
0.0
142
0.0
143
0.0393701
144
1.0
145
0.0
146
0.71
147
1.5
 71
     0
 72
     0
 73
     0
 74
     0
 75
     0
 76
     0
 77
     0
 78
     8
170
     0
171
     2
172
     1
173
     0
174
     0
175
     0
176
   256
177
   256
178
     2
270
     2
271
     2
272
     2
273
     2
274
     2
340
11
275
     0
280
     0
281
     0
282
     0
283
     0
284
     8
285
     0
286
     0
287
     3
288
     0
  0
DIMSTYLE
105
73
330
A
100
AcDbSymbolTableRecord
100
AcDbDimStyleTableRecord
  2
AM_DIN$7
 70
     0
  3

  4
"
  5

  6

  7

 40
1.0
 41
3.5
 42
0.0
 43
10.0
 44
1.0
 45
0.0
 46
0.0
 47
0.1
 48
0.1
140
3.5
141
0.0
142
0.0
143
0.0393701
144
1.0
145
0.0
146
0.71
147
1.5
 71
     0
 72
     0
 73
     0
 74
     0
 75
     0
 76
     0
 77
     1
 78
     8
170
     0
171
     2
172
     1
173
     0
174
     0
175
     0
176
   256
177
   256
178
     2
270
     2
271
     2
272
     2
273
     2
274
     2
340
11
275
     0
280
     0
281
     0
282
     0
283
     0
284
     8
285
     0
286
     0
287
     3
288
     0
  0
DIMSTYLE
105
74
330
A
100
AcDbSymbolTableRecord
100
AcDbDimStyleTableRecord
  2
AM_DIN$SF
 70
     0
  3

  4
"
  5

  6

  7

 40
1.0
 41
2.5
 42
1.0
 43
10.0
 44
1.0
 45
0.0
 46
0.0
 47
0.1
 48
0.1
140
3.5
141
0.0
142
0.0
143
0.0393701
144
1.0
145
0.0
146
0.71
147
1.5
 71
     0
 72
     0
 73
     0
 74
     0
 75
     1
 76
     1
 77
     1
 78
     8
170
     0
171
     2
172
     1
173
     0
174
     0
175
     0
176
   256
177
   256
178
     2
270
     2
271
     2
272
     3
273
     2
274
     4
340
11
275
     0
280
     0
281
     0
282
     0
283
     0
284
     8
285
     0
286
     0
287
     3
288
     0
  0
DIMSTYLE
105
79
330
A
100
AcDbSymbolTableRecord
100
AcDbDimStyleTableRecord
  2
AM_DIN$SH
 70
     0
  3

  4
"
  5

  6
GENAXEH
  7

 40
1.0
 41
2.5
 42
1.0
 43
10.0
 44
1.0
 45
0.0
 46
0.0
 47
0.1
 48
0.1
140
3.5
141
0.0
142
0.0
143
0.0393701
144
2.0
145
0.0
146
0.71
147
1.5
 71
     0
 72
     0
 73
     0
 74
     0
 75
     1
 76
     1
 77
     1
 78
     8
170
     0
171
     2
172
     1
173
     1
174
     0
175
     0
176
   256
177
   256
178
     2
270
     2
271
     2
272
     3
273
     2
274
     4
340
11
275
     0
280
     0
281
     0
282
     0
283
     0
284
     8
285
     0
286
     0
287
     3
288
     0
  0
DIMSTYLE
105
2036
330
A
100
AcDbSymbolTableRecord
100
AcDbDimStyleTableRecord
  2
STANDARD
 70
     0
  3

  4

  5

  6

  7

 40
1.0
 41
0.18
 42
0.0625
 43
0.38
 44
0.18
 45
0.0
 46
0.0
 47
0.0
 48
0.0
140
0.18
141
0.09
142
0.0
143
25.4
144
1.0
145
0.0
146
1.0
147
0.09
 71
     0
 72
     0
 73
     1
 74
     1
 75
     0
 76
     0
 77
     0
 78
     0
170
     0
171
     2
172
     0
173
     0
174
     0
175
     0
176
     0
177
     0
178
     0
270
     2
271
     2
272
     2
273
     2
274
     2
340
11
275
     0
280
     0
281
     0
282
     0
283
     1
284
     8
285
     8
286
     8
287
     5
288
     0
  0
DIMSTYLE
105
2037
330
A
100
AcDbSymbolTableRecord
100
AcDbDimStyleTableRecord
  2
AM_ANSI
 70
     0
  3

  4
mm
  5

  6

  7

 40
1.0
 41
0.1
 42
0.0
 43
0.5
 44
0.1
 45
0.0
 46
0.0
 47
0.1
 48
0.1
140
0.12
141
0.0
142
0.0
143
25.4
144
1.0
145
0.0
146
0.71
147
0.06
 71
     0
 72
     0
 73
     1
 74
     1
 75
     0
 76
     0
 77
     0
 78
     7
170
     0
171
     2
172
     0
173
     0
174
     0
175
     0
176
   256
177
   256
178
     2
270
     2
271
     2
272
     2
273
     2
274
     2
340
11
275
     0
280
     0
281
     0
282
     0
283
     1
284
     8
285
     8
286
     8
287
     5
288
     0
  0
DIMSTYLE
105
2038
330
A
100
AcDbSymbolTableRecord
100
AcDbDimStyleTableRecord
  2
AM_ANSI$3
 70
     0
  3

  4
mm
  5

  6

  7

 40
1.0
 41
0.1
 42
0.0
 43
0.5
 44
0.1
 45
0.0
 46
0.0
 47
0.1
 48
0.1
140
0.12
141
0.0
142
0.0
143
25.4
144
1.0
145
0.0
146
0.71
147
0.06
 71
     0
 72
     0
 73
     1
 74
     1
 75
     0
 76
     0
 77
     0
 78
     7
170
     0
171
     2
172
     0
173
     0
174
     0
175
     0
176
   256
177
   256
178
     2
270
     2
271
     2
272
     2
273
     2
274
     2
340
11
275
     0
280
     0
281
     0
282
     0
283
     1
284
     8
285
     8
286
     8
287
     5
288
     0
  0
DIMSTYLE
105
2039
330
A
100
AcDbSymbolTableRecord
100
AcDbDimStyleTableRecord
  2
AM_ANSI$4
 70
     0
  3

  4
mm
  5

  6

  7

 40
1.0
 41
0.1
 42
0.0
 43
0.5
 44
0.1
 45
0.0
 46
0.0
 47
0.1
 48
0.1
140
0.12
141
0.0
142
0.0
143
25.4
144
1.0
145
0.0
146
0.71
147
0.06
 71
     0
 72
     0
 73
     1
 74
     1
 75
     0
 76
     0
 77
     0
 78
     7
170
     0
171
     2
172
     0
173
     0
174
     0
175
     0
176
   256
177
   256
178
     2
270
     2
271
     2
272
     2
273
     2
274
     2
340
11
275
     0
280
     0
281
     0
282
     0
283
     1
284
     8
285
     8
286
     8
287
     5
288
     0
  0
DIMSTYLE
105
203A
330
A
100
AcDbSymbolTableRecord
100
AcDbDimStyleTableRecord
  2
AM_ANSI$7
 70
     0
  3

  4
mm
  5

  6

  7

 40
1.0
 41
0.1
 42
0.0
 43
0.5
 44
0.1
 45
0.0
 46
0.0
 47
0.1
 48
0.1
140
0.24
141
0.0
142
0.0
143
25.4
144
1.0
145
0.0
146
0.71
147
0.06
 71
     0
 72
     0
 73
     1
 74
     1
 75
     0
 76
     0
 77
     0
 78
     7
170
     0
171
     2
172
     0
173
     0
174
     0
175
     0
176
   256
177
   256
178
     2
270
     2
271
     2
272
     2
273
     2
274
     2
340
11
275
     0
280
     0
281
     0
282
     0
283
     1
284
     8
285
     8
286
     8
287
     5
288
     0
  0
DIMSTYLE
105
203B
330
A
100
AcDbSymbolTableRecord
100
AcDbDimStyleTableRecord
  2
AM_ANSI$SF
 70
     0
  3

  4
mm
  5

  6

  7

 40
1.0
 41
0.1
 42
0.05
 43
0.5
 44
0.1
 45
0.0
 46
0.0
 47
0.1
 48
0.1
140
0.12
141
0.0
142
0.0
143
25.4
144
1.0
145
0.0
146
0.71
147
0.06
 71
     0
 72
     0
 73
     1
 74
     1
 75
     1
 76
     1
 77
     0
 78
     7
170
     0
171
     2
172
     0
173
     0
174
     0
175
     0
176
   256
177
   256
178
     2
270
     2
271
     2
272
     2
273
     2
274
     2
340
11
275
     0
280
     0
281
     0
282
     0
283
     1
284
     8
285
     8
286
     8
287
     5
288
     0
  0
DIMSTYLE
105
203C
330
A
100
AcDbSymbolTableRecord
100
AcDbDimStyleTableRecord
  2
AM_ANSI$SH
 70
     0
  3

  4
mm
  5

  6

  7

 40
1.0
 41
0.1
 42
0.05
 43
0.5
 44
0.1
 45
0.0
 46
0.0
 47
0.1
 48
0.1
140
0.12
141
0.0
142
0.0
143
25.4
144
1.0
145
0.0
146
0.71
147
0.06
 71
     0
 72
     0
 73
     1
 74
     1
 75
     1
 76
     1
 77
     0
 78
     7
170
     0
171
     2
172
     0
173
     1
174
     0
175
     0
176
   256
177
   256
178
     2
270
     2
271
     2
272
     2
273
     2
274
     2
340
11
275
     0
280
     0
281
     0
282
     0
283
     1
284
     8
285
     8
286
     8
287
     5
288
     0
  0
ENDTAB
  0
TABLE
  2
BLOCK_RECORD
  5
1
330
0
100
AcDbSymbolTable
 70
     7
  0
BLOCK_RECORD
  5
1F
102
{ACAD_XDICTIONARY
360
1F1
102
}
330
1
100
AcDbSymbolTableRecord
100
AcDbBlockTableRecord
  2
*MODEL_SPACE
  0
BLOCK_RECORD
  5
1B
102
{ACAD_XDICTIONARY
360
26E5
102
}
330
1
100
AcDbSymbolTableRecord
100
AcDbBlockTableRecord
  2
*PAPER_SPACE
  0
BLOCK_RECORD
  5
75
330
1
100
AcDbSymbolTableRecord
100
AcDbBlockTableRecord
  2
GENAXEH
  0
BLOCK_RECORD
  5
1A05
330
1
100
AcDbSymbolTableRecord
100
AcDbBlockTableRecord
  2
*D2
  0
BLOCK_RECORD
  5
222B
330
1
100
AcDbSymbolTableRecord
100
AcDbBlockTableRecord
  2
*D3
  0
BLOCK_RECORD
  5
23A8
330
1
100
AcDbSymbolTableRecord
100
AcDbBlockTableRecord
  2
*D4
  0
BLOCK_RECORD
  5
23EA
330
1
100
AcDbSymbolTableRecord
100
AcDbBlockTableRecord
  2
*D5
  0
BLOCK_RECORD
  5
2668
330
1
100
AcDbSymbolTableRecord
100
AcDbBlockTableRecord
  2
*D6
  0
ENDTAB
  0
ENDSEC
  0
SECTION
  2
BLOCKS
  0
BLOCK
  5
20
330
1F
100
AcDbEntity
  8
0
100
AcDbBlockBegin
  2
*MODEL_SPACE
 70
     0
 10
0.0
 20
0.0
 30
0.0
  3
*MODEL_SPACE
  1

  0
ENDBLK
  5
21
330
1F
100
AcDbEntity
  8
0
100
AcDbBlockEnd
  0
BLOCK
  5
1C
330
1B
100
AcDbEntity
 67
     1
  8
0
100
AcDbBlockBegin
  2
*PAPER_SPACE
 70
     0
 10
0.0
 20
0.0
 30
0.0
  3
*PAPER_SPACE
  1

  0
ENDBLK
  5
1D
330
1B
100
AcDbEntity
 67
     1
  8
0
100
AcDbBlockEnd
  0
BLOCK
  5
77
330
75
100
AcDbEntity
  8
0
100
AcDbBlockBegin
  2
GENAXEH
 70
     0
 10
0.0
 20
0.0
 30
0.0
  3
GENAXEH
  1

  0
LINE
  5
76
330
75
100
AcDbEntity
  8
0
100
AcDbLine
 10
-1.0
 20
0.0
 30
0.0
 11
1.0
 21
0.0
 31
0.0
  0
ENDBLK
  5
78
330
75
100
AcDbEntity
  8
0
100
AcDbBlockEnd
  0
BLOCK
  5
1A0F
330
1A05
100
AcDbEntity
  8
0
100
AcDbBlockBegin
  2
*D2
 70
     1
 10
0.0
 20
0.0
 30
0.0
  3
*D2
  1

  0
LINE
  5
232A
330
1A05
100
AcDbEntity
  8
SK2
100
AcDbLine
 10
0.0
 20
-20.00000000000306
 30
0.0
 11
-19.81731907927395
 21
-20.00000000000306
 31
0.0
  0
LINE
  5
232B
330
1A05
100
AcDbEntity
  8
SK2
100
AcDbLine
 10
0.0000000000001137
 20
19.99999999999687
 30
0.0
 11
-19.81731907927394
 21
19.99999999999687
 31
0.0
  0
LINE
  5
232C
330
1A05
100
AcDbEntity
  8
SK2
100
AcDbLine
 10
-18.81731907927395
 20
-17.50000000000306
 30
0.0
 11
-18.81731907927394
 21
17.49999999999687
 31
0.0
  0
SOLID
  5
232D
330
1A05
100
AcDbEntity
  8
SK2
100
AcDbTrace
 10
-19.23398574594061
 20
-17.50000000000306
 30
0.0
 11
-18.40065241260728
 21
-17.50000000000306
 31
0.0
 12
-18.81731907927395
 22
-20.00000000000306
 32
0.0
 13
-18.81731907927395
 23
-20.00000000000306
 33
0.0
  0
SOLID
  5
232E
330
1A05
100
AcDbEntity
  8
SK2
100
AcDbTrace
 10
-19.23398574594061
 20
17.49999999999687
 30
0.0
 11
-18.40065241260727
 21
17.49999999999687
 31
0.0
 12
-18.81731907927394
 22
19.99999999999687
 32
0.0
 13
-18.81731907927394
 23
19.99999999999687
 33
0.0
  0
MTEXT
  5
232F
330
1A05
100
AcDbEntity
  8
SK2
 62
     2
100
AcDbMText
 10
-22.06731907927394
 20
-0.0000000000030964
 30
0.0
 40
3.5
 41
0.0
 71
     5
 72
     1
  1
%%c40
 11
0.0000000000000001
 21
1.0
 31
0.0
1001
ACAD
1000
MTEXTBEGIN
1070
    73
1070
     1
1070
    44
1040
1.0
1070
    74
1070
     0
1000
MTEXTEND
  0
POINT
  5
2330
330
1A05
100
AcDbEntity
  8
DEFPOINTS
 62
     0
100
AcDbPoint
 10
0.0
 20
-20.00000000000306
 30
0.0
  0
POINT
  5
2331
330
1A05
100
AcDbEntity
  8
DEFPOINTS
 62
     0
100
AcDbPoint
 10
0.0000000000001137
 20
19.99999999999687
 30
0.0
  0
POINT
  5
2332
330
1A05
100
AcDbEntity
  8
DEFPOINTS
 62
     0
100
AcDbPoint
 10
-18.81731907927394
 20
19.99999999999687
 30
0.0
  0
ENDBLK
  5
1A10
330
1A05
100
AcDbEntity
  8
0
100
AcDbBlockEnd
  0
BLOCK
  5
2235
330
222B
100
AcDbEntity
  8
0
100
AcDbBlockBegin
  2
*D3
 70
     1
 10
0.0
 20
0.0
 30
0.0
  3
*D3
  1

  0
LINE
  5
2333
330
222B
100
AcDbEntity
  8
2
100
AcDbLine
 10
63.00000000000318
 20
62.5
 30
0.0
 11
104.2643538309627
 21
62.5
 31
0.0
  0
LINE
  5
2334
330
222B
100
AcDbEntity
  8
2
100
AcDbLine
 10
63.00000000000318
 20
-62.5
 30
0.0
 11
104.2643538309627
 21
-62.5
 31
0.0
  0
LINE
  5
2335
330
222B
100
AcDbEntity
  8
2
100
AcDbLine
 10
103.2643538309627
 20
60.0
 30
0.0
 11
103.2643538309627
 21
-60.0
 31
0.0
  0
SOLID
  5
2336
330
222B
100
AcDbEntity
  8
2
100
AcDbTrace
 10
102.847687164296
 20
60.0
 30
0.0
 11
103.6810204976294
 21
60.0
 31
0.0
 12
103.2643538309627
 22
62.5
 32
0.0
 13
103.2643538309627
 23
62.5
 33
0.0
  0
SOLID
  5
2337
330
222B
100
AcDbEntity
  8
2
100
AcDbTrace
 10
102.847687164296
 20
-60.0
 30
0.0
 11
103.6810204976293
 21
-60.0
 31
0.0
 12
103.2643538309627
 22
-62.5
 32
0.0
 13
103.2643538309627
 23
-62.5
 33
0.0
  0
MTEXT
  5
2338
330
222B
100
AcDbEntity
  8
2
 62
     2
100
AcDbMText
 10
100.0140093427737
 20
0.0000000000000083
 30
0.0
 40
3.5
 41
0.0
 71
     5
 72
     1
  1
%%c125
 11
0.0000000000000001
 21
1.0
 31
0.0
1001
ACAD
1000
MTEXTBEGIN
1070
    73
1070
     1
1070
    44
1040
1.0
1070
    74
1070
     0
1000
MTEXTEND
  0
POINT
  5
2339
330
222B
100
AcDbEntity
  8
DEFPOINTS
 62
     0
100
AcDbPoint
 10
63.00000000000318
 20
62.5
 30
0.0
  0
POINT
  5
233A
330
222B
100
AcDbEntity
  8
DEFPOINTS
 62
     0
100
AcDbPoint
 10
63.00000000000318
 20
-62.5
 30
0.0
  0
POINT
  5
233B
330
222B
100
AcDbEntity
  8
DEFPOINTS
 62
     0
100
AcDbPoint
 10
103.2643538309627
 20
-62.5
 30
0.0
  0
ENDBLK
  5
2236
330
222B
100
AcDbEntity
  8
0
100
AcDbBlockEnd
  0
BLOCK
  5
23B2
330
23A8
100
AcDbEntity
  8
0
100
AcDbBlockBegin
  2
*D4
 70
     1
 10
0.0
 20
0.0
 30
0.0
  3
*D4
  1

  0
LINE
  5
23D1
330
23A8
100
AcDbEntity
  8
2
100
AcDbLine
 10
63.00000000000318
 20
62.5
 30
0.0
 11
63.00000000000318
 21
90.99999999999988
 31
0.0
  0
LINE
  5
23D2
330
23A8
100
AcDbEntity
  8
2
100
AcDbLine
 10
0.0000000000000995
 20
47.00000000000012
 30
0.0
 11
0.0000000000001022
 21
90.99999999999988
 31
0.0
  0
LINE
  5
23D3
330
23A8
100
AcDbEntity
  8
2
100
AcDbLine
 10
60.50000000000318
 20
89.99999999999989
 30
0.0
 11
2.500000000000102
 21
89.99999999999989
 31
0.0
  0
SOLID
  5
23D4
330
23A8
100
AcDbEntity
  8
2
100
AcDbTrace
 10
60.50000000000318
 20
90.41666666666655
 30
0.0
 11
60.50000000000318
 21
89.58333333333321
 31
0.0
 12
63.00000000000318
 22
89.99999999999989
 32
0.0
 13
63.00000000000318
 23
89.99999999999989
 33
0.0
  0
SOLID
  5
23D5
330
23A8
100
AcDbEntity
  8
2
100
AcDbTrace
 10
2.500000000000102
 20
90.41666666666655
 30
0.0
 11
2.500000000000102
 21
89.58333333333321
 31
0.0
 12
0.0000000000001021
 22
89.99999999999989
 32
0.0
 13
0.0000000000001021
 23
89.99999999999989
 33
0.0
  0
MTEXT
  5
23D6
330
23A8
100
AcDbEntity
  8
2
 62
     2
100
AcDbMText
 10
31.50000000000164
 20
93.24999999999988
 30
0.0
 40
3.5
 41
0.0
 71
     5
 72
     1
  1
63
1001
ACAD
1000
MTEXTBEGIN
1070
    73
1070
     1
1070
    44
1040
1.0
1070
    74
1070
     0
1000
MTEXTEND
  0
POINT
  5
23D7
330
23A8
100
AcDbEntity
  8
DEFPOINTS
 62
     0
100
AcDbPoint
 10
63.00000000000318
 20
62.5
 30
0.0
  0
POINT
  5
23D8
330
23A8
100
AcDbEntity
  8
DEFPOINTS
 62
     0
100
AcDbPoint
 10
0.0000000000000995
 20
47.00000000000012
 30
0.0
  0
POINT
  5
23D9
330
23A8
100
AcDbEntity
  8
DEFPOINTS
 62
     0
100
AcDbPoint
 10
0.0000000000001021
 20
89.99999999999989
 30
0.0
  0
ENDBLK
  5
23B3
330
23A8
100
AcDbEntity
  8
0
100
AcDbBlockEnd
  0
BLOCK
  5
23F4
330
23EA
100
AcDbEntity
  8
0
100
AcDbBlockBegin
  2
*D5
 70
     1
 10
0.0
 20
0.0
 30
0.0
  3
*D5
  1

  0
LINE
  5
2422
330
23EA
100
AcDbEntity
  8
SK2
100
AcDbLine
 10
3.00000000000012
 20
50.00000000000012
 30
0.0
 11
-39.24130345687557
 21
50.00000000000013
 31
0.0
  0
LINE
  5
2423
330
23EA
100
AcDbEntity
  8
SK2
100
AcDbLine
 10
3.000000000000113
 20
-49.99999999999996
 30
0.0
 11
-39.2413034568756
 21
-49.99999999999996
 31
0.0
  0
LINE
  5
2424
330
23EA
100
AcDbEntity
  8
SK2
100
AcDbLine
 10
-38.24130345687557
 20
47.50000000000013
 30
0.0
 11
-38.24130345687559
 21
-47.49999999999995
 31
0.0
  0
SOLID
  5
2425
330
23EA
100
AcDbEntity
  8
SK2
100
AcDbTrace
 10
-38.65797012354224
 20
47.50000000000013
 30
0.0
 11
-37.82463679020891
 21
47.50000000000013
 31
0.0
 12
-38.24130345687557
 22
50.00000000000013
 32
0.0
 13
-38.24130345687557
 23
50.00000000000013
 33
0.0
  0
SOLID
  5
2426
330
23EA
100
AcDbEntity
  8
SK2
100
AcDbTrace
 10
-38.65797012354225
 20
-47.49999999999995
 30
0.0
 11
-37.82463679020892
 21
-47.49999999999995
 31
0.0
 12
-38.2413034568756
 22
-49.99999999999996
 32
0.0
 13
-38.2413034568756
 23
-49.99999999999996
 33
0.0
  0
MTEXT
  5
2427
330
23EA
100
AcDbEntity
  8
SK2
 62
     2
100
AcDbMText
 10
-41.49130345687559
 20
0.0000000000000809
 30
0.0
 40
3.5
 41
0.0
 71
     5
 72
     1
  1
%%c100
 11
0.0000000000000001
 21
1.0
 31
0.0
1001
ACAD
1000
MTEXTBEGIN
1070
    73
1070
     1
1070
    44
1040
1.0
1070
    74
1070
     0
1000
MTEXTEND
  0
POINT
  5
2428
330
23EA
100
AcDbEntity
  8
DEFPOINTS
 62
     0
100
AcDbPoint
 10
3.00000000000012
 20
50.00000000000012
 30
0.0
  0
POINT
  5
2429
330
23EA
100
AcDbEntity
  8
DEFPOINTS
 62
     0
100
AcDbPoint
 10
3.000000000000113
 20
-49.99999999999996
 30
0.0
  0
POINT
  5
242A
330
23EA
100
AcDbEntity
  8
DEFPOINTS
 62
     0
100
AcDbPoint
 10
-38.2413034568756
 20
-49.99999999999996
 30
0.0
  0
ENDBLK
  5
23F5
330
23EA
100
AcDbEntity
  8
0
100
AcDbBlockEnd
  0
BLOCK
  5
2672
330
2668
100
AcDbEntity
  8
0
100
AcDbBlockBegin
  2
*D6
 70
     1
 10
0.0
 20
0.0
 30
0.0
  3
*D6
  1

  0
LINE
  5
26A5
330
2668
100
AcDbEntity
  8
2
100
AcDbLine
 10
50.50000000000318
 20
62.49999999999995
 30
0.0
 11
50.50000000000318
 21
75.99999999999988
 31
0.0
  0
LINE
  5
26A6
330
2668
100
AcDbEntity
  8
2
100
AcDbLine
 10
63.00000000000318
 20
63.2288656565832
 30
0.0
 11
63.00000000000318
 21
75.99999999999988
 31
0.0
  0
LINE
  5
26A7
330
2668
100
AcDbEntity
  8
2
100
AcDbLine
 10
53.00000000000318
 20
74.99999999999989
 30
0.0
 11
60.50000000000318
 21
74.99999999999989
 31
0.0
  0
SOLID
  5
26A8
330
2668
100
AcDbEntity
  8
2
100
AcDbTrace
 10
53.00000000000318
 20
75.41666666666656
 30
0.0
 11
53.00000000000318
 21
74.58333333333321
 31
0.0
 12
50.50000000000318
 22
74.99999999999989
 32
0.0
 13
50.50000000000318
 23
74.99999999999989
 33
0.0
  0
SOLID
  5
26A9
330
2668
100
AcDbEntity
  8
2
100
AcDbTrace
 10
60.50000000000318
 20
75.41666666666656
 30
0.0
 11
60.50000000000318
 21
74.58333333333321
 31
0.0
 12
63.00000000000318
 22
74.99999999999989
 32
0.0
 13
63.00000000000318
 23
74.99999999999989
 33
0.0
  0
MTEXT
  5
26AA
330
2668
100
AcDbEntity
  8
2
 62
     2
100
AcDbMText
 10
56.75000000000318
 20
78.25034448818886
 30
0.0
 40
3.5
 41
0.0
 71
     5
 72
     1
  1
12.5
1001
ACAD
1000
MTEXTBEGIN
1070
    73
1070
     1
1070
    44
1040
1.0
1070
    74
1070
     0
1000
MTEXTEND
  0
POINT
  5
26AB
330
2668
100
AcDbEntity
  8
DEFPOINTS
 62
     0
100
AcDbPoint
 10
50.50000000000318
 20
62.49999999999995
 30
0.0
  0
POINT
  5
26AC
330
2668
100
AcDbEntity
  8
DEFPOINTS
 62
     0
100
AcDbPoint
 10
63.00000000000318
 20
63.2288656565832
 30
0.0
  0
POINT
  5
26AD
330
2668
100
AcDbEntity
  8
DEFPOINTS
 62
     0
100
AcDbPoint
 10
63.00000000000318
 20
74.99999999999989
 30
0.0
  0
ENDBLK
  5
2673
330
2668
100
AcDbEntity
  8
0
100
AcDbBlockEnd
  0
ENDSEC
  0
SECTION
  2
ENTITIES
  0
LINE
  5
19D1
330
1F
100
AcDbEntity
  8
1
100
AcDbLine
 10
19.40980456577816
 20
-49.99999999999988
 30
0.0
 11
3.000000000000099
 21
-49.99999999999996
 31
0.0
  0
LINE
  5
19D6
330
1F
100
AcDbEntity
  8
1
100
AcDbLine
 10
0.0000000000000995
 20
-46.99999999999996
 30
0.0
 11
0.0
 21
-8.199999999999988
 31
0.0
  0
LINE
  5
19D7
330
1F
100
AcDbEntity
  8
SK1
100
AcDbLine
 10
0.0
 20
-8.199999999999988
 30
0.0
 11
9.000000000000113
 21
-8.199999999999988
 31
0.0
  0
LINE
  5
19D8
330
1F
100
AcDbEntity
  8
SK1
100
AcDbLine
 10
9.000000000000113
 20
-8.199999999999988
 30
0.0
 11
9.000000000000113
 21
8.199999999999988
 31
0.0
  0
LINE
  5
19D9
330
1F
100
AcDbEntity
  8
SK1
100
AcDbLine
 10
9.000000000000113
 20
8.199999999999988
 30
0.0
 11
0.0000000000001137
 21
8.199999999999988
 31
0.0
  0
LINE
  5
19DC
330
1F
100
AcDbEntity
  8
SK3
100
AcDbLine
 10
0.0
 20
-20.00000000000306
 30
0.0
 11
29.50000000000011
 21
-20.00000000000312
 31
0.0
  0
LINE
  5
19DD
330
1F
100
AcDbEntity
  8
SK3
100
AcDbLine
 10
29.50000000000011
 20
-20.00000000000312
 30
0.0
 11
29.50000000000011
 21
19.99999999999687
 31
0.0
  0
LINE
  5
19DE
330
1F
100
AcDbEntity
  8
SK3
100
AcDbLine
 10
29.50000000000011
 20
19.99999999999687
 30
0.0
 11
0.0000000000001137
 21
19.99999999999687
 31
0.0
  0
LINE
  5
19DF
330
1F
100
AcDbEntity
  8
SK3
100
AcDbLine
 10
29.50000000000011
 20
-11.00000000000312
 30
0.0
 11
38.50000000000022
 21
-11.00000000000312
 31
0.0
  0
LINE
  5
19E0
330
1F
100
AcDbEntity
  8
SK3
100
AcDbLine
 10
29.50000000000011
 20
10.99999999999687
 30
0.0
 11
38.50000000000011
 21
10.99999999999687
 31
0.0
  0
LINE
  5
19E1
330
1F
100
AcDbEntity
  8
SK3
100
AcDbLine
 10
61.99679480008694
 20
16.49999999999681
 30
0.0
 11
38.50000000000011
 21
16.49999999999687
 31
0.0
  0
LINE
  5
19E2
330
1F
100
AcDbEntity
  8
SK3
100
AcDbLine
 10
38.50000000000011
 20
16.49999999999687
 30
0.0
 11
38.50000000000011
 21
-16.50000000000312
 31
0.0
  0
LINE
  5
19E3
330
1F
100
AcDbEntity
  8
SK3
100
AcDbLine
 10
38.50000000000011
 20
-16.50000000000312
 30
0.0
 11
61.99679480008694
 21
-16.50000000000312
 31
0.0
  0
DIMENSION
  5
1A04
330
1F
100
AcDbEntity
  8
SK2
100
AcDbDimension
  2
*D2
 10
-18.81731907927394
 20
19.99999999999687
 30
0.0
 11
-22.06731907927394
 21
-0.0000000000030964
 31
0.0
 70
    32
  1
%%c<>
  3
AM_DIN
100
AcDbAlignedDimension
 13
0.0
 23
-20.00000000000306
 33
0.0
 14
0.0000000000001137
 24
19.99999999999687
 34
0.0
 50
270.0
100
AcDbRotatedDimension
  0
ARC
  5
1DFC
330
1F
100
AcDbEntity
  8
1
100
AcDbCircle
 10
3.000000000000099
 20
-46.99999999999996
 30
0.0
 40
3.0
100
AcDbArc
 50
180.0000000000001
 51
270.0
1001
GENIUS_GENOBJ-N-FIL_13
1002
{
1000
OWNER
1000
GEN
1002
}
1001
GENIUS_GENODEF_13
1002
{
1000
HIER
1070
     0
1002
}
1002
{
1000
MANEDIT
1070
     0
1002
}
1002
{
1000
NOSEL
1070
     0
1002
}
1002
{
1000
BEHIND
1070
     0
1002
}
1002
{
1000
OTHER
1070
     0
1002
}
1002
{
1000
REACTOR
1002
}
  0
LINE
  5
1E07
330
1F
100
AcDbEntity
  8
1
100
AcDbLine
 10
0.0000000000000995
 20
47.00000000000012
 30
0.0
 11
0.0
 21
8.199999999993735
 31
0.0
  0
ARC
  5
1E08
330
1F
100
AcDbEntity
  8
1
100
AcDbCircle
 10
3.000000000000099
 20
47.00000000000012
 30
0.0
 40
3.0
100
AcDbArc
 50
90.00000000000003
 51
179.9999999999998
1001
GENIUS_GENOBJ-N-FIL_13
1002
{
1000
OWNER
1000
GEN
1002
}
1001
GENIUS_GENODEF_13
1002
{
1000
HIER
1070
     0
1002
}
1002
{
1000
MANEDIT
1070
     0
1002
}
1002
{
1000
NOSEL
1070
     0
1002
}
1002
{
1000
BEHIND
1070
     0
1002
}
1002
{
1000
OTHER
1070
     0
1002
}
1002
{
1000
REACTOR
1002
}
  0
LINE
  5
1E09
330
1F
100
AcDbEntity
  8
1
100
AcDbLine
 10
19.40980456577223
 20
50.0
 30
0.0
 11
3.000000000000099
 21
50.00000000000012
 31
0.0
  0
LINE
  5
2194
330
1F
100
AcDbEntity
  8
4
100
AcDbLine
 10
28.51891997411161
 20
17.54212840016572
 30
0.0
 11
49.8881792899534
 21
50.60631723514143
 31
0.0
  0
LINE
  5
21A4
330
1F
100
AcDbEntity
  8
1
100
AcDbLine
 10
49.50580587160156
 20
61.77113434341681
 30
0.0
 11
38.25200672105768
 21
61.77113434341681
 31
0.0
  0
LINE
  5
21A9
330
1F
100
AcDbEntity
  8
1
100
AcDbLine
 10
61.99679480008695
 20
58.01219587175673
 30
0.0
 11
61.99679480008694
 21
-61.7711343434172
 31
0.0
  0
LINE
  5
21AE
330
1F
100
AcDbEntity
  8
SK1
100
AcDbLine
 10
62.53623063015448
 20
62.5
 30
0.0
 11
63.46376936985212
 21
62.5
 31
0.0
  0
CIRCLE
  5
21AF
330
1F
100
AcDbEntity
  8
SK1
100
AcDbCircle
 10
63.00000000000318
 20
62.5
 30
0.0
 40
0.4637693698488208
  0
LINE
  5
21B8
330
1F
100
AcDbEntity
  8
SK1
100
AcDbLine
 10
63.00000000000318
 20
62.96376936984882
 30
0.0
 11
63.00000000000318
 21
62.03623063015118
 31
0.0
  0
LINE
  5
21D2
330
1F
100
AcDbEntity
  8
1
100
AcDbLine
 10
38.25200672105728
 20
-61.77113434341714
 30
0.0
 11
22.94533847171095
 21
-51.46446609406719
 31
0.0
  0
LINE
  5
21D3
330
1F
100
AcDbEntity
  8
NOCUT
100
AcDbLine
 10
61.99679480008694
 20
-61.77113434341717
 30
0.0
 11
38.2520067210574
 21
-61.77113434341695
 31
0.0
  0
LINE
  5
21D4
330
1F
100
AcDbEntity
  8
1
100
AcDbLine
 10
61.99679480008694
 20
-61.7711343434172
 30
0.0
 11
38.2520067210574
 21
-61.77113434341698
 31
0.0
  0
LINE
  5
21E2
330
1F
100
AcDbEntity
  8
SK1
100
AcDbLine
 10
62.53623063015425
 20
-62.5
 30
0.0
 11
63.46376936985189
 21
-62.5
 31
0.0
  0
CIRCLE
  5
21E3
330
1F
100
AcDbEntity
  8
SK1
100
AcDbCircle
 10
63.00000000000318
 20
-62.5
 30
0.0
 40
0.4637693698488208
  0
LINE
  5
21E6
330
1F
100
AcDbEntity
  8
SK1
100
AcDbLine
 10
63.00000000000318
 20
-62.5
 30
0.0
 11
63.00000000000318
 21
-62.03623063015118
 31
0.0
  0
TEXT
  5
21E9
330
1F
100
AcDbEntity
  8
6
100
AcDbText
 10
65.23786248682364
 20
-68.40887315498244
 30
0.0
 40
3.5
  1
2J1C125R00
100
AcDbText
  0
LINE
  5
21EA
330
1F
100
AcDbEntity
  8
NOCUT
100
AcDbLine
 10
61.99679480008694
 20
-0.0000000000001137
 30
0.0
 11
61.99679480008694
 21
-61.77113434341717
 31
0.0
  0
LINE
  5
21F6
330
1F
100
AcDbEntity
  8
1
100
AcDbLine
 10
38.25200672105768
 20
61.77113434341681
 30
0.0
 11
22.94533847170499
 21
51.46446609406724
 31
0.0
  0
TEXT
  5
21F7
330
1F
100
AcDbEntity
  8
6
100
AcDbText
 10
109.5319954195442
 20
-4.624449134983592
 30
0.0
 40
3.5
  1
Z=9
 50
90.0
100
AcDbText
  0
CIRCLE
  5
21F9
330
1F
100
AcDbEntity
  8
SK1
100
AcDbCircle
 10
0.0
 20
0.0
 30
0.0
 40
3.200115174948665
  0
LINE
  5
21FA
330
1F
100
AcDbEntity
  8
SK1
100
AcDbLine
 10
0.0
 20
3.200115174948678
 30
0.0
 11
0.0
 21
-3.200115174948678
 31
0.0
  0
LINE
  5
21FB
330
1F
100
AcDbEntity
  8
SK1
100
AcDbLine
 10
-3.200115174948678
 20
0.0
 30
0.0
 11
3.200115174948678
 21
0.0
 31
0.0
  0
LINE
  5
21FC
330
1F
100
AcDbEntity
  8
4
100
AcDbLine
 10
66.25203756593458
 20
-0.0000000000001137
 30
0.0
 11
0.0
 21
0.0000000000001705
 31
0.0
  0
ARC
  5
220A
330
1F
100
AcDbEntity
  8
1
100
AcDbCircle
 10
19.40980456577226
 20
55.0
 30
0.0
 40
5.0
100
AcDbArc
 50
269.9999999999996
 51
314.9999999999999
1001
GENIUS_GENOBJ-N-FIL_13
1002
{
1000
OWNER
1000
GEN
1002
}
1001
GENIUS_GENODEF_13
1002
{
1000
HIER
1070
     0
1002
}
1002
{
1000
MANEDIT
1070
     0
1002
}
1002
{
1000
NOSEL
1070
     0
1002
}
1002
{
1000
BEHIND
1070
     0
1002
}
1002
{
1000
OTHER
1070
     0
1002
}
1002
{
1000
REACTOR
1002
}
  0
ARC
  5
220C
330
1F
100
AcDbEntity
  8
1
100
AcDbCircle
 10
19.40980456577817
 20
-54.99999999999988
 30
0.0
 40
5.0
100
AcDbArc
 50
44.99999999999928
 51
90.00000000000019
1001
GENIUS_GENOBJ-N-FIL_13
1002
{
1000
OWNER
1000
GEN
1002
}
1001
GENIUS_GENODEF_13
1002
{
1000
HIER
1070
     0
1002
}
1002
{
1000
MANEDIT
1070
     0
1002
}
1002
{
1000
NOSEL
1070
     0
1002
}
1002
{
1000
BEHIND
1070
     0
1002
}
1002
{
1000
OTHER
1070
     0
1002
}
1002
{
1000
REACTOR
1002
}
  0
DIMENSION
  5
222A
330
1F
100
AcDbEntity
  8
2
100
AcDbDimension
  2
*D3
 10
103.2643538309627
 20
-62.5
 30
0.0
 11
100.0140093427737
 21
0.0000000000000083
 31
0.0
 70
    32
  1
%%c<>
  3
AM_DIN
100
AcDbAlignedDimension
 13
63.00000000000318
 23
62.5
 33
0.0
 14
63.00000000000318
 24
-62.5
 34
0.0
 50
90.0
100
AcDbRotatedDimension
  0
LINE
  5
22F2
330
1F
100
AcDbEntity
  8
NOCUT
100
AcDbLine
 10
19.40980456577816
 20
-49.99999999999988
 30
0.0
 11
3.000000000000099
 21
-49.99999999999996
 31
0.0
  0
ARC
  5
22F3
330
1F
100
AcDbEntity
  8
NOCUT
100
AcDbCircle
 10
3.000000000000099
 20
-46.99999999999996
 30
0.0
 40
3.0
100
AcDbArc
 50
180.0000000000001
 51
270.0
1001
GENIUS_GENOBJ-N-FIL_13
1002
{
1000
OWNER
1000
GEN
1002
}
1001
GENIUS_GENODEF_13
1002
{
1000
HIER
1070
     0
1002
}
1002
{
1000
MANEDIT
1070
     0
1002
}
1002
{
1000
NOSEL
1070
     0
1002
}
1002
{
1000
BEHIND
1070
     0
1002
}
1002
{
1000
OTHER
1070
     0
1002
}
1002
{
1000
REACTOR
1002
}
  0
ARC
  5
22F4
330
1F
100
AcDbEntity
  8
NOCUT
100
AcDbCircle
 10
19.40980456577817
 20
-54.99999999999988
 30
0.0
 40
5.0
100
AcDbArc
 50
44.99999999999928
 51
90.00000000000019
1001
GENIUS_GENOBJ-N-FIL_13
1002
{
1000
OWNER
1000
GEN
1002
}
1001
GENIUS_GENODEF_13
1002
{
1000
HIER
1070
     0
1002
}
1002
{
1000
MANEDIT
1070
     0
1002
}
1002
{
1000
NOSEL
1070
     0
1002
}
1002
{
1000
BEHIND
1070
     0
1002
}
1002
{
1000
OTHER
1070
     0
1002
}
1002
{
1000
REACTOR
1002
}
  0
LINE
  5
22F5
330
1F
100
AcDbEntity
  8
NOCUT
100
AcDbLine
 10
38.25200672105728
 20
-61.77113434341714
 30
0.0
 11
22.94533847171095
 21
-51.46446609406719
 31
0.0
  0
LINE
  5
22FD
330
1F
100
AcDbEntity
  8
NOCUT
100
AcDbLine
 10
0.0000000000000995
 20
-46.99999999999996
 30
0.0
 11
-0.0000000000000142
 21
-0.0000000000000568
 31
0.0
  0
LINE
  5
22FE
330
1F
100
AcDbEntity
  8
NOCUT
100
AcDbLine
 10
61.99679480008694
 20
-0.0000000000001137
 30
0.0
 11
0.0
 21
0.0
 31
0.0
  0
DIMENSION
  5
23A7
330
1F
100
AcDbEntity
  8
2
100
AcDbDimension
  2
*D4
 10
0.0000000000001021
 20
89.99999999999989
 30
0.0
 11
31.50000000000164
 21
93.24999999999988
 31
0.0
 70
    32
  3
AM_DIN
100
AcDbAlignedDimension
 13
63.00000000000318
 23
62.5
 33
0.0
 14
0.0000000000000995
 24
47.00000000000012
 34
0.0
 50
0.0000000000000114
100
AcDbRotatedDimension
  0
DIMENSION
  5
23E9
330
1F
100
AcDbEntity
  8
SK2
100
AcDbDimension
  2
*D5
 10
-38.2413034568756
 20
-49.99999999999996
 30
0.0
 11
-41.49130345687559
 21
0.0000000000000809
 31
0.0
 70
    32
  1
%%c<>
  3
AM_DIN
100
AcDbAlignedDimension
 13
3.00000000000012
 23
50.00000000000012
 33
0.0
 14
3.000000000000113
 24
-49.99999999999996
 34
0.0
 50
89.99999999999957
100
AcDbRotatedDimension
  0
TEXT
  5
2644
330
1F
100
AcDbEntity
  8
6
100
AcDbText
 10
70.39243868366907
 20
66.06742638274761
 30
0.0
 40
2.5
  1
BCKT130404R
100
AcDbText
  0
DIMENSION
  5
264B
330
1F
100
AcDbEntity
  8
2
100
AcDbDimension
  2
*D6
 10
63.00000000000318
 20
74.99999999999989
 30
0.0
 11
56.75000000000318
 21
78.25034448818886
 31
0.0
 70
    32
  3
AM_DIN
100
AcDbAlignedDimension
 13
50.50000000000318
 23
62.49999999999995
 33
0.0
 14
63.00000000000318
 24
63.2288656565832
 34
0.0
100
AcDbRotatedDimension
  0
LINE
  5
264C
330
1F
100
AcDbEntity
  8
1
100
AcDbLine
 10
51.15348280697941
 20
51.77113434341677
 30
0.0
 11
61.996794800087
 21
51.77113434341677
 31
0.0
  0
LINE
  5
264D
330
1F
100
AcDbEntity
  8
CUT
100
AcDbLine
 10
61.01000000000317
 20
54.46000000000001
 30
0.0
 11
48.42000000000314
 21
54.45999999999997
 31
0.0
  0
LINE
  5
264E
330
1F
100
AcDbEntity
  8
1
100
AcDbLine
 10
61.01000000000317
 20
54.46000000000001
 30
0.0
 11
48.42000000000314
 21
54.45999999999997
 31
0.0
  0
CIRCLE
  5
2650
330
1F
100
AcDbEntity
  8
1
100
AcDbCircle
 10
55.51000000000318
 20
58.47999999999998
 30
0.0
 40
2.749999999999976
  0
ARC
  5
2651
330
1F
100
AcDbEntity
  8
1
100
AcDbCircle
 10
51.15348280697947
 20
59.77113434341678
 30
0.0
 40
8.0
100
AcDbArc
 50
165.5224878140701
 51
270.0
1001
GENIUS_GENOBJ-N-FIL_13
1002
{
1000
OWNER
1000
GEN
1002
}
1001
GENIUS_GENODEF_13
1002
{
1000
HIER
1070
     0
1002
}
1002
{
1000
MANEDIT
1070
     0
1002
}
1002
{
1000
NOSEL
1070
     0
1002
}
1002
{
1000
BEHIND
1070
     0
1002
}
1002
{
1000
OTHER
1070
     0
1002
}
1002
{
1000
REACTOR
1002
}
  0
LINE
  5
2652
330
1F
100
AcDbEntity
  8
CUT
100
AcDbLine
 10
48.02000000000316
 20
54.85999999999998
 30
0.0
 11
48.02000000000316
 21
56.45999999999995
 31
0.0
  0
LINE
  5
2653
330
1F
100
AcDbEntity
  8
1
100
AcDbLine
 10
48.02000000000316
 20
54.85999999999998
 30
0.0
 11
48.02000000000316
 21
56.45999999999995
 31
0.0
  0
ARC
  5
2654
330
1F
100
AcDbEntity
  8
CUT
100
AcDbCircle
 10
48.42000000000314
 20
54.85999999999996
 30
0.0
 40
0.4
100
AcDbArc
 50
180.0
 51
270.0
1001
GENIUS_GENOBJ-N-FIL_13
1002
{
1000
OWNER
1000
GEN
1002
}
1001
GENIUS_GENODEF_13
1002
{
1000
HIER
1070
     0
1002
}
1002
{
1000
MANEDIT
1070
     0
1002
}
1002
{
1000
NOSEL
1070
     0
1002
}
1002
{
1000
BEHIND
1070
     0
1002
}
1002
{
1000
OTHER
1070
     0
1002
}
1002
{
1000
REACTOR
1002
}
  0
ARC
  5
2655
330
1F
100
AcDbEntity
  8
1
100
AcDbCircle
 10
48.42000000000314
 20
54.85999999999996
 30
0.0
 40
0.4
100
AcDbArc
 50
180.0
 51
270.0
1001
GENIUS_GENOBJ-N-FIL_13
1002
{
1000
OWNER
1000
GEN
1002
}
1001
GENIUS_GENODEF_13
1002
{
1000
HIER
1070
     0
1002
}
1002
{
1000
MANEDIT
1070
     0
1002
}
1002
{
1000
NOSEL
1070
     0
1002
}
1002
{
1000
BEHIND
1070
     0
1002
}
1002
{
1000
OTHER
1070
     0
1002
}
1002
{
1000
REACTOR
1002
}
  0
LINE
  5
2656
330
1F
100
AcDbEntity
  8
CUT
100
AcDbLine
 10
48.02000000000316
 20
56.45999999999998
 30
0.0
 11
48.76889018293593
 21
57.45999999999995
 31
0.0
  0
LINE
  5
2657
330
1F
100
AcDbEntity
  8
1
100
AcDbLine
 10
48.02000000000316
 20
56.45999999999998
 30
0.0
 11
48.76889018293593
 21
57.45999999999995
 31
0.0
  0
LINE
  5
2658
330
1F
100
AcDbEntity
  8
CUT
100
AcDbLine
 10
48.76889018293599
 20
57.46000000000003
 30
0.0
 11
49.57354007457656
 21
62.16739575182606
 31
0.0
  0
LINE
  5
2659
330
1F
100
AcDbEntity
  8
1
100
AcDbLine
 10
48.76889018293599
 20
57.46000000000003
 30
0.0
 11
49.57354007457656
 21
62.16739575182606
 31
0.0
  0
ARC
  5
265A
330
1F
100
AcDbEntity
  8
CUT
100
AcDbCircle
 10
49.9678214622121
 20
62.10000000000002
 30
0.0
 40
0.4
100
AcDbArc
 50
90.0
 51
170.3
1001
GENIUS_GENODEF_13
1002
{
1000
HIER
1070
     0
1002
}
1002
{
1000
MANEDIT
1070
     0
1002
}
1002
{
1000
NOSEL
1070
     0
1002
}
1002
{
1000
BEHIND
1070
     0
1002
}
1002
{
1000
OTHER
1070
     0
1002
}
1002
{
1000
REACTOR
1002
}
1001
GENIUS_GENOBJ-N-FIL_13
1002
{
1000
OWNER
1000
GEN
1002
}
  0
ARC
  5
265B
330
1F
100
AcDbEntity
  8
1
100
AcDbCircle
 10
49.9678214622121
 20
62.10000000000002
 30
0.0
 40
0.4
100
AcDbArc
 50
90.0
 51
170.3
1001
GENIUS_GENODEF_13
1002
{
1000
HIER
1070
     0
1002
}
1002
{
1000
MANEDIT
1070
     0
1002
}
1002
{
1000
NOSEL
1070
     0
1002
}
1002
{
1000
BEHIND
1070
     0
1002
}
1002
{
1000
OTHER
1070
     0
1002
}
1002
{
1000
REACTOR
1002
}
1001
GENIUS_GENOBJ-N-FIL_13
1002
{
1000
OWNER
1000
GEN
1002
}
  0
LINE
  5
265C
330
1F
100
AcDbEntity
  8
CUT
100
AcDbLine
 10
50.01000000000317
 20
62.49999999999994
 30
0.0
 11
62.60000000000321
 21
62.5
 31
0.0
  0
LINE
  5
265D
330
1F
100
AcDbEntity
  8
1
100
AcDbLine
 10
50.01000000000317
 20
62.49999999999994
 30
0.0
 11
62.60000000000321
 21
62.5
 31
0.0
  0
LINE
  5
265E
330
1F
100
AcDbEntity
  8
CUT
100
AcDbLine
 10
62.25110981707036
 20
59.49999999999994
 30
0.0
 11
61.44645992542979
 21
54.79260424817391
 31
0.0
  0
LINE
  5
265F
330
1F
100
AcDbEntity
  8
1
100
AcDbLine
 10
62.25110981707036
 20
59.49999999999994
 30
0.0
 11
61.44645992542979
 21
54.79260424817391
 31
0.0
  0
ARC
  5
2660
330
1F
100
AcDbEntity
  8
CUT
100
AcDbCircle
 10
61.05217853779425
 20
54.85999999999993
 30
0.0
 40
0.4
100
AcDbArc
 50
270.0
 51
350.2999999999997
1001
GENIUS_GENODEF_13
1002
{
1000
HIER
1070
     0
1002
}
1002
{
1000
MANEDIT
1070
     0
1002
}
1002
{
1000
NOSEL
1070
     0
1002
}
1002
{
1000
BEHIND
1070
     0
1002
}
1002
{
1000
OTHER
1070
     0
1002
}
1002
{
1000
REACTOR
1002
}
1001
GENIUS_GENOBJ-N-FIL_13
1002
{
1000
OWNER
1000
GEN
1002
}
  0
ARC
  5
2661
330
1F
100
AcDbEntity
  8
1
100
AcDbCircle
 10
61.05217853779425
 20
54.85999999999993
 30
0.0
 40
0.4
100
AcDbArc
 50
270.0
 51
350.2999999999997
1001
GENIUS_GENODEF_13
1002
{
1000
HIER
1070
     0
1002
}
1002
{
1000
MANEDIT
1070
     0
1002
}
1002
{
1000
NOSEL
1070
     0
1002
}
1002
{
1000
BEHIND
1070
     0
1002
}
1002
{
1000
OTHER
1070
     0
1002
}
1002
{
1000
REACTOR
1002
}
1001
GENIUS_GENOBJ-N-FIL_13
1002
{
1000
OWNER
1000
GEN
1002
}
  0
LINE
  5
2662
330
1F
100
AcDbEntity
  8
CUT
100
AcDbLine
 10
63.00000000000318
 20
60.5
 30
0.0
 11
62.25110981707041
 21
59.50000000000002
 31
0.0
  0
LINE
  5
2663
330
1F
100
AcDbEntity
  8
1
100
AcDbLine
 10
63.00000000000318
 20
60.5
 30
0.0
 11
62.25110981707041
 21
59.50000000000002
 31
0.0
  0
LINE
  5
2664
330
1F
100
AcDbEntity
  8
CUT
100
AcDbLine
 10
63.00000000000318
 20
62.09999999999999
 30
0.0
 11
63.00000000000318
 21
60.50000000000003
 31
0.0
  0
LINE
  5
2665
330
1F
100
AcDbEntity
  8
1
100
AcDbLine
 10
63.00000000000318
 20
62.09999999999999
 30
0.0
 11
63.00000000000318
 21
60.50000000000003
 31
0.0
  0
ARC
  5
2666
330
1F
100
AcDbEntity
  8
CUT
100
AcDbCircle
 10
62.60000000000321
 20
62.09999999999999
 30
0.0
 40
0.4
100
AcDbArc
 50
0.0
 51
90.0
1001
GENIUS_GENOBJ-N-FIL_13
1002
{
1000
OWNER
1000
GEN
1002
}
1001
GENIUS_GENODEF_13
1002
{
1000
HIER
1070
     0
1002
}
1002
{
1000
MANEDIT
1070
     0
1002
}
1002
{
1000
NOSEL
1070
     0
1002
}
1002
{
1000
BEHIND
1070
     0
1002
}
1002
{
1000
OTHER
1070
     0
1002
}
1002
{
1000
REACTOR
1002
}
  0
ARC
  5
2667
330
1F
100
AcDbEntity
  8
1
100
AcDbCircle
 10
62.60000000000321
 20
62.09999999999999
 30
0.0
 40
0.4
100
AcDbArc
 50
0.0
 51
90.0
1001
GENIUS_GENOBJ-N-FIL_13
1002
{
1000
OWNER
1000
GEN
1002
}
1001
GENIUS_GENODEF_13
1002
{
1000
HIER
1070
     0
1002
}
1002
{
1000
MANEDIT
1070
     0
1002
}
1002
{
1000
NOSEL
1070
     0
1002
}
1002
{
1000
BEHIND
1070
     0
1002
}
1002
{
1000
OTHER
1070
     0
1002
}
1002
{
1000
REACTOR
1002
}
  0
ARC
  5
267D
330
1F
100
AcDbEntity
  8
SK3
 48
0.3
100
AcDbCircle
 10
51.15348280697912
 20
-59.7711343434168
 30
0.0
 40
8.0
100
AcDbArc
 50
89.99999999999836
 51
194.4775121859306
1001
GENIUS_GENOBJ-N-FIL_13
1002
{
1000
OWNER
1000
GEN
1002
}
1001
GENIUS_GENODEF_13
1002
{
1000
HIER
1070
     0
1002
}
1002
{
1000
MANEDIT
1070
     0
1002
}
1002
{
1000
NOSEL
1070
     0
1002
}
1002
{
1000
BEHIND
1070
     0
1002
}
1002
{
1000
OTHER
1070
     0
1002
}
1002
{
1000
REACTOR
1002
}
  0
LINE
  5
267E
330
1F
100
AcDbEntity
  8
SK3
 48
0.3
100
AcDbLine
 10
51.15348280697929
 20
-51.7711343434168
 30
0.0
 11
61.99679480008689
 21
-51.77113434341708
 31
0.0
  0
LINE
  5
267F
330
1F
100
AcDbEntity
  8
SK3
100
AcDbLine
 10
61.01000000000317
 20
-54.46000000000002
 30
0.0
 11
48.42000000000314
 21
-54.45999999999999
 31
0.0
  0
LINE
  5
2680
330
1F
100
AcDbEntity
  8
SK3
100
AcDbLine
 10
48.76889018293599
 20
-57.46000000000005
 30
0.0
 11
49.50580587160158
 21
-61.77113434341688
 31
0.0
  0
CIRCLE
  5
2681
330
1F
100
AcDbEntity
  8
SK3
100
AcDbCircle
 10
55.51000000000318
 20
-58.48
 30
0.0
 40
2.749999999999976
  0
ARC
  5
2682
330
1F
100
AcDbEntity
  8
SK3
100
AcDbCircle
 10
48.42000000000314
 20
-54.85999999999997
 30
0.0
 40
0.4
100
AcDbArc
 50
90.0
 51
180.0
1001
GENIUS_GENOBJ-N-FIL_13
1002
{
1000
OWNER
1000
GEN
1002
}
1001
GENIUS_GENODEF_13
1002
{
1000
HIER
1070
     0
1002
}
1002
{
1000
MANEDIT
1070
     0
1002
}
1002
{
1000
NOSEL
1070
     0
1002
}
1002
{
1000
BEHIND
1070
     0
1002
}
1002
{
1000
OTHER
1070
     0
1002
}
1002
{
1000
REACTOR
1002
}
  0
LINE
  5
2683
330
1F
100
AcDbEntity
  8
SK3
100
AcDbLine
 10
48.02000000000316
 20
-54.86
 30
0.0
 11
48.02000000000316
 21
-56.45999999999997
 31
0.0
  0
LINE
  5
2684
330
1F
100
AcDbEntity
  8
SK3
100
AcDbLine
 10
48.02000000000316
 20
-56.45999999999999
 30
0.0
 11
48.76889018293593
 21
-57.45999999999996
 31
0.0
  0
ARC
  5
2685
330
1F
100
AcDbEntity
  8
1
100
AcDbCircle
 10
49.9678214622121
 20
-62.10000000000004
 30
0.0
 40
0.4
100
AcDbArc
 50
189.6999999999997
 51
270.0
1001
GENIUS_GENODEF_13
1002
{
1000
HIER
1070
     0
1002
}
1002
{
1000
MANEDIT
1070
     0
1002
}
1002
{
1000
NOSEL
1070
     0
1002
}
1002
{
1000
BEHIND
1070
     0
1002
}
1002
{
1000
OTHER
1070
     0
1002
}
1002
{
1000
REACTOR
1002
}
1001
GENIUS_GENOBJ-N-FIL_13
1002
{
1000
OWNER
1000
GEN
1002
}
  0
LINE
  5
2686
330
1F
100
AcDbEntity
  8
1
100
AcDbLine
 10
49.50580587160158
 20
-61.77113434341688
 30
0.0
 11
49.57354007457656
 21
-62.16739575182607
 31
0.0
  0
LINE
  5
2687
330
1F
100
AcDbEntity
  8
1
100
AcDbLine
 10
50.01000000000317
 20
-62.49999999999996
 30
0.0
 11
62.60000000000321
 21
-62.50000000000001
 31
0.0
  0
LINE
  5
2688
330
1F
100
AcDbEntity
  8
1
100
AcDbLine
 10
63.00000000000318
 20
-62.1
 30
0.0
 11
63.00000000000318
 21
-60.50000000000004
 31
0.0
  0
LINE
  5
2689
330
1F
100
AcDbEntity
  8
1
100
AcDbLine
 10
63.00000000000318
 20
-60.50000000000001
 30
0.0
 11
62.25110981707041
 21
-59.50000000000004
 31
0.0
  0
LINE
  5
268A
330
1F
100
AcDbEntity
  8
1
100
AcDbLine
 10
62.25110981707036
 20
-59.49999999999995
 30
0.0
 11
61.99679480008694
 21
-58.01219587175667
 31
0.0
  0
ARC
  5
268B
330
1F
100
AcDbEntity
  8
SK3
100
AcDbCircle
 10
61.05217853779425
 20
-54.85999999999994
 30
0.0
 40
0.4
100
AcDbArc
 50
9.700000000000205
 51
90.0
1001
GENIUS_GENODEF_13
1002
{
1000
HIER
1070
     0
1002
}
1002
{
1000
MANEDIT
1070
     0
1002
}
1002
{
1000
NOSEL
1070
     0
1002
}
1002
{
1000
BEHIND
1070
     0
1002
}
1002
{
1000
OTHER
1070
     0
1002
}
1002
{
1000
REACTOR
1002
}
1001
GENIUS_GENOBJ-N-FIL_13
1002
{
1000
OWNER
1000
GEN
1002
}
  0
LINE
  5
268C
330
1F
100
AcDbEntity
  8
SK3
100
AcDbLine
 10
61.99679480008694
 20
-58.01219587175667
 30
0.0
 11
61.44645992542979
 21
-54.79260424817393
 31
0.0
  0
ARC
  5
268D
330
1F
100
AcDbEntity
  8
SK3
100
AcDbCircle
 10
61.05217853779425
 20
-54.85999999999994
 30
0.0
 40
0.4
100
AcDbArc
 50
9.700000000000205
 51
90.0
1001
GENIUS_GENODEF_13
1002
{
1000
HIER
1070
     0
1002
}
1002
{
1000
MANEDIT
1070
     0
1002
}
1002
{
1000
NOSEL
1070
     0
1002
}
1002
{
1000
BEHIND
1070
     0
1002
}
1002
{
1000
OTHER
1070
     0
1002
}
1002
{
1000
REACTOR
1002
}
1001
GENIUS_GENOBJ-N-FIL_13
1002
{
1000
OWNER
1000
GEN
1002
}
  0
ARC
  5
268E
330
1F
100
AcDbEntity
  8
1
100
AcDbCircle
 10
62.60000000000321
 20
-62.1
 30
0.0
 40
0.4
100
AcDbArc
 50
270.0
 51
0.0
1001
GENIUS_GENOBJ-N-FIL_13
1002
{
1000
OWNER
1000
GEN
1002
}
1001
GENIUS_GENODEF_13
1002
{
1000
HIER
1070
     0
1002
}
1002
{
1000
MANEDIT
1070
     0
1002
}
1002
{
1000
NOSEL
1070
     0
1002
}
1002
{
1000
BEHIND
1070
     0
1002
}
1002
{
1000
OTHER
1070
     0
1002
}
1002
{
1000
REACTOR
1002
}
  0
ENDSEC
  0
SECTION
  2
OBJECTS
  0
DICTIONARY
  5
C
330
0
100
AcDbDictionary
  3
ACAD_GROUP
350
D
  3
ACAD_LAYOUT
350
1A
  3
ACAD_MLINESTYLE
350
17
  3
ACAD_PLOTSETTINGS
350
19
  3
ACAD_PLOTSTYLENAME
350
E
  3
ACDBHEADERROUNDTRIPXREC
350
26C4
  3
ACDBVARIABLEDICTIONARY
350
216
  3
ACMDICTIONARY
350
45
  3
AMG
350
41
  3
AMGSNAPSETTINGS
350
23D
  3
DWGPROPS
350
26BF
  0
DICTIONARY
  5
1F1
330
1F
100
AcDbDictionary
280
     1
  3
ACAD_INDEX
360
1F2
  3
ACAD_LAYOUTSELFREF
360
26E7
  0
DICTIONARY
  5
26E5
330
1B
100
AcDbDictionary
280
     1
  3
ACAD_LAYOUTSELFREF
360
26E6
  0
DICTIONARY
  5
D
102
{ACAD_REACTORS
330
C
102
}
330
C
100
AcDbDictionary
  0
DICTIONARY
  5
1A
102
{ACAD_REACTORS
330
C
102
}
330
C
100
AcDbDictionary
  0
DICTIONARY
  5
17
102
{ACAD_REACTORS
330
C
102
}
330
C
100
AcDbDictionary
  3
STANDARD
350
18
  0
DICTIONARY
  5
19
102
{ACAD_REACTORS
330
C
102
}
330
C
100
AcDbDictionary
  0
ACDBDICTIONARYWDFLT
  5
E
102
{ACAD_REACTORS
330
C
102
}
330
C
100
AcDbDictionary
281
     1
  3
Normal
350
F
100
AcDbDictionaryWithDefault
340
F
  0
DICTIONARY
  5
26C4
102
{ACAD_REACTORS
330
C
102
}
330
C
100
AcDbDictionary
  3
CEPSNTYPE
350
26CE
  3
DIMSTYLEDATA
350
26D2
  3
FINGERPRINTGUID
350
26CF
  3
HYPERLINKBASE
350
26C7
  3
INSUNITS
350
26CD
  3
LAYOUTDICT
350
26C9
  3
LWETCUNION
350
26CC
  3
PLOTSETDICT
350
26CA
  3
PLOTSTYLNAMDICT
350
26CB
  3
PSVPSCALE
350
26D1
  3
PUCSBASE
350
26D5
  3
PUCSORGBACK
350
26DB
  3
PUCSORGBOTTOM
350
26D7
  3
PUCSORGFRONT
350
26DA
  3
PUCSORGLEFT
350
26D8
  3
PUCSORGRIGHT
350
26D9
  3
PUCSORGTOP
350
26D6
  3
PUCSORTHOREF
350
26D3
  3
PUCSORTHOVIEW
350
26D4
  3
STYLESHEET
350
26C8
  3
TSTACKALIGN
350
26C5
  3
TSTACKSIZE
350
26C6
  3
UCSBASE
350
26DE
  3
UCSORGBACK
350
26E4
  3
UCSORGBOTTOM
350
26E0
  3
UCSORGFRONT
350
26E3
  3
UCSORGLEFT
350
26E1
  3
UCSORGRIGHT
350
26E2
  3
UCSORGTOP
350
26DF
  3
UCSORTHOREF
350
26DC
  3
UCSORTHOVIEW
350
26DD
  3
VERSIONGUID
350
26D0
  0
DICTIONARY
  5
216
102
{ACAD_REACTORS
330
C
102
}
330
C
100
AcDbDictionary
  3
DIMASSOC
350
219
  3
HIDETEXT
350
218
  3
INDEXCTL
350
217
  0
DICTIONARY
  5
45
102
{ACAD_REACTORS
330
C
102
}
330
C
100
AcDbDictionary
  3
ACMSTDDICTIONARY
350
4A
  0
DICTIONARY
  5
41
102
{ACAD_REACTORS
330
C
102
}
330
C
100
AcDbDictionary
  3
ACMGSETTINGS
350
42
  0
DICTIONARY
  5
23D
102
{ACAD_REACTORS
330
C
102
}
330
C
100
AcDbDictionary
  0
XRECORD
  5
26BF
102
{ACAD_REACTORS
330
C
102
}
330
C
100
AcDbXrecord
  1
DWGPROPS COOKIE
  2

  3

  4

  6

  7

  8

  9

300
AmdtFileType=84
301
=
302
=
303
=
304
=
305
=
306
=
307
=
308
=
309
=
 40
0.0419591782407408
 41
2453599.366006042
 42
2453609.679778669
  1

 90
        1
  0
DICTIONARY
  5
1F2
102
{ACAD_REACTORS
330
1F1
102
}
330
1F1
100
AcDbDictionary
  3
*A1
350
1F3
  0
XRECORD
  5
26E7
102
{ACAD_REACTORS
330
1F1
102
}
330
1F1
100
AcDbXrecord
340
1F
  0
XRECORD
  5
26E6
102
{ACAD_REACTORS
330
26E5
102
}
330
26E5
100
AcDbXrecord
340
1B
  0
MLINESTYLE
  5
18
102
{ACAD_REACTORS
330
17
102
}
330
17
100
AcDbMlineStyle
  2
STANDARD
 70
     0
  3

 62
   256
 51
90.0
 52
90.0
 71
     2
 49
0.5
 62
   256
  6
BYLAYER
 49
-0.5
 62
   256
  6
BYLAYER
  0
ACDBPLACEHOLDER
  5
F
102
{ACAD_REACTORS
330
E
102
}
330
E
100
AcDbPlaceHolder
280
     0
  0
XRECORD
  5
26CE
102
{ACAD_REACTORS
330
26C4
102
}
330
26C4
100
AcDbXrecord
 90
        0
  0
XRECORD
  5
26D2
102
{ACAD_REACTORS
330
26C4
102
}
330
26C4
100
AcDbXrecord
1000
DSTYLE
1002
{
1070
    79
 70
     2
1070
   371
 70
    -1
1070
   372
 70
    -1
1002
}
  0
XRECORD
  5
26CF
102
{ACAD_REACTORS
330
26C4
102
}
330
26C4
100
AcDbXrecord
  1
{03052709-208C-44F1-88CB-F8F0E550BC5D}
  0
XRECORD
  5
26C7
102
{ACAD_REACTORS
330
26C4
102
}
330
26C4
100
AcDbXrecord
  1

  0
XRECORD
  5
26CD
102
{ACAD_REACTORS
330
26C4
102
}
330
26C4
100
AcDbXrecord
 90
        4
  0
XRECORD
  5
26C9
102
{ACAD_REACTORS
330
26C4
102
}
330
26C4
100
AcDbXrecord
340
1A
  0
XRECORD
  5
26CC
102
{ACAD_REACTORS
330
26C4
102
}
330
26C4
100
AcDbXrecord
 90
    10781
  0
XRECORD
  5
26CA
102
{ACAD_REACTORS
330
26C4
102
}
330
26C4
100
AcDbXrecord
340
19
  0
XRECORD
  5
26CB
102
{ACAD_REACTORS
330
26C4
102
}
330
26C4
100
AcDbXrecord
340
E
  0
XRECORD
  5
26D1
102
{ACAD_REACTORS
330
26C4
102
}
330
26C4
100
AcDbXrecord
 40
0.0
  0
XRECORD
  5
26D5
102
{ACAD_REACTORS
330
26C4
102
}
330
26C4
100
AcDbXrecord
340
0
  0
XRECORD
  5
26DB
102
{ACAD_REACTORS
330
26C4
102
}
330
26C4
100
AcDbXrecord
 10
0.0
 20
0.0
 30
0.0
  0
XRECORD
  5
26D7
102
{ACAD_REACTORS
330
26C4
102
}
330
26C4
100
AcDbXrecord
 10
0.0
 20
0.0
 30
0.0
  0
XRECORD
  5
26DA
102
{ACAD_REACTORS
330
26C4
102
}
330
26C4
100
AcDbXrecord
 10
0.0
 20
0.0
 30
0.0
  0
XRECORD
  5
26D8
102
{ACAD_REACTORS
330
26C4
102
}
330
26C4
100
AcDbXrecord
 10
0.0
 20
0.0
 30
0.0
  0
XRECORD
  5
26D9
102
{ACAD_REACTORS
330
26C4
102
}
330
26C4
100
AcDbXrecord
 10
0.0
 20
0.0
 30
0.0
  0
XRECORD
  5
26D6
102
{ACAD_REACTORS
330
26C4
102
}
330
26C4
100
AcDbXrecord
 10
0.0
 20
0.0
 30
0.0
  0
XRECORD
  5
26D3
102
{ACAD_REACTORS
330
26C4
102
}
330
26C4
100
AcDbXrecord
340
0
  0
XRECORD
  5
26D4
102
{ACAD_REACTORS
330
26C4
102
}
330
26C4
100
AcDbXrecord
 70
     0
  0
XRECORD
  5
26C8
102
{ACAD_REACTORS
330
26C4
102
}
330
26C4
100
AcDbXrecord
  1

  0
XRECORD
  5
26C5
102
{ACAD_REACTORS
330
26C4
102
}
330
26C4
100
AcDbXrecord
 90
        1
  0
XRECORD
  5
26C6
102
{ACAD_REACTORS
330
26C4
102
}
330
26C4
100
AcDbXrecord
 90
       70
  0
XRECORD
  5
26DE
102
{ACAD_REACTORS
330
26C4
102
}
330
26C4
100
AcDbXrecord
340
0
  0
XRECORD
  5
26E4
102
{ACAD_REACTORS
330
26C4
102
}
330
26C4
100
AcDbXrecord
 10
0.0
 20
0.0
 30
0.0
  0
XRECORD
  5
26E0
102
{ACAD_REACTORS
330
26C4
102
}
330
26C4
100
AcDbXrecord
 10
0.0
 20
0.0
 30
0.0
  0
XRECORD
  5
26E3
102
{ACAD_REACTORS
330
26C4
102
}
330
26C4
100
AcDbXrecord
 10
0.0
 20
0.0
 30
0.0
  0
XRECORD
  5
26E1
102
{ACAD_REACTORS
330
26C4
102
}
330
26C4
100
AcDbXrecord
 10
0.0
 20
0.0
 30
0.0
  0
XRECORD
  5
26E2
102
{ACAD_REACTORS
330
26C4
102
}
330
26C4
100
AcDbXrecord
 10
0.0
 20
0.0
 30
0.0
  0
XRECORD
  5
26DF
102
{ACAD_REACTORS
330
26C4
102
}
330
26C4
100
AcDbXrecord
 10
0.0
 20
0.0
 30
0.0
  0
XRECORD
  5
26DC
102
{ACAD_REACTORS
330
26C4
102
}
330
26C4
100
AcDbXrecord
340
0
  0
XRECORD
  5
26DD
102
{ACAD_REACTORS
330
26C4
102
}
330
26C4
100
AcDbXrecord
 70
     0
  0
XRECORD
  5
26D0
102
{ACAD_REACTORS
330
26C4
102
}
330
26C4
100
AcDbXrecord
  1
{A7704EB2-39A3-4D40-B4D4-8A2D2A2947C1}
  0
DICTIONARYVAR
  5
219
102
{ACAD_REACTORS
330
216
102
}
330
216
100
DictionaryVariables
280
     0
  1
1
  0
DICTIONARYVAR
  5
218
102
{ACAD_REACTORS
330
216
102
}
330
216
100
DictionaryVariables
280
     0
  1
1
  0
DICTIONARYVAR
  5
217
102
{ACAD_REACTORS
330
216
102
}
330
216
100
DictionaryVariables
280
     0
  1
1
  0
DICTIONARY
  5
4A
102
{ACAD_REACTORS
330
45
102
}
330
45
100
AcDbDictionary
  0
DICTIONARY
  5
42
102
{ACAD_REACTORS
330
41
102
}
330
41
100
AcDbDictionary
  3
DWGSETTINGS
350
43
  0
LAYER_INDEX
  5
1F3
102
{ACAD_REACTORS
330
1F2
102
}
330
1F2
100
AcDbIndex
 40
2453610.448292905
100
AcDbLayerIndex
  8
0
360
1F4
 90
        0
  8
Defpoints
360
210
 90
        0
  8
1
360
29B
 90
       35
  8
2
360
2345
 90
        3
  8
4
360
2346
 90
        2
  8
6
360
2347
 90
        3
  8
SK1
360
2348
 90
       12
  8
SK2
360
2349
 90
        2
  8
SK3
360
234A
 90
       19
  8
CUT
360
234B
 90
       12
  8
NOCUT
360
234C
 90
        8
  0
XRECORD
  5
43
102
{ACAD_REACTORS
330
42
102
}
330
42
100
AcDbXrecord
  1
VERSION
140
15.0
  1
PRODUCT
  2
AutoCAD Mechanical 2000
  0
IDBUFFER
  5
1F4
330
0
100
AcDbIdBuffer
  0
IDBUFFER
  5
210
330
0
100
AcDbIdBuffer
  0
IDBUFFER
  5
29B
330
0
100
AcDbIdBuffer
330
19D1
330
19D6
330
1DFC
330
1E07
330
1E08
330
1E09
330
21A4
330
21A9
330
21D2
330
21D4
330
21F6
330
220A
330
220C
330
264C
330
264E
330
2650
330
2651
330
2653
330
2655
330
2657
330
2659
330
265B
330
265D
330
265F
330
2661
330
2663
330
2665
330
2667
330
2685
330
2686
330
2687
330
2688
330
2689
330
268A
330
268E
  0
IDBUFFER
  5
2345
330
0
100
AcDbIdBuffer
330
222A
330
23A7
330
264B
  0
IDBUFFER
  5
2346
330
0
100
AcDbIdBuffer
330
2194
330
21FC
  0
IDBUFFER
  5
2347
330
0
100
AcDbIdBuffer
330
21E9
330
21F7
330
2644
  0
IDBUFFER
  5
2348
330
0
100
AcDbIdBuffer
330
19D7
330
19D8
330
19D9
330
21AE
330
21AF
330
21B8
330
21E2
330
21E3
330
21E6
330
21F9
330
21FA
330
21FB
  0
IDBUFFER
  5
2349
330
0
100
AcDbIdBuffer
330
1A04
330
23E9
  0
IDBUFFER
  5
234A
330
0
100
AcDbIdBuffer
330
19DC
330
19DD
330
19DE
330
19DF
330
19E0
330
19E1
330
19E2
330
19E3
330
267D
330
267E
330
267F
330
2680
330
2681
330
2682
330
2683
330
2684
330
268B
330
268C
330
268D
  0
IDBUFFER
  5
234B
330
0
100
AcDbIdBuffer
330
264D
330
2652
330
2654
330
2656
330
2658
330
265A
330
265C
330
265E
330
2660
330
2662
330
2664
330
2666
  0
IDBUFFER
  5
234C
330
0
100
AcDbIdBuffer
330
21D3
330
21EA
330
22F2
330
22F3
330
22F4
330
22F5
330
22FD
330
22FE
  0
ENDSEC
  0
EOF
