  0
SECTION
  2
HEADER
  9
$ACADVER
  1
AC1014
  9
$ACADMAINTVER
 70
     9
  9
$DWGCODEPAGE
  3
ANSI_1252
  9
$INSBASE
 10
0.0
 20
0.0
 30
0.0
  9
$EXTMIN
 10
-38.11411705423973
 20
-55.90294254303898
 30
-0.0000000000000053
  9
$EXTMAX
 10
88.13587833654912
 20
79.82895849826093
 30
0.0000000000000099
  9
$LIMMIN
 10
0.0
 20
0.0
  9
$LIMMAX
 10
420.0
 20
297.0
  9
$ORTHOMODE
 70
     0
  9
$REGENMODE
 70
     1
  9
$FILLMODE
 70
     1
  9
$QTEXTMODE
 70
     0
  9
$MIRRTEXT
 70
     1
  9
$DRAGMODE
 70
     2
  9
$LTSCALE
 40
1.0
  9
$OSMODE
 70
  2599
  9
$ATTMODE
 70
     1
  9
$TEXTSIZE
 40
2.5
  9
$TRACEWID
 40
1.0
  9
$TEXTSTYLE
  7
STANDARD
  9
$CLAYER
  8
0
  9
$CELTYPE
  6
BYLAYER
  9
$CECOLOR
 62
   256
  9
$CELTSCALE
 40
1.0
  9
$DELOBJ
 70
     1
  9
$DISPSILH
 70
     0
  9
$DIMSCALE
 40
1.0
  9
$DIMASZ
 40
2.5
  9
$DIMEXO
 40
0.0
  9
$DIMDLI
 40
10.0
  9
$DIMRND
 40
0.0
  9
$DIMDLE
 40
0.0
  9
$DIMEXE
 40
1.0
  9
$DIMTP
 40
0.1
  9
$DIMTM
 40
0.1
  9
$DIMTXT
 40
3.5
  9
$DIMCEN
 40
0.0
  9
$DIMTSZ
 40
0.0
  9
$DIMTOL
 70
     0
  9
$DIMLIM
 70
     0
  9
$DIMTIH
 70
     0
  9
$DIMTOH
 70
     0
  9
$DIMSE1
 70
     0
  9
$DIMSE2
 70
     0
  9
$DIMTAD
 70
     1
  9
$DIMZIN
 70
     8
  9
$DIMBLK
  1

  9
$DIMASO
 70
     1
  9
$DIMSHO
 70
     1
  9
$DIMPOST
  1

  9
$DIMAPOST
  1
"
  9
$DIMALT
 70
     0
  9
$DIMALTD
 70
     2
  9
$DIMALTF
 40
0.0393701
  9
$DIMLFAC
 40
1.0
  9
$DIMTOFL
 70
     1
  9
$DIMTVP
 40
0.0
  9
$DIMTIX
 70
     0
  9
$DIMSOXD
 70
     0
  9
$DIMSAH
 70
     0
  9
$DIMBLK1
  1

  9
$DIMBLK2
  1

  9
$DIMSTYLE
  2
AM_DIN
  9
$DIMCLRD
 70
   256
  9
$DIMCLRE
 70
   256
  9
$DIMCLRT
 70
     2
  9
$DIMTFAC
 40
0.71
  9
$DIMGAP
 40
1.5
  9
$DIMJUST
 70
     0
  9
$DIMSD1
 70
     0
  9
$DIMSD2
 70
     0
  9
$DIMTOLJ
 70
     0
  9
$DIMTZIN
 70
     8
  9
$DIMALTZ
 70
     0
  9
$DIMALTTZ
 70
     0
  9
$DIMFIT
 70
     3
  9
$DIMUPT
 70
     0
  9
$DIMUNIT
 70
     2
  9
$DIMDEC
 70
     2
  9
$DIMTDEC
 70
     2
  9
$DIMALTU
 70
     2
  9
$DIMALTTD
 70
     2
  9
$DIMTXSTY
  7
STANDARD
  9
$DIMAUNIT
 70
     0
  9
$LUNITS
 70
     2
  9
$LUPREC
 70
     2
  9
$SKETCHINC
 40
1.0
  9
$FILLETRAD
 40
3.0
  9
$AUNITS
 70
     0
  9
$AUPREC
 70
     0
  9
$MENU
  1
.
  9
$ELEVATION
 40
0.0
  9
$PELEVATION
 40
0.0
  9
$THICKNESS
 40
0.0
  9
$LIMCHECK
 70
     0
  9
$BLIPMODE
 70
     0
  9
$CHAMFERA
 40
2.5
  9
$CHAMFERB
 40
2.5
  9
$CHAMFERC
 40
20.0
  9
$CHAMFERD
 40
0.0
  9
$SKPOLY
 70
     0
  9
$TDCREATE
 40
2453599.366006042
  9
$TDUPDATE
 40
2453610.447399027
  9
$TDINDWG
 40
0.0492485995
  9
$TDUSRTIMER
 40
0.0492242593
  9
$USRTIMER
 70
     1
  9
$ANGBASE
 50
0.0
  9
$ANGDIR
 70
     0
  9
$PDMODE
 70
     0
  9
$PDSIZE
 40
0.0
  9
$PLINEWID
 40
0.0
  9
$COORDS
 70
     0
  9
$SPLFRAME
 70
     0
  9
$SPLINETYPE
 70
     6
  9
$SPLINESEGS
 70
     8
  9
$ATTDIA
 70
     1
  9
$ATTREQ
 70
     1
  9
$HANDLING
 70
 22529
  9
$HANDSEED
  5
2D3C
  9
$SURFTAB1
 70
     6
  9
$SURFTAB2
 70
     6
  9
$SURFTYPE
 70
     6
  9
$SURFU
 70
     6
  9
$SURFV
 70
     6
  9
$UCSNAME
  2

  9
$UCSORG
 10
0.0
 20
0.0
 30
0.0
  9
$UCSXDIR
 10
1.0
 20
0.0
 30
0.0
  9
$UCSYDIR
 10
0.0
 20
1.0
 30
0.0
  9
$PUCSNAME
  2

  9
$PUCSORG
 10
0.0
 20
0.0
 30
0.0
  9
$PUCSXDIR
 10
1.0
 20
0.0
 30
0.0
  9
$PUCSYDIR
 10
0.0
 20
1.0
 30
0.0
  9
$USERI1
 70
     0
  9
$USERI2
 70
     0
  9
$USERI3
 70
     0
  9
$USERI4
 70
     0
  9
$USERI5
 70
     0
  9
$USERR1
 40
0.0
  9
$USERR2
 40
0.0
  9
$USERR3
 40
0.0
  9
$USERR4
 40
0.0
  9
$USERR5
 40
0.0
  9
$WORLDVIEW
 70
     1
  9
$SHADEDGE
 70
     3
  9
$SHADEDIF
 70
    70
  9
$TILEMODE
 70
     1
  9
$MAXACTVP
 70
    64
  9
$PINSBASE
 10
0.0
 20
0.0
 30
0.0
  9
$PLIMCHECK
 70
     0
  9
$PEXTMIN
 10
1.000000000000000E+20
 20
1.000000000000000E+20
 30
1.000000000000000E+20
  9
$PEXTMAX
 10
-1.000000000000000E+20
 20
-1.000000000000000E+20
 30
-1.000000000000000E+20
  9
$PLIMMIN
 10
0.0
 20
0.0
  9
$PLIMMAX
 10
420.0
 20
297.0
  9
$UNITMODE
 70
     0
  9
$VISRETAIN
 70
     1
  9
$PLINEGEN
 70
     0
  9
$PSLTSCALE
 70
     1
  9
$TREEDEPTH
 70
  3020
  9
$PICKSTYLE
 70
     0
  9
$CMLSTYLE
  2
STANDARD
  9
$CMLJUST
 70
     0
  9
$CMLSCALE
 40
20.0
  9
$PROXYGRAPHICS
 70
     1
  9
$MEASUREMENT
 70
     1
  0
ENDSEC
  0
SECTION
  2
CLASSES
  0
CLASS
  1
ACDBDICTIONARYWDFLT
  2
AcDbDictionaryWithDefault
  3
AutoCAD 2000
 90
        0
280
     0
281
     0
  0
CLASS
  1
ACDBPLACEHOLDER
  2
AcDbPlaceHolder
  3
AutoCAD 2000
 90
        0
280
     0
281
     0
  0
CLASS
  1
LAYOUT
  2
AcDbLayout
  3
AutoCAD 2000
 90
        0
280
     0
281
     0
  0
CLASS
  1
ACME_DOCUMENT
  2
AcMeDbDoc
  3
AcMeServices
 90
        0
280
     0
281
     0
  0
CLASS
  1
ACMESCOPE
  2
AcMeScope
  3
AcMeServices
 90
        0
280
     0
281
     0
  0
CLASS
  1
ACMECOMMANDHISTORY
  2
AcMeCommandHistory
  3
AcMeServices
 90
        0
280
     0
281
     0
  0
CLASS
  1
ACIMSYSVARMAN
  2
AcImSysVarManager
  3
AcMeServices
 90
        0
280
     0
281
     0
  0
CLASS
  1
ACIMREALSYSVAR
  2
AcImRealSysVar
  3
AcMeServices
 90
        0
280
     0
281
     0
  0
CLASS
  1
ACIMINTSYSVAR
  2
AcImIntSysVar
  3
AcMeServices
 90
        0
280
     0
281
     0
  0
CLASS
  1
ACMEDRAWINGMAN
  2
AcMeDrawingMan
  3
AcMeServices
 90
        0
280
     0
281
     0
  0
CLASS
  1
ACMEVIEW
  2
AcMeView
  3
AcMeServices
 90
        0
280
     0
281
     0
  0
CLASS
  1
ACDBENTITYCACHE
  2
AcMeEntityCache
  3
AcMeServices
 90
        0
280
     0
281
     0
  0
CLASS
  1
GSMANAGER
  2
AcMeGSManager
  3
AcMeServices
 90
        0
280
     0
281
     0
  0
CLASS
  1
AMDTINTERNALREACTOR
  2
AmdtInternalReactor
  3
AcMeServices
 90
        0
280
     0
281
     0
  0
CLASS
  1
ACMESTATEMGR
  2
AcMeStateMgr
  3
AcMeServices
 90
        0
280
     0
281
     0
  0
CLASS
  1
ACGREFMASTER
  2
AcGrefMaster
  3
AcAttribServices
 90
        0
280
     0
281
     0
  0
CLASS
  1
ACME_DATABASE
  2
AcMeDbDatabase
  3
AcMeServices
 90
        0
280
     0
281
     0
  0
CLASS
  1
ACRFINSADJUSTERMGR
  2
AcRfInsAdjusterMgr
  3
AcMeServices
 90
        0
280
     0
281
     0
  0
CLASS
  1
ACGREFACADMASTER
  2
AcGrefacadMaster
  3
AcGrefServices
 90
        0
280
     0
281
     0
  0
CLASS
  1
AMIMASTER
  2
AmiMaster
  3
AmiServices
 90
        0
280
     0
281
     0
  0
CLASS
  1
AMGSETTINGSOBJ
  2
AmgSettingsObj
  3
"AcadM|Product Description: AutoCAD Mechanical 2000|Company: Autodesk"
 90
        0
280
     0
281
     0
  0
CLASS
  1
ACMDATADICTIONARY
  2
AcmDataDictionary
  3
"AcmSymBB|Product Description: AutoCAD Mechanical 2000|Company: Autodesk"
 90
        0
280
     0
281
     0
  0
CLASS
  1
ACMDATAENTRYBLOCK
  2
AcmDataEntryBlock
  3
"AcmSymBB|Product Description: AutoCAD Mechanical 2000|Company: Autodesk"
 90
        0
280
     0
281
     0
  0
CLASS
  1
ACIMSTRSYSVAR
  2
AcImStrSysVar
  3
AcMeServices
 90
        0
280
     0
281
     0
  0
CLASS
  1
ACMSTANDARDDIN
  2
AcmStandardDIN
  3
"Amdt_StdImp|Product Description: AutoCAD Mechanical 2000|Company: Autodesk"
 90
        0
280
     0
281
     0
  0
CLASS
  1
AMGOBJPROPCFG
  2
AmgObjPropCfg
  3
"AmgLay|Product Description: AutoCAD Mechanical 2000|Company: Autodesk"
 90
        1
280
     0
281
     0
  0
CLASS
  1
AMDTEDGESTANDARDDIN
  2
AmdtEdgeStdDIN
  3
"Amdt_StdImp|Product Description: AutoCAD Mechanical 2000|Company: Autodesk"
 90
        0
280
     0
281
     0
  0
CLASS
  1
ACMSURFSTANDARDDIN
  2
AcmSurfTextStdDIN
  3
"Amdt_StdImp|Product Description: AutoCAD Mechanical 2000|Company: Autodesk"
 90
        0
280
     0
281
     0
  0
CLASS
  1
ACMFCFSTANDARDDIN
  2
AcmFCFStdDIN
  3
"Amdt_StdImp|Product Description: AutoCAD Mechanical 2000|Company: Autodesk"
 90
        0
280
     0
281
     0
  0
CLASS
  1
ACMWELDSTANDARDDIN
  2
AcmWeldingStdDIN
  3
"Amdt_StdImp|Product Description: AutoCAD Mechanical 2000|Company: Autodesk"
 90
        0
280
     0
281
     0
  0
CLASS
  1
ACMIDSTANDARDDIN
  2
AcmIdStdDIN
  3
"Amdt_StdImp|Product Description: AutoCAD Mechanical 2000|Company: Autodesk"
 90
        0
280
     0
281
     0
  0
CLASS
  1
ACMDATUMSTANDARDDIN
  2
AcmDatumStdDIN
  3
"Amdt_StdImp|Product Description: AutoCAD Mechanical 2000|Company: Autodesk"
 90
        0
280
     0
281
     0
  0
CLASS
  1
ACMBOMSTANDARDDIN
  2
AcmBOMStdDIN
  3
"Amdt_StdImp|Product Description: AutoCAD Mechanical 2000|Company: Autodesk"
 90
        0
280
     0
281
     0
  0
CLASS
  1
ACMDETAILSTANDARDDIN
  2
AmdtDetailSymStdDIN
  3
"Amdt_StdImp|Product Description: AutoCAD Mechanical 2000|Company: Autodesk"
 90
        0
280
     0
281
     0
  0
CLASS
  1
ACMSECTIONSTANDARDDIN
  2
AmdtSectionSymStdDIN
  3
"Amdt_StdImp|Product Description: AutoCAD Mechanical 2000|Company: Autodesk"
 90
        0
280
     0
281
     0
  0
CLASS
  1
ACMCENTERLINESTANDARDDIN
  2
AmdtCenterLineStdDIN
  3
"Amdt_StdImp|Product Description: AutoCAD Mechanical 2000|Company: Autodesk"
 90
        0
280
     0
281
     0
  0
CLASS
  1
ACMNOTESTANDARDDIN
  2
AmdtNoteStdDIN
  3
"Amdt_StdImp|Product Description: AutoCAD Mechanical 2000|Company: Autodesk"
 90
        0
280
     0
281
     0
  0
CLASS
  1
ACAMGLAYSTD
  2
AcAmgLayStd
  3
"AcAmgLayStd|Product Description: AutoCAD Mechanical 2000|Company: Autodesk"
 90
        0
280
     0
281
     0
  0
CLASS
  1
ACAMGDIMSTD
  2
AcAmgDimStd
  3
"AcAmgDimStd|Product Description: AutoCAD Mechanical 2000|Company: Autodesk"
 90
        0
280
     0
281
     0
  0
CLASS
  1
ACAMGHOLECHARTSTDDIN
  2
AcAmgHoleChartStdDIN
  3
ACMSYMBB_MODULE_NAME
 90
        0
280
     0
281
     0
  0
CLASS
  1
ACAMGTITLESTD
  2
AcAmgTitleStd
  3
"TITLEAPP"
 90
        0
280
     0
281
     0
  0
CLASS
  1
ACMSTANDARDANSI
  2
AcmStandardANSI
  3
"Amdt_StdImp|Product Description: AutoCAD Mechanical 2000|Company: Autodesk"
 90
        0
280
     0
281
     0
  0
CLASS
  1
ACMSURFSTANDARDANSI
  2
AcmSurfTextStdANSI
  3
"Amdt_StdImp|Product Description: AutoCAD Mechanical 2000|Company: Autodesk"
 90
        0
280
     0
281
     0
  0
CLASS
  1
ACMFCFSTANDARDANSI
  2
AcmFCFStdANSI
  3
"Amdt_StdImp|Product Description: AutoCAD Mechanical 2000|Company: Autodesk"
 90
        0
280
     0
281
     0
  0
CLASS
  1
ACMWELDSTANDARDANSI
  2
AcmWeldingStdANSI
  3
"Amdt_StdImp|Product Description: AutoCAD Mechanical 2000|Company: Autodesk"
 90
        0
280
     0
281
     0
  0
CLASS
  1
ACMIDSTANDARDANSI
  2
AcmIdStdANSI
  3
"Amdt_StdImp|Product Description: AutoCAD Mechanical 2000|Company: Autodesk"
 90
        0
280
     0
281
     0
  0
CLASS
  1
ACMDATUMSTANDARDANSI
  2
AcmDatumStdANSI
  3
"Amdt_StdImp|Product Description: AutoCAD Mechanical 2000|Company: Autodesk"
 90
        0
280
     0
281
     0
  0
CLASS
  1
ACMBOMSTANDARDANSI
  2
AcmBOMStdANSI
  3
"Amdt_StdImp|Product Description: AutoCAD Mechanical 2000|Company: Autodesk"
 90
        0
280
     0
281
     0
  0
CLASS
  1
ACMDETAILSTANDARDANSI
  2
AmdtDetailSymStdANSI
  3
"Amdt_StdImp|Product Description: AutoCAD Mechanical 2000|Company: Autodesk"
 90
        0
280
     0
281
     0
  0
CLASS
  1
ACMSECTIONSTANDARDANSI
  2
AmdtSectionSymStdANSI
  3
"Amdt_StdImp|Product Description: AutoCAD Mechanical 2000|Company: Autodesk"
 90
        0
280
     0
281
     0
  0
CLASS
  1
ACMCENTERLINESTANDARDANSI
  2
AmdtCenterLineStdANSI
  3
"Amdt_StdImp|Product Description: AutoCAD Mechanical 2000|Company: Autodesk"
 90
        0
280
     0
281
     0
  0
CLASS
  1
ACMNOTESTANDARDANSI
  2
AmdtNoteStdANSI
  3
"Amdt_StdImp|Product Description: AutoCAD Mechanical 2000|Company: Autodesk"
 90
        0
280
     0
281
     0
  0
CLASS
  1
ACAMGHOLECHARTSTDANSI
  2
AcAmgHoleChartStdANSI
  3
ACMSYMBB_MODULE_NAME
 90
        0
280
     0
281
     0
  0
CLASS
  1
ACAMGFILTERDAT
  2
AcAmgFilterDat
  3
"AcadM|Product Description: AutoCAD Mechanical 2000|Company: Autodesk"
 90
        0
280
     0
281
     0
  0
CLASS
  1
AMDTFORMULAUPDATEDISPATCHER
  2
AmdtFormulaUpdateDispatcher
  3
AcMeServices
 90
        0
280
     0
281
     0
  0
CLASS
  1
LAYER_INDEX
  2
AcDbLayerIndex
  3
AutoCAD 2000
 90
        0
280
     0
281
     0
  0
CLASS
  1
IDBUFFER
  2
AcDbIdBuffer
  3
AutoCAD 2000
 90
        0
280
     0
281
     0
  0
CLASS
  1
DICTIONARYVAR
  2
AcDbDictionaryVar
  3
AutoCAD 2000
 90
        0
280
     0
281
     0
  0
CLASS
  1
DIMASSOC
  2
AcDbDimAssoc
  3
"AcDbDimAssoc|Product Desc:     AcDim ARX App For Dimension|Company:          Autodesk, Inc.|WEB Address:      www.autodesk.com"
 90
        0
280
     0
281
     0
  0
CLASS
  1
ACMDIMBREAKPERSREACTOR
  2
AcmDimBreakPersReactor
  3
amgDimApp().moduleName()
 90
     1023
280
     0
281
     0
  0
CLASS
  1
ACMSURFSYM
  2
AcmSurfaceTexture
  3
"AcmSymBB|Product Description: AutoCAD Mechanical 2000|Company: Autodesk"
 90
     1023
280
     0
281
     1
  0
CLASS
  1
ACMFCFRAME
  2
AcmFCF
  3
"AcmSymBB|Product Description: AutoCAD Mechanical 2000|Company: Autodesk"
 90
     1023
280
     0
281
     1
  0
CLASS
  1
LONG_TRANSACTION
  2
AcDbLongTransaction
  3
AutoCAD 2000
 90
        0
280
     0
281
     0
  0
CLASS
  1
LWPOLYLINE
  2
AcDbPolyline
  3
AutoCAD 2000
 90
        0
280
     0
281
     1
  0
CLASS
  1
HATCH
  2
AcDbHatch
  3
AutoCAD 2000
 90
        0
280
     0
281
     1
  0
CLASS
  1
XRECORD
  2
AcDbXrecord
  3
AutoCAD 2000
 90
        0
280
     0
281
     0
  0
ENDSEC
  0
SECTION
  2
TABLES
  0
TABLE
  2
VPORT
  5
8
330
0
100
AcDbSymbolTable
 70
     4
  0
VPORT
  5
2D15
330
8
100
AcDbSymbolTableRecord
100
AcDbViewportTableRecord
  2
*ACTIVE
 70
     0
 10
0.0
 20
0.0
 11
1.0
 21
1.0
 12
190.9429414728801
 22
120.5485287284804
 13
0.0
 23
0.0
 14
2.5
 24
2.5
 15
10.0
 25
10.0
 16
0.0
 26
0.0
 36
1.0
 17
0.0
 27
0.0
 37
0.0
 40
356.7952544093225
 41
1.694290976058931
 42
50.0
 43
0.0
 44
0.0
 50
0.0
 51
0.0
 71
     0
 72
 10000
 73
     1
 74
     3
 75
     0
 76
     0
 77
     0
 78
     0
  0
ENDTAB
  0
TABLE
  2
LTYPE
  5
5
330
0
100
AcDbSymbolTable
 70
    16
  0
LTYPE
  5
14
330
5
100
AcDbSymbolTableRecord
100
AcDbLinetypeTableRecord
  2
BYBLOCK
 70
     0
  3

 72
    65
 73
     0
 40
0.0
  0
LTYPE
  5
15
330
5
100
AcDbSymbolTableRecord
100
AcDbLinetypeTableRecord
  2
BYLAYER
 70
     0
  3

 72
    65
 73
     0
 40
0.0
  0
LTYPE
  5
16
330
5
100
AcDbSymbolTableRecord
100
AcDbLinetypeTableRecord
  2
CONTINUOUS
 70
     0
  3
Solid line
 72
    65
 73
     0
 40
0.0
  0
LTYPE
  5
50
330
5
100
AcDbSymbolTableRecord
100
AcDbLinetypeTableRecord
  2
AMCONSTR
 70
     0
  3
_______________________
 72
    65
 73
     2
 40
9999.0
 49
9999.0
 74
     0
 49
0.0
 74
     0
  0
LTYPE
  5
55
330
5
100
AcDbSymbolTableRecord
100
AcDbLinetypeTableRecord
  2
AMZIGZAG
 70
     0
  3
/\/-/\/-/\/-/\/-/\/-/\/
 72
    65
 73
     2
 40
11.00009999999999
 49
0.0001
 74
     4
 75
   135
340
54
 46
0.04
 50
0.0
 44
0.0
 45
0.0
 49
-11.0
 74
     0
  0
LTYPE
  5
56
330
5
100
AcDbSymbolTableRecord
100
AcDbLinetypeTableRecord
  2
AM_DIN_F_W050
 70
     0
  3
__ __ __ __ __ __ __ __ __ __ __ __ __ __ __
 72
    65
 73
     2
 40
6.25
 49
4.75
 74
     0
 49
-1.5
 74
     0
  0
LTYPE
  5
57
330
5
100
AcDbSymbolTableRecord
100
AcDbLinetypeTableRecord
  2
AM_DIN_G_W050
 70
     0
  3
____ . ____ . ____ . ____ . ____ . ____ . ____
 72
    65
 73
     4
 40
13.75
 49
9.75
 74
     0
 49
-1.5
 74
     0
 49
1.0
 74
     0
 49
-1.5
 74
     0
  0
LTYPE
  5
58
330
5
100
AcDbSymbolTableRecord
100
AcDbLinetypeTableRecord
  2
AM_DIN_K_W050
 70
     0
  3
_____ . . _____ . . _____ . . ____ .. ____
 72
    65
 73
     6
 40
16.25
 49
9.75
 74
     0
 49
-1.5
 74
     0
 49
1.0
 74
     0
 49
-1.5
 74
     0
 49
1.0
 74
     0
 49
-1.5
 74
     0
  0
LTYPE
  5
59
330
5
100
AcDbSymbolTableRecord
100
AcDbLinetypeTableRecord
  2
AM_DIN_G_W050X2
 70
     0
  3
__ . __ . __ . __ . __ . __
 72
    65
 73
     4
 40
6.875
 49
4.75
 74
     0
 49
-0.875
 74
     0
 49
0.375
 74
     0
 49
-0.875
 74
     0
  0
LTYPE
  5
5A
330
5
100
AcDbSymbolTableRecord
100
AcDbLinetypeTableRecord
  2
AM_DIN_F_W050X2
 70
     0
  3
 _ _ _ _ _ _ _ _ _ _ _ _
 72
    65
 73
     2
 40
3.125
 49
2.25
 74
     0
 49
-0.875
 74
     0
  0
LTYPE
  5
68
330
5
100
AcDbSymbolTableRecord
100
AcDbLinetypeTableRecord
  2
ACDINWELD
 70
     0
  3
_ _ _ _ _
 72
    65
 73
     2
 40
2.0
 49
2.0
 74
     0
 49
-1.0
 74
     0
  0
LTYPE
  5
69
330
5
100
AcDbSymbolTableRecord
100
AcDbLinetypeTableRecord
  2
ACDINTGB
 70
     0
  3
__ . . __ . .
 72
    65
 73
     6
 40
9.0
 49
4.0
 74
     0
 49
-1.0
 74
     0
 49
1.0
 74
     0
 49
-1.0
 74
     0
 49
1.0
 74
     0
 49
-1.0
 74
     0
  0
LTYPE
  5
6A
330
5
100
AcDbSymbolTableRecord
100
AcDbLinetypeTableRecord
  2
ACDINTGL
 70
     0
  3
_ _ _ _ _
 72
    65
 73
     2
 40
3.0
 49
2.0
 74
     0
 49
-1.0
 74
     0
  0
LTYPE
  5
6C
330
5
100
AcDbSymbolTableRecord
100
AcDbLinetypeTableRecord
  2
CENTER
 70
     0
  3
__ . __
 72
    65
 73
     4
 40
7.0
 49
4.0
 74
     0
 49
-1.0
 74
     0
 49
1.0
 74
     0
 49
-1.0
 74
     0
  0
LTYPE
  5
1E2C
330
5
100
AcDbSymbolTableRecord
100
AcDbLinetypeTableRecord
  2
PHANTOM2
 70
     0
  3
Phantom (.5x) ___ _ _ ___ _ _ ___ _ _ ___ _ _
 72
    65
 73
     6
 40
1.25
 49
0.625
 74
     0
 49
-0.125
 74
     0
 49
0.125
 74
     0
 49
-0.125
 74
     0
 49
0.125
 74
     0
 49
-0.125
 74
     0
  0
LTYPE
  5
1E2D
330
5
100
AcDbSymbolTableRecord
100
AcDbLinetypeTableRecord
  2
ACANSTGB
 70
     0
  3
__ . . __ . .
 72
    65
 73
     6
 40
0.35433070866
 49
0.15748031496
 74
     0
 49
-0.03937007874
 74
     0
 49
0.03937007874
 74
     0
 49
-0.03937007874
 74
     0
 49
0.03937007874
 74
     0
 49
-0.03937007874
 74
     0
  0
LTYPE
  5
1E2E
330
5
100
AcDbSymbolTableRecord
100
AcDbLinetypeTableRecord
  2
ACANSTGL
 70
     0
  3
_ _ _ _ _
 72
    65
 73
     2
 40
0.11811023622
 49
0.07874015748
 74
     0
 49
-0.03937007874
 74
     0
  0
LTYPE
  5
1E2F
330
5
100
AcDbSymbolTableRecord
100
AcDbLinetypeTableRecord
  2
DASHED
 70
     0
  3
__ __ __ __ __ __ __ __ __ __ __ __ __ __ __ __
 72
    65
 73
     2
 40
19.05
 49
12.7
 74
     0
 49
-6.349999999999998
 74
     0
  0
ENDTAB
  0
TABLE
  2
LAYER
  5
2
330
0
100
AcDbSymbolTable
 70
    11
  0
LAYER
  5
10
330
2
100
AcDbSymbolTableRecord
100
AcDbLayerTableRecord
  2
0
 70
     0
 62
     7
  6
CONTINUOUS
  0
LAYER
  5
263
330
2
100
AcDbSymbolTableRecord
100
AcDbLayerTableRecord
  2
DEFPOINTS
 70
     0
 62
     7
  6
CONTINUOUS
  0
LAYER
  5
1E30
330
2
100
AcDbSymbolTableRecord
100
AcDbLayerTableRecord
  2
1
 70
     0
 62
     4
  6
CONTINUOUS
  0
LAYER
  5
1E31
330
2
100
AcDbSymbolTableRecord
100
AcDbLayerTableRecord
  2
2
 70
     0
 62
     7
  6
CONTINUOUS
  0
LAYER
  5
1E32
330
2
100
AcDbSymbolTableRecord
100
AcDbLayerTableRecord
  2
4
 70
     0
 62
     2
  6
CENTER
  0
LAYER
  5
1E33
330
2
100
AcDbSymbolTableRecord
100
AcDbLayerTableRecord
  2
6
 70
     0
 62
     5
  6
CONTINUOUS
  0
LAYER
  5
1E34
330
2
100
AcDbSymbolTableRecord
100
AcDbLayerTableRecord
  2
SK1
 70
     0
 62
     4
  6
CONTINUOUS
  0
LAYER
  5
1E35
330
2
100
AcDbSymbolTableRecord
100
AcDbLayerTableRecord
  2
SK2
 70
     0
 62
     7
  6
CONTINUOUS
  0
LAYER
  5
1E36
330
2
100
AcDbSymbolTableRecord
100
AcDbLayerTableRecord
  2
SK3
 70
     0
 62
     1
  6
DASHED
  0
LAYER
  5
1E37
330
2
100
AcDbSymbolTableRecord
100
AcDbLayerTableRecord
  2
CUT
 70
     0
 62
     1
  6
CONTINUOUS
  0
LAYER
  5
1E38
330
2
100
AcDbSymbolTableRecord
100
AcDbLayerTableRecord
  2
NOCUT
 70
     0
 62
     7
  6
CONTINUOUS
  0
ENDTAB
  0
TABLE
  2
STYLE
  5
3
330
0
100
AcDbSymbolTable
 70
     6
  0
STYLE
  5
11
330
3
100
AcDbSymbolTableRecord
100
AcDbTextStyleTableRecord
  2
STANDARD
 70
     0
 40
0.0
 41
1.0
 50
0.0
 71
     0
 42
2.5
  3
ISOCP.SHX
  4

  0
STYLE
  5
54
330
3
100
AcDbSymbolTableRecord
100
AcDbTextStyleTableRecord
  2

 70
     1
 40
0.0
 41
1.0
 50
0.0
 71
     0
 42
2.5
  3
ltypeshp.shx
  4

  0
STYLE
  5
5B
330
3
100
AcDbSymbolTableRecord
100
AcDbTextStyleTableRecord
  2
ACDINTS
 70
     0
 40
1.0
 41
1.0
 50
0.0
 71
     0
 42
2.5
  3
isocp.shx
  4

  0
STYLE
  5
67
330
3
100
AcDbSymbolTableRecord
100
AcDbTextStyleTableRecord
  2
ACDINGDT
 70
     0
 40
0.0
 41
1.0
 50
0.0
 71
     0
 42
2.5
  3
amgdt.shx
  4

  0
STYLE
  5
1E39
330
3
100
AcDbSymbolTableRecord
100
AcDbTextStyleTableRecord
  2
ACANSTS
 70
     0
 40
1.0
 41
1.0
 50
0.0
 71
     0
 42
0.2
  3
romans.shx
  4

  0
STYLE
  5
1E3A
330
3
100
AcDbSymbolTableRecord
100
AcDbTextStyleTableRecord
  2
ACANSGDT
 70
     0
 40
0.0
 41
1.0
 50
0.0
 71
     0
 42
0.2
  3
amgdtans.shx
  4

  0
ENDTAB
  0
TABLE
  2
VIEW
  5
6
330
0
100
AcDbSymbolTable
 70
     0
  0
ENDTAB
  0
TABLE
  2
UCS
  5
7
330
0
100
AcDbSymbolTable
 70
     0
  0
ENDTAB
  0
TABLE
  2
APPID
  5
9
330
0
100
AcDbSymbolTable
 70
    53
  0
APPID
  5
12
330
9
100
AcDbSymbolTableRecord
100
AcDbRegAppTableRecord
  2
ACAD
 70
     0
  0
APPID
  5
2C
330
9
100
AcDbSymbolTableRecord
100
AcDbRegAppTableRecord
  2
MCAD_NO_VIS
 70
     0
  0
APPID
  5
2D
330
9
100
AcDbSymbolTableRecord
100
AcDbRegAppTableRecord
  2
ACAD_TEMP_GRAPHIC
 70
     0
  0
APPID
  5
3E
330
9
100
AcDbSymbolTableRecord
100
AcDbRegAppTableRecord
  2
ACATTRIBSERVICES
 70
     0
  0
APPID
  5
29A
330
9
100
AcDbSymbolTableRecord
100
AcDbRegAppTableRecord
  2
GENIUS_GENDIMSH_14
 70
     0
  0
APPID
  5
588
330
9
100
AcDbSymbolTableRecord
100
AcDbRegAppTableRecord
  2
GENIUS12
 70
     0
  0
APPID
  5
589
330
9
100
AcDbSymbolTableRecord
100
AcDbRegAppTableRecord
  2
GENIUS_GENOENT_13
 70
     0
  0
APPID
  5
58A
330
9
100
AcDbSymbolTableRecord
100
AcDbRegAppTableRecord
  2
GENIUS_GENODEF_13
 70
     0
  0
APPID
  5
58B
330
9
100
AcDbSymbolTableRecord
100
AcDbRegAppTableRecord
  2
GENIUS_GENOBJ-N-RSBK_13
 70
     0
  0
APPID
  5
58C
330
9
100
AcDbSymbolTableRecord
100
AcDbRegAppTableRecord
  2
GENIUS_GENOBJ-N-DIM12_13
 70
     0
  0
APPID
  5
58D
330
9
100
AcDbSymbolTableRecord
100
AcDbRegAppTableRecord
  2
GENIUS_GENSCALE_13
 70
     0
  0
APPID
  5
58E
330
9
100
AcDbSymbolTableRecord
100
AcDbRegAppTableRecord
  2
GENIUS_GENCFG_13
 70
     0
  0
APPID
  5
58F
330
9
100
AcDbSymbolTableRecord
100
AcDbRegAppTableRecord
  2
GENIUS_GENCFG0_13
 70
     0
  0
APPID
  5
590
330
9
100
AcDbSymbolTableRecord
100
AcDbRegAppTableRecord
  2
GENIUS_GENCFG1_13
 70
     0
  0
APPID
  5
591
330
9
100
AcDbSymbolTableRecord
100
AcDbRegAppTableRecord
  2
GENIUS_GENCFG2_13
 70
     0
  0
APPID
  5
592
330
9
100
AcDbSymbolTableRecord
100
AcDbRegAppTableRecord
  2
GENIUS_GENCFG3_13
 70
     0
  0
APPID
  5
593
330
9
100
AcDbSymbolTableRecord
100
AcDbRegAppTableRecord
  2
GENIUS_GENCFG4_13
 70
     0
  0
APPID
  5
594
330
9
100
AcDbSymbolTableRecord
100
AcDbRegAppTableRecord
  2
GENIUS_GEVCFG0_13
 70
     0
  0
APPID
  5
595
330
9
100
AcDbSymbolTableRecord
100
AcDbRegAppTableRecord
  2
GENIUS_GENOBJ-F-SUF_13
 70
     0
  0
APPID
  5
596
330
9
100
AcDbSymbolTableRecord
100
AcDbRegAppTableRecord
  2
GENIUS_GEFCFG0_13
 70
     0
  0
APPID
  5
597
330
9
100
AcDbSymbolTableRecord
100
AcDbRegAppTableRecord
  2
GEV_VCCNULL_SWITCH_OFF
 70
     0
  0
APPID
  5
598
330
9
100
AcDbSymbolTableRecord
100
AcDbRegAppTableRecord
  2
GENIUS_GENDTOL_13
 70
     0
  0
APPID
  5
599
330
9
100
AcDbSymbolTableRecord
100
AcDbRegAppTableRecord
  2
GENIUS_GENDIM_13
 70
     0
  0
APPID
  5
59A
330
9
100
AcDbSymbolTableRecord
100
AcDbRegAppTableRecord
  2
GENIUS_GE3DTOL_13
 70
     0
  0
APPID
  5
59B
330
9
100
AcDbSymbolTableRecord
100
AcDbRegAppTableRecord
  2
AD_DRAW
 70
     0
  0
APPID
  5
59C
330
9
100
AcDbSymbolTableRecord
100
AcDbRegAppTableRecord
  2
ASURF_PCURVE_APPNAME
 70
     0
  0
APPID
  5
59D
330
9
100
AcDbSymbolTableRecord
100
AcDbRegAppTableRecord
  2
AMG_3D2D_5_0
 70
     0
  0
APPID
  5
59E
330
9
100
AcDbSymbolTableRecord
100
AcDbRegAppTableRecord
  2
DESIGNERASSEMBLIES
 70
     0
  0
APPID
  5
59F
330
9
100
AcDbSymbolTableRecord
100
AcDbRegAppTableRecord
  2
ACADM_DIM_EDIT
 70
     0
  0
APPID
  5
5A0
330
9
100
AcDbSymbolTableRecord
100
AcDbRegAppTableRecord
  2
AMDT_DM_ADJ
 70
     0
  0
APPID
  5
5A1
330
9
100
AcDbSymbolTableRecord
100
AcDbRegAppTableRecord
  2
GENIUS_GENSCREG_15
 70
     0
  0
APPID
  5
5A2
330
9
100
AcDbSymbolTableRecord
100
AcDbRegAppTableRecord
  2
GENIUS_GENOBJ-N-SDF_13
 70
     0
  0
APPID
  5
6E4
330
9
100
AcDbSymbolTableRecord
100
AcDbRegAppTableRecord
  2
GENIUS_GENOBJ-N-FIL_13
 70
     0
  0
APPID
  5
C65
330
9
100
AcDbSymbolTableRecord
100
AcDbRegAppTableRecord
  2
GENIUS_GENHINW_13
 70
     0
  0
APPID
  5
C66
330
9
100
AcDbSymbolTableRecord
100
AcDbRegAppTableRecord
  2
GENIUS_GENOBJ-F-TOLL_13
 70
     0
  0
APPID
  5
C67
330
9
100
AcDbSymbolTableRecord
100
AcDbRegAppTableRecord
  2
GENIUS_GENOREF_13
 70
     0
  0
APPID
  5
C68
330
9
100
AcDbSymbolTableRecord
100
AcDbRegAppTableRecord
  2
GENIUS_GENOLIS_13
 70
     0
  0
APPID
  5
C69
330
9
100
AcDbSymbolTableRecord
100
AcDbRegAppTableRecord
  2
GENIUS_GEFTOLC_13
 70
     0
  0
APPID
  5
C6A
330
9
100
AcDbSymbolTableRecord
100
AcDbRegAppTableRecord
  2
GENIUS_GENOBJ-F-TOL_13
 70
     0
  0
APPID
  5
C6B
330
9
100
AcDbSymbolTableRecord
100
AcDbRegAppTableRecord
  2
GENIUS_GENOBJ-N-RSSYM_13
 70
     0
  0
APPID
  5
C6C
330
9
100
AcDbSymbolTableRecord
100
AcDbRegAppTableRecord
  2
GENIUS_GENSYMENT_13
 70
     0
  0
APPID
  5
C6D
330
9
100
AcDbSymbolTableRecord
100
AcDbRegAppTableRecord
  2
GENIUS_GENSCSYM_13
 70
     0
  0
APPID
  5
1E42
330
9
100
AcDbSymbolTableRecord
100
AcDbRegAppTableRecord
  2
GENIUS_GENBLLY_14
 70
     0
  0
APPID
  5
1E43
330
9
100
AcDbSymbolTableRecord
100
AcDbRegAppTableRecord
  2
GENIUS_GENTRA_14
 70
     0
  0
APPID
  5
1E44
330
9
100
AcDbSymbolTableRecord
100
AcDbRegAppTableRecord
  2
GENIUS_GENOBJ-N-TIT_13
 70
     0
  0
APPID
  5
1E45
330
9
100
AcDbSymbolTableRecord
100
AcDbRegAppTableRecord
  2
GENIUS_GENTITLE_13
 70
     0
  0
APPID
  5
1E46
330
9
100
AcDbSymbolTableRecord
100
AcDbRegAppTableRecord
  2
ACADIGES
 70
     0
  0
APPID
  5
1E47
330
9
100
AcDbSymbolTableRecord
100
AcDbRegAppTableRecord
  2
GENIUS_GENOBJ-N-HTC_13
 70
     0
  0
APPID
  5
1E48
330
9
100
AcDbSymbolTableRecord
100
AcDbRegAppTableRecord
  2
GENIUS_GENHATCH_13
 70
     0
  0
APPID
  5
1E49
330
9
100
AcDbSymbolTableRecord
100
AcDbRegAppTableRecord
  2
GENIUS_GENOBJ-N-CRS_13
 70
     0
  0
APPID
  5
1E4A
330
9
100
AcDbSymbolTableRecord
100
AcDbRegAppTableRecord
  2
GENIUS_GENFIL_13
 70
     0
  0
APPID
  5
1E4B
330
9
100
AcDbSymbolTableRecord
100
AcDbRegAppTableRecord
  2
GENIUS_GENOBJ-N-CHA_13
 70
     0
  0
APPID
  5
1E4C
330
9
100
AcDbSymbolTableRecord
100
AcDbRegAppTableRecord
  2
GENIUS_GENOBJ-N-CEN_13
 70
     0
  0
ENDTAB
  0
TABLE
  2
DIMSTYLE
  5
A
330
0
100
AcDbSymbolTable
 70
    14
  0
DIMSTYLE
105
6F
102
{ACAD_REACTORS
330
2480
330
2483
330
26E8
330
276D
330
2C93
102
}
330
A
100
AcDbSymbolTableRecord
100
AcDbDimStyleTableRecord
  2
AM_DIN
 70
     0
  3

  4
"
  5

  6

  7

 40
1.0
 41
2.5
 42
0.0
 43
10.0
 44
1.0
 45
0.0
 46
0.0
 47
0.1
 48
0.1
140
3.5
141
0.0
142
0.0
143
0.0393701
144
1.0
145
0.0
146
0.71
147
1.5
 71
     0
 72
     0
 73
     0
 74
     0
 75
     0
 76
     0
 77
     1
 78
     8
170
     0
171
     2
172
     1
173
     0
174
     0
175
     0
176
   256
177
   256
178
     2
270
     2
271
     2
272
     2
273
     2
274
     2
340
11
275
     0
280
     0
281
     0
282
     0
283
     0
284
     8
285
     0
286
     0
287
     3
288
     0
  0
DIMSTYLE
105
70
330
A
100
AcDbSymbolTableRecord
100
AcDbDimStyleTableRecord
  2
AM_DIN$3
 70
     0
  3

  4
"
  5

  6

  7

 40
1.0
 41
3.5
 42
0.0
 43
10.0
 44
1.0
 45
0.0
 46
0.0
 47
0.1
 48
0.1
140
3.5
141
0.0
142
0.0
143
0.0393701
144
1.0
145
0.0
146
0.71
147
1.5
 71
     0
 72
     0
 73
     0
 74
     1
 75
     0
 76
     0
 77
     1
 78
     8
170
     0
171
     2
172
     0
173
     0
174
     0
175
     0
176
   256
177
   256
178
     2
270
     2
271
     2
272
     2
273
     2
274
     2
340
11
275
     0
280
     0
281
     0
282
     0
283
     0
284
     8
285
     0
286
     0
287
     0
288
     1
  0
DIMSTYLE
105
71
330
A
100
AcDbSymbolTableRecord
100
AcDbDimStyleTableRecord
  2
AM_DIN$4
 70
     0
  3

  4
"
  5

  6

  7

 40
1.0
 41
3.5
 42
0.0
 43
10.0
 44
1.0
 45
0.0
 46
0.0
 47
0.1
 48
0.1
140
3.5
141
0.0
142
0.0
143
0.0393701
144
1.0
145
0.0
146
0.71
147
1.5
 71
     0
 72
     0
 73
     0
 74
     1
 75
     0
 76
     0
 77
     1
 78
     8
170
     0
171
     2
172
     0
173
     0
174
     0
175
     0
176
   256
177
   256
178
     2
270
     2
271
     2
272
     2
273
     2
274
     2
340
11
275
     0
280
     0
281
     0
282
     0
283
     0
284
     8
285
     0
286
     0
287
     0
288
     1
  0
DIMSTYLE
105
72
330
A
100
AcDbSymbolTableRecord
100
AcDbDimStyleTableRecord
  2
AM_DIN$6
 70
     0
  3

  4
"
  5

  6

  7

 40
1.0
 41
3.5
 42
0.0
 43
0.0
 44
1.0
 45
0.0
 46
0.0
 47
0.1
 48
0.1
140
3.5
141
0.0
142
0.0
143
0.0393701
144
1.0
145
0.0
146
0.71
147
1.5
 71
     0
 72
     0
 73
     0
 74
     0
 75
     0
 76
     0
 77
     0
 78
     8
170
     0
171
     2
172
     1
173
     0
174
     0
175
     0
176
   256
177
   256
178
     2
270
     2
271
     2
272
     2
273
     2
274
     2
340
11
275
     0
280
     0
281
     0
282
     0
283
     0
284
     8
285
     0
286
     0
287
     3
288
     0
  0
DIMSTYLE
105
73
330
A
100
AcDbSymbolTableRecord
100
AcDbDimStyleTableRecord
  2
AM_DIN$7
 70
     0
  3

  4
"
  5

  6

  7

 40
1.0
 41
3.5
 42
0.0
 43
10.0
 44
1.0
 45
0.0
 46
0.0
 47
0.1
 48
0.1
140
3.5
141
0.0
142
0.0
143
0.0393701
144
1.0
145
0.0
146
0.71
147
1.5
 71
     0
 72
     0
 73
     0
 74
     0
 75
     0
 76
     0
 77
     1
 78
     8
170
     0
171
     2
172
     1
173
     0
174
     0
175
     0
176
   256
177
   256
178
     2
270
     2
271
     2
272
     2
273
     2
274
     2
340
11
275
     0
280
     0
281
     0
282
     0
283
     0
284
     8
285
     0
286
     0
287
     3
288
     0
  0
DIMSTYLE
105
74
330
A
100
AcDbSymbolTableRecord
100
AcDbDimStyleTableRecord
  2
AM_DIN$SF
 70
     0
  3

  4
"
  5

  6

  7

 40
1.0
 41
2.5
 42
1.0
 43
10.0
 44
1.0
 45
0.0
 46
0.0
 47
0.1
 48
0.1
140
3.5
141
0.0
142
0.0
143
0.0393701
144
1.0
145
0.0
146
0.71
147
1.5
 71
     0
 72
     0
 73
     0
 74
     0
 75
     1
 76
     1
 77
     1
 78
     8
170
     0
171
     2
172
     1
173
     0
174
     0
175
     0
176
   256
177
   256
178
     2
270
     2
271
     2
272
     3
273
     2
274
     4
340
11
275
     0
280
     0
281
     0
282
     0
283
     0
284
     8
285
     0
286
     0
287
     3
288
     0
  0
DIMSTYLE
105
79
330
A
100
AcDbSymbolTableRecord
100
AcDbDimStyleTableRecord
  2
AM_DIN$SH
 70
     0
  3

  4
"
  5

  6
GENAXEH
  7

 40
1.0
 41
2.5
 42
1.0
 43
10.0
 44
1.0
 45
0.0
 46
0.0
 47
0.1
 48
0.1
140
3.5
141
0.0
142
0.0
143
0.0393701
144
2.0
145
0.0
146
0.71
147
1.5
 71
     0
 72
     0
 73
     0
 74
     0
 75
     1
 76
     1
 77
     1
 78
     8
170
     0
171
     2
172
     1
173
     1
174
     0
175
     0
176
   256
177
   256
178
     2
270
     2
271
     2
272
     3
273
     2
274
     4
340
11
275
     0
280
     0
281
     0
282
     0
283
     0
284
     8
285
     0
286
     0
287
     3
288
     0
  0
DIMSTYLE
105
1E3B
330
A
100
AcDbSymbolTableRecord
100
AcDbDimStyleTableRecord
  2
STANDARD
 70
     0
  3

  4

  5

  6

  7

 40
1.0
 41
0.18
 42
0.0625
 43
0.38
 44
0.18
 45
0.0
 46
0.0
 47
0.0
 48
0.0
140
0.18
141
0.09
142
0.0
143
25.4
144
1.0
145
0.0
146
1.0
147
0.09
 71
     0
 72
     0
 73
     1
 74
     1
 75
     0
 76
     0
 77
     0
 78
     0
170
     0
171
     2
172
     0
173
     0
174
     0
175
     0
176
     0
177
     0
178
     0
270
     2
271
     2
272
     2
273
     2
274
     2
340
11
275
     0
280
     0
281
     0
282
     0
283
     1
284
     8
285
     8
286
     8
287
     5
288
     0
  0
DIMSTYLE
105
1E3C
330
A
100
AcDbSymbolTableRecord
100
AcDbDimStyleTableRecord
  2
AM_ANSI
 70
     0
  3

  4
mm
  5

  6

  7

 40
1.0
 41
0.1
 42
0.0
 43
0.5
 44
0.1
 45
0.0
 46
0.0
 47
0.1
 48
0.1
140
0.12
141
0.0
142
0.0
143
25.4
144
1.0
145
0.0
146
0.71
147
0.06
 71
     0
 72
     0
 73
     1
 74
     1
 75
     0
 76
     0
 77
     0
 78
     7
170
     0
171
     2
172
     0
173
     0
174
     0
175
     0
176
   256
177
   256
178
     2
270
     2
271
     2
272
     2
273
     2
274
     2
340
11
275
     0
280
     0
281
     0
282
     0
283
     1
284
     8
285
     8
286
     8
287
     5
288
     0
  0
DIMSTYLE
105
1E3D
330
A
100
AcDbSymbolTableRecord
100
AcDbDimStyleTableRecord
  2
AM_ANSI$3
 70
     0
  3

  4
mm
  5

  6

  7

 40
1.0
 41
0.1
 42
0.0
 43
0.5
 44
0.1
 45
0.0
 46
0.0
 47
0.1
 48
0.1
140
0.12
141
0.0
142
0.0
143
25.4
144
1.0
145
0.0
146
0.71
147
0.06
 71
     0
 72
     0
 73
     1
 74
     1
 75
     0
 76
     0
 77
     0
 78
     7
170
     0
171
     2
172
     0
173
     0
174
     0
175
     0
176
   256
177
   256
178
     2
270
     2
271
     2
272
     2
273
     2
274
     2
340
11
275
     0
280
     0
281
     0
282
     0
283
     1
284
     8
285
     8
286
     8
287
     5
288
     0
  0
DIMSTYLE
105
1E3E
330
A
100
AcDbSymbolTableRecord
100
AcDbDimStyleTableRecord
  2
AM_ANSI$4
 70
     0
  3

  4
mm
  5

  6

  7

 40
1.0
 41
0.1
 42
0.0
 43
0.5
 44
0.1
 45
0.0
 46
0.0
 47
0.1
 48
0.1
140
0.12
141
0.0
142
0.0
143
25.4
144
1.0
145
0.0
146
0.71
147
0.06
 71
     0
 72
     0
 73
     1
 74
     1
 75
     0
 76
     0
 77
     0
 78
     7
170
     0
171
     2
172
     0
173
     0
174
     0
175
     0
176
   256
177
   256
178
     2
270
     2
271
     2
272
     2
273
     2
274
     2
340
11
275
     0
280
     0
281
     0
282
     0
283
     1
284
     8
285
     8
286
     8
287
     5
288
     0
  0
DIMSTYLE
105
1E3F
330
A
100
AcDbSymbolTableRecord
100
AcDbDimStyleTableRecord
  2
AM_ANSI$7
 70
     0
  3

  4
mm
  5

  6

  7

 40
1.0
 41
0.1
 42
0.0
 43
0.5
 44
0.1
 45
0.0
 46
0.0
 47
0.1
 48
0.1
140
0.24
141
0.0
142
0.0
143
25.4
144
1.0
145
0.0
146
0.71
147
0.06
 71
     0
 72
     0
 73
     1
 74
     1
 75
     0
 76
     0
 77
     0
 78
     7
170
     0
171
     2
172
     0
173
     0
174
     0
175
     0
176
   256
177
   256
178
     2
270
     2
271
     2
272
     2
273
     2
274
     2
340
11
275
     0
280
     0
281
     0
282
     0
283
     1
284
     8
285
     8
286
     8
287
     5
288
     0
  0
DIMSTYLE
105
1E40
330
A
100
AcDbSymbolTableRecord
100
AcDbDimStyleTableRecord
  2
AM_ANSI$SF
 70
     0
  3

  4
mm
  5

  6

  7

 40
1.0
 41
0.1
 42
0.05
 43
0.5
 44
0.1
 45
0.0
 46
0.0
 47
0.1
 48
0.1
140
0.12
141
0.0
142
0.0
143
25.4
144
1.0
145
0.0
146
0.71
147
0.06
 71
     0
 72
     0
 73
     1
 74
     1
 75
     1
 76
     1
 77
     0
 78
     7
170
     0
171
     2
172
     0
173
     0
174
     0
175
     0
176
   256
177
   256
178
     2
270
     2
271
     2
272
     2
273
     2
274
     2
340
11
275
     0
280
     0
281
     0
282
     0
283
     1
284
     8
285
     8
286
     8
287
     5
288
     0
  0
DIMSTYLE
105
1E41
330
A
100
AcDbSymbolTableRecord
100
AcDbDimStyleTableRecord
  2
AM_ANSI$SH
 70
     0
  3

  4
mm
  5

  6

  7

 40
1.0
 41
0.1
 42
0.05
 43
0.5
 44
0.1
 45
0.0
 46
0.0
 47
0.1
 48
0.1
140
0.12
141
0.0
142
0.0
143
25.4
144
1.0
145
0.0
146
0.71
147
0.06
 71
     0
 72
     0
 73
     1
 74
     1
 75
     1
 76
     1
 77
     0
 78
     7
170
     0
171
     2
172
     0
173
     1
174
     0
175
     0
176
   256
177
   256
178
     2
270
     2
271
     2
272
     2
273
     2
274
     2
340
11
275
     0
280
     0
281
     0
282
     0
283
     1
284
     8
285
     8
286
     8
287
     5
288
     0
  0
ENDTAB
  0
TABLE
  2
BLOCK_RECORD
  5
1
330
0
100
AcDbSymbolTable
 70
     7
  0
BLOCK_RECORD
  5
1F
102
{ACAD_XDICTIONARY
360
1F1
102
}
330
1
100
AcDbSymbolTableRecord
100
AcDbBlockTableRecord
  2
*MODEL_SPACE
  0
BLOCK_RECORD
  5
1B
102
{ACAD_XDICTIONARY
360
2D37
102
}
330
1
100
AcDbSymbolTableRecord
100
AcDbBlockTableRecord
  2
*PAPER_SPACE
  0
BLOCK_RECORD
  5
75
330
1
100
AcDbSymbolTableRecord
100
AcDbBlockTableRecord
  2
GENAXEH
  0
BLOCK_RECORD
  5
2551
330
1
100
AcDbSymbolTableRecord
100
AcDbBlockTableRecord
  2
*D2
  0
BLOCK_RECORD
  5
255D
330
1
100
AcDbSymbolTableRecord
100
AcDbBlockTableRecord
  2
*D3
  0
BLOCK_RECORD
  5
26E9
330
1
100
AcDbSymbolTableRecord
100
AcDbBlockTableRecord
  2
*D4
  0
BLOCK_RECORD
  5
276E
330
1
100
AcDbSymbolTableRecord
100
AcDbBlockTableRecord
  2
*D5
  0
BLOCK_RECORD
  5
2CB0
330
1
100
AcDbSymbolTableRecord
100
AcDbBlockTableRecord
  2
*D6
  0
ENDTAB
  0
ENDSEC
  0
SECTION
  2
BLOCKS
  0
BLOCK
  5
20
330
1F
100
AcDbEntity
  8
0
100
AcDbBlockBegin
  2
*MODEL_SPACE
 70
     0
 10
0.0
 20
0.0
 30
0.0
  3
*MODEL_SPACE
  1

  0
ENDBLK
  5
21
330
1F
100
AcDbEntity
  8
0
100
AcDbBlockEnd
  0
BLOCK
  5
1C
330
1B
100
AcDbEntity
 67
     1
  8
0
100
AcDbBlockBegin
  2
*PAPER_SPACE
 70
     0
 10
0.0
 20
0.0
 30
0.0
  3
*PAPER_SPACE
  1

  0
ENDBLK
  5
1D
330
1B
100
AcDbEntity
 67
     1
  8
0
100
AcDbBlockEnd
  0
BLOCK
  5
77
330
75
100
AcDbEntity
  8
0
100
AcDbBlockBegin
  2
GENAXEH
 70
     0
 10
0.0
 20
0.0
 30
0.0
  3
GENAXEH
  1

  0
LINE
  5
76
330
75
100
AcDbEntity
  8
0
100
AcDbLine
 10
-1.0
 20
0.0
 30
0.0
 11
1.0
 21
0.0
 31
0.0
  0
ENDBLK
  5
78
330
75
100
AcDbEntity
  8
0
100
AcDbBlockEnd
  0
BLOCK
  5
255B
330
2551
100
AcDbEntity
  8
0
100
AcDbBlockBegin
  2
*D2
 70
     1
 10
0.0
 20
0.0
 30
0.0
  3
*D2
  1

  0
LINE
  5
2847
330
2551
100
AcDbEntity
  8
SK2
100
AcDbLine
 10
3.0
 20
-42.50000000000006
 30
0.0
 11
-34.27982976643086
 21
-42.50000000000005
 31
0.0
  0
LINE
  5
2848
330
2551
100
AcDbEntity
  8
SK2
100
AcDbLine
 10
3.0
 20
42.50000000000006
 30
0.0
 11
-34.27982976643085
 21
42.50000000000006
 31
0.0
  0
LINE
  5
2849
330
2551
100
AcDbEntity
  8
SK2
100
AcDbLine
 10
-33.27982976643086
 20
-40.00000000000005
 30
0.0
 11
-33.27982976643085
 21
40.00000000000006
 31
0.0
  0
SOLID
  5
284A
330
2551
100
AcDbEntity
  8
SK2
100
AcDbTrace
 10
-33.69649643309752
 20
-40.00000000000005
 30
0.0
 11
-32.8631630997642
 21
-40.00000000000005
 31
0.0
 12
-33.27982976643086
 22
-42.50000000000005
 32
0.0
 13
-33.27982976643086
 23
-42.50000000000005
 33
0.0
  0
SOLID
  5
284B
330
2551
100
AcDbEntity
  8
SK2
100
AcDbTrace
 10
-33.69649643309751
 20
40.00000000000006
 30
0.0
 11
-32.86316309976418
 21
40.00000000000006
 31
0.0
 12
-33.27982976643085
 22
42.50000000000006
 32
0.0
 13
-33.27982976643085
 23
42.50000000000006
 33
0.0
  0
MTEXT
  5
284C
330
2551
100
AcDbEntity
  8
SK2
 62
     2
100
AcDbMText
 10
-36.52982976643086
 20
0.0000000000000024
 30
0.0
 40
3.5
 41
0.0
 71
     5
 72
     1
  1
%%c85
 11
0.0000000000000001
 21
1.0
 31
0.0
1001
ACAD
1000
MTEXTBEGIN
1070
    73
1070
     1
1070
    44
1040
1.0
1070
    74
1070
     0
1000
MTEXTEND
  0
POINT
  5
284D
330
2551
100
AcDbEntity
  8
DEFPOINTS
 62
     0
100
AcDbPoint
 10
3.0
 20
-42.50000000000006
 30
0.0
  0
POINT
  5
284E
330
2551
100
AcDbEntity
  8
DEFPOINTS
 62
     0
100
AcDbPoint
 10
3.0
 20
42.50000000000006
 30
0.0
  0
POINT
  5
284F
330
2551
100
AcDbEntity
  8
DEFPOINTS
 62
     0
100
AcDbPoint
 10
-33.27982976643085
 20
42.50000000000006
 30
0.0
  0
ENDBLK
  5
255C
330
2551
100
AcDbEntity
  8
0
100
AcDbBlockEnd
  0
BLOCK
  5
2567
330
255D
100
AcDbEntity
  8
0
100
AcDbBlockBegin
  2
*D3
 70
     1
 10
0.0
 20
0.0
 30
0.0
  3
*D3
  1

  0
LINE
  5
283E
330
255D
100
AcDbEntity
  8
SK2
100
AcDbLine
 10
0.0
 20
-15.99999999999994
 30
0.0
 11
-16.948786450054
 21
-15.99999999999993
 31
0.0
  0
LINE
  5
283F
330
255D
100
AcDbEntity
  8
SK2
100
AcDbLine
 10
0.0
 20
16.0
 30
0.0
 11
-16.94878645005399
 21
16.0
 31
0.0
  0
LINE
  5
2840
330
255D
100
AcDbEntity
  8
SK2
100
AcDbLine
 10
-15.948786450054
 20
-13.49999999999993
 30
0.0
 11
-15.94878645005399
 21
13.5
 31
0.0
  0
SOLID
  5
2841
330
255D
100
AcDbEntity
  8
SK2
100
AcDbTrace
 10
-16.36545311672067
 20
-13.49999999999993
 30
0.0
 11
-15.53211978338733
 21
-13.49999999999993
 31
0.0
 12
-15.948786450054
 22
-15.99999999999993
 32
0.0
 13
-15.948786450054
 23
-15.99999999999993
 33
0.0
  0
SOLID
  5
2842
330
255D
100
AcDbEntity
  8
SK2
100
AcDbTrace
 10
-16.36545311672066
 20
13.5
 30
0.0
 11
-15.53211978338733
 21
13.5
 31
0.0
 12
-15.94878645005399
 22
16.0
 32
0.0
 13
-15.94878645005399
 23
16.0
 33
0.0
  0
MTEXT
  5
2843
330
255D
100
AcDbEntity
  8
SK2
 62
     2
100
AcDbMText
 10
-19.19913093824297
 20
1.308009350842724
 30
0.0
 40
3.5
 41
0.0
 71
     5
 72
     1
  1
%%c32
 11
0.0000000000000001
 21
1.0
 31
0.0
1001
ACAD
1000
MTEXTBEGIN
1070
    73
1070
     1
1070
    44
1040
1.0
1070
    74
1070
     0
1000
MTEXTEND
  0
POINT
  5
2844
330
255D
100
AcDbEntity
  8
DEFPOINTS
 62
     0
100
AcDbPoint
 10
0.0
 20
-15.99999999999994
 30
0.0
  0
POINT
  5
2845
330
255D
100
AcDbEntity
  8
DEFPOINTS
 62
     0
100
AcDbPoint
 10
0.0
 20
16.0
 30
0.0
  0
POINT
  5
2846
330
255D
100
AcDbEntity
  8
DEFPOINTS
 62
     0
100
AcDbPoint
 10
-15.94878645005399
 20
16.0
 30
0.0
  0
ENDBLK
  5
2568
330
255D
100
AcDbEntity
  8
0
100
AcDbBlockEnd
  0
BLOCK
  5
26F3
330
26E9
100
AcDbEntity
  8
0
100
AcDbBlockBegin
  2
*D4
 70
     1
 10
0.0
 20
0.0
 30
0.0
  3
*D4
  1

  0
LINE
  5
2850
330
26E9
100
AcDbEntity
  8
2
100
AcDbLine
 10
50.0
 20
50.0
 30
0.0
 11
82.13728724548326
 21
50.0
 31
0.0
  0
LINE
  5
2851
330
26E9
100
AcDbEntity
  8
2
100
AcDbLine
 10
50.0
 20
-50.0
 30
0.0
 11
82.13728724548323
 21
-50.0
 31
0.0
  0
LINE
  5
2852
330
26E9
100
AcDbEntity
  8
2
100
AcDbLine
 10
81.13728724548327
 20
47.49999999999999
 30
0.0
 11
81.13728724548323
 21
-47.5
 31
0.0
  0
SOLID
  5
2853
330
26E9
100
AcDbEntity
  8
2
100
AcDbTrace
 10
80.72062057881659
 20
47.49999999999999
 30
0.0
 11
81.55395391214993
 21
47.49999999999999
 31
0.0
 12
81.13728724548327
 22
50.0
 32
0.0
 13
81.13728724548327
 23
50.0
 33
0.0
  0
SOLID
  5
2854
330
26E9
100
AcDbEntity
  8
2
100
AcDbTrace
 10
80.72062057881657
 20
-47.5
 30
0.0
 11
81.55395391214991
 21
-47.5
 31
0.0
 12
81.13728724548323
 22
-50.0
 32
0.0
 13
81.13728724548323
 23
-50.0
 33
0.0
  0
MTEXT
  5
2855
330
26E9
100
AcDbEntity
  8
2
 62
     2
100
AcDbMText
 10
77.88728724548325
 20
0.0000000000000096
 30
0.0
 40
3.5
 41
0.0
 71
     5
 72
     1
  1
%%c100
 11
0.0000000000000001
 21
1.0
 31
0.0
1001
ACAD
1000
MTEXTBEGIN
1070
    73
1070
     1
1070
    44
1040
1.0
1070
    74
1070
     0
1000
MTEXTEND
  0
POINT
  5
2856
330
26E9
100
AcDbEntity
  8
DEFPOINTS
 62
     0
100
AcDbPoint
 10
50.0
 20
50.0
 30
0.0
  0
POINT
  5
2857
330
26E9
100
AcDbEntity
  8
DEFPOINTS
 62
     0
100
AcDbPoint
 10
50.0
 20
-50.0
 30
0.0
  0
POINT
  5
2858
330
26E9
100
AcDbEntity
  8
DEFPOINTS
 62
     0
100
AcDbPoint
 10
81.13728724548323
 20
-50.0
 30
0.0
  0
ENDBLK
  5
26F4
330
26E9
100
AcDbEntity
  8
0
100
AcDbBlockEnd
  0
BLOCK
  5
2778
330
276E
100
AcDbEntity
  8
0
100
AcDbBlockBegin
  2
*D5
 70
     1
 10
0.0
 20
0.0
 30
0.0
  3
*D5
  1

  0
LINE
  5
282A
330
276E
100
AcDbEntity
  8
2
100
AcDbLine
 10
50.0
 20
50.0
 30
0.0
 11
50.0
 21
76.0
 31
0.0
  0
LINE
  5
282B
330
276E
100
AcDbEntity
  8
2
100
AcDbLine
 10
0.0
 20
39.50000000000006
 30
0.0
 11
0.0000000000000022
 21
76.0
 31
0.0
  0
LINE
  5
282C
330
276E
100
AcDbEntity
  8
2
100
AcDbLine
 10
47.5
 20
75.0
 30
0.0
 11
2.500000000000002
 21
75.0
 31
0.0
  0
SOLID
  5
282D
330
276E
100
AcDbEntity
  8
2
100
AcDbTrace
 10
47.5
 20
75.41666666666667
 30
0.0
 11
47.5
 21
74.58333333333333
 31
0.0
 12
50.0
 22
75.0
 32
0.0
 13
50.0
 23
75.0
 33
0.0
  0
SOLID
  5
282E
330
276E
100
AcDbEntity
  8
2
100
AcDbTrace
 10
2.500000000000002
 20
75.41666666666667
 30
0.0
 11
2.500000000000002
 21
74.58333333333333
 31
0.0
 12
0.0000000000000022
 22
75.0
 32
0.0
 13
0.0000000000000022
 23
75.0
 33
0.0
  0
MTEXT
  5
282F
330
276E
100
AcDbEntity
  8
2
 62
     2
100
AcDbMText
 10
25.0
 20
78.25
 30
0.0
 40
3.5
 41
0.0
 71
     5
 72
     1
  1
50
1001
ACAD
1000
MTEXTBEGIN
1070
    73
1070
     1
1070
    44
1040
1.0
1070
    74
1070
     0
1000
MTEXTEND
  0
POINT
  5
2830
330
276E
100
AcDbEntity
  8
DEFPOINTS
 62
     0
100
AcDbPoint
 10
50.0
 20
50.0
 30
0.0
  0
POINT
  5
2831
330
276E
100
AcDbEntity
  8
DEFPOINTS
 62
     0
100
AcDbPoint
 10
0.0
 20
39.50000000000006
 30
0.0
  0
POINT
  5
2832
330
276E
100
AcDbEntity
  8
DEFPOINTS
 62
     0
100
AcDbPoint
 10
0.0000000000000022
 20
75.0
 30
0.0
  0
ENDBLK
  5
2779
330
276E
100
AcDbEntity
  8
0
100
AcDbBlockEnd
  0
BLOCK
  5
2CBA
330
2CB0
100
AcDbEntity
  8
0
100
AcDbBlockBegin
  2
*D6
 70
     1
 10
0.0
 20
0.0
 30
0.0
  3
*D6
  1

  0
LINE
  5
2CF4
330
2CB0
100
AcDbEntity
  8
2
100
AcDbLine
 10
50.0
 20
50.0
 30
0.0
 11
50.0
 21
61.0
 31
0.0
  0
LINE
  5
2CF5
330
2CB0
100
AcDbEntity
  8
2
100
AcDbLine
 10
37.5
 20
50.0
 30
0.0
 11
37.5
 21
61.0
 31
0.0
  0
LINE
  5
2CF6
330
2CB0
100
AcDbEntity
  8
2
100
AcDbLine
 10
47.5
 20
60.0
 30
0.0
 11
40.0
 21
60.0
 31
0.0
  0
SOLID
  5
2CF7
330
2CB0
100
AcDbEntity
  8
2
100
AcDbTrace
 10
47.5
 20
60.41666666666666
 30
0.0
 11
47.5
 21
59.58333333333333
 31
0.0
 12
50.0
 22
60.0
 32
0.0
 13
50.0
 23
60.0
 33
0.0
  0
SOLID
  5
2CF8
330
2CB0
100
AcDbEntity
  8
2
100
AcDbTrace
 10
40.0
 20
60.41666666666666
 30
0.0
 11
40.0
 21
59.58333333333333
 31
0.0
 12
37.5
 22
60.0
 32
0.0
 13
37.5
 23
60.0
 33
0.0
  0
MTEXT
  5
2CF9
330
2CB0
100
AcDbEntity
  8
2
 62
     2
100
AcDbMText
 10
42.48197351017762
 20
63.25034448818898
 30
0.0
 40
3.5
 41
0.0
 71
     5
 72
     1
  1
12.5
1001
ACAD
1000
MTEXTBEGIN
1070
    73
1070
     1
1070
    44
1040
1.0
1070
    74
1070
     0
1000
MTEXTEND
  0
POINT
  5
2CFA
330
2CB0
100
AcDbEntity
  8
DEFPOINTS
 62
     0
100
AcDbPoint
 10
50.0
 20
50.0
 30
0.0
  0
POINT
  5
2CFB
330
2CB0
100
AcDbEntity
  8
DEFPOINTS
 62
     0
100
AcDbPoint
 10
37.5
 20
50.0
 30
0.0
  0
POINT
  5
2CFC
330
2CB0
100
AcDbEntity
  8
DEFPOINTS
 62
     0
100
AcDbPoint
 10
37.5
 20
60.0
 30
0.0
  0
ENDBLK
  5
2CBB
330
2CB0
100
AcDbEntity
  8
0
100
AcDbBlockEnd
  0
ENDSEC
  0
SECTION
  2
ENTITIES
  0
LINE
  5
2471
330
1F
100
AcDbEntity
  8
1
100
AcDbLine
 10
18.48087237763718
 20
-42.50000000000006
 30
0.0
 11
3.0
 21
-42.50000000000006
 31
0.0
  0
LINE
  5
2472
330
1F
100
AcDbEntity
  8
SK3
 48
0.5
100
AcDbLine
 10
0.0
 20
-15.99999999999994
 30
0.0
 11
25.0
 21
-16.00000000000005
 31
0.0
  0
LINE
  5
2473
330
1F
100
AcDbEntity
  8
SK1
100
AcDbLine
 10
0.0
 20
-7.199999999999988
 30
0.0
 11
8.0
 21
-7.199999999999988
 31
0.0
  0
LINE
  5
2474
330
1F
100
AcDbEntity
  8
SK1
100
AcDbLine
 10
8.0
 20
7.199999999999988
 30
0.0
 11
0.0
 21
7.199999999999988
 31
0.0
  0
LINE
  5
2475
330
1F
100
AcDbEntity
  8
SK3
 48
0.5
100
AcDbLine
 10
25.0
 20
16.0
 30
0.0
 11
0.0
 21
16.0
 31
0.0
  0
LINE
  5
2476
330
1F
100
AcDbEntity
  8
1
100
AcDbLine
 10
18.48087237763763
 20
42.49999999999994
 30
0.0
 11
3.0
 21
42.50000000000006
 31
0.0
  0
LINE
  5
2477
330
1F
100
AcDbEntity
  8
SK1
100
AcDbLine
 10
8.0
 20
-7.199999999999988
 30
0.0
 11
8.0
 21
7.199999999999988
 31
0.0
  0
LINE
  5
2478
330
1F
100
AcDbEntity
  8
SK3
 48
0.5
100
AcDbLine
 10
25.0
 20
-16.00000000000005
 30
0.0
 11
25.0
 21
16.0
 31
0.0
  0
LINE
  5
2479
330
1F
100
AcDbEntity
  8
SK3
 48
0.5
100
AcDbLine
 10
30.30000000000313
 20
13.5
 30
0.0
 11
30.30000000000313
 21
-13.50000000000005
 31
0.0
  0
LINE
  5
247B
330
1F
100
AcDbEntity
  8
SK3
 48
0.5
100
AcDbLine
 10
48.99679480008376
 20
13.50000000000002
 30
0.0
 11
30.30000000000313
 21
13.5
 31
0.0
  0
LINE
  5
247C
330
1F
100
AcDbEntity
  8
SK3
100
AcDbLine
 10
25.0
 20
9.0
 30
0.0
 11
30.30000000000313
 21
9.0
 31
0.0
  0
LINE
  5
247D
330
1F
100
AcDbEntity
  8
SK3
 48
0.5
100
AcDbLine
 10
30.30000000000313
 20
-13.50000000000005
 30
0.0
 11
48.99679480008376
 21
-13.50000000000005
 31
0.0
  0
LINE
  5
247E
330
1F
100
AcDbEntity
  8
SK3
 48
0.5
100
AcDbLine
 10
25.0
 20
-9.000000000000056
 30
0.0
 11
30.30000000000313
 21
-9.0
 31
0.0
  0
LINE
  5
247F
330
1F
100
AcDbEntity
  8
1
100
AcDbLine
 10
0.0
 20
-39.50000000000006
 30
0.0
 11
0.0
 21
-7.199999999999988
 31
0.0
  0
DIMENSION
  5
2480
330
1F
100
AcDbEntity
  8
SK2
100
AcDbDimension
  2
*D2
 10
-33.27982976643085
 20
42.50000000000006
 30
0.0
 11
-36.52982976643086
 21
0.0000000000000024
 31
0.0
 70
    32
  1
%%c<>
  3
AM_DIN
100
AcDbAlignedDimension
 13
3.0
 23
-42.50000000000006
 33
0.0
 14
3.0
 24
42.50000000000006
 34
0.0
 50
270.0
100
AcDbRotatedDimension
  0
LINE
  5
2481
330
1F
100
AcDbEntity
  8
1
100
AcDbLine
 10
0.0
 20
7.199999999999988
 30
0.0
 11
0.0
 21
39.50000000000006
 31
0.0
  0
ARC
  5
2482
330
1F
100
AcDbEntity
  8
1
100
AcDbCircle
 10
3.000000000000056
 20
39.50000000000011
 30
0.0
 40
3.0
100
AcDbArc
 50
89.99999999999959
 51
180.0
1001
GENIUS_GENODEF_13
1002
{
1000
HIER
1070
     0
1002
}
1002
{
1000
MANEDIT
1070
     0
1002
}
1002
{
1000
NOSEL
1070
     0
1002
}
1002
{
1000
BEHIND
1070
     0
1002
}
1002
{
1000
OTHER
1070
     0
1002
}
1002
{
1000
REACTOR
1002
}
1001
GENIUS_GENOBJ-N-FIL_13
1002
{
1000
OWNER
1000
GEN
1002
}
  0
DIMENSION
  5
2483
330
1F
100
AcDbEntity
  8
SK2
100
AcDbDimension
  2
*D3
 10
-15.94878645005399
 20
16.0
 30
0.0
 11
-15.948786450054
 21
1.308009350842723
 31
0.0
 70
   160
  1
%%c<>
  3
AM_DIN
100
AcDbAlignedDimension
 13
0.0
 23
-15.99999999999994
 33
0.0
 14
0.0
 24
16.0
 34
0.0
 50
270.0
100
AcDbRotatedDimension
  0
ARC
  5
2484
330
1F
100
AcDbEntity
  8
1
100
AcDbCircle
 10
3.000000000000056
 20
-39.50000000000002
 30
0.0
 40
3.0
100
AcDbArc
 50
180.0
 51
270.0
1001
GENIUS_GENODEF_13
1002
{
1000
HIER
1070
     0
1002
}
1002
{
1000
MANEDIT
1070
     0
1002
}
1002
{
1000
NOSEL
1070
     0
1002
}
1002
{
1000
BEHIND
1070
     0
1002
}
1002
{
1000
OTHER
1070
     0
1002
}
1002
{
1000
REACTOR
1002
}
1001
GENIUS_GENOBJ-N-FIL_13
1002
{
1000
OWNER
1000
GEN
1002
}
  0
LINE
  5
2659
330
1F
100
AcDbEntity
  8
SK1
100
AcDbLine
 10
0.0
 20
3.200115174948678
 30
0.0
 11
0.0
 21
-3.200115174948678
 31
0.0
  0
CIRCLE
  5
265A
330
1F
100
AcDbEntity
  8
SK1
100
AcDbCircle
 10
0.0
 20
0.0
 30
0.0
 40
3.200115174948665
  0
LINE
  5
265B
330
1F
100
AcDbEntity
  8
SK1
100
AcDbLine
 10
-3.200115174948678
 20
0.0
 30
0.0
 11
3.200115174948678
 21
0.0
 31
0.0
  0
LINE
  5
265C
330
1F
100
AcDbEntity
  8
4
100
AcDbLine
 10
51.88317995499568
 20
-0.0000000000000853
 30
0.0
 11
0.0
 21
0.000000000000199
 31
0.0
  0
CIRCLE
  5
2670
330
1F
100
AcDbEntity
  8
SK1
100
AcDbCircle
 10
50.0
 20
50.0
 30
0.0
 40
0.4637693698488208
  0
LINE
  5
2671
330
1F
100
AcDbEntity
  8
SK1
100
AcDbLine
 10
49.53623063015129
 20
50.0
 30
0.0
 11
50.46376936984893
 21
50.0
 31
0.0
  0
LINE
  5
267A
330
1F
100
AcDbEntity
  8
SK1
100
AcDbLine
 10
50.0
 20
50.46376936984882
 30
0.0
 11
50.0
 21
49.53623063015118
 31
0.0
  0
LINE
  5
267F
330
1F
100
AcDbEntity
  8
1
100
AcDbLine
 10
36.50580587159836
 20
49.27113434341677
 30
0.0
 11
25.2520067210545
 21
49.27113434341681
 31
0.0
  0
LINE
  5
2680
330
1F
100
AcDbEntity
  8
1
100
AcDbLine
 10
25.2520067210545
 20
49.27113434341681
 30
0.0
 11
18.48087237763763
 21
42.49999999999994
 31
0.0
  0
LINE
  5
2681
330
1F
100
AcDbEntity
  8
4
100
AcDbLine
 10
21.96078347248021
 20
15.00948328182983
 30
0.0
 11
39.31714926682556
 21
41.86460949987872
 31
0.0
  0
LINE
  5
269C
330
1F
100
AcDbEntity
  8
1
100
AcDbLine
 10
48.99679480008375
 20
45.51219587175666
 30
0.0
 11
48.99679480008376
 21
-49.2711343434172
 31
0.0
  0
LINE
  5
269E
330
1F
100
AcDbEntity
  8
1
100
AcDbLine
 10
48.99679480008376
 20
-49.2711343434172
 30
0.0
 11
25.25200672105421
 21
-49.27113434341698
 31
0.0
  0
LINE
  5
26A0
330
1F
100
AcDbEntity
  8
1
100
AcDbLine
 10
25.2520067210541
 20
-49.27113434341714
 30
0.0
 11
18.48087237763718
 21
-42.50000000000006
 31
0.0
  0
CIRCLE
  5
26A2
330
1F
100
AcDbEntity
  8
SK1
100
AcDbCircle
 10
50.0
 20
-50.0
 30
0.0
 40
0.4637693698488208
  0
LINE
  5
26A3
330
1F
100
AcDbEntity
  8
SK1
100
AcDbLine
 10
49.53623063015107
 20
-50.0
 30
0.0
 11
50.4637693698487
 21
-50.0
 31
0.0
  0
LINE
  5
26AD
330
1F
100
AcDbEntity
  8
SK1
100
AcDbLine
 10
50.0
 20
-50.0
 30
0.0
 11
50.0
 21
-49.53623063015118
 31
0.0
  0
TEXT
  5
26B4
330
1F
100
AcDbEntity
  8
6
100
AcDbText
 10
52.23786248682046
 20
-55.90887315498244
 30
0.0
 40
3.5
  1
2J1C100R00
100
AcDbText
  0
DIMENSION
  5
26E8
330
1F
100
AcDbEntity
  8
2
100
AcDbDimension
  2
*D4
 10
81.13728724548323
 20
-50.0
 30
0.0
 11
77.88728724548325
 21
0.0000000000000096
 31
0.0
 70
    32
  1
%%c<>
  3
AM_DIN
100
AcDbAlignedDimension
 13
50.0
 23
50.0
 33
0.0
 14
50.0
 24
-50.0
 34
0.0
 50
90.0
100
AcDbRotatedDimension
  0
TEXT
  5
270A
330
1F
100
AcDbEntity
  8
6
100
AcDbText
 10
88.29719422832079
 20
-4.048052781570902
 30
0.0
 40
3.5
  1
Z=8
 50
90.0
100
AcDbText
  0
DIMENSION
  5
276D
330
1F
100
AcDbEntity
  8
2
100
AcDbDimension
  2
*D5
 10
0.0000000000000022
 20
75.0
 30
0.0
 11
25.0
 21
78.25
 31
0.0
 70
    32
  3
AM_DIN
100
AcDbAlignedDimension
 13
50.0
 23
50.0
 33
0.0
 14
0.0
 24
39.50000000000006
 34
0.0
100
AcDbRotatedDimension
  0
LINE
  5
27AC
330
1F
100
AcDbEntity
  8
NOCUT
100
AcDbLine
 10
48.99679480008376
 20
-0.0000000000000568
 30
0.0
 11
0.0
 21
0.0000000000002274
 31
0.0
  0
LINE
  5
27AD
330
1F
100
AcDbEntity
  8
NOCUT
100
AcDbLine
 10
25.2520067210541
 20
-49.27113434341712
 30
0.0
 11
18.48087237763718
 21
-42.50000000000002
 31
0.0
  0
LINE
  5
27B3
330
1F
100
AcDbEntity
  8
NOCUT
100
AcDbLine
 10
0.0
 20
-39.50000000000002
 30
0.0
 11
0.0
 21
0.0000000000002274
 31
0.0
  0
LINE
  5
27B4
330
1F
100
AcDbEntity
  8
NOCUT
100
AcDbLine
 10
18.48087237763718
 20
-42.50000000000002
 30
0.0
 11
3.0
 21
-42.50000000000002
 31
0.0
  0
ARC
  5
27B5
330
1F
100
AcDbEntity
  8
NOCUT
100
AcDbCircle
 10
3.000000000000056
 20
-39.5
 30
0.0
 40
3.0
100
AcDbArc
 50
180.0
 51
270.0
1001
GENIUS_GENODEF_13
1002
{
1000
HIER
1070
     0
1002
}
1002
{
1000
MANEDIT
1070
     0
1002
}
1002
{
1000
NOSEL
1070
     0
1002
}
1002
{
1000
BEHIND
1070
     0
1002
}
1002
{
1000
OTHER
1070
     0
1002
}
1002
{
1000
REACTOR
1002
}
1001
GENIUS_GENOBJ-N-FIL_13
1002
{
1000
OWNER
1000
GEN
1002
}
  0
LINE
  5
27BE
330
1F
100
AcDbEntity
  8
NOCUT
100
AcDbLine
 10
48.99679480008376
 20
-0.0000000000000568
 30
0.0
 11
48.99679480008376
 21
-49.27113434341717
 31
0.0
  0
LINE
  5
27BF
330
1F
100
AcDbEntity
  8
NOCUT
100
AcDbLine
 10
48.99679480008376
 20
-49.27113434341717
 30
0.0
 11
25.25200672105421
 21
-49.27113434341695
 31
0.0
  0
DIMENSION
  5
2C93
330
1F
100
AcDbEntity
  8
2
100
AcDbDimension
  2
*D6
 10
37.5
 20
60.0
 30
0.0
 11
42.48197351017762
 21
60.0
 31
0.0
 70
   160
  3
AM_DIN
100
AcDbAlignedDimension
 13
50.0
 23
50.0
 33
0.0
 14
37.5
 24
50.0
 34
0.0
100
AcDbRotatedDimension
  0
LINE
  5
2C94
330
1F
100
AcDbEntity
  8
CUT
100
AcDbLine
 10
48.00999999999999
 20
41.96
 30
0.0
 11
35.41999999999996
 21
41.95999999999997
 31
0.0
  0
LINE
  5
2C95
330
1F
100
AcDbEntity
  8
1
100
AcDbLine
 10
48.00999999999999
 20
41.96
 30
0.0
 11
35.41999999999996
 21
41.95999999999997
 31
0.0
  0
ARC
  5
2C96
330
1F
100
AcDbEntity
  8
CUT
100
AcDbCircle
 10
48.05217853779106
 20
42.35999999999992
 30
0.0
 40
0.4
100
AcDbArc
 50
270.0
 51
350.3
1001
GENIUS_GENODEF_13
1002
{
1000
HIER
1070
     0
1002
}
1002
{
1000
MANEDIT
1070
     0
1002
}
1002
{
1000
NOSEL
1070
     0
1002
}
1002
{
1000
BEHIND
1070
     0
1002
}
1002
{
1000
OTHER
1070
     0
1002
}
1002
{
1000
REACTOR
1002
}
1001
GENIUS_GENOBJ-N-FIL_13
1002
{
1000
OWNER
1000
GEN
1002
}
  0
ARC
  5
2C97
330
1F
100
AcDbEntity
  8
1
100
AcDbCircle
 10
48.05217853779106
 20
42.35999999999992
 30
0.0
 40
0.4
100
AcDbArc
 50
270.0
 51
350.3
1001
GENIUS_GENODEF_13
1002
{
1000
HIER
1070
     0
1002
}
1002
{
1000
MANEDIT
1070
     0
1002
}
1002
{
1000
NOSEL
1070
     0
1002
}
1002
{
1000
BEHIND
1070
     0
1002
}
1002
{
1000
OTHER
1070
     0
1002
}
1002
{
1000
REACTOR
1002
}
1001
GENIUS_GENOBJ-N-FIL_13
1002
{
1000
OWNER
1000
GEN
1002
}
  0
CIRCLE
  5
2C99
330
1F
100
AcDbEntity
  8
1
100
AcDbCircle
 10
42.50999999999999
 20
45.97999999999998
 30
0.0
 40
2.749999999999976
  0
LINE
  5
2C9A
330
1F
100
AcDbEntity
  8
1
100
AcDbLine
 10
38.15348280697623
 20
39.27113434341677
 30
0.0
 11
48.99679480008382
 21
39.27113434341677
 31
0.0
  0
ARC
  5
2C9B
330
1F
100
AcDbEntity
  8
1
100
AcDbCircle
 10
38.15348280697628
 20
47.27113434341677
 30
0.0
 40
8.0
100
AcDbArc
 50
165.5224878140701
 51
270.0
1001
GENIUS_GENOBJ-N-FIL_13
1002
{
1000
OWNER
1000
GEN
1002
}
1001
GENIUS_GENODEF_13
1002
{
1000
HIER
1070
     0
1002
}
1002
{
1000
MANEDIT
1070
     0
1002
}
1002
{
1000
NOSEL
1070
     0
1002
}
1002
{
1000
BEHIND
1070
     0
1002
}
1002
{
1000
OTHER
1070
     0
1002
}
1002
{
1000
REACTOR
1002
}
  0
LINE
  5
2C9C
330
1F
100
AcDbEntity
  8
CUT
100
AcDbLine
 10
35.01999999999998
 20
42.35999999999998
 30
0.0
 11
35.01999999999998
 21
43.95999999999995
 31
0.0
  0
LINE
  5
2C9D
330
1F
100
AcDbEntity
  8
1
100
AcDbLine
 10
35.01999999999998
 20
42.35999999999998
 30
0.0
 11
35.01999999999998
 21
43.95999999999995
 31
0.0
  0
ARC
  5
2C9E
330
1F
100
AcDbEntity
  8
CUT
100
AcDbCircle
 10
35.41999999999996
 20
42.35999999999996
 30
0.0
 40
0.4
100
AcDbArc
 50
180.0
 51
270.0
1001
GENIUS_GENOBJ-N-FIL_13
1002
{
1000
OWNER
1000
GEN
1002
}
1001
GENIUS_GENODEF_13
1002
{
1000
HIER
1070
     0
1002
}
1002
{
1000
MANEDIT
1070
     0
1002
}
1002
{
1000
NOSEL
1070
     0
1002
}
1002
{
1000
BEHIND
1070
     0
1002
}
1002
{
1000
OTHER
1070
     0
1002
}
1002
{
1000
REACTOR
1002
}
  0
ARC
  5
2C9F
330
1F
100
AcDbEntity
  8
1
100
AcDbCircle
 10
35.41999999999996
 20
42.35999999999996
 30
0.0
 40
0.4
100
AcDbArc
 50
180.0
 51
270.0
1001
GENIUS_GENOBJ-N-FIL_13
1002
{
1000
OWNER
1000
GEN
1002
}
1001
GENIUS_GENODEF_13
1002
{
1000
HIER
1070
     0
1002
}
1002
{
1000
MANEDIT
1070
     0
1002
}
1002
{
1000
NOSEL
1070
     0
1002
}
1002
{
1000
BEHIND
1070
     0
1002
}
1002
{
1000
OTHER
1070
     0
1002
}
1002
{
1000
REACTOR
1002
}
  0
LINE
  5
2CA0
330
1F
100
AcDbEntity
  8
CUT
100
AcDbLine
 10
35.01999999999998
 20
43.95999999999998
 30
0.0
 11
35.76889018293275
 21
44.95999999999995
 31
0.0
  0
LINE
  5
2CA1
330
1F
100
AcDbEntity
  8
1
100
AcDbLine
 10
35.01999999999998
 20
43.95999999999998
 30
0.0
 11
35.76889018293275
 21
44.95999999999995
 31
0.0
  0
LINE
  5
2CA2
330
1F
100
AcDbEntity
  8
CUT
100
AcDbLine
 10
35.76889018293281
 20
44.96000000000003
 30
0.0
 11
36.57354007457337
 21
49.66739575182606
 31
0.0
  0
LINE
  5
2CA3
330
1F
100
AcDbEntity
  8
1
100
AcDbLine
 10
35.76889018293281
 20
44.96000000000003
 30
0.0
 11
36.57354007457337
 21
49.66739575182606
 31
0.0
  0
ARC
  5
2CA4
330
1F
100
AcDbEntity
  8
CUT
100
AcDbCircle
 10
36.96782146220892
 20
49.60000000000002
 30
0.0
 40
0.4
100
AcDbArc
 50
90.0
 51
170.3
1001
GENIUS_GENODEF_13
1002
{
1000
HIER
1070
     0
1002
}
1002
{
1000
MANEDIT
1070
     0
1002
}
1002
{
1000
NOSEL
1070
     0
1002
}
1002
{
1000
BEHIND
1070
     0
1002
}
1002
{
1000
OTHER
1070
     0
1002
}
1002
{
1000
REACTOR
1002
}
1001
GENIUS_GENOBJ-N-FIL_13
1002
{
1000
OWNER
1000
GEN
1002
}
  0
ARC
  5
2CA5
330
1F
100
AcDbEntity
  8
1
100
AcDbCircle
 10
36.96782146220892
 20
49.60000000000002
 30
0.0
 40
0.4
100
AcDbArc
 50
90.0
 51
170.3
1001
GENIUS_GENODEF_13
1002
{
1000
HIER
1070
     0
1002
}
1002
{
1000
MANEDIT
1070
     0
1002
}
1002
{
1000
NOSEL
1070
     0
1002
}
1002
{
1000
BEHIND
1070
     0
1002
}
1002
{
1000
OTHER
1070
     0
1002
}
1002
{
1000
REACTOR
1002
}
1001
GENIUS_GENOBJ-N-FIL_13
1002
{
1000
OWNER
1000
GEN
1002
}
  0
LINE
  5
2CA6
330
1F
100
AcDbEntity
  8
CUT
100
AcDbLine
 10
37.00999999999999
 20
49.99999999999994
 30
0.0
 11
49.60000000000002
 21
50.0
 31
0.0
  0
LINE
  5
2CA7
330
1F
100
AcDbEntity
  8
1
100
AcDbLine
 10
37.00999999999999
 20
49.99999999999994
 30
0.0
 11
49.60000000000002
 21
50.0
 31
0.0
  0
LINE
  5
2CA8
330
1F
100
AcDbEntity
  8
CUT
100
AcDbLine
 10
49.25110981706717
 20
46.99999999999994
 30
0.0
 11
48.44645992542661
 21
42.29260424817391
 31
0.0
  0
LINE
  5
2CA9
330
1F
100
AcDbEntity
  8
1
100
AcDbLine
 10
49.25110981706717
 20
46.99999999999994
 30
0.0
 11
48.44645992542661
 21
42.29260424817391
 31
0.0
  0
LINE
  5
2CAA
330
1F
100
AcDbEntity
  8
CUT
100
AcDbLine
 10
50.0
 20
48.0
 30
0.0
 11
49.25110981706723
 21
47.00000000000002
 31
0.0
  0
LINE
  5
2CAB
330
1F
100
AcDbEntity
  8
1
100
AcDbLine
 10
50.0
 20
48.0
 30
0.0
 11
49.25110981706723
 21
47.00000000000002
 31
0.0
  0
LINE
  5
2CAC
330
1F
100
AcDbEntity
  8
CUT
100
AcDbLine
 10
50.0
 20
49.59999999999999
 30
0.0
 11
50.0
 21
48.00000000000003
 31
0.0
  0
LINE
  5
2CAD
330
1F
100
AcDbEntity
  8
1
100
AcDbLine
 10
50.0
 20
49.59999999999999
 30
0.0
 11
50.0
 21
48.00000000000003
 31
0.0
  0
ARC
  5
2CAE
330
1F
100
AcDbEntity
  8
CUT
100
AcDbCircle
 10
49.60000000000002
 20
49.59999999999999
 30
0.0
 40
0.4
100
AcDbArc
 50
0.0
 51
90.0
1001
GENIUS_GENOBJ-N-FIL_13
1002
{
1000
OWNER
1000
GEN
1002
}
1001
GENIUS_GENODEF_13
1002
{
1000
HIER
1070
     0
1002
}
1002
{
1000
MANEDIT
1070
     0
1002
}
1002
{
1000
NOSEL
1070
     0
1002
}
1002
{
1000
BEHIND
1070
     0
1002
}
1002
{
1000
OTHER
1070
     0
1002
}
1002
{
1000
REACTOR
1002
}
  0
ARC
  5
2CAF
330
1F
100
AcDbEntity
  8
1
100
AcDbCircle
 10
49.60000000000002
 20
49.59999999999999
 30
0.0
 40
0.4
100
AcDbArc
 50
0.0
 51
90.0
1001
GENIUS_GENOBJ-N-FIL_13
1002
{
1000
OWNER
1000
GEN
1002
}
1001
GENIUS_GENODEF_13
1002
{
1000
HIER
1070
     0
1002
}
1002
{
1000
MANEDIT
1070
     0
1002
}
1002
{
1000
NOSEL
1070
     0
1002
}
1002
{
1000
BEHIND
1070
     0
1002
}
1002
{
1000
OTHER
1070
     0
1002
}
1002
{
1000
REACTOR
1002
}
  0
CIRCLE
  5
2CC5
330
1F
100
AcDbEntity
  8
SK3
100
AcDbCircle
 10
42.50999999999999
 20
-45.98000000000001
 30
0.0
 40
2.749999999999976
  0
LINE
  5
2CC6
330
1F
100
AcDbEntity
  8
SK3
100
AcDbLine
 10
35.76889018293281
 20
-44.96000000000006
 30
0.0
 11
36.5058058715984
 21
-49.27113434341689
 31
0.0
  0
LINE
  5
2CC7
330
1F
100
AcDbEntity
  8
1
100
AcDbLine
 10
36.5058058715984
 20
-49.27113434341689
 30
0.0
 11
36.57354007457337
 21
-49.66739575182609
 31
0.0
  0
ARC
  5
2CC8
330
1F
100
AcDbEntity
  8
1
100
AcDbCircle
 10
36.96782146220892
 20
-49.60000000000005
 30
0.0
 40
0.4
100
AcDbArc
 50
189.6999999999999
 51
270.0
1001
GENIUS_GENODEF_13
1002
{
1000
HIER
1070
     0
1002
}
1002
{
1000
MANEDIT
1070
     0
1002
}
1002
{
1000
NOSEL
1070
     0
1002
}
1002
{
1000
BEHIND
1070
     0
1002
}
1002
{
1000
OTHER
1070
     0
1002
}
1002
{
1000
REACTOR
1002
}
1001
GENIUS_GENOBJ-N-FIL_13
1002
{
1000
OWNER
1000
GEN
1002
}
  0
LINE
  5
2CC9
330
1F
100
AcDbEntity
  8
SK3
100
AcDbLine
 10
35.01999999999998
 20
-43.96
 30
0.0
 11
35.76889018293275
 21
-44.95999999999997
 31
0.0
  0
LINE
  5
2CCA
330
1F
100
AcDbEntity
  8
SK3
100
AcDbLine
 10
35.01999999999998
 20
-42.36000000000001
 30
0.0
 11
35.01999999999998
 21
-43.95999999999998
 31
0.0
  0
ARC
  5
2CCB
330
1F
100
AcDbEntity
  8
SK3
100
AcDbCircle
 10
35.41999999999996
 20
-42.35999999999998
 30
0.0
 40
0.4
100
AcDbArc
 50
90.0
 51
180.0
1001
GENIUS_GENOBJ-N-FIL_13
1002
{
1000
OWNER
1000
GEN
1002
}
1001
GENIUS_GENODEF_13
1002
{
1000
HIER
1070
     0
1002
}
1002
{
1000
MANEDIT
1070
     0
1002
}
1002
{
1000
NOSEL
1070
     0
1002
}
1002
{
1000
BEHIND
1070
     0
1002
}
1002
{
1000
OTHER
1070
     0
1002
}
1002
{
1000
REACTOR
1002
}
  0
ARC
  5
2CCC
330
1F
100
AcDbEntity
  8
SK3
 48
0.3
100
AcDbCircle
 10
38.153482806976
 20
-47.2711343434168
 30
0.0
 40
8.0
100
AcDbArc
 50
89.99999999999836
 51
194.4775121859306
1001
GENIUS_GENOBJ-N-FIL_13
1002
{
1000
OWNER
1000
GEN
1002
}
1001
GENIUS_GENODEF_13
1002
{
1000
HIER
1070
     0
1002
}
1002
{
1000
MANEDIT
1070
     0
1002
}
1002
{
1000
NOSEL
1070
     0
1002
}
1002
{
1000
BEHIND
1070
     0
1002
}
1002
{
1000
OTHER
1070
     0
1002
}
1002
{
1000
REACTOR
1002
}
  0
LINE
  5
2CCD
330
1F
100
AcDbEntity
  8
SK3
100
AcDbLine
 10
48.00999999999999
 20
-41.96000000000004
 30
0.0
 11
35.41999999999996
 21
-41.96
 31
0.0
  0
LINE
  5
2CCE
330
1F
100
AcDbEntity
  8
1
100
AcDbLine
 10
37.00999999999999
 20
-49.99999999999997
 30
0.0
 11
49.60000000000002
 21
-50.00000000000003
 31
0.0
  0
LINE
  5
2CCF
330
1F
100
AcDbEntity
  8
1
100
AcDbLine
 10
49.25110981706717
 20
-46.99999999999997
 30
0.0
 11
48.99679480008376
 21
-45.51219587175668
 31
0.0
  0
LINE
  5
2CD0
330
1F
100
AcDbEntity
  8
1
100
AcDbLine
 10
50.0
 20
-48.00000000000003
 30
0.0
 11
49.25110981706723
 21
-47.00000000000005
 31
0.0
  0
LINE
  5
2CD1
330
1F
100
AcDbEntity
  8
SK3
100
AcDbLine
 10
48.99679480008376
 20
-45.51219587175668
 30
0.0
 11
48.44645992542661
 21
-42.29260424817394
 31
0.0
  0
ARC
  5
2CD2
330
1F
100
AcDbEntity
  8
SK3
100
AcDbCircle
 10
48.05217853779106
 20
-42.35999999999996
 30
0.0
 40
0.4
100
AcDbArc
 50
9.699999999999931
 51
90.0
1001
GENIUS_GENODEF_13
1002
{
1000
HIER
1070
     0
1002
}
1002
{
1000
MANEDIT
1070
     0
1002
}
1002
{
1000
NOSEL
1070
     0
1002
}
1002
{
1000
BEHIND
1070
     0
1002
}
1002
{
1000
OTHER
1070
     0
1002
}
1002
{
1000
REACTOR
1002
}
1001
GENIUS_GENOBJ-N-FIL_13
1002
{
1000
OWNER
1000
GEN
1002
}
  0
LINE
  5
2CD3
330
1F
100
AcDbEntity
  8
1
100
AcDbLine
 10
50.0
 20
-49.60000000000002
 30
0.0
 11
50.0
 21
-48.00000000000006
 31
0.0
  0
ARC
  5
2CD4
330
1F
100
AcDbEntity
  8
1
100
AcDbCircle
 10
49.60000000000002
 20
-49.60000000000002
 30
0.0
 40
0.4
100
AcDbArc
 50
270.0
 51
0.0
1001
GENIUS_GENOBJ-N-FIL_13
1002
{
1000
OWNER
1000
GEN
1002
}
1001
GENIUS_GENODEF_13
1002
{
1000
HIER
1070
     0
1002
}
1002
{
1000
MANEDIT
1070
     0
1002
}
1002
{
1000
NOSEL
1070
     0
1002
}
1002
{
1000
BEHIND
1070
     0
1002
}
1002
{
1000
OTHER
1070
     0
1002
}
1002
{
1000
REACTOR
1002
}
  0
LINE
  5
2CD5
330
1F
100
AcDbEntity
  8
SK3
100
AcDbLine
 10
38.15348280697623
 20
-39.2711343434168
 30
0.0
 11
48.99679480008376
 21
-39.2711343434168
 31
0.0
  0
TEXT
  5
2CFE
330
1F
100
AcDbEntity
  8
6
100
AcDbText
 10
52.50323390825752
 20
54.13715719229171
 30
0.0
 40
3.5
  1
BCKT130404R
100
AcDbText
  0
ENDSEC
  0
SECTION
  2
OBJECTS
  0
DICTIONARY
  5
C
330
0
100
AcDbDictionary
  3
ACAD_GROUP
350
D
  3
ACAD_LAYOUT
350
1A
  3
ACAD_MLINESTYLE
350
17
  3
ACAD_PLOTSETTINGS
350
19
  3
ACAD_PLOTSTYLENAME
350
E
  3
ACDBHEADERROUNDTRIPXREC
350
2D16
  3
ACDBVARIABLEDICTIONARY
350
216
  3
ACMDICTIONARY
350
45
  3
AMG
350
41
  3
AMGSNAPSETTINGS
350
23D
  3
DWGPROPS
350
2D12
  0
DICTIONARY
  5
1F1
330
1F
100
AcDbDictionary
280
     1
  3
ACAD_INDEX
360
1F2
  3
ACAD_LAYOUTSELFREF
360
2D39
  0
DICTIONARY
  5
2D37
330
1B
100
AcDbDictionary
280
     1
  3
ACAD_LAYOUTSELFREF
360
2D38
  0
DICTIONARY
  5
D
102
{ACAD_REACTORS
330
C
102
}
330
C
100
AcDbDictionary
  0
DICTIONARY
  5
1A
102
{ACAD_REACTORS
330
C
102
}
330
C
100
AcDbDictionary
  0
DICTIONARY
  5
17
102
{ACAD_REACTORS
330
C
102
}
330
C
100
AcDbDictionary
  3
STANDARD
350
18
  0
DICTIONARY
  5
19
102
{ACAD_REACTORS
330
C
102
}
330
C
100
AcDbDictionary
  0
ACDBDICTIONARYWDFLT
  5
E
102
{ACAD_REACTORS
330
C
102
}
330
C
100
AcDbDictionary
281
     1
  3
Normal
350
F
100
AcDbDictionaryWithDefault
340
F
  0
DICTIONARY
  5
2D16
102
{ACAD_REACTORS
330
C
102
}
330
C
100
AcDbDictionary
  3
CEPSNTYPE
350
2D20
  3
DIMSTYLEDATA
350
2D24
  3
FINGERPRINTGUID
350
2D21
  3
HYPERLINKBASE
350
2D19
  3
INSUNITS
350
2D1F
  3
LAYOUTDICT
350
2D1B
  3
LWETCUNION
350
2D1E
  3
PLOTSETDICT
350
2D1C
  3
PLOTSTYLNAMDICT
350
2D1D
  3
PSVPSCALE
350
2D23
  3
PUCSBASE
350
2D27
  3
PUCSORGBACK
350
2D2D
  3
PUCSORGBOTTOM
350
2D29
  3
PUCSORGFRONT
350
2D2C
  3
PUCSORGLEFT
350
2D2A
  3
PUCSORGRIGHT
350
2D2B
  3
PUCSORGTOP
350
2D28
  3
PUCSORTHOREF
350
2D25
  3
PUCSORTHOVIEW
350
2D26
  3
STYLESHEET
350
2D1A
  3
TSTACKALIGN
350
2D17
  3
TSTACKSIZE
350
2D18
  3
UCSBASE
350
2D30
  3
UCSORGBACK
350
2D36
  3
UCSORGBOTTOM
350
2D32
  3
UCSORGFRONT
350
2D35
  3
UCSORGLEFT
350
2D33
  3
UCSORGRIGHT
350
2D34
  3
UCSORGTOP
350
2D31
  3
UCSORTHOREF
350
2D2E
  3
UCSORTHOVIEW
350
2D2F
  3
VERSIONGUID
350
2D22
  0
DICTIONARY
  5
216
102
{ACAD_REACTORS
330
C
102
}
330
C
100
AcDbDictionary
  3
DIMASSOC
350
219
  3
HIDETEXT
350
218
  3
INDEXCTL
350
217
  0
DICTIONARY
  5
45
102
{ACAD_REACTORS
330
C
102
}
330
C
100
AcDbDictionary
  3
ACMSTDDICTIONARY
350
4A
  0
DICTIONARY
  5
41
102
{ACAD_REACTORS
330
C
102
}
330
C
100
AcDbDictionary
  3
ACMGSETTINGS
350
42
  0
DICTIONARY
  5
23D
102
{ACAD_REACTORS
330
C
102
}
330
C
100
AcDbDictionary
  0
XRECORD
  5
2D12
102
{ACAD_REACTORS
330
C
102
}
330
C
100
AcDbXrecord
  1
DWGPROPS COOKIE
  2

  3

  4

  6

  7

  8

  9

300
AmdtFileType=84
301
=
302
=
303
=
304
=
305
=
306
=
307
=
308
=
309
=
 40
0.0486819212962963
 41
2453599.366006042
 42
2453609.675330486
  1

 90
        1
  0
DICTIONARY
  5
1F2
102
{ACAD_REACTORS
330
1F1
102
}
330
1F1
100
AcDbDictionary
  3
*A1
350
1F3
  0
XRECORD
  5
2D39
102
{ACAD_REACTORS
330
1F1
102
}
330
1F1
100
AcDbXrecord
340
1F
  0
XRECORD
  5
2D38
102
{ACAD_REACTORS
330
2D37
102
}
330
2D37
100
AcDbXrecord
340
1B
  0
MLINESTYLE
  5
18
102
{ACAD_REACTORS
330
17
102
}
330
17
100
AcDbMlineStyle
  2
STANDARD
 70
     0
  3

 62
   256
 51
90.0
 52
90.0
 71
     2
 49
0.5
 62
   256
  6
BYLAYER
 49
-0.5
 62
   256
  6
BYLAYER
  0
ACDBPLACEHOLDER
  5
F
102
{ACAD_REACTORS
330
E
102
}
330
E
100
AcDbPlaceHolder
280
     0
  0
XRECORD
  5
2D20
102
{ACAD_REACTORS
330
2D16
102
}
330
2D16
100
AcDbXrecord
 90
        0
  0
XRECORD
  5
2D24
102
{ACAD_REACTORS
330
2D16
102
}
330
2D16
100
AcDbXrecord
1000
DSTYLE
1002
{
1070
    79
 70
     2
1070
   371
 70
    -1
1070
   372
 70
    -1
1002
}
  0
XRECORD
  5
2D21
102
{ACAD_REACTORS
330
2D16
102
}
330
2D16
100
AcDbXrecord
  1
{03052709-208C-44F1-88CB-F8F0E550BC5D}
  0
XRECORD
  5
2D19
102
{ACAD_REACTORS
330
2D16
102
}
330
2D16
100
AcDbXrecord
  1

  0
XRECORD
  5
2D1F
102
{ACAD_REACTORS
330
2D16
102
}
330
2D16
100
AcDbXrecord
 90
        4
  0
XRECORD
  5
2D1B
102
{ACAD_REACTORS
330
2D16
102
}
330
2D16
100
AcDbXrecord
340
1A
  0
XRECORD
  5
2D1E
102
{ACAD_REACTORS
330
2D16
102
}
330
2D16
100
AcDbXrecord
 90
    10781
  0
XRECORD
  5
2D1C
102
{ACAD_REACTORS
330
2D16
102
}
330
2D16
100
AcDbXrecord
340
19
  0
XRECORD
  5
2D1D
102
{ACAD_REACTORS
330
2D16
102
}
330
2D16
100
AcDbXrecord
340
E
  0
XRECORD
  5
2D23
102
{ACAD_REACTORS
330
2D16
102
}
330
2D16
100
AcDbXrecord
 40
0.0
  0
XRECORD
  5
2D27
102
{ACAD_REACTORS
330
2D16
102
}
330
2D16
100
AcDbXrecord
340
0
  0
XRECORD
  5
2D2D
102
{ACAD_REACTORS
330
2D16
102
}
330
2D16
100
AcDbXrecord
 10
0.0
 20
0.0
 30
0.0
  0
XRECORD
  5
2D29
102
{ACAD_REACTORS
330
2D16
102
}
330
2D16
100
AcDbXrecord
 10
0.0
 20
0.0
 30
0.0
  0
XRECORD
  5
2D2C
102
{ACAD_REACTORS
330
2D16
102
}
330
2D16
100
AcDbXrecord
 10
0.0
 20
0.0
 30
0.0
  0
XRECORD
  5
2D2A
102
{ACAD_REACTORS
330
2D16
102
}
330
2D16
100
AcDbXrecord
 10
0.0
 20
0.0
 30
0.0
  0
XRECORD
  5
2D2B
102
{ACAD_REACTORS
330
2D16
102
}
330
2D16
100
AcDbXrecord
 10
0.0
 20
0.0
 30
0.0
  0
XRECORD
  5
2D28
102
{ACAD_REACTORS
330
2D16
102
}
330
2D16
100
AcDbXrecord
 10
0.0
 20
0.0
 30
0.0
  0
XRECORD
  5
2D25
102
{ACAD_REACTORS
330
2D16
102
}
330
2D16
100
AcDbXrecord
340
0
  0
XRECORD
  5
2D26
102
{ACAD_REACTORS
330
2D16
102
}
330
2D16
100
AcDbXrecord
 70
     0
  0
XRECORD
  5
2D1A
102
{ACAD_REACTORS
330
2D16
102
}
330
2D16
100
AcDbXrecord
  1

  0
XRECORD
  5
2D17
102
{ACAD_REACTORS
330
2D16
102
}
330
2D16
100
AcDbXrecord
 90
        1
  0
XRECORD
  5
2D18
102
{ACAD_REACTORS
330
2D16
102
}
330
2D16
100
AcDbXrecord
 90
       70
  0
XRECORD
  5
2D30
102
{ACAD_REACTORS
330
2D16
102
}
330
2D16
100
AcDbXrecord
340
0
  0
XRECORD
  5
2D36
102
{ACAD_REACTORS
330
2D16
102
}
330
2D16
100
AcDbXrecord
 10
0.0
 20
0.0
 30
0.0
  0
XRECORD
  5
2D32
102
{ACAD_REACTORS
330
2D16
102
}
330
2D16
100
AcDbXrecord
 10
0.0
 20
0.0
 30
0.0
  0
XRECORD
  5
2D35
102
{ACAD_REACTORS
330
2D16
102
}
330
2D16
100
AcDbXrecord
 10
0.0
 20
0.0
 30
0.0
  0
XRECORD
  5
2D33
102
{ACAD_REACTORS
330
2D16
102
}
330
2D16
100
AcDbXrecord
 10
0.0
 20
0.0
 30
0.0
  0
XRECORD
  5
2D34
102
{ACAD_REACTORS
330
2D16
102
}
330
2D16
100
AcDbXrecord
 10
0.0
 20
0.0
 30
0.0
  0
XRECORD
  5
2D31
102
{ACAD_REACTORS
330
2D16
102
}
330
2D16
100
AcDbXrecord
 10
0.0
 20
0.0
 30
0.0
  0
XRECORD
  5
2D2E
102
{ACAD_REACTORS
330
2D16
102
}
330
2D16
100
AcDbXrecord
340
0
  0
XRECORD
  5
2D2F
102
{ACAD_REACTORS
330
2D16
102
}
330
2D16
100
AcDbXrecord
 70
     0
  0
XRECORD
  5
2D22
102
{ACAD_REACTORS
330
2D16
102
}
330
2D16
100
AcDbXrecord
  1
{5B8D60F9-D89C-4964-9294-2BA82EEDBBED}
  0
DICTIONARYVAR
  5
219
102
{ACAD_REACTORS
330
216
102
}
330
216
100
DictionaryVariables
280
     0
  1
1
  0
DICTIONARYVAR
  5
218
102
{ACAD_REACTORS
330
216
102
}
330
216
100
DictionaryVariables
280
     0
  1
1
  0
DICTIONARYVAR
  5
217
102
{ACAD_REACTORS
330
216
102
}
330
216
100
DictionaryVariables
280
     0
  1
1
  0
DICTIONARY
  5
4A
102
{ACAD_REACTORS
330
45
102
}
330
45
100
AcDbDictionary
  0
DICTIONARY
  5
42
102
{ACAD_REACTORS
330
41
102
}
330
41
100
AcDbDictionary
  3
DWGSETTINGS
350
43
  0
LAYER_INDEX
  5
1F3
102
{ACAD_REACTORS
330
1F2
102
}
330
1F2
100
AcDbIndex
 40
2453610.447399027
100
AcDbLayerIndex
  8
0
360
1F4
 90
        0
  8
Defpoints
360
210
 90
        0
  8
1
360
29B
 90
       33
  8
2
360
1EC1
 90
        3
  8
4
360
1EC2
 90
        2
  8
6
360
1EC3
 90
        3
  8
SK1
360
1EC4
 90
       12
  8
SK2
360
1EC5
 90
        2
  8
SK3
360
1EC6
 90
       18
  8
CUT
360
1EC7
 90
       12
  8
NOCUT
360
1EC8
 90
        7
  0
XRECORD
  5
43
102
{ACAD_REACTORS
330
42
102
}
330
42
100
AcDbXrecord
  1
VERSION
140
15.0
  1
PRODUCT
  2
AutoCAD Mechanical 2000
  0
IDBUFFER
  5
1F4
330
0
100
AcDbIdBuffer
  0
IDBUFFER
  5
210
330
0
100
AcDbIdBuffer
  0
IDBUFFER
  5
29B
330
0
100
AcDbIdBuffer
330
2471
330
2476
330
247F
330
2481
330
2482
330
2484
330
267F
330
2680
330
269C
330
269E
330
26A0
330
2C95
330
2C97
330
2C99
330
2C9A
330
2C9B
330
2C9D
330
2C9F
330
2CA1
330
2CA3
330
2CA5
330
2CA7
330
2CA9
330
2CAB
330
2CAD
330
2CAF
330
2CC7
330
2CC8
330
2CCE
330
2CCF
330
2CD0
330
2CD3
330
2CD4
  0
IDBUFFER
  5
1EC1
330
0
100
AcDbIdBuffer
330
26E8
330
276D
330
2C93
  0
IDBUFFER
  5
1EC2
330
0
100
AcDbIdBuffer
330
265C
330
2681
  0
IDBUFFER
  5
1EC3
330
0
100
AcDbIdBuffer
330
26B4
330
270A
330
2CFE
  0
IDBUFFER
  5
1EC4
330
0
100
AcDbIdBuffer
330
2473
330
2474
330
2477
330
2659
330
265A
330
265B
330
2670
330
2671
330
267A
330
26A2
330
26A3
330
26AD
  0
IDBUFFER
  5
1EC5
330
0
100
AcDbIdBuffer
330
2480
330
2483
  0
IDBUFFER
  5
1EC6
330
0
100
AcDbIdBuffer
330
2472
330
2475
330
2478
330
2479
330
247B
330
247C
330
247D
330
247E
330
2CC5
330
2CC6
330
2CC9
330
2CCA
330
2CCB
330
2CCC
330
2CCD
330
2CD1
330
2CD2
330
2CD5
  0
IDBUFFER
  5
1EC7
330
0
100
AcDbIdBuffer
330
2C94
330
2C96
330
2C9C
330
2C9E
330
2CA0
330
2CA2
330
2CA4
330
2CA6
330
2CA8
330
2CAA
330
2CAC
330
2CAE
  0
IDBUFFER
  5
1EC8
330
0
100
AcDbIdBuffer
330
27AC
330
27AD
330
27B3
330
27B4
330
27B5
330
27BE
330
27BF
  0
ENDSEC
  0
EOF
