  0
SECTION
  2
HEADER
  9
$ACADVER
  1
AC1014
  9
$ACADMAINTVER
 70
     9
  9
$DWGCODEPAGE
  3
ANSI_1252
  9
$INSBASE
 10
0.0
 20
0.0
 30
0.0
  9
$EXTMIN
 10
-40.20527268653609
 20
-45.91684898257926
 30
-0.0000000000000053
  9
$EXTMAX
 10
81.07324427353058
 20
79.84235129691978
 30
0.0000000000000099
  9
$LIMMIN
 10
0.0
 20
0.0
  9
$LIMMAX
 10
420.0
 20
297.0
  9
$ORTHOMODE
 70
     0
  9
$REGENMODE
 70
     1
  9
$FILLMODE
 70
     1
  9
$QTEXTMODE
 70
     0
  9
$MIRRTEXT
 70
     1
  9
$DRAGMODE
 70
     2
  9
$LTSCALE
 40
1.0
  9
$OSMODE
 70
  2599
  9
$ATTMODE
 70
     1
  9
$TEXTSIZE
 40
2.5
  9
$TRACEWID
 40
1.0
  9
$TEXTSTYLE
  7
STANDARD
  9
$CLAYER
  8
0
  9
$CELTYPE
  6
BYLAYER
  9
$CECOLOR
 62
   256
  9
$CELTSCALE
 40
1.0
  9
$DELOBJ
 70
     1
  9
$DISPSILH
 70
     0
  9
$DIMSCALE
 40
1.0
  9
$DIMASZ
 40
2.5
  9
$DIMEXO
 40
0.0
  9
$DIMDLI
 40
10.0
  9
$DIMRND
 40
0.0
  9
$DIMDLE
 40
0.0
  9
$DIMEXE
 40
1.0
  9
$DIMTP
 40
0.1
  9
$DIMTM
 40
0.1
  9
$DIMTXT
 40
3.5
  9
$DIMCEN
 40
0.0
  9
$DIMTSZ
 40
0.0
  9
$DIMTOL
 70
     0
  9
$DIMLIM
 70
     0
  9
$DIMTIH
 70
     0
  9
$DIMTOH
 70
     0
  9
$DIMSE1
 70
     0
  9
$DIMSE2
 70
     0
  9
$DIMTAD
 70
     1
  9
$DIMZIN
 70
     8
  9
$DIMBLK
  1

  9
$DIMASO
 70
     1
  9
$DIMSHO
 70
     1
  9
$DIMPOST
  1

  9
$DIMAPOST
  1
"
  9
$DIMALT
 70
     0
  9
$DIMALTD
 70
     2
  9
$DIMALTF
 40
0.0393701
  9
$DIMLFAC
 40
1.0
  9
$DIMTOFL
 70
     1
  9
$DIMTVP
 40
0.0
  9
$DIMTIX
 70
     0
  9
$DIMSOXD
 70
     0
  9
$DIMSAH
 70
     0
  9
$DIMBLK1
  1

  9
$DIMBLK2
  1

  9
$DIMSTYLE
  2
AM_DIN
  9
$DIMCLRD
 70
   256
  9
$DIMCLRE
 70
   256
  9
$DIMCLRT
 70
     2
  9
$DIMTFAC
 40
0.71
  9
$DIMGAP
 40
1.5
  9
$DIMJUST
 70
     0
  9
$DIMSD1
 70
     0
  9
$DIMSD2
 70
     0
  9
$DIMTOLJ
 70
     0
  9
$DIMTZIN
 70
     8
  9
$DIMALTZ
 70
     0
  9
$DIMALTTZ
 70
     0
  9
$DIMFIT
 70
     3
  9
$DIMUPT
 70
     0
  9
$DIMUNIT
 70
     2
  9
$DIMDEC
 70
     2
  9
$DIMTDEC
 70
     2
  9
$DIMALTU
 70
     2
  9
$DIMALTTD
 70
     2
  9
$DIMTXSTY
  7
STANDARD
  9
$DIMAUNIT
 70
     0
  9
$LUNITS
 70
     2
  9
$LUPREC
 70
     2
  9
$SKETCHINC
 40
1.0
  9
$FILLETRAD
 40
3.0
  9
$AUNITS
 70
     0
  9
$AUPREC
 70
     0
  9
$MENU
  1
.
  9
$ELEVATION
 40
0.0
  9
$PELEVATION
 40
0.0
  9
$THICKNESS
 40
0.0
  9
$LIMCHECK
 70
     0
  9
$BLIPMODE
 70
     0
  9
$CHAMFERA
 40
2.5
  9
$CHAMFERB
 40
2.5
  9
$CHAMFERC
 40
20.0
  9
$CHAMFERD
 40
0.0
  9
$SKPOLY
 70
     0
  9
$TDCREATE
 40
2453599.366006042
  9
$TDUPDATE
 40
2453610.446620706
  9
$TDINDWG
 40
0.0436026042
  9
$TDUSRTIMER
 40
0.0435782639
  9
$USRTIMER
 70
     1
  9
$ANGBASE
 50
0.0
  9
$ANGDIR
 70
     0
  9
$PDMODE
 70
     0
  9
$PDSIZE
 40
0.0
  9
$PLINEWID
 40
0.0
  9
$COORDS
 70
     0
  9
$SPLFRAME
 70
     0
  9
$SPLINETYPE
 70
     6
  9
$SPLINESEGS
 70
     8
  9
$ATTDIA
 70
     1
  9
$ATTREQ
 70
     1
  9
$HANDLING
 70
 22529
  9
$HANDSEED
  5
2942
  9
$SURFTAB1
 70
     6
  9
$SURFTAB2
 70
     6
  9
$SURFTYPE
 70
     6
  9
$SURFU
 70
     6
  9
$SURFV
 70
     6
  9
$UCSNAME
  2

  9
$UCSORG
 10
0.0
 20
0.0
 30
0.0
  9
$UCSXDIR
 10
1.0
 20
0.0
 30
0.0
  9
$UCSYDIR
 10
0.0
 20
1.0
 30
0.0
  9
$PUCSNAME
  2

  9
$PUCSORG
 10
0.0
 20
0.0
 30
0.0
  9
$PUCSXDIR
 10
1.0
 20
0.0
 30
0.0
  9
$PUCSYDIR
 10
0.0
 20
1.0
 30
0.0
  9
$USERI1
 70
     0
  9
$USERI2
 70
     0
  9
$USERI3
 70
     0
  9
$USERI4
 70
     0
  9
$USERI5
 70
     0
  9
$USERR1
 40
0.0
  9
$USERR2
 40
0.0
  9
$USERR3
 40
0.0
  9
$USERR4
 40
0.0
  9
$USERR5
 40
0.0
  9
$WORLDVIEW
 70
     1
  9
$SHADEDGE
 70
     3
  9
$SHADEDIF
 70
    70
  9
$TILEMODE
 70
     1
  9
$MAXACTVP
 70
    64
  9
$PINSBASE
 10
0.0
 20
0.0
 30
0.0
  9
$PLIMCHECK
 70
     0
  9
$PEXTMIN
 10
1.000000000000000E+20
 20
1.000000000000000E+20
 30
1.000000000000000E+20
  9
$PEXTMAX
 10
-1.000000000000000E+20
 20
-1.000000000000000E+20
 30
-1.000000000000000E+20
  9
$PLIMMIN
 10
0.0
 20
0.0
  9
$PLIMMAX
 10
420.0
 20
297.0
  9
$UNITMODE
 70
     0
  9
$VISRETAIN
 70
     1
  9
$PLINEGEN
 70
     0
  9
$PSLTSCALE
 70
     1
  9
$TREEDEPTH
 70
  3020
  9
$PICKSTYLE
 70
     0
  9
$CMLSTYLE
  2
STANDARD
  9
$CMLJUST
 70
     0
  9
$CMLSCALE
 40
20.0
  9
$PROXYGRAPHICS
 70
     1
  9
$MEASUREMENT
 70
     1
  0
ENDSEC
  0
SECTION
  2
CLASSES
  0
CLASS
  1
ACDBDICTIONARYWDFLT
  2
AcDbDictionaryWithDefault
  3
AutoCAD 2000
 90
        0
280
     0
281
     0
  0
CLASS
  1
ACDBPLACEHOLDER
  2
AcDbPlaceHolder
  3
AutoCAD 2000
 90
        0
280
     0
281
     0
  0
CLASS
  1
LAYOUT
  2
AcDbLayout
  3
AutoCAD 2000
 90
        0
280
     0
281
     0
  0
CLASS
  1
ACME_DOCUMENT
  2
AcMeDbDoc
  3
AcMeServices
 90
        0
280
     0
281
     0
  0
CLASS
  1
ACMESCOPE
  2
AcMeScope
  3
AcMeServices
 90
        0
280
     0
281
     0
  0
CLASS
  1
ACMECOMMANDHISTORY
  2
AcMeCommandHistory
  3
AcMeServices
 90
        0
280
     0
281
     0
  0
CLASS
  1
ACIMSYSVARMAN
  2
AcImSysVarManager
  3
AcMeServices
 90
        0
280
     0
281
     0
  0
CLASS
  1
ACIMREALSYSVAR
  2
AcImRealSysVar
  3
AcMeServices
 90
        0
280
     0
281
     0
  0
CLASS
  1
ACIMINTSYSVAR
  2
AcImIntSysVar
  3
AcMeServices
 90
        0
280
     0
281
     0
  0
CLASS
  1
ACMEDRAWINGMAN
  2
AcMeDrawingMan
  3
AcMeServices
 90
        0
280
     0
281
     0
  0
CLASS
  1
ACMEVIEW
  2
AcMeView
  3
AcMeServices
 90
        0
280
     0
281
     0
  0
CLASS
  1
ACDBENTITYCACHE
  2
AcMeEntityCache
  3
AcMeServices
 90
        0
280
     0
281
     0
  0
CLASS
  1
GSMANAGER
  2
AcMeGSManager
  3
AcMeServices
 90
        0
280
     0
281
     0
  0
CLASS
  1
AMDTINTERNALREACTOR
  2
AmdtInternalReactor
  3
AcMeServices
 90
        0
280
     0
281
     0
  0
CLASS
  1
ACMESTATEMGR
  2
AcMeStateMgr
  3
AcMeServices
 90
        0
280
     0
281
     0
  0
CLASS
  1
ACGREFMASTER
  2
AcGrefMaster
  3
AcAttribServices
 90
        0
280
     0
281
     0
  0
CLASS
  1
ACME_DATABASE
  2
AcMeDbDatabase
  3
AcMeServices
 90
        0
280
     0
281
     0
  0
CLASS
  1
ACRFINSADJUSTERMGR
  2
AcRfInsAdjusterMgr
  3
AcMeServices
 90
        0
280
     0
281
     0
  0
CLASS
  1
ACGREFACADMASTER
  2
AcGrefacadMaster
  3
AcGrefServices
 90
        0
280
     0
281
     0
  0
CLASS
  1
AMIMASTER
  2
AmiMaster
  3
AmiServices
 90
        0
280
     0
281
     0
  0
CLASS
  1
AMGSETTINGSOBJ
  2
AmgSettingsObj
  3
"AcadM|Product Description: AutoCAD Mechanical 2000|Company: Autodesk"
 90
        0
280
     0
281
     0
  0
CLASS
  1
ACMDATADICTIONARY
  2
AcmDataDictionary
  3
"AcmSymBB|Product Description: AutoCAD Mechanical 2000|Company: Autodesk"
 90
        0
280
     0
281
     0
  0
CLASS
  1
ACMDATAENTRYBLOCK
  2
AcmDataEntryBlock
  3
"AcmSymBB|Product Description: AutoCAD Mechanical 2000|Company: Autodesk"
 90
        0
280
     0
281
     0
  0
CLASS
  1
ACIMSTRSYSVAR
  2
AcImStrSysVar
  3
AcMeServices
 90
        0
280
     0
281
     0
  0
CLASS
  1
ACMSTANDARDDIN
  2
AcmStandardDIN
  3
"Amdt_StdImp|Product Description: AutoCAD Mechanical 2000|Company: Autodesk"
 90
        0
280
     0
281
     0
  0
CLASS
  1
AMGOBJPROPCFG
  2
AmgObjPropCfg
  3
"AmgLay|Product Description: AutoCAD Mechanical 2000|Company: Autodesk"
 90
        1
280
     0
281
     0
  0
CLASS
  1
AMDTEDGESTANDARDDIN
  2
AmdtEdgeStdDIN
  3
"Amdt_StdImp|Product Description: AutoCAD Mechanical 2000|Company: Autodesk"
 90
        0
280
     0
281
     0
  0
CLASS
  1
ACMSURFSTANDARDDIN
  2
AcmSurfTextStdDIN
  3
"Amdt_StdImp|Product Description: AutoCAD Mechanical 2000|Company: Autodesk"
 90
        0
280
     0
281
     0
  0
CLASS
  1
ACMFCFSTANDARDDIN
  2
AcmFCFStdDIN
  3
"Amdt_StdImp|Product Description: AutoCAD Mechanical 2000|Company: Autodesk"
 90
        0
280
     0
281
     0
  0
CLASS
  1
ACMWELDSTANDARDDIN
  2
AcmWeldingStdDIN
  3
"Amdt_StdImp|Product Description: AutoCAD Mechanical 2000|Company: Autodesk"
 90
        0
280
     0
281
     0
  0
CLASS
  1
ACMIDSTANDARDDIN
  2
AcmIdStdDIN
  3
"Amdt_StdImp|Product Description: AutoCAD Mechanical 2000|Company: Autodesk"
 90
        0
280
     0
281
     0
  0
CLASS
  1
ACMDATUMSTANDARDDIN
  2
AcmDatumStdDIN
  3
"Amdt_StdImp|Product Description: AutoCAD Mechanical 2000|Company: Autodesk"
 90
        0
280
     0
281
     0
  0
CLASS
  1
ACMBOMSTANDARDDIN
  2
AcmBOMStdDIN
  3
"Amdt_StdImp|Product Description: AutoCAD Mechanical 2000|Company: Autodesk"
 90
        0
280
     0
281
     0
  0
CLASS
  1
ACMDETAILSTANDARDDIN
  2
AmdtDetailSymStdDIN
  3
"Amdt_StdImp|Product Description: AutoCAD Mechanical 2000|Company: Autodesk"
 90
        0
280
     0
281
     0
  0
CLASS
  1
ACMSECTIONSTANDARDDIN
  2
AmdtSectionSymStdDIN
  3
"Amdt_StdImp|Product Description: AutoCAD Mechanical 2000|Company: Autodesk"
 90
        0
280
     0
281
     0
  0
CLASS
  1
ACMCENTERLINESTANDARDDIN
  2
AmdtCenterLineStdDIN
  3
"Amdt_StdImp|Product Description: AutoCAD Mechanical 2000|Company: Autodesk"
 90
        0
280
     0
281
     0
  0
CLASS
  1
ACMNOTESTANDARDDIN
  2
AmdtNoteStdDIN
  3
"Amdt_StdImp|Product Description: AutoCAD Mechanical 2000|Company: Autodesk"
 90
        0
280
     0
281
     0
  0
CLASS
  1
ACAMGLAYSTD
  2
AcAmgLayStd
  3
"AcAmgLayStd|Product Description: AutoCAD Mechanical 2000|Company: Autodesk"
 90
        0
280
     0
281
     0
  0
CLASS
  1
ACAMGDIMSTD
  2
AcAmgDimStd
  3
"AcAmgDimStd|Product Description: AutoCAD Mechanical 2000|Company: Autodesk"
 90
        0
280
     0
281
     0
  0
CLASS
  1
ACAMGHOLECHARTSTDDIN
  2
AcAmgHoleChartStdDIN
  3
ACMSYMBB_MODULE_NAME
 90
        0
280
     0
281
     0
  0
CLASS
  1
ACAMGTITLESTD
  2
AcAmgTitleStd
  3
"TITLEAPP"
 90
        0
280
     0
281
     0
  0
CLASS
  1
ACMSTANDARDANSI
  2
AcmStandardANSI
  3
"Amdt_StdImp|Product Description: AutoCAD Mechanical 2000|Company: Autodesk"
 90
        0
280
     0
281
     0
  0
CLASS
  1
ACMSURFSTANDARDANSI
  2
AcmSurfTextStdANSI
  3
"Amdt_StdImp|Product Description: AutoCAD Mechanical 2000|Company: Autodesk"
 90
        0
280
     0
281
     0
  0
CLASS
  1
ACMFCFSTANDARDANSI
  2
AcmFCFStdANSI
  3
"Amdt_StdImp|Product Description: AutoCAD Mechanical 2000|Company: Autodesk"
 90
        0
280
     0
281
     0
  0
CLASS
  1
ACMWELDSTANDARDANSI
  2
AcmWeldingStdANSI
  3
"Amdt_StdImp|Product Description: AutoCAD Mechanical 2000|Company: Autodesk"
 90
        0
280
     0
281
     0
  0
CLASS
  1
ACMIDSTANDARDANSI
  2
AcmIdStdANSI
  3
"Amdt_StdImp|Product Description: AutoCAD Mechanical 2000|Company: Autodesk"
 90
        0
280
     0
281
     0
  0
CLASS
  1
ACMDATUMSTANDARDANSI
  2
AcmDatumStdANSI
  3
"Amdt_StdImp|Product Description: AutoCAD Mechanical 2000|Company: Autodesk"
 90
        0
280
     0
281
     0
  0
CLASS
  1
ACMBOMSTANDARDANSI
  2
AcmBOMStdANSI
  3
"Amdt_StdImp|Product Description: AutoCAD Mechanical 2000|Company: Autodesk"
 90
        0
280
     0
281
     0
  0
CLASS
  1
ACMDETAILSTANDARDANSI
  2
AmdtDetailSymStdANSI
  3
"Amdt_StdImp|Product Description: AutoCAD Mechanical 2000|Company: Autodesk"
 90
        0
280
     0
281
     0
  0
CLASS
  1
ACMSECTIONSTANDARDANSI
  2
AmdtSectionSymStdANSI
  3
"Amdt_StdImp|Product Description: AutoCAD Mechanical 2000|Company: Autodesk"
 90
        0
280
     0
281
     0
  0
CLASS
  1
ACMCENTERLINESTANDARDANSI
  2
AmdtCenterLineStdANSI
  3
"Amdt_StdImp|Product Description: AutoCAD Mechanical 2000|Company: Autodesk"
 90
        0
280
     0
281
     0
  0
CLASS
  1
ACMNOTESTANDARDANSI
  2
AmdtNoteStdANSI
  3
"Amdt_StdImp|Product Description: AutoCAD Mechanical 2000|Company: Autodesk"
 90
        0
280
     0
281
     0
  0
CLASS
  1
ACAMGHOLECHARTSTDANSI
  2
AcAmgHoleChartStdANSI
  3
ACMSYMBB_MODULE_NAME
 90
        0
280
     0
281
     0
  0
CLASS
  1
ACAMGFILTERDAT
  2
AcAmgFilterDat
  3
"AcadM|Product Description: AutoCAD Mechanical 2000|Company: Autodesk"
 90
        0
280
     0
281
     0
  0
CLASS
  1
AMDTFORMULAUPDATEDISPATCHER
  2
AmdtFormulaUpdateDispatcher
  3
AcMeServices
 90
        0
280
     0
281
     0
  0
CLASS
  1
LAYER_INDEX
  2
AcDbLayerIndex
  3
AutoCAD 2000
 90
        0
280
     0
281
     0
  0
CLASS
  1
IDBUFFER
  2
AcDbIdBuffer
  3
AutoCAD 2000
 90
        0
280
     0
281
     0
  0
CLASS
  1
DICTIONARYVAR
  2
AcDbDictionaryVar
  3
AutoCAD 2000
 90
        0
280
     0
281
     0
  0
CLASS
  1
DIMASSOC
  2
AcDbDimAssoc
  3
"AcDbDimAssoc|Product Desc:     AcDim ARX App For Dimension|Company:          Autodesk, Inc.|WEB Address:      www.autodesk.com"
 90
        0
280
     0
281
     0
  0
CLASS
  1
ACMDIMBREAKPERSREACTOR
  2
AcmDimBreakPersReactor
  3
amgDimApp().moduleName()
 90
     1023
280
     0
281
     0
  0
CLASS
  1
ACMSURFSYM
  2
AcmSurfaceTexture
  3
"AcmSymBB|Product Description: AutoCAD Mechanical 2000|Company: Autodesk"
 90
     1023
280
     0
281
     1
  0
CLASS
  1
ACMFCFRAME
  2
AcmFCF
  3
"AcmSymBB|Product Description: AutoCAD Mechanical 2000|Company: Autodesk"
 90
     1023
280
     0
281
     1
  0
CLASS
  1
LONG_TRANSACTION
  2
AcDbLongTransaction
  3
AutoCAD 2000
 90
        0
280
     0
281
     0
  0
CLASS
  1
LWPOLYLINE
  2
AcDbPolyline
  3
AutoCAD 2000
 90
        0
280
     0
281
     1
  0
CLASS
  1
HATCH
  2
AcDbHatch
  3
AutoCAD 2000
 90
        0
280
     0
281
     1
  0
CLASS
  1
XRECORD
  2
AcDbXrecord
  3
AutoCAD 2000
 90
        0
280
     0
281
     0
  0
ENDSEC
  0
SECTION
  2
TABLES
  0
TABLE
  2
VPORT
  5
8
330
0
100
AcDbSymbolTable
 70
     4
  0
VPORT
  5
291B
330
8
100
AcDbSymbolTableRecord
100
AcDbViewportTableRecord
  2
*ACTIVE
 70
     0
 10
0.0
 20
0.0
 11
1.0
 21
1.0
 12
189.8973636567319
 22
125.5415755087103
 13
0.0
 23
0.0
 14
2.5
 24
2.5
 15
10.0
 25
10.0
 16
0.0
 26
0.0
 36
1.0
 17
0.0
 27
0.0
 37
0.0
 40
346.6990201110636
 41
1.694290976058931
 42
50.0
 43
0.0
 44
0.0
 50
0.0
 51
0.0
 71
     0
 72
 10000
 73
     1
 74
     3
 75
     0
 76
     0
 77
     0
 78
     0
  0
ENDTAB
  0
TABLE
  2
LTYPE
  5
5
330
0
100
AcDbSymbolTable
 70
    16
  0
LTYPE
  5
14
330
5
100
AcDbSymbolTableRecord
100
AcDbLinetypeTableRecord
  2
BYBLOCK
 70
     0
  3

 72
    65
 73
     0
 40
0.0
  0
LTYPE
  5
15
330
5
100
AcDbSymbolTableRecord
100
AcDbLinetypeTableRecord
  2
BYLAYER
 70
     0
  3

 72
    65
 73
     0
 40
0.0
  0
LTYPE
  5
16
330
5
100
AcDbSymbolTableRecord
100
AcDbLinetypeTableRecord
  2
CONTINUOUS
 70
     0
  3
Solid line
 72
    65
 73
     0
 40
0.0
  0
LTYPE
  5
50
330
5
100
AcDbSymbolTableRecord
100
AcDbLinetypeTableRecord
  2
AMCONSTR
 70
     0
  3
_______________________
 72
    65
 73
     2
 40
9999.0
 49
9999.0
 74
     0
 49
0.0
 74
     0
  0
LTYPE
  5
55
330
5
100
AcDbSymbolTableRecord
100
AcDbLinetypeTableRecord
  2
AMZIGZAG
 70
     0
  3
/\/-/\/-/\/-/\/-/\/-/\/
 72
    65
 73
     2
 40
11.00009999999999
 49
0.0001
 74
     4
 75
   135
340
54
 46
0.04
 50
0.0
 44
0.0
 45
0.0
 49
-11.0
 74
     0
  0
LTYPE
  5
56
330
5
100
AcDbSymbolTableRecord
100
AcDbLinetypeTableRecord
  2
AM_DIN_F_W050
 70
     0
  3
__ __ __ __ __ __ __ __ __ __ __ __ __ __ __
 72
    65
 73
     2
 40
6.25
 49
4.75
 74
     0
 49
-1.5
 74
     0
  0
LTYPE
  5
57
330
5
100
AcDbSymbolTableRecord
100
AcDbLinetypeTableRecord
  2
AM_DIN_G_W050
 70
     0
  3
____ . ____ . ____ . ____ . ____ . ____ . ____
 72
    65
 73
     4
 40
13.75
 49
9.75
 74
     0
 49
-1.5
 74
     0
 49
1.0
 74
     0
 49
-1.5
 74
     0
  0
LTYPE
  5
58
330
5
100
AcDbSymbolTableRecord
100
AcDbLinetypeTableRecord
  2
AM_DIN_K_W050
 70
     0
  3
_____ . . _____ . . _____ . . ____ .. ____
 72
    65
 73
     6
 40
16.25
 49
9.75
 74
     0
 49
-1.5
 74
     0
 49
1.0
 74
     0
 49
-1.5
 74
     0
 49
1.0
 74
     0
 49
-1.5
 74
     0
  0
LTYPE
  5
59
330
5
100
AcDbSymbolTableRecord
100
AcDbLinetypeTableRecord
  2
AM_DIN_G_W050X2
 70
     0
  3
__ . __ . __ . __ . __ . __
 72
    65
 73
     4
 40
6.875
 49
4.75
 74
     0
 49
-0.875
 74
     0
 49
0.375
 74
     0
 49
-0.875
 74
     0
  0
LTYPE
  5
5A
330
5
100
AcDbSymbolTableRecord
100
AcDbLinetypeTableRecord
  2
AM_DIN_F_W050X2
 70
     0
  3
 _ _ _ _ _ _ _ _ _ _ _ _
 72
    65
 73
     2
 40
3.125
 49
2.25
 74
     0
 49
-0.875
 74
     0
  0
LTYPE
  5
68
330
5
100
AcDbSymbolTableRecord
100
AcDbLinetypeTableRecord
  2
ACDINWELD
 70
     0
  3
_ _ _ _ _
 72
    65
 73
     2
 40
2.0
 49
2.0
 74
     0
 49
-1.0
 74
     0
  0
LTYPE
  5
69
330
5
100
AcDbSymbolTableRecord
100
AcDbLinetypeTableRecord
  2
ACDINTGB
 70
     0
  3
__ . . __ . .
 72
    65
 73
     6
 40
9.0
 49
4.0
 74
     0
 49
-1.0
 74
     0
 49
1.0
 74
     0
 49
-1.0
 74
     0
 49
1.0
 74
     0
 49
-1.0
 74
     0
  0
LTYPE
  5
6A
330
5
100
AcDbSymbolTableRecord
100
AcDbLinetypeTableRecord
  2
ACDINTGL
 70
     0
  3
_ _ _ _ _
 72
    65
 73
     2
 40
3.0
 49
2.0
 74
     0
 49
-1.0
 74
     0
  0
LTYPE
  5
6C
330
5
100
AcDbSymbolTableRecord
100
AcDbLinetypeTableRecord
  2
CENTER
 70
     0
  3
__ . __
 72
    65
 73
     4
 40
7.0
 49
4.0
 74
     0
 49
-1.0
 74
     0
 49
1.0
 74
     0
 49
-1.0
 74
     0
  0
LTYPE
  5
1E2C
330
5
100
AcDbSymbolTableRecord
100
AcDbLinetypeTableRecord
  2
PHANTOM2
 70
     0
  3
Phantom (.5x) ___ _ _ ___ _ _ ___ _ _ ___ _ _
 72
    65
 73
     6
 40
1.25
 49
0.625
 74
     0
 49
-0.125
 74
     0
 49
0.125
 74
     0
 49
-0.125
 74
     0
 49
0.125
 74
     0
 49
-0.125
 74
     0
  0
LTYPE
  5
1E2D
330
5
100
AcDbSymbolTableRecord
100
AcDbLinetypeTableRecord
  2
ACANSTGB
 70
     0
  3
__ . . __ . .
 72
    65
 73
     6
 40
0.35433070866
 49
0.15748031496
 74
     0
 49
-0.03937007874
 74
     0
 49
0.03937007874
 74
     0
 49
-0.03937007874
 74
     0
 49
0.03937007874
 74
     0
 49
-0.03937007874
 74
     0
  0
LTYPE
  5
1E2E
330
5
100
AcDbSymbolTableRecord
100
AcDbLinetypeTableRecord
  2
ACANSTGL
 70
     0
  3
_ _ _ _ _
 72
    65
 73
     2
 40
0.11811023622
 49
0.07874015748
 74
     0
 49
-0.03937007874
 74
     0
  0
LTYPE
  5
1E2F
330
5
100
AcDbSymbolTableRecord
100
AcDbLinetypeTableRecord
  2
DASHED
 70
     0
  3
__ __ __ __ __ __ __ __ __ __ __ __ __ __ __ __
 72
    65
 73
     2
 40
19.05
 49
12.7
 74
     0
 49
-6.349999999999998
 74
     0
  0
ENDTAB
  0
TABLE
  2
LAYER
  5
2
330
0
100
AcDbSymbolTable
 70
    11
  0
LAYER
  5
10
330
2
100
AcDbSymbolTableRecord
100
AcDbLayerTableRecord
  2
0
 70
     0
 62
     7
  6
CONTINUOUS
  0
LAYER
  5
263
330
2
100
AcDbSymbolTableRecord
100
AcDbLayerTableRecord
  2
DEFPOINTS
 70
     0
 62
     7
  6
CONTINUOUS
  0
LAYER
  5
1E30
330
2
100
AcDbSymbolTableRecord
100
AcDbLayerTableRecord
  2
1
 70
     0
 62
     4
  6
CONTINUOUS
  0
LAYER
  5
1E31
330
2
100
AcDbSymbolTableRecord
100
AcDbLayerTableRecord
  2
2
 70
     0
 62
     7
  6
CONTINUOUS
  0
LAYER
  5
1E32
330
2
100
AcDbSymbolTableRecord
100
AcDbLayerTableRecord
  2
4
 70
     0
 62
     2
  6
CENTER
  0
LAYER
  5
1E33
330
2
100
AcDbSymbolTableRecord
100
AcDbLayerTableRecord
  2
6
 70
     0
 62
     5
  6
CONTINUOUS
  0
LAYER
  5
1E34
330
2
100
AcDbSymbolTableRecord
100
AcDbLayerTableRecord
  2
SK1
 70
     0
 62
     4
  6
CONTINUOUS
  0
LAYER
  5
1E35
330
2
100
AcDbSymbolTableRecord
100
AcDbLayerTableRecord
  2
SK2
 70
     0
 62
     7
  6
CONTINUOUS
  0
LAYER
  5
1E36
330
2
100
AcDbSymbolTableRecord
100
AcDbLayerTableRecord
  2
SK3
 70
     0
 62
     1
  6
DASHED
  0
LAYER
  5
1E37
330
2
100
AcDbSymbolTableRecord
100
AcDbLayerTableRecord
  2
CUT
 70
     0
 62
     1
  6
CONTINUOUS
  0
LAYER
  5
1E38
330
2
100
AcDbSymbolTableRecord
100
AcDbLayerTableRecord
  2
NOCUT
 70
     0
 62
     7
  6
CONTINUOUS
  0
ENDTAB
  0
TABLE
  2
STYLE
  5
3
330
0
100
AcDbSymbolTable
 70
     6
  0
STYLE
  5
11
330
3
100
AcDbSymbolTableRecord
100
AcDbTextStyleTableRecord
  2
STANDARD
 70
     0
 40
0.0
 41
1.0
 50
0.0
 71
     0
 42
2.5
  3
ISOCP.SHX
  4

  0
STYLE
  5
54
330
3
100
AcDbSymbolTableRecord
100
AcDbTextStyleTableRecord
  2

 70
     1
 40
0.0
 41
1.0
 50
0.0
 71
     0
 42
2.5
  3
ltypeshp.shx
  4

  0
STYLE
  5
5B
330
3
100
AcDbSymbolTableRecord
100
AcDbTextStyleTableRecord
  2
ACDINTS
 70
     0
 40
1.0
 41
1.0
 50
0.0
 71
     0
 42
2.5
  3
isocp.shx
  4

  0
STYLE
  5
67
330
3
100
AcDbSymbolTableRecord
100
AcDbTextStyleTableRecord
  2
ACDINGDT
 70
     0
 40
0.0
 41
1.0
 50
0.0
 71
     0
 42
2.5
  3
amgdt.shx
  4

  0
STYLE
  5
1E39
330
3
100
AcDbSymbolTableRecord
100
AcDbTextStyleTableRecord
  2
ACANSTS
 70
     0
 40
1.0
 41
1.0
 50
0.0
 71
     0
 42
0.2
  3
romans.shx
  4

  0
STYLE
  5
1E3A
330
3
100
AcDbSymbolTableRecord
100
AcDbTextStyleTableRecord
  2
ACANSGDT
 70
     0
 40
0.0
 41
1.0
 50
0.0
 71
     0
 42
0.2
  3
amgdtans.shx
  4

  0
ENDTAB
  0
TABLE
  2
VIEW
  5
6
330
0
100
AcDbSymbolTable
 70
     0
  0
ENDTAB
  0
TABLE
  2
UCS
  5
7
330
0
100
AcDbSymbolTable
 70
     0
  0
ENDTAB
  0
TABLE
  2
APPID
  5
9
330
0
100
AcDbSymbolTable
 70
    53
  0
APPID
  5
12
330
9
100
AcDbSymbolTableRecord
100
AcDbRegAppTableRecord
  2
ACAD
 70
     0
  0
APPID
  5
2C
330
9
100
AcDbSymbolTableRecord
100
AcDbRegAppTableRecord
  2
MCAD_NO_VIS
 70
     0
  0
APPID
  5
2D
330
9
100
AcDbSymbolTableRecord
100
AcDbRegAppTableRecord
  2
ACAD_TEMP_GRAPHIC
 70
     0
  0
APPID
  5
3E
330
9
100
AcDbSymbolTableRecord
100
AcDbRegAppTableRecord
  2
ACATTRIBSERVICES
 70
     0
  0
APPID
  5
29A
330
9
100
AcDbSymbolTableRecord
100
AcDbRegAppTableRecord
  2
GENIUS_GENDIMSH_14
 70
     0
  0
APPID
  5
588
330
9
100
AcDbSymbolTableRecord
100
AcDbRegAppTableRecord
  2
GENIUS12
 70
     0
  0
APPID
  5
589
330
9
100
AcDbSymbolTableRecord
100
AcDbRegAppTableRecord
  2
GENIUS_GENOENT_13
 70
     0
  0
APPID
  5
58A
330
9
100
AcDbSymbolTableRecord
100
AcDbRegAppTableRecord
  2
GENIUS_GENODEF_13
 70
     0
  0
APPID
  5
58B
330
9
100
AcDbSymbolTableRecord
100
AcDbRegAppTableRecord
  2
GENIUS_GENOBJ-N-RSBK_13
 70
     0
  0
APPID
  5
58C
330
9
100
AcDbSymbolTableRecord
100
AcDbRegAppTableRecord
  2
GENIUS_GENOBJ-N-DIM12_13
 70
     0
  0
APPID
  5
58D
330
9
100
AcDbSymbolTableRecord
100
AcDbRegAppTableRecord
  2
GENIUS_GENSCALE_13
 70
     0
  0
APPID
  5
58E
330
9
100
AcDbSymbolTableRecord
100
AcDbRegAppTableRecord
  2
GENIUS_GENCFG_13
 70
     0
  0
APPID
  5
58F
330
9
100
AcDbSymbolTableRecord
100
AcDbRegAppTableRecord
  2
GENIUS_GENCFG0_13
 70
     0
  0
APPID
  5
590
330
9
100
AcDbSymbolTableRecord
100
AcDbRegAppTableRecord
  2
GENIUS_GENCFG1_13
 70
     0
  0
APPID
  5
591
330
9
100
AcDbSymbolTableRecord
100
AcDbRegAppTableRecord
  2
GENIUS_GENCFG2_13
 70
     0
  0
APPID
  5
592
330
9
100
AcDbSymbolTableRecord
100
AcDbRegAppTableRecord
  2
GENIUS_GENCFG3_13
 70
     0
  0
APPID
  5
593
330
9
100
AcDbSymbolTableRecord
100
AcDbRegAppTableRecord
  2
GENIUS_GENCFG4_13
 70
     0
  0
APPID
  5
594
330
9
100
AcDbSymbolTableRecord
100
AcDbRegAppTableRecord
  2
GENIUS_GEVCFG0_13
 70
     0
  0
APPID
  5
595
330
9
100
AcDbSymbolTableRecord
100
AcDbRegAppTableRecord
  2
GENIUS_GENOBJ-F-SUF_13
 70
     0
  0
APPID
  5
596
330
9
100
AcDbSymbolTableRecord
100
AcDbRegAppTableRecord
  2
GENIUS_GEFCFG0_13
 70
     0
  0
APPID
  5
597
330
9
100
AcDbSymbolTableRecord
100
AcDbRegAppTableRecord
  2
GEV_VCCNULL_SWITCH_OFF
 70
     0
  0
APPID
  5
598
330
9
100
AcDbSymbolTableRecord
100
AcDbRegAppTableRecord
  2
GENIUS_GENDTOL_13
 70
     0
  0
APPID
  5
599
330
9
100
AcDbSymbolTableRecord
100
AcDbRegAppTableRecord
  2
GENIUS_GENDIM_13
 70
     0
  0
APPID
  5
59A
330
9
100
AcDbSymbolTableRecord
100
AcDbRegAppTableRecord
  2
GENIUS_GE3DTOL_13
 70
     0
  0
APPID
  5
59B
330
9
100
AcDbSymbolTableRecord
100
AcDbRegAppTableRecord
  2
AD_DRAW
 70
     0
  0
APPID
  5
59C
330
9
100
AcDbSymbolTableRecord
100
AcDbRegAppTableRecord
  2
ASURF_PCURVE_APPNAME
 70
     0
  0
APPID
  5
59D
330
9
100
AcDbSymbolTableRecord
100
AcDbRegAppTableRecord
  2
AMG_3D2D_5_0
 70
     0
  0
APPID
  5
59E
330
9
100
AcDbSymbolTableRecord
100
AcDbRegAppTableRecord
  2
DESIGNERASSEMBLIES
 70
     0
  0
APPID
  5
59F
330
9
100
AcDbSymbolTableRecord
100
AcDbRegAppTableRecord
  2
ACADM_DIM_EDIT
 70
     0
  0
APPID
  5
5A0
330
9
100
AcDbSymbolTableRecord
100
AcDbRegAppTableRecord
  2
AMDT_DM_ADJ
 70
     0
  0
APPID
  5
5A1
330
9
100
AcDbSymbolTableRecord
100
AcDbRegAppTableRecord
  2
GENIUS_GENSCREG_15
 70
     0
  0
APPID
  5
5A2
330
9
100
AcDbSymbolTableRecord
100
AcDbRegAppTableRecord
  2
GENIUS_GENOBJ-N-SDF_13
 70
     0
  0
APPID
  5
6E4
330
9
100
AcDbSymbolTableRecord
100
AcDbRegAppTableRecord
  2
GENIUS_GENOBJ-N-FIL_13
 70
     0
  0
APPID
  5
C65
330
9
100
AcDbSymbolTableRecord
100
AcDbRegAppTableRecord
  2
GENIUS_GENHINW_13
 70
     0
  0
APPID
  5
C66
330
9
100
AcDbSymbolTableRecord
100
AcDbRegAppTableRecord
  2
GENIUS_GENOBJ-F-TOLL_13
 70
     0
  0
APPID
  5
C67
330
9
100
AcDbSymbolTableRecord
100
AcDbRegAppTableRecord
  2
GENIUS_GENOREF_13
 70
     0
  0
APPID
  5
C68
330
9
100
AcDbSymbolTableRecord
100
AcDbRegAppTableRecord
  2
GENIUS_GENOLIS_13
 70
     0
  0
APPID
  5
C69
330
9
100
AcDbSymbolTableRecord
100
AcDbRegAppTableRecord
  2
GENIUS_GEFTOLC_13
 70
     0
  0
APPID
  5
C6A
330
9
100
AcDbSymbolTableRecord
100
AcDbRegAppTableRecord
  2
GENIUS_GENOBJ-F-TOL_13
 70
     0
  0
APPID
  5
C6B
330
9
100
AcDbSymbolTableRecord
100
AcDbRegAppTableRecord
  2
GENIUS_GENOBJ-N-RSSYM_13
 70
     0
  0
APPID
  5
C6C
330
9
100
AcDbSymbolTableRecord
100
AcDbRegAppTableRecord
  2
GENIUS_GENSYMENT_13
 70
     0
  0
APPID
  5
C6D
330
9
100
AcDbSymbolTableRecord
100
AcDbRegAppTableRecord
  2
GENIUS_GENSCSYM_13
 70
     0
  0
APPID
  5
1E42
330
9
100
AcDbSymbolTableRecord
100
AcDbRegAppTableRecord
  2
GENIUS_GENBLLY_14
 70
     0
  0
APPID
  5
1E43
330
9
100
AcDbSymbolTableRecord
100
AcDbRegAppTableRecord
  2
GENIUS_GENTRA_14
 70
     0
  0
APPID
  5
1E44
330
9
100
AcDbSymbolTableRecord
100
AcDbRegAppTableRecord
  2
GENIUS_GENOBJ-N-TIT_13
 70
     0
  0
APPID
  5
1E45
330
9
100
AcDbSymbolTableRecord
100
AcDbRegAppTableRecord
  2
GENIUS_GENTITLE_13
 70
     0
  0
APPID
  5
1E46
330
9
100
AcDbSymbolTableRecord
100
AcDbRegAppTableRecord
  2
ACADIGES
 70
     0
  0
APPID
  5
1E47
330
9
100
AcDbSymbolTableRecord
100
AcDbRegAppTableRecord
  2
GENIUS_GENOBJ-N-HTC_13
 70
     0
  0
APPID
  5
1E48
330
9
100
AcDbSymbolTableRecord
100
AcDbRegAppTableRecord
  2
GENIUS_GENHATCH_13
 70
     0
  0
APPID
  5
1E49
330
9
100
AcDbSymbolTableRecord
100
AcDbRegAppTableRecord
  2
GENIUS_GENOBJ-N-CRS_13
 70
     0
  0
APPID
  5
1E4A
330
9
100
AcDbSymbolTableRecord
100
AcDbRegAppTableRecord
  2
GENIUS_GENFIL_13
 70
     0
  0
APPID
  5
1E4B
330
9
100
AcDbSymbolTableRecord
100
AcDbRegAppTableRecord
  2
GENIUS_GENOBJ-N-CHA_13
 70
     0
  0
APPID
  5
1E4C
330
9
100
AcDbSymbolTableRecord
100
AcDbRegAppTableRecord
  2
GENIUS_GENOBJ-N-CEN_13
 70
     0
  0
ENDTAB
  0
TABLE
  2
DIMSTYLE
  5
A
330
0
100
AcDbSymbolTable
 70
    14
  0
DIMSTYLE
105
6F
102
{ACAD_REACTORS
330
EC1
330
EFE
330
20A3
330
2127
330
28A4
102
}
330
A
100
AcDbSymbolTableRecord
100
AcDbDimStyleTableRecord
  2
AM_DIN
 70
     0
  3

  4
"
  5

  6

  7

 40
1.0
 41
2.5
 42
0.0
 43
10.0
 44
1.0
 45
0.0
 46
0.0
 47
0.1
 48
0.1
140
3.5
141
0.0
142
0.0
143
0.0393701
144
1.0
145
0.0
146
0.71
147
1.5
 71
     0
 72
     0
 73
     0
 74
     0
 75
     0
 76
     0
 77
     1
 78
     8
170
     0
171
     2
172
     1
173
     0
174
     0
175
     0
176
   256
177
   256
178
     2
270
     2
271
     2
272
     2
273
     2
274
     2
340
11
275
     0
280
     0
281
     0
282
     0
283
     0
284
     8
285
     0
286
     0
287
     3
288
     0
  0
DIMSTYLE
105
70
330
A
100
AcDbSymbolTableRecord
100
AcDbDimStyleTableRecord
  2
AM_DIN$3
 70
     0
  3

  4
"
  5

  6

  7

 40
1.0
 41
3.5
 42
0.0
 43
10.0
 44
1.0
 45
0.0
 46
0.0
 47
0.1
 48
0.1
140
3.5
141
0.0
142
0.0
143
0.0393701
144
1.0
145
0.0
146
0.71
147
1.5
 71
     0
 72
     0
 73
     0
 74
     1
 75
     0
 76
     0
 77
     1
 78
     8
170
     0
171
     2
172
     0
173
     0
174
     0
175
     0
176
   256
177
   256
178
     2
270
     2
271
     2
272
     2
273
     2
274
     2
340
11
275
     0
280
     0
281
     0
282
     0
283
     0
284
     8
285
     0
286
     0
287
     0
288
     1
  0
DIMSTYLE
105
71
330
A
100
AcDbSymbolTableRecord
100
AcDbDimStyleTableRecord
  2
AM_DIN$4
 70
     0
  3

  4
"
  5

  6

  7

 40
1.0
 41
3.5
 42
0.0
 43
10.0
 44
1.0
 45
0.0
 46
0.0
 47
0.1
 48
0.1
140
3.5
141
0.0
142
0.0
143
0.0393701
144
1.0
145
0.0
146
0.71
147
1.5
 71
     0
 72
     0
 73
     0
 74
     1
 75
     0
 76
     0
 77
     1
 78
     8
170
     0
171
     2
172
     0
173
     0
174
     0
175
     0
176
   256
177
   256
178
     2
270
     2
271
     2
272
     2
273
     2
274
     2
340
11
275
     0
280
     0
281
     0
282
     0
283
     0
284
     8
285
     0
286
     0
287
     0
288
     1
  0
DIMSTYLE
105
72
330
A
100
AcDbSymbolTableRecord
100
AcDbDimStyleTableRecord
  2
AM_DIN$6
 70
     0
  3

  4
"
  5

  6

  7

 40
1.0
 41
3.5
 42
0.0
 43
0.0
 44
1.0
 45
0.0
 46
0.0
 47
0.1
 48
0.1
140
3.5
141
0.0
142
0.0
143
0.0393701
144
1.0
145
0.0
146
0.71
147
1.5
 71
     0
 72
     0
 73
     0
 74
     0
 75
     0
 76
     0
 77
     0
 78
     8
170
     0
171
     2
172
     1
173
     0
174
     0
175
     0
176
   256
177
   256
178
     2
270
     2
271
     2
272
     2
273
     2
274
     2
340
11
275
     0
280
     0
281
     0
282
     0
283
     0
284
     8
285
     0
286
     0
287
     3
288
     0
  0
DIMSTYLE
105
73
330
A
100
AcDbSymbolTableRecord
100
AcDbDimStyleTableRecord
  2
AM_DIN$7
 70
     0
  3

  4
"
  5

  6

  7

 40
1.0
 41
3.5
 42
0.0
 43
10.0
 44
1.0
 45
0.0
 46
0.0
 47
0.1
 48
0.1
140
3.5
141
0.0
142
0.0
143
0.0393701
144
1.0
145
0.0
146
0.71
147
1.5
 71
     0
 72
     0
 73
     0
 74
     0
 75
     0
 76
     0
 77
     1
 78
     8
170
     0
171
     2
172
     1
173
     0
174
     0
175
     0
176
   256
177
   256
178
     2
270
     2
271
     2
272
     2
273
     2
274
     2
340
11
275
     0
280
     0
281
     0
282
     0
283
     0
284
     8
285
     0
286
     0
287
     3
288
     0
  0
DIMSTYLE
105
74
330
A
100
AcDbSymbolTableRecord
100
AcDbDimStyleTableRecord
  2
AM_DIN$SF
 70
     0
  3

  4
"
  5

  6

  7

 40
1.0
 41
2.5
 42
1.0
 43
10.0
 44
1.0
 45
0.0
 46
0.0
 47
0.1
 48
0.1
140
3.5
141
0.0
142
0.0
143
0.0393701
144
1.0
145
0.0
146
0.71
147
1.5
 71
     0
 72
     0
 73
     0
 74
     0
 75
     1
 76
     1
 77
     1
 78
     8
170
     0
171
     2
172
     1
173
     0
174
     0
175
     0
176
   256
177
   256
178
     2
270
     2
271
     2
272
     3
273
     2
274
     4
340
11
275
     0
280
     0
281
     0
282
     0
283
     0
284
     8
285
     0
286
     0
287
     3
288
     0
  0
DIMSTYLE
105
79
330
A
100
AcDbSymbolTableRecord
100
AcDbDimStyleTableRecord
  2
AM_DIN$SH
 70
     0
  3

  4
"
  5

  6
GENAXEH
  7

 40
1.0
 41
2.5
 42
1.0
 43
10.0
 44
1.0
 45
0.0
 46
0.0
 47
0.1
 48
0.1
140
3.5
141
0.0
142
0.0
143
0.0393701
144
2.0
145
0.0
146
0.71
147
1.5
 71
     0
 72
     0
 73
     0
 74
     0
 75
     1
 76
     1
 77
     1
 78
     8
170
     0
171
     2
172
     1
173
     1
174
     0
175
     0
176
   256
177
   256
178
     2
270
     2
271
     2
272
     3
273
     2
274
     4
340
11
275
     0
280
     0
281
     0
282
     0
283
     0
284
     8
285
     0
286
     0
287
     3
288
     0
  0
DIMSTYLE
105
1E3B
330
A
100
AcDbSymbolTableRecord
100
AcDbDimStyleTableRecord
  2
STANDARD
 70
     0
  3

  4

  5

  6

  7

 40
1.0
 41
0.18
 42
0.0625
 43
0.38
 44
0.18
 45
0.0
 46
0.0
 47
0.0
 48
0.0
140
0.18
141
0.09
142
0.0
143
25.4
144
1.0
145
0.0
146
1.0
147
0.09
 71
     0
 72
     0
 73
     1
 74
     1
 75
     0
 76
     0
 77
     0
 78
     0
170
     0
171
     2
172
     0
173
     0
174
     0
175
     0
176
     0
177
     0
178
     0
270
     2
271
     2
272
     2
273
     2
274
     2
340
11
275
     0
280
     0
281
     0
282
     0
283
     1
284
     8
285
     8
286
     8
287
     5
288
     0
  0
DIMSTYLE
105
1E3C
330
A
100
AcDbSymbolTableRecord
100
AcDbDimStyleTableRecord
  2
AM_ANSI
 70
     0
  3

  4
mm
  5

  6

  7

 40
1.0
 41
0.1
 42
0.0
 43
0.5
 44
0.1
 45
0.0
 46
0.0
 47
0.1
 48
0.1
140
0.12
141
0.0
142
0.0
143
25.4
144
1.0
145
0.0
146
0.71
147
0.06
 71
     0
 72
     0
 73
     1
 74
     1
 75
     0
 76
     0
 77
     0
 78
     7
170
     0
171
     2
172
     0
173
     0
174
     0
175
     0
176
   256
177
   256
178
     2
270
     2
271
     2
272
     2
273
     2
274
     2
340
11
275
     0
280
     0
281
     0
282
     0
283
     1
284
     8
285
     8
286
     8
287
     5
288
     0
  0
DIMSTYLE
105
1E3D
330
A
100
AcDbSymbolTableRecord
100
AcDbDimStyleTableRecord
  2
AM_ANSI$3
 70
     0
  3

  4
mm
  5

  6

  7

 40
1.0
 41
0.1
 42
0.0
 43
0.5
 44
0.1
 45
0.0
 46
0.0
 47
0.1
 48
0.1
140
0.12
141
0.0
142
0.0
143
25.4
144
1.0
145
0.0
146
0.71
147
0.06
 71
     0
 72
     0
 73
     1
 74
     1
 75
     0
 76
     0
 77
     0
 78
     7
170
     0
171
     2
172
     0
173
     0
174
     0
175
     0
176
   256
177
   256
178
     2
270
     2
271
     2
272
     2
273
     2
274
     2
340
11
275
     0
280
     0
281
     0
282
     0
283
     1
284
     8
285
     8
286
     8
287
     5
288
     0
  0
DIMSTYLE
105
1E3E
330
A
100
AcDbSymbolTableRecord
100
AcDbDimStyleTableRecord
  2
AM_ANSI$4
 70
     0
  3

  4
mm
  5

  6

  7

 40
1.0
 41
0.1
 42
0.0
 43
0.5
 44
0.1
 45
0.0
 46
0.0
 47
0.1
 48
0.1
140
0.12
141
0.0
142
0.0
143
25.4
144
1.0
145
0.0
146
0.71
147
0.06
 71
     0
 72
     0
 73
     1
 74
     1
 75
     0
 76
     0
 77
     0
 78
     7
170
     0
171
     2
172
     0
173
     0
174
     0
175
     0
176
   256
177
   256
178
     2
270
     2
271
     2
272
     2
273
     2
274
     2
340
11
275
     0
280
     0
281
     0
282
     0
283
     1
284
     8
285
     8
286
     8
287
     5
288
     0
  0
DIMSTYLE
105
1E3F
330
A
100
AcDbSymbolTableRecord
100
AcDbDimStyleTableRecord
  2
AM_ANSI$7
 70
     0
  3

  4
mm
  5

  6

  7

 40
1.0
 41
0.1
 42
0.0
 43
0.5
 44
0.1
 45
0.0
 46
0.0
 47
0.1
 48
0.1
140
0.24
141
0.0
142
0.0
143
25.4
144
1.0
145
0.0
146
0.71
147
0.06
 71
     0
 72
     0
 73
     1
 74
     1
 75
     0
 76
     0
 77
     0
 78
     7
170
     0
171
     2
172
     0
173
     0
174
     0
175
     0
176
   256
177
   256
178
     2
270
     2
271
     2
272
     2
273
     2
274
     2
340
11
275
     0
280
     0
281
     0
282
     0
283
     1
284
     8
285
     8
286
     8
287
     5
288
     0
  0
DIMSTYLE
105
1E40
330
A
100
AcDbSymbolTableRecord
100
AcDbDimStyleTableRecord
  2
AM_ANSI$SF
 70
     0
  3

  4
mm
  5

  6

  7

 40
1.0
 41
0.1
 42
0.05
 43
0.5
 44
0.1
 45
0.0
 46
0.0
 47
0.1
 48
0.1
140
0.12
141
0.0
142
0.0
143
25.4
144
1.0
145
0.0
146
0.71
147
0.06
 71
     0
 72
     0
 73
     1
 74
     1
 75
     1
 76
     1
 77
     0
 78
     7
170
     0
171
     2
172
     0
173
     0
174
     0
175
     0
176
   256
177
   256
178
     2
270
     2
271
     2
272
     2
273
     2
274
     2
340
11
275
     0
280
     0
281
     0
282
     0
283
     1
284
     8
285
     8
286
     8
287
     5
288
     0
  0
DIMSTYLE
105
1E41
330
A
100
AcDbSymbolTableRecord
100
AcDbDimStyleTableRecord
  2
AM_ANSI$SH
 70
     0
  3

  4
mm
  5

  6

  7

 40
1.0
 41
0.1
 42
0.05
 43
0.5
 44
0.1
 45
0.0
 46
0.0
 47
0.1
 48
0.1
140
0.12
141
0.0
142
0.0
143
25.4
144
1.0
145
0.0
146
0.71
147
0.06
 71
     0
 72
     0
 73
     1
 74
     1
 75
     1
 76
     1
 77
     0
 78
     7
170
     0
171
     2
172
     0
173
     1
174
     0
175
     0
176
   256
177
   256
178
     2
270
     2
271
     2
272
     2
273
     2
274
     2
340
11
275
     0
280
     0
281
     0
282
     0
283
     1
284
     8
285
     8
286
     8
287
     5
288
     0
  0
ENDTAB
  0
TABLE
  2
BLOCK_RECORD
  5
1
330
0
100
AcDbSymbolTable
 70
     7
  0
BLOCK_RECORD
  5
1F
102
{ACAD_XDICTIONARY
360
1F1
102
}
330
1
100
AcDbSymbolTableRecord
100
AcDbBlockTableRecord
  2
*MODEL_SPACE
  0
BLOCK_RECORD
  5
1B
102
{ACAD_XDICTIONARY
360
293D
102
}
330
1
100
AcDbSymbolTableRecord
100
AcDbBlockTableRecord
  2
*PAPER_SPACE
  0
BLOCK_RECORD
  5
75
330
1
100
AcDbSymbolTableRecord
100
AcDbBlockTableRecord
  2
GENAXEH
  0
BLOCK_RECORD
  5
EC2
330
1
100
AcDbSymbolTableRecord
100
AcDbBlockTableRecord
  2
*D2
  0
BLOCK_RECORD
  5
EFF
330
1
100
AcDbSymbolTableRecord
100
AcDbBlockTableRecord
  2
*D3
  0
BLOCK_RECORD
  5
20A4
330
1
100
AcDbSymbolTableRecord
100
AcDbBlockTableRecord
  2
*D4
  0
BLOCK_RECORD
  5
2128
330
1
100
AcDbSymbolTableRecord
100
AcDbBlockTableRecord
  2
*D5
  0
BLOCK_RECORD
  5
28C1
330
1
100
AcDbSymbolTableRecord
100
AcDbBlockTableRecord
  2
*D6
  0
ENDTAB
  0
ENDSEC
  0
SECTION
  2
BLOCKS
  0
BLOCK
  5
20
330
1F
100
AcDbEntity
  8
0
100
AcDbBlockBegin
  2
*MODEL_SPACE
 70
     0
 10
0.0
 20
0.0
 30
0.0
  3
*MODEL_SPACE
  1

  0
ENDBLK
  5
21
330
1F
100
AcDbEntity
  8
0
100
AcDbBlockEnd
  0
BLOCK
  5
1C
330
1B
100
AcDbEntity
 67
     1
  8
0
100
AcDbBlockBegin
  2
*PAPER_SPACE
 70
     0
 10
0.0
 20
0.0
 30
0.0
  3
*PAPER_SPACE
  1

  0
ENDBLK
  5
1D
330
1B
100
AcDbEntity
 67
     1
  8
0
100
AcDbBlockEnd
  0
BLOCK
  5
77
330
75
100
AcDbEntity
  8
0
100
AcDbBlockBegin
  2
GENAXEH
 70
     0
 10
0.0
 20
0.0
 30
0.0
  3
GENAXEH
  1

  0
LINE
  5
76
330
75
100
AcDbEntity
  8
0
100
AcDbLine
 10
-1.0
 20
0.0
 30
0.0
 11
1.0
 21
0.0
 31
0.0
  0
ENDBLK
  5
78
330
75
100
AcDbEntity
  8
0
100
AcDbBlockEnd
  0
BLOCK
  5
ECC
330
EC2
100
AcDbEntity
  8
0
100
AcDbBlockBegin
  2
*D2
 70
     1
 10
0.0
 20
0.0
 30
0.0
  3
*D2
  1

  0
LINE
  5
21EA
330
EC2
100
AcDbEntity
  8
SK2
100
AcDbLine
 10
0.0
 20
-13.4999999999998
 30
0.0
 11
-19.6577820213422
 21
-13.49999999999979
 31
0.0
  0
LINE
  5
21EB
330
EC2
100
AcDbEntity
  8
SK2
100
AcDbLine
 10
0.0
 20
13.5000000000002
 30
0.0
 11
-19.6577820213422
 21
13.5000000000002
 31
0.0
  0
LINE
  5
21EC
330
EC2
100
AcDbEntity
  8
SK2
100
AcDbLine
 10
-18.6577820213422
 20
-10.99999999999979
 30
0.0
 11
-18.6577820213422
 21
11.0000000000002
 31
0.0
  0
SOLID
  5
21ED
330
EC2
100
AcDbEntity
  8
SK2
100
AcDbTrace
 10
-19.07444868800887
 20
-10.99999999999979
 30
0.0
 11
-18.24111535467554
 21
-10.99999999999979
 31
0.0
 12
-18.6577820213422
 22
-13.49999999999979
 32
0.0
 13
-18.6577820213422
 23
-13.49999999999979
 33
0.0
  0
SOLID
  5
21EE
330
EC2
100
AcDbEntity
  8
SK2
100
AcDbTrace
 10
-19.07444868800886
 20
11.0000000000002
 30
0.0
 11
-18.24111535467553
 21
11.0000000000002
 31
0.0
 12
-18.6577820213422
 22
13.5000000000002
 32
0.0
 13
-18.6577820213422
 23
13.5000000000002
 33
0.0
  0
MTEXT
  5
21EF
330
EC2
100
AcDbEntity
  8
SK2
 62
     2
100
AcDbMText
 10
-21.90812650953117
 20
0.0000000000002023
 30
0.0
 40
3.5
 41
0.0
 71
     5
 72
     1
  1
%%c27
 11
0.0000000000000001
 21
1.0
 31
0.0
1001
ACAD
1000
MTEXTBEGIN
1070
    73
1070
     1
1070
    44
1040
1.0
1070
    74
1070
     0
1000
MTEXTEND
  0
POINT
  5
21F0
330
EC2
100
AcDbEntity
  8
DEFPOINTS
 62
     0
100
AcDbPoint
 10
0.0
 20
-13.4999999999998
 30
0.0
  0
POINT
  5
21F1
330
EC2
100
AcDbEntity
  8
DEFPOINTS
 62
     0
100
AcDbPoint
 10
0.0
 20
13.5000000000002
 30
0.0
  0
POINT
  5
21F2
330
EC2
100
AcDbEntity
  8
DEFPOINTS
 62
     0
100
AcDbPoint
 10
-18.6577820213422
 20
13.5000000000002
 30
0.0
  0
ENDBLK
  5
ECD
330
EC2
100
AcDbEntity
  8
0
100
AcDbBlockEnd
  0
BLOCK
  5
F09
330
EFF
100
AcDbEntity
  8
0
100
AcDbBlockBegin
  2
*D3
 70
     1
 10
0.0
 20
0.0
 30
0.0
  3
*D3
  1

  0
LINE
  5
21E1
330
EFF
100
AcDbEntity
  8
SK2
100
AcDbLine
 10
1.999999999999999
 20
-34.9999999999998
 30
0.0
 11
-36.37230029081077
 21
-34.99999999999979
 31
0.0
  0
LINE
  5
21E2
330
EFF
100
AcDbEntity
  8
SK2
100
AcDbLine
 10
2.000000000000056
 20
35.00000000000019
 30
0.0
 11
-36.37230029081075
 21
35.0000000000002
 31
0.0
  0
LINE
  5
21E3
330
EFF
100
AcDbEntity
  8
SK2
100
AcDbLine
 10
-35.37230029081077
 20
-32.49999999999979
 30
0.0
 11
-35.37230029081075
 21
32.5000000000002
 31
0.0
  0
SOLID
  5
21E4
330
EFF
100
AcDbEntity
  8
SK2
100
AcDbTrace
 10
-35.78896695747743
 20
-32.49999999999979
 30
0.0
 11
-34.9556336241441
 21
-32.49999999999979
 31
0.0
 12
-35.37230029081077
 22
-34.99999999999979
 32
0.0
 13
-35.37230029081077
 23
-34.99999999999979
 33
0.0
  0
SOLID
  5
21E5
330
EFF
100
AcDbEntity
  8
SK2
100
AcDbTrace
 10
-35.78896695747742
 20
32.5000000000002
 30
0.0
 11
-34.95563362414409
 21
32.5000000000002
 31
0.0
 12
-35.37230029081075
 22
35.0000000000002
 32
0.0
 13
-35.37230029081075
 23
35.0000000000002
 33
0.0
  0
MTEXT
  5
21E6
330
EFF
100
AcDbEntity
  8
SK2
 62
     2
100
AcDbMText
 10
-38.62230029081076
 20
0.0000000000002015
 30
0.0
 40
3.5
 41
0.0
 71
     5
 72
     1
  1
%%c70
 11
0.0000000000000001
 21
1.0
 31
0.0
1001
ACAD
1000
MTEXTBEGIN
1070
    73
1070
     1
1070
    44
1040
1.0
1070
    74
1070
     0
1000
MTEXTEND
  0
POINT
  5
21E7
330
EFF
100
AcDbEntity
  8
DEFPOINTS
 62
     0
100
AcDbPoint
 10
1.999999999999999
 20
-34.9999999999998
 30
0.0
  0
POINT
  5
21E8
330
EFF
100
AcDbEntity
  8
DEFPOINTS
 62
     0
100
AcDbPoint
 10
2.000000000000056
 20
35.00000000000019
 30
0.0
  0
POINT
  5
21E9
330
EFF
100
AcDbEntity
  8
DEFPOINTS
 62
     0
100
AcDbPoint
 10
-35.37230029081075
 20
35.0000000000002
 30
0.0
  0
ENDBLK
  5
F0A
330
EFF
100
AcDbEntity
  8
0
100
AcDbBlockEnd
  0
BLOCK
  5
20AE
330
20A4
100
AcDbEntity
  8
0
100
AcDbBlockBegin
  2
*D4
 70
     1
 10
0.0
 20
0.0
 30
0.0
  3
*D4
  1

  0
LINE
  5
21CF
330
20A4
100
AcDbEntity
  8
2
100
AcDbLine
 10
50.00000000000307
 20
40.0000000000002
 30
0.0
 11
76.91656035712455
 21
40.0000000000002
 31
0.0
  0
LINE
  5
21D0
330
20A4
100
AcDbEntity
  8
2
100
AcDbLine
 10
50.00000000000307
 20
-39.9999999999998
 30
0.0
 11
76.91656035712452
 21
-39.9999999999998
 31
0.0
  0
LINE
  5
21D1
330
20A4
100
AcDbEntity
  8
2
100
AcDbLine
 10
75.91656035712455
 20
37.50000000000019
 30
0.0
 11
75.91656035712452
 21
-37.4999999999998
 31
0.0
  0
SOLID
  5
21D2
330
20A4
100
AcDbEntity
  8
2
100
AcDbTrace
 10
75.49989369045788
 20
37.50000000000019
 30
0.0
 11
76.33322702379122
 21
37.50000000000019
 31
0.0
 12
75.91656035712455
 22
40.0000000000002
 32
0.0
 13
75.91656035712455
 23
40.0000000000002
 33
0.0
  0
SOLID
  5
21D3
330
20A4
100
AcDbEntity
  8
2
100
AcDbTrace
 10
75.49989369045785
 20
-37.4999999999998
 30
0.0
 11
76.33322702379119
 21
-37.4999999999998
 31
0.0
 12
75.91656035712452
 22
-39.9999999999998
 32
0.0
 13
75.91656035712452
 23
-39.9999999999998
 33
0.0
  0
MTEXT
  5
21D4
330
20A4
100
AcDbEntity
  8
2
 62
     2
100
AcDbMText
 10
72.66656035712454
 20
0.0000000000002089
 30
0.0
 40
3.5
 41
0.0
 71
     5
 72
     1
  1
%%c80
 11
0.0000000000000001
 21
1.0
 31
0.0
1001
ACAD
1000
MTEXTBEGIN
1070
    73
1070
     1
1070
    44
1040
1.0
1070
    74
1070
     0
1000
MTEXTEND
  0
POINT
  5
21D5
330
20A4
100
AcDbEntity
  8
DEFPOINTS
 62
     0
100
AcDbPoint
 10
50.00000000000307
 20
40.0000000000002
 30
0.0
  0
POINT
  5
21D6
330
20A4
100
AcDbEntity
  8
DEFPOINTS
 62
     0
100
AcDbPoint
 10
50.00000000000307
 20
-39.9999999999998
 30
0.0
  0
POINT
  5
21D7
330
20A4
100
AcDbEntity
  8
DEFPOINTS
 62
     0
100
AcDbPoint
 10
75.91656035712452
 20
-39.9999999999998
 30
0.0
  0
ENDBLK
  5
20AF
330
20A4
100
AcDbEntity
  8
0
100
AcDbBlockEnd
  0
BLOCK
  5
2132
330
2128
100
AcDbEntity
  8
0
100
AcDbBlockBegin
  2
*D5
 70
     1
 10
0.0
 20
0.0
 30
0.0
  3
*D5
  1

  0
LINE
  5
21D8
330
2128
100
AcDbEntity
  8
2
100
AcDbLine
 10
50.00000000000307
 20
40.0000000000002
 30
0.0
 11
50.00000000000307
 21
76.00000000000008
 31
0.0
  0
LINE
  5
21D9
330
2128
100
AcDbEntity
  8
2
100
AcDbLine
 10
0.0000000000000568
 20
33.0000000000002
 30
0.0
 11
0.0000000000000595
 21
76.00000000000008
 31
0.0
  0
LINE
  5
21DA
330
2128
100
AcDbEntity
  8
2
100
AcDbLine
 10
47.50000000000307
 20
75.00000000000008
 30
0.0
 11
2.500000000000059
 21
75.00000000000008
 31
0.0
  0
SOLID
  5
21DB
330
2128
100
AcDbEntity
  8
2
100
AcDbTrace
 10
47.50000000000307
 20
75.41666666666675
 30
0.0
 11
47.50000000000307
 21
74.58333333333341
 31
0.0
 12
50.00000000000307
 22
75.00000000000008
 32
0.0
 13
50.00000000000307
 23
75.00000000000008
 33
0.0
  0
SOLID
  5
21DC
330
2128
100
AcDbEntity
  8
2
100
AcDbTrace
 10
2.500000000000059
 20
75.41666666666675
 30
0.0
 11
2.500000000000059
 21
74.58333333333341
 31
0.0
 12
0.0000000000000594
 22
75.00000000000008
 32
0.0
 13
0.0000000000000594
 23
75.00000000000008
 33
0.0
  0
MTEXT
  5
21DD
330
2128
100
AcDbEntity
  8
2
 62
     2
100
AcDbMText
 10
25.00000000000156
 20
78.25000000000009
 30
0.0
 40
3.5
 41
0.0
 71
     5
 72
     1
  1
50
1001
ACAD
1000
MTEXTBEGIN
1070
    73
1070
     1
1070
    44
1040
1.0
1070
    74
1070
     0
1000
MTEXTEND
  0
POINT
  5
21DE
330
2128
100
AcDbEntity
  8
DEFPOINTS
 62
     0
100
AcDbPoint
 10
50.00000000000307
 20
40.0000000000002
 30
0.0
  0
POINT
  5
21DF
330
2128
100
AcDbEntity
  8
DEFPOINTS
 62
     0
100
AcDbPoint
 10
0.0000000000000568
 20
33.0000000000002
 30
0.0
  0
POINT
  5
21E0
330
2128
100
AcDbEntity
  8
DEFPOINTS
 62
     0
100
AcDbPoint
 10
0.0000000000000594
 20
75.00000000000008
 30
0.0
  0
ENDBLK
  5
2133
330
2128
100
AcDbEntity
  8
0
100
AcDbBlockEnd
  0
BLOCK
  5
28CB
330
28C1
100
AcDbEntity
  8
0
100
AcDbBlockBegin
  2
*D6
 70
     1
 10
0.0
 20
0.0
 30
0.0
  3
*D6
  1

  0
LINE
  5
28FE
330
28C1
100
AcDbEntity
  8
2
100
AcDbLine
 10
37.50000000000307
 20
40.00000000000014
 30
0.0
 11
37.50000000000307
 21
61.00000000000008
 31
0.0
  0
LINE
  5
28FF
330
28C1
100
AcDbEntity
  8
2
100
AcDbLine
 10
50.00000000000307
 20
40.72886565658339
 30
0.0
 11
50.00000000000307
 21
61.00000000000008
 31
0.0
  0
LINE
  5
2900
330
28C1
100
AcDbEntity
  8
2
100
AcDbLine
 10
40.00000000000307
 20
60.00000000000008
 30
0.0
 11
47.50000000000307
 21
60.00000000000008
 31
0.0
  0
SOLID
  5
2901
330
28C1
100
AcDbEntity
  8
2
100
AcDbTrace
 10
40.00000000000307
 20
60.41666666666674
 30
0.0
 11
40.00000000000307
 21
59.58333333333342
 31
0.0
 12
37.50000000000307
 22
60.00000000000008
 32
0.0
 13
37.50000000000307
 23
60.00000000000008
 33
0.0
  0
SOLID
  5
2902
330
28C1
100
AcDbEntity
  8
2
100
AcDbTrace
 10
47.50000000000307
 20
60.41666666666674
 30
0.0
 11
47.50000000000307
 21
59.58333333333342
 31
0.0
 12
50.00000000000307
 22
60.00000000000008
 32
0.0
 13
50.00000000000307
 23
60.00000000000008
 33
0.0
  0
MTEXT
  5
2903
330
28C1
100
AcDbEntity
  8
2
 62
     2
100
AcDbMText
 10
43.75000000000307
 20
63.25034448818906
 30
0.0
 40
3.5
 41
0.0
 71
     5
 72
     1
  1
12.5
1001
ACAD
1000
MTEXTBEGIN
1070
    73
1070
     1
1070
    44
1040
1.0
1070
    74
1070
     0
1000
MTEXTEND
  0
POINT
  5
2904
330
28C1
100
AcDbEntity
  8
DEFPOINTS
 62
     0
100
AcDbPoint
 10
37.50000000000307
 20
40.00000000000014
 30
0.0
  0
POINT
  5
2905
330
28C1
100
AcDbEntity
  8
DEFPOINTS
 62
     0
100
AcDbPoint
 10
50.00000000000307
 20
40.72886565658339
 30
0.0
  0
POINT
  5
2906
330
28C1
100
AcDbEntity
  8
DEFPOINTS
 62
     0
100
AcDbPoint
 10
50.00000000000307
 20
60.00000000000008
 30
0.0
  0
ENDBLK
  5
28CC
330
28C1
100
AcDbEntity
  8
0
100
AcDbBlockEnd
  0
ENDSEC
  0
SECTION
  2
ENTITIES
  0
LINE
  5
EA3
330
1F
100
AcDbEntity
  8
1
100
AcDbLine
 10
20.98087237764082
 20
35.00000000000025
 30
0.0
 11
2.000000000000056
 21
35.00000000000019
 31
0.0
  0
LINE
  5
EA4
330
1F
100
AcDbEntity
  8
1
100
AcDbLine
 10
0.0
 20
-32.9999999999998
 30
0.0
 11
0.0
 21
-6.199999999999789
 31
0.0
  0
LINE
  5
EA5
330
1F
100
AcDbEntity
  8
SK1
100
AcDbLine
 10
0.0
 20
-6.199999999999789
 30
0.0
 11
7.0
 21
-6.199999999999846
 31
0.0
  0
LINE
  5
EA6
330
1F
100
AcDbEntity
  8
SK1
100
AcDbLine
 10
7.0
 20
-6.199999999999846
 30
0.0
 11
7.0
 21
6.200000000000216
 31
0.0
  0
LINE
  5
EA7
330
1F
100
AcDbEntity
  8
SK1
100
AcDbLine
 10
7.0
 20
6.200000000000216
 30
0.0
 11
0.0
 21
6.200000000000216
 31
0.0
  0
LINE
  5
EA8
330
1F
100
AcDbEntity
  8
1
100
AcDbLine
 10
0.0
 20
6.200000000000216
 30
0.0
 11
0.0000000000000568
 21
33.0000000000002
 31
0.0
  0
LINE
  5
EA9
330
1F
100
AcDbEntity
  8
SK3
 48
0.5
100
AcDbLine
 10
0.0
 20
-13.4999999999998
 30
0.0
 11
21.99999999999988
 21
-13.4999999999998
 31
0.0
  0
LINE
  5
EAA
330
1F
100
AcDbEntity
  8
SK3
 48
0.5
100
AcDbLine
 10
21.99999999999988
 20
-13.4999999999998
 30
0.0
 11
21.99999999999988
 21
13.5000000000002
 31
0.0
  0
LINE
  5
EAB
330
1F
100
AcDbEntity
  8
SK3
 48
0.5
100
AcDbLine
 10
21.99999999999988
 20
13.5000000000002
 30
0.0
 11
-0.0000000000000568
 21
13.50000000000017
 31
0.0
  0
LINE
  5
EAC
330
1F
100
AcDbEntity
  8
SK3
 48
0.5
100
AcDbLine
 10
21.99999999999988
 20
-6.499999999999801
 30
0.0
 11
32.99999999999988
 21
-6.499999999999801
 31
0.0
  0
LINE
  5
EAD
330
1F
100
AcDbEntity
  8
SK3
 48
0.5
100
AcDbLine
 10
21.99999999999988
 20
6.500000000000198
 30
0.0
 11
32.99999999999977
 21
6.500000000000142
 31
0.0
  0
LINE
  5
EAE
330
1F
100
AcDbEntity
  8
SK3
 48
0.5
100
AcDbLine
 10
48.99679480008683
 20
-10.00000000000301
 30
0.0
 11
32.99999999999988
 21
-10.00000000000287
 31
0.0
  0
LINE
  5
EAF
330
1F
100
AcDbEntity
  8
SK3
 48
0.5
100
AcDbLine
 10
32.99999999999988
 20
-10.00000000000287
 30
0.0
 11
32.99999999999988
 21
10.00000000000332
 31
0.0
  0
LINE
  5
EB0
330
1F
100
AcDbEntity
  8
SK3
 48
0.5
100
AcDbLine
 10
32.99999999999988
 20
10.00000000000332
 30
0.0
 11
48.99679480008683
 21
10.00000000000326
 31
0.0
  0
DIMENSION
  5
EC1
330
1F
100
AcDbEntity
  8
SK2
100
AcDbDimension
  2
*D2
 10
-18.6577820213422
 20
13.5000000000002
 30
0.0
 11
-21.90812650953117
 21
0.0000000000002023
 31
0.0
 70
    32
  1
%%c<>
  3
AM_DIN
100
AcDbAlignedDimension
 13
0.0
 23
-13.4999999999998
 33
0.0
 14
0.0
 24
13.5000000000002
 34
0.0
 50
270.0
100
AcDbRotatedDimension
  0
DIMENSION
  5
EFE
330
1F
100
AcDbEntity
  8
SK2
100
AcDbDimension
  2
*D3
 10
-35.37230029081075
 20
35.0000000000002
 30
0.0
 11
-38.62230029081076
 21
0.0000000000002015
 31
0.0
 70
    32
  1
%%c<>
  3
AM_DIN
100
AcDbAlignedDimension
 13
2.0
 23
-34.9999999999998
 33
0.0
 14
2.000000000000056
 24
35.00000000000019
 34
0.0
 50
270.0
100
AcDbRotatedDimension
  0
ARC
  5
F3B
330
1F
100
AcDbEntity
  8
1
100
AcDbCircle
 10
2.000000000000056
 20
-32.99999999999977
 30
0.0
 40
2.0
100
AcDbArc
 50
180.0
 51
270.0
1001
GENIUS_GENOBJ-N-FIL_13
1002
{
1000
OWNER
1000
GEN
1002
}
1001
GENIUS_GENODEF_13
1002
{
1000
HIER
1070
     0
1002
}
1002
{
1000
MANEDIT
1070
     0
1002
}
1002
{
1000
NOSEL
1070
     0
1002
}
1002
{
1000
BEHIND
1070
     0
1002
}
1002
{
1000
OTHER
1070
     0
1002
}
1002
{
1000
REACTOR
1002
}
  0
ARC
  5
F50
330
1F
100
AcDbEntity
  8
1
100
AcDbCircle
 10
2.000000000000113
 20
33.00000000000022
 30
0.0
 40
2.0
100
AcDbArc
 50
90.00000000000024
 51
180.0
1001
GENIUS_GENODEF_13
1002
{
1000
HIER
1070
     0
1002
}
1002
{
1000
MANEDIT
1070
     0
1002
}
1002
{
1000
NOSEL
1070
     0
1002
}
1002
{
1000
BEHIND
1070
     0
1002
}
1002
{
1000
OTHER
1070
     0
1002
}
1002
{
1000
REACTOR
1002
}
1001
GENIUS_GENOBJ-N-FIL_13
1002
{
1000
OWNER
1000
GEN
1002
}
  0
CIRCLE
  5
1FD4
330
1F
100
AcDbEntity
  8
SK1
100
AcDbCircle
 10
50.00000000000307
 20
40.0000000000002
 30
0.0
 40
0.4637693698488208
  0
LINE
  5
1FD5
330
1F
100
AcDbEntity
  8
SK1
100
AcDbLine
 10
49.53623063015436
 20
40.0000000000002
 30
0.0
 11
50.463769369852
 21
40.0000000000002
 31
0.0
  0
LINE
  5
1FD8
330
1F
100
AcDbEntity
  8
SK1
100
AcDbLine
 10
50.00000000000307
 20
40.46376936984901
 30
0.0
 11
50.00000000000307
 21
39.53623063015138
 31
0.0
  0
LINE
  5
1FF6
330
1F
100
AcDbEntity
  8
SK1
100
AcDbLine
 10
0.0
 20
3.200115174948678
 30
0.0
 11
0.0
 21
-3.200115174948678
 31
0.0
  0
CIRCLE
  5
1FF7
330
1F
100
AcDbEntity
  8
SK1
100
AcDbCircle
 10
0.0
 20
0.0
 30
0.0
 40
3.200115174948665
  0
LINE
  5
1FF8
330
1F
100
AcDbEntity
  8
SK1
100
AcDbLine
 10
-3.200115174948678
 20
0.0
 30
0.0
 11
3.200115174948678
 21
0.0
 31
0.0
  0
LINE
  5
1FF9
330
1F
100
AcDbEntity
  8
4
100
AcDbLine
 10
55.25403882262975
 20
-0.0000000000001137
 30
0.0
 11
0.0
 21
0.000000000000199
 31
0.0
  0
CIRCLE
  5
2006
330
1F
100
AcDbEntity
  8
SK1
100
AcDbCircle
 10
50.00000000000307
 20
-39.9999999999998
 30
0.0
 40
0.4637693698488208
  0
LINE
  5
200A
330
1F
100
AcDbEntity
  8
SK1
100
AcDbLine
 10
49.53623063015413
 20
-39.9999999999998
 30
0.0
 11
50.46376936985177
 21
-39.9999999999998
 31
0.0
  0
LINE
  5
200C
330
1F
100
AcDbEntity
  8
SK1
100
AcDbLine
 10
50.00000000000307
 20
-39.9999999999998
 30
0.0
 11
50.00000000000307
 21
-39.53623063015098
 31
0.0
  0
LINE
  5
200F
330
1F
100
AcDbEntity
  8
1
100
AcDbLine
 10
48.99679480008683
 20
-39.271134343417
 30
0.0
 11
38.39876294695741
 21
-39.2711343434169
 31
0.0
  0
TEXT
  5
2011
330
1F
100
AcDbEntity
  8
6
100
AcDbText
 10
52.23786248682353
 20
-45.90887315498224
 30
0.0
 40
3.5
  1
2J1C080R00
100
AcDbText
  0
TEXT
  5
2012
330
1F
100
AcDbEntity
  8
6
100
AcDbText
 10
81.23293746967437
 20
-4.349158497224664
 30
0.0
 40
3.5
  1
Z=6
 50
90.0
100
AcDbText
  0
LINE
  5
2014
330
1F
100
AcDbEntity
  8
1
100
AcDbLine
 10
48.99679480008682
 20
35.51219587175689
 30
0.0
 11
48.99679480008683
 21
-33.20258113658788
 31
0.0
  0
LINE
  5
2016
330
1F
100
AcDbEntity
  8
1
100
AcDbLine
 10
36.50580587160144
 20
39.27113434341697
 30
0.0
 11
25.25200672105757
 21
39.271134343417
 31
0.0
  0
LINE
  5
201D
330
1F
100
AcDbEntity
  8
1
100
AcDbLine
 10
25.25200672105757
 20
39.271134343417
 30
0.0
 11
20.98087237764082
 21
35.00000000000025
 31
0.0
  0
LINE
  5
2053
330
1F
100
AcDbEntity
  8
1
100
AcDbLine
 10
25.25200672105717
 20
-39.27113434341694
 30
0.0
 11
20.98087237764048
 21
-35.00000000000014
 31
0.0
  0
LINE
  5
2054
330
1F
100
AcDbEntity
  8
1
100
AcDbLine
 10
20.98087237764048
 20
-35.00000000000014
 30
0.0
 11
1.999999999999715
 21
-34.99999999999991
 31
0.0
  0
LINE
  5
2083
330
1F
100
AcDbEntity
  8
4
100
AcDbLine
 10
20.054517715092
 20
11.70349332613622
 30
0.0
 11
39.82225535953029
 21
31.45634098235561
 31
0.0
  0
DIMENSION
  5
20A3
330
1F
100
AcDbEntity
  8
2
100
AcDbDimension
  2
*D4
 10
75.91656035712452
 20
-39.9999999999998
 30
0.0
 11
72.66656035712454
 21
0.0000000000002089
 31
0.0
 70
    32
  1
%%c<>
  3
AM_DIN
100
AcDbAlignedDimension
 13
50.00000000000307
 23
40.0000000000002
 33
0.0
 14
50.00000000000307
 24
-39.9999999999998
 34
0.0
 50
90.0
100
AcDbRotatedDimension
  0
DIMENSION
  5
2127
330
1F
100
AcDbEntity
  8
2
100
AcDbDimension
  2
*D5
 10
0.0000000000000594
 20
75.00000000000008
 30
0.0
 11
25.00000000000156
 21
78.25000000000009
 31
0.0
 70
    32
  3
AM_DIN
100
AcDbAlignedDimension
 13
50.00000000000307
 23
40.0000000000002
 33
0.0
 14
0.0000000000000568
 24
33.0000000000002
 34
0.0
100
AcDbRotatedDimension
  0
LINE
  5
2154
330
1F
100
AcDbEntity
  8
NOCUT
100
AcDbLine
 10
25.25200672105711
 20
-39.27113434341694
 30
0.0
 11
20.98087237764048
 21
-35.00000000000014
 31
0.0
  0
LINE
  5
2155
330
1F
100
AcDbEntity
  8
NOCUT
100
AcDbLine
 10
48.99679480008683
 20
-0.0000000000000853
 30
0.0
 11
48.99679480008682
 21
-33.20258113658788
 31
0.0
  0
LINE
  5
215A
330
1F
100
AcDbEntity
  8
NOCUT
100
AcDbLine
 10
48.99679480008683
 20
-39.271134343417
 30
0.0
 11
38.39876294695741
 21
-39.2711343434169
 31
0.0
  0
LINE
  5
2164
330
1F
100
AcDbEntity
  8
NOCUT
100
AcDbLine
 10
48.99679480008683
 20
-0.0000000000000853
 30
0.0
 11
0.0
 21
0.000000000000199
 31
0.0
  0
LINE
  5
2168
330
1F
100
AcDbEntity
  8
NOCUT
100
AcDbLine
 10
0.0
 20
-32.9999999999998
 30
0.0
 11
0.0
 21
0.000000000000199
 31
0.0
  0
LINE
  5
216B
330
1F
100
AcDbEntity
  8
NOCUT
100
AcDbLine
 10
20.98087237764048
 20
-35.00000000000014
 30
0.0
 11
1.999999999999772
 21
-34.99999999999991
 31
0.0
  0
ARC
  5
216C
330
1F
100
AcDbEntity
  8
NOCUT
100
AcDbCircle
 10
2.0
 20
-32.99999999999977
 30
0.0
 40
2.0
100
AcDbArc
 50
180.0
 51
270.0
1001
GENIUS_GENOBJ-N-FIL_13
1002
{
1000
OWNER
1000
GEN
1002
}
1001
GENIUS_GENODEF_13
1002
{
1000
HIER
1070
     0
1002
}
1002
{
1000
MANEDIT
1070
     0
1002
}
1002
{
1000
NOSEL
1070
     0
1002
}
1002
{
1000
BEHIND
1070
     0
1002
}
1002
{
1000
OTHER
1070
     0
1002
}
1002
{
1000
REACTOR
1002
}
  0
LINE
  5
23DF
330
1F
100
AcDbEntity
  8
NOCUT
100
AcDbLine
 10
38.39876294695741
 20
-39.2711343434169
 30
0.0
 11
25.25200672105734
 21
-39.27113434341677
 31
0.0
  0
LINE
  5
23E0
330
1F
100
AcDbEntity
  8
1
100
AcDbLine
 10
38.39876294695741
 20
-39.2711343434169
 30
0.0
 11
25.25200672105728
 21
-39.27113434341677
 31
0.0
  0
LINE
  5
23EA
330
1F
100
AcDbEntity
  8
1
100
AcDbLine
 10
48.99679480008683
 20
-33.20258113658788
 30
0.0
 11
48.99679480008683
 21
-39.271134343417
 31
0.0
  0
LINE
  5
23EB
330
1F
100
AcDbEntity
  8
NOCUT
100
AcDbLine
 10
48.99679480008682
 20
-33.20258113658788
 30
0.0
 11
48.99679480008683
 21
-39.271134343417
 31
0.0
  0
TEXT
  5
28A3
330
1F
100
AcDbEntity
  8
6
100
AcDbText
 10
54.56625706637987
 20
43.53143888158069
 30
0.0
 40
2.5
  1
BCKT130404R
100
AcDbText
  0
DIMENSION
  5
28A4
330
1F
100
AcDbEntity
  8
2
100
AcDbDimension
  2
*D6
 10
50.00000000000307
 20
60.00000000000008
 30
0.0
 11
43.75000000000307
 21
63.25034448818906
 31
0.0
 70
    32
  3
AM_DIN
100
AcDbAlignedDimension
 13
37.50000000000307
 23
40.00000000000014
 33
0.0
 14
50.00000000000307
 24
40.72886565658339
 34
0.0
100
AcDbRotatedDimension
  0
LINE
  5
28A5
330
1F
100
AcDbEntity
  8
CUT
100
AcDbLine
 10
48.01000000000306
 20
31.9600000000002
 30
0.0
 11
35.42000000000303
 21
31.96000000000017
 31
0.0
  0
LINE
  5
28A6
330
1F
100
AcDbEntity
  8
1
100
AcDbLine
 10
48.01000000000306
 20
31.9600000000002
 30
0.0
 11
35.42000000000303
 21
31.96000000000017
 31
0.0
  0
LINE
  5
28A7
330
1F
100
AcDbEntity
  8
1
100
AcDbLine
 10
38.15348280697929
 20
29.27113434341697
 30
0.0
 11
48.99679480008689
 21
29.27113434341697
 31
0.0
  0
CIRCLE
  5
28A9
330
1F
100
AcDbEntity
  8
1
100
AcDbCircle
 10
42.51000000000305
 20
35.98000000000018
 30
0.0
 40
2.749999999999976
  0
LINE
  5
28AA
330
1F
100
AcDbEntity
  8
CUT
100
AcDbLine
 10
35.02000000000305
 20
33.96000000000018
 30
0.0
 11
35.76889018293582
 21
34.96000000000015
 31
0.0
  0
LINE
  5
28AB
330
1F
100
AcDbEntity
  8
1
100
AcDbLine
 10
35.02000000000305
 20
33.96000000000018
 30
0.0
 11
35.76889018293582
 21
34.96000000000015
 31
0.0
  0
ARC
  5
28AC
330
1F
100
AcDbEntity
  8
CUT
100
AcDbCircle
 10
35.42000000000303
 20
32.36000000000014
 30
0.0
 40
0.4
100
AcDbArc
 50
180.0
 51
270.0
1001
GENIUS_GENOBJ-N-FIL_13
1002
{
1000
OWNER
1000
GEN
1002
}
1001
GENIUS_GENODEF_13
1002
{
1000
HIER
1070
     0
1002
}
1002
{
1000
MANEDIT
1070
     0
1002
}
1002
{
1000
NOSEL
1070
     0
1002
}
1002
{
1000
BEHIND
1070
     0
1002
}
1002
{
1000
OTHER
1070
     0
1002
}
1002
{
1000
REACTOR
1002
}
  0
ARC
  5
28AD
330
1F
100
AcDbEntity
  8
1
100
AcDbCircle
 10
35.42000000000303
 20
32.36000000000014
 30
0.0
 40
0.4
100
AcDbArc
 50
180.0
 51
270.0
1001
GENIUS_GENOBJ-N-FIL_13
1002
{
1000
OWNER
1000
GEN
1002
}
1001
GENIUS_GENODEF_13
1002
{
1000
HIER
1070
     0
1002
}
1002
{
1000
MANEDIT
1070
     0
1002
}
1002
{
1000
NOSEL
1070
     0
1002
}
1002
{
1000
BEHIND
1070
     0
1002
}
1002
{
1000
OTHER
1070
     0
1002
}
1002
{
1000
REACTOR
1002
}
  0
LINE
  5
28AE
330
1F
100
AcDbEntity
  8
CUT
100
AcDbLine
 10
35.02000000000305
 20
32.36000000000017
 30
0.0
 11
35.02000000000305
 21
33.96000000000015
 31
0.0
  0
LINE
  5
28AF
330
1F
100
AcDbEntity
  8
1
100
AcDbLine
 10
35.02000000000305
 20
32.36000000000017
 30
0.0
 11
35.02000000000305
 21
33.96000000000015
 31
0.0
  0
ARC
  5
28B0
330
1F
100
AcDbEntity
  8
1
100
AcDbCircle
 10
38.15348280697935
 20
37.27113434341697
 30
0.0
 40
8.0
100
AcDbArc
 50
165.5224878140701
 51
270.0
1001
GENIUS_GENOBJ-N-FIL_13
1002
{
1000
OWNER
1000
GEN
1002
}
1001
GENIUS_GENODEF_13
1002
{
1000
HIER
1070
     0
1002
}
1002
{
1000
MANEDIT
1070
     0
1002
}
1002
{
1000
NOSEL
1070
     0
1002
}
1002
{
1000
BEHIND
1070
     0
1002
}
1002
{
1000
OTHER
1070
     0
1002
}
1002
{
1000
REACTOR
1002
}
  0
ARC
  5
28B1
330
1F
100
AcDbEntity
  8
CUT
100
AcDbCircle
 10
36.96782146221198
 20
39.60000000000022
 30
0.0
 40
0.4
100
AcDbArc
 50
90.0
 51
170.3
1001
GENIUS_GENODEF_13
1002
{
1000
HIER
1070
     0
1002
}
1002
{
1000
MANEDIT
1070
     0
1002
}
1002
{
1000
NOSEL
1070
     0
1002
}
1002
{
1000
BEHIND
1070
     0
1002
}
1002
{
1000
OTHER
1070
     0
1002
}
1002
{
1000
REACTOR
1002
}
1001
GENIUS_GENOBJ-N-FIL_13
1002
{
1000
OWNER
1000
GEN
1002
}
  0
ARC
  5
28B2
330
1F
100
AcDbEntity
  8
1
100
AcDbCircle
 10
36.96782146221198
 20
39.60000000000022
 30
0.0
 40
0.4
100
AcDbArc
 50
90.0
 51
170.3
1001
GENIUS_GENODEF_13
1002
{
1000
HIER
1070
     0
1002
}
1002
{
1000
MANEDIT
1070
     0
1002
}
1002
{
1000
NOSEL
1070
     0
1002
}
1002
{
1000
BEHIND
1070
     0
1002
}
1002
{
1000
OTHER
1070
     0
1002
}
1002
{
1000
REACTOR
1002
}
1001
GENIUS_GENOBJ-N-FIL_13
1002
{
1000
OWNER
1000
GEN
1002
}
  0
LINE
  5
28B3
330
1F
100
AcDbEntity
  8
CUT
100
AcDbLine
 10
35.76889018293587
 20
34.96000000000023
 30
0.0
 11
36.57354007457644
 21
39.66739575182626
 31
0.0
  0
LINE
  5
28B4
330
1F
100
AcDbEntity
  8
1
100
AcDbLine
 10
35.76889018293587
 20
34.96000000000023
 30
0.0
 11
36.57354007457644
 21
39.66739575182626
 31
0.0
  0
LINE
  5
28B5
330
1F
100
AcDbEntity
  8
CUT
100
AcDbLine
 10
37.01000000000306
 20
40.00000000000014
 30
0.0
 11
49.60000000000309
 21
40.0000000000002
 31
0.0
  0
LINE
  5
28B6
330
1F
100
AcDbEntity
  8
1
100
AcDbLine
 10
37.01000000000306
 20
40.00000000000014
 30
0.0
 11
49.60000000000309
 21
40.0000000000002
 31
0.0
  0
LINE
  5
28B7
330
1F
100
AcDbEntity
  8
CUT
100
AcDbLine
 10
49.25110981707025
 20
37.00000000000014
 30
0.0
 11
48.44645992542968
 21
32.29260424817411
 31
0.0
  0
LINE
  5
28B8
330
1F
100
AcDbEntity
  8
1
100
AcDbLine
 10
49.25110981707025
 20
37.00000000000014
 30
0.0
 11
48.44645992542968
 21
32.29260424817411
 31
0.0
  0
ARC
  5
28B9
330
1F
100
AcDbEntity
  8
CUT
100
AcDbCircle
 10
48.05217853779414
 20
32.36000000000012
 30
0.0
 40
0.4
100
AcDbArc
 50
270.0
 51
350.3
1001
GENIUS_GENODEF_13
1002
{
1000
HIER
1070
     0
1002
}
1002
{
1000
MANEDIT
1070
     0
1002
}
1002
{
1000
NOSEL
1070
     0
1002
}
1002
{
1000
BEHIND
1070
     0
1002
}
1002
{
1000
OTHER
1070
     0
1002
}
1002
{
1000
REACTOR
1002
}
1001
GENIUS_GENOBJ-N-FIL_13
1002
{
1000
OWNER
1000
GEN
1002
}
  0
ARC
  5
28BA
330
1F
100
AcDbEntity
  8
1
100
AcDbCircle
 10
48.05217853779414
 20
32.36000000000012
 30
0.0
 40
0.4
100
AcDbArc
 50
270.0
 51
350.3
1001
GENIUS_GENODEF_13
1002
{
1000
HIER
1070
     0
1002
}
1002
{
1000
MANEDIT
1070
     0
1002
}
1002
{
1000
NOSEL
1070
     0
1002
}
1002
{
1000
BEHIND
1070
     0
1002
}
1002
{
1000
OTHER
1070
     0
1002
}
1002
{
1000
REACTOR
1002
}
1001
GENIUS_GENOBJ-N-FIL_13
1002
{
1000
OWNER
1000
GEN
1002
}
  0
LINE
  5
28BB
330
1F
100
AcDbEntity
  8
CUT
100
AcDbLine
 10
50.00000000000307
 20
38.0000000000002
 30
0.0
 11
49.2511098170703
 21
37.00000000000022
 31
0.0
  0
LINE
  5
28BC
330
1F
100
AcDbEntity
  8
1
100
AcDbLine
 10
50.00000000000307
 20
38.0000000000002
 30
0.0
 11
49.2511098170703
 21
37.00000000000022
 31
0.0
  0
LINE
  5
28BD
330
1F
100
AcDbEntity
  8
CUT
100
AcDbLine
 10
50.00000000000307
 20
39.60000000000019
 30
0.0
 11
50.00000000000307
 21
38.00000000000022
 31
0.0
  0
LINE
  5
28BE
330
1F
100
AcDbEntity
  8
1
100
AcDbLine
 10
50.00000000000307
 20
39.60000000000019
 30
0.0
 11
50.00000000000307
 21
38.00000000000022
 31
0.0
  0
ARC
  5
28BF
330
1F
100
AcDbEntity
  8
CUT
100
AcDbCircle
 10
49.60000000000309
 20
39.60000000000019
 30
0.0
 40
0.4
100
AcDbArc
 50
0.0
 51
90.0
1001
GENIUS_GENOBJ-N-FIL_13
1002
{
1000
OWNER
1000
GEN
1002
}
1001
GENIUS_GENODEF_13
1002
{
1000
HIER
1070
     0
1002
}
1002
{
1000
MANEDIT
1070
     0
1002
}
1002
{
1000
NOSEL
1070
     0
1002
}
1002
{
1000
BEHIND
1070
     0
1002
}
1002
{
1000
OTHER
1070
     0
1002
}
1002
{
1000
REACTOR
1002
}
  0
ARC
  5
28C0
330
1F
100
AcDbEntity
  8
1
100
AcDbCircle
 10
49.60000000000309
 20
39.60000000000019
 30
0.0
 40
0.4
100
AcDbArc
 50
0.0
 51
90.0
1001
GENIUS_GENOBJ-N-FIL_13
1002
{
1000
OWNER
1000
GEN
1002
}
1001
GENIUS_GENODEF_13
1002
{
1000
HIER
1070
     0
1002
}
1002
{
1000
MANEDIT
1070
     0
1002
}
1002
{
1000
NOSEL
1070
     0
1002
}
1002
{
1000
BEHIND
1070
     0
1002
}
1002
{
1000
OTHER
1070
     0
1002
}
1002
{
1000
REACTOR
1002
}
  0
ARC
  5
28D6
330
1F
100
AcDbEntity
  8
SK3
 48
0.3
100
AcDbCircle
 10
38.15348280697901
 20
-37.2711343434166
 30
0.0
 40
8.0
100
AcDbArc
 50
89.99999999999836
 51
194.4775121859306
1001
GENIUS_GENOBJ-N-FIL_13
1002
{
1000
OWNER
1000
GEN
1002
}
1001
GENIUS_GENODEF_13
1002
{
1000
HIER
1070
     0
1002
}
1002
{
1000
MANEDIT
1070
     0
1002
}
1002
{
1000
NOSEL
1070
     0
1002
}
1002
{
1000
BEHIND
1070
     0
1002
}
1002
{
1000
OTHER
1070
     0
1002
}
1002
{
1000
REACTOR
1002
}
  0
LINE
  5
28D7
330
1F
100
AcDbEntity
  8
SK3
100
AcDbLine
 10
48.01000000000306
 20
-31.95999999999982
 30
0.0
 11
35.42000000000303
 21
-31.95999999999979
 31
0.0
  0
LINE
  5
28D8
330
1F
100
AcDbEntity
  8
SK3
100
AcDbLine
 10
35.02000000000305
 20
-32.3599999999998
 30
0.0
 11
35.02000000000305
 21
-33.95999999999976
 31
0.0
  0
LINE
  5
28D9
330
1F
100
AcDbEntity
  8
SK3
100
AcDbLine
 10
35.02000000000305
 20
-33.95999999999979
 30
0.0
 11
35.76889018293582
 21
-34.95999999999976
 31
0.0
  0
LINE
  5
28DA
330
1F
100
AcDbEntity
  8
SK3
100
AcDbLine
 10
35.76889018293587
 20
-34.95999999999985
 30
0.0
 11
36.50580587160146
 21
-39.27113434341668
 31
0.0
  0
ARC
  5
28DB
330
1F
100
AcDbEntity
  8
SK3
100
AcDbCircle
 10
35.42000000000303
 20
-32.35999999999977
 30
0.0
 40
0.4
100
AcDbArc
 50
90.0
 51
180.0
1001
GENIUS_GENOBJ-N-FIL_13
1002
{
1000
OWNER
1000
GEN
1002
}
1001
GENIUS_GENODEF_13
1002
{
1000
HIER
1070
     0
1002
}
1002
{
1000
MANEDIT
1070
     0
1002
}
1002
{
1000
NOSEL
1070
     0
1002
}
1002
{
1000
BEHIND
1070
     0
1002
}
1002
{
1000
OTHER
1070
     0
1002
}
1002
{
1000
REACTOR
1002
}
  0
CIRCLE
  5
28DC
330
1F
100
AcDbEntity
  8
SK3
100
AcDbCircle
 10
42.51000000000305
 20
-35.9799999999998
 30
0.0
 40
2.749999999999976
  0
LINE
  5
28DD
330
1F
100
AcDbEntity
  8
SK3
 48
0.3
100
AcDbLine
 10
38.15348280697918
 20
-29.27113434341659
 30
0.0
 11
48.99679480008678
 21
-29.27113434341688
 31
0.0
  0
ARC
  5
28DE
330
1F
100
AcDbEntity
  8
SK3
100
AcDbCircle
 10
48.05217853779414
 20
-32.35999999999974
 30
0.0
 40
0.4
100
AcDbArc
 50
9.699999999999931
 51
90.0
1001
GENIUS_GENODEF_13
1002
{
1000
HIER
1070
     0
1002
}
1002
{
1000
MANEDIT
1070
     0
1002
}
1002
{
1000
NOSEL
1070
     0
1002
}
1002
{
1000
BEHIND
1070
     0
1002
}
1002
{
1000
OTHER
1070
     0
1002
}
1002
{
1000
REACTOR
1002
}
1001
GENIUS_GENOBJ-N-FIL_13
1002
{
1000
OWNER
1000
GEN
1002
}
  0
ARC
  5
28DF
330
1F
100
AcDbEntity
  8
SK3
100
AcDbCircle
 10
48.05217853779414
 20
-32.35999999999974
 30
0.0
 40
0.4
100
AcDbArc
 50
9.699999999999931
 51
90.0
1001
GENIUS_GENODEF_13
1002
{
1000
HIER
1070
     0
1002
}
1002
{
1000
MANEDIT
1070
     0
1002
}
1002
{
1000
NOSEL
1070
     0
1002
}
1002
{
1000
BEHIND
1070
     0
1002
}
1002
{
1000
OTHER
1070
     0
1002
}
1002
{
1000
REACTOR
1002
}
1001
GENIUS_GENOBJ-N-FIL_13
1002
{
1000
OWNER
1000
GEN
1002
}
  0
ARC
  5
28E0
330
1F
100
AcDbEntity
  8
1
100
AcDbCircle
 10
36.96782146221198
 20
-39.59999999999983
 30
0.0
 40
0.4
100
AcDbArc
 50
189.6999999999999
 51
270.0
1001
GENIUS_GENODEF_13
1002
{
1000
HIER
1070
     0
1002
}
1002
{
1000
MANEDIT
1070
     0
1002
}
1002
{
1000
NOSEL
1070
     0
1002
}
1002
{
1000
BEHIND
1070
     0
1002
}
1002
{
1000
OTHER
1070
     0
1002
}
1002
{
1000
REACTOR
1002
}
1001
GENIUS_GENOBJ-N-FIL_13
1002
{
1000
OWNER
1000
GEN
1002
}
  0
LINE
  5
28E1
330
1F
100
AcDbEntity
  8
1
100
AcDbLine
 10
36.50580587160146
 20
-39.27113434341668
 30
0.0
 11
36.57354007457644
 21
-39.66739575182588
 31
0.0
  0
LINE
  5
28E2
330
1F
100
AcDbEntity
  8
1
100
AcDbLine
 10
37.01000000000306
 20
-39.99999999999976
 30
0.0
 11
49.60000000000309
 21
-39.99999999999981
 31
0.0
  0
LINE
  5
28E3
330
1F
100
AcDbEntity
  8
1
100
AcDbLine
 10
50.00000000000307
 20
-39.59999999999981
 30
0.0
 11
50.00000000000307
 21
-37.99999999999984
 31
0.0
  0
LINE
  5
28E4
330
1F
100
AcDbEntity
  8
1
100
AcDbLine
 10
50.00000000000307
 20
-37.99999999999981
 30
0.0
 11
49.2511098170703
 21
-36.99999999999984
 31
0.0
  0
LINE
  5
28E5
330
1F
100
AcDbEntity
  8
SK3
100
AcDbLine
 10
48.99679480008683
 20
-35.51219587175647
 30
0.0
 11
48.44645992542968
 21
-32.29260424817373
 31
0.0
  0
LINE
  5
28E6
330
1F
100
AcDbEntity
  8
1
100
AcDbLine
 10
49.25110981707025
 20
-36.99999999999976
 30
0.0
 11
48.99679480008683
 21
-35.51219587175647
 31
0.0
  0
ARC
  5
28E7
330
1F
100
AcDbEntity
  8
1
100
AcDbCircle
 10
49.60000000000309
 20
-39.59999999999981
 30
0.0
 40
0.4
100
AcDbArc
 50
270.0
 51
0.0
1001
GENIUS_GENOBJ-N-FIL_13
1002
{
1000
OWNER
1000
GEN
1002
}
1001
GENIUS_GENODEF_13
1002
{
1000
HIER
1070
     0
1002
}
1002
{
1000
MANEDIT
1070
     0
1002
}
1002
{
1000
NOSEL
1070
     0
1002
}
1002
{
1000
BEHIND
1070
     0
1002
}
1002
{
1000
OTHER
1070
     0
1002
}
1002
{
1000
REACTOR
1002
}
  0
ENDSEC
  0
SECTION
  2
OBJECTS
  0
DICTIONARY
  5
C
330
0
100
AcDbDictionary
  3
ACAD_GROUP
350
D
  3
ACAD_LAYOUT
350
1A
  3
ACAD_MLINESTYLE
350
17
  3
ACAD_PLOTSETTINGS
350
19
  3
ACAD_PLOTSTYLENAME
350
E
  3
ACDBHEADERROUNDTRIPXREC
350
291C
  3
ACDBVARIABLEDICTIONARY
350
216
  3
ACMDICTIONARY
350
45
  3
AMG
350
41
  3
AMGSNAPSETTINGS
350
23D
  3
DWGPROPS
350
2918
  0
DICTIONARY
  5
1F1
330
1F
100
AcDbDictionary
280
     1
  3
ACAD_INDEX
360
1F2
  3
ACAD_LAYOUTSELFREF
360
293F
  0
DICTIONARY
  5
293D
330
1B
100
AcDbDictionary
280
     1
  3
ACAD_LAYOUTSELFREF
360
293E
  0
DICTIONARY
  5
D
102
{ACAD_REACTORS
330
C
102
}
330
C
100
AcDbDictionary
  0
DICTIONARY
  5
1A
102
{ACAD_REACTORS
330
C
102
}
330
C
100
AcDbDictionary
  0
DICTIONARY
  5
17
102
{ACAD_REACTORS
330
C
102
}
330
C
100
AcDbDictionary
  3
STANDARD
350
18
  0
DICTIONARY
  5
19
102
{ACAD_REACTORS
330
C
102
}
330
C
100
AcDbDictionary
  0
ACDBDICTIONARYWDFLT
  5
E
102
{ACAD_REACTORS
330
C
102
}
330
C
100
AcDbDictionary
281
     1
  3
Normal
350
F
100
AcDbDictionaryWithDefault
340
F
  0
DICTIONARY
  5
291C
102
{ACAD_REACTORS
330
C
102
}
330
C
100
AcDbDictionary
  3
CEPSNTYPE
350
2926
  3
DIMSTYLEDATA
350
292A
  3
FINGERPRINTGUID
350
2927
  3
HYPERLINKBASE
350
291F
  3
INSUNITS
350
2925
  3
LAYOUTDICT
350
2921
  3
LWETCUNION
350
2924
  3
PLOTSETDICT
350
2922
  3
PLOTSTYLNAMDICT
350
2923
  3
PSVPSCALE
350
2929
  3
PUCSBASE
350
292D
  3
PUCSORGBACK
350
2933
  3
PUCSORGBOTTOM
350
292F
  3
PUCSORGFRONT
350
2932
  3
PUCSORGLEFT
350
2930
  3
PUCSORGRIGHT
350
2931
  3
PUCSORGTOP
350
292E
  3
PUCSORTHOREF
350
292B
  3
PUCSORTHOVIEW
350
292C
  3
STYLESHEET
350
2920
  3
TSTACKALIGN
350
291D
  3
TSTACKSIZE
350
291E
  3
UCSBASE
350
2936
  3
UCSORGBACK
350
293C
  3
UCSORGBOTTOM
350
2938
  3
UCSORGFRONT
350
293B
  3
UCSORGLEFT
350
2939
  3
UCSORGRIGHT
350
293A
  3
UCSORGTOP
350
2937
  3
UCSORTHOREF
350
2934
  3
UCSORTHOVIEW
350
2935
  3
VERSIONGUID
350
2928
  0
DICTIONARY
  5
216
102
{ACAD_REACTORS
330
C
102
}
330
C
100
AcDbDictionary
  3
DIMASSOC
350
219
  3
HIDETEXT
350
218
  3
INDEXCTL
350
217
  0
DICTIONARY
  5
45
102
{ACAD_REACTORS
330
C
102
}
330
C
100
AcDbDictionary
  3
ACMSTDDICTIONARY
350
4A
  0
DICTIONARY
  5
41
102
{ACAD_REACTORS
330
C
102
}
330
C
100
AcDbDictionary
  3
ACMGSETTINGS
350
42
  0
DICTIONARY
  5
23D
102
{ACAD_REACTORS
330
C
102
}
330
C
100
AcDbDictionary
  0
XRECORD
  5
2918
102
{ACAD_REACTORS
330
C
102
}
330
C
100
AcDbXrecord
  1
DWGPROPS COOKIE
  2

  3

  4

  6

  7

  8

  9

300
AmdtFileType=84
301
=
302
=
303
=
304
=
305
=
306
=
307
=
308
=
309
=
 40
0.0430941203703704
 41
2453599.366006042
 42
2453609.670287349
  1

 90
        1
  0
DICTIONARY
  5
1F2
102
{ACAD_REACTORS
330
1F1
102
}
330
1F1
100
AcDbDictionary
  3
*A1
350
1F3
  0
XRECORD
  5
293F
102
{ACAD_REACTORS
330
1F1
102
}
330
1F1
100
AcDbXrecord
340
1F
  0
XRECORD
  5
293E
102
{ACAD_REACTORS
330
293D
102
}
330
293D
100
AcDbXrecord
340
1B
  0
MLINESTYLE
  5
18
102
{ACAD_REACTORS
330
17
102
}
330
17
100
AcDbMlineStyle
  2
STANDARD
 70
     0
  3

 62
   256
 51
90.0
 52
90.0
 71
     2
 49
0.5
 62
   256
  6
BYLAYER
 49
-0.5
 62
   256
  6
BYLAYER
  0
ACDBPLACEHOLDER
  5
F
102
{ACAD_REACTORS
330
E
102
}
330
E
100
AcDbPlaceHolder
280
     0
  0
XRECORD
  5
2926
102
{ACAD_REACTORS
330
291C
102
}
330
291C
100
AcDbXrecord
 90
        0
  0
XRECORD
  5
292A
102
{ACAD_REACTORS
330
291C
102
}
330
291C
100
AcDbXrecord
1000
DSTYLE
1002
{
1070
    79
 70
     2
1070
   371
 70
    -1
1070
   372
 70
    -1
1002
}
  0
XRECORD
  5
2927
102
{ACAD_REACTORS
330
291C
102
}
330
291C
100
AcDbXrecord
  1
{03052709-208C-44F1-88CB-F8F0E550BC5D}
  0
XRECORD
  5
291F
102
{ACAD_REACTORS
330
291C
102
}
330
291C
100
AcDbXrecord
  1

  0
XRECORD
  5
2925
102
{ACAD_REACTORS
330
291C
102
}
330
291C
100
AcDbXrecord
 90
        4
  0
XRECORD
  5
2921
102
{ACAD_REACTORS
330
291C
102
}
330
291C
100
AcDbXrecord
340
1A
  0
XRECORD
  5
2924
102
{ACAD_REACTORS
330
291C
102
}
330
291C
100
AcDbXrecord
 90
    10781
  0
XRECORD
  5
2922
102
{ACAD_REACTORS
330
291C
102
}
330
291C
100
AcDbXrecord
340
19
  0
XRECORD
  5
2923
102
{ACAD_REACTORS
330
291C
102
}
330
291C
100
AcDbXrecord
340
E
  0
XRECORD
  5
2929
102
{ACAD_REACTORS
330
291C
102
}
330
291C
100
AcDbXrecord
 40
0.0
  0
XRECORD
  5
292D
102
{ACAD_REACTORS
330
291C
102
}
330
291C
100
AcDbXrecord
340
0
  0
XRECORD
  5
2933
102
{ACAD_REACTORS
330
291C
102
}
330
291C
100
AcDbXrecord
 10
0.0
 20
0.0
 30
0.0
  0
XRECORD
  5
292F
102
{ACAD_REACTORS
330
291C
102
}
330
291C
100
AcDbXrecord
 10
0.0
 20
0.0
 30
0.0
  0
XRECORD
  5
2932
102
{ACAD_REACTORS
330
291C
102
}
330
291C
100
AcDbXrecord
 10
0.0
 20
0.0
 30
0.0
  0
XRECORD
  5
2930
102
{ACAD_REACTORS
330
291C
102
}
330
291C
100
AcDbXrecord
 10
0.0
 20
0.0
 30
0.0
  0
XRECORD
  5
2931
102
{ACAD_REACTORS
330
291C
102
}
330
291C
100
AcDbXrecord
 10
0.0
 20
0.0
 30
0.0
  0
XRECORD
  5
292E
102
{ACAD_REACTORS
330
291C
102
}
330
291C
100
AcDbXrecord
 10
0.0
 20
0.0
 30
0.0
  0
XRECORD
  5
292B
102
{ACAD_REACTORS
330
291C
102
}
330
291C
100
AcDbXrecord
340
0
  0
XRECORD
  5
292C
102
{ACAD_REACTORS
330
291C
102
}
330
291C
100
AcDbXrecord
 70
     0
  0
XRECORD
  5
2920
102
{ACAD_REACTORS
330
291C
102
}
330
291C
100
AcDbXrecord
  1

  0
XRECORD
  5
291D
102
{ACAD_REACTORS
330
291C
102
}
330
291C
100
AcDbXrecord
 90
        1
  0
XRECORD
  5
291E
102
{ACAD_REACTORS
330
291C
102
}
330
291C
100
AcDbXrecord
 90
       70
  0
XRECORD
  5
2936
102
{ACAD_REACTORS
330
291C
102
}
330
291C
100
AcDbXrecord
340
0
  0
XRECORD
  5
293C
102
{ACAD_REACTORS
330
291C
102
}
330
291C
100
AcDbXrecord
 10
0.0
 20
0.0
 30
0.0
  0
XRECORD
  5
2938
102
{ACAD_REACTORS
330
291C
102
}
330
291C
100
AcDbXrecord
 10
0.0
 20
0.0
 30
0.0
  0
XRECORD
  5
293B
102
{ACAD_REACTORS
330
291C
102
}
330
291C
100
AcDbXrecord
 10
0.0
 20
0.0
 30
0.0
  0
XRECORD
  5
2939
102
{ACAD_REACTORS
330
291C
102
}
330
291C
100
AcDbXrecord
 10
0.0
 20
0.0
 30
0.0
  0
XRECORD
  5
293A
102
{ACAD_REACTORS
330
291C
102
}
330
291C
100
AcDbXrecord
 10
0.0
 20
0.0
 30
0.0
  0
XRECORD
  5
2937
102
{ACAD_REACTORS
330
291C
102
}
330
291C
100
AcDbXrecord
 10
0.0
 20
0.0
 30
0.0
  0
XRECORD
  5
2934
102
{ACAD_REACTORS
330
291C
102
}
330
291C
100
AcDbXrecord
340
0
  0
XRECORD
  5
2935
102
{ACAD_REACTORS
330
291C
102
}
330
291C
100
AcDbXrecord
 70
     0
  0
XRECORD
  5
2928
102
{ACAD_REACTORS
330
291C
102
}
330
291C
100
AcDbXrecord
  1
{85A301B2-47E4-4EA2-99FD-4934E73D1626}
  0
DICTIONARYVAR
  5
219
102
{ACAD_REACTORS
330
216
102
}
330
216
100
DictionaryVariables
280
     0
  1
1
  0
DICTIONARYVAR
  5
218
102
{ACAD_REACTORS
330
216
102
}
330
216
100
DictionaryVariables
280
     0
  1
1
  0
DICTIONARYVAR
  5
217
102
{ACAD_REACTORS
330
216
102
}
330
216
100
DictionaryVariables
280
     0
  1
1
  0
DICTIONARY
  5
4A
102
{ACAD_REACTORS
330
45
102
}
330
45
100
AcDbDictionary
  0
DICTIONARY
  5
42
102
{ACAD_REACTORS
330
41
102
}
330
41
100
AcDbDictionary
  3
DWGSETTINGS
350
43
  0
LAYER_INDEX
  5
1F3
102
{ACAD_REACTORS
330
1F2
102
}
330
1F2
100
AcDbIndex
 40
2453610.446620706
100
AcDbLayerIndex
  8
0
360
1F4
 90
        0
  8
Defpoints
360
210
 90
        0
  8
1
360
29B
 90
       35
  8
2
360
1EC1
 90
        3
  8
4
360
1EC2
 90
        2
  8
6
360
1EC3
 90
        3
  8
SK1
360
1EC4
 90
       12
  8
SK2
360
1EC5
 90
        2
  8
SK3
360
1EC6
 90
       19
  8
CUT
360
1EC7
 90
       12
  8
NOCUT
360
1EC8
 90
        9
  0
XRECORD
  5
43
102
{ACAD_REACTORS
330
42
102
}
330
42
100
AcDbXrecord
  1
VERSION
140
15.0
  1
PRODUCT
  2
AutoCAD Mechanical 2000
  0
IDBUFFER
  5
1F4
330
0
100
AcDbIdBuffer
  0
IDBUFFER
  5
210
330
0
100
AcDbIdBuffer
  0
IDBUFFER
  5
29B
330
0
100
AcDbIdBuffer
330
28E4
330
28E6
330
28E7
330
EA3
330
EA4
330
EA8
330
F3B
330
F50
330
200F
330
2014
330
2016
330
201D
330
2053
330
2054
330
23E0
330
23EA
330
28A6
330
28A7
330
28A9
330
28AB
330
28AD
330
28AF
330
28B0
330
28B2
330
28B4
330
28B6
330
28B8
330
28BA
330
28BC
330
28BE
330
28C0
330
28E0
330
28E1
330
28E2
330
28E3
  0
IDBUFFER
  5
1EC1
330
0
100
AcDbIdBuffer
330
20A3
330
2127
330
28A4
  0
IDBUFFER
  5
1EC2
330
0
100
AcDbIdBuffer
330
1FF9
330
2083
  0
IDBUFFER
  5
1EC3
330
0
100
AcDbIdBuffer
330
2011
330
2012
330
28A3
  0
IDBUFFER
  5
1EC4
330
0
100
AcDbIdBuffer
330
EA5
330
EA6
330
EA7
330
1FD4
330
1FD5
330
1FD8
330
1FF6
330
1FF7
330
1FF8
330
2006
330
200A
330
200C
  0
IDBUFFER
  5
1EC5
330
0
100
AcDbIdBuffer
330
EC1
330
EFE
  0
IDBUFFER
  5
1EC6
330
0
100
AcDbIdBuffer
330
28DD
330
28DE
330
28DF
330
28E5
330
EA9
330
EAA
330
EAB
330
EAC
330
EAD
330
EAE
330
EAF
330
EB0
330
28D6
330
28D7
330
28D8
330
28D9
330
28DA
330
28DB
330
28DC
  0
IDBUFFER
  5
1EC7
330
0
100
AcDbIdBuffer
330
28B9
330
28BB
330
28BD
330
28BF
330
28A5
330
28AA
330
28AC
330
28AE
330
28B1
330
28B3
330
28B5
330
28B7
  0
IDBUFFER
  5
1EC8
330
0
100
AcDbIdBuffer
330
2154
330
2155
330
215A
330
2164
330
2168
330
216B
330
216C
330
23DF
330
23EB
  0
ENDSEC
  0
EOF
