  0
SECTION
  2
HEADER
  9
$ACADVER
  1
AC1014
  9
$ACADMAINTVER
 70
     9
  9
$DWGCODEPAGE
  3
ANSI_1252
  9
$INSBASE
 10
0.0
 20
0.0
 30
0.0
  9
$EXTMIN
 10
-31.22697583226363
 20
-39.35773913751813
 30
-0.000000000000013
  9
$EXTMAX
 10
62.75282530897925
 20
79.83888714172053
 30
0.0000000000000023
  9
$LIMMIN
 10
0.0
 20
0.0
  9
$LIMMAX
 10
420.0
 20
297.0
  9
$ORTHOMODE
 70
     0
  9
$REGENMODE
 70
     1
  9
$FILLMODE
 70
     1
  9
$QTEXTMODE
 70
     0
  9
$MIRRTEXT
 70
     1
  9
$DRAGMODE
 70
     2
  9
$LTSCALE
 40
1.0
  9
$OSMODE
 70
  2599
  9
$ATTMODE
 70
     1
  9
$TEXTSIZE
 40
2.5
  9
$TRACEWID
 40
1.0
  9
$TEXTSTYLE
  7
STANDARD
  9
$CLAYER
  8
0
  9
$CELTYPE
  6
BYLAYER
  9
$CECOLOR
 62
   256
  9
$CELTSCALE
 40
1.0
  9
$DELOBJ
 70
     1
  9
$DISPSILH
 70
     0
  9
$DIMSCALE
 40
1.0
  9
$DIMASZ
 40
2.5
  9
$DIMEXO
 40
0.0
  9
$DIMDLI
 40
10.0
  9
$DIMRND
 40
0.0
  9
$DIMDLE
 40
0.0
  9
$DIMEXE
 40
1.0
  9
$DIMTP
 40
0.1
  9
$DIMTM
 40
0.1
  9
$DIMTXT
 40
3.5
  9
$DIMCEN
 40
0.0
  9
$DIMTSZ
 40
0.0
  9
$DIMTOL
 70
     0
  9
$DIMLIM
 70
     0
  9
$DIMTIH
 70
     0
  9
$DIMTOH
 70
     0
  9
$DIMSE1
 70
     0
  9
$DIMSE2
 70
     0
  9
$DIMTAD
 70
     1
  9
$DIMZIN
 70
     8
  9
$DIMBLK
  1

  9
$DIMASO
 70
     1
  9
$DIMSHO
 70
     1
  9
$DIMPOST
  1

  9
$DIMAPOST
  1
"
  9
$DIMALT
 70
     0
  9
$DIMALTD
 70
     2
  9
$DIMALTF
 40
0.0393701
  9
$DIMLFAC
 40
1.0
  9
$DIMTOFL
 70
     1
  9
$DIMTVP
 40
0.0
  9
$DIMTIX
 70
     0
  9
$DIMSOXD
 70
     0
  9
$DIMSAH
 70
     0
  9
$DIMBLK1
  1

  9
$DIMBLK2
  1

  9
$DIMSTYLE
  2
AM_DIN
  9
$DIMCLRD
 70
   256
  9
$DIMCLRE
 70
   256
  9
$DIMCLRT
 70
     2
  9
$DIMTFAC
 40
0.71
  9
$DIMGAP
 40
1.5
  9
$DIMJUST
 70
     0
  9
$DIMSD1
 70
     0
  9
$DIMSD2
 70
     0
  9
$DIMTOLJ
 70
     0
  9
$DIMTZIN
 70
     8
  9
$DIMALTZ
 70
     0
  9
$DIMALTTZ
 70
     0
  9
$DIMFIT
 70
     3
  9
$DIMUPT
 70
     0
  9
$DIMUNIT
 70
     2
  9
$DIMDEC
 70
     2
  9
$DIMTDEC
 70
     2
  9
$DIMALTU
 70
     2
  9
$DIMALTTD
 70
     2
  9
$DIMTXSTY
  7
STANDARD
  9
$DIMAUNIT
 70
     0
  9
$LUNITS
 70
     2
  9
$LUPREC
 70
     2
  9
$SKETCHINC
 40
1.0
  9
$FILLETRAD
 40
3.0
  9
$AUNITS
 70
     0
  9
$AUPREC
 70
     0
  9
$MENU
  1
.
  9
$ELEVATION
 40
0.0
  9
$PELEVATION
 40
0.0
  9
$THICKNESS
 40
0.0
  9
$LIMCHECK
 70
     0
  9
$BLIPMODE
 70
     0
  9
$CHAMFERA
 40
2.5
  9
$CHAMFERB
 40
2.5
  9
$CHAMFERC
 40
20.0
  9
$CHAMFERD
 40
0.0
  9
$SKPOLY
 70
     0
  9
$TDCREATE
 40
2453599.366006042
  9
$TDUPDATE
 40
2453610.445825810
  9
$TDINDWG
 40
0.0426189236
  9
$TDUSRTIMER
 40
0.0425945833
  9
$USRTIMER
 70
     1
  9
$ANGBASE
 50
0.0
  9
$ANGDIR
 70
     0
  9
$PDMODE
 70
     0
  9
$PDSIZE
 40
0.0
  9
$PLINEWID
 40
0.0
  9
$COORDS
 70
     0
  9
$SPLFRAME
 70
     0
  9
$SPLINETYPE
 70
     6
  9
$SPLINESEGS
 70
     8
  9
$ATTDIA
 70
     1
  9
$ATTREQ
 70
     1
  9
$HANDLING
 70
 22529
  9
$HANDSEED
  5
2955
  9
$SURFTAB1
 70
     6
  9
$SURFTAB2
 70
     6
  9
$SURFTYPE
 70
     6
  9
$SURFU
 70
     6
  9
$SURFV
 70
     6
  9
$UCSNAME
  2

  9
$UCSORG
 10
0.0
 20
0.0
 30
0.0
  9
$UCSXDIR
 10
1.0
 20
0.0
 30
0.0
  9
$UCSYDIR
 10
0.0
 20
1.0
 30
0.0
  9
$PUCSNAME
  2

  9
$PUCSORG
 10
0.0
 20
0.0
 30
0.0
  9
$PUCSXDIR
 10
1.0
 20
0.0
 30
0.0
  9
$PUCSYDIR
 10
0.0
 20
1.0
 30
0.0
  9
$USERI1
 70
     0
  9
$USERI2
 70
     0
  9
$USERI3
 70
     0
  9
$USERI4
 70
     0
  9
$USERI5
 70
     0
  9
$USERR1
 40
0.0
  9
$USERR2
 40
0.0
  9
$USERR3
 40
0.0
  9
$USERR4
 40
0.0
  9
$USERR5
 40
0.0
  9
$WORLDVIEW
 70
     1
  9
$SHADEDGE
 70
     3
  9
$SHADEDIF
 70
    70
  9
$TILEMODE
 70
     1
  9
$MAXACTVP
 70
    64
  9
$PINSBASE
 10
0.0
 20
0.0
 30
0.0
  9
$PLIMCHECK
 70
     0
  9
$PEXTMIN
 10
1.000000000000000E+20
 20
1.000000000000000E+20
 30
1.000000000000000E+20
  9
$PEXTMAX
 10
-1.000000000000000E+20
 20
-1.000000000000000E+20
 30
-1.000000000000000E+20
  9
$PLIMMIN
 10
0.0
 20
0.0
  9
$PLIMMAX
 10
420.0
 20
297.0
  9
$UNITMODE
 70
     0
  9
$VISRETAIN
 70
     1
  9
$PLINEGEN
 70
     0
  9
$PSLTSCALE
 70
     1
  9
$TREEDEPTH
 70
  3020
  9
$PICKSTYLE
 70
     0
  9
$CMLSTYLE
  2
STANDARD
  9
$CMLJUST
 70
     0
  9
$CMLSCALE
 40
20.0
  9
$PROXYGRAPHICS
 70
     1
  9
$MEASUREMENT
 70
     1
  0
ENDSEC
  0
SECTION
  2
CLASSES
  0
CLASS
  1
ACDBDICTIONARYWDFLT
  2
AcDbDictionaryWithDefault
  3
AutoCAD 2000
 90
        0
280
     0
281
     0
  0
CLASS
  1
ACDBPLACEHOLDER
  2
AcDbPlaceHolder
  3
AutoCAD 2000
 90
        0
280
     0
281
     0
  0
CLASS
  1
LAYOUT
  2
AcDbLayout
  3
AutoCAD 2000
 90
        0
280
     0
281
     0
  0
CLASS
  1
ACME_DOCUMENT
  2
AcMeDbDoc
  3
AcMeServices
 90
        0
280
     0
281
     0
  0
CLASS
  1
ACMESCOPE
  2
AcMeScope
  3
AcMeServices
 90
        0
280
     0
281
     0
  0
CLASS
  1
ACMECOMMANDHISTORY
  2
AcMeCommandHistory
  3
AcMeServices
 90
        0
280
     0
281
     0
  0
CLASS
  1
ACIMSYSVARMAN
  2
AcImSysVarManager
  3
AcMeServices
 90
        0
280
     0
281
     0
  0
CLASS
  1
ACIMREALSYSVAR
  2
AcImRealSysVar
  3
AcMeServices
 90
        0
280
     0
281
     0
  0
CLASS
  1
ACIMINTSYSVAR
  2
AcImIntSysVar
  3
AcMeServices
 90
        0
280
     0
281
     0
  0
CLASS
  1
ACMEDRAWINGMAN
  2
AcMeDrawingMan
  3
AcMeServices
 90
        0
280
     0
281
     0
  0
CLASS
  1
ACMEVIEW
  2
AcMeView
  3
AcMeServices
 90
        0
280
     0
281
     0
  0
CLASS
  1
ACDBENTITYCACHE
  2
AcMeEntityCache
  3
AcMeServices
 90
        0
280
     0
281
     0
  0
CLASS
  1
GSMANAGER
  2
AcMeGSManager
  3
AcMeServices
 90
        0
280
     0
281
     0
  0
CLASS
  1
AMDTINTERNALREACTOR
  2
AmdtInternalReactor
  3
AcMeServices
 90
        0
280
     0
281
     0
  0
CLASS
  1
ACMESTATEMGR
  2
AcMeStateMgr
  3
AcMeServices
 90
        0
280
     0
281
     0
  0
CLASS
  1
ACGREFMASTER
  2
AcGrefMaster
  3
AcAttribServices
 90
        0
280
     0
281
     0
  0
CLASS
  1
ACME_DATABASE
  2
AcMeDbDatabase
  3
AcMeServices
 90
        0
280
     0
281
     0
  0
CLASS
  1
ACRFINSADJUSTERMGR
  2
AcRfInsAdjusterMgr
  3
AcMeServices
 90
        0
280
     0
281
     0
  0
CLASS
  1
ACGREFACADMASTER
  2
AcGrefacadMaster
  3
AcGrefServices
 90
        0
280
     0
281
     0
  0
CLASS
  1
AMIMASTER
  2
AmiMaster
  3
AmiServices
 90
        0
280
     0
281
     0
  0
CLASS
  1
AMGSETTINGSOBJ
  2
AmgSettingsObj
  3
"AcadM|Product Description: AutoCAD Mechanical 2000|Company: Autodesk"
 90
        0
280
     0
281
     0
  0
CLASS
  1
ACMDATADICTIONARY
  2
AcmDataDictionary
  3
"AcmSymBB|Product Description: AutoCAD Mechanical 2000|Company: Autodesk"
 90
        0
280
     0
281
     0
  0
CLASS
  1
ACMDATAENTRYBLOCK
  2
AcmDataEntryBlock
  3
"AcmSymBB|Product Description: AutoCAD Mechanical 2000|Company: Autodesk"
 90
        0
280
     0
281
     0
  0
CLASS
  1
ACIMSTRSYSVAR
  2
AcImStrSysVar
  3
AcMeServices
 90
        0
280
     0
281
     0
  0
CLASS
  1
ACMSTANDARDDIN
  2
AcmStandardDIN
  3
"Amdt_StdImp|Product Description: AutoCAD Mechanical 2000|Company: Autodesk"
 90
        0
280
     0
281
     0
  0
CLASS
  1
AMGOBJPROPCFG
  2
AmgObjPropCfg
  3
"AmgLay|Product Description: AutoCAD Mechanical 2000|Company: Autodesk"
 90
        1
280
     0
281
     0
  0
CLASS
  1
AMDTEDGESTANDARDDIN
  2
AmdtEdgeStdDIN
  3
"Amdt_StdImp|Product Description: AutoCAD Mechanical 2000|Company: Autodesk"
 90
        0
280
     0
281
     0
  0
CLASS
  1
ACMSURFSTANDARDDIN
  2
AcmSurfTextStdDIN
  3
"Amdt_StdImp|Product Description: AutoCAD Mechanical 2000|Company: Autodesk"
 90
        0
280
     0
281
     0
  0
CLASS
  1
ACMFCFSTANDARDDIN
  2
AcmFCFStdDIN
  3
"Amdt_StdImp|Product Description: AutoCAD Mechanical 2000|Company: Autodesk"
 90
        0
280
     0
281
     0
  0
CLASS
  1
ACMWELDSTANDARDDIN
  2
AcmWeldingStdDIN
  3
"Amdt_StdImp|Product Description: AutoCAD Mechanical 2000|Company: Autodesk"
 90
        0
280
     0
281
     0
  0
CLASS
  1
ACMIDSTANDARDDIN
  2
AcmIdStdDIN
  3
"Amdt_StdImp|Product Description: AutoCAD Mechanical 2000|Company: Autodesk"
 90
        0
280
     0
281
     0
  0
CLASS
  1
ACMDATUMSTANDARDDIN
  2
AcmDatumStdDIN
  3
"Amdt_StdImp|Product Description: AutoCAD Mechanical 2000|Company: Autodesk"
 90
        0
280
     0
281
     0
  0
CLASS
  1
ACMBOMSTANDARDDIN
  2
AcmBOMStdDIN
  3
"Amdt_StdImp|Product Description: AutoCAD Mechanical 2000|Company: Autodesk"
 90
        0
280
     0
281
     0
  0
CLASS
  1
ACMDETAILSTANDARDDIN
  2
AmdtDetailSymStdDIN
  3
"Amdt_StdImp|Product Description: AutoCAD Mechanical 2000|Company: Autodesk"
 90
        0
280
     0
281
     0
  0
CLASS
  1
ACMSECTIONSTANDARDDIN
  2
AmdtSectionSymStdDIN
  3
"Amdt_StdImp|Product Description: AutoCAD Mechanical 2000|Company: Autodesk"
 90
        0
280
     0
281
     0
  0
CLASS
  1
ACMCENTERLINESTANDARDDIN
  2
AmdtCenterLineStdDIN
  3
"Amdt_StdImp|Product Description: AutoCAD Mechanical 2000|Company: Autodesk"
 90
        0
280
     0
281
     0
  0
CLASS
  1
ACMNOTESTANDARDDIN
  2
AmdtNoteStdDIN
  3
"Amdt_StdImp|Product Description: AutoCAD Mechanical 2000|Company: Autodesk"
 90
        0
280
     0
281
     0
  0
CLASS
  1
ACAMGLAYSTD
  2
AcAmgLayStd
  3
"AcAmgLayStd|Product Description: AutoCAD Mechanical 2000|Company: Autodesk"
 90
        0
280
     0
281
     0
  0
CLASS
  1
ACAMGDIMSTD
  2
AcAmgDimStd
  3
"AcAmgDimStd|Product Description: AutoCAD Mechanical 2000|Company: Autodesk"
 90
        0
280
     0
281
     0
  0
CLASS
  1
ACAMGHOLECHARTSTDDIN
  2
AcAmgHoleChartStdDIN
  3
ACMSYMBB_MODULE_NAME
 90
        0
280
     0
281
     0
  0
CLASS
  1
ACAMGTITLESTD
  2
AcAmgTitleStd
  3
"TITLEAPP"
 90
        0
280
     0
281
     0
  0
CLASS
  1
ACMSTANDARDANSI
  2
AcmStandardANSI
  3
"Amdt_StdImp|Product Description: AutoCAD Mechanical 2000|Company: Autodesk"
 90
        0
280
     0
281
     0
  0
CLASS
  1
ACMSURFSTANDARDANSI
  2
AcmSurfTextStdANSI
  3
"Amdt_StdImp|Product Description: AutoCAD Mechanical 2000|Company: Autodesk"
 90
        0
280
     0
281
     0
  0
CLASS
  1
ACMFCFSTANDARDANSI
  2
AcmFCFStdANSI
  3
"Amdt_StdImp|Product Description: AutoCAD Mechanical 2000|Company: Autodesk"
 90
        0
280
     0
281
     0
  0
CLASS
  1
ACMWELDSTANDARDANSI
  2
AcmWeldingStdANSI
  3
"Amdt_StdImp|Product Description: AutoCAD Mechanical 2000|Company: Autodesk"
 90
        0
280
     0
281
     0
  0
CLASS
  1
ACMIDSTANDARDANSI
  2
AcmIdStdANSI
  3
"Amdt_StdImp|Product Description: AutoCAD Mechanical 2000|Company: Autodesk"
 90
        0
280
     0
281
     0
  0
CLASS
  1
ACMDATUMSTANDARDANSI
  2
AcmDatumStdANSI
  3
"Amdt_StdImp|Product Description: AutoCAD Mechanical 2000|Company: Autodesk"
 90
        0
280
     0
281
     0
  0
CLASS
  1
ACMBOMSTANDARDANSI
  2
AcmBOMStdANSI
  3
"Amdt_StdImp|Product Description: AutoCAD Mechanical 2000|Company: Autodesk"
 90
        0
280
     0
281
     0
  0
CLASS
  1
ACMDETAILSTANDARDANSI
  2
AmdtDetailSymStdANSI
  3
"Amdt_StdImp|Product Description: AutoCAD Mechanical 2000|Company: Autodesk"
 90
        0
280
     0
281
     0
  0
CLASS
  1
ACMSECTIONSTANDARDANSI
  2
AmdtSectionSymStdANSI
  3
"Amdt_StdImp|Product Description: AutoCAD Mechanical 2000|Company: Autodesk"
 90
        0
280
     0
281
     0
  0
CLASS
  1
ACMCENTERLINESTANDARDANSI
  2
AmdtCenterLineStdANSI
  3
"Amdt_StdImp|Product Description: AutoCAD Mechanical 2000|Company: Autodesk"
 90
        0
280
     0
281
     0
  0
CLASS
  1
ACMNOTESTANDARDANSI
  2
AmdtNoteStdANSI
  3
"Amdt_StdImp|Product Description: AutoCAD Mechanical 2000|Company: Autodesk"
 90
        0
280
     0
281
     0
  0
CLASS
  1
ACAMGHOLECHARTSTDANSI
  2
AcAmgHoleChartStdANSI
  3
ACMSYMBB_MODULE_NAME
 90
        0
280
     0
281
     0
  0
CLASS
  1
ACAMGFILTERDAT
  2
AcAmgFilterDat
  3
"AcadM|Product Description: AutoCAD Mechanical 2000|Company: Autodesk"
 90
        0
280
     0
281
     0
  0
CLASS
  1
AMDTFORMULAUPDATEDISPATCHER
  2
AmdtFormulaUpdateDispatcher
  3
AcMeServices
 90
        0
280
     0
281
     0
  0
CLASS
  1
LAYER_INDEX
  2
AcDbLayerIndex
  3
AutoCAD 2000
 90
        0
280
     0
281
     0
  0
CLASS
  1
IDBUFFER
  2
AcDbIdBuffer
  3
AutoCAD 2000
 90
        0
280
     0
281
     0
  0
CLASS
  1
DICTIONARYVAR
  2
AcDbDictionaryVar
  3
AutoCAD 2000
 90
        0
280
     0
281
     0
  0
CLASS
  1
DIMASSOC
  2
AcDbDimAssoc
  3
"AcDbDimAssoc|Product Desc:     AcDim ARX App For Dimension|Company:          Autodesk, Inc.|WEB Address:      www.autodesk.com"
 90
        0
280
     0
281
     0
  0
CLASS
  1
ACMDIMBREAKPERSREACTOR
  2
AcmDimBreakPersReactor
  3
amgDimApp().moduleName()
 90
     1023
280
     0
281
     0
  0
CLASS
  1
ACMSURFSYM
  2
AcmSurfaceTexture
  3
"AcmSymBB|Product Description: AutoCAD Mechanical 2000|Company: Autodesk"
 90
     1023
280
     0
281
     1
  0
CLASS
  1
ACMFCFRAME
  2
AcmFCF
  3
"AcmSymBB|Product Description: AutoCAD Mechanical 2000|Company: Autodesk"
 90
     1023
280
     0
281
     1
  0
CLASS
  1
LONG_TRANSACTION
  2
AcDbLongTransaction
  3
AutoCAD 2000
 90
        0
280
     0
281
     0
  0
CLASS
  1
LWPOLYLINE
  2
AcDbPolyline
  3
AutoCAD 2000
 90
        0
280
     0
281
     1
  0
CLASS
  1
HATCH
  2
AcDbHatch
  3
AutoCAD 2000
 90
        0
280
     0
281
     1
  0
CLASS
  1
XRECORD
  2
AcDbXrecord
  3
AutoCAD 2000
 90
        0
280
     0
281
     0
  0
ENDSEC
  0
SECTION
  2
TABLES
  0
TABLE
  2
VPORT
  5
8
330
0
100
AcDbSymbolTable
 70
     4
  0
VPORT
  5
292E
330
8
100
AcDbSymbolTableRecord
100
AcDbViewportTableRecord
  2
*ACTIVE
 70
     0
 10
0.0
 20
0.0
 11
1.0
 21
1.0
 12
194.3865120838681
 22
128.8211304312409
 13
0.0
 23
0.0
 14
2.5
 24
2.5
 15
10.0
 25
10.0
 16
0.0
 26
0.0
 36
1.0
 17
0.0
 27
0.0
 37
0.0
 40
340.0675671427113
 41
1.694290976058931
 42
50.0
 43
0.0
 44
0.0
 50
0.0
 51
0.0
 71
     0
 72
 10000
 73
     1
 74
     3
 75
     0
 76
     0
 77
     0
 78
     0
  0
ENDTAB
  0
TABLE
  2
LTYPE
  5
5
330
0
100
AcDbSymbolTable
 70
    16
  0
LTYPE
  5
14
330
5
100
AcDbSymbolTableRecord
100
AcDbLinetypeTableRecord
  2
BYBLOCK
 70
     0
  3

 72
    65
 73
     0
 40
0.0
  0
LTYPE
  5
15
330
5
100
AcDbSymbolTableRecord
100
AcDbLinetypeTableRecord
  2
BYLAYER
 70
     0
  3

 72
    65
 73
     0
 40
0.0
  0
LTYPE
  5
16
330
5
100
AcDbSymbolTableRecord
100
AcDbLinetypeTableRecord
  2
CONTINUOUS
 70
     0
  3
Solid line
 72
    65
 73
     0
 40
0.0
  0
LTYPE
  5
50
330
5
100
AcDbSymbolTableRecord
100
AcDbLinetypeTableRecord
  2
AMCONSTR
 70
     0
  3
_______________________
 72
    65
 73
     2
 40
9999.0
 49
9999.0
 74
     0
 49
0.0
 74
     0
  0
LTYPE
  5
55
330
5
100
AcDbSymbolTableRecord
100
AcDbLinetypeTableRecord
  2
AMZIGZAG
 70
     0
  3
/\/-/\/-/\/-/\/-/\/-/\/
 72
    65
 73
     2
 40
11.00009999999999
 49
0.0001
 74
     4
 75
   135
340
54
 46
0.04
 50
0.0
 44
0.0
 45
0.0
 49
-11.0
 74
     0
  0
LTYPE
  5
56
330
5
100
AcDbSymbolTableRecord
100
AcDbLinetypeTableRecord
  2
AM_DIN_F_W050
 70
     0
  3
__ __ __ __ __ __ __ __ __ __ __ __ __ __ __
 72
    65
 73
     2
 40
6.25
 49
4.75
 74
     0
 49
-1.5
 74
     0
  0
LTYPE
  5
57
330
5
100
AcDbSymbolTableRecord
100
AcDbLinetypeTableRecord
  2
AM_DIN_G_W050
 70
     0
  3
____ . ____ . ____ . ____ . ____ . ____ . ____
 72
    65
 73
     4
 40
13.75
 49
9.75
 74
     0
 49
-1.5
 74
     0
 49
1.0
 74
     0
 49
-1.5
 74
     0
  0
LTYPE
  5
58
330
5
100
AcDbSymbolTableRecord
100
AcDbLinetypeTableRecord
  2
AM_DIN_K_W050
 70
     0
  3
_____ . . _____ . . _____ . . ____ .. ____
 72
    65
 73
     6
 40
16.25
 49
9.75
 74
     0
 49
-1.5
 74
     0
 49
1.0
 74
     0
 49
-1.5
 74
     0
 49
1.0
 74
     0
 49
-1.5
 74
     0
  0
LTYPE
  5
59
330
5
100
AcDbSymbolTableRecord
100
AcDbLinetypeTableRecord
  2
AM_DIN_G_W050X2
 70
     0
  3
__ . __ . __ . __ . __ . __
 72
    65
 73
     4
 40
6.875
 49
4.75
 74
     0
 49
-0.875
 74
     0
 49
0.375
 74
     0
 49
-0.875
 74
     0
  0
LTYPE
  5
5A
330
5
100
AcDbSymbolTableRecord
100
AcDbLinetypeTableRecord
  2
AM_DIN_F_W050X2
 70
     0
  3
 _ _ _ _ _ _ _ _ _ _ _ _
 72
    65
 73
     2
 40
3.125
 49
2.25
 74
     0
 49
-0.875
 74
     0
  0
LTYPE
  5
68
330
5
100
AcDbSymbolTableRecord
100
AcDbLinetypeTableRecord
  2
ACDINWELD
 70
     0
  3
_ _ _ _ _
 72
    65
 73
     2
 40
2.0
 49
2.0
 74
     0
 49
-1.0
 74
     0
  0
LTYPE
  5
69
330
5
100
AcDbSymbolTableRecord
100
AcDbLinetypeTableRecord
  2
ACDINTGB
 70
     0
  3
__ . . __ . .
 72
    65
 73
     6
 40
9.0
 49
4.0
 74
     0
 49
-1.0
 74
     0
 49
1.0
 74
     0
 49
-1.0
 74
     0
 49
1.0
 74
     0
 49
-1.0
 74
     0
  0
LTYPE
  5
6A
330
5
100
AcDbSymbolTableRecord
100
AcDbLinetypeTableRecord
  2
ACDINTGL
 70
     0
  3
_ _ _ _ _
 72
    65
 73
     2
 40
3.0
 49
2.0
 74
     0
 49
-1.0
 74
     0
  0
LTYPE
  5
6C
330
5
100
AcDbSymbolTableRecord
100
AcDbLinetypeTableRecord
  2
CENTER
 70
     0
  3
__ . __
 72
    65
 73
     4
 40
7.0
 49
4.0
 74
     0
 49
-1.0
 74
     0
 49
1.0
 74
     0
 49
-1.0
 74
     0
  0
LTYPE
  5
1E2C
330
5
100
AcDbSymbolTableRecord
100
AcDbLinetypeTableRecord
  2
PHANTOM2
 70
     0
  3
Phantom (.5x) ___ _ _ ___ _ _ ___ _ _ ___ _ _
 72
    65
 73
     6
 40
1.25
 49
0.625
 74
     0
 49
-0.125
 74
     0
 49
0.125
 74
     0
 49
-0.125
 74
     0
 49
0.125
 74
     0
 49
-0.125
 74
     0
  0
LTYPE
  5
1E2D
330
5
100
AcDbSymbolTableRecord
100
AcDbLinetypeTableRecord
  2
ACANSTGB
 70
     0
  3
__ . . __ . .
 72
    65
 73
     6
 40
0.35433070866
 49
0.15748031496
 74
     0
 49
-0.03937007874
 74
     0
 49
0.03937007874
 74
     0
 49
-0.03937007874
 74
     0
 49
0.03937007874
 74
     0
 49
-0.03937007874
 74
     0
  0
LTYPE
  5
1E2E
330
5
100
AcDbSymbolTableRecord
100
AcDbLinetypeTableRecord
  2
ACANSTGL
 70
     0
  3
_ _ _ _ _
 72
    65
 73
     2
 40
0.11811023622
 49
0.07874015748
 74
     0
 49
-0.03937007874
 74
     0
  0
LTYPE
  5
1E2F
330
5
100
AcDbSymbolTableRecord
100
AcDbLinetypeTableRecord
  2
DASHED
 70
     0
  3
__ __ __ __ __ __ __ __ __ __ __ __ __ __ __ __
 72
    65
 73
     2
 40
19.05
 49
12.7
 74
     0
 49
-6.349999999999998
 74
     0
  0
ENDTAB
  0
TABLE
  2
LAYER
  5
2
330
0
100
AcDbSymbolTable
 70
    11
  0
LAYER
  5
10
330
2
100
AcDbSymbolTableRecord
100
AcDbLayerTableRecord
  2
0
 70
     0
 62
     7
  6
CONTINUOUS
  0
LAYER
  5
263
330
2
100
AcDbSymbolTableRecord
100
AcDbLayerTableRecord
  2
DEFPOINTS
 70
     0
 62
     7
  6
CONTINUOUS
  0
LAYER
  5
1E30
330
2
100
AcDbSymbolTableRecord
100
AcDbLayerTableRecord
  2
1
 70
     0
 62
     4
  6
CONTINUOUS
  0
LAYER
  5
1E31
330
2
100
AcDbSymbolTableRecord
100
AcDbLayerTableRecord
  2
2
 70
     0
 62
     7
  6
CONTINUOUS
  0
LAYER
  5
1E32
330
2
100
AcDbSymbolTableRecord
100
AcDbLayerTableRecord
  2
4
 70
     0
 62
     2
  6
CENTER
  0
LAYER
  5
1E33
330
2
100
AcDbSymbolTableRecord
100
AcDbLayerTableRecord
  2
6
 70
     0
 62
     5
  6
CONTINUOUS
  0
LAYER
  5
1E34
330
2
100
AcDbSymbolTableRecord
100
AcDbLayerTableRecord
  2
SK1
 70
     0
 62
     4
  6
CONTINUOUS
  0
LAYER
  5
1E35
330
2
100
AcDbSymbolTableRecord
100
AcDbLayerTableRecord
  2
SK2
 70
     0
 62
     7
  6
CONTINUOUS
  0
LAYER
  5
1E36
330
2
100
AcDbSymbolTableRecord
100
AcDbLayerTableRecord
  2
SK3
 70
     0
 62
     1
  6
DASHED
  0
LAYER
  5
1E37
330
2
100
AcDbSymbolTableRecord
100
AcDbLayerTableRecord
  2
CUT
 70
     0
 62
     1
  6
CONTINUOUS
  0
LAYER
  5
1E38
330
2
100
AcDbSymbolTableRecord
100
AcDbLayerTableRecord
  2
NOCUT
 70
     0
 62
     7
  6
CONTINUOUS
  0
ENDTAB
  0
TABLE
  2
STYLE
  5
3
330
0
100
AcDbSymbolTable
 70
     6
  0
STYLE
  5
11
330
3
100
AcDbSymbolTableRecord
100
AcDbTextStyleTableRecord
  2
STANDARD
 70
     0
 40
0.0
 41
1.0
 50
0.0
 71
     0
 42
2.5
  3
ISOCP.SHX
  4

  0
STYLE
  5
54
330
3
100
AcDbSymbolTableRecord
100
AcDbTextStyleTableRecord
  2

 70
     1
 40
0.0
 41
1.0
 50
0.0
 71
     0
 42
2.5
  3
ltypeshp.shx
  4

  0
STYLE
  5
5B
330
3
100
AcDbSymbolTableRecord
100
AcDbTextStyleTableRecord
  2
ACDINTS
 70
     0
 40
1.0
 41
1.0
 50
0.0
 71
     0
 42
2.5
  3
isocp.shx
  4

  0
STYLE
  5
67
330
3
100
AcDbSymbolTableRecord
100
AcDbTextStyleTableRecord
  2
ACDINGDT
 70
     0
 40
0.0
 41
1.0
 50
0.0
 71
     0
 42
2.5
  3
amgdt.shx
  4

  0
STYLE
  5
1E39
330
3
100
AcDbSymbolTableRecord
100
AcDbTextStyleTableRecord
  2
ACANSTS
 70
     0
 40
1.0
 41
1.0
 50
0.0
 71
     0
 42
0.2
  3
romans.shx
  4

  0
STYLE
  5
1E3A
330
3
100
AcDbSymbolTableRecord
100
AcDbTextStyleTableRecord
  2
ACANSGDT
 70
     0
 40
0.0
 41
1.0
 50
0.0
 71
     0
 42
0.2
  3
amgdtans.shx
  4

  0
ENDTAB
  0
TABLE
  2
VIEW
  5
6
330
0
100
AcDbSymbolTable
 70
     0
  0
ENDTAB
  0
TABLE
  2
UCS
  5
7
330
0
100
AcDbSymbolTable
 70
     0
  0
ENDTAB
  0
TABLE
  2
APPID
  5
9
330
0
100
AcDbSymbolTable
 70
    53
  0
APPID
  5
12
330
9
100
AcDbSymbolTableRecord
100
AcDbRegAppTableRecord
  2
ACAD
 70
     0
  0
APPID
  5
2C
330
9
100
AcDbSymbolTableRecord
100
AcDbRegAppTableRecord
  2
MCAD_NO_VIS
 70
     0
  0
APPID
  5
2D
330
9
100
AcDbSymbolTableRecord
100
AcDbRegAppTableRecord
  2
ACAD_TEMP_GRAPHIC
 70
     0
  0
APPID
  5
3E
330
9
100
AcDbSymbolTableRecord
100
AcDbRegAppTableRecord
  2
ACATTRIBSERVICES
 70
     0
  0
APPID
  5
29A
330
9
100
AcDbSymbolTableRecord
100
AcDbRegAppTableRecord
  2
GENIUS_GENDIMSH_14
 70
     0
  0
APPID
  5
588
330
9
100
AcDbSymbolTableRecord
100
AcDbRegAppTableRecord
  2
GENIUS12
 70
     0
  0
APPID
  5
589
330
9
100
AcDbSymbolTableRecord
100
AcDbRegAppTableRecord
  2
GENIUS_GENOENT_13
 70
     0
  0
APPID
  5
58A
330
9
100
AcDbSymbolTableRecord
100
AcDbRegAppTableRecord
  2
GENIUS_GENODEF_13
 70
     0
  0
APPID
  5
58B
330
9
100
AcDbSymbolTableRecord
100
AcDbRegAppTableRecord
  2
GENIUS_GENOBJ-N-RSBK_13
 70
     0
  0
APPID
  5
58C
330
9
100
AcDbSymbolTableRecord
100
AcDbRegAppTableRecord
  2
GENIUS_GENOBJ-N-DIM12_13
 70
     0
  0
APPID
  5
58D
330
9
100
AcDbSymbolTableRecord
100
AcDbRegAppTableRecord
  2
GENIUS_GENSCALE_13
 70
     0
  0
APPID
  5
58E
330
9
100
AcDbSymbolTableRecord
100
AcDbRegAppTableRecord
  2
GENIUS_GENCFG_13
 70
     0
  0
APPID
  5
58F
330
9
100
AcDbSymbolTableRecord
100
AcDbRegAppTableRecord
  2
GENIUS_GENCFG0_13
 70
     0
  0
APPID
  5
590
330
9
100
AcDbSymbolTableRecord
100
AcDbRegAppTableRecord
  2
GENIUS_GENCFG1_13
 70
     0
  0
APPID
  5
591
330
9
100
AcDbSymbolTableRecord
100
AcDbRegAppTableRecord
  2
GENIUS_GENCFG2_13
 70
     0
  0
APPID
  5
592
330
9
100
AcDbSymbolTableRecord
100
AcDbRegAppTableRecord
  2
GENIUS_GENCFG3_13
 70
     0
  0
APPID
  5
593
330
9
100
AcDbSymbolTableRecord
100
AcDbRegAppTableRecord
  2
GENIUS_GENCFG4_13
 70
     0
  0
APPID
  5
594
330
9
100
AcDbSymbolTableRecord
100
AcDbRegAppTableRecord
  2
GENIUS_GEVCFG0_13
 70
     0
  0
APPID
  5
595
330
9
100
AcDbSymbolTableRecord
100
AcDbRegAppTableRecord
  2
GENIUS_GENOBJ-F-SUF_13
 70
     0
  0
APPID
  5
596
330
9
100
AcDbSymbolTableRecord
100
AcDbRegAppTableRecord
  2
GENIUS_GEFCFG0_13
 70
     0
  0
APPID
  5
597
330
9
100
AcDbSymbolTableRecord
100
AcDbRegAppTableRecord
  2
GEV_VCCNULL_SWITCH_OFF
 70
     0
  0
APPID
  5
598
330
9
100
AcDbSymbolTableRecord
100
AcDbRegAppTableRecord
  2
GENIUS_GENDTOL_13
 70
     0
  0
APPID
  5
599
330
9
100
AcDbSymbolTableRecord
100
AcDbRegAppTableRecord
  2
GENIUS_GENDIM_13
 70
     0
  0
APPID
  5
59A
330
9
100
AcDbSymbolTableRecord
100
AcDbRegAppTableRecord
  2
GENIUS_GE3DTOL_13
 70
     0
  0
APPID
  5
59B
330
9
100
AcDbSymbolTableRecord
100
AcDbRegAppTableRecord
  2
AD_DRAW
 70
     0
  0
APPID
  5
59C
330
9
100
AcDbSymbolTableRecord
100
AcDbRegAppTableRecord
  2
ASURF_PCURVE_APPNAME
 70
     0
  0
APPID
  5
59D
330
9
100
AcDbSymbolTableRecord
100
AcDbRegAppTableRecord
  2
AMG_3D2D_5_0
 70
     0
  0
APPID
  5
59E
330
9
100
AcDbSymbolTableRecord
100
AcDbRegAppTableRecord
  2
DESIGNERASSEMBLIES
 70
     0
  0
APPID
  5
59F
330
9
100
AcDbSymbolTableRecord
100
AcDbRegAppTableRecord
  2
ACADM_DIM_EDIT
 70
     0
  0
APPID
  5
5A0
330
9
100
AcDbSymbolTableRecord
100
AcDbRegAppTableRecord
  2
AMDT_DM_ADJ
 70
     0
  0
APPID
  5
5A1
330
9
100
AcDbSymbolTableRecord
100
AcDbRegAppTableRecord
  2
GENIUS_GENSCREG_15
 70
     0
  0
APPID
  5
5A2
330
9
100
AcDbSymbolTableRecord
100
AcDbRegAppTableRecord
  2
GENIUS_GENOBJ-N-SDF_13
 70
     0
  0
APPID
  5
6E4
330
9
100
AcDbSymbolTableRecord
100
AcDbRegAppTableRecord
  2
GENIUS_GENOBJ-N-FIL_13
 70
     0
  0
APPID
  5
C65
330
9
100
AcDbSymbolTableRecord
100
AcDbRegAppTableRecord
  2
GENIUS_GENHINW_13
 70
     0
  0
APPID
  5
C66
330
9
100
AcDbSymbolTableRecord
100
AcDbRegAppTableRecord
  2
GENIUS_GENOBJ-F-TOLL_13
 70
     0
  0
APPID
  5
C67
330
9
100
AcDbSymbolTableRecord
100
AcDbRegAppTableRecord
  2
GENIUS_GENOREF_13
 70
     0
  0
APPID
  5
C68
330
9
100
AcDbSymbolTableRecord
100
AcDbRegAppTableRecord
  2
GENIUS_GENOLIS_13
 70
     0
  0
APPID
  5
C69
330
9
100
AcDbSymbolTableRecord
100
AcDbRegAppTableRecord
  2
GENIUS_GEFTOLC_13
 70
     0
  0
APPID
  5
C6A
330
9
100
AcDbSymbolTableRecord
100
AcDbRegAppTableRecord
  2
GENIUS_GENOBJ-F-TOL_13
 70
     0
  0
APPID
  5
C6B
330
9
100
AcDbSymbolTableRecord
100
AcDbRegAppTableRecord
  2
GENIUS_GENOBJ-N-RSSYM_13
 70
     0
  0
APPID
  5
C6C
330
9
100
AcDbSymbolTableRecord
100
AcDbRegAppTableRecord
  2
GENIUS_GENSYMENT_13
 70
     0
  0
APPID
  5
C6D
330
9
100
AcDbSymbolTableRecord
100
AcDbRegAppTableRecord
  2
GENIUS_GENSCSYM_13
 70
     0
  0
APPID
  5
1E42
330
9
100
AcDbSymbolTableRecord
100
AcDbRegAppTableRecord
  2
GENIUS_GENBLLY_14
 70
     0
  0
APPID
  5
1E43
330
9
100
AcDbSymbolTableRecord
100
AcDbRegAppTableRecord
  2
GENIUS_GENTRA_14
 70
     0
  0
APPID
  5
1E44
330
9
100
AcDbSymbolTableRecord
100
AcDbRegAppTableRecord
  2
GENIUS_GENOBJ-N-TIT_13
 70
     0
  0
APPID
  5
1E45
330
9
100
AcDbSymbolTableRecord
100
AcDbRegAppTableRecord
  2
GENIUS_GENTITLE_13
 70
     0
  0
APPID
  5
1E46
330
9
100
AcDbSymbolTableRecord
100
AcDbRegAppTableRecord
  2
ACADIGES
 70
     0
  0
APPID
  5
1E47
330
9
100
AcDbSymbolTableRecord
100
AcDbRegAppTableRecord
  2
GENIUS_GENOBJ-N-HTC_13
 70
     0
  0
APPID
  5
1E48
330
9
100
AcDbSymbolTableRecord
100
AcDbRegAppTableRecord
  2
GENIUS_GENHATCH_13
 70
     0
  0
APPID
  5
1E49
330
9
100
AcDbSymbolTableRecord
100
AcDbRegAppTableRecord
  2
GENIUS_GENOBJ-N-CRS_13
 70
     0
  0
APPID
  5
1E4A
330
9
100
AcDbSymbolTableRecord
100
AcDbRegAppTableRecord
  2
GENIUS_GENFIL_13
 70
     0
  0
APPID
  5
1E4B
330
9
100
AcDbSymbolTableRecord
100
AcDbRegAppTableRecord
  2
GENIUS_GENOBJ-N-CHA_13
 70
     0
  0
APPID
  5
1E4C
330
9
100
AcDbSymbolTableRecord
100
AcDbRegAppTableRecord
  2
GENIUS_GENOBJ-N-CEN_13
 70
     0
  0
ENDTAB
  0
TABLE
  2
DIMSTYLE
  5
A
330
0
100
AcDbSymbolTable
 70
    14
  0
DIMSTYLE
105
6F
102
{ACAD_REACTORS
330
961
330
9F4
330
202D
330
2112
330
28B8
102
}
330
A
100
AcDbSymbolTableRecord
100
AcDbDimStyleTableRecord
  2
AM_DIN
 70
     0
  3

  4
"
  5

  6

  7

 40
1.0
 41
2.5
 42
0.0
 43
10.0
 44
1.0
 45
0.0
 46
0.0
 47
0.1
 48
0.1
140
3.5
141
0.0
142
0.0
143
0.0393701
144
1.0
145
0.0
146
0.71
147
1.5
 71
     0
 72
     0
 73
     0
 74
     0
 75
     0
 76
     0
 77
     1
 78
     8
170
     0
171
     2
172
     1
173
     0
174
     0
175
     0
176
   256
177
   256
178
     2
270
     2
271
     2
272
     2
273
     2
274
     2
340
11
275
     0
280
     0
281
     0
282
     0
283
     0
284
     8
285
     0
286
     0
287
     3
288
     0
  0
DIMSTYLE
105
70
330
A
100
AcDbSymbolTableRecord
100
AcDbDimStyleTableRecord
  2
AM_DIN$3
 70
     0
  3

  4
"
  5

  6

  7

 40
1.0
 41
3.5
 42
0.0
 43
10.0
 44
1.0
 45
0.0
 46
0.0
 47
0.1
 48
0.1
140
3.5
141
0.0
142
0.0
143
0.0393701
144
1.0
145
0.0
146
0.71
147
1.5
 71
     0
 72
     0
 73
     0
 74
     1
 75
     0
 76
     0
 77
     1
 78
     8
170
     0
171
     2
172
     0
173
     0
174
     0
175
     0
176
   256
177
   256
178
     2
270
     2
271
     2
272
     2
273
     2
274
     2
340
11
275
     0
280
     0
281
     0
282
     0
283
     0
284
     8
285
     0
286
     0
287
     0
288
     1
  0
DIMSTYLE
105
71
330
A
100
AcDbSymbolTableRecord
100
AcDbDimStyleTableRecord
  2
AM_DIN$4
 70
     0
  3

  4
"
  5

  6

  7

 40
1.0
 41
3.5
 42
0.0
 43
10.0
 44
1.0
 45
0.0
 46
0.0
 47
0.1
 48
0.1
140
3.5
141
0.0
142
0.0
143
0.0393701
144
1.0
145
0.0
146
0.71
147
1.5
 71
     0
 72
     0
 73
     0
 74
     1
 75
     0
 76
     0
 77
     1
 78
     8
170
     0
171
     2
172
     0
173
     0
174
     0
175
     0
176
   256
177
   256
178
     2
270
     2
271
     2
272
     2
273
     2
274
     2
340
11
275
     0
280
     0
281
     0
282
     0
283
     0
284
     8
285
     0
286
     0
287
     0
288
     1
  0
DIMSTYLE
105
72
330
A
100
AcDbSymbolTableRecord
100
AcDbDimStyleTableRecord
  2
AM_DIN$6
 70
     0
  3

  4
"
  5

  6

  7

 40
1.0
 41
3.5
 42
0.0
 43
0.0
 44
1.0
 45
0.0
 46
0.0
 47
0.1
 48
0.1
140
3.5
141
0.0
142
0.0
143
0.0393701
144
1.0
145
0.0
146
0.71
147
1.5
 71
     0
 72
     0
 73
     0
 74
     0
 75
     0
 76
     0
 77
     0
 78
     8
170
     0
171
     2
172
     1
173
     0
174
     0
175
     0
176
   256
177
   256
178
     2
270
     2
271
     2
272
     2
273
     2
274
     2
340
11
275
     0
280
     0
281
     0
282
     0
283
     0
284
     8
285
     0
286
     0
287
     3
288
     0
  0
DIMSTYLE
105
73
330
A
100
AcDbSymbolTableRecord
100
AcDbDimStyleTableRecord
  2
AM_DIN$7
 70
     0
  3

  4
"
  5

  6

  7

 40
1.0
 41
3.5
 42
0.0
 43
10.0
 44
1.0
 45
0.0
 46
0.0
 47
0.1
 48
0.1
140
3.5
141
0.0
142
0.0
143
0.0393701
144
1.0
145
0.0
146
0.71
147
1.5
 71
     0
 72
     0
 73
     0
 74
     0
 75
     0
 76
     0
 77
     1
 78
     8
170
     0
171
     2
172
     1
173
     0
174
     0
175
     0
176
   256
177
   256
178
     2
270
     2
271
     2
272
     2
273
     2
274
     2
340
11
275
     0
280
     0
281
     0
282
     0
283
     0
284
     8
285
     0
286
     0
287
     3
288
     0
  0
DIMSTYLE
105
74
330
A
100
AcDbSymbolTableRecord
100
AcDbDimStyleTableRecord
  2
AM_DIN$SF
 70
     0
  3

  4
"
  5

  6

  7

 40
1.0
 41
2.5
 42
1.0
 43
10.0
 44
1.0
 45
0.0
 46
0.0
 47
0.1
 48
0.1
140
3.5
141
0.0
142
0.0
143
0.0393701
144
1.0
145
0.0
146
0.71
147
1.5
 71
     0
 72
     0
 73
     0
 74
     0
 75
     1
 76
     1
 77
     1
 78
     8
170
     0
171
     2
172
     1
173
     0
174
     0
175
     0
176
   256
177
   256
178
     2
270
     2
271
     2
272
     3
273
     2
274
     4
340
11
275
     0
280
     0
281
     0
282
     0
283
     0
284
     8
285
     0
286
     0
287
     3
288
     0
  0
DIMSTYLE
105
79
330
A
100
AcDbSymbolTableRecord
100
AcDbDimStyleTableRecord
  2
AM_DIN$SH
 70
     0
  3

  4
"
  5

  6
GENAXEH
  7

 40
1.0
 41
2.5
 42
1.0
 43
10.0
 44
1.0
 45
0.0
 46
0.0
 47
0.1
 48
0.1
140
3.5
141
0.0
142
0.0
143
0.0393701
144
2.0
145
0.0
146
0.71
147
1.5
 71
     0
 72
     0
 73
     0
 74
     0
 75
     1
 76
     1
 77
     1
 78
     8
170
     0
171
     2
172
     1
173
     1
174
     0
175
     0
176
   256
177
   256
178
     2
270
     2
271
     2
272
     3
273
     2
274
     4
340
11
275
     0
280
     0
281
     0
282
     0
283
     0
284
     8
285
     0
286
     0
287
     3
288
     0
  0
DIMSTYLE
105
1E3B
330
A
100
AcDbSymbolTableRecord
100
AcDbDimStyleTableRecord
  2
STANDARD
 70
     0
  3

  4

  5

  6

  7

 40
1.0
 41
0.18
 42
0.0625
 43
0.38
 44
0.18
 45
0.0
 46
0.0
 47
0.0
 48
0.0
140
0.18
141
0.09
142
0.0
143
25.4
144
1.0
145
0.0
146
1.0
147
0.09
 71
     0
 72
     0
 73
     1
 74
     1
 75
     0
 76
     0
 77
     0
 78
     0
170
     0
171
     2
172
     0
173
     0
174
     0
175
     0
176
     0
177
     0
178
     0
270
     2
271
     2
272
     2
273
     2
274
     2
340
11
275
     0
280
     0
281
     0
282
     0
283
     1
284
     8
285
     8
286
     8
287
     5
288
     0
  0
DIMSTYLE
105
1E3C
330
A
100
AcDbSymbolTableRecord
100
AcDbDimStyleTableRecord
  2
AM_ANSI
 70
     0
  3

  4
mm
  5

  6

  7

 40
1.0
 41
0.1
 42
0.0
 43
0.5
 44
0.1
 45
0.0
 46
0.0
 47
0.1
 48
0.1
140
0.12
141
0.0
142
0.0
143
25.4
144
1.0
145
0.0
146
0.71
147
0.06
 71
     0
 72
     0
 73
     1
 74
     1
 75
     0
 76
     0
 77
     0
 78
     7
170
     0
171
     2
172
     0
173
     0
174
     0
175
     0
176
   256
177
   256
178
     2
270
     2
271
     2
272
     2
273
     2
274
     2
340
11
275
     0
280
     0
281
     0
282
     0
283
     1
284
     8
285
     8
286
     8
287
     5
288
     0
  0
DIMSTYLE
105
1E3D
330
A
100
AcDbSymbolTableRecord
100
AcDbDimStyleTableRecord
  2
AM_ANSI$3
 70
     0
  3

  4
mm
  5

  6

  7

 40
1.0
 41
0.1
 42
0.0
 43
0.5
 44
0.1
 45
0.0
 46
0.0
 47
0.1
 48
0.1
140
0.12
141
0.0
142
0.0
143
25.4
144
1.0
145
0.0
146
0.71
147
0.06
 71
     0
 72
     0
 73
     1
 74
     1
 75
     0
 76
     0
 77
     0
 78
     7
170
     0
171
     2
172
     0
173
     0
174
     0
175
     0
176
   256
177
   256
178
     2
270
     2
271
     2
272
     2
273
     2
274
     2
340
11
275
     0
280
     0
281
     0
282
     0
283
     1
284
     8
285
     8
286
     8
287
     5
288
     0
  0
DIMSTYLE
105
1E3E
330
A
100
AcDbSymbolTableRecord
100
AcDbDimStyleTableRecord
  2
AM_ANSI$4
 70
     0
  3

  4
mm
  5

  6

  7

 40
1.0
 41
0.1
 42
0.0
 43
0.5
 44
0.1
 45
0.0
 46
0.0
 47
0.1
 48
0.1
140
0.12
141
0.0
142
0.0
143
25.4
144
1.0
145
0.0
146
0.71
147
0.06
 71
     0
 72
     0
 73
     1
 74
     1
 75
     0
 76
     0
 77
     0
 78
     7
170
     0
171
     2
172
     0
173
     0
174
     0
175
     0
176
   256
177
   256
178
     2
270
     2
271
     2
272
     2
273
     2
274
     2
340
11
275
     0
280
     0
281
     0
282
     0
283
     1
284
     8
285
     8
286
     8
287
     5
288
     0
  0
DIMSTYLE
105
1E3F
330
A
100
AcDbSymbolTableRecord
100
AcDbDimStyleTableRecord
  2
AM_ANSI$7
 70
     0
  3

  4
mm
  5

  6

  7

 40
1.0
 41
0.1
 42
0.0
 43
0.5
 44
0.1
 45
0.0
 46
0.0
 47
0.1
 48
0.1
140
0.24
141
0.0
142
0.0
143
25.4
144
1.0
145
0.0
146
0.71
147
0.06
 71
     0
 72
     0
 73
     1
 74
     1
 75
     0
 76
     0
 77
     0
 78
     7
170
     0
171
     2
172
     0
173
     0
174
     0
175
     0
176
   256
177
   256
178
     2
270
     2
271
     2
272
     2
273
     2
274
     2
340
11
275
     0
280
     0
281
     0
282
     0
283
     1
284
     8
285
     8
286
     8
287
     5
288
     0
  0
DIMSTYLE
105
1E40
330
A
100
AcDbSymbolTableRecord
100
AcDbDimStyleTableRecord
  2
AM_ANSI$SF
 70
     0
  3

  4
mm
  5

  6

  7

 40
1.0
 41
0.1
 42
0.05
 43
0.5
 44
0.1
 45
0.0
 46
0.0
 47
0.1
 48
0.1
140
0.12
141
0.0
142
0.0
143
25.4
144
1.0
145
0.0
146
0.71
147
0.06
 71
     0
 72
     0
 73
     1
 74
     1
 75
     1
 76
     1
 77
     0
 78
     7
170
     0
171
     2
172
     0
173
     0
174
     0
175
     0
176
   256
177
   256
178
     2
270
     2
271
     2
272
     2
273
     2
274
     2
340
11
275
     0
280
     0
281
     0
282
     0
283
     1
284
     8
285
     8
286
     8
287
     5
288
     0
  0
DIMSTYLE
105
1E41
330
A
100
AcDbSymbolTableRecord
100
AcDbDimStyleTableRecord
  2
AM_ANSI$SH
 70
     0
  3

  4
mm
  5

  6

  7

 40
1.0
 41
0.1
 42
0.05
 43
0.5
 44
0.1
 45
0.0
 46
0.0
 47
0.1
 48
0.1
140
0.12
141
0.0
142
0.0
143
25.4
144
1.0
145
0.0
146
0.71
147
0.06
 71
     0
 72
     0
 73
     1
 74
     1
 75
     1
 76
     1
 77
     0
 78
     7
170
     0
171
     2
172
     0
173
     1
174
     0
175
     0
176
   256
177
   256
178
     2
270
     2
271
     2
272
     2
273
     2
274
     2
340
11
275
     0
280
     0
281
     0
282
     0
283
     1
284
     8
285
     8
286
     8
287
     5
288
     0
  0
ENDTAB
  0
TABLE
  2
BLOCK_RECORD
  5
1
330
0
100
AcDbSymbolTable
 70
     7
  0
BLOCK_RECORD
  5
1F
102
{ACAD_XDICTIONARY
360
1F1
102
}
330
1
100
AcDbSymbolTableRecord
100
AcDbBlockTableRecord
  2
*MODEL_SPACE
  0
BLOCK_RECORD
  5
1B
102
{ACAD_XDICTIONARY
360
2950
102
}
330
1
100
AcDbSymbolTableRecord
100
AcDbBlockTableRecord
  2
*PAPER_SPACE
  0
BLOCK_RECORD
  5
75
330
1
100
AcDbSymbolTableRecord
100
AcDbBlockTableRecord
  2
GENAXEH
  0
BLOCK_RECORD
  5
962
330
1
100
AcDbSymbolTableRecord
100
AcDbBlockTableRecord
  2
*D2
  0
BLOCK_RECORD
  5
9F5
330
1
100
AcDbSymbolTableRecord
100
AcDbBlockTableRecord
  2
*D3
  0
BLOCK_RECORD
  5
202E
330
1
100
AcDbSymbolTableRecord
100
AcDbBlockTableRecord
  2
*D4
  0
BLOCK_RECORD
  5
2113
330
1
100
AcDbSymbolTableRecord
100
AcDbBlockTableRecord
  2
*D5
  0
BLOCK_RECORD
  5
28D5
330
1
100
AcDbSymbolTableRecord
100
AcDbBlockTableRecord
  2
*D6
  0
ENDTAB
  0
ENDSEC
  0
SECTION
  2
BLOCKS
  0
BLOCK
  5
20
330
1F
100
AcDbEntity
  8
0
100
AcDbBlockBegin
  2
*MODEL_SPACE
 70
     0
 10
0.0
 20
0.0
 30
0.0
  3
*MODEL_SPACE
  1

  0
ENDBLK
  5
21
330
1F
100
AcDbEntity
  8
0
100
AcDbBlockEnd
  0
BLOCK
  5
1C
330
1B
100
AcDbEntity
 67
     1
  8
0
100
AcDbBlockBegin
  2
*PAPER_SPACE
 70
     0
 10
0.0
 20
0.0
 30
0.0
  3
*PAPER_SPACE
  1

  0
ENDBLK
  5
1D
330
1B
100
AcDbEntity
 67
     1
  8
0
100
AcDbBlockEnd
  0
BLOCK
  5
77
330
75
100
AcDbEntity
  8
0
100
AcDbBlockBegin
  2
GENAXEH
 70
     0
 10
0.0
 20
0.0
 30
0.0
  3
GENAXEH
  1

  0
LINE
  5
76
330
75
100
AcDbEntity
  8
0
100
AcDbLine
 10
-1.0
 20
0.0
 30
0.0
 11
1.0
 21
0.0
 31
0.0
  0
ENDBLK
  5
78
330
75
100
AcDbEntity
  8
0
100
AcDbBlockEnd
  0
BLOCK
  5
96C
330
962
100
AcDbEntity
  8
0
100
AcDbBlockBegin
  2
*D2
 70
     1
 10
0.0
 20
0.0
 30
0.0
  3
*D2
  1

  0
LINE
  5
21D6
330
962
100
AcDbEntity
  8
SK2
100
AcDbLine
 10
0.0
 20
-11.0
 30
0.0
 11
-13.63403476912146
 21
-10.99999999999999
 31
0.0
  0
LINE
  5
21D7
330
962
100
AcDbEntity
  8
SK2
100
AcDbLine
 10
0.0
 20
11.0
 30
0.0
 11
-13.63403476912145
 21
11.0
 31
0.0
  0
LINE
  5
21D8
330
962
100
AcDbEntity
  8
SK2
100
AcDbLine
 10
-12.63403476912146
 20
-8.499999999999996
 30
0.0
 11
-12.63403476912145
 21
8.500000000000003
 31
0.0
  0
SOLID
  5
21D9
330
962
100
AcDbEntity
  8
SK2
100
AcDbTrace
 10
-13.05070143578812
 20
-8.499999999999996
 30
0.0
 11
-12.21736810245479
 21
-8.499999999999996
 31
0.0
 12
-12.63403476912146
 22
-10.99999999999999
 32
0.0
 13
-12.63403476912146
 23
-10.99999999999999
 33
0.0
  0
SOLID
  5
21DA
330
962
100
AcDbEntity
  8
SK2
100
AcDbTrace
 10
-13.05070143578812
 20
8.500000000000003
 30
0.0
 11
-12.21736810245479
 21
8.500000000000003
 31
0.0
 12
-12.63403476912145
 22
11.0
 32
0.0
 13
-12.63403476912145
 23
11.0
 33
0.0
  0
MTEXT
  5
21DB
330
962
100
AcDbEntity
  8
SK2
 62
     2
100
AcDbMText
 10
-15.88437925731043
 20
0.0000000000000012
 30
0.0
 40
3.5
 41
0.0
 71
     5
 72
     1
  1
%%c22
 11
0.0000000000000001
 21
1.0
 31
0.0
1001
ACAD
1000
MTEXTBEGIN
1070
    73
1070
     1
1070
    44
1040
1.0
1070
    74
1070
     0
1000
MTEXTEND
  0
POINT
  5
21DC
330
962
100
AcDbEntity
  8
DEFPOINTS
 62
     0
100
AcDbPoint
 10
0.0
 20
-11.0
 30
0.0
  0
POINT
  5
21DD
330
962
100
AcDbEntity
  8
DEFPOINTS
 62
     0
100
AcDbPoint
 10
0.0
 20
11.0
 30
0.0
  0
POINT
  5
21DE
330
962
100
AcDbEntity
  8
DEFPOINTS
 62
     0
100
AcDbPoint
 10
-12.63403476912145
 20
11.0
 30
0.0
  0
ENDBLK
  5
96D
330
962
100
AcDbEntity
  8
0
100
AcDbBlockEnd
  0
BLOCK
  5
9FF
330
9F5
100
AcDbEntity
  8
0
100
AcDbBlockBegin
  2
*D3
 70
     1
 10
0.0
 20
0.0
 30
0.0
  3
*D3
  1

  0
LINE
  5
21C4
330
9F5
100
AcDbEntity
  8
SK2
100
AcDbLine
 10
1.368799402858371
 20
-27.50000000000005
 30
0.0
 11
-27.38536411985099
 21
-27.50000000000005
 31
0.0
  0
LINE
  5
21C5
330
9F5
100
AcDbEntity
  8
SK2
100
AcDbLine
 10
2.000000000000056
 20
27.49999999999994
 30
0.0
 11
-27.38536411985097
 21
27.49999999999995
 31
0.0
  0
LINE
  5
21C6
330
9F5
100
AcDbEntity
  8
SK2
100
AcDbLine
 10
-26.38536411985099
 20
-25.00000000000005
 30
0.0
 11
-26.38536411985097
 21
24.99999999999995
 31
0.0
  0
SOLID
  5
21C7
330
9F5
100
AcDbEntity
  8
SK2
100
AcDbTrace
 10
-26.80203078651766
 20
-25.00000000000005
 30
0.0
 11
-25.96869745318432
 21
-25.00000000000005
 31
0.0
 12
-26.38536411985099
 22
-27.50000000000005
 32
0.0
 13
-26.38536411985099
 23
-27.50000000000005
 33
0.0
  0
SOLID
  5
21C8
330
9F5
100
AcDbEntity
  8
SK2
100
AcDbTrace
 10
-26.80203078651764
 20
24.99999999999995
 30
0.0
 11
-25.9686974531843
 21
24.99999999999995
 31
0.0
 12
-26.38536411985097
 22
27.49999999999995
 32
0.0
 13
-26.38536411985097
 23
27.49999999999995
 33
0.0
  0
MTEXT
  5
21C9
330
9F5
100
AcDbEntity
  8
SK2
 62
     2
100
AcDbMText
 10
-29.63536411985098
 20
-0.0000000000000548
 30
0.0
 40
3.5
 41
0.0
 71
     5
 72
     1
  1
%%c55
 11
0.0000000000000001
 21
1.0
 31
0.0
1001
ACAD
1000
MTEXTBEGIN
1070
    73
1070
     1
1070
    44
1040
1.0
1070
    74
1070
     0
1000
MTEXTEND
  0
POINT
  5
21CA
330
9F5
100
AcDbEntity
  8
DEFPOINTS
 62
     0
100
AcDbPoint
 10
1.368799402858371
 20
-27.50000000000005
 30
0.0
  0
POINT
  5
21CB
330
9F5
100
AcDbEntity
  8
DEFPOINTS
 62
     0
100
AcDbPoint
 10
2.000000000000056
 20
27.49999999999994
 30
0.0
  0
POINT
  5
21CC
330
9F5
100
AcDbEntity
  8
DEFPOINTS
 62
     0
100
AcDbPoint
 10
-26.38536411985097
 20
27.49999999999995
 30
0.0
  0
ENDBLK
  5
A00
330
9F5
100
AcDbEntity
  8
0
100
AcDbBlockEnd
  0
BLOCK
  5
2038
330
202E
100
AcDbEntity
  8
0
100
AcDbBlockBegin
  2
*D4
 70
     1
 10
0.0
 20
0.0
 30
0.0
  3
*D4
  1

  0
LINE
  5
21BB
330
202E
100
AcDbEntity
  8
2
100
AcDbLine
 10
39.99999999999994
 20
31.5
 30
0.0
 11
58.91753977171545
 21
31.49999999999999
 31
0.0
  0
LINE
  5
21BC
330
202E
100
AcDbEntity
  8
2
100
AcDbLine
 10
40.00000000000006
 20
-31.5
 30
0.0
 11
58.91753977171544
 21
-31.5
 31
0.0
  0
LINE
  5
21BD
330
202E
100
AcDbEntity
  8
2
100
AcDbLine
 10
57.91753977171545
 20
28.99999999999999
 30
0.0
 11
57.91753977171544
 21
-29.0
 31
0.0
  0
SOLID
  5
21BE
330
202E
100
AcDbEntity
  8
2
100
AcDbTrace
 10
57.50087310504879
 20
28.99999999999999
 30
0.0
 11
58.33420643838212
 21
28.99999999999999
 31
0.0
 12
57.91753977171545
 22
31.49999999999999
 32
0.0
 13
57.91753977171545
 23
31.49999999999999
 33
0.0
  0
SOLID
  5
21BF
330
202E
100
AcDbEntity
  8
2
100
AcDbTrace
 10
57.50087310504877
 20
-29.0
 30
0.0
 11
58.3342064383821
 21
-29.0
 31
0.0
 12
57.91753977171544
 22
-31.5
 32
0.0
 13
57.91753977171544
 23
-31.5
 33
0.0
  0
MTEXT
  5
21C0
330
202E
100
AcDbEntity
  8
2
 62
     2
100
AcDbMText
 10
54.66753977171545
 20
0.0000000000000057
 30
0.0
 40
3.5
 41
0.0
 71
     5
 72
     1
  1
%%c63
 11
0.0000000000000001
 21
1.0
 31
0.0
1001
ACAD
1000
MTEXTBEGIN
1070
    73
1070
     1
1070
    44
1040
1.0
1070
    74
1070
     0
1000
MTEXTEND
  0
POINT
  5
21C1
330
202E
100
AcDbEntity
  8
DEFPOINTS
 62
     0
100
AcDbPoint
 10
39.99999999999994
 20
31.5
 30
0.0
  0
POINT
  5
21C2
330
202E
100
AcDbEntity
  8
DEFPOINTS
 62
     0
100
AcDbPoint
 10
40.00000000000006
 20
-31.5
 30
0.0
  0
POINT
  5
21C3
330
202E
100
AcDbEntity
  8
DEFPOINTS
 62
     0
100
AcDbPoint
 10
57.91753977171544
 20
-31.5
 30
0.0
  0
ENDBLK
  5
2039
330
202E
100
AcDbEntity
  8
0
100
AcDbBlockEnd
  0
BLOCK
  5
211D
330
2113
100
AcDbEntity
  8
0
100
AcDbBlockBegin
  2
*D5
 70
     1
 10
0.0
 20
0.0
 30
0.0
  3
*D5
  1

  0
LINE
  5
21CD
330
2113
100
AcDbEntity
  8
2
100
AcDbLine
 10
39.99999999999994
 20
31.5
 30
0.0
 11
39.99999999999994
 21
76.00000000000012
 31
0.0
  0
LINE
  5
21CE
330
2113
100
AcDbEntity
  8
2
100
AcDbLine
 10
0.0000000000000568
 20
25.49999999999994
 30
0.0
 11
0.0000000000000599
 21
76.00000000000012
 31
0.0
  0
LINE
  5
21CF
330
2113
100
AcDbEntity
  8
2
100
AcDbLine
 10
37.49999999999994
 20
75.00000000000011
 30
0.0
 11
2.500000000000059
 21
75.00000000000011
 31
0.0
  0
SOLID
  5
21D0
330
2113
100
AcDbEntity
  8
2
100
AcDbTrace
 10
37.49999999999994
 20
75.41666666666678
 30
0.0
 11
37.49999999999994
 21
74.58333333333344
 31
0.0
 12
39.99999999999994
 22
75.00000000000011
 32
0.0
 13
39.99999999999994
 23
75.00000000000011
 33
0.0
  0
SOLID
  5
21D1
330
2113
100
AcDbEntity
  8
2
100
AcDbTrace
 10
2.500000000000059
 20
75.41666666666678
 30
0.0
 11
2.500000000000059
 21
74.58333333333344
 31
0.0
 12
0.0000000000000599
 22
75.00000000000011
 32
0.0
 13
0.0000000000000599
 23
75.00000000000011
 33
0.0
  0
MTEXT
  5
21D2
330
2113
100
AcDbEntity
  8
2
 62
     2
100
AcDbMText
 10
20.0
 20
78.25000000000011
 30
0.0
 40
3.5
 41
0.0
 71
     5
 72
     1
  1
40
1001
ACAD
1000
MTEXTBEGIN
1070
    73
1070
     1
1070
    44
1040
1.0
1070
    74
1070
     0
1000
MTEXTEND
  0
POINT
  5
21D3
330
2113
100
AcDbEntity
  8
DEFPOINTS
 62
     0
100
AcDbPoint
 10
39.99999999999994
 20
31.5
 30
0.0
  0
POINT
  5
21D4
330
2113
100
AcDbEntity
  8
DEFPOINTS
 62
     0
100
AcDbPoint
 10
0.0000000000000568
 20
25.49999999999994
 30
0.0
  0
POINT
  5
21D5
330
2113
100
AcDbEntity
  8
DEFPOINTS
 62
     0
100
AcDbPoint
 10
0.0000000000000599
 20
75.00000000000011
 30
0.0
  0
ENDBLK
  5
211E
330
2113
100
AcDbEntity
  8
0
100
AcDbBlockEnd
  0
BLOCK
  5
28DF
330
28D5
100
AcDbEntity
  8
0
100
AcDbBlockBegin
  2
*D6
 70
     1
 10
0.0
 20
0.0
 30
0.0
  3
*D6
  1

  0
LINE
  5
28E1
330
28D5
100
AcDbEntity
  8
2
100
AcDbLine
 10
40.0
 20
31.5
 30
0.0
 11
40.0
 21
61.5
 31
0.0
  0
LINE
  5
28E2
330
28D5
100
AcDbEntity
  8
2
100
AcDbLine
 10
27.5
 20
31.5
 30
0.0
 11
27.5
 21
61.5
 31
0.0
  0
LINE
  5
28E3
330
28D5
100
AcDbEntity
  8
2
100
AcDbLine
 10
37.5
 20
60.5
 30
0.0
 11
30.0
 21
60.5
 31
0.0
  0
SOLID
  5
28E4
330
28D5
100
AcDbEntity
  8
2
100
AcDbTrace
 10
37.5
 20
60.91666666666666
 30
0.0
 11
37.5
 21
60.08333333333333
 31
0.0
 12
40.0
 22
60.5
 32
0.0
 13
40.0
 23
60.5
 33
0.0
  0
SOLID
  5
28E5
330
28D5
100
AcDbEntity
  8
2
100
AcDbTrace
 10
30.0
 20
60.91666666666666
 30
0.0
 11
30.0
 21
60.08333333333333
 31
0.0
 12
27.5
 22
60.5
 32
0.0
 13
27.5
 23
60.5
 33
0.0
  0
MTEXT
  5
28E6
330
28D5
100
AcDbEntity
  8
2
 62
     2
100
AcDbMText
 10
33.75
 20
63.75034448818897
 30
0.0
 40
3.5
 41
0.0
 71
     5
 72
     1
  1
12.5
1001
ACAD
1000
MTEXTBEGIN
1070
    73
1070
     1
1070
    44
1040
1.0
1070
    74
1070
     0
1000
MTEXTEND
  0
POINT
  5
28E7
330
28D5
100
AcDbEntity
  8
DEFPOINTS
 62
     0
100
AcDbPoint
 10
40.0
 20
31.5
 30
0.0
  0
POINT
  5
28E8
330
28D5
100
AcDbEntity
  8
DEFPOINTS
 62
     0
100
AcDbPoint
 10
27.5
 20
31.5
 30
0.0
  0
POINT
  5
28E9
330
28D5
100
AcDbEntity
  8
DEFPOINTS
 62
     0
100
AcDbPoint
 10
27.5
 20
60.5
 30
0.0
  0
ENDBLK
  5
28E0
330
28D5
100
AcDbEntity
  8
0
100
AcDbBlockEnd
  0
ENDSEC
  0
SECTION
  2
ENTITIES
  0
LINE
  5
90A
330
1F
100
AcDbEntity
  8
1
100
AcDbLine
 10
2.0
 20
-27.50000000000005
 30
0.0
 11
12.97739638538672
 21
-27.50000000000005
 31
0.0
  0
LINE
  5
90F
330
1F
100
AcDbEntity
  8
1
100
AcDbLine
 10
2.000000000000056
 20
27.49999999999994
 30
0.0
 11
12.97739638538672
 21
27.49999999999994
 31
0.0
  0
LINE
  5
910
330
1F
100
AcDbEntity
  8
1
100
AcDbLine
 10
0.0
 20
-25.50000000000006
 30
0.0
 11
0.0
 21
-5.199999999999988
 31
0.0
  0
LINE
  5
911
330
1F
100
AcDbEntity
  8
SK1
100
AcDbLine
 10
0.0
 20
-5.199999999999988
 30
0.0
 11
6.300000000000011
 21
-5.199999999999988
 31
0.0
  0
LINE
  5
912
330
1F
100
AcDbEntity
  8
SK1
100
AcDbLine
 10
6.300000000000011
 20
-5.199999999999988
 30
0.0
 11
6.300000000000011
 21
5.199999999999988
 31
0.0
  0
LINE
  5
913
330
1F
100
AcDbEntity
  8
SK1
100
AcDbLine
 10
6.300000000000011
 20
5.199999999999988
 30
0.0
 11
0.0
 21
5.199999999999988
 31
0.0
  0
LINE
  5
914
330
1F
100
AcDbEntity
  8
1
100
AcDbLine
 10
0.0
 20
5.199999999999988
 30
0.0
 11
0.0000000000000568
 21
25.49999999999994
 31
0.0
  0
LINE
  5
915
330
1F
100
AcDbEntity
  8
SK3
 48
0.5
100
AcDbLine
 10
0.0000000000000568
 20
-10.99999999999994
 30
0.0
 11
21.00000000000005
 21
-11.00000000000005
 31
0.0
  0
LINE
  5
916
330
1F
100
AcDbEntity
  8
SK3
 48
0.5
100
AcDbLine
 10
21.00000000000005
 20
-11.00000000000005
 30
0.0
 11
21.00000000000005
 21
10.99999999999994
 31
0.0
  0
LINE
  5
917
330
1F
100
AcDbEntity
  8
SK3
 48
0.5
100
AcDbLine
 10
21.00000000000005
 20
10.99999999999994
 30
0.0
 11
0.0
 21
11.0
 31
0.0
  0
LINE
  5
918
330
1F
100
AcDbEntity
  8
SK3
 48
0.5
100
AcDbLine
 10
21.00000000000005
 20
-5.499999999996873
 30
0.0
 11
27.99999999999994
 21
-5.499999999996873
 31
0.0
  0
LINE
  5
919
330
1F
100
AcDbEntity
  8
SK3
 48
0.5
100
AcDbLine
 10
21.00000000000005
 20
5.500000000003126
 30
0.0
 11
27.99999999999994
 21
5.500000000003126
 31
0.0
  0
LINE
  5
91A
330
1F
100
AcDbEntity
  8
SK3
 48
0.5
100
AcDbLine
 10
38.99679480008382
 20
-8.999999999996902
 30
0.0
 11
27.99999999999994
 21
-8.999999999996873
 31
0.0
  0
LINE
  5
91B
330
1F
100
AcDbEntity
  8
SK3
 48
0.5
100
AcDbLine
 10
27.99999999999994
 20
-8.999999999996873
 30
0.0
 11
27.99999999999994
 21
9.000000000003069
 31
0.0
  0
LINE
  5
91C
330
1F
100
AcDbEntity
  8
SK3
 48
0.5
100
AcDbLine
 10
27.99999999999994
 20
9.000000000003069
 30
0.0
 11
38.9967948000837
 21
9.000000000003183
 31
0.0
  0
DIMENSION
  5
961
330
1F
100
AcDbEntity
  8
SK2
100
AcDbDimension
  2
*D2
 10
-12.63403476912145
 20
11.0
 30
0.0
 11
-15.88437925731043
 21
0.0000000000000012
 31
0.0
 70
    32
  1
%%c<>
  3
AM_DIN
100
AcDbAlignedDimension
 13
0.0
 23
-11.0
 33
0.0
 14
0.0
 24
11.0
 34
0.0
 50
270.0
100
AcDbRotatedDimension
  0
DIMENSION
  5
9F4
330
1F
100
AcDbEntity
  8
SK2
100
AcDbDimension
  2
*D3
 10
-26.38536411985097
 20
27.49999999999995
 30
0.0
 11
-29.63536411985098
 21
-0.0000000000000548
 31
0.0
 70
    32
  1
%%c<>
  3
AM_DIN
100
AcDbAlignedDimension
 13
1.368799402858371
 23
-27.50000000000005
 33
0.0
 14
2.000000000000056
 24
27.49999999999994
 34
0.0
 50
270.0
100
AcDbRotatedDimension
  0
ARC
  5
A68
330
1F
100
AcDbEntity
  8
1
100
AcDbCircle
 10
2.000000000000056
 20
-25.5
 30
0.0
 40
2.0
100
AcDbArc
 50
180.0
 51
270.0
1001
GENIUS_GENOBJ-N-FIL_13
1002
{
1000
OWNER
1000
GEN
1002
}
1001
GENIUS_GENODEF_13
1002
{
1000
HIER
1070
     0
1002
}
1002
{
1000
MANEDIT
1070
     0
1002
}
1002
{
1000
NOSEL
1070
     0
1002
}
1002
{
1000
BEHIND
1070
     0
1002
}
1002
{
1000
OTHER
1070
     0
1002
}
1002
{
1000
REACTOR
1002
}
  0
ARC
  5
A6F
330
1F
100
AcDbEntity
  8
1
100
AcDbCircle
 10
2.000000000000113
 20
25.5
 30
0.0
 40
2.0
100
AcDbArc
 50
90.0
 51
179.9999999999997
1001
GENIUS_GENOBJ-N-FIL_13
1002
{
1000
OWNER
1000
GEN
1002
}
1001
GENIUS_GENODEF_13
1002
{
1000
HIER
1070
     0
1002
}
1002
{
1000
MANEDIT
1070
     0
1002
}
1002
{
1000
NOSEL
1070
     0
1002
}
1002
{
1000
BEHIND
1070
     0
1002
}
1002
{
1000
OTHER
1070
     0
1002
}
1002
{
1000
REACTOR
1002
}
  0
LINE
  5
1FC3
330
1F
100
AcDbEntity
  8
SK1
100
AcDbLine
 10
0.0
 20
3.200115174948678
 30
0.0
 11
0.0
 21
-3.200115174948678
 31
0.0
  0
CIRCLE
  5
1FC4
330
1F
100
AcDbEntity
  8
SK1
100
AcDbCircle
 10
0.0
 20
0.0
 30
0.0
 40
3.200115174948665
  0
LINE
  5
1FC5
330
1F
100
AcDbEntity
  8
SK1
100
AcDbLine
 10
-3.200115174948678
 20
0.0
 30
0.0
 11
3.200115174948678
 21
0.0
 31
0.0
  0
LINE
  5
1FC6
330
1F
100
AcDbEntity
  8
4
100
AcDbLine
 10
41.86111685705435
 20
-0.0000000000000568
 30
0.0
 11
0.0
 21
0.000000000000199
 31
0.0
  0
TEXT
  5
1FC7
330
1F
100
AcDbEntity
  8
6
100
AcDbText
 10
62.90023860784362
 20
-2.221554654040801
 30
0.0
 40
3.5
  1
Z=6
 50
90.0
100
AcDbText
  0
TEXT
  5
1FC9
330
1F
100
AcDbEntity
  8
6
100
AcDbText
 10
19.11228848369427
 20
-39.35667140921339
 30
0.0
 40
3.5
  1
2J1C063R00
100
AcDbText
  0
LINE
  5
1FD1
330
1F
100
AcDbEntity
  8
1
100
AcDbLine
 10
26.55580587159831
 20
30.77113434341676
 30
0.0
 11
16.24853072880358
 21
30.7711343434168
 31
0.0
  0
CIRCLE
  5
1FD2
330
1F
100
AcDbEntity
  8
SK1
100
AcDbCircle
 10
39.99999999999994
 20
31.5
 30
0.0
 40
0.4637693698488208
  0
LINE
  5
1FD5
330
1F
100
AcDbEntity
  8
SK1
100
AcDbLine
 10
39.99999999999994
 20
31.96376936984882
 30
0.0
 11
39.99999999999994
 21
31.03623063015118
 31
0.0
  0
LINE
  5
1FED
330
1F
100
AcDbEntity
  8
SK1
100
AcDbLine
 10
39.53623063015112
 20
31.5
 30
0.0
 11
40.46376936984876
 21
31.5
 31
0.0
  0
LINE
  5
1FEE
330
1F
100
AcDbEntity
  8
1
100
AcDbLine
 10
38.99679480008371
 20
26.71968382392504
 30
0.0
 11
38.9967948000837
 21
-30.77113434341677
 31
0.0
  0
CIRCLE
  5
2009
330
1F
100
AcDbEntity
  8
SK1
100
AcDbCircle
 10
40.00000000000006
 20
-31.5
 30
0.0
 40
0.4637693698488208
  0
LINE
  5
200B
330
1F
100
AcDbEntity
  8
SK1
100
AcDbLine
 10
40.00000000000006
 20
-31.5
 30
0.0
 11
40.00000000000006
 21
-31.03623063015118
 31
0.0
  0
LINE
  5
200E
330
1F
100
AcDbEntity
  8
SK1
100
AcDbLine
 10
39.53623063015124
 20
-31.5
 30
0.0
 11
40.46376936984887
 21
-31.5
 31
0.0
  0
DIMENSION
  5
202D
330
1F
100
AcDbEntity
  8
2
100
AcDbDimension
  2
*D4
 10
57.91753977171544
 20
-31.5
 30
0.0
 11
54.66753977171545
 21
0.0000000000000057
 31
0.0
 70
    32
  1
%%c<>
  3
AM_DIN
100
AcDbAlignedDimension
 13
39.99999999999994
 23
31.5
 33
0.0
 14
40.00000000000006
 24
-31.5
 34
0.0
 50
90.0
100
AcDbRotatedDimension
  0
LINE
  5
2061
330
1F
100
AcDbEntity
  8
1
100
AcDbLine
 10
12.97739638538672
 20
27.49999999999994
 30
0.0
 11
16.24853072880358
 21
30.7711343434168
 31
0.0
  0
LINE
  5
2084
330
1F
100
AcDbEntity
  8
1
100
AcDbLine
 10
12.97739638538672
 20
-27.50000000000005
 30
0.0
 11
16.24853072880318
 21
-30.77113434341657
 31
0.0
  0
LINE
  5
2085
330
1F
100
AcDbEntity
  8
1
100
AcDbLine
 10
38.9967948000837
 20
-30.77113434341677
 30
0.0
 11
16.24853072880318
 21
-30.77113434341657
 31
0.0
  0
LINE
  5
2088
330
1F
100
AcDbEntity
  8
4
100
AcDbLine
 10
18.96210551459313
 20
8.57006910680667
 30
0.0
 11
30.82867443466926
 21
22.58363238864439
 31
0.0
  0
DIMENSION
  5
2112
330
1F
100
AcDbEntity
  8
2
100
AcDbDimension
  2
*D5
 10
0.0000000000000599
 20
75.00000000000011
 30
0.0
 11
20.0
 21
78.25000000000011
 31
0.0
 70
    32
  3
AM_DIN
100
AcDbAlignedDimension
 13
39.99999999999994
 23
31.5
 33
0.0
 14
0.0000000000000568
 24
25.49999999999994
 34
0.0
100
AcDbRotatedDimension
  0
LINE
  5
213D
330
1F
100
AcDbEntity
  8
NOCUT
100
AcDbLine
 10
38.9967948000837
 20
-0.0000000000000284
 30
0.0
 11
38.9967948000837
 21
-30.77113434341677
 31
0.0
  0
LINE
  5
213E
330
1F
100
AcDbEntity
  8
NOCUT
100
AcDbLine
 10
12.97739638538672
 20
-27.50000000000005
 30
0.0
 11
16.24853072880324
 21
-30.77113434341657
 31
0.0
  0
LINE
  5
2143
330
1F
100
AcDbEntity
  8
NOCUT
100
AcDbLine
 10
38.9967948000837
 20
-30.77113434341677
 30
0.0
 11
16.24853072880324
 21
-30.77113434341657
 31
0.0
  0
LINE
  5
2150
330
1F
100
AcDbEntity
  8
NOCUT
100
AcDbLine
 10
38.9967948000837
 20
-0.0000000000000284
 30
0.0
 11
0.0000000000000568
 21
0.000000000000199
 31
0.0
  0
LINE
  5
2153
330
1F
100
AcDbEntity
  8
NOCUT
100
AcDbLine
 10
0.0000000000000568
 20
-25.50000000000006
 30
0.0
 11
0.0000000000000568
 21
0.000000000000199
 31
0.0
  0
LINE
  5
2154
330
1F
100
AcDbEntity
  8
NOCUT
100
AcDbLine
 10
2.000000000000056
 20
-27.50000000000005
 30
0.0
 11
12.97739638538672
 21
-27.50000000000005
 31
0.0
  0
ARC
  5
2155
330
1F
100
AcDbEntity
  8
NOCUT
100
AcDbCircle
 10
2.000000000000056
 20
-25.5
 30
0.0
 40
2.0
100
AcDbArc
 50
180.0
 51
270.0
1001
GENIUS_GENOBJ-N-FIL_13
1002
{
1000
OWNER
1000
GEN
1002
}
1001
GENIUS_GENODEF_13
1002
{
1000
HIER
1070
     0
1002
}
1002
{
1000
MANEDIT
1070
     0
1002
}
1002
{
1000
NOSEL
1070
     0
1002
}
1002
{
1000
BEHIND
1070
     0
1002
}
1002
{
1000
OTHER
1070
     0
1002
}
1002
{
1000
REACTOR
1002
}
  0
LINE
  5
2443
330
1F
100
AcDbEntity
  8
SK1
100
AcDbLine
 10
39.99999999999994
 20
31.96376936984882
 30
0.0
 11
39.99999999999994
 21
31.03623063015118
 31
0.0
  0
DIMENSION
  5
28B8
330
1F
100
AcDbEntity
  8
2
100
AcDbDimension
  2
*D6
 10
27.5
 20
60.5
 30
0.0
 11
33.75
 21
63.75034448818897
 31
0.0
 70
    32
  3
AM_DIN
100
AcDbAlignedDimension
 13
40.0
 23
31.5
 33
0.0
 14
27.5
 24
31.5
 34
0.0
100
AcDbRotatedDimension
  0
CIRCLE
  5
28B9
330
1F
100
AcDbEntity
  8
1
100
AcDbCircle
 10
32.55999999999994
 20
27.47999999999999
 30
0.0
 40
2.749999999999976
  0
LINE
  5
28BA
330
1F
100
AcDbEntity
  8
1
100
AcDbLine
 10
38.05999999999994
 20
23.46000000000001
 30
0.0
 11
25.46999999999991
 21
23.45999999999998
 31
0.0
  0
LINE
  5
28BB
330
1F
100
AcDbEntity
  8
CUT
100
AcDbLine
 10
38.05999999999994
 20
23.46000000000001
 30
0.0
 11
25.46999999999991
 21
23.45999999999998
 31
0.0
  0
LINE
  5
28BD
330
1F
100
AcDbEntity
  8
1
100
AcDbLine
 10
28.20348280697618
 20
20.77113434341677
 30
0.0
 11
38.99679480008371
 21
20.77113434341677
 31
0.0
  0
LINE
  5
28BE
330
1F
100
AcDbEntity
  8
1
100
AcDbLine
 10
25.06999999999993
 20
23.85999999999999
 30
0.0
 11
25.06999999999993
 21
25.45999999999995
 31
0.0
  0
LINE
  5
28BF
330
1F
100
AcDbEntity
  8
CUT
100
AcDbLine
 10
25.06999999999993
 20
23.85999999999999
 30
0.0
 11
25.06999999999993
 21
25.45999999999995
 31
0.0
  0
ARC
  5
28C0
330
1F
100
AcDbEntity
  8
1
100
AcDbCircle
 10
28.20348280697624
 20
28.77113434341677
 30
0.0
 40
8.0
100
AcDbArc
 50
165.5224878140701
 51
270.0
1001
GENIUS_GENOBJ-N-FIL_13
1002
{
1000
OWNER
1000
GEN
1002
}
1001
GENIUS_GENODEF_13
1002
{
1000
HIER
1070
     0
1002
}
1002
{
1000
MANEDIT
1070
     0
1002
}
1002
{
1000
NOSEL
1070
     0
1002
}
1002
{
1000
BEHIND
1070
     0
1002
}
1002
{
1000
OTHER
1070
     0
1002
}
1002
{
1000
REACTOR
1002
}
  0
ARC
  5
28C1
330
1F
100
AcDbEntity
  8
1
100
AcDbCircle
 10
25.46999999999991
 20
23.85999999999996
 30
0.0
 40
0.4
100
AcDbArc
 50
180.0
 51
270.0
1001
GENIUS_GENOBJ-N-FIL_13
1002
{
1000
OWNER
1000
GEN
1002
}
1001
GENIUS_GENODEF_13
1002
{
1000
HIER
1070
     0
1002
}
1002
{
1000
MANEDIT
1070
     0
1002
}
1002
{
1000
NOSEL
1070
     0
1002
}
1002
{
1000
BEHIND
1070
     0
1002
}
1002
{
1000
OTHER
1070
     0
1002
}
1002
{
1000
REACTOR
1002
}
  0
ARC
  5
28C2
330
1F
100
AcDbEntity
  8
CUT
100
AcDbCircle
 10
25.46999999999991
 20
23.85999999999996
 30
0.0
 40
0.4
100
AcDbArc
 50
180.0
 51
270.0
1001
GENIUS_GENOBJ-N-FIL_13
1002
{
1000
OWNER
1000
GEN
1002
}
1001
GENIUS_GENODEF_13
1002
{
1000
HIER
1070
     0
1002
}
1002
{
1000
MANEDIT
1070
     0
1002
}
1002
{
1000
NOSEL
1070
     0
1002
}
1002
{
1000
BEHIND
1070
     0
1002
}
1002
{
1000
OTHER
1070
     0
1002
}
1002
{
1000
REACTOR
1002
}
  0
LINE
  5
28C3
330
1F
100
AcDbEntity
  8
1
100
AcDbLine
 10
25.81889018293276
 20
26.46000000000003
 30
0.0
 11
26.62354007457333
 21
31.16739575182606
 31
0.0
  0
LINE
  5
28C4
330
1F
100
AcDbEntity
  8
CUT
100
AcDbLine
 10
25.81889018293276
 20
26.46000000000003
 30
0.0
 11
26.62354007457333
 21
31.16739575182606
 31
0.0
  0
LINE
  5
28C5
330
1F
100
AcDbEntity
  8
1
100
AcDbLine
 10
25.06999999999993
 20
25.45999999999998
 30
0.0
 11
25.8188901829327
 21
26.45999999999995
 31
0.0
  0
LINE
  5
28C6
330
1F
100
AcDbEntity
  8
CUT
100
AcDbLine
 10
25.06999999999993
 20
25.45999999999998
 30
0.0
 11
25.8188901829327
 21
26.45999999999995
 31
0.0
  0
ARC
  5
28C7
330
1F
100
AcDbEntity
  8
1
100
AcDbCircle
 10
27.01782146220887
 20
31.10000000000002
 30
0.0
 40
0.4
100
AcDbArc
 50
90.0
 51
170.3
1001
GENIUS_GENODEF_13
1002
{
1000
HIER
1070
     0
1002
}
1002
{
1000
MANEDIT
1070
     0
1002
}
1002
{
1000
NOSEL
1070
     0
1002
}
1002
{
1000
BEHIND
1070
     0
1002
}
1002
{
1000
OTHER
1070
     0
1002
}
1002
{
1000
REACTOR
1002
}
1001
GENIUS_GENOBJ-N-FIL_13
1002
{
1000
OWNER
1000
GEN
1002
}
  0
ARC
  5
28C8
330
1F
100
AcDbEntity
  8
CUT
100
AcDbCircle
 10
27.01782146220887
 20
31.10000000000002
 30
0.0
 40
0.4
100
AcDbArc
 50
90.0
 51
170.3
1001
GENIUS_GENODEF_13
1002
{
1000
HIER
1070
     0
1002
}
1002
{
1000
MANEDIT
1070
     0
1002
}
1002
{
1000
NOSEL
1070
     0
1002
}
1002
{
1000
BEHIND
1070
     0
1002
}
1002
{
1000
OTHER
1070
     0
1002
}
1002
{
1000
REACTOR
1002
}
1001
GENIUS_GENOBJ-N-FIL_13
1002
{
1000
OWNER
1000
GEN
1002
}
  0
LINE
  5
28C9
330
1F
100
AcDbEntity
  8
1
100
AcDbLine
 10
27.05999999999994
 20
31.49999999999994
 30
0.0
 11
39.64999999999998
 21
31.5
 31
0.0
  0
LINE
  5
28CA
330
1F
100
AcDbEntity
  8
CUT
100
AcDbLine
 10
27.05999999999994
 20
31.49999999999994
 30
0.0
 11
39.64999999999998
 21
31.5
 31
0.0
  0
LINE
  5
28CB
330
1F
100
AcDbEntity
  8
1
100
AcDbLine
 10
39.30110981706713
 20
28.49999999999994
 30
0.0
 11
38.49645992542656
 21
23.79260424817392
 31
0.0
  0
LINE
  5
28CC
330
1F
100
AcDbEntity
  8
CUT
100
AcDbLine
 10
39.30110981706713
 20
28.49999999999994
 30
0.0
 11
38.49645992542656
 21
23.79260424817392
 31
0.0
  0
ARC
  5
28CD
330
1F
100
AcDbEntity
  8
1
100
AcDbCircle
 10
38.10217853779102
 20
23.85999999999993
 30
0.0
 40
0.4
100
AcDbArc
 50
270.0
 51
350.3
1001
GENIUS_GENODEF_13
1002
{
1000
HIER
1070
     0
1002
}
1002
{
1000
MANEDIT
1070
     0
1002
}
1002
{
1000
NOSEL
1070
     0
1002
}
1002
{
1000
BEHIND
1070
     0
1002
}
1002
{
1000
OTHER
1070
     0
1002
}
1002
{
1000
REACTOR
1002
}
1001
GENIUS_GENOBJ-N-FIL_13
1002
{
1000
OWNER
1000
GEN
1002
}
  0
ARC
  5
28CE
330
1F
100
AcDbEntity
  8
CUT
100
AcDbCircle
 10
38.10217853779102
 20
23.85999999999993
 30
0.0
 40
0.4
100
AcDbArc
 50
270.0
 51
350.3
1001
GENIUS_GENODEF_13
1002
{
1000
HIER
1070
     0
1002
}
1002
{
1000
MANEDIT
1070
     0
1002
}
1002
{
1000
NOSEL
1070
     0
1002
}
1002
{
1000
BEHIND
1070
     0
1002
}
1002
{
1000
OTHER
1070
     0
1002
}
1002
{
1000
REACTOR
1002
}
1001
GENIUS_GENOBJ-N-FIL_13
1002
{
1000
OWNER
1000
GEN
1002
}
  0
LINE
  5
28CF
330
1F
100
AcDbEntity
  8
1
100
AcDbLine
 10
40.04999999999995
 20
29.5
 30
0.0
 11
39.30110981706718
 21
28.50000000000003
 31
0.0
  0
LINE
  5
28D0
330
1F
100
AcDbEntity
  8
CUT
100
AcDbLine
 10
40.04999999999995
 20
29.5
 30
0.0
 11
39.30110981706718
 21
28.50000000000003
 31
0.0
  0
LINE
  5
28D1
330
1F
100
AcDbEntity
  8
1
100
AcDbLine
 10
40.04999999999995
 20
31.09999999999999
 30
0.0
 11
40.04999999999995
 21
29.50000000000002
 31
0.0
  0
LINE
  5
28D2
330
1F
100
AcDbEntity
  8
CUT
100
AcDbLine
 10
40.04999999999995
 20
31.09999999999999
 30
0.0
 11
40.04999999999995
 21
29.50000000000002
 31
0.0
  0
ARC
  5
28D3
330
1F
100
AcDbEntity
  8
1
100
AcDbCircle
 10
39.64999999999998
 20
31.09999999999999
 30
0.0
 40
0.4
100
AcDbArc
 50
0.0
 51
90.0
1001
GENIUS_GENOBJ-N-FIL_13
1002
{
1000
OWNER
1000
GEN
1002
}
1001
GENIUS_GENODEF_13
1002
{
1000
HIER
1070
     0
1002
}
1002
{
1000
MANEDIT
1070
     0
1002
}
1002
{
1000
NOSEL
1070
     0
1002
}
1002
{
1000
BEHIND
1070
     0
1002
}
1002
{
1000
OTHER
1070
     0
1002
}
1002
{
1000
REACTOR
1002
}
  0
ARC
  5
28D4
330
1F
100
AcDbEntity
  8
CUT
100
AcDbCircle
 10
39.64999999999998
 20
31.09999999999999
 30
0.0
 40
0.4
100
AcDbArc
 50
0.0
 51
90.0
1001
GENIUS_GENOBJ-N-FIL_13
1002
{
1000
OWNER
1000
GEN
1002
}
1001
GENIUS_GENODEF_13
1002
{
1000
HIER
1070
     0
1002
}
1002
{
1000
MANEDIT
1070
     0
1002
}
1002
{
1000
NOSEL
1070
     0
1002
}
1002
{
1000
BEHIND
1070
     0
1002
}
1002
{
1000
OTHER
1070
     0
1002
}
1002
{
1000
REACTOR
1002
}
  0
ARC
  5
28EA
330
1F
100
AcDbEntity
  8
SK3
 48
0.3
100
AcDbCircle
 10
28.153482806976
 20
-28.7711343434168
 30
0.0
 40
8.0
100
AcDbArc
 50
89.99999999999836
 51
194.4775121859306
1001
GENIUS_GENOBJ-N-FIL_13
1002
{
1000
OWNER
1000
GEN
1002
}
1001
GENIUS_GENODEF_13
1002
{
1000
HIER
1070
     0
1002
}
1002
{
1000
MANEDIT
1070
     0
1002
}
1002
{
1000
NOSEL
1070
     0
1002
}
1002
{
1000
BEHIND
1070
     0
1002
}
1002
{
1000
OTHER
1070
     0
1002
}
1002
{
1000
REACTOR
1002
}
  0
CIRCLE
  5
28EB
330
1F
100
AcDbEntity
  8
SK3
100
AcDbCircle
 10
32.51000000000004
 20
-27.48000000000001
 30
0.0
 40
2.749999999999976
  0
LINE
  5
28EC
330
1F
100
AcDbEntity
  8
SK3
100
AcDbLine
 10
38.01000000000005
 20
-23.46000000000003
 30
0.0
 11
25.42000000000001
 21
-23.46
 31
0.0
  0
LINE
  5
28ED
330
1F
100
AcDbEntity
  8
SK3
100
AcDbLine
 10
25.02000000000004
 20
-25.46
 30
0.0
 11
25.76889018293281
 21
-26.45999999999997
 31
0.0
  0
LINE
  5
28EE
330
1F
100
AcDbEntity
  8
SK3
100
AcDbLine
 10
25.76889018293281
 20
-26.46000000000006
 30
0.0
 11
26.5058058715984
 21
-30.77113434341689
 31
0.0
  0
ARC
  5
28EF
330
1F
100
AcDbEntity
  8
SK3
100
AcDbCircle
 10
25.42000000000001
 20
-23.85999999999997
 30
0.0
 40
0.4
100
AcDbArc
 50
90.0
 51
180.0
1001
GENIUS_GENOBJ-N-FIL_13
1002
{
1000
OWNER
1000
GEN
1002
}
1001
GENIUS_GENODEF_13
1002
{
1000
HIER
1070
     0
1002
}
1002
{
1000
MANEDIT
1070
     0
1002
}
1002
{
1000
NOSEL
1070
     0
1002
}
1002
{
1000
BEHIND
1070
     0
1002
}
1002
{
1000
OTHER
1070
     0
1002
}
1002
{
1000
REACTOR
1002
}
  0
LINE
  5
28F0
330
1F
100
AcDbEntity
  8
SK3
100
AcDbLine
 10
25.02000000000004
 20
-23.86
 30
0.0
 11
25.02000000000004
 21
-25.45999999999997
 31
0.0
  0
ARC
  5
28F1
330
1F
100
AcDbEntity
  8
1
100
AcDbCircle
 10
26.96782146220897
 20
-31.10000000000004
 30
0.0
 40
0.4
100
AcDbArc
 50
189.6999999999999
 51
270.0
1001
GENIUS_GENODEF_13
1002
{
1000
HIER
1070
     0
1002
}
1002
{
1000
MANEDIT
1070
     0
1002
}
1002
{
1000
NOSEL
1070
     0
1002
}
1002
{
1000
BEHIND
1070
     0
1002
}
1002
{
1000
OTHER
1070
     0
1002
}
1002
{
1000
REACTOR
1002
}
1001
GENIUS_GENOBJ-N-FIL_13
1002
{
1000
OWNER
1000
GEN
1002
}
  0
LINE
  5
28F2
330
1F
100
AcDbEntity
  8
1
100
AcDbLine
 10
26.5058058715984
 20
-30.77113434341689
 30
0.0
 11
26.57354007457337
 21
-31.16739575182608
 31
0.0
  0
LINE
  5
28F3
330
1F
100
AcDbEntity
  8
1
100
AcDbLine
 10
27.01000000000004
 20
-31.49999999999996
 30
0.0
 11
39.60000000000007
 21
-31.50000000000002
 31
0.0
  0
LINE
  5
28F4
330
1F
100
AcDbEntity
  8
1
100
AcDbLine
 10
40.00000000000006
 20
-29.50000000000002
 30
0.0
 11
39.25110981706728
 21
-28.50000000000004
 31
0.0
  0
LINE
  5
28F5
330
1F
100
AcDbEntity
  8
1
100
AcDbLine
 10
40.00000000000006
 20
-31.10000000000001
 30
0.0
 11
40.00000000000006
 21
-29.50000000000004
 31
0.0
  0
LINE
  5
28F6
330
1F
100
AcDbEntity
  8
SK3
100
AcDbLine
 10
38.99679480008382
 20
-27.01219587175668
 30
0.0
 11
38.44645992542661
 21
-23.79260424817393
 31
0.0
  0
LINE
  5
28F7
330
1F
100
AcDbEntity
  8
1
100
AcDbLine
 10
39.25110981706717
 20
-28.49999999999996
 30
0.0
 11
38.99679480008382
 21
-27.01219587175668
 31
0.0
  0
ARC
  5
28F8
330
1F
100
AcDbEntity
  8
SK3
100
AcDbCircle
 10
38.05217853779112
 20
-23.85999999999995
 30
0.0
 40
0.4
100
AcDbArc
 50
9.699999999999931
 51
90.0
1001
GENIUS_GENODEF_13
1002
{
1000
HIER
1070
     0
1002
}
1002
{
1000
MANEDIT
1070
     0
1002
}
1002
{
1000
NOSEL
1070
     0
1002
}
1002
{
1000
BEHIND
1070
     0
1002
}
1002
{
1000
OTHER
1070
     0
1002
}
1002
{
1000
REACTOR
1002
}
1001
GENIUS_GENOBJ-N-FIL_13
1002
{
1000
OWNER
1000
GEN
1002
}
  0
ARC
  5
28F9
330
1F
100
AcDbEntity
  8
SK3
100
AcDbCircle
 10
38.05217853779112
 20
-23.85999999999995
 30
0.0
 40
0.4
100
AcDbArc
 50
9.699999999999931
 51
90.0
1001
GENIUS_GENODEF_13
1002
{
1000
HIER
1070
     0
1002
}
1002
{
1000
MANEDIT
1070
     0
1002
}
1002
{
1000
NOSEL
1070
     0
1002
}
1002
{
1000
BEHIND
1070
     0
1002
}
1002
{
1000
OTHER
1070
     0
1002
}
1002
{
1000
REACTOR
1002
}
1001
GENIUS_GENOBJ-N-FIL_13
1002
{
1000
OWNER
1000
GEN
1002
}
  0
ARC
  5
28FA
330
1F
100
AcDbEntity
  8
1
100
AcDbCircle
 10
39.60000000000007
 20
-31.10000000000001
 30
0.0
 40
0.4
100
AcDbArc
 50
270.0
 51
0.0
1001
GENIUS_GENOBJ-N-FIL_13
1002
{
1000
OWNER
1000
GEN
1002
}
1001
GENIUS_GENODEF_13
1002
{
1000
HIER
1070
     0
1002
}
1002
{
1000
MANEDIT
1070
     0
1002
}
1002
{
1000
NOSEL
1070
     0
1002
}
1002
{
1000
BEHIND
1070
     0
1002
}
1002
{
1000
OTHER
1070
     0
1002
}
1002
{
1000
REACTOR
1002
}
  0
LINE
  5
2913
330
1F
100
AcDbEntity
  8
SK3
 48
0.3
100
AcDbLine
 10
28.20348280697594
 20
-20.7711343434167
 30
0.0
 11
38.99679480008348
 21
-20.77113434341683
 31
0.0
  0
ENDSEC
  0
SECTION
  2
OBJECTS
  0
DICTIONARY
  5
C
330
0
100
AcDbDictionary
  3
ACAD_GROUP
350
D
  3
ACAD_LAYOUT
350
1A
  3
ACAD_MLINESTYLE
350
17
  3
ACAD_PLOTSETTINGS
350
19
  3
ACAD_PLOTSTYLENAME
350
E
  3
ACDBHEADERROUNDTRIPXREC
350
292F
  3
ACDBVARIABLEDICTIONARY
350
216
  3
ACMDICTIONARY
350
45
  3
AMG
350
41
  3
AMGSNAPSETTINGS
350
23D
  3
DWGPROPS
350
292B
  0
DICTIONARY
  5
1F1
330
1F
100
AcDbDictionary
280
     1
  3
ACAD_INDEX
360
1F2
  3
ACAD_LAYOUTSELFREF
360
2952
  0
DICTIONARY
  5
2950
330
1B
100
AcDbDictionary
280
     1
  3
ACAD_LAYOUTSELFREF
360
2951
  0
DICTIONARY
  5
D
102
{ACAD_REACTORS
330
C
102
}
330
C
100
AcDbDictionary
  0
DICTIONARY
  5
1A
102
{ACAD_REACTORS
330
C
102
}
330
C
100
AcDbDictionary
  0
DICTIONARY
  5
17
102
{ACAD_REACTORS
330
C
102
}
330
C
100
AcDbDictionary
  3
STANDARD
350
18
  0
DICTIONARY
  5
19
102
{ACAD_REACTORS
330
C
102
}
330
C
100
AcDbDictionary
  0
ACDBDICTIONARYWDFLT
  5
E
102
{ACAD_REACTORS
330
C
102
}
330
C
100
AcDbDictionary
281
     1
  3
Normal
350
F
100
AcDbDictionaryWithDefault
340
F
  0
DICTIONARY
  5
292F
102
{ACAD_REACTORS
330
C
102
}
330
C
100
AcDbDictionary
  3
CEPSNTYPE
350
2939
  3
DIMSTYLEDATA
350
293D
  3
FINGERPRINTGUID
350
293A
  3
HYPERLINKBASE
350
2932
  3
INSUNITS
350
2938
  3
LAYOUTDICT
350
2934
  3
LWETCUNION
350
2937
  3
PLOTSETDICT
350
2935
  3
PLOTSTYLNAMDICT
350
2936
  3
PSVPSCALE
350
293C
  3
PUCSBASE
350
2940
  3
PUCSORGBACK
350
2946
  3
PUCSORGBOTTOM
350
2942
  3
PUCSORGFRONT
350
2945
  3
PUCSORGLEFT
350
2943
  3
PUCSORGRIGHT
350
2944
  3
PUCSORGTOP
350
2941
  3
PUCSORTHOREF
350
293E
  3
PUCSORTHOVIEW
350
293F
  3
STYLESHEET
350
2933
  3
TSTACKALIGN
350
2930
  3
TSTACKSIZE
350
2931
  3
UCSBASE
350
2949
  3
UCSORGBACK
350
294F
  3
UCSORGBOTTOM
350
294B
  3
UCSORGFRONT
350
294E
  3
UCSORGLEFT
350
294C
  3
UCSORGRIGHT
350
294D
  3
UCSORGTOP
350
294A
  3
UCSORTHOREF
350
2947
  3
UCSORTHOVIEW
350
2948
  3
VERSIONGUID
350
293B
  0
DICTIONARY
  5
216
102
{ACAD_REACTORS
330
C
102
}
330
C
100
AcDbDictionary
  3
DIMASSOC
350
219
  3
HIDETEXT
350
218
  3
INDEXCTL
350
217
  0
DICTIONARY
  5
45
102
{ACAD_REACTORS
330
C
102
}
330
C
100
AcDbDictionary
  3
ACMSTDDICTIONARY
350
4A
  0
DICTIONARY
  5
41
102
{ACAD_REACTORS
330
C
102
}
330
C
100
AcDbDictionary
  3
ACMGSETTINGS
350
42
  0
DICTIONARY
  5
23D
102
{ACAD_REACTORS
330
C
102
}
330
C
100
AcDbDictionary
  0
XRECORD
  5
292B
102
{ACAD_REACTORS
330
C
102
}
330
C
100
AcDbXrecord
  1
DWGPROPS COOKIE
  2

  3

  4

  6

  7

  8

  9

300
AmdtFileType=84
301
=
302
=
303
=
304
=
305
=
306
=
307
=
308
=
309
=
 40
0.0419883912037037
 41
2453599.366006042
 42
2453609.666946898
  1

 90
        1
  0
DICTIONARY
  5
1F2
102
{ACAD_REACTORS
330
1F1
102
}
330
1F1
100
AcDbDictionary
  3
*A1
350
1F3
  0
XRECORD
  5
2952
102
{ACAD_REACTORS
330
1F1
102
}
330
1F1
100
AcDbXrecord
340
1F
  0
XRECORD
  5
2951
102
{ACAD_REACTORS
330
2950
102
}
330
2950
100
AcDbXrecord
340
1B
  0
MLINESTYLE
  5
18
102
{ACAD_REACTORS
330
17
102
}
330
17
100
AcDbMlineStyle
  2
STANDARD
 70
     0
  3

 62
   256
 51
90.0
 52
90.0
 71
     2
 49
0.5
 62
   256
  6
BYLAYER
 49
-0.5
 62
   256
  6
BYLAYER
  0
ACDBPLACEHOLDER
  5
F
102
{ACAD_REACTORS
330
E
102
}
330
E
100
AcDbPlaceHolder
280
     0
  0
XRECORD
  5
2939
102
{ACAD_REACTORS
330
292F
102
}
330
292F
100
AcDbXrecord
 90
        0
  0
XRECORD
  5
293D
102
{ACAD_REACTORS
330
292F
102
}
330
292F
100
AcDbXrecord
1000
DSTYLE
1002
{
1070
    79
 70
     2
1070
   371
 70
    -1
1070
   372
 70
    -1
1002
}
  0
XRECORD
  5
293A
102
{ACAD_REACTORS
330
292F
102
}
330
292F
100
AcDbXrecord
  1
{03052709-208C-44F1-88CB-F8F0E550BC5D}
  0
XRECORD
  5
2932
102
{ACAD_REACTORS
330
292F
102
}
330
292F
100
AcDbXrecord
  1

  0
XRECORD
  5
2938
102
{ACAD_REACTORS
330
292F
102
}
330
292F
100
AcDbXrecord
 90
        4
  0
XRECORD
  5
2934
102
{ACAD_REACTORS
330
292F
102
}
330
292F
100
AcDbXrecord
340
1A
  0
XRECORD
  5
2937
102
{ACAD_REACTORS
330
292F
102
}
330
292F
100
AcDbXrecord
 90
    10781
  0
XRECORD
  5
2935
102
{ACAD_REACTORS
330
292F
102
}
330
292F
100
AcDbXrecord
340
19
  0
XRECORD
  5
2936
102
{ACAD_REACTORS
330
292F
102
}
330
292F
100
AcDbXrecord
340
E
  0
XRECORD
  5
293C
102
{ACAD_REACTORS
330
292F
102
}
330
292F
100
AcDbXrecord
 40
0.0
  0
XRECORD
  5
2940
102
{ACAD_REACTORS
330
292F
102
}
330
292F
100
AcDbXrecord
340
0
  0
XRECORD
  5
2946
102
{ACAD_REACTORS
330
292F
102
}
330
292F
100
AcDbXrecord
 10
0.0
 20
0.0
 30
0.0
  0
XRECORD
  5
2942
102
{ACAD_REACTORS
330
292F
102
}
330
292F
100
AcDbXrecord
 10
0.0
 20
0.0
 30
0.0
  0
XRECORD
  5
2945
102
{ACAD_REACTORS
330
292F
102
}
330
292F
100
AcDbXrecord
 10
0.0
 20
0.0
 30
0.0
  0
XRECORD
  5
2943
102
{ACAD_REACTORS
330
292F
102
}
330
292F
100
AcDbXrecord
 10
0.0
 20
0.0
 30
0.0
  0
XRECORD
  5
2944
102
{ACAD_REACTORS
330
292F
102
}
330
292F
100
AcDbXrecord
 10
0.0
 20
0.0
 30
0.0
  0
XRECORD
  5
2941
102
{ACAD_REACTORS
330
292F
102
}
330
292F
100
AcDbXrecord
 10
0.0
 20
0.0
 30
0.0
  0
XRECORD
  5
293E
102
{ACAD_REACTORS
330
292F
102
}
330
292F
100
AcDbXrecord
340
0
  0
XRECORD
  5
293F
102
{ACAD_REACTORS
330
292F
102
}
330
292F
100
AcDbXrecord
 70
     0
  0
XRECORD
  5
2933
102
{ACAD_REACTORS
330
292F
102
}
330
292F
100
AcDbXrecord
  1

  0
XRECORD
  5
2930
102
{ACAD_REACTORS
330
292F
102
}
330
292F
100
AcDbXrecord
 90
        1
  0
XRECORD
  5
2931
102
{ACAD_REACTORS
330
292F
102
}
330
292F
100
AcDbXrecord
 90
       70
  0
XRECORD
  5
2949
102
{ACAD_REACTORS
330
292F
102
}
330
292F
100
AcDbXrecord
340
0
  0
XRECORD
  5
294F
102
{ACAD_REACTORS
330
292F
102
}
330
292F
100
AcDbXrecord
 10
0.0
 20
0.0
 30
0.0
  0
XRECORD
  5
294B
102
{ACAD_REACTORS
330
292F
102
}
330
292F
100
AcDbXrecord
 10
0.0
 20
0.0
 30
0.0
  0
XRECORD
  5
294E
102
{ACAD_REACTORS
330
292F
102
}
330
292F
100
AcDbXrecord
 10
0.0
 20
0.0
 30
0.0
  0
XRECORD
  5
294C
102
{ACAD_REACTORS
330
292F
102
}
330
292F
100
AcDbXrecord
 10
0.0
 20
0.0
 30
0.0
  0
XRECORD
  5
294D
102
{ACAD_REACTORS
330
292F
102
}
330
292F
100
AcDbXrecord
 10
0.0
 20
0.0
 30
0.0
  0
XRECORD
  5
294A
102
{ACAD_REACTORS
330
292F
102
}
330
292F
100
AcDbXrecord
 10
0.0
 20
0.0
 30
0.0
  0
XRECORD
  5
2947
102
{ACAD_REACTORS
330
292F
102
}
330
292F
100
AcDbXrecord
340
0
  0
XRECORD
  5
2948
102
{ACAD_REACTORS
330
292F
102
}
330
292F
100
AcDbXrecord
 70
     0
  0
XRECORD
  5
293B
102
{ACAD_REACTORS
330
292F
102
}
330
292F
100
AcDbXrecord
  1
{945FDCC0-731E-4CF2-A3A7-4EBEF78A69AC}
  0
DICTIONARYVAR
  5
219
102
{ACAD_REACTORS
330
216
102
}
330
216
100
DictionaryVariables
280
     0
  1
1
  0
DICTIONARYVAR
  5
218
102
{ACAD_REACTORS
330
216
102
}
330
216
100
DictionaryVariables
280
     0
  1
1
  0
DICTIONARYVAR
  5
217
102
{ACAD_REACTORS
330
216
102
}
330
216
100
DictionaryVariables
280
     0
  1
1
  0
DICTIONARY
  5
4A
102
{ACAD_REACTORS
330
45
102
}
330
45
100
AcDbDictionary
  0
DICTIONARY
  5
42
102
{ACAD_REACTORS
330
41
102
}
330
41
100
AcDbDictionary
  3
DWGSETTINGS
350
43
  0
LAYER_INDEX
  5
1F3
102
{ACAD_REACTORS
330
1F2
102
}
330
1F2
100
AcDbIndex
 40
2453610.44582581
100
AcDbLayerIndex
  8
0
360
1F4
 90
        0
  8
Defpoints
360
210
 90
        0
  8
1
360
29B
 90
       33
  8
2
360
1F7D
 90
        3
  8
4
360
1F7E
 90
        2
  8
6
360
1F7F
 90
        2
  8
SK1
360
1F80
 90
       13
  8
SK2
360
1F81
 90
        2
  8
SK3
360
1F82
 90
       19
  8
CUT
360
1F83
 90
       12
  8
NOCUT
360
1F84
 90
        7
  0
XRECORD
  5
43
102
{ACAD_REACTORS
330
42
102
}
330
42
100
AcDbXrecord
  1
VERSION
140
15.0
  1
PRODUCT
  2
AutoCAD Mechanical 2000
  0
IDBUFFER
  5
1F4
330
0
100
AcDbIdBuffer
  0
IDBUFFER
  5
210
330
0
100
AcDbIdBuffer
  0
IDBUFFER
  5
29B
330
0
100
AcDbIdBuffer
330
90A
330
90F
330
910
330
914
330
A68
330
A6F
330
1FD1
330
1FEE
330
2061
330
2084
330
2085
330
28B9
330
28BA
330
28BD
330
28BE
330
28C0
330
28C1
330
28C3
330
28C5
330
28C7
330
28C9
330
28CB
330
28CD
330
28CF
330
28D1
330
28D3
330
28F1
330
28F2
330
28F3
330
28F4
330
28F5
330
28F7
330
28FA
  0
IDBUFFER
  5
1F7D
330
0
100
AcDbIdBuffer
330
202D
330
2112
330
28B8
  0
IDBUFFER
  5
1F7E
330
0
100
AcDbIdBuffer
330
1FC6
330
2088
  0
IDBUFFER
  5
1F7F
330
0
100
AcDbIdBuffer
330
1FC7
330
1FC9
  0
IDBUFFER
  5
1F80
330
0
100
AcDbIdBuffer
330
911
330
912
330
913
330
1FC3
330
1FC4
330
1FC5
330
1FD2
330
1FD5
330
1FED
330
2009
330
200B
330
200E
330
2443
  0
IDBUFFER
  5
1F81
330
0
100
AcDbIdBuffer
330
961
330
9F4
  0
IDBUFFER
  5
1F82
330
0
100
AcDbIdBuffer
330
915
330
916
330
917
330
918
330
919
330
91A
330
91B
330
91C
330
28EA
330
28EB
330
28EC
330
28ED
330
28EE
330
28EF
330
28F0
330
28F6
330
28F8
330
28F9
330
2913
  0
IDBUFFER
  5
1F83
330
0
100
AcDbIdBuffer
330
28BB
330
28BF
330
28C2
330
28C4
330
28C6
330
28C8
330
28CA
330
28CC
330
28CE
330
28D0
330
28D2
330
28D4
  0
IDBUFFER
  5
1F84
330
0
100
AcDbIdBuffer
330
213D
330
213E
330
2143
330
2150
330
2153
330
2154
330
2155
  0
ENDSEC
  0
EOF
