  0
SECTION
  2
HEADER
  9
$ACADVER
  1
AC1014
  9
$ACADMAINTVER
 70
     9
  9
$DWGCODEPAGE
  3
ANSI_1252
  9
$INSBASE
 10
0.0
 20
0.0
 30
0.0
  9
$EXTMIN
 10
-31.21320694851613
 20
-33.34059321796849
 30
-0.0000000000000053
  9
$EXTMAX
 10
67.55616789863177
 20
79.85120360827238
 30
0.0000000000000099
  9
$LIMMIN
 10
0.0
 20
0.0
  9
$LIMMAX
 10
420.0
 20
297.0
  9
$ORTHOMODE
 70
     0
  9
$REGENMODE
 70
     1
  9
$FILLMODE
 70
     1
  9
$QTEXTMODE
 70
     0
  9
$MIRRTEXT
 70
     1
  9
$DRAGMODE
 70
     2
  9
$LTSCALE
 40
1.0
  9
$OSMODE
 70
  2599
  9
$ATTMODE
 70
     1
  9
$TEXTSIZE
 40
2.5
  9
$TRACEWID
 40
1.0
  9
$TEXTSTYLE
  7
STANDARD
  9
$CLAYER
  8
0
  9
$CELTYPE
  6
BYLAYER
  9
$CECOLOR
 62
   256
  9
$CELTSCALE
 40
1.0
  9
$DELOBJ
 70
     1
  9
$DISPSILH
 70
     0
  9
$DIMSCALE
 40
1.0
  9
$DIMASZ
 40
2.5
  9
$DIMEXO
 40
0.0
  9
$DIMDLI
 40
10.0
  9
$DIMRND
 40
0.0
  9
$DIMDLE
 40
0.0
  9
$DIMEXE
 40
1.0
  9
$DIMTP
 40
0.1
  9
$DIMTM
 40
0.1
  9
$DIMTXT
 40
3.5
  9
$DIMCEN
 40
0.0
  9
$DIMTSZ
 40
0.0
  9
$DIMTOL
 70
     0
  9
$DIMLIM
 70
     0
  9
$DIMTIH
 70
     0
  9
$DIMTOH
 70
     0
  9
$DIMSE1
 70
     0
  9
$DIMSE2
 70
     0
  9
$DIMTAD
 70
     1
  9
$DIMZIN
 70
     8
  9
$DIMBLK
  1

  9
$DIMASO
 70
     1
  9
$DIMSHO
 70
     1
  9
$DIMPOST
  1

  9
$DIMAPOST
  1
"
  9
$DIMALT
 70
     0
  9
$DIMALTD
 70
     2
  9
$DIMALTF
 40
0.0393701
  9
$DIMLFAC
 40
1.0
  9
$DIMTOFL
 70
     1
  9
$DIMTVP
 40
0.0
  9
$DIMTIX
 70
     0
  9
$DIMSOXD
 70
     0
  9
$DIMSAH
 70
     0
  9
$DIMBLK1
  1

  9
$DIMBLK2
  1

  9
$DIMSTYLE
  2
AM_DIN
  9
$DIMCLRD
 70
   256
  9
$DIMCLRE
 70
   256
  9
$DIMCLRT
 70
     2
  9
$DIMTFAC
 40
0.71
  9
$DIMGAP
 40
1.5
  9
$DIMJUST
 70
     0
  9
$DIMSD1
 70
     0
  9
$DIMSD2
 70
     0
  9
$DIMTOLJ
 70
     0
  9
$DIMTZIN
 70
     8
  9
$DIMALTZ
 70
     0
  9
$DIMALTTZ
 70
     0
  9
$DIMFIT
 70
     3
  9
$DIMUPT
 70
     0
  9
$DIMUNIT
 70
     2
  9
$DIMDEC
 70
     2
  9
$DIMTDEC
 70
     2
  9
$DIMALTU
 70
     2
  9
$DIMALTTD
 70
     2
  9
$DIMTXSTY
  7
STANDARD
  9
$DIMAUNIT
 70
     0
  9
$LUNITS
 70
     2
  9
$LUPREC
 70
     2
  9
$SKETCHINC
 40
1.0
  9
$FILLETRAD
 40
3.0
  9
$AUNITS
 70
     0
  9
$AUPREC
 70
     0
  9
$MENU
  1
.
  9
$ELEVATION
 40
0.0
  9
$PELEVATION
 40
0.0
  9
$THICKNESS
 40
0.0
  9
$LIMCHECK
 70
     0
  9
$BLIPMODE
 70
     0
  9
$CHAMFERA
 40
2.5
  9
$CHAMFERB
 40
2.5
  9
$CHAMFERC
 40
20.0
  9
$CHAMFERD
 40
0.0
  9
$SKPOLY
 70
     0
  9
$TDCREATE
 40
2453599.366006042
  9
$TDUPDATE
 40
2453610.444886388
  9
$TDINDWG
 40
0.0421156597
  9
$TDUSRTIMER
 40
0.0420913194
  9
$USRTIMER
 70
     1
  9
$ANGBASE
 50
0.0
  9
$ANGDIR
 70
     0
  9
$PDMODE
 70
     0
  9
$PDSIZE
 40
0.0
  9
$PLINEWID
 40
0.0
  9
$COORDS
 70
     0
  9
$SPLFRAME
 70
     0
  9
$SPLINETYPE
 70
     6
  9
$SPLINESEGS
 70
     8
  9
$ATTDIA
 70
     1
  9
$ATTREQ
 70
     1
  9
$HANDLING
 70
 22529
  9
$HANDSEED
  5
28E2
  9
$SURFTAB1
 70
     6
  9
$SURFTAB2
 70
     6
  9
$SURFTYPE
 70
     6
  9
$SURFU
 70
     6
  9
$SURFV
 70
     6
  9
$UCSNAME
  2

  9
$UCSORG
 10
0.0
 20
0.0
 30
0.0
  9
$UCSXDIR
 10
1.0
 20
0.0
 30
0.0
  9
$UCSYDIR
 10
0.0
 20
1.0
 30
0.0
  9
$PUCSNAME
  2

  9
$PUCSORG
 10
0.0
 20
0.0
 30
0.0
  9
$PUCSXDIR
 10
1.0
 20
0.0
 30
0.0
  9
$PUCSYDIR
 10
0.0
 20
1.0
 30
0.0
  9
$USERI1
 70
     0
  9
$USERI2
 70
     0
  9
$USERI3
 70
     0
  9
$USERI4
 70
     0
  9
$USERI5
 70
     0
  9
$USERR1
 40
0.0
  9
$USERR2
 40
0.0
  9
$USERR3
 40
0.0
  9
$USERR4
 40
0.0
  9
$USERR5
 40
0.0
  9
$WORLDVIEW
 70
     1
  9
$SHADEDGE
 70
     3
  9
$SHADEDIF
 70
    70
  9
$TILEMODE
 70
     1
  9
$MAXACTVP
 70
    64
  9
$PINSBASE
 10
0.0
 20
0.0
 30
0.0
  9
$PLIMCHECK
 70
     0
  9
$PEXTMIN
 10
1.000000000000000E+20
 20
1.000000000000000E+20
 30
1.000000000000000E+20
  9
$PEXTMAX
 10
-1.000000000000000E+20
 20
-1.000000000000000E+20
 30
-1.000000000000000E+20
  9
$PLIMMIN
 10
0.0
 20
0.0
  9
$PLIMMAX
 10
420.0
 20
297.0
  9
$UNITMODE
 70
     0
  9
$VISRETAIN
 70
     1
  9
$PLINEGEN
 70
     0
  9
$PSLTSCALE
 70
     1
  9
$TREEDEPTH
 70
  3020
  9
$PICKSTYLE
 70
     0
  9
$CMLSTYLE
  2
STANDARD
  9
$CMLJUST
 70
     0
  9
$CMLSCALE
 40
20.0
  9
$PROXYGRAPHICS
 70
     1
  9
$MEASUREMENT
 70
     1
  0
ENDSEC
  0
SECTION
  2
CLASSES
  0
CLASS
  1
ACDBDICTIONARYWDFLT
  2
AcDbDictionaryWithDefault
  3
AutoCAD 2000
 90
        0
280
     0
281
     0
  0
CLASS
  1
ACDBPLACEHOLDER
  2
AcDbPlaceHolder
  3
AutoCAD 2000
 90
        0
280
     0
281
     0
  0
CLASS
  1
LAYOUT
  2
AcDbLayout
  3
AutoCAD 2000
 90
        0
280
     0
281
     0
  0
CLASS
  1
ACME_DOCUMENT
  2
AcMeDbDoc
  3
AcMeServices
 90
        0
280
     0
281
     0
  0
CLASS
  1
ACMESCOPE
  2
AcMeScope
  3
AcMeServices
 90
        0
280
     0
281
     0
  0
CLASS
  1
ACMECOMMANDHISTORY
  2
AcMeCommandHistory
  3
AcMeServices
 90
        0
280
     0
281
     0
  0
CLASS
  1
ACIMSYSVARMAN
  2
AcImSysVarManager
  3
AcMeServices
 90
        0
280
     0
281
     0
  0
CLASS
  1
ACIMREALSYSVAR
  2
AcImRealSysVar
  3
AcMeServices
 90
        0
280
     0
281
     0
  0
CLASS
  1
ACIMINTSYSVAR
  2
AcImIntSysVar
  3
AcMeServices
 90
        0
280
     0
281
     0
  0
CLASS
  1
ACMEDRAWINGMAN
  2
AcMeDrawingMan
  3
AcMeServices
 90
        0
280
     0
281
     0
  0
CLASS
  1
ACMEVIEW
  2
AcMeView
  3
AcMeServices
 90
        0
280
     0
281
     0
  0
CLASS
  1
ACDBENTITYCACHE
  2
AcMeEntityCache
  3
AcMeServices
 90
        0
280
     0
281
     0
  0
CLASS
  1
GSMANAGER
  2
AcMeGSManager
  3
AcMeServices
 90
        0
280
     0
281
     0
  0
CLASS
  1
AMDTINTERNALREACTOR
  2
AmdtInternalReactor
  3
AcMeServices
 90
        0
280
     0
281
     0
  0
CLASS
  1
ACMESTATEMGR
  2
AcMeStateMgr
  3
AcMeServices
 90
        0
280
     0
281
     0
  0
CLASS
  1
ACGREFMASTER
  2
AcGrefMaster
  3
AcAttribServices
 90
        0
280
     0
281
     0
  0
CLASS
  1
ACME_DATABASE
  2
AcMeDbDatabase
  3
AcMeServices
 90
        0
280
     0
281
     0
  0
CLASS
  1
ACRFINSADJUSTERMGR
  2
AcRfInsAdjusterMgr
  3
AcMeServices
 90
        0
280
     0
281
     0
  0
CLASS
  1
ACGREFACADMASTER
  2
AcGrefacadMaster
  3
AcGrefServices
 90
        0
280
     0
281
     0
  0
CLASS
  1
AMIMASTER
  2
AmiMaster
  3
AmiServices
 90
        0
280
     0
281
     0
  0
CLASS
  1
AMGSETTINGSOBJ
  2
AmgSettingsObj
  3
"AcadM|Product Description: AutoCAD Mechanical 2000|Company: Autodesk"
 90
        0
280
     0
281
     0
  0
CLASS
  1
ACMDATADICTIONARY
  2
AcmDataDictionary
  3
"AcmSymBB|Product Description: AutoCAD Mechanical 2000|Company: Autodesk"
 90
        0
280
     0
281
     0
  0
CLASS
  1
ACMDATAENTRYBLOCK
  2
AcmDataEntryBlock
  3
"AcmSymBB|Product Description: AutoCAD Mechanical 2000|Company: Autodesk"
 90
        0
280
     0
281
     0
  0
CLASS
  1
ACIMSTRSYSVAR
  2
AcImStrSysVar
  3
AcMeServices
 90
        0
280
     0
281
     0
  0
CLASS
  1
ACMSTANDARDDIN
  2
AcmStandardDIN
  3
"Amdt_StdImp|Product Description: AutoCAD Mechanical 2000|Company: Autodesk"
 90
        0
280
     0
281
     0
  0
CLASS
  1
AMGOBJPROPCFG
  2
AmgObjPropCfg
  3
"AmgLay|Product Description: AutoCAD Mechanical 2000|Company: Autodesk"
 90
        1
280
     0
281
     0
  0
CLASS
  1
AMDTEDGESTANDARDDIN
  2
AmdtEdgeStdDIN
  3
"Amdt_StdImp|Product Description: AutoCAD Mechanical 2000|Company: Autodesk"
 90
        0
280
     0
281
     0
  0
CLASS
  1
ACMSURFSTANDARDDIN
  2
AcmSurfTextStdDIN
  3
"Amdt_StdImp|Product Description: AutoCAD Mechanical 2000|Company: Autodesk"
 90
        0
280
     0
281
     0
  0
CLASS
  1
ACMFCFSTANDARDDIN
  2
AcmFCFStdDIN
  3
"Amdt_StdImp|Product Description: AutoCAD Mechanical 2000|Company: Autodesk"
 90
        0
280
     0
281
     0
  0
CLASS
  1
ACMWELDSTANDARDDIN
  2
AcmWeldingStdDIN
  3
"Amdt_StdImp|Product Description: AutoCAD Mechanical 2000|Company: Autodesk"
 90
        0
280
     0
281
     0
  0
CLASS
  1
ACMIDSTANDARDDIN
  2
AcmIdStdDIN
  3
"Amdt_StdImp|Product Description: AutoCAD Mechanical 2000|Company: Autodesk"
 90
        0
280
     0
281
     0
  0
CLASS
  1
ACMDATUMSTANDARDDIN
  2
AcmDatumStdDIN
  3
"Amdt_StdImp|Product Description: AutoCAD Mechanical 2000|Company: Autodesk"
 90
        0
280
     0
281
     0
  0
CLASS
  1
ACMBOMSTANDARDDIN
  2
AcmBOMStdDIN
  3
"Amdt_StdImp|Product Description: AutoCAD Mechanical 2000|Company: Autodesk"
 90
        0
280
     0
281
     0
  0
CLASS
  1
ACMDETAILSTANDARDDIN
  2
AmdtDetailSymStdDIN
  3
"Amdt_StdImp|Product Description: AutoCAD Mechanical 2000|Company: Autodesk"
 90
        0
280
     0
281
     0
  0
CLASS
  1
ACMSECTIONSTANDARDDIN
  2
AmdtSectionSymStdDIN
  3
"Amdt_StdImp|Product Description: AutoCAD Mechanical 2000|Company: Autodesk"
 90
        0
280
     0
281
     0
  0
CLASS
  1
ACMCENTERLINESTANDARDDIN
  2
AmdtCenterLineStdDIN
  3
"Amdt_StdImp|Product Description: AutoCAD Mechanical 2000|Company: Autodesk"
 90
        0
280
     0
281
     0
  0
CLASS
  1
ACMNOTESTANDARDDIN
  2
AmdtNoteStdDIN
  3
"Amdt_StdImp|Product Description: AutoCAD Mechanical 2000|Company: Autodesk"
 90
        0
280
     0
281
     0
  0
CLASS
  1
ACAMGLAYSTD
  2
AcAmgLayStd
  3
"AcAmgLayStd|Product Description: AutoCAD Mechanical 2000|Company: Autodesk"
 90
        0
280
     0
281
     0
  0
CLASS
  1
ACAMGDIMSTD
  2
AcAmgDimStd
  3
"AcAmgDimStd|Product Description: AutoCAD Mechanical 2000|Company: Autodesk"
 90
        0
280
     0
281
     0
  0
CLASS
  1
ACAMGHOLECHARTSTDDIN
  2
AcAmgHoleChartStdDIN
  3
ACMSYMBB_MODULE_NAME
 90
        0
280
     0
281
     0
  0
CLASS
  1
ACAMGTITLESTD
  2
AcAmgTitleStd
  3
"TITLEAPP"
 90
        0
280
     0
281
     0
  0
CLASS
  1
ACMSTANDARDANSI
  2
AcmStandardANSI
  3
"Amdt_StdImp|Product Description: AutoCAD Mechanical 2000|Company: Autodesk"
 90
        0
280
     0
281
     0
  0
CLASS
  1
ACMSURFSTANDARDANSI
  2
AcmSurfTextStdANSI
  3
"Amdt_StdImp|Product Description: AutoCAD Mechanical 2000|Company: Autodesk"
 90
        0
280
     0
281
     0
  0
CLASS
  1
ACMFCFSTANDARDANSI
  2
AcmFCFStdANSI
  3
"Amdt_StdImp|Product Description: AutoCAD Mechanical 2000|Company: Autodesk"
 90
        0
280
     0
281
     0
  0
CLASS
  1
ACMWELDSTANDARDANSI
  2
AcmWeldingStdANSI
  3
"Amdt_StdImp|Product Description: AutoCAD Mechanical 2000|Company: Autodesk"
 90
        0
280
     0
281
     0
  0
CLASS
  1
ACMIDSTANDARDANSI
  2
AcmIdStdANSI
  3
"Amdt_StdImp|Product Description: AutoCAD Mechanical 2000|Company: Autodesk"
 90
        0
280
     0
281
     0
  0
CLASS
  1
ACMDATUMSTANDARDANSI
  2
AcmDatumStdANSI
  3
"Amdt_StdImp|Product Description: AutoCAD Mechanical 2000|Company: Autodesk"
 90
        0
280
     0
281
     0
  0
CLASS
  1
ACMBOMSTANDARDANSI
  2
AcmBOMStdANSI
  3
"Amdt_StdImp|Product Description: AutoCAD Mechanical 2000|Company: Autodesk"
 90
        0
280
     0
281
     0
  0
CLASS
  1
ACMDETAILSTANDARDANSI
  2
AmdtDetailSymStdANSI
  3
"Amdt_StdImp|Product Description: AutoCAD Mechanical 2000|Company: Autodesk"
 90
        0
280
     0
281
     0
  0
CLASS
  1
ACMSECTIONSTANDARDANSI
  2
AmdtSectionSymStdANSI
  3
"Amdt_StdImp|Product Description: AutoCAD Mechanical 2000|Company: Autodesk"
 90
        0
280
     0
281
     0
  0
CLASS
  1
ACMCENTERLINESTANDARDANSI
  2
AmdtCenterLineStdANSI
  3
"Amdt_StdImp|Product Description: AutoCAD Mechanical 2000|Company: Autodesk"
 90
        0
280
     0
281
     0
  0
CLASS
  1
ACMNOTESTANDARDANSI
  2
AmdtNoteStdANSI
  3
"Amdt_StdImp|Product Description: AutoCAD Mechanical 2000|Company: Autodesk"
 90
        0
280
     0
281
     0
  0
CLASS
  1
ACAMGHOLECHARTSTDANSI
  2
AcAmgHoleChartStdANSI
  3
ACMSYMBB_MODULE_NAME
 90
        0
280
     0
281
     0
  0
CLASS
  1
ACAMGFILTERDAT
  2
AcAmgFilterDat
  3
"AcadM|Product Description: AutoCAD Mechanical 2000|Company: Autodesk"
 90
        0
280
     0
281
     0
  0
CLASS
  1
AMDTFORMULAUPDATEDISPATCHER
  2
AmdtFormulaUpdateDispatcher
  3
AcMeServices
 90
        0
280
     0
281
     0
  0
CLASS
  1
LAYER_INDEX
  2
AcDbLayerIndex
  3
AutoCAD 2000
 90
        0
280
     0
281
     0
  0
CLASS
  1
IDBUFFER
  2
AcDbIdBuffer
  3
AutoCAD 2000
 90
        0
280
     0
281
     0
  0
CLASS
  1
DICTIONARYVAR
  2
AcDbDictionaryVar
  3
AutoCAD 2000
 90
        0
280
     0
281
     0
  0
CLASS
  1
DIMASSOC
  2
AcDbDimAssoc
  3
"AcDbDimAssoc|Product Desc:     AcDim ARX App For Dimension|Company:          Autodesk, Inc.|WEB Address:      www.autodesk.com"
 90
        0
280
     0
281
     0
  0
CLASS
  1
ACMDIMBREAKPERSREACTOR
  2
AcmDimBreakPersReactor
  3
amgDimApp().moduleName()
 90
     1023
280
     0
281
     0
  0
CLASS
  1
ACMSURFSYM
  2
AcmSurfaceTexture
  3
"AcmSymBB|Product Description: AutoCAD Mechanical 2000|Company: Autodesk"
 90
     1023
280
     0
281
     1
  0
CLASS
  1
ACMFCFRAME
  2
AcmFCF
  3
"AcmSymBB|Product Description: AutoCAD Mechanical 2000|Company: Autodesk"
 90
     1023
280
     0
281
     1
  0
CLASS
  1
LONG_TRANSACTION
  2
AcDbLongTransaction
  3
AutoCAD 2000
 90
        0
280
     0
281
     0
  0
CLASS
  1
LWPOLYLINE
  2
AcDbPolyline
  3
AutoCAD 2000
 90
        0
280
     0
281
     1
  0
CLASS
  1
HATCH
  2
AcDbHatch
  3
AutoCAD 2000
 90
        0
280
     0
281
     1
  0
CLASS
  1
XRECORD
  2
AcDbXrecord
  3
AutoCAD 2000
 90
        0
280
     0
281
     0
  0
ENDSEC
  0
SECTION
  2
TABLES
  0
TABLE
  2
VPORT
  5
8
330
0
100
AcDbSymbolTable
 70
     4
  0
VPORT
  5
28BB
330
8
100
AcDbSymbolTableRecord
100
AcDbViewportTableRecord
  2
*ACTIVE
 70
     0
 10
0.0
 20
0.0
 11
1.0
 21
1.0
 12
194.3933965257419
 22
131.8297033910157
 13
0.0
 23
0.0
 14
2.5
 24
2.5
 15
10.0
 25
10.0
 16
0.0
 26
0.0
 36
1.0
 17
0.0
 27
0.0
 37
0.0
 40
333.9840556431667
 41
1.694290976058931
 42
50.0
 43
0.0
 44
0.0
 50
0.0
 51
0.0
 71
     0
 72
 10000
 73
     1
 74
     3
 75
     0
 76
     0
 77
     0
 78
     0
  0
ENDTAB
  0
TABLE
  2
LTYPE
  5
5
330
0
100
AcDbSymbolTable
 70
    16
  0
LTYPE
  5
14
330
5
100
AcDbSymbolTableRecord
100
AcDbLinetypeTableRecord
  2
BYBLOCK
 70
     0
  3

 72
    65
 73
     0
 40
0.0
  0
LTYPE
  5
15
330
5
100
AcDbSymbolTableRecord
100
AcDbLinetypeTableRecord
  2
BYLAYER
 70
     0
  3

 72
    65
 73
     0
 40
0.0
  0
LTYPE
  5
16
330
5
100
AcDbSymbolTableRecord
100
AcDbLinetypeTableRecord
  2
CONTINUOUS
 70
     0
  3
Solid line
 72
    65
 73
     0
 40
0.0
  0
LTYPE
  5
50
330
5
100
AcDbSymbolTableRecord
100
AcDbLinetypeTableRecord
  2
AMCONSTR
 70
     0
  3
_______________________
 72
    65
 73
     2
 40
9999.0
 49
9999.0
 74
     0
 49
0.0
 74
     0
  0
LTYPE
  5
55
330
5
100
AcDbSymbolTableRecord
100
AcDbLinetypeTableRecord
  2
AMZIGZAG
 70
     0
  3
/\/-/\/-/\/-/\/-/\/-/\/
 72
    65
 73
     2
 40
11.00009999999999
 49
0.0001
 74
     4
 75
   135
340
54
 46
0.04
 50
0.0
 44
0.0
 45
0.0
 49
-11.0
 74
     0
  0
LTYPE
  5
56
330
5
100
AcDbSymbolTableRecord
100
AcDbLinetypeTableRecord
  2
AM_DIN_F_W050
 70
     0
  3
__ __ __ __ __ __ __ __ __ __ __ __ __ __ __
 72
    65
 73
     2
 40
6.25
 49
4.75
 74
     0
 49
-1.5
 74
     0
  0
LTYPE
  5
57
330
5
100
AcDbSymbolTableRecord
100
AcDbLinetypeTableRecord
  2
AM_DIN_G_W050
 70
     0
  3
____ . ____ . ____ . ____ . ____ . ____ . ____
 72
    65
 73
     4
 40
13.75
 49
9.75
 74
     0
 49
-1.5
 74
     0
 49
1.0
 74
     0
 49
-1.5
 74
     0
  0
LTYPE
  5
58
330
5
100
AcDbSymbolTableRecord
100
AcDbLinetypeTableRecord
  2
AM_DIN_K_W050
 70
     0
  3
_____ . . _____ . . _____ . . ____ .. ____
 72
    65
 73
     6
 40
16.25
 49
9.75
 74
     0
 49
-1.5
 74
     0
 49
1.0
 74
     0
 49
-1.5
 74
     0
 49
1.0
 74
     0
 49
-1.5
 74
     0
  0
LTYPE
  5
59
330
5
100
AcDbSymbolTableRecord
100
AcDbLinetypeTableRecord
  2
AM_DIN_G_W050X2
 70
     0
  3
__ . __ . __ . __ . __ . __
 72
    65
 73
     4
 40
6.875
 49
4.75
 74
     0
 49
-0.875
 74
     0
 49
0.375
 74
     0
 49
-0.875
 74
     0
  0
LTYPE
  5
5A
330
5
100
AcDbSymbolTableRecord
100
AcDbLinetypeTableRecord
  2
AM_DIN_F_W050X2
 70
     0
  3
 _ _ _ _ _ _ _ _ _ _ _ _
 72
    65
 73
     2
 40
3.125
 49
2.25
 74
     0
 49
-0.875
 74
     0
  0
LTYPE
  5
68
330
5
100
AcDbSymbolTableRecord
100
AcDbLinetypeTableRecord
  2
ACDINWELD
 70
     0
  3
_ _ _ _ _
 72
    65
 73
     2
 40
2.0
 49
2.0
 74
     0
 49
-1.0
 74
     0
  0
LTYPE
  5
69
330
5
100
AcDbSymbolTableRecord
100
AcDbLinetypeTableRecord
  2
ACDINTGB
 70
     0
  3
__ . . __ . .
 72
    65
 73
     6
 40
9.0
 49
4.0
 74
     0
 49
-1.0
 74
     0
 49
1.0
 74
     0
 49
-1.0
 74
     0
 49
1.0
 74
     0
 49
-1.0
 74
     0
  0
LTYPE
  5
6A
330
5
100
AcDbSymbolTableRecord
100
AcDbLinetypeTableRecord
  2
ACDINTGL
 70
     0
  3
_ _ _ _ _
 72
    65
 73
     2
 40
3.0
 49
2.0
 74
     0
 49
-1.0
 74
     0
  0
LTYPE
  5
6C
330
5
100
AcDbSymbolTableRecord
100
AcDbLinetypeTableRecord
  2
CENTER
 70
     0
  3
__ . __
 72
    65
 73
     4
 40
7.0
 49
4.0
 74
     0
 49
-1.0
 74
     0
 49
1.0
 74
     0
 49
-1.0
 74
     0
  0
LTYPE
  5
1E2C
330
5
100
AcDbSymbolTableRecord
100
AcDbLinetypeTableRecord
  2
PHANTOM2
 70
     0
  3
Phantom (.5x) ___ _ _ ___ _ _ ___ _ _ ___ _ _
 72
    65
 73
     6
 40
1.25
 49
0.625
 74
     0
 49
-0.125
 74
     0
 49
0.125
 74
     0
 49
-0.125
 74
     0
 49
0.125
 74
     0
 49
-0.125
 74
     0
  0
LTYPE
  5
1E2D
330
5
100
AcDbSymbolTableRecord
100
AcDbLinetypeTableRecord
  2
ACANSTGB
 70
     0
  3
__ . . __ . .
 72
    65
 73
     6
 40
0.35433070866
 49
0.15748031496
 74
     0
 49
-0.03937007874
 74
     0
 49
0.03937007874
 74
     0
 49
-0.03937007874
 74
     0
 49
0.03937007874
 74
     0
 49
-0.03937007874
 74
     0
  0
LTYPE
  5
1E2E
330
5
100
AcDbSymbolTableRecord
100
AcDbLinetypeTableRecord
  2
ACANSTGL
 70
     0
  3
_ _ _ _ _
 72
    65
 73
     2
 40
0.11811023622
 49
0.07874015748
 74
     0
 49
-0.03937007874
 74
     0
  0
LTYPE
  5
1E2F
330
5
100
AcDbSymbolTableRecord
100
AcDbLinetypeTableRecord
  2
DASHED
 70
     0
  3
__ __ __ __ __ __ __ __ __ __ __ __ __ __ __ __
 72
    65
 73
     2
 40
19.05
 49
12.7
 74
     0
 49
-6.349999999999998
 74
     0
  0
ENDTAB
  0
TABLE
  2
LAYER
  5
2
330
0
100
AcDbSymbolTable
 70
    11
  0
LAYER
  5
10
330
2
100
AcDbSymbolTableRecord
100
AcDbLayerTableRecord
  2
0
 70
     0
 62
     7
  6
CONTINUOUS
  0
LAYER
  5
263
330
2
100
AcDbSymbolTableRecord
100
AcDbLayerTableRecord
  2
DEFPOINTS
 70
     0
 62
     7
  6
CONTINUOUS
  0
LAYER
  5
1E30
330
2
100
AcDbSymbolTableRecord
100
AcDbLayerTableRecord
  2
1
 70
     0
 62
     4
  6
CONTINUOUS
  0
LAYER
  5
1E31
330
2
100
AcDbSymbolTableRecord
100
AcDbLayerTableRecord
  2
2
 70
     0
 62
     7
  6
CONTINUOUS
  0
LAYER
  5
1E32
330
2
100
AcDbSymbolTableRecord
100
AcDbLayerTableRecord
  2
4
 70
     0
 62
     2
  6
CENTER
  0
LAYER
  5
1E33
330
2
100
AcDbSymbolTableRecord
100
AcDbLayerTableRecord
  2
6
 70
     0
 62
     5
  6
CONTINUOUS
  0
LAYER
  5
1E34
330
2
100
AcDbSymbolTableRecord
100
AcDbLayerTableRecord
  2
SK1
 70
     0
 62
     4
  6
CONTINUOUS
  0
LAYER
  5
1E35
330
2
100
AcDbSymbolTableRecord
100
AcDbLayerTableRecord
  2
SK2
 70
     0
 62
     7
  6
CONTINUOUS
  0
LAYER
  5
1E36
330
2
100
AcDbSymbolTableRecord
100
AcDbLayerTableRecord
  2
SK3
 70
     0
 62
     1
  6
DASHED
  0
LAYER
  5
1E37
330
2
100
AcDbSymbolTableRecord
100
AcDbLayerTableRecord
  2
CUT
 70
     0
 62
     1
  6
CONTINUOUS
  0
LAYER
  5
1E38
330
2
100
AcDbSymbolTableRecord
100
AcDbLayerTableRecord
  2
NOCUT
 70
     0
 62
     7
  6
CONTINUOUS
  0
ENDTAB
  0
TABLE
  2
STYLE
  5
3
330
0
100
AcDbSymbolTable
 70
     6
  0
STYLE
  5
11
330
3
100
AcDbSymbolTableRecord
100
AcDbTextStyleTableRecord
  2
STANDARD
 70
     0
 40
0.0
 41
1.0
 50
0.0
 71
     0
 42
2.5
  3
ISOCP.SHX
  4

  0
STYLE
  5
54
330
3
100
AcDbSymbolTableRecord
100
AcDbTextStyleTableRecord
  2

 70
     1
 40
0.0
 41
1.0
 50
0.0
 71
     0
 42
2.5
  3
ltypeshp.shx
  4

  0
STYLE
  5
5B
330
3
100
AcDbSymbolTableRecord
100
AcDbTextStyleTableRecord
  2
ACDINTS
 70
     0
 40
1.0
 41
1.0
 50
0.0
 71
     0
 42
2.5
  3
isocp.shx
  4

  0
STYLE
  5
67
330
3
100
AcDbSymbolTableRecord
100
AcDbTextStyleTableRecord
  2
ACDINGDT
 70
     0
 40
0.0
 41
1.0
 50
0.0
 71
     0
 42
2.5
  3
amgdt.shx
  4

  0
STYLE
  5
1E39
330
3
100
AcDbSymbolTableRecord
100
AcDbTextStyleTableRecord
  2
ACANSTS
 70
     0
 40
1.0
 41
1.0
 50
0.0
 71
     0
 42
0.2
  3
romans.shx
  4

  0
STYLE
  5
1E3A
330
3
100
AcDbSymbolTableRecord
100
AcDbTextStyleTableRecord
  2
ACANSGDT
 70
     0
 40
0.0
 41
1.0
 50
0.0
 71
     0
 42
0.2
  3
amgdtans.shx
  4

  0
ENDTAB
  0
TABLE
  2
VIEW
  5
6
330
0
100
AcDbSymbolTable
 70
     0
  0
ENDTAB
  0
TABLE
  2
UCS
  5
7
330
0
100
AcDbSymbolTable
 70
     0
  0
ENDTAB
  0
TABLE
  2
APPID
  5
9
330
0
100
AcDbSymbolTable
 70
    53
  0
APPID
  5
12
330
9
100
AcDbSymbolTableRecord
100
AcDbRegAppTableRecord
  2
ACAD
 70
     0
  0
APPID
  5
2C
330
9
100
AcDbSymbolTableRecord
100
AcDbRegAppTableRecord
  2
MCAD_NO_VIS
 70
     0
  0
APPID
  5
2D
330
9
100
AcDbSymbolTableRecord
100
AcDbRegAppTableRecord
  2
ACAD_TEMP_GRAPHIC
 70
     0
  0
APPID
  5
3E
330
9
100
AcDbSymbolTableRecord
100
AcDbRegAppTableRecord
  2
ACATTRIBSERVICES
 70
     0
  0
APPID
  5
29A
330
9
100
AcDbSymbolTableRecord
100
AcDbRegAppTableRecord
  2
GENIUS_GENDIMSH_14
 70
     0
  0
APPID
  5
588
330
9
100
AcDbSymbolTableRecord
100
AcDbRegAppTableRecord
  2
GENIUS12
 70
     0
  0
APPID
  5
589
330
9
100
AcDbSymbolTableRecord
100
AcDbRegAppTableRecord
  2
GENIUS_GENOENT_13
 70
     0
  0
APPID
  5
58A
330
9
100
AcDbSymbolTableRecord
100
AcDbRegAppTableRecord
  2
GENIUS_GENODEF_13
 70
     0
  0
APPID
  5
58B
330
9
100
AcDbSymbolTableRecord
100
AcDbRegAppTableRecord
  2
GENIUS_GENOBJ-N-RSBK_13
 70
     0
  0
APPID
  5
58C
330
9
100
AcDbSymbolTableRecord
100
AcDbRegAppTableRecord
  2
GENIUS_GENOBJ-N-DIM12_13
 70
     0
  0
APPID
  5
58D
330
9
100
AcDbSymbolTableRecord
100
AcDbRegAppTableRecord
  2
GENIUS_GENSCALE_13
 70
     0
  0
APPID
  5
58E
330
9
100
AcDbSymbolTableRecord
100
AcDbRegAppTableRecord
  2
GENIUS_GENCFG_13
 70
     0
  0
APPID
  5
58F
330
9
100
AcDbSymbolTableRecord
100
AcDbRegAppTableRecord
  2
GENIUS_GENCFG0_13
 70
     0
  0
APPID
  5
590
330
9
100
AcDbSymbolTableRecord
100
AcDbRegAppTableRecord
  2
GENIUS_GENCFG1_13
 70
     0
  0
APPID
  5
591
330
9
100
AcDbSymbolTableRecord
100
AcDbRegAppTableRecord
  2
GENIUS_GENCFG2_13
 70
     0
  0
APPID
  5
592
330
9
100
AcDbSymbolTableRecord
100
AcDbRegAppTableRecord
  2
GENIUS_GENCFG3_13
 70
     0
  0
APPID
  5
593
330
9
100
AcDbSymbolTableRecord
100
AcDbRegAppTableRecord
  2
GENIUS_GENCFG4_13
 70
     0
  0
APPID
  5
594
330
9
100
AcDbSymbolTableRecord
100
AcDbRegAppTableRecord
  2
GENIUS_GEVCFG0_13
 70
     0
  0
APPID
  5
595
330
9
100
AcDbSymbolTableRecord
100
AcDbRegAppTableRecord
  2
GENIUS_GENOBJ-F-SUF_13
 70
     0
  0
APPID
  5
596
330
9
100
AcDbSymbolTableRecord
100
AcDbRegAppTableRecord
  2
GENIUS_GEFCFG0_13
 70
     0
  0
APPID
  5
597
330
9
100
AcDbSymbolTableRecord
100
AcDbRegAppTableRecord
  2
GEV_VCCNULL_SWITCH_OFF
 70
     0
  0
APPID
  5
598
330
9
100
AcDbSymbolTableRecord
100
AcDbRegAppTableRecord
  2
GENIUS_GENDTOL_13
 70
     0
  0
APPID
  5
599
330
9
100
AcDbSymbolTableRecord
100
AcDbRegAppTableRecord
  2
GENIUS_GENDIM_13
 70
     0
  0
APPID
  5
59A
330
9
100
AcDbSymbolTableRecord
100
AcDbRegAppTableRecord
  2
GENIUS_GE3DTOL_13
 70
     0
  0
APPID
  5
59B
330
9
100
AcDbSymbolTableRecord
100
AcDbRegAppTableRecord
  2
AD_DRAW
 70
     0
  0
APPID
  5
59C
330
9
100
AcDbSymbolTableRecord
100
AcDbRegAppTableRecord
  2
ASURF_PCURVE_APPNAME
 70
     0
  0
APPID
  5
59D
330
9
100
AcDbSymbolTableRecord
100
AcDbRegAppTableRecord
  2
AMG_3D2D_5_0
 70
     0
  0
APPID
  5
59E
330
9
100
AcDbSymbolTableRecord
100
AcDbRegAppTableRecord
  2
DESIGNERASSEMBLIES
 70
     0
  0
APPID
  5
59F
330
9
100
AcDbSymbolTableRecord
100
AcDbRegAppTableRecord
  2
ACADM_DIM_EDIT
 70
     0
  0
APPID
  5
5A0
330
9
100
AcDbSymbolTableRecord
100
AcDbRegAppTableRecord
  2
AMDT_DM_ADJ
 70
     0
  0
APPID
  5
5A1
330
9
100
AcDbSymbolTableRecord
100
AcDbRegAppTableRecord
  2
GENIUS_GENSCREG_15
 70
     0
  0
APPID
  5
5A2
330
9
100
AcDbSymbolTableRecord
100
AcDbRegAppTableRecord
  2
GENIUS_GENOBJ-N-SDF_13
 70
     0
  0
APPID
  5
6E4
330
9
100
AcDbSymbolTableRecord
100
AcDbRegAppTableRecord
  2
GENIUS_GENOBJ-N-FIL_13
 70
     0
  0
APPID
  5
C65
330
9
100
AcDbSymbolTableRecord
100
AcDbRegAppTableRecord
  2
GENIUS_GENHINW_13
 70
     0
  0
APPID
  5
C66
330
9
100
AcDbSymbolTableRecord
100
AcDbRegAppTableRecord
  2
GENIUS_GENOBJ-F-TOLL_13
 70
     0
  0
APPID
  5
C67
330
9
100
AcDbSymbolTableRecord
100
AcDbRegAppTableRecord
  2
GENIUS_GENOREF_13
 70
     0
  0
APPID
  5
C68
330
9
100
AcDbSymbolTableRecord
100
AcDbRegAppTableRecord
  2
GENIUS_GENOLIS_13
 70
     0
  0
APPID
  5
C69
330
9
100
AcDbSymbolTableRecord
100
AcDbRegAppTableRecord
  2
GENIUS_GEFTOLC_13
 70
     0
  0
APPID
  5
C6A
330
9
100
AcDbSymbolTableRecord
100
AcDbRegAppTableRecord
  2
GENIUS_GENOBJ-F-TOL_13
 70
     0
  0
APPID
  5
C6B
330
9
100
AcDbSymbolTableRecord
100
AcDbRegAppTableRecord
  2
GENIUS_GENOBJ-N-RSSYM_13
 70
     0
  0
APPID
  5
C6C
330
9
100
AcDbSymbolTableRecord
100
AcDbRegAppTableRecord
  2
GENIUS_GENSYMENT_13
 70
     0
  0
APPID
  5
C6D
330
9
100
AcDbSymbolTableRecord
100
AcDbRegAppTableRecord
  2
GENIUS_GENSCSYM_13
 70
     0
  0
APPID
  5
1E42
330
9
100
AcDbSymbolTableRecord
100
AcDbRegAppTableRecord
  2
GENIUS_GENBLLY_14
 70
     0
  0
APPID
  5
1E43
330
9
100
AcDbSymbolTableRecord
100
AcDbRegAppTableRecord
  2
GENIUS_GENTRA_14
 70
     0
  0
APPID
  5
1E44
330
9
100
AcDbSymbolTableRecord
100
AcDbRegAppTableRecord
  2
GENIUS_GENOBJ-N-TIT_13
 70
     0
  0
APPID
  5
1E45
330
9
100
AcDbSymbolTableRecord
100
AcDbRegAppTableRecord
  2
GENIUS_GENTITLE_13
 70
     0
  0
APPID
  5
1E46
330
9
100
AcDbSymbolTableRecord
100
AcDbRegAppTableRecord
  2
ACADIGES
 70
     0
  0
APPID
  5
1E47
330
9
100
AcDbSymbolTableRecord
100
AcDbRegAppTableRecord
  2
GENIUS_GENOBJ-N-HTC_13
 70
     0
  0
APPID
  5
1E48
330
9
100
AcDbSymbolTableRecord
100
AcDbRegAppTableRecord
  2
GENIUS_GENHATCH_13
 70
     0
  0
APPID
  5
1E49
330
9
100
AcDbSymbolTableRecord
100
AcDbRegAppTableRecord
  2
GENIUS_GENOBJ-N-CRS_13
 70
     0
  0
APPID
  5
1E4A
330
9
100
AcDbSymbolTableRecord
100
AcDbRegAppTableRecord
  2
GENIUS_GENFIL_13
 70
     0
  0
APPID
  5
1E4B
330
9
100
AcDbSymbolTableRecord
100
AcDbRegAppTableRecord
  2
GENIUS_GENOBJ-N-CHA_13
 70
     0
  0
APPID
  5
1E4C
330
9
100
AcDbSymbolTableRecord
100
AcDbRegAppTableRecord
  2
GENIUS_GENOBJ-N-CEN_13
 70
     0
  0
ENDTAB
  0
TABLE
  2
DIMSTYLE
  5
A
330
0
100
AcDbSymbolTable
 70
    14
  0
DIMSTYLE
105
6F
102
{ACAD_REACTORS
330
1A75
330
1A77
330
20A1
330
210E
330
2844
102
}
330
A
100
AcDbSymbolTableRecord
100
AcDbDimStyleTableRecord
  2
AM_DIN
 70
     0
  3

  4
"
  5

  6

  7

 40
1.0
 41
2.5
 42
0.0
 43
10.0
 44
1.0
 45
0.0
 46
0.0
 47
0.1
 48
0.1
140
3.5
141
0.0
142
0.0
143
0.0393701
144
1.0
145
0.0
146
0.71
147
1.5
 71
     0
 72
     0
 73
     0
 74
     0
 75
     0
 76
     0
 77
     1
 78
     8
170
     0
171
     2
172
     1
173
     0
174
     0
175
     0
176
   256
177
   256
178
     2
270
     2
271
     2
272
     2
273
     2
274
     2
340
11
275
     0
280
     0
281
     0
282
     0
283
     0
284
     8
285
     0
286
     0
287
     3
288
     0
  0
DIMSTYLE
105
70
330
A
100
AcDbSymbolTableRecord
100
AcDbDimStyleTableRecord
  2
AM_DIN$3
 70
     0
  3

  4
"
  5

  6

  7

 40
1.0
 41
3.5
 42
0.0
 43
10.0
 44
1.0
 45
0.0
 46
0.0
 47
0.1
 48
0.1
140
3.5
141
0.0
142
0.0
143
0.0393701
144
1.0
145
0.0
146
0.71
147
1.5
 71
     0
 72
     0
 73
     0
 74
     1
 75
     0
 76
     0
 77
     1
 78
     8
170
     0
171
     2
172
     0
173
     0
174
     0
175
     0
176
   256
177
   256
178
     2
270
     2
271
     2
272
     2
273
     2
274
     2
340
11
275
     0
280
     0
281
     0
282
     0
283
     0
284
     8
285
     0
286
     0
287
     0
288
     1
  0
DIMSTYLE
105
71
330
A
100
AcDbSymbolTableRecord
100
AcDbDimStyleTableRecord
  2
AM_DIN$4
 70
     0
  3

  4
"
  5

  6

  7

 40
1.0
 41
3.5
 42
0.0
 43
10.0
 44
1.0
 45
0.0
 46
0.0
 47
0.1
 48
0.1
140
3.5
141
0.0
142
0.0
143
0.0393701
144
1.0
145
0.0
146
0.71
147
1.5
 71
     0
 72
     0
 73
     0
 74
     1
 75
     0
 76
     0
 77
     1
 78
     8
170
     0
171
     2
172
     0
173
     0
174
     0
175
     0
176
   256
177
   256
178
     2
270
     2
271
     2
272
     2
273
     2
274
     2
340
11
275
     0
280
     0
281
     0
282
     0
283
     0
284
     8
285
     0
286
     0
287
     0
288
     1
  0
DIMSTYLE
105
72
330
A
100
AcDbSymbolTableRecord
100
AcDbDimStyleTableRecord
  2
AM_DIN$6
 70
     0
  3

  4
"
  5

  6

  7

 40
1.0
 41
3.5
 42
0.0
 43
0.0
 44
1.0
 45
0.0
 46
0.0
 47
0.1
 48
0.1
140
3.5
141
0.0
142
0.0
143
0.0393701
144
1.0
145
0.0
146
0.71
147
1.5
 71
     0
 72
     0
 73
     0
 74
     0
 75
     0
 76
     0
 77
     0
 78
     8
170
     0
171
     2
172
     1
173
     0
174
     0
175
     0
176
   256
177
   256
178
     2
270
     2
271
     2
272
     2
273
     2
274
     2
340
11
275
     0
280
     0
281
     0
282
     0
283
     0
284
     8
285
     0
286
     0
287
     3
288
     0
  0
DIMSTYLE
105
73
330
A
100
AcDbSymbolTableRecord
100
AcDbDimStyleTableRecord
  2
AM_DIN$7
 70
     0
  3

  4
"
  5

  6

  7

 40
1.0
 41
3.5
 42
0.0
 43
10.0
 44
1.0
 45
0.0
 46
0.0
 47
0.1
 48
0.1
140
3.5
141
0.0
142
0.0
143
0.0393701
144
1.0
145
0.0
146
0.71
147
1.5
 71
     0
 72
     0
 73
     0
 74
     0
 75
     0
 76
     0
 77
     1
 78
     8
170
     0
171
     2
172
     1
173
     0
174
     0
175
     0
176
   256
177
   256
178
     2
270
     2
271
     2
272
     2
273
     2
274
     2
340
11
275
     0
280
     0
281
     0
282
     0
283
     0
284
     8
285
     0
286
     0
287
     3
288
     0
  0
DIMSTYLE
105
74
330
A
100
AcDbSymbolTableRecord
100
AcDbDimStyleTableRecord
  2
AM_DIN$SF
 70
     0
  3

  4
"
  5

  6

  7

 40
1.0
 41
2.5
 42
1.0
 43
10.0
 44
1.0
 45
0.0
 46
0.0
 47
0.1
 48
0.1
140
3.5
141
0.0
142
0.0
143
0.0393701
144
1.0
145
0.0
146
0.71
147
1.5
 71
     0
 72
     0
 73
     0
 74
     0
 75
     1
 76
     1
 77
     1
 78
     8
170
     0
171
     2
172
     1
173
     0
174
     0
175
     0
176
   256
177
   256
178
     2
270
     2
271
     2
272
     3
273
     2
274
     4
340
11
275
     0
280
     0
281
     0
282
     0
283
     0
284
     8
285
     0
286
     0
287
     3
288
     0
  0
DIMSTYLE
105
79
330
A
100
AcDbSymbolTableRecord
100
AcDbDimStyleTableRecord
  2
AM_DIN$SH
 70
     0
  3

  4
"
  5

  6
GENAXEH
  7

 40
1.0
 41
2.5
 42
1.0
 43
10.0
 44
1.0
 45
0.0
 46
0.0
 47
0.1
 48
0.1
140
3.5
141
0.0
142
0.0
143
0.0393701
144
2.0
145
0.0
146
0.71
147
1.5
 71
     0
 72
     0
 73
     0
 74
     0
 75
     1
 76
     1
 77
     1
 78
     8
170
     0
171
     2
172
     1
173
     1
174
     0
175
     0
176
   256
177
   256
178
     2
270
     2
271
     2
272
     3
273
     2
274
     4
340
11
275
     0
280
     0
281
     0
282
     0
283
     0
284
     8
285
     0
286
     0
287
     3
288
     0
  0
DIMSTYLE
105
1E3B
330
A
100
AcDbSymbolTableRecord
100
AcDbDimStyleTableRecord
  2
STANDARD
 70
     0
  3

  4

  5

  6

  7

 40
1.0
 41
0.18
 42
0.0625
 43
0.38
 44
0.18
 45
0.0
 46
0.0
 47
0.0
 48
0.0
140
0.18
141
0.09
142
0.0
143
25.4
144
1.0
145
0.0
146
1.0
147
0.09
 71
     0
 72
     0
 73
     1
 74
     1
 75
     0
 76
     0
 77
     0
 78
     0
170
     0
171
     2
172
     0
173
     0
174
     0
175
     0
176
     0
177
     0
178
     0
270
     2
271
     2
272
     2
273
     2
274
     2
340
11
275
     0
280
     0
281
     0
282
     0
283
     1
284
     8
285
     8
286
     8
287
     5
288
     0
  0
DIMSTYLE
105
1E3C
330
A
100
AcDbSymbolTableRecord
100
AcDbDimStyleTableRecord
  2
AM_ANSI
 70
     0
  3

  4
mm
  5

  6

  7

 40
1.0
 41
0.1
 42
0.0
 43
0.5
 44
0.1
 45
0.0
 46
0.0
 47
0.1
 48
0.1
140
0.12
141
0.0
142
0.0
143
25.4
144
1.0
145
0.0
146
0.71
147
0.06
 71
     0
 72
     0
 73
     1
 74
     1
 75
     0
 76
     0
 77
     0
 78
     7
170
     0
171
     2
172
     0
173
     0
174
     0
175
     0
176
   256
177
   256
178
     2
270
     2
271
     2
272
     2
273
     2
274
     2
340
11
275
     0
280
     0
281
     0
282
     0
283
     1
284
     8
285
     8
286
     8
287
     5
288
     0
  0
DIMSTYLE
105
1E3D
330
A
100
AcDbSymbolTableRecord
100
AcDbDimStyleTableRecord
  2
AM_ANSI$3
 70
     0
  3

  4
mm
  5

  6

  7

 40
1.0
 41
0.1
 42
0.0
 43
0.5
 44
0.1
 45
0.0
 46
0.0
 47
0.1
 48
0.1
140
0.12
141
0.0
142
0.0
143
25.4
144
1.0
145
0.0
146
0.71
147
0.06
 71
     0
 72
     0
 73
     1
 74
     1
 75
     0
 76
     0
 77
     0
 78
     7
170
     0
171
     2
172
     0
173
     0
174
     0
175
     0
176
   256
177
   256
178
     2
270
     2
271
     2
272
     2
273
     2
274
     2
340
11
275
     0
280
     0
281
     0
282
     0
283
     1
284
     8
285
     8
286
     8
287
     5
288
     0
  0
DIMSTYLE
105
1E3E
330
A
100
AcDbSymbolTableRecord
100
AcDbDimStyleTableRecord
  2
AM_ANSI$4
 70
     0
  3

  4
mm
  5

  6

  7

 40
1.0
 41
0.1
 42
0.0
 43
0.5
 44
0.1
 45
0.0
 46
0.0
 47
0.1
 48
0.1
140
0.12
141
0.0
142
0.0
143
25.4
144
1.0
145
0.0
146
0.71
147
0.06
 71
     0
 72
     0
 73
     1
 74
     1
 75
     0
 76
     0
 77
     0
 78
     7
170
     0
171
     2
172
     0
173
     0
174
     0
175
     0
176
   256
177
   256
178
     2
270
     2
271
     2
272
     2
273
     2
274
     2
340
11
275
     0
280
     0
281
     0
282
     0
283
     1
284
     8
285
     8
286
     8
287
     5
288
     0
  0
DIMSTYLE
105
1E3F
330
A
100
AcDbSymbolTableRecord
100
AcDbDimStyleTableRecord
  2
AM_ANSI$7
 70
     0
  3

  4
mm
  5

  6

  7

 40
1.0
 41
0.1
 42
0.0
 43
0.5
 44
0.1
 45
0.0
 46
0.0
 47
0.1
 48
0.1
140
0.24
141
0.0
142
0.0
143
25.4
144
1.0
145
0.0
146
0.71
147
0.06
 71
     0
 72
     0
 73
     1
 74
     1
 75
     0
 76
     0
 77
     0
 78
     7
170
     0
171
     2
172
     0
173
     0
174
     0
175
     0
176
   256
177
   256
178
     2
270
     2
271
     2
272
     2
273
     2
274
     2
340
11
275
     0
280
     0
281
     0
282
     0
283
     1
284
     8
285
     8
286
     8
287
     5
288
     0
  0
DIMSTYLE
105
1E40
330
A
100
AcDbSymbolTableRecord
100
AcDbDimStyleTableRecord
  2
AM_ANSI$SF
 70
     0
  3

  4
mm
  5

  6

  7

 40
1.0
 41
0.1
 42
0.05
 43
0.5
 44
0.1
 45
0.0
 46
0.0
 47
0.1
 48
0.1
140
0.12
141
0.0
142
0.0
143
25.4
144
1.0
145
0.0
146
0.71
147
0.06
 71
     0
 72
     0
 73
     1
 74
     1
 75
     1
 76
     1
 77
     0
 78
     7
170
     0
171
     2
172
     0
173
     0
174
     0
175
     0
176
   256
177
   256
178
     2
270
     2
271
     2
272
     2
273
     2
274
     2
340
11
275
     0
280
     0
281
     0
282
     0
283
     1
284
     8
285
     8
286
     8
287
     5
288
     0
  0
DIMSTYLE
105
1E41
330
A
100
AcDbSymbolTableRecord
100
AcDbDimStyleTableRecord
  2
AM_ANSI$SH
 70
     0
  3

  4
mm
  5

  6

  7

 40
1.0
 41
0.1
 42
0.05
 43
0.5
 44
0.1
 45
0.0
 46
0.0
 47
0.1
 48
0.1
140
0.12
141
0.0
142
0.0
143
25.4
144
1.0
145
0.0
146
0.71
147
0.06
 71
     0
 72
     0
 73
     1
 74
     1
 75
     1
 76
     1
 77
     0
 78
     7
170
     0
171
     2
172
     0
173
     1
174
     0
175
     0
176
   256
177
   256
178
     2
270
     2
271
     2
272
     2
273
     2
274
     2
340
11
275
     0
280
     0
281
     0
282
     0
283
     1
284
     8
285
     8
286
     8
287
     5
288
     0
  0
ENDTAB
  0
TABLE
  2
BLOCK_RECORD
  5
1
330
0
100
AcDbSymbolTable
 70
     7
  0
BLOCK_RECORD
  5
1F
102
{ACAD_XDICTIONARY
360
1F1
102
}
330
1
100
AcDbSymbolTableRecord
100
AcDbBlockTableRecord
  2
*MODEL_SPACE
  0
BLOCK_RECORD
  5
1B
102
{ACAD_XDICTIONARY
360
28DD
102
}
330
1
100
AcDbSymbolTableRecord
100
AcDbBlockTableRecord
  2
*PAPER_SPACE
  0
BLOCK_RECORD
  5
75
330
1
100
AcDbSymbolTableRecord
100
AcDbBlockTableRecord
  2
GENAXEH
  0
BLOCK_RECORD
  5
1A91
330
1
100
AcDbSymbolTableRecord
100
AcDbBlockTableRecord
  2
*D2
  0
BLOCK_RECORD
  5
1AA9
330
1
100
AcDbSymbolTableRecord
100
AcDbBlockTableRecord
  2
*D3
  0
BLOCK_RECORD
  5
20A2
330
1
100
AcDbSymbolTableRecord
100
AcDbBlockTableRecord
  2
*D4
  0
BLOCK_RECORD
  5
210F
330
1
100
AcDbSymbolTableRecord
100
AcDbBlockTableRecord
  2
*D5
  0
BLOCK_RECORD
  5
2861
330
1
100
AcDbSymbolTableRecord
100
AcDbBlockTableRecord
  2
*D6
  0
ENDTAB
  0
ENDSEC
  0
SECTION
  2
BLOCKS
  0
BLOCK
  5
20
330
1F
100
AcDbEntity
  8
0
100
AcDbBlockBegin
  2
*MODEL_SPACE
 70
     0
 10
0.0
 20
0.0
 30
0.0
  3
*MODEL_SPACE
  1

  0
ENDBLK
  5
21
330
1F
100
AcDbEntity
  8
0
100
AcDbBlockEnd
  0
BLOCK
  5
1C
330
1B
100
AcDbEntity
 67
     1
  8
0
100
AcDbBlockBegin
  2
*PAPER_SPACE
 70
     0
 10
0.0
 20
0.0
 30
0.0
  3
*PAPER_SPACE
  1

  0
ENDBLK
  5
1D
330
1B
100
AcDbEntity
 67
     1
  8
0
100
AcDbBlockEnd
  0
BLOCK
  5
77
330
75
100
AcDbEntity
  8
0
100
AcDbBlockBegin
  2
GENAXEH
 70
     0
 10
0.0
 20
0.0
 30
0.0
  3
GENAXEH
  1

  0
LINE
  5
76
330
75
100
AcDbEntity
  8
0
100
AcDbLine
 10
-1.0
 20
0.0
 30
0.0
 11
1.0
 21
0.0
 31
0.0
  0
ENDBLK
  5
78
330
75
100
AcDbEntity
  8
0
100
AcDbBlockEnd
  0
BLOCK
  5
1A9B
330
1A91
100
AcDbEntity
  8
0
100
AcDbBlockBegin
  2
*D2
 70
     1
 10
0.0
 20
0.0
 30
0.0
  3
*D2
  1

  0
LINE
  5
222A
330
1A91
100
AcDbEntity
  8
SK2
100
AcDbLine
 10
0.0
 20
-10.99999999999977
 30
0.0
 11
-13.6340347691214
 21
-10.99999999999976
 31
0.0
  0
LINE
  5
222B
330
1A91
100
AcDbEntity
  8
SK2
100
AcDbLine
 10
0.0000000000000568
 20
11.00000000000022
 30
0.0
 11
-13.63403476912139
 21
11.00000000000023
 31
0.0
  0
LINE
  5
222C
330
1A91
100
AcDbEntity
  8
SK2
100
AcDbLine
 10
-12.6340347691214
 20
-8.499999999999769
 30
0.0
 11
-12.6340347691214
 21
8.50000000000023
 31
0.0
  0
SOLID
  5
222D
330
1A91
100
AcDbEntity
  8
SK2
100
AcDbTrace
 10
-13.05070143578807
 20
-8.499999999999769
 30
0.0
 11
-12.21736810245473
 21
-8.499999999999769
 31
0.0
 12
-12.6340347691214
 22
-10.99999999999976
 32
0.0
 13
-12.6340347691214
 23
-10.99999999999976
 33
0.0
  0
SOLID
  5
222E
330
1A91
100
AcDbEntity
  8
SK2
100
AcDbTrace
 10
-13.05070143578806
 20
8.50000000000023
 30
0.0
 11
-12.21736810245473
 21
8.50000000000023
 31
0.0
 12
-12.6340347691214
 22
11.00000000000023
 32
0.0
 13
-12.6340347691214
 23
11.00000000000023
 33
0.0
  0
MTEXT
  5
222F
330
1A91
100
AcDbEntity
  8
SK2
 62
     2
100
AcDbMText
 10
-15.88437925731037
 20
0.0000000000002285
 30
0.0
 40
3.5
 41
0.0
 71
     5
 72
     1
  1
%%c22
 11
0.0000000000000001
 21
1.0
 31
0.0
1001
ACAD
1000
MTEXTBEGIN
1070
    73
1070
     1
1070
    44
1040
1.0
1070
    74
1070
     0
1000
MTEXTEND
  0
POINT
  5
2230
330
1A91
100
AcDbEntity
  8
DEFPOINTS
 62
     0
100
AcDbPoint
 10
0.0
 20
-10.99999999999977
 30
0.0
  0
POINT
  5
2231
330
1A91
100
AcDbEntity
  8
DEFPOINTS
 62
     0
100
AcDbPoint
 10
0.0000000000000568
 20
11.00000000000022
 30
0.0
  0
POINT
  5
2232
330
1A91
100
AcDbEntity
  8
DEFPOINTS
 62
     0
100
AcDbPoint
 10
-12.6340347691214
 20
11.00000000000023
 30
0.0
  0
ENDBLK
  5
1A9C
330
1A91
100
AcDbEntity
  8
0
100
AcDbBlockEnd
  0
BLOCK
  5
1AB3
330
1AA9
100
AcDbEntity
  8
0
100
AcDbBlockBegin
  2
*D3
 70
     1
 10
0.0
 20
0.0
 30
0.0
  3
*D3
  1

  0
LINE
  5
2221
330
1AA9
100
AcDbEntity
  8
SK2
100
AcDbLine
 10
2.000000000000056
 20
-22.49999999999977
 30
0.0
 11
-27.38536411985093
 21
-22.49999999999976
 31
0.0
  0
LINE
  5
2222
330
1AA9
100
AcDbEntity
  8
SK2
100
AcDbLine
 10
2.000000000000113
 20
22.50000000000019
 30
0.0
 11
-27.38536411985092
 21
22.5000000000002
 31
0.0
  0
LINE
  5
2223
330
1AA9
100
AcDbEntity
  8
SK2
100
AcDbLine
 10
-26.38536411985092
 20
-19.99999999999976
 30
0.0
 11
-26.38536411985092
 21
20.0000000000002
 31
0.0
  0
SOLID
  5
2224
330
1AA9
100
AcDbEntity
  8
SK2
100
AcDbTrace
 10
-26.80203078651759
 20
-19.99999999999976
 30
0.0
 11
-25.96869745318425
 21
-19.99999999999976
 31
0.0
 12
-26.38536411985092
 22
-22.49999999999976
 32
0.0
 13
-26.38536411985092
 23
-22.49999999999976
 33
0.0
  0
SOLID
  5
2225
330
1AA9
100
AcDbEntity
  8
SK2
100
AcDbTrace
 10
-26.80203078651758
 20
20.0000000000002
 30
0.0
 11
-25.96869745318425
 21
20.0000000000002
 31
0.0
 12
-26.38536411985092
 22
22.5000000000002
 32
0.0
 13
-26.38536411985092
 23
22.5000000000002
 33
0.0
  0
MTEXT
  5
2226
330
1AA9
100
AcDbEntity
  8
SK2
 62
     2
100
AcDbMText
 10
-29.63536411985092
 20
0.0000000000002152
 30
0.0
 40
3.5
 41
0.0
 71
     5
 72
     1
  1
%%c45
 11
0.0000000000000001
 21
1.0
 31
0.0
1001
ACAD
1000
MTEXTBEGIN
1070
    73
1070
     1
1070
    44
1040
1.0
1070
    74
1070
     0
1000
MTEXTEND
  0
POINT
  5
2227
330
1AA9
100
AcDbEntity
  8
DEFPOINTS
 62
     0
100
AcDbPoint
 10
2.000000000000056
 20
-22.49999999999977
 30
0.0
  0
POINT
  5
2228
330
1AA9
100
AcDbEntity
  8
DEFPOINTS
 62
     0
100
AcDbPoint
 10
2.000000000000113
 20
22.50000000000019
 30
0.0
  0
POINT
  5
2229
330
1AA9
100
AcDbEntity
  8
DEFPOINTS
 62
     0
100
AcDbPoint
 10
-26.38536411985092
 20
22.5000000000002
 30
0.0
  0
ENDBLK
  5
1AB4
330
1AA9
100
AcDbEntity
  8
0
100
AcDbBlockEnd
  0
BLOCK
  5
20AC
330
20A2
100
AcDbEntity
  8
0
100
AcDbBlockBegin
  2
*D4
 70
     1
 10
0.0
 20
0.0
 30
0.0
  3
*D4
  1

  0
LINE
  5
2247
330
20A2
100
AcDbEntity
  8
2
100
AcDbLine
 10
40.0
 20
25.00000000000019
 30
0.0
 11
59.55959346753606
 21
25.00000000000019
 31
0.0
  0
LINE
  5
2248
330
20A2
100
AcDbEntity
  8
2
100
AcDbLine
 10
40.0
 20
-24.9999999999998
 30
0.0
 11
59.55959346753605
 21
-24.9999999999998
 31
0.0
  0
LINE
  5
2249
330
20A2
100
AcDbEntity
  8
2
100
AcDbLine
 10
58.55959346753606
 20
22.50000000000019
 30
0.0
 11
58.55959346753604
 21
-22.4999999999998
 31
0.0
  0
SOLID
  5
224A
330
20A2
100
AcDbEntity
  8
2
100
AcDbTrace
 10
58.14292680086939
 20
22.50000000000019
 30
0.0
 11
58.97626013420272
 21
22.50000000000019
 31
0.0
 12
58.55959346753606
 22
25.00000000000019
 32
0.0
 13
58.55959346753606
 23
25.00000000000019
 33
0.0
  0
SOLID
  5
224B
330
20A2
100
AcDbEntity
  8
2
100
AcDbTrace
 10
58.14292680086938
 20
-22.4999999999998
 30
0.0
 11
58.97626013420271
 21
-22.4999999999998
 31
0.0
 12
58.55959346753604
 22
-24.9999999999998
 32
0.0
 13
58.55959346753604
 23
-24.9999999999998
 33
0.0
  0
MTEXT
  5
224C
330
20A2
100
AcDbEntity
  8
2
 62
     2
100
AcDbMText
 10
55.30959346753605
 20
0.0000000000002029
 30
0.0
 40
3.5
 41
0.0
 71
     5
 72
     1
  1
%%c50
 11
0.0000000000000001
 21
1.0
 31
0.0
1001
ACAD
1000
MTEXTBEGIN
1070
    73
1070
     1
1070
    44
1040
1.0
1070
    74
1070
     0
1000
MTEXTEND
  0
POINT
  5
224D
330
20A2
100
AcDbEntity
  8
DEFPOINTS
 62
     0
100
AcDbPoint
 10
40.0
 20
25.00000000000019
 30
0.0
  0
POINT
  5
224E
330
20A2
100
AcDbEntity
  8
DEFPOINTS
 62
     0
100
AcDbPoint
 10
40.0
 20
-24.9999999999998
 30
0.0
  0
POINT
  5
224F
330
20A2
100
AcDbEntity
  8
DEFPOINTS
 62
     0
100
AcDbPoint
 10
58.55959346753604
 20
-24.9999999999998
 30
0.0
  0
ENDBLK
  5
20AD
330
20A2
100
AcDbEntity
  8
0
100
AcDbBlockEnd
  0
BLOCK
  5
2119
330
210F
100
AcDbEntity
  8
0
100
AcDbBlockBegin
  2
*D5
 70
     1
 10
0.0
 20
0.0
 30
0.0
  3
*D5
  1

  0
LINE
  5
2233
330
210F
100
AcDbEntity
  8
2
100
AcDbLine
 10
40.0
 20
25.00000000000019
 30
0.0
 11
40.0
 21
76.0
 31
0.0
  0
LINE
  5
2234
330
210F
100
AcDbEntity
  8
2
100
AcDbLine
 10
0.0000000000001137
 20
20.50000000000019
 30
0.0
 11
0.0000000000001171
 21
76.0
 31
0.0
  0
LINE
  5
2235
330
210F
100
AcDbEntity
  8
2
100
AcDbLine
 10
37.5
 20
75.0
 30
0.0
 11
2.500000000000117
 21
75.0
 31
0.0
  0
SOLID
  5
2236
330
210F
100
AcDbEntity
  8
2
100
AcDbTrace
 10
37.5
 20
75.41666666666667
 30
0.0
 11
37.5
 21
74.58333333333333
 31
0.0
 12
40.0
 22
75.0
 32
0.0
 13
40.0
 23
75.0
 33
0.0
  0
SOLID
  5
2237
330
210F
100
AcDbEntity
  8
2
100
AcDbTrace
 10
2.500000000000117
 20
75.41666666666667
 30
0.0
 11
2.500000000000117
 21
74.58333333333333
 31
0.0
 12
0.000000000000117
 22
75.0
 32
0.0
 13
0.000000000000117
 23
75.0
 33
0.0
  0
MTEXT
  5
2238
330
210F
100
AcDbEntity
  8
2
 62
     2
100
AcDbMText
 10
20.00000000000005
 20
78.25
 30
0.0
 40
3.5
 41
0.0
 71
     5
 72
     1
  1
40
1001
ACAD
1000
MTEXTBEGIN
1070
    73
1070
     1
1070
    44
1040
1.0
1070
    74
1070
     0
1000
MTEXTEND
  0
POINT
  5
2239
330
210F
100
AcDbEntity
  8
DEFPOINTS
 62
     0
100
AcDbPoint
 10
40.0
 20
25.00000000000019
 30
0.0
  0
POINT
  5
223A
330
210F
100
AcDbEntity
  8
DEFPOINTS
 62
     0
100
AcDbPoint
 10
0.0000000000001137
 20
20.50000000000019
 30
0.0
  0
POINT
  5
223B
330
210F
100
AcDbEntity
  8
DEFPOINTS
 62
     0
100
AcDbPoint
 10
0.000000000000117
 20
75.0
 30
0.0
  0
ENDBLK
  5
211A
330
210F
100
AcDbEntity
  8
0
100
AcDbBlockEnd
  0
BLOCK
  5
286B
330
2861
100
AcDbEntity
  8
0
100
AcDbBlockBegin
  2
*D6
 70
     1
 10
0.0
 20
0.0
 30
0.0
  3
*D6
  1

  0
LINE
  5
289E
330
2861
100
AcDbEntity
  8
2
100
AcDbLine
 10
40.0
 20
25.00000000000019
 30
0.0
 11
40.0
 21
61.0
 31
0.0
  0
LINE
  5
289F
330
2861
100
AcDbEntity
  8
2
100
AcDbLine
 10
27.5
 20
25.00000000000019
 30
0.0
 11
27.5
 21
61.0
 31
0.0
  0
LINE
  5
28A0
330
2861
100
AcDbEntity
  8
2
100
AcDbLine
 10
37.5
 20
60.0
 30
0.0
 11
30.0
 21
60.0
 31
0.0
  0
SOLID
  5
28A1
330
2861
100
AcDbEntity
  8
2
100
AcDbTrace
 10
37.5
 20
60.41666666666666
 30
0.0
 11
37.5
 21
59.58333333333333
 31
0.0
 12
40.0
 22
60.0
 32
0.0
 13
40.0
 23
60.0
 33
0.0
  0
SOLID
  5
28A2
330
2861
100
AcDbEntity
  8
2
100
AcDbTrace
 10
30.0
 20
60.41666666666666
 30
0.0
 11
30.0
 21
59.58333333333333
 31
0.0
 12
27.5
 22
60.0
 32
0.0
 13
27.5
 23
60.0
 33
0.0
  0
MTEXT
  5
28A3
330
2861
100
AcDbEntity
  8
2
 62
     2
100
AcDbMText
 10
33.75
 20
63.25034448818898
 30
0.0
 40
3.5
 41
0.0
 71
     5
 72
     1
  1
12.5
1001
ACAD
1000
MTEXTBEGIN
1070
    73
1070
     1
1070
    44
1040
1.0
1070
    74
1070
     0
1000
MTEXTEND
  0
POINT
  5
28A4
330
2861
100
AcDbEntity
  8
DEFPOINTS
 62
     0
100
AcDbPoint
 10
40.0
 20
25.00000000000019
 30
0.0
  0
POINT
  5
28A5
330
2861
100
AcDbEntity
  8
DEFPOINTS
 62
     0
100
AcDbPoint
 10
27.5
 20
25.00000000000019
 30
0.0
  0
POINT
  5
28A6
330
2861
100
AcDbEntity
  8
DEFPOINTS
 62
     0
100
AcDbPoint
 10
27.5
 20
60.0
 30
0.0
  0
ENDBLK
  5
286C
330
2861
100
AcDbEntity
  8
0
100
AcDbBlockEnd
  0
ENDSEC
  0
SECTION
  2
ENTITIES
  0
DIMENSION
  5
1A75
330
1F
100
AcDbEntity
  8
SK2
100
AcDbDimension
  2
*D2
 10
-12.6340347691214
 20
11.00000000000023
 30
0.0
 11
-15.88437925731037
 21
0.0000000000002285
 31
0.0
 70
    32
  1
%%c<>
  3
AM_DIN
100
AcDbAlignedDimension
 13
0.0
 23
-10.99999999999977
 33
0.0
 14
0.0000000000000568
 24
11.00000000000022
 34
0.0
 50
270.0
100
AcDbRotatedDimension
  0
DIMENSION
  5
1A77
330
1F
100
AcDbEntity
  8
SK2
100
AcDbDimension
  2
*D3
 10
-26.38536411985092
 20
22.5000000000002
 30
0.0
 11
-29.63536411985092
 21
0.0000000000002152
 31
0.0
 70
    32
  1
%%c<>
  3
AM_DIN
100
AcDbAlignedDimension
 13
2.000000000000056
 23
-22.49999999999977
 33
0.0
 14
2.000000000000113
 24
22.50000000000019
 34
0.0
 50
270.0
100
AcDbRotatedDimension
  0
LINE
  5
1A78
330
1F
100
AcDbEntity
  8
SK1
100
AcDbLine
 10
6.300000000000068
 20
-5.199999999999789
 30
0.0
 11
6.300000000000068
 21
5.200000000000187
 31
0.0
  0
LINE
  5
1A79
330
1F
100
AcDbEntity
  8
SK3
 48
0.5
100
AcDbLine
 10
21.00000000000011
 20
-10.9999999999998
 30
0.0
 11
21.00000000000011
 21
11.00000000000019
 31
0.0
  0
LINE
  5
1A7A
330
1F
100
AcDbEntity
  8
SK3
 48
0.5
100
AcDbLine
 10
28.0
 20
-8.999999999996674
 30
0.0
 11
28.0
 21
9.000000000003296
 31
0.0
  0
LINE
  5
1A7C
330
1F
100
AcDbEntity
  8
SK3
 48
0.5
100
AcDbLine
 10
28.0
 20
9.000000000003296
 30
0.0
 11
38.9967948000837
 21
9.000000000003353
 31
0.0
  0
LINE
  5
1A7D
330
1F
100
AcDbEntity
  8
1
100
AcDbLine
 10
0.0
 20
5.200000000000187
 30
0.0
 11
0.0000000000001137
 21
20.50000000000019
 31
0.0
  0
LINE
  5
1A7F
330
1F
100
AcDbEntity
  8
1
100
AcDbLine
 10
2.000000000000113
 20
22.50000000000019
 30
0.0
 11
13.48087237763775
 21
22.50000000000019
 31
0.0
  0
ARC
  5
1A81
330
1F
100
AcDbEntity
  8
1
100
AcDbCircle
 10
2.00000000000017
 20
20.50000000000022
 30
0.0
 40
2.0
100
AcDbArc
 50
90.0
 51
180.0
1001
GENIUS_GENODEF_13
1002
{
1000
HIER
1070
     0
1002
}
1002
{
1000
MANEDIT
1070
     0
1002
}
1002
{
1000
NOSEL
1070
     0
1002
}
1002
{
1000
BEHIND
1070
     0
1002
}
1002
{
1000
OTHER
1070
     0
1002
}
1002
{
1000
REACTOR
1002
}
1001
GENIUS_GENOBJ-N-FIL_13
1002
{
1000
OWNER
1000
GEN
1002
}
  0
LINE
  5
1A82
330
1F
100
AcDbEntity
  8
SK3
 48
0.5
100
AcDbLine
 10
21.00000000000011
 20
11.00000000000019
 30
0.0
 11
0.0000000000000568
 21
11.00000000000022
 31
0.0
  0
LINE
  5
1A83
330
1F
100
AcDbEntity
  8
SK3
 48
0.5
100
AcDbLine
 10
21.00000000000011
 20
5.500000000003325
 30
0.0
 11
28.0
 21
5.500000000003325
 31
0.0
  0
LINE
  5
1A86
330
1F
100
AcDbEntity
  8
SK1
100
AcDbLine
 10
6.300000000000068
 20
5.200000000000187
 30
0.0
 11
0.0
 21
5.200000000000187
 31
0.0
  0
LINE
  5
1A87
330
1F
100
AcDbEntity
  8
SK3
 48
0.5
100
AcDbLine
 10
38.9967948000837
 20
-8.999999999996759
 30
0.0
 11
28.0
 21
-8.999999999996674
 31
0.0
  0
LINE
  5
1A88
330
1F
100
AcDbEntity
  8
1
100
AcDbLine
 10
0.0
 20
-20.49999999999977
 30
0.0
 11
0.0
 21
-5.199999999999789
 31
0.0
  0
LINE
  5
1A89
330
1F
100
AcDbEntity
  8
SK3
 48
0.5
100
AcDbLine
 10
0.0000000000000568
 20
-10.99999999999974
 30
0.0
 11
21.00000000000011
 21
-10.9999999999998
 31
0.0
  0
LINE
  5
1A8A
330
1F
100
AcDbEntity
  8
SK3
 48
0.5
100
AcDbLine
 10
21.00000000000011
 20
-5.499999999996674
 30
0.0
 11
28.0
 21
-5.499999999996646
 31
0.0
  0
LINE
  5
1A8B
330
1F
100
AcDbEntity
  8
SK1
100
AcDbLine
 10
0.0
 20
-5.199999999999789
 30
0.0
 11
6.300000000000068
 21
-5.199999999999789
 31
0.0
  0
ARC
  5
1A8F
330
1F
100
AcDbEntity
  8
1
100
AcDbCircle
 10
2.000000000000056
 20
-20.49999999999977
 30
0.0
 40
2.0
100
AcDbArc
 50
180.0
 51
270.0
1001
GENIUS_GENOBJ-N-FIL_13
1002
{
1000
OWNER
1000
GEN
1002
}
1001
GENIUS_GENODEF_13
1002
{
1000
HIER
1070
     0
1002
}
1002
{
1000
MANEDIT
1070
     0
1002
}
1002
{
1000
NOSEL
1070
     0
1002
}
1002
{
1000
BEHIND
1070
     0
1002
}
1002
{
1000
OTHER
1070
     0
1002
}
1002
{
1000
REACTOR
1002
}
  0
LINE
  5
1FF6
330
1F
100
AcDbEntity
  8
1
100
AcDbLine
 10
26.50580587159836
 20
24.27113434341697
 30
0.0
 11
15.2520067210545
 21
24.271134343417
 31
0.0
  0
LINE
  5
2001
330
1F
100
AcDbEntity
  8
SK1
100
AcDbLine
 10
40.0
 20
25.46376936984902
 30
0.0
 11
40.0
 21
24.53623063015138
 31
0.0
  0
LINE
  5
2004
330
1F
100
AcDbEntity
  8
SK1
100
AcDbLine
 10
39.53623063015129
 20
25.00000000000019
 30
0.0
 11
40.46376936984893
 21
25.00000000000019
 31
0.0
  0
CIRCLE
  5
2005
330
1F
100
AcDbEntity
  8
SK1
100
AcDbCircle
 10
40.0
 20
25.00000000000019
 30
0.0
 40
0.4637693698488208
  0
LINE
  5
2031
330
1F
100
AcDbEntity
  8
SK1
100
AcDbLine
 10
40.0
 20
-24.9999999999998
 30
0.0
 11
40.0
 21
-24.53623063015098
 31
0.0
  0
LINE
  5
2034
330
1F
100
AcDbEntity
  8
SK1
100
AcDbLine
 10
39.53623063015106
 20
-24.9999999999998
 30
0.0
 11
40.4637693698487
 21
-24.9999999999998
 31
0.0
  0
CIRCLE
  5
2035
330
1F
100
AcDbEntity
  8
SK1
100
AcDbCircle
 10
40.0
 20
-24.9999999999998
 30
0.0
 40
0.4637693698488208
  0
TEXT
  5
2038
330
1F
100
AcDbEntity
  8
6
100
AcDbText
 10
64.10950853580516
 20
-3.059425265138457
 30
0.0
 40
3.5
  1
Z=5
 50
90.0
100
AcDbText
  0
TEXT
  5
2039
330
1F
100
AcDbEntity
  8
6
100
AcDbText
 10
31.28585379577771
 20
-33.35024429736157
 30
0.0
 40
3.5
  1
2J1C050R00
100
AcDbText
  0
LINE
  5
204F
330
1F
100
AcDbEntity
  8
SK1
100
AcDbLine
 10
-3.200115174948678
 20
0.0
 30
0.0
 11
3.200115174948678
 21
0.0
 31
0.0
  0
CIRCLE
  5
2050
330
1F
100
AcDbEntity
  8
SK1
100
AcDbCircle
 10
0.0
 20
0.0
 30
0.0
 40
3.200115174948665
  0
LINE
  5
2051
330
1F
100
AcDbEntity
  8
SK1
100
AcDbLine
 10
0.0
 20
3.200115174948678
 30
0.0
 11
0.0
 21
-3.200115174948678
 31
0.0
  0
LINE
  5
2052
330
1F
100
AcDbEntity
  8
4
100
AcDbLine
 10
41.86111685705441
 20
-0.0000000000000284
 30
0.0
 11
0.0
 21
0.000000000000199
 31
0.0
  0
LINE
  5
2053
330
1F
100
AcDbEntity
  8
1
100
AcDbLine
 10
38.99679480008376
 20
20.51219587175692
 30
0.0
 11
38.99679480008376
 21
-18.20258113658798
 31
0.0
  0
LINE
  5
2062
330
1F
100
AcDbEntity
  8
1
100
AcDbLine
 10
13.48087237763775
 20
22.50000000000019
 30
0.0
 11
15.25200672105455
 21
24.271134343417
 31
0.0
  0
LINE
  5
2074
330
1F
100
AcDbEntity
  8
1
100
AcDbLine
 10
38.99679480008376
 20
-24.271134343417
 30
0.0
 11
28.39876294695429
 21
-24.2711343434169
 31
0.0
  0
LINE
  5
2075
330
1F
100
AcDbEntity
  8
1
100
AcDbLine
 10
13.48087237763746
 20
-22.49999999999994
 30
0.0
 11
15.25200672105427
 21
-24.27113434341677
 31
0.0
  0
LINE
  5
2076
330
1F
100
AcDbEntity
  8
1
100
AcDbLine
 10
1.999999999999829
 20
-22.4999999999998
 30
0.0
 11
13.48087237763746
 21
-22.49999999999994
 31
0.0
  0
DIMENSION
  5
20A1
330
1F
100
AcDbEntity
  8
2
100
AcDbDimension
  2
*D4
 10
58.55959346753604
 20
-24.9999999999998
 30
0.0
 11
55.30959346753605
 21
0.0000000000002029
 31
0.0
 70
    32
  1
%%c<>
  3
AM_DIN
100
AcDbAlignedDimension
 13
40.0
 23
25.00000000000019
 33
0.0
 14
40.0
 24
-24.9999999999998
 34
0.0
 50
90.0
100
AcDbRotatedDimension
  0
DIMENSION
  5
210E
330
1F
100
AcDbEntity
  8
2
100
AcDbDimension
  2
*D5
 10
0.000000000000117
 20
75.0
 30
0.0
 11
20.00000000000005
 21
78.25
 31
0.0
 70
    32
  3
AM_DIN
100
AcDbAlignedDimension
 13
40.0
 23
25.00000000000019
 33
0.0
 14
0.0000000000001137
 24
20.50000000000019
 34
0.0
100
AcDbRotatedDimension
  0
LINE
  5
2146
330
1F
100
AcDbEntity
  8
NOCUT
100
AcDbLine
 10
38.99679480008376
 20
-0.0000000000000568
 30
0.0
 11
38.99679480008376
 21
-18.20258113658798
 31
0.0
  0
LINE
  5
214C
330
1F
100
AcDbEntity
  8
NOCUT
100
AcDbLine
 10
38.99679480008376
 20
-24.27113434341706
 30
0.0
 11
28.39876294695429
 21
-24.27113434341696
 31
0.0
  0
LINE
  5
214E
330
1F
100
AcDbEntity
  8
NOCUT
100
AcDbLine
 10
38.99679480008376
 20
-0.0000000000000568
 30
0.0
 11
0.0
 21
0.0000000000001421
 31
0.0
  0
LINE
  5
2153
330
1F
100
AcDbEntity
  8
NOCUT
100
AcDbLine
 10
13.48087237763746
 20
-22.5
 30
0.0
 11
15.25200672105427
 21
-24.27113434341683
 31
0.0
  0
LINE
  5
2155
330
1F
100
AcDbEntity
  8
NOCUT
100
AcDbLine
 10
0.0
 20
-20.49999999999982
 30
0.0
 11
0.0
 21
0.0000000000001421
 31
0.0
  0
LINE
  5
2156
330
1F
100
AcDbEntity
  8
NOCUT
100
AcDbLine
 10
1.999999999999829
 20
-22.49999999999985
 30
0.0
 11
13.48087237763746
 21
-22.5
 31
0.0
  0
ARC
  5
2157
330
1F
100
AcDbEntity
  8
NOCUT
100
AcDbCircle
 10
1.999999999999943
 20
-20.49999999999988
 30
0.0
 40
2.0
100
AcDbArc
 50
179.9999999999992
 51
269.9999999999992
1001
GENIUS_GENODEF_13
1002
{
1000
HIER
1070
     0
1002
}
1002
{
1000
MANEDIT
1070
     0
1002
}
1002
{
1000
NOSEL
1070
     0
1002
}
1002
{
1000
BEHIND
1070
     0
1002
}
1002
{
1000
OTHER
1070
     0
1002
}
1002
{
1000
REACTOR
1002
}
1001
GENIUS_GENOBJ-N-FIL_13
1002
{
1000
OWNER
1000
GEN
1002
}
  0
ARC
  5
2158
330
1F
100
AcDbEntity
  8
NOCUT
100
AcDbCircle
 10
2.000000000000056
 20
-20.49999999999982
 30
0.0
 40
2.0
100
AcDbArc
 50
180.0
 51
270.0
1001
GENIUS_GENOBJ-N-FIL_13
1002
{
1000
OWNER
1000
GEN
1002
}
1001
GENIUS_GENODEF_13
1002
{
1000
HIER
1070
     0
1002
}
1002
{
1000
MANEDIT
1070
     0
1002
}
1002
{
1000
NOSEL
1070
     0
1002
}
1002
{
1000
BEHIND
1070
     0
1002
}
1002
{
1000
OTHER
1070
     0
1002
}
1002
{
1000
REACTOR
1002
}
  0
LINE
  5
2449
330
1F
100
AcDbEntity
  8
1
100
AcDbLine
 10
38.99679480008376
 20
-18.20258113658798
 30
0.0
 11
38.99679480008376
 21
-24.271134343417
 31
0.0
  0
LINE
  5
244A
330
1F
100
AcDbEntity
  8
NOCUT
100
AcDbLine
 10
38.99679480008376
 20
-18.20258113658798
 30
0.0
 11
38.99679480008376
 21
-24.27113434341706
 31
0.0
  0
LINE
  5
2454
330
1F
100
AcDbEntity
  8
NOCUT
100
AcDbLine
 10
28.39876294695429
 20
-24.27113434341696
 30
0.0
 11
15.25200672105421
 21
-24.27113434341683
 31
0.0
  0
LINE
  5
2455
330
1F
100
AcDbEntity
  8
1
100
AcDbLine
 10
28.39876294695429
 20
-24.2711343434169
 30
0.0
 11
15.25200672105421
 21
-24.27113434341677
 31
0.0
  0
TEXT
  5
283E
330
1F
100
AcDbEntity
  8
6
100
AcDbText
 10
47.64550730233532
 20
31.67140847246821
 30
0.0
 40
2.5
  1
BCKT130404R
100
AcDbText
  0
DIMENSION
  5
2844
330
1F
100
AcDbEntity
  8
2
100
AcDbDimension
  2
*D6
 10
27.5
 20
60.0
 30
0.0
 11
33.75
 21
63.25034448818898
 31
0.0
 70
    32
  3
AM_DIN
100
AcDbAlignedDimension
 13
40.0
 23
25.00000000000019
 33
0.0
 14
27.5
 24
25.00000000000019
 34
0.0
100
AcDbRotatedDimension
  0
CIRCLE
  5
2845
330
1F
100
AcDbEntity
  8
1
100
AcDbCircle
 10
32.50999999999999
 20
20.98000000000018
 30
0.0
 40
2.749999999999976
  0
LINE
  5
2846
330
1F
100
AcDbEntity
  8
1
100
AcDbLine
 10
38.00999999999999
 20
16.96000000000021
 30
0.0
 11
25.41999999999996
 21
16.96000000000018
 31
0.0
  0
LINE
  5
2847
330
1F
100
AcDbEntity
  8
CUT
100
AcDbLine
 10
38.00999999999999
 20
16.96000000000021
 30
0.0
 11
25.41999999999996
 21
16.96000000000018
 31
0.0
  0
LINE
  5
2849
330
1F
100
AcDbEntity
  8
1
100
AcDbLine
 10
28.20348280697618
 20
14.27113434341697
 30
0.0
 11
39.04679480008377
 21
14.27113434341697
 31
0.0
  0
LINE
  5
284A
330
1F
100
AcDbEntity
  8
4
100
AcDbLine
 10
11.17209364092437
 20
9.00000000000027
 30
0.0
 11
31.20354011053035
 21
17.06492089047189
 31
0.0
  0
ARC
  5
284B
330
1F
100
AcDbEntity
  8
1
100
AcDbCircle
 10
28.20348280697624
 20
22.27113434341697
 30
0.0
 40
8.0
100
AcDbArc
 50
165.5224878140701
 51
270.0
1001
GENIUS_GENOBJ-N-FIL_13
1002
{
1000
OWNER
1000
GEN
1002
}
1001
GENIUS_GENODEF_13
1002
{
1000
HIER
1070
     0
1002
}
1002
{
1000
MANEDIT
1070
     0
1002
}
1002
{
1000
NOSEL
1070
     0
1002
}
1002
{
1000
BEHIND
1070
     0
1002
}
1002
{
1000
OTHER
1070
     0
1002
}
1002
{
1000
REACTOR
1002
}
  0
LINE
  5
284C
330
1F
100
AcDbEntity
  8
1
100
AcDbLine
 10
25.06999999999993
 20
17.36000000000019
 30
0.0
 11
25.06999999999993
 21
18.96000000000015
 31
0.0
  0
LINE
  5
284D
330
1F
100
AcDbEntity
  8
CUT
100
AcDbLine
 10
25.06999999999993
 20
17.36000000000019
 30
0.0
 11
25.06999999999993
 21
18.96000000000015
 31
0.0
  0
ARC
  5
284E
330
1F
100
AcDbEntity
  8
1
100
AcDbCircle
 10
25.41999999999996
 20
17.36000000000016
 30
0.0
 40
0.4
100
AcDbArc
 50
180.0
 51
270.0
1001
GENIUS_GENOBJ-N-FIL_13
1002
{
1000
OWNER
1000
GEN
1002
}
1001
GENIUS_GENODEF_13
1002
{
1000
HIER
1070
     0
1002
}
1002
{
1000
MANEDIT
1070
     0
1002
}
1002
{
1000
NOSEL
1070
     0
1002
}
1002
{
1000
BEHIND
1070
     0
1002
}
1002
{
1000
OTHER
1070
     0
1002
}
1002
{
1000
REACTOR
1002
}
  0
ARC
  5
284F
330
1F
100
AcDbEntity
  8
CUT
100
AcDbCircle
 10
25.41999999999996
 20
17.36000000000016
 30
0.0
 40
0.4
100
AcDbArc
 50
180.0
 51
270.0
1001
GENIUS_GENOBJ-N-FIL_13
1002
{
1000
OWNER
1000
GEN
1002
}
1001
GENIUS_GENODEF_13
1002
{
1000
HIER
1070
     0
1002
}
1002
{
1000
MANEDIT
1070
     0
1002
}
1002
{
1000
NOSEL
1070
     0
1002
}
1002
{
1000
BEHIND
1070
     0
1002
}
1002
{
1000
OTHER
1070
     0
1002
}
1002
{
1000
REACTOR
1002
}
  0
LINE
  5
2850
330
1F
100
AcDbEntity
  8
1
100
AcDbLine
 10
25.76889018293281
 20
19.96000000000023
 30
0.0
 11
26.57354007457337
 21
24.66739575182626
 31
0.0
  0
LINE
  5
2851
330
1F
100
AcDbEntity
  8
CUT
100
AcDbLine
 10
25.76889018293281
 20
19.96000000000023
 30
0.0
 11
26.57354007457337
 21
24.66739575182626
 31
0.0
  0
LINE
  5
2852
330
1F
100
AcDbEntity
  8
1
100
AcDbLine
 10
25.01999999999998
 20
18.96000000000017
 30
0.0
 11
25.76889018293275
 21
19.96000000000015
 31
0.0
  0
LINE
  5
2853
330
1F
100
AcDbEntity
  8
CUT
100
AcDbLine
 10
25.01999999999998
 20
18.96000000000017
 30
0.0
 11
25.76889018293275
 21
19.96000000000015
 31
0.0
  0
ARC
  5
2854
330
1F
100
AcDbEntity
  8
1
100
AcDbCircle
 10
26.96782146220892
 20
24.60000000000022
 30
0.0
 40
0.4
100
AcDbArc
 50
90.0
 51
170.3
1001
GENIUS_GENODEF_13
1002
{
1000
HIER
1070
     0
1002
}
1002
{
1000
MANEDIT
1070
     0
1002
}
1002
{
1000
NOSEL
1070
     0
1002
}
1002
{
1000
BEHIND
1070
     0
1002
}
1002
{
1000
OTHER
1070
     0
1002
}
1002
{
1000
REACTOR
1002
}
1001
GENIUS_GENOBJ-N-FIL_13
1002
{
1000
OWNER
1000
GEN
1002
}
  0
ARC
  5
2855
330
1F
100
AcDbEntity
  8
CUT
100
AcDbCircle
 10
26.96782146220892
 20
24.60000000000022
 30
0.0
 40
0.4
100
AcDbArc
 50
90.0
 51
170.3
1001
GENIUS_GENODEF_13
1002
{
1000
HIER
1070
     0
1002
}
1002
{
1000
MANEDIT
1070
     0
1002
}
1002
{
1000
NOSEL
1070
     0
1002
}
1002
{
1000
BEHIND
1070
     0
1002
}
1002
{
1000
OTHER
1070
     0
1002
}
1002
{
1000
REACTOR
1002
}
1001
GENIUS_GENOBJ-N-FIL_13
1002
{
1000
OWNER
1000
GEN
1002
}
  0
LINE
  5
2856
330
1F
100
AcDbEntity
  8
1
100
AcDbLine
 10
39.25110981706717
 20
22.00000000000014
 30
0.0
 11
38.44645992542661
 21
17.29260424817412
 31
0.0
  0
LINE
  5
2857
330
1F
100
AcDbEntity
  8
CUT
100
AcDbLine
 10
39.25110981706717
 20
22.00000000000014
 30
0.0
 11
38.44645992542661
 21
17.29260424817412
 31
0.0
  0
ARC
  5
2858
330
1F
100
AcDbEntity
  8
1
100
AcDbCircle
 10
38.05217853779106
 20
17.36000000000013
 30
0.0
 40
0.4
100
AcDbArc
 50
270.0
 51
350.3
1001
GENIUS_GENODEF_13
1002
{
1000
HIER
1070
     0
1002
}
1002
{
1000
MANEDIT
1070
     0
1002
}
1002
{
1000
NOSEL
1070
     0
1002
}
1002
{
1000
BEHIND
1070
     0
1002
}
1002
{
1000
OTHER
1070
     0
1002
}
1002
{
1000
REACTOR
1002
}
1001
GENIUS_GENOBJ-N-FIL_13
1002
{
1000
OWNER
1000
GEN
1002
}
  0
ARC
  5
2859
330
1F
100
AcDbEntity
  8
CUT
100
AcDbCircle
 10
38.05217853779106
 20
17.36000000000013
 30
0.0
 40
0.4
100
AcDbArc
 50
270.0
 51
350.3
1001
GENIUS_GENODEF_13
1002
{
1000
HIER
1070
     0
1002
}
1002
{
1000
MANEDIT
1070
     0
1002
}
1002
{
1000
NOSEL
1070
     0
1002
}
1002
{
1000
BEHIND
1070
     0
1002
}
1002
{
1000
OTHER
1070
     0
1002
}
1002
{
1000
REACTOR
1002
}
1001
GENIUS_GENOBJ-N-FIL_13
1002
{
1000
OWNER
1000
GEN
1002
}
  0
LINE
  5
285A
330
1F
100
AcDbEntity
  8
1
100
AcDbLine
 10
40.0
 20
23.00000000000019
 30
0.0
 11
39.25110981706723
 21
22.00000000000022
 31
0.0
  0
LINE
  5
285B
330
1F
100
AcDbEntity
  8
CUT
100
AcDbLine
 10
40.0
 20
23.00000000000019
 30
0.0
 11
39.25110981706723
 21
22.00000000000022
 31
0.0
  0
LINE
  5
285C
330
1F
100
AcDbEntity
  8
1
100
AcDbLine
 10
40.0
 20
24.60000000000019
 30
0.0
 11
40.0
 21
23.00000000000022
 31
0.0
  0
LINE
  5
285D
330
1F
100
AcDbEntity
  8
CUT
100
AcDbLine
 10
40.0
 20
24.60000000000019
 30
0.0
 11
40.0
 21
23.00000000000022
 31
0.0
  0
LINE
  5
285E
330
1F
100
AcDbEntity
  8
1
100
AcDbLine
 10
27.00999999999999
 20
25.00000000000014
 30
0.0
 11
39.60000000000002
 21
25.00000000000019
 31
0.0
  0
LINE
  5
285F
330
1F
100
AcDbEntity
  8
CUT
100
AcDbLine
 10
27.00999999999999
 20
25.00000000000014
 30
0.0
 11
39.60000000000002
 21
25.00000000000019
 31
0.0
  0
ARC
  5
2860
330
1F
100
AcDbEntity
  8
1
100
AcDbCircle
 10
39.60000000000002
 20
24.60000000000019
 30
0.0
 40
0.4
100
AcDbArc
 50
0.0
 51
90.0
1001
GENIUS_GENOBJ-N-FIL_13
1002
{
1000
OWNER
1000
GEN
1002
}
1001
GENIUS_GENODEF_13
1002
{
1000
HIER
1070
     0
1002
}
1002
{
1000
MANEDIT
1070
     0
1002
}
1002
{
1000
NOSEL
1070
     0
1002
}
1002
{
1000
BEHIND
1070
     0
1002
}
1002
{
1000
OTHER
1070
     0
1002
}
1002
{
1000
REACTOR
1002
}
  0
LINE
  5
2876
330
1F
100
AcDbEntity
  8
SK3
 48
0.3
100
AcDbLine
 10
28.15348280697611
 20
-14.2711343434166
 30
0.0
 11
38.9967948000837
 21
-14.27113434341689
 31
0.0
  0
CIRCLE
  5
2877
330
1F
100
AcDbEntity
  8
SK3
100
AcDbCircle
 10
32.51000000000004
 20
-20.97999999999981
 30
0.0
 40
2.749999999999976
  0
LINE
  5
2878
330
1F
100
AcDbEntity
  8
SK3
100
AcDbLine
 10
38.01000000000005
 20
-16.95999999999983
 30
0.0
 11
25.42000000000001
 21
-16.9599999999998
 31
0.0
  0
LINE
  5
2879
330
1F
100
AcDbEntity
  8
SK3
100
AcDbLine
 10
25.02000000000004
 20
-17.3599999999998
 30
0.0
 11
25.02000000000004
 21
-18.95999999999977
 31
0.0
  0
ARC
  5
287A
330
1F
100
AcDbEntity
  8
SK3
 48
0.3
100
AcDbCircle
 10
28.153482806976
 20
-22.2711343434166
 30
0.0
 40
8.0
100
AcDbArc
 50
89.99999999999836
 51
194.4775121859306
1001
GENIUS_GENOBJ-N-FIL_13
1002
{
1000
OWNER
1000
GEN
1002
}
1001
GENIUS_GENODEF_13
1002
{
1000
HIER
1070
     0
1002
}
1002
{
1000
MANEDIT
1070
     0
1002
}
1002
{
1000
NOSEL
1070
     0
1002
}
1002
{
1000
BEHIND
1070
     0
1002
}
1002
{
1000
OTHER
1070
     0
1002
}
1002
{
1000
REACTOR
1002
}
  0
LINE
  5
287B
330
1F
100
AcDbEntity
  8
SK3
100
AcDbLine
 10
25.02000000000004
 20
-18.9599999999998
 30
0.0
 11
25.76889018293281
 21
-19.95999999999977
 31
0.0
  0
LINE
  5
287C
330
1F
100
AcDbEntity
  8
SK3
100
AcDbLine
 10
25.76889018293281
 20
-19.95999999999986
 30
0.0
 11
26.5058058715984
 21
-24.27113434341669
 31
0.0
  0
ARC
  5
287D
330
1F
100
AcDbEntity
  8
SK3
100
AcDbCircle
 10
25.42000000000001
 20
-17.35999999999978
 30
0.0
 40
0.4
100
AcDbArc
 50
90.0
 51
180.0
1001
GENIUS_GENOBJ-N-FIL_13
1002
{
1000
OWNER
1000
GEN
1002
}
1001
GENIUS_GENODEF_13
1002
{
1000
HIER
1070
     0
1002
}
1002
{
1000
MANEDIT
1070
     0
1002
}
1002
{
1000
NOSEL
1070
     0
1002
}
1002
{
1000
BEHIND
1070
     0
1002
}
1002
{
1000
OTHER
1070
     0
1002
}
1002
{
1000
REACTOR
1002
}
  0
ARC
  5
287E
330
1F
100
AcDbEntity
  8
1
100
AcDbCircle
 10
26.96782146220897
 20
-24.59999999999984
 30
0.0
 40
0.4
100
AcDbArc
 50
189.6999999999999
 51
270.0
1001
GENIUS_GENODEF_13
1002
{
1000
HIER
1070
     0
1002
}
1002
{
1000
MANEDIT
1070
     0
1002
}
1002
{
1000
NOSEL
1070
     0
1002
}
1002
{
1000
BEHIND
1070
     0
1002
}
1002
{
1000
OTHER
1070
     0
1002
}
1002
{
1000
REACTOR
1002
}
1001
GENIUS_GENOBJ-N-FIL_13
1002
{
1000
OWNER
1000
GEN
1002
}
  0
LINE
  5
287F
330
1F
100
AcDbEntity
  8
1
100
AcDbLine
 10
26.5058058715984
 20
-24.27113434341669
 30
0.0
 11
26.57354007457337
 21
-24.66739575182588
 31
0.0
  0
LINE
  5
2880
330
1F
100
AcDbEntity
  8
1
100
AcDbLine
 10
27.01000000000004
 20
-24.99999999999976
 30
0.0
 11
39.60000000000007
 21
-24.99999999999982
 31
0.0
  0
LINE
  5
2881
330
1F
100
AcDbEntity
  8
1
100
AcDbLine
 10
40.00000000000006
 20
-24.59999999999981
 30
0.0
 11
40.00000000000006
 21
-22.99999999999985
 31
0.0
  0
LINE
  5
2882
330
1F
100
AcDbEntity
  8
1
100
AcDbLine
 10
40.00000000000006
 20
-22.99999999999982
 30
0.0
 11
39.25110981706728
 21
-21.99999999999985
 31
0.0
  0
LINE
  5
2883
330
1F
100
AcDbEntity
  8
1
100
AcDbLine
 10
39.25110981706717
 20
-21.99999999999976
 30
0.0
 11
38.99679480008382
 21
-20.51219587175648
 31
0.0
  0
ARC
  5
2884
330
1F
100
AcDbEntity
  8
1
100
AcDbCircle
 10
39.60000000000007
 20
-24.59999999999981
 30
0.0
 40
0.4
100
AcDbArc
 50
270.0
 51
0.0
1001
GENIUS_GENOBJ-N-FIL_13
1002
{
1000
OWNER
1000
GEN
1002
}
1001
GENIUS_GENODEF_13
1002
{
1000
HIER
1070
     0
1002
}
1002
{
1000
MANEDIT
1070
     0
1002
}
1002
{
1000
NOSEL
1070
     0
1002
}
1002
{
1000
BEHIND
1070
     0
1002
}
1002
{
1000
OTHER
1070
     0
1002
}
1002
{
1000
REACTOR
1002
}
  0
LINE
  5
2886
330
1F
100
AcDbEntity
  8
SK3
100
AcDbLine
 10
38.99679480008382
 20
-20.51219587175648
 30
0.0
 11
38.44645992542661
 21
-17.29260424817374
 31
0.0
  0
ARC
  5
2887
330
1F
100
AcDbEntity
  8
SK3
100
AcDbCircle
 10
38.05217853779112
 20
-17.35999999999975
 30
0.0
 40
0.4
100
AcDbArc
 50
9.699999999999931
 51
90.0
1001
GENIUS_GENODEF_13
1002
{
1000
HIER
1070
     0
1002
}
1002
{
1000
MANEDIT
1070
     0
1002
}
1002
{
1000
NOSEL
1070
     0
1002
}
1002
{
1000
BEHIND
1070
     0
1002
}
1002
{
1000
OTHER
1070
     0
1002
}
1002
{
1000
REACTOR
1002
}
1001
GENIUS_GENOBJ-N-FIL_13
1002
{
1000
OWNER
1000
GEN
1002
}
  0
ARC
  5
2888
330
1F
100
AcDbEntity
  8
SK3
100
AcDbCircle
 10
38.05217853779112
 20
-17.35999999999975
 30
0.0
 40
0.4
100
AcDbArc
 50
9.699999999999931
 51
90.0
1001
GENIUS_GENODEF_13
1002
{
1000
HIER
1070
     0
1002
}
1002
{
1000
MANEDIT
1070
     0
1002
}
1002
{
1000
NOSEL
1070
     0
1002
}
1002
{
1000
BEHIND
1070
     0
1002
}
1002
{
1000
OTHER
1070
     0
1002
}
1002
{
1000
REACTOR
1002
}
1001
GENIUS_GENOBJ-N-FIL_13
1002
{
1000
OWNER
1000
GEN
1002
}
  0
ENDSEC
  0
SECTION
  2
OBJECTS
  0
DICTIONARY
  5
C
330
0
100
AcDbDictionary
  3
ACAD_GROUP
350
D
  3
ACAD_LAYOUT
350
1A
  3
ACAD_MLINESTYLE
350
17
  3
ACAD_PLOTSETTINGS
350
19
  3
ACAD_PLOTSTYLENAME
350
E
  3
ACDBHEADERROUNDTRIPXREC
350
28BC
  3
ACDBVARIABLEDICTIONARY
350
216
  3
ACMDICTIONARY
350
45
  3
AMG
350
41
  3
AMGSNAPSETTINGS
350
23D
  3
DWGPROPS
350
28B8
  0
DICTIONARY
  5
1F1
330
1F
100
AcDbDictionary
280
     1
  3
ACAD_INDEX
360
1F2
  3
ACAD_LAYOUTSELFREF
360
28DF
  0
DICTIONARY
  5
28DD
330
1B
100
AcDbDictionary
280
     1
  3
ACAD_LAYOUTSELFREF
360
28DE
  0
DICTIONARY
  5
D
102
{ACAD_REACTORS
330
C
102
}
330
C
100
AcDbDictionary
  0
DICTIONARY
  5
1A
102
{ACAD_REACTORS
330
C
102
}
330
C
100
AcDbDictionary
  0
DICTIONARY
  5
17
102
{ACAD_REACTORS
330
C
102
}
330
C
100
AcDbDictionary
  3
STANDARD
350
18
  0
DICTIONARY
  5
19
102
{ACAD_REACTORS
330
C
102
}
330
C
100
AcDbDictionary
  0
ACDBDICTIONARYWDFLT
  5
E
102
{ACAD_REACTORS
330
C
102
}
330
C
100
AcDbDictionary
281
     1
  3
Normal
350
F
100
AcDbDictionaryWithDefault
340
F
  0
DICTIONARY
  5
28BC
102
{ACAD_REACTORS
330
C
102
}
330
C
100
AcDbDictionary
  3
CEPSNTYPE
350
28C6
  3
DIMSTYLEDATA
350
28CA
  3
FINGERPRINTGUID
350
28C7
  3
HYPERLINKBASE
350
28BF
  3
INSUNITS
350
28C5
  3
LAYOUTDICT
350
28C1
  3
LWETCUNION
350
28C4
  3
PLOTSETDICT
350
28C2
  3
PLOTSTYLNAMDICT
350
28C3
  3
PSVPSCALE
350
28C9
  3
PUCSBASE
350
28CD
  3
PUCSORGBACK
350
28D3
  3
PUCSORGBOTTOM
350
28CF
  3
PUCSORGFRONT
350
28D2
  3
PUCSORGLEFT
350
28D0
  3
PUCSORGRIGHT
350
28D1
  3
PUCSORGTOP
350
28CE
  3
PUCSORTHOREF
350
28CB
  3
PUCSORTHOVIEW
350
28CC
  3
STYLESHEET
350
28C0
  3
TSTACKALIGN
350
28BD
  3
TSTACKSIZE
350
28BE
  3
UCSBASE
350
28D6
  3
UCSORGBACK
350
28DC
  3
UCSORGBOTTOM
350
28D8
  3
UCSORGFRONT
350
28DB
  3
UCSORGLEFT
350
28D9
  3
UCSORGRIGHT
350
28DA
  3
UCSORGTOP
350
28D7
  3
UCSORTHOREF
350
28D4
  3
UCSORTHOVIEW
350
28D5
  3
VERSIONGUID
350
28C8
  0
DICTIONARY
  5
216
102
{ACAD_REACTORS
330
C
102
}
330
C
100
AcDbDictionary
  3
DIMASSOC
350
219
  3
HIDETEXT
350
218
  3
INDEXCTL
350
217
  0
DICTIONARY
  5
45
102
{ACAD_REACTORS
330
C
102
}
330
C
100
AcDbDictionary
  3
ACMSTDDICTIONARY
350
4A
  0
DICTIONARY
  5
41
102
{ACAD_REACTORS
330
C
102
}
330
C
100
AcDbDictionary
  3
ACMGSETTINGS
350
42
  0
DICTIONARY
  5
23D
102
{ACAD_REACTORS
330
C
102
}
330
C
100
AcDbDictionary
  0
XRECORD
  5
28B8
102
{ACAD_REACTORS
330
C
102
}
330
C
100
AcDbXrecord
  1
DWGPROPS COOKIE
  2

  3

  4

  6

  7

  8

  9

300
AmdtFileType=84
301
=
302
=
303
=
304
=
305
=
306
=
307
=
308
=
309
=
 40
0.0414622800925926
 41
2453599.366006042
 42
2453609.663153599
  1

 90
        1
  0
DICTIONARY
  5
1F2
102
{ACAD_REACTORS
330
1F1
102
}
330
1F1
100
AcDbDictionary
  3
*A1
350
1F3
  0
XRECORD
  5
28DF
102
{ACAD_REACTORS
330
1F1
102
}
330
1F1
100
AcDbXrecord
340
1F
  0
XRECORD
  5
28DE
102
{ACAD_REACTORS
330
28DD
102
}
330
28DD
100
AcDbXrecord
340
1B
  0
MLINESTYLE
  5
18
102
{ACAD_REACTORS
330
17
102
}
330
17
100
AcDbMlineStyle
  2
STANDARD
 70
     0
  3

 62
   256
 51
90.0
 52
90.0
 71
     2
 49
0.5
 62
   256
  6
BYLAYER
 49
-0.5
 62
   256
  6
BYLAYER
  0
ACDBPLACEHOLDER
  5
F
102
{ACAD_REACTORS
330
E
102
}
330
E
100
AcDbPlaceHolder
280
     0
  0
XRECORD
  5
28C6
102
{ACAD_REACTORS
330
28BC
102
}
330
28BC
100
AcDbXrecord
 90
        0
  0
XRECORD
  5
28CA
102
{ACAD_REACTORS
330
28BC
102
}
330
28BC
100
AcDbXrecord
1000
DSTYLE
1002
{
1070
    79
 70
     2
1070
   371
 70
    -1
1070
   372
 70
    -1
1002
}
  0
XRECORD
  5
28C7
102
{ACAD_REACTORS
330
28BC
102
}
330
28BC
100
AcDbXrecord
  1
{03052709-208C-44F1-88CB-F8F0E550BC5D}
  0
XRECORD
  5
28BF
102
{ACAD_REACTORS
330
28BC
102
}
330
28BC
100
AcDbXrecord
  1

  0
XRECORD
  5
28C5
102
{ACAD_REACTORS
330
28BC
102
}
330
28BC
100
AcDbXrecord
 90
        4
  0
XRECORD
  5
28C1
102
{ACAD_REACTORS
330
28BC
102
}
330
28BC
100
AcDbXrecord
340
1A
  0
XRECORD
  5
28C4
102
{ACAD_REACTORS
330
28BC
102
}
330
28BC
100
AcDbXrecord
 90
    10781
  0
XRECORD
  5
28C2
102
{ACAD_REACTORS
330
28BC
102
}
330
28BC
100
AcDbXrecord
340
19
  0
XRECORD
  5
28C3
102
{ACAD_REACTORS
330
28BC
102
}
330
28BC
100
AcDbXrecord
340
E
  0
XRECORD
  5
28C9
102
{ACAD_REACTORS
330
28BC
102
}
330
28BC
100
AcDbXrecord
 40
0.0
  0
XRECORD
  5
28CD
102
{ACAD_REACTORS
330
28BC
102
}
330
28BC
100
AcDbXrecord
340
0
  0
XRECORD
  5
28D3
102
{ACAD_REACTORS
330
28BC
102
}
330
28BC
100
AcDbXrecord
 10
0.0
 20
0.0
 30
0.0
  0
XRECORD
  5
28CF
102
{ACAD_REACTORS
330
28BC
102
}
330
28BC
100
AcDbXrecord
 10
0.0
 20
0.0
 30
0.0
  0
XRECORD
  5
28D2
102
{ACAD_REACTORS
330
28BC
102
}
330
28BC
100
AcDbXrecord
 10
0.0
 20
0.0
 30
0.0
  0
XRECORD
  5
28D0
102
{ACAD_REACTORS
330
28BC
102
}
330
28BC
100
AcDbXrecord
 10
0.0
 20
0.0
 30
0.0
  0
XRECORD
  5
28D1
102
{ACAD_REACTORS
330
28BC
102
}
330
28BC
100
AcDbXrecord
 10
0.0
 20
0.0
 30
0.0
  0
XRECORD
  5
28CE
102
{ACAD_REACTORS
330
28BC
102
}
330
28BC
100
AcDbXrecord
 10
0.0
 20
0.0
 30
0.0
  0
XRECORD
  5
28CB
102
{ACAD_REACTORS
330
28BC
102
}
330
28BC
100
AcDbXrecord
340
0
  0
XRECORD
  5
28CC
102
{ACAD_REACTORS
330
28BC
102
}
330
28BC
100
AcDbXrecord
 70
     0
  0
XRECORD
  5
28C0
102
{ACAD_REACTORS
330
28BC
102
}
330
28BC
100
AcDbXrecord
  1

  0
XRECORD
  5
28BD
102
{ACAD_REACTORS
330
28BC
102
}
330
28BC
100
AcDbXrecord
 90
        1
  0
XRECORD
  5
28BE
102
{ACAD_REACTORS
330
28BC
102
}
330
28BC
100
AcDbXrecord
 90
       70
  0
XRECORD
  5
28D6
102
{ACAD_REACTORS
330
28BC
102
}
330
28BC
100
AcDbXrecord
340
0
  0
XRECORD
  5
28DC
102
{ACAD_REACTORS
330
28BC
102
}
330
28BC
100
AcDbXrecord
 10
0.0
 20
0.0
 30
0.0
  0
XRECORD
  5
28D8
102
{ACAD_REACTORS
330
28BC
102
}
330
28BC
100
AcDbXrecord
 10
0.0
 20
0.0
 30
0.0
  0
XRECORD
  5
28DB
102
{ACAD_REACTORS
330
28BC
102
}
330
28BC
100
AcDbXrecord
 10
0.0
 20
0.0
 30
0.0
  0
XRECORD
  5
28D9
102
{ACAD_REACTORS
330
28BC
102
}
330
28BC
100
AcDbXrecord
 10
0.0
 20
0.0
 30
0.0
  0
XRECORD
  5
28DA
102
{ACAD_REACTORS
330
28BC
102
}
330
28BC
100
AcDbXrecord
 10
0.0
 20
0.0
 30
0.0
  0
XRECORD
  5
28D7
102
{ACAD_REACTORS
330
28BC
102
}
330
28BC
100
AcDbXrecord
 10
0.0
 20
0.0
 30
0.0
  0
XRECORD
  5
28D4
102
{ACAD_REACTORS
330
28BC
102
}
330
28BC
100
AcDbXrecord
340
0
  0
XRECORD
  5
28D5
102
{ACAD_REACTORS
330
28BC
102
}
330
28BC
100
AcDbXrecord
 70
     0
  0
XRECORD
  5
28C8
102
{ACAD_REACTORS
330
28BC
102
}
330
28BC
100
AcDbXrecord
  1
{E854EAA5-9894-43DF-8B79-B55FD040CC71}
  0
DICTIONARYVAR
  5
219
102
{ACAD_REACTORS
330
216
102
}
330
216
100
DictionaryVariables
280
     0
  1
1
  0
DICTIONARYVAR
  5
218
102
{ACAD_REACTORS
330
216
102
}
330
216
100
DictionaryVariables
280
     0
  1
1
  0
DICTIONARYVAR
  5
217
102
{ACAD_REACTORS
330
216
102
}
330
216
100
DictionaryVariables
280
     0
  1
1
  0
DICTIONARY
  5
4A
102
{ACAD_REACTORS
330
45
102
}
330
45
100
AcDbDictionary
  0
DICTIONARY
  5
42
102
{ACAD_REACTORS
330
41
102
}
330
41
100
AcDbDictionary
  3
DWGSETTINGS
350
43
  0
LAYER_INDEX
  5
1F3
102
{ACAD_REACTORS
330
1F2
102
}
330
1F2
100
AcDbIndex
 40
2453610.444886388
100
AcDbLayerIndex
  8
0
360
1F4
 90
        0
  8
Defpoints
360
210
 90
        0
  8
1
360
29B
 90
       35
  8
2
360
1F7D
 90
        3
  8
4
360
1F7E
 90
        2
  8
6
360
1F7F
 90
        3
  8
SK1
360
1F80
 90
       12
  8
SK2
360
1F81
 90
        2
  8
SK3
360
1F82
 90
       19
  8
CUT
360
1F83
 90
       11
  8
NOCUT
360
1F84
 90
       10
  0
XRECORD
  5
43
102
{ACAD_REACTORS
330
42
102
}
330
42
100
AcDbXrecord
  1
VERSION
140
15.0
  1
PRODUCT
  2
AutoCAD Mechanical 2000
  0
IDBUFFER
  5
1F4
330
0
100
AcDbIdBuffer
  0
IDBUFFER
  5
210
330
0
100
AcDbIdBuffer
  0
IDBUFFER
  5
29B
330
0
100
AcDbIdBuffer
330
2880
330
2881
330
2882
330
2883
330
2884
330
1A7D
330
1A7F
330
1A81
330
1A88
330
1A8F
330
1FF6
330
2053
330
2062
330
2074
330
2075
330
2076
330
2449
330
2455
330
2845
330
2846
330
2849
330
284B
330
284C
330
284E
330
2850
330
2852
330
2854
330
2856
330
2858
330
285A
330
285C
330
285E
330
2860
330
287E
330
287F
  0
IDBUFFER
  5
1F7D
330
0
100
AcDbIdBuffer
330
20A1
330
210E
330
2844
  0
IDBUFFER
  5
1F7E
330
0
100
AcDbIdBuffer
330
284A
330
2052
  0
IDBUFFER
  5
1F7F
330
0
100
AcDbIdBuffer
330
2038
330
2039
330
283E
  0
IDBUFFER
  5
1F80
330
0
100
AcDbIdBuffer
330
1A78
330
1A86
330
1A8B
330
2001
330
2004
330
2005
330
2031
330
2034
330
2035
330
204F
330
2050
330
2051
  0
IDBUFFER
  5
1F81
330
0
100
AcDbIdBuffer
330
1A75
330
1A77
  0
IDBUFFER
  5
1F82
330
0
100
AcDbIdBuffer
330
287C
330
287D
330
2886
330
2887
330
2888
330
1A79
330
1A7A
330
1A7C
330
1A82
330
1A83
330
1A87
330
1A89
330
1A8A
330
2876
330
2877
330
2878
330
2879
330
287A
330
287B
  0
IDBUFFER
  5
1F83
330
0
100
AcDbIdBuffer
330
285B
330
285D
330
285F
330
2847
330
284D
330
284F
330
2851
330
2853
330
2855
330
2857
330
2859
  0
IDBUFFER
  5
1F84
330
0
100
AcDbIdBuffer
330
2146
330
214C
330
214E
330
2153
330
2155
330
2156
330
2157
330
2158
330
244A
330
2454
  0
ENDSEC
  0
EOF
