  0
SECTION
  2
HEADER
  9
$ACADVER
  1
AC1015
  9
$ACADMAINTVER
 70
    10
  9
$DWGCODEPAGE
  3
ANSI_1252
  9
$INSBASE
 10
0.0
 20
0.0
 30
0.0
  9
$EXTMIN
 10
-31.02399793184531
 20
-31.0019808949255
 30
-0.0000000000112498
  9
$EXTMAX
 10
71.28280502639938
 20
31.66239873247809
 30
0.0000000000002956
  9
$LIMMIN
 10
0.0
 20
0.0
  9
$LIMMAX
 10
420.0
 20
297.0
  9
$ORTHOMODE
 70
     0
  9
$REGENMODE
 70
     1
  9
$FILLMODE
 70
     1
  9
$QTEXTMODE
 70
     0
  9
$MIRRTEXT
 70
     1
  9
$LTSCALE
 40
4.0
  9
$ATTMODE
 70
     1
  9
$TEXTSIZE
 40
2.5
  9
$TRACEWID
 40
1.0
  9
$TEXTSTYLE
  7
Standard
  9
$CLAYER
  8
0
  9
$CELTYPE
  6
ByLayer
  9
$CECOLOR
 62
   256
  9
$CELTSCALE
 40
1.0
  9
$DISPSILH
 70
     0
  9
$DIMSCALE
 40
1.0
  9
$DIMASZ
 40
2.5
  9
$DIMEXO
 40
0.625
  9
$DIMDLI
 40
3.75
  9
$DIMRND
 40
0.0
  9
$DIMDLE
 40
0.0
  9
$DIMEXE
 40
1.25
  9
$DIMTP
 40
0.0
  9
$DIMTM
 40
0.0
  9
$DIMTXT
 40
2.5
  9
$DIMCEN
 40
2.5
  9
$DIMTSZ
 40
0.0
  9
$DIMTOL
 70
     0
  9
$DIMLIM
 70
     0
  9
$DIMTIH
 70
     0
  9
$DIMTOH
 70
     0
  9
$DIMSE1
 70
     0
  9
$DIMSE2
 70
     0
  9
$DIMTAD
 70
     1
  9
$DIMZIN
 70
     8
  9
$DIMBLK
  1

  9
$DIMASO
 70
     1
  9
$DIMSHO
 70
     1
  9
$DIMPOST
  1

  9
$DIMAPOST
  1

  9
$DIMALT
 70
     0
  9
$DIMALTD
 70
     3
  9
$DIMALTF
 40
0.03937007874016
  9
$DIMLFAC
 40
1.0
  9
$DIMTOFL
 70
     1
  9
$DIMTVP
 40
0.0
  9
$DIMTIX
 70
     0
  9
$DIMSOXD
 70
     0
  9
$DIMSAH
 70
     0
  9
$DIMBLK1
  1

  9
$DIMBLK2
  1

  9
$DIMSTYLE
  2
ISO-25
  9
$DIMCLRD
 70
     0
  9
$DIMCLRE
 70
     0
  9
$DIMCLRT
 70
     0
  9
$DIMTFAC
 40
1.0
  9
$DIMGAP
 40
0.625
  9
$DIMJUST
 70
     0
  9
$DIMSD1
 70
     0
  9
$DIMSD2
 70
     0
  9
$DIMTOLJ
 70
     0
  9
$DIMTZIN
 70
     8
  9
$DIMALTZ
 70
     0
  9
$DIMALTTZ
 70
     0
  9
$DIMUPT
 70
     0
  9
$DIMDEC
 70
     2
  9
$DIMTDEC
 70
     2
  9
$DIMALTU
 70
     2
  9
$DIMALTTD
 70
     3
  9
$DIMTXSTY
  7
Standard
  9
$DIMAUNIT
 70
     0
  9
$DIMADEC
 70
     0
  9
$DIMALTRND
 40
0.0
  9
$DIMAZIN
 70
     0
  9
$DIMDSEP
 70
    44
  9
$DIMATFIT
 70
     3
  9
$DIMFRAC
 70
     0
  9
$DIMLDRBLK
  1

  9
$DIMLUNIT
 70
     2
  9
$DIMLWD
 70
    -2
  9
$DIMLWE
 70
    -2
  9
$DIMTMOVE
 70
     0
  9
$LUNITS
 70
     2
  9
$LUPREC
 70
     4
  9
$SKETCHINC
 40
1.0
  9
$FILLETRAD
 40
10.0
  9
$AUNITS
 70
     0
  9
$AUPREC
 70
     0
  9
$MENU
  1
.
  9
$ELEVATION
 40
0.0
  9
$PELEVATION
 40
0.0
  9
$THICKNESS
 40
0.0
  9
$LIMCHECK
 70
     0
  9
$CHAMFERA
 40
10.0
  9
$CHAMFERB
 40
10.0
  9
$CHAMFERC
 40
20.0
  9
$CHAMFERD
 40
0.0
  9
$SKPOLY
 70
     0
  9
$TDCREATE
 40
2455083.563316458
  9
$TDUCREATE
 40
2455083.479983124
  9
$TDUPDATE
 40
2455083.592225602
  9
$TDUUPDATE
 40
2455083.508892268
  9
$TDINDWG
 40
0.0028533565
  9
$TDUSRTIMER
 40
0.0028533565
  9
$USRTIMER
 70
     1
  9
$ANGBASE
 50
0.0
  9
$ANGDIR
 70
     0
  9
$PDMODE
 70
     0
  9
$PDSIZE
 40
0.0
  9
$PLINEWID
 40
0.0
  9
$SPLFRAME
 70
     0
  9
$SPLINETYPE
 70
     6
  9
$SPLINESEGS
 70
     8
  9
$HANDSEED
  5
3CE
  9
$SURFTAB1
 70
     6
  9
$SURFTAB2
 70
     6
  9
$SURFTYPE
 70
     6
  9
$SURFU
 70
     6
  9
$SURFV
 70
     6
  9
$UCSBASE
  2

  9
$UCSNAME
  2

  9
$UCSORG
 10
0.0
 20
0.0
 30
0.0
  9
$UCSXDIR
 10
1.0
 20
0.0
 30
0.0
  9
$UCSYDIR
 10
0.0
 20
1.0
 30
0.0
  9
$UCSORTHOREF
  2

  9
$UCSORTHOVIEW
 70
     0
  9
$UCSORGTOP
 10
0.0
 20
0.0
 30
0.0
  9
$UCSORGBOTTOM
 10
0.0
 20
0.0
 30
0.0
  9
$UCSORGLEFT
 10
0.0
 20
0.0
 30
0.0
  9
$UCSORGRIGHT
 10
0.0
 20
0.0
 30
0.0
  9
$UCSORGFRONT
 10
0.0
 20
0.0
 30
0.0
  9
$UCSORGBACK
 10
0.0
 20
0.0
 30
0.0
  9
$PUCSBASE
  2

  9
$PUCSNAME
  2

  9
$PUCSORG
 10
0.0
 20
0.0
 30
0.0
  9
$PUCSXDIR
 10
1.0
 20
0.0
 30
0.0
  9
$PUCSYDIR
 10
0.0
 20
1.0
 30
0.0
  9
$PUCSORTHOREF
  2

  9
$PUCSORTHOVIEW
 70
     0
  9
$PUCSORGTOP
 10
0.0
 20
0.0
 30
0.0
  9
$PUCSORGBOTTOM
 10
0.0
 20
0.0
 30
0.0
  9
$PUCSORGLEFT
 10
0.0
 20
0.0
 30
0.0
  9
$PUCSORGRIGHT
 10
0.0
 20
0.0
 30
0.0
  9
$PUCSORGFRONT
 10
0.0
 20
0.0
 30
0.0
  9
$PUCSORGBACK
 10
0.0
 20
0.0
 30
0.0
  9
$USERI1
 70
     0
  9
$USERI2
 70
     0
  9
$USERI3
 70
     0
  9
$USERI4
 70
     0
  9
$USERI5
 70
     0
  9
$USERR1
 40
0.0
  9
$USERR2
 40
0.0
  9
$USERR3
 40
0.0
  9
$USERR4
 40
0.0
  9
$USERR5
 40
0.0
  9
$WORLDVIEW
 70
     1
  9
$SHADEDGE
 70
     3
  9
$SHADEDIF
 70
    70
  9
$TILEMODE
 70
     1
  9
$MAXACTVP
 70
    64
  9
$PINSBASE
 10
0.0
 20
0.0
 30
0.0
  9
$PLIMCHECK
 70
     0
  9
$PEXTMIN
 10
1.000000000000000E+20
 20
1.000000000000000E+20
 30
1.000000000000000E+20
  9
$PEXTMAX
 10
-1.000000000000000E+20
 20
-1.000000000000000E+20
 30
-1.000000000000000E+20
  9
$PLIMMIN
 10
0.0
 20
0.0
  9
$PLIMMAX
 10
420.0
 20
297.0
  9
$UNITMODE
 70
     0
  9
$VISRETAIN
 70
     1
  9
$PLINEGEN
 70
     0
  9
$PSLTSCALE
 70
     1
  9
$TREEDEPTH
 70
  3020
  9
$CMLSTYLE
  2
Standard
  9
$CMLJUST
 70
     0
  9
$CMLSCALE
 40
20.0
  9
$PROXYGRAPHICS
 70
     1
  9
$MEASUREMENT
 70
     1
  9
$CELWEIGHT
370
    -1
  9
$ENDCAPS
280
     0
  9
$JOINSTYLE
280
     0
  9
$LWDISPLAY
290
     0
  9
$INSUNITS
 70
     4
  9
$HYPERLINKBASE
  1

  9
$STYLESHEET
  1

  9
$XEDIT
290
     1
  9
$CEPSNTYPE
380
     0
  9
$PSTYLEMODE
290
     1
  9
$FINGERPRINTGUID
  2
{265DCD9C-54B4-45A9-93FD-8C5E0E9AB8C4}
  9
$VERSIONGUID
  2
{74E9B22A-48DE-4470-ACB5-8527A818494A}
  9
$EXTNAMES
290
     1
  9
$PSVPSCALE
 40
0.0
  9
$OLESTARTUP
290
     0
  0
ENDSEC
  0
SECTION
  2
CLASSES
  0
CLASS
  1
ACDBDICTIONARYWDFLT
  2
AcDbDictionaryWithDefault
  3
AutoCAD 2000
 90
        0
280
     0
281
     0
  0
CLASS
  1
ACDBPLACEHOLDER
  2
AcDbPlaceHolder
  3
AutoCAD 2000
 90
        0
280
     0
281
     0
  0
CLASS
  1
LAYOUT
  2
AcDbLayout
  3
AutoCAD 2000
 90
        0
280
     0
281
     0
  0
ENDSEC
  0
SECTION
  2
TABLES
  0
TABLE
  2
VPORT
  5
8
330
0
100
AcDbSymbolTable
 70
     2
  0
VPORT
  5
3CD
330
8
100
AcDbSymbolTableRecord
100
AcDbViewportTableRecord
  2
*Active
 70
     0
 10
0.0
 20
0.0
 11
1.0
 21
1.0
 12
20.12940354727704
 22
0.3302089187762967
 13
0.0
 23
0.0
 14
10.0
 24
10.0
 15
10.0
 25
10.0
 16
0.0
 26
0.0
 36
1.0
 17
0.0
 27
0.0
 37
0.0
 40
63.58366148012835
 41
2.477941176470588
 42
50.0
 43
0.0
 44
0.0
 50
0.0
 51
0.0
 71
     0
 72
  1000
 73
     1
 74
     3
 75
     0
 76
     0
 77
     0
 78
     0
281
     0
 65
     1
110
0.0
120
0.0
130
0.0
111
1.0
121
0.0
131
0.0
112
0.0
122
1.0
132
0.0
 79
     0
146
0.0
  0
ENDTAB
  0
TABLE
  2
LTYPE
  5
5
330
0
100
AcDbSymbolTable
 70
     3
  0
LTYPE
  5
14
330
5
100
AcDbSymbolTableRecord
100
AcDbLinetypeTableRecord
  2
ByBlock
 70
     0
  3

 72
    65
 73
     0
 40
0.0
  0
LTYPE
  5
15
330
5
100
AcDbSymbolTableRecord
100
AcDbLinetypeTableRecord
  2
ByLayer
 70
     0
  3

 72
    65
 73
     0
 40
0.0
  0
LTYPE
  5
16
330
5
100
AcDbSymbolTableRecord
100
AcDbLinetypeTableRecord
  2
Continuous
 70
     0
  3
Solid line
 72
    65
 73
     0
 40
0.0
  0
LTYPE
  5
5F
330
5
100
AcDbSymbolTableRecord
100
AcDbLinetypeTableRecord
  2
CENTER
 70
     0
  3
____ _ ____ _ ____ _ ____ _ ____ _ ____ _ ____
 72
    65
 73
     4
 40
0.6
 49
0.375
 74
     0
 49
-0.075
 74
     0
 49
0.075
 74
     0
 49
-0.075
 74
     0
  0
LTYPE
  5
60
330
5
100
AcDbSymbolTableRecord
100
AcDbLinetypeTableRecord
  2
HIDDEN
 70
     0
  3
- - - - - - - - - - - - - - - - - - - -
 72
    65
 73
     2
 40
0.2
 49
0.1
 74
     0
 49
-0.1
 74
     0
  0
ENDTAB
  0
TABLE
  2
LAYER
  5
2
102
{ACAD_XDICTIONARY
360
388
102
}
330
0
100
AcDbSymbolTable
 70
     9
  0
LAYER
  5
10
330
2
100
AcDbSymbolTableRecord
100
AcDbLayerTableRecord
  2
0
 70
     0
 62
     7
  6
Continuous
370
    -3
390
F
  0
LAYER
  5
61
330
2
100
AcDbSymbolTableRecord
100
AcDbLayerTableRecord
  2
Defpoints
 70
     0
 62
     7
  6
Continuous
290
     0
370
    -3
390
F
  0
LAYER
  5
62
330
2
100
AcDbSymbolTableRecord
100
AcDbLayerTableRecord
  2
CUT
 70
     0
 62
     1
  6
Continuous
370
    -3
390
F
  0
LAYER
  5
63
330
2
100
AcDbSymbolTableRecord
100
AcDbLayerTableRecord
  2
2
 70
     0
 62
     7
  6
Continuous
370
    -3
390
F
  0
LAYER
  5
64
330
2
100
AcDbSymbolTableRecord
100
AcDbLayerTableRecord
  2
1
 70
     0
 62
     4
  6
Continuous
370
    -3
390
F
  0
LAYER
  5
65
330
2
100
AcDbSymbolTableRecord
100
AcDbLayerTableRecord
  2
3
 70
     0
 62
     1
  6
HIDDEN
370
    -3
390
F
  0
LAYER
  5
66
330
2
100
AcDbSymbolTableRecord
100
AcDbLayerTableRecord
  2
4
 70
     0
 62
     2
  6
CENTER
370
    -3
390
F
  0
LAYER
  5
67
330
2
100
AcDbSymbolTableRecord
100
AcDbLayerTableRecord
  2
6
 70
     0
 62
     5
  6
Continuous
370
    -3
390
F
  0
LAYER
  5
3C7
330
2
100
AcDbSymbolTableRecord
100
AcDbLayerTableRecord
  2
NOCUT
 70
     0
 62
     7
  6
Continuous
370
    -3
390
F
  0
ENDTAB
  0
TABLE
  2
STYLE
  5
3
330
0
100
AcDbSymbolTable
 70
     1
  0
STYLE
  5
11
330
3
100
AcDbSymbolTableRecord
100
AcDbTextStyleTableRecord
  2
Standard
 70
     0
 40
0.0
 41
1.0
 50
0.0
 71
     0
 42
2.5
  3
isocp.shx
  4

  0
ENDTAB
  0
TABLE
  2
VIEW
  5
6
330
0
100
AcDbSymbolTable
 70
     0
  0
ENDTAB
  0
TABLE
  2
UCS
  5
7
330
0
100
AcDbSymbolTable
 70
     0
  0
ENDTAB
  0
TABLE
  2
APPID
  5
9
330
0
100
AcDbSymbolTable
 70
     1
  0
APPID
  5
12
330
9
100
AcDbSymbolTableRecord
100
AcDbRegAppTableRecord
  2
ACAD
 70
     0
  0
ENDTAB
  0
TABLE
  2
DIMSTYLE
  5
A
330
0
100
AcDbSymbolTable
 70
     2
100
AcDbDimStyleTable
 71
     0
  0
DIMSTYLE
105
27
102
{ACAD_REACTORS
330
27F
330
1C9
330
1CA
330
1CD
102
}
330
A
100
AcDbSymbolTableRecord
100
AcDbDimStyleTableRecord
  2
ISO-25
 70
     0
 41
2.5
 42
0.625
 43
3.75
 44
1.25
 73
     0
 74
     0
 77
     1
 78
     8
140
2.5
141
2.5
143
0.03937007874016
147
0.625
171
     3
172
     1
271
     2
272
     2
274
     3
278
    44
283
     0
284
     8
340
11
  0
DIMSTYLE
105
68
330
A
100
AcDbSymbolTableRecord
100
AcDbDimStyleTableRecord
  2
STANDARD
 70
     0
 41
2.5
 47
0.005
 48
0.005
 71
     1
 73
     0
 74
     0
 77
     1
 78
     8
140
3.5
178
     5
271
     3
272
     3
284
     8
340
11
341
2B
342
2B
343
2B
344
2B
  0
ENDTAB
  0
TABLE
  2
BLOCK_RECORD
  5
1
330
0
100
AcDbSymbolTable
 70
     6
  0
BLOCK_RECORD
  5
1F
330
1
100
AcDbSymbolTableRecord
100
AcDbBlockTableRecord
  2
*Model_Space
340
22
  0
BLOCK_RECORD
  5
1B
330
1
100
AcDbSymbolTableRecord
100
AcDbBlockTableRecord
  2
*Paper_Space
340
1E
  0
BLOCK_RECORD
  5
23
330
1
100
AcDbSymbolTableRecord
100
AcDbBlockTableRecord
  2
*Paper_Space0
340
26
  0
BLOCK_RECORD
  5
2B
330
1
100
AcDbSymbolTableRecord
100
AcDbBlockTableRecord
  2
_ARROW_FILLED
340
0
  0
BLOCK_RECORD
  5
325
330
1
100
AcDbSymbolTableRecord
100
AcDbBlockTableRecord
  2
*D2
340
0
  0
BLOCK_RECORD
  5
331
330
1
100
AcDbSymbolTableRecord
100
AcDbBlockTableRecord
  2
*D3
340
0
  0
BLOCK_RECORD
  5
33D
330
1
100
AcDbSymbolTableRecord
100
AcDbBlockTableRecord
  2
*D4
340
0
  0
BLOCK_RECORD
  5
349
330
1
100
AcDbSymbolTableRecord
100
AcDbBlockTableRecord
  2
*D5
340
0
  0
ENDTAB
  0
ENDSEC
  0
SECTION
  2
BLOCKS
  0
BLOCK
  5
20
330
1F
100
AcDbEntity
  8
0
100
AcDbBlockBegin
  2
*Model_Space
 70
     0
 10
0.0
 20
0.0
 30
0.0
  3
*Model_Space
  1

  0
ENDBLK
  5
21
330
1F
100
AcDbEntity
  8
0
100
AcDbBlockEnd
  0
BLOCK
  5
1C
330
1B
100
AcDbEntity
 67
     1
  8
0
100
AcDbBlockBegin
  2
*Paper_Space
 70
     0
 10
0.0
 20
0.0
 30
0.0
  3
*Paper_Space
  1

  0
ENDBLK
  5
1D
330
1B
100
AcDbEntity
 67
     1
  8
0
100
AcDbBlockEnd
  0
BLOCK
  5
24
330
23
100
AcDbEntity
  8
0
100
AcDbBlockBegin
  2
*Paper_Space0
 70
     0
 10
0.0
 20
0.0
 30
0.0
  3
*Paper_Space0
  1

  0
ENDBLK
  5
25
330
23
100
AcDbEntity
  8
0
100
AcDbBlockEnd
  0
BLOCK
  5
2D
330
2B
100
AcDbEntity
  8
0
100
AcDbBlockBegin
  2
_ARROW_FILLED
 70
     0
 10
0.0
 20
0.0
 30
0.0
  3
_ARROW_FILLED
  1

  0
SOLID
  5
2C
330
2B
100
AcDbEntity
  8
0
  6
ByBlock
 62
     0
100
AcDbTrace
 10
0.0
 20
0.0
 30
0.0
 11
-1.0
 21
0.132
 31
0.0
 12
-1.0
 22
-0.132
 32
0.0
 13
-1.0
 23
-0.132
 33
0.0
  0
ENDBLK
  5
2E
330
2B
100
AcDbEntity
  8
0
  6
ByBlock
 62
     0
100
AcDbBlockEnd
  0
BLOCK
  5
32F
330
325
100
AcDbEntity
  8
0
100
AcDbBlockBegin
  2
*D2
 70
     1
 10
0.0
 20
0.0
 30
0.0
  3
*D2
  1

  0
LINE
  5
395
330
325
100
AcDbEntity
  8
2
 62
     0
370
    -2
100
AcDbLine
 10
40.0
 20
17.12670179246916
 30
0.0
 11
40.0
 21
29.89069352185007
 31
0.0
  0
LINE
  5
396
330
325
100
AcDbEntity
  8
2
 62
     0
370
    -2
100
AcDbLine
 10
0.0
 20
18.62311107155001
 30
0.0
 11
0.0000000000000007
 21
29.89069352185007
 31
0.0
  0
LINE
  5
397
330
325
100
AcDbEntity
  8
2
 62
     0
370
    -2
100
AcDbLine
 10
37.5
 20
28.64069352185007
 30
0.0
 11
2.5
 21
28.64069352185007
 31
0.0
  0
SOLID
  5
398
330
325
100
AcDbEntity
  8
2
 62
     0
100
AcDbTrace
 10
37.5
 20
29.05736018851673
 30
0.0
 11
37.5
 21
28.22402685518339
 31
0.0
 12
40.0
 22
28.64069352185007
 32
0.0
 13
40.0
 23
28.64069352185007
 33
0.0
  0
SOLID
  5
399
330
325
100
AcDbEntity
  8
2
 62
     0
100
AcDbTrace
 10
2.5
 20
29.05736018851673
 30
0.0
 11
2.5
 21
28.22402685518339
 31
0.0
 12
0.0000000000000007
 22
28.64069352185007
 32
0.0
 13
0.0000000000000007
 23
28.64069352185007
 33
0.0
  0
MTEXT
  5
39A
330
325
100
AcDbEntity
  8
2
 62
     0
100
AcDbMText
 10
20.0
 20
30.51569352185007
 30
0.0
 40
2.5
 41
0.0
 71
     5
 72
     1
  1
40
 73
     1
 44
1.0
  0
POINT
  5
39B
330
325
100
AcDbEntity
  8
Defpoints
 62
     0
100
AcDbPoint
 10
40.0
 20
16.50170179246916
 30
0.0
  0
POINT
  5
39C
330
325
100
AcDbEntity
  8
Defpoints
 62
     0
100
AcDbPoint
 10
0.0
 20
17.99811107155001
 30
0.0
  0
POINT
  5
39D
330
325
100
AcDbEntity
  8
Defpoints
 62
     0
100
AcDbPoint
 10
0.0000000000000007
 20
28.64069352185007
 30
0.0
  0
ENDBLK
  5
330
330
325
100
AcDbEntity
  8
0
100
AcDbBlockEnd
  0
BLOCK
  5
33B
330
331
100
AcDbEntity
  8
0
100
AcDbBlockBegin
  2
*D3
 70
     1
 10
0.0
 20
0.0
 30
0.0
  3
*D3
  1

  0
LINE
  5
3B0
330
331
100
AcDbEntity
  8
0
 62
     0
370
    -2
100
AcDbLine
 10
0.3750000000001137
 20
19.00000000000003
 30
0.0
 11
-29.27258356460469
 21
19.00000000000003
 31
0.0
  0
LINE
  5
3B1
330
331
100
AcDbEntity
  8
0
 62
     0
370
    -2
100
AcDbLine
 10
0.3750000000001705
 20
-18.99999999999996
 30
0.0
 11
-29.2725835646047
 21
-18.99999999999996
 31
0.0
  0
LINE
  5
3B2
330
331
100
AcDbEntity
  8
0
 62
     0
370
    -2
100
AcDbLine
 10
-28.02258356460469
 20
16.50000000000003
 30
0.0
 11
-28.0225835646047
 21
-16.49999999999996
 31
0.0
  0
SOLID
  5
3B3
330
331
100
AcDbEntity
  8
0
 62
     0
100
AcDbTrace
 10
-28.43925023127136
 20
16.50000000000003
 30
0.0
 11
-27.60591689793802
 21
16.50000000000003
 31
0.0
 12
-28.02258356460469
 22
19.00000000000003
 32
0.0
 13
-28.02258356460469
 23
19.00000000000003
 33
0.0
  0
SOLID
  5
3B4
330
331
100
AcDbEntity
  8
0
 62
     0
100
AcDbTrace
 10
-28.43925023127137
 20
-16.49999999999996
 30
0.0
 11
-27.60591689793803
 21
-16.49999999999996
 31
0.0
 12
-28.0225835646047
 22
-18.99999999999996
 32
0.0
 13
-28.0225835646047
 23
-18.99999999999996
 33
0.0
  0
MTEXT
  5
3B5
330
331
100
AcDbEntity
  8
0
 62
     0
100
AcDbMText
 10
-29.8975835646047
 20
0.0000000000000339
 30
0.0
 40
2.5
 41
0.0
 71
     5
 72
     1
  1
%%C38
 11
0.0000000000000001
 21
1.0
 31
0.0
 73
     1
 44
1.0
  0
POINT
  5
3B6
330
331
100
AcDbEntity
  8
Defpoints
 62
     0
100
AcDbPoint
 10
1.000000000000113
 20
19.00000000000003
 30
0.0
  0
POINT
  5
3B7
330
331
100
AcDbEntity
  8
Defpoints
 62
     0
100
AcDbPoint
 10
1.00000000000017
 20
-18.99999999999996
 30
0.0
  0
POINT
  5
3B8
330
331
100
AcDbEntity
  8
Defpoints
 62
     0
100
AcDbPoint
 10
-28.0225835646047
 20
-18.99999999999996
 30
0.0
  0
ENDBLK
  5
33C
330
331
100
AcDbEntity
  8
0
100
AcDbBlockEnd
  0
BLOCK
  5
347
330
33D
100
AcDbEntity
  8
0
100
AcDbBlockBegin
  2
*D4
 70
     1
 10
0.0
 20
0.0
 30
0.0
  3
*D4
  1

  0
LINE
  5
3A7
330
33D
100
AcDbEntity
  8
0
 62
     0
370
    -2
100
AcDbLine
 10
0.1749999999999545
 20
11.00000000000002
 30
0.0
 11
-13.05400954678588
 21
11.00000000000002
 31
0.0
  0
LINE
  5
3A8
330
33D
100
AcDbEntity
  8
0
 62
     0
370
    -2
100
AcDbLine
 10
0.1750000000001819
 20
-10.99999999999984
 30
0.0
 11
-13.05400954678589
 21
-10.99999999999984
 31
0.0
  0
LINE
  5
3A9
330
33D
100
AcDbEntity
  8
0
 62
     0
370
    -2
100
AcDbLine
 10
-11.80400954678588
 20
8.50000000000003
 30
0.0
 11
-11.80400954678589
 21
-8.499999999999856
 31
0.0
  0
SOLID
  5
3AA
330
33D
100
AcDbEntity
  8
0
 62
     0
100
AcDbTrace
 10
-12.22067621345255
 20
8.50000000000003
 30
0.0
 11
-11.38734288011922
 21
8.50000000000003
 31
0.0
 12
-11.80400954678588
 22
11.00000000000002
 32
0.0
 13
-11.80400954678588
 23
11.00000000000002
 33
0.0
  0
SOLID
  5
3AB
330
33D
100
AcDbEntity
  8
0
 62
     0
100
AcDbTrace
 10
-12.22067621345255
 20
-8.499999999999852
 30
0.0
 11
-11.38734288011922
 21
-8.499999999999856
 31
0.0
 12
-11.80400954678589
 22
-10.99999999999984
 32
0.0
 13
-11.80400954678589
 23
-10.99999999999984
 33
0.0
  0
MTEXT
  5
3AC
330
33D
100
AcDbEntity
  8
0
 62
     0
100
AcDbMText
 10
-13.67925560977801
 20
0.0000000000000862
 30
0.0
 40
2.5
 41
0.0
 71
     5
 72
     1
  1
%%C22
 11
0.0000000000000001
 21
1.0
 31
0.0
 73
     1
 44
1.0
  0
POINT
  5
3AD
330
33D
100
AcDbEntity
  8
Defpoints
 62
     0
100
AcDbPoint
 10
0.7999999999999547
 20
11.00000000000002
 30
0.0
  0
POINT
  5
3AE
330
33D
100
AcDbEntity
  8
Defpoints
 62
     0
100
AcDbPoint
 10
0.8000000000001817
 20
-10.99999999999984
 30
0.0
  0
POINT
  5
3AF
330
33D
100
AcDbEntity
  8
Defpoints
 62
     0
100
AcDbPoint
 10
-11.80400954678589
 20
-10.99999999999984
 30
0.0
  0
ENDBLK
  5
348
330
33D
100
AcDbEntity
  8
0
100
AcDbBlockEnd
  0
BLOCK
  5
353
330
349
100
AcDbEntity
  8
0
100
AcDbBlockBegin
  2
*D5
 70
     1
 10
0.0
 20
0.0
 30
0.0
  3
*D5
  1

  0
LINE
  5
39E
330
349
100
AcDbEntity
  8
0
 62
     0
370
    -2
100
AcDbLine
 10
40.29877914653343
 20
19.99861092820006
 30
0.0
 11
65.09798583954438
 21
19.99861092820006
 31
0.0
  0
LINE
  5
39F
330
349
100
AcDbEntity
  8
0
 62
     0
370
    -2
100
AcDbLine
 10
40.29877914653343
 20
-19.99861092819982
 30
0.0
 11
65.09798583954438
 21
-19.99861092819982
 31
0.0
  0
LINE
  5
3A0
330
349
100
AcDbEntity
  8
0
 62
     0
370
    -2
100
AcDbLine
 10
63.84798583954439
 20
17.49861092820006
 30
0.0
 11
63.84798583954438
 21
-17.49861092819983
 31
0.0
  0
SOLID
  5
3A1
330
349
100
AcDbEntity
  8
0
 62
     0
100
AcDbTrace
 10
63.43131917287773
 20
17.49861092820006
 30
0.0
 11
64.26465250621103
 21
17.49861092820006
 31
0.0
 12
63.84798583954439
 22
19.99861092820006
 32
0.0
 13
63.84798583954439
 23
19.99861092820006
 33
0.0
  0
SOLID
  5
3A2
330
349
100
AcDbEntity
  8
0
 62
     0
100
AcDbTrace
 10
63.43131917287771
 20
-17.49861092819983
 30
0.0
 11
64.26465250621103
 21
-17.49861092819983
 31
0.0
 12
63.84798583954438
 22
-19.99861092819982
 32
0.0
 13
63.84798583954438
 23
-19.99861092819982
 33
0.0
  0
MTEXT
  5
3A3
330
349
100
AcDbEntity
  8
0
 62
     0
100
AcDbMText
 10
61.97298583954438
 20
0.0000000000001171
 30
0.0
 40
2.5
 41
0.0
 71
     5
 72
     1
  1
%%C40
 11
0.0000000000000001
 21
1.0
 31
0.0
 73
     1
 44
1.0
  0
POINT
  5
3A4
330
349
100
AcDbEntity
  8
Defpoints
 62
     0
100
AcDbPoint
 10
39.67377914653343
 20
19.99861092820006
 30
0.0
  0
POINT
  5
3A5
330
349
100
AcDbEntity
  8
Defpoints
 62
     0
100
AcDbPoint
 10
39.67377914653343
 20
-19.99861092819982
 30
0.0
  0
POINT
  5
3A6
330
349
100
AcDbEntity
  8
Defpoints
 62
     0
100
AcDbPoint
 10
63.84798583954438
 20
-19.99861092819982
 30
0.0
  0
ENDBLK
  5
354
330
349
100
AcDbEntity
  8
0
100
AcDbBlockEnd
  0
ENDSEC
  0
SECTION
  2
ENTITIES
  0
DIMENSION
  5
1C9
330
1F
100
AcDbEntity
  8
0
100
AcDbDimension
  2
*D3
 10
-28.0225835646047
 20
-18.99999999999996
 30
0.0
 11
-29.8975835646047
 21
0.0000000000000339
 31
0.0
 70
    32
  1
%%C<>
 71
     5
 42
38.0
  3
ISO-25
100
AcDbAlignedDimension
 13
1.000000000000113
 23
19.00000000000003
 33
0.0
 14
1.00000000000017
 24
-18.99999999999996
 34
0.0
 50
90.0
100
AcDbRotatedDimension
  0
DIMENSION
  5
1CA
330
1F
100
AcDbEntity
  8
0
100
AcDbDimension
  2
*D4
 10
-11.80400954678589
 20
-10.99999999999984
 30
0.0
 11
-13.67925560977801
 21
0.0000000000000862
 31
0.0
 70
    32
  1
%%C<>
 71
     5
 42
21.99999999999988
  3
ISO-25
100
AcDbAlignedDimension
 13
0.7999999999999547
 23
11.00000000000002
 33
0.0
 14
0.8000000000001817
 24
-10.99999999999984
 34
0.0
 50
90.0
100
AcDbRotatedDimension
  0
LINE
  5
1CB
330
1F
100
AcDbEntity
  8
4
100
AcDbLine
 10
-3.866811571100015
 20
0.0000000000000284
 30
0.0
 11
38.49989999999996
 21
0.0000000000000284
 31
0.0
  0
TEXT
  5
1CC
330
1F
100
AcDbEntity
  8
6
100
AcDbText
 10
34.77853202444504
 20
-31.00641874566875
 30
0.0
 40
3.5
  1
2J1C040R00
 41
0.8
 72
     1
 11
44.4040832055474
 21
-31.00641874566875
 31
0.0
100
AcDbText
  0
DIMENSION
  5
1CD
330
1F
100
AcDbEntity
  8
0
100
AcDbDimension
  2
*D5
 10
63.84798583954438
 20
-19.99861092819982
 30
0.0
 11
61.97298583954438
 21
0.0000000000001171
 31
0.0
 70
    32
  1
%%C<>
 71
     5
 42
39.99722185639988
  3
ISO-25
100
AcDbAlignedDimension
 13
39.67377914653343
 23
19.99861092820006
 33
0.0
 14
39.67377914653343
 24
-19.99861092819982
 34
0.0
 50
90.0
100
AcDbRotatedDimension
  0
LINE
  5
1CE
330
1F
100
AcDbEntity
  8
1
100
AcDbLine
 10
39.21171434345
 20
15.67487142535807
 30
0.0
 11
39.21171434345
 21
0.0000000000000284
 31
0.0
  0
LINE
  5
1CF
330
1F
100
AcDbEntity
  8
3
100
AcDbLine
 10
16.0
 20
11.50000000000001
 30
0.0
 11
16.0
 21
-11.49999999999997
 31
0.0
  0
LINE
  5
1D0
330
1F
100
AcDbEntity
  8
3
100
AcDbLine
 10
20.99999999999988
 20
11.50000000000001
 30
0.0
 11
20.99999999999988
 21
-11.49999999999997
 31
0.0
  0
LINE
  5
1D1
330
1F
100
AcDbEntity
  8
3
100
AcDbLine
 10
27.71171434345001
 20
9.000000000000024
 30
0.0
 11
27.71171434345001
 21
-8.999999999999969
 31
0.0
  0
LINE
  5
1D2
330
1F
100
AcDbEntity
  8
1
100
AcDbLine
 10
6.300000000000068
 20
4.799999999999981
 30
0.0
 11
6.300000000000068
 21
-4.799999999999925
 31
0.0
  0
LINE
  5
1D3
330
1F
100
AcDbEntity
  8
1
100
AcDbLine
 10
39.2117143434001
 20
18.74331447466678
 30
0.0
 11
39.2117143434001
 21
-18.74331447469998
 31
0.0
  0
LINE
  5
1D4
330
1F
100
AcDbEntity
  8
1
100
AcDbLine
 10
18.99999999999987
 20
13.19999999999819
 30
0.0
 11
18.99999999999987
 21
-18.95024051531564
 31
0.0
  0
LINE
  5
1D5
330
1F
100
AcDbEntity
  8
1
100
AcDbLine
 10
19.71790743889997
 20
11.50000000000001
 30
0.0
 11
19.71790743889997
 21
-19.37562590614996
 31
0.0
  0
LINE
  5
1D6
330
1F
100
AcDbEntity
  8
3
100
AcDbLine
 10
21.49999998304997
 20
-5.499999999999971
 30
0.0
 11
27.21171436039998
 21
-5.499999999999971
 31
0.0
  0
LWPOLYLINE
  5
1D7
330
1F
100
AcDbEntity
  8
1
100
AcDbPolyline
 90
        7
 70
     0
 43
0.0
 10
27.68924927072669
 20
-19.4154204210321
 10
25.72444065210004
 20
-19.41251633554982
 10
24.52206294074994
 20
-19.40887084639992
 10
23.31997943664998
 20
-19.40335671189992
 10
22.11846859414998
 20
-19.39597664009991
 10
20.9178088676
 20
-19.3867333390498
 10
19.71790743889997
 20
-19.37562590614996
  0
LINE
  5
1D8
330
1F
100
AcDbEntity
  8
1
100
AcDbLine
 10
0.0
 20
-5.799999999999926
 30
0.0
 11
0.0
 21
-17.99999999999996
 31
0.0
  0
LINE
  5
1D9
330
1F
100
AcDbEntity
  8
1
100
AcDbLine
 10
11.3666044317689
 20
-18.99999999999996
 30
0.0
 11
1.000000000000113
 21
-18.99999999999996
 31
0.0
  0
ARC
  5
1DA
330
1F
100
AcDbEntity
  8
1
100
AcDbCircle
 10
1.000000000000113
 20
-17.99999999999996
 30
0.0
 40
0.9999999999999998
100
AcDbArc
 50
180.0
 51
270.0
  0
LWPOLYLINE
  5
1DB
330
1F
100
AcDbEntity
  8
1
100
AcDbPolyline
 90
       10
 70
     0
 43
0.0
 10
13.99723615050004
 20
-18.94895281414997
 10
14.32662556469995
 20
-18.9435624094498
 10
14.67034928124997
 20
-18.93860284974991
 10
15.03109416384995
 20
-18.93430563519993
 10
15.41130287764997
 20
-18.93081183184998
 10
15.81427374700001
 20
-18.92847433134991
 10
16.24383542930002
 20
-18.92750064974993
 10
16.70083959024998
 20
-18.92838042569994
 10
17.18768010040003
 20
-18.93164056824981
 10
17.70355900284994
 20
-18.93693506414982
  0
LWPOLYLINE
  5
1DC
330
1F
100
AcDbEntity
  8
1
100
AcDbPolyline
 90
        3
 70
     0
 43
0.0
 10
11.3666044317689
 20
-18.99999999999996
 10
12.77070454959999
 20
-18.97262497639994
 10
13.37111397435001
 20
-18.96058854109982
  0
LINE
  5
1DD
330
1F
100
AcDbEntity
  8
1
100
AcDbLine
 10
13.37111397435001
 20
-18.96058854109982
 30
0.0
 11
13.99723615050004
 21
-18.94895281414997
 31
0.0
  0
LWPOLYLINE
  5
1DE
330
1F
100
AcDbEntity
  8
1
100
AcDbPolyline
 90
        3
 70
     0
 43
0.0
 10
18.99999999999987
 20
-18.95258718914979
 10
18.67565355339996
 20
-18.94888116429982
 10
17.70355900284994
 20
-18.93693506414982
  0
LINE
  5
1DF
330
1F
100
AcDbEntity
  8
1
100
AcDbLine
 10
19.71790743889997
 20
-19.37562590614996
 30
0.0
 11
18.99999999999987
 21
-18.95258718914979
 31
0.0
  0
LINE
  5
1E0
330
1F
100
AcDbEntity
  8
3
100
AcDbLine
 10
0.8000000000000682
 20
-10.99999999999984
 30
0.0
 11
16.0
 21
-10.99999999999997
 31
0.0
  0
LINE
  5
1E1
330
1F
100
AcDbEntity
  8
3
100
AcDbLine
 10
0.7999999999999547
 20
-5.200000000000017
 30
0.0
 11
0.7999999999999547
 21
-10.99999999999997
 31
0.0
  0
LINE
  5
1E2
330
1F
100
AcDbEntity
  8
3
100
AcDbLine
 10
0.0
 20
-11.79999999999991
 30
0.0
 11
0.7999999999999547
 21
-10.99999999999997
 31
0.0
  0
LINE
  5
1E3
330
1F
100
AcDbEntity
  8
1
100
AcDbLine
 10
0.7999999999999547
 20
-5.200000000000017
 30
0.0
 11
5.900000000000089
 21
-5.200000000000017
 31
0.0
  0
LINE
  5
1E4
330
1F
100
AcDbEntity
  8
1
100
AcDbLine
 10
0.0
 20
-5.799999999999926
 30
0.0
 11
0.5999999999999659
 21
-5.200000000000017
 31
0.0
  0
LINE
  5
1E5
330
1F
100
AcDbEntity
  8
1
100
AcDbLine
 10
0.5999999999999659
 20
-5.200000000000017
 30
0.0
 11
0.7999999999999547
 21
-5.200000000000017
 31
0.0
  0
ARC
  5
1E6
330
1F
100
AcDbEntity
  8
1
100
AcDbCircle
 10
5.900000000000089
 20
-4.799999999999925
 30
0.0
 40
0.3999999999999999
100
AcDbArc
 50
270.0
 51
0.0
  0
LINE
  5
1E7
330
1F
100
AcDbEntity
  8
3
100
AcDbLine
 10
16.0
 20
-11.49999999999997
 30
0.0
 11
20.99999999999988
 21
-11.49999999999997
 31
0.0
  0
LINE
  5
1E8
330
1F
100
AcDbEntity
  8
1
100
AcDbLine
 10
39.44017299999996
 20
-16.51297099999996
 30
0.0
 11
38.58402000000001
 21
-12.18645499999993
 31
0.0
  0
LINE
  5
1E9
330
1F
100
AcDbEntity
  8
1
100
AcDbLine
 10
39.35853499999996
 20
-16.63692899999992
 30
0.0
 11
38.50238200000001
 21
-12.34824299999994
 31
0.0
  0
LWPOLYLINE
  5
1EA
330
1F
100
AcDbEntity
  8
1
100
AcDbPolyline
 90
       23
 70
     0
 43
0.0
 10
25.15258299999993
 20
-14.02971699999997
 10
25.15322084219997
 20
-14.04490563176651
 10
25.15456699999998
 20
-14.06005399999995
 10
25.1565696243
 20
-14.0745789846666
 10
25.15929699999998
 20
-14.08898299999995
 10
25.16270775646671
 20
-14.1029930027332
 10
25.16682099999997
 20
-14.11681399999994
 10
25.17168858706668
 20
-14.13064271296664
 10
25.17719699999998
 20
-14.144229
 10
25.18363231823331
 20
-14.1582647429332
 10
25.19065599999999
 20
-14.17201599999994
 10
25.19876893373339
 20
-14.18644272393319
 10
25.20741700000007
 20
-14.20055499999992
 10
25.21738690309996
 20
-14.21563444179994
 10
25.22778499999998
 20
-14.23042299999994
 10
25.23928058236657
 20
-14.24604559493327
 10
25.25100899999994
 20
-14.26149399999994
 10
25.27637599999996
 20
-14.29404999999993
 10
25.30381799999998
 20
-14.32833699999994
 10
25.33366499999999
 20
-14.36462299999996
 10
25.36617999999998
 20
-14.40325599999997
 10
25.401657
 20
-14.44446099999996
 10
25.44022899999998
 20
-14.48830099999995
  0
LWPOLYLINE
  5
1EB
330
1F
100
AcDbEntity
  8
1
100
AcDbPolyline
 90
       23
 70
     0
 43
0.0
 10
25.39060599999999
 20
-13.96766800000001
 10
25.39552173356668
 20
-13.99207143286647
 10
25.40112799999997
 20
-14.01632399999996
 10
25.40739449896671
 20
-14.04039085109993
 10
25.41430200000002
 20
-14.06428199999996
 10
25.42184327163339
 20
-14.08803932223317
 10
25.42997500000001
 20
-14.11160099999998
 10
25.43871236810002
 20
-14.13507678976665
 10
25.44798600000001
 20
-14.15834599999996
 10
25.45783693960004
 20
-14.18157072606666
 10
25.46816999999987
 20
-14.2045849999999
 10
25.47905043826654
 20
-14.22758943936664
 10
25.49035800000001
 20
-14.25038699999996
 10
25.50217805429991
 20
-14.27320502626659
 10
25.51437099999998
 20
-14.29582599999994
 10
25.52706359613329
 20
-14.31853323473333
 10
25.54007899999987
 20
-14.34105699999995
 10
25.5535978538
 20
-14.36375449809994
 10
25.56738999999998
 20
-14.38628699999995
 10
25.59603699999996
 20
-14.43146799999996
 10
25.62572599999998
 20
-14.47654799999995
 10
25.65614999999997
 20
-14.52147799999997
 10
25.779402
 20
-14.69932099999996
  0
LINE
  5
1EC
330
1F
100
AcDbEntity
  8
1
100
AcDbLine
 10
32.80520699999998
 20
-19.89836999999996
 30
0.0
 11
33.34868899999998
 21
-19.89798699999997
 31
0.0
  0
LINE
  5
1ED
330
1F
100
AcDbEntity
  8
1
100
AcDbLine
 10
35.63842199999999
 20
-19.97341799999994
 30
0.0
 11
32.85756800000001
 21
-19.96960099999992
 31
0.0
  0
LINE
  5
1EE
330
1F
100
AcDbEntity
  8
1
100
AcDbLine
 10
39.02004332256672
 20
-18.94314096970001
 30
0.0
 11
27.7117143434001
 21
-19.41448405309998
 31
0.0
  0
LINE
  5
1EF
330
1F
100
AcDbEntity
  8
1
100
AcDbLine
 10
29.46760999999998
 20
-19.92153799999996
 30
0.0
 11
27.32763699999998
 21
-19.94895199999993
 31
0.0
  0
LINE
  5
1F0
330
1F
100
AcDbEntity
  8
1
100
AcDbLine
 10
30.07710199999996
 20
-19.97831599999996
 30
0.0
 11
27.223117
 21
-19.99999999999996
 31
0.0
  0
LWPOLYLINE
  5
1F1
330
1F
100
AcDbEntity
  8
1
100
AcDbPolyline
 90
       59
 70
     0
 43
0.0
 10
27.02049899999996
 20
-19.62938199999993
 10
27.0214724416333
 20
-19.63402884773316
 10
27.02254099999999
 20
-19.63865499999993
 10
27.0237557735
 20
-19.64344046483321
 10
27.025079
 20
-19.64819699999995
 10
27.02650272263326
 20
-19.65288998489998
 10
27.02803399999999
 20
-19.65754899999993
 10
27.02968822923332
 20
-19.66222207209992
 10
27.03144399999996
 20
-19.66685799999996
 10
27.03334281420001
 20
-19.67156865889992
 10
27.03534100000001
 20
-19.67623799999992
 10
27.03748315646668
 20
-19.68096196733321
 10
27.03972599999996
 20
-19.68563899999995
 10
27.04210687416673
 20
-19.69034305396651
 10
27.04458799999996
 20
-19.69499499999997
 10
27.04720743426668
 20
-19.69966271389992
 10
27.04992499999996
 20
-19.70427399999996
 10
27.05278512216671
 20
-19.70890411199994
 10
27.055739
 20
-19.71347499999993
 10
27.05884282913331
 20
-19.71807364623319
 10
27.06203699999996
 20
-19.72260999999994
 10
27.06538427513327
 20
-19.72717123003323
 10
27.06881899999996
 20
-19.73166699999993
 10
27.07240532100001
 20
-19.73618066869991
 10
27.07607599999994
 20
-19.74062599999993
 10
27.07989835269994
 20
-19.74508300423318
 10
27.08380199999999
 20
-19.74946899999994
 10
27.08785908996667
 20
-19.75386456069994
 10
27.091994
 20
-19.75818699999993
 10
27.09628474956662
 20
-19.76251705366652
 10
27.10064999999996
 20
-19.76677199999996
 10
27.10517194136667
 20
-19.77103138759994
 10
27.10976499999998
 20
-19.77521399999996
 10
27.11451495936666
 20
-19.77939729889996
 10
27.11933299999998
 20
-19.78350199999997
 10
27.12430364576658
 20
-19.78759938219994
 10
27.12933899999995
 20
-19.79161699999994
 10
27.13452968083334
 20
-19.79562704406665
 10
27.13978199999997
 20
-19.79955599999996
 10
27.1451945540333
 20
-19.80347629943328
 10
27.150666
 20
-19.80731399999993
 10
27.15630040296668
 20
-19.81114152806657
 10
27.16199099999994
 20
-19.81488499999996
 10
27.16783308363329
 20
-19.81860594989998
 10
27.17372899999998
 20
-19.82224099999993
 10
27.17977746563338
 20
-19.82584998603319
 10
27.185877
 20
-19.82937199999994
 10
27.19213565186658
 20
-19.83286881659992
 10
27.198443
 20
-19.83627699999996
 10
27.20491619723338
 20
-19.83965787026662
 10
27.21143599999999
 20
-19.84294799999995
 10
27.21811428759997
 20
-19.84620289259996
 10
27.22483699999996
 20
-19.84936499999994
 10
27.2317063109333
 20
-19.85248058006648
 10
27.23861799999996
 20
-19.85550099999996
 10
27.24566694296663
 20
-19.85846659759991
 10
27.25275599999998
 20
-19.86133499999996
 10
27.2599740638667
 20
-19.8641407511665
 10
27.26722999999998
 20
-19.86684699999996
  0
LWPOLYLINE
  5
1F2
330
1F
100
AcDbEntity
  8
1
100
AcDbPolyline
 90
       59
 70
     0
 43
0.0
 10
27.26723299999996
 20
-19.86684599999992
 10
27.26736843976664
 20
-19.86783164333317
 10
27.26758199999995
 20
-19.86880199999993
 10
27.26788816290001
 20
-19.86981894729993
 10
27.26826599999998
 20
-19.87081200000003
 10
27.26874428923327
 20
-19.87185427239998
 10
27.26928600000007
 20
-19.87286499999996
 10
27.2699357825333
 20
-19.87392744766665
 10
27.27064099999994
 20
-19.87495400000003
 10
27.27146234586661
 20
-19.87603175809996
 10
27.272332
 20
-19.87707099999997
 10
27.27332387173339
 20
-19.87816001343335
 10
27.274358
 20
-19.87920899999996
 10
27.2755194340333
 20
-19.88030246606663
 10
27.27671900000007
 20
-19.88135399999994
 10
27.27805117876653
 20
-19.88244435976664
 10
27.27941799999996
 20
-19.88349099999996
 10
27.2809253700667
 20
-19.88457296076651
 10
27.282464
 20
-19.88560999999995
 10
27.28415207253329
 20
-19.88668073673321
 10
27.28586699999993
 20
-19.88770799999993
 10
27.28771975103331
 20
-19.88876033806652
 10
27.28959499999996
 20
-19.88977199999996
 10
27.29159564403329
 20
-19.89079863559996
 10
27.29361599999998
 20
-19.89178599999993
 10
27.29575467916657
 20
-19.89278207673319
 10
27.29791199999999
 20
-19.89373699999996
 10
27.30020732399987
 20
-19.89469966649996
 10
27.30252000000007
 20
-19.89561999999996
 10
27.30495905726667
 20
-19.89654377569992
 10
27.30741199999988
 20
-19.89742999999995
 10
27.30997318906656
 20
-19.8983146861333
 10
27.31254599999999
 20
-19.89916499999995
 10
27.31521471316671
 20
-19.90000910106667
 10
27.31789399999996
 20
-19.90081899999992
 10
27.3206909610667
 20
-19.90162539739984
 10
27.32349799999996
 20
-19.90239599999992
 10
27.32641181479994
 20
-19.90315640593323
 10
27.32933500000001
 20
-19.90387999999993
 10
27.33234605910002
 20
-19.90458509473316
 10
27.33536599999996
 20
-19.90525099999993
 10
27.33845278453339
 20
-19.9058894087666
 10
27.34154699999999
 20
-19.90649099999993
 10
27.34468935353334
 20
-19.90706683213321
 10
27.34783799999997
 20
-19.90760699999994
 10
27.35106584990001
 20
-19.90812009569994
 10
27.35429999999996
 20
-19.90859199999997
 10
27.35765760829997
 20
-19.90903662189993
 10
27.36102099999992
 20
-19.90943499999994
 10
27.36455015829999
 20
-19.90980244793317
 10
27.36808399999994
 20
-19.91012199999996
 10
27.37178141699995
 20
-19.91040905976651
 10
27.37548199999996
 20
-19.91065199999994
 10
27.3793289708667
 20
-19.9108611883332
 10
27.38317799999999
 20
-19.91102799999994
 10
27.3871749170666
 20
-19.91115782389996
 10
27.39117299999998
 20
-19.91124599999997
 10
27.39532039829986
 20
-19.91129639183323
 10
27.39946799999994
 20
-19.91130799999993
  0
LWPOLYLINE
  5
1F3
330
1F
100
AcDbEntity
  8
1
100
AcDbPolyline
 90
       59
 70
     0
 43
0.0
 10
26.82826399999999
 20
-19.66603699999993
 10
26.82980725086656
 20
-19.67338650053321
 10
26.83153699999996
 20
-19.68069399999993
 10
26.8335430317333
 20
-19.68830337609998
 10
26.83573999999998
 20
-19.69585999999982
 10
26.83823892650002
 20
-19.70371638306662
 10
26.84093299999994
 20
-19.71150799999994
 10
26.84396037166669
 20
-19.71960562443323
 10
26.84718699999996
 20
-19.72762599999995
 10
26.85075254063338
 20
-19.73589801986665
 10
26.85451799999998
 20
-19.74408099999996
 10
26.85862455130004
 20
-19.75246765659997
 10
26.86293
 20
-19.76075399999993
 10
26.86759810729995
 20
-19.76924139199994
 10
26.87246399999998
 20
-19.77761699999993
 10
26.87769469313332
 20
-19.78615744829991
 10
26.88312099999996
 20
-19.79457499999992
 10
26.88892934223338
 20
-19.80314695203335
 10
26.89493199999998
 20
-19.81158399999995
 10
26.90130387646672
 20
-19.82012253313317
 10
26.90786700000001
 20
-19.82851499999995
 10
26.91476514003328
 20
-19.83693969986663
 10
26.92184999999994
 20
-19.84520799999993
 10
26.92929207223329
 20
-19.85350976076662
 10
26.93691799999987
 20
-19.86164299999993
 10
26.9447986859667
 20
-19.86968202166653
 10
26.95285599999988
 20
-19.87754399999996
 10
26.9610958184333
 20
-19.88523521436664
 10
26.96950399999996
 20
-19.89274199999996
 10
26.97809252856655
 20
-19.90007390949998
 10
26.98684199999997
 20
-19.90721299999992
 10
26.99563241686655
 20
-19.91406656306659
 10
27.00457299999992
 20
-19.92072299999992
 10
27.01353919246667
 20
-19.92709236639992
 10
27.02264600000001
 20
-19.93325899999993
 10
27.0317085635333
 20
-19.93910277549994
 10
27.04090099999996
 20
-19.94473999999994
 10
27.04992782776661
 20
-19.94999794689991
 10
27.05907200000001
 20
-19.95504899999994
 10
27.06805248576654
 20
-19.95974434956664
 10
27.07713899999999
 20
-19.96423099999995
 10
27.08601246859996
 20
-19.96835880473317
 10
27.09497999999996
 20
-19.97227799999993
 10
27.10369247009987
 20
-19.97584428176664
 10
27.11248699999987
 20
-19.97920299999995
 10
27.12102515489998
 20
-19.9822316549332
 10
27.12963400000001
 20
-19.98505299999996
 10
27.1379883189
 20
-19.98756678296651
 10
27.14640200000007
 20
-19.98987399999995
 10
27.15455542090001
 20
-19.99189332989996
 10
27.16275699999994
 20
-19.99370699999994
 10
27.17068155543325
 20
-19.99524931919992
 10
27.17864300000007
 20
-19.99658799999993
 10
27.18631366786655
 20
-19.99767492049991
 10
27.19400999999999
 20
-19.99856199999996
 10
27.20141818426668
 20
-19.99921980229996
 10
27.20884100000001
 20
-19.99968199999996
 10
27.21597671129996
 20
-19.99993635289992
 10
27.22311699999989
 20
-19.99999999999996
  0
LWPOLYLINE
  5
1F4
330
1F
100
AcDbEntity
  8
1
100
AcDbPolyline
 90
       40
 70
     0
 43
0.0
 10
27.39855099999999
 20
-19.9113109999999
 10
27.39611100000002
 20
-19.91193799999993
 10
27.39366999999998
 20
-19.91258299999994
 10
27.39122199999997
 20
-19.91325399999996
 10
27.38876099999998
 20
-19.91395699999995
 10
27.38628199999992
 20
-19.91469999999995
 10
27.383778
 20
-19.91549199999994
 10
27.38124199999998
 20
-19.91633999999996
 10
27.37866699999994
 20
-19.91725399999992
 10
27.37604499999996
 20
-19.91824299999993
 10
27.373376
 20
-19.91931099999996
 10
27.37066499999996
 20
-19.92045999999996
 10
27.36792099999997
 20
-19.9216899999999
 10
27.36653162623326
 20
-19.92233787123321
 10
27.36514899999996
 20
-19.92299999999996
 10
27.36375038536664
 20
-19.92368823769996
 10
27.36235899999996
 20
-19.92439099999993
 10
27.36095409603331
 20
-19.92511856893317
 10
27.35955699999988
 20
-19.92586099999996
 10
27.35815120553331
 20
-19.92662822493318
 10
27.35675399999996
 20
-19.92741100000003
 10
27.35535086373328
 20
-19.92821754533317
 10
27.35395699999996
 20
-19.92903999999995
 10
27.35256239666671
 20
-19.92988518699992
 10
27.351178
 20
-19.93074699999996
 10
27.34979645696671
 20
-19.93163045446661
 10
27.34842600000002
 20
-19.93253099999984
 10
27.34706333383326
 20
-19.93345121523319
 10
27.34571199999999
 20
-19.93438799999992
 10
27.34438028800002
 20
-19.9353342496332
 10
27.34305899999998
 20
-19.93629499999994
 10
27.34177235620001
 20
-19.93725081169993
 10
27.34049499999996
 20
-19.93821900000003
 10
27.33804800000007
 20
-19.94012599999993
 10
27.33574899999996
 20
-19.94197799999997
 10
27.33362899999996
 20
-19.94373399999997
 10
27.33172200000001
 20
-19.94535499999996
 10
27.33006299999999
 20
-19.94679599999997
 10
27.32868899999994
 20
-19.94800999999992
 10
27.32763699999998
 20
-19.94895199999993
  0
LWPOLYLINE
  5
1F5
330
1F
100
AcDbEntity
  8
1
100
AcDbPolyline
 90
       26
 70
     0
 43
0.0
 10
25.44022899999998
 20
-14.48830099999995
 10
25.57582599999999
 20
-14.63958799999997
 10
25.60195490310002
 20
-14.66924035379993
 10
25.62787199999997
 20
-14.69907799999995
 10
25.65455353193327
 20
-14.73039016729992
 10
25.68086599999998
 20
-14.76201299999994
 10
25.70637925366657
 20
-14.79353693393321
 10
25.73141199999998
 20
-14.82544399999997
 10
25.75459519363329
 20
-14.85601756196651
 10
25.77720799999996
 20
-14.88701499999993
 10
25.7977114583
 20
-14.91636393669992
 10
25.81755599999997
 20
-14.94616199999993
 10
25.83523235066667
 20
-14.97411914103317
 10
25.852213
 20
-15.00250399999984
 10
25.8674372196333
 20
-15.02949930169991
 10
25.88194499999996
 20
-15.05688599999993
 10
25.8949042622666
 20
-15.08302958703316
 10
25.90714700000001
 20
-15.10951599999994
 10
25.91807291396667
 20
-15.13496328633318
 10
25.92830099999996
 20
-15.16069899999993
 10
25.93750430119996
 20
-15.18583853036649
 10
25.946008
 20
-15.21122299999993
 10
25.9536461321
 20
-15.23635536346651
 10
25.96056899999996
 20
-15.26169399999995
 10
25.96670429676668
 20
-15.28696481639993
 10
25.97211099999998
 20
-15.31240199999993
  0
LWPOLYLINE
  5
1F6
330
1F
100
AcDbEntity
  8
1
100
AcDbPolyline
 90
       24
 70
     0
 43
0.0
 10
25.779402
 20
-14.69932099999996
 10
25.80971999999996
 20
-14.74390199999996
 10
25.839376
 20
-14.78864899999993
 10
25.86808099999996
 20
-14.83352599999997
 10
25.8819499947333
 20
-14.85592977383317
 10
25.89556799999996
 20
-14.87848699999998
 10
25.90872702269994
 20
-14.9008944060333
 10
25.92158999999998
 20
-14.92347299999997
 10
25.93392766103328
 20
-14.94585773183322
 10
25.94593199999996
 20
-14.96842299999994
 10
25.95742350843341
 20
-14.99085815646658
 10
25.96854699999994
 20
-15.01347799999993
 10
25.97915372556656
 20
-15.03601586139993
 10
25.98935299999993
 20
-15.05874099999997
 10
25.99901514623331
 20
-15.0814027412666
 10
26.00822999999996
 20
-15.10424999999995
 10
26.01688946460001
 20
-15.12705469806664
 10
26.02506299999999
 20
-15.15003799999996
 10
26.03266679716671
 20
-15.17300574119992
 10
26.03974799999996
 20
-15.1961399999999
 10
26.04624622886666
 20
-15.21928812336651
 10
26.052188
 20
-15.24258499999993
 10
26.05753489323331
 20
-15.26593082479991
 10
26.06229199999996
 20
-15.28940499999996
  0
LWPOLYLINE
  5
1F7
330
1F
100
AcDbEntity
  8
1
100
AcDbPolyline
 90
        3
 70
     0
 43
0.0
 10
26.06933099999996
 20
-15.28805300000001
 10
26.06581099999994
 20
-15.28872099999992
 10
26.06229199999996
 20
-15.28940499999996
  0
LWPOLYLINE
  5
1F8
330
1F
100
AcDbEntity
  8
1
100
AcDbPolyline
 90
       14
 70
     0
 43
0.0
 10
26.11859800000002
 20
-15.28038099999994
 10
26.11507899999998
 20
-15.28082399999996
 10
26.11155999999994
 20
-15.28128399999994
 10
26.10804099999994
 20
-15.28175999999993
 10
26.10452099999998
 20
-15.28225199999994
 10
26.10100199999999
 20
-15.28275999999996
 10
26.09748300000001
 20
-15.28328399999995
 10
26.09396399999996
 20
-15.28382399999995
 10
26.09044499999999
 20
-15.28437999999997
 10
26.08692599999995
 20
-15.28495199999994
 10
26.08340699999996
 20
-15.28553999999994
 10
26.07988799999998
 20
-15.28614399999995
 10
26.076369
 20
-15.28676399999997
 10
26.07285
 20
-15.28739999999996
  0
LWPOLYLINE
  5
1F9
330
1F
100
AcDbEntity
  8
1
100
AcDbPolyline
 90
        3
 70
     0
 43
0.0
 10
26.12915499999996
 20
-15.27914599999994
 10
26.12563599999998
 20
-15.27954099999996
 10
26.122117
 20
-15.27995299999995
  0
LINE
  5
1FA
330
1F
100
AcDbEntity
  8
1
100
AcDbLine
 10
26.13619299999999
 20
-15.27840299999994
 30
0.0
 11
26.13267399999994
 21
-15.27876599999993
 31
0.0
  0
LWPOLYLINE
  5
1FB
330
1F
100
AcDbEntity
  8
1
100
AcDbPolyline
 90
        5
 70
     0
 43
0.0
 10
26.15378899999996
 20
-15.27682699999994
 10
26.15026999999996
 20
-15.27710999999996
 10
26.14675099999999
 20
-15.27740899999995
 10
26.14323100000001
 20
-15.27772399999995
 10
26.13971199999996
 20
-15.27805499999996
  0
LWPOLYLINE
  5
1FC
330
1F
100
AcDbEntity
  8
1
100
AcDbPolyline
 90
        3
 70
     0
 43
0.0
 10
26.16434599999996
 20
-15.27607399999996
 10
26.16082699999996
 20
-15.27630799999994
 10
26.15730799999994
 20
-15.27655899999993
  0
LINE
  5
1FD
330
1F
100
AcDbEntity
  8
1
100
AcDbLine
 10
26.16434599999996
 20
-15.27607399999996
 30
0.0
 11
27.02049899999996
 21
-19.62938199999993
 31
0.0
  0
LINE
  5
1FE
330
1F
100
AcDbEntity
  8
1
100
AcDbLine
 10
25.97211099999998
 20
-15.31240199999993
 30
0.0
 11
26.82826399999999
 21
-19.66603699999993
 31
0.0
  0
LINE
  5
1FF
330
1F
100
AcDbEntity
  8
1
100
AcDbLine
 10
31.65063799999995
 20
-19.90365699999992
 30
0.0
 11
29.46760999999998
 21
-19.92153799999996
 31
0.0
  0
LINE
  5
200
330
1F
100
AcDbEntity
  8
1
100
AcDbLine
 10
32.85756800000001
 20
-19.96960099999992
 30
0.0
 11
30.07710199999996
 21
-19.97831599999996
 31
0.0
  0
LINE
  5
201
330
1F
100
AcDbEntity
  8
1
100
AcDbLine
 10
32.79451099999994
 20
-19.89840499999994
 30
0.0
 11
31.65063799999995
 21
-19.90365699999992
 31
0.0
  0
LINE
  5
202
330
1F
100
AcDbEntity
  8
1
100
AcDbLine
 10
39.13198999999996
 20
-19.92543399999996
 30
0.0
 11
39.09616399999999
 21
-19.92583199999993
 31
0.0
  0
LINE
  5
203
330
1F
100
AcDbEntity
  8
1
100
AcDbLine
 10
39.22648599999996
 20
-19.99726799999993
 30
0.0
 11
38.94202599999992
 21
-19.99334699999994
 31
0.0
  0
ARC
  5
204
330
1F
100
AcDbEntity
  8
1
100
AcDbCircle
 10
39.01171434340005
 20
-18.74331447469998
 30
0.0
 40
0.2
100
AcDbArc
 50
272.3867669983014
 51
0.0
  0
LINE
  5
205
330
1F
100
AcDbEntity
  8
1
100
AcDbLine
 10
37.05961699999999
 20
-19.92900599999993
 30
0.0
 11
37.74277899999996
 21
-19.93207899999996
 31
0.0
  0
LINE
  5
206
330
1F
100
AcDbEntity
  8
1
100
AcDbLine
 10
38.94202599999992
 20
-19.99334699999994
 30
0.0
 11
35.63842199999999
 21
-19.97341799999994
 31
0.0
  0
LWPOLYLINE
  5
207
330
1F
100
AcDbEntity
  8
1
100
AcDbPolyline
 90
        3
 70
     0
 43
0.0
 10
39.09616399999999
 20
-19.92583199999993
 10
39.08709499999996
 20
-19.92597399999996
 10
39.07715399999995
 20
-19.92619299999992
  0
LINE
  5
208
330
1F
100
AcDbEntity
  8
1
100
AcDbLine
 10
39.07715399999995
 20
-19.92619299999992
 30
0.0
 11
38.68318899999996
 21
-19.92992199999994
 31
0.0
  0
LINE
  5
209
330
1F
100
AcDbEntity
  8
1
100
AcDbLine
 10
38.68318899999996
 20
-19.92992199999994
 30
0.0
 11
38.25901299999996
 21
-19.93195299999993
 31
0.0
  0
LINE
  5
20A
330
1F
100
AcDbEntity
  8
1
100
AcDbLine
 10
37.74277899999996
 20
-19.93207899999996
 30
0.0
 11
38.25901299999996
 21
-19.93195299999993
 31
0.0
  0
LINE
  5
20B
330
1F
100
AcDbEntity
  8
1
100
AcDbLine
 10
33.34868899999998
 20
-19.89798699999997
 30
0.0
 11
34.03092599999996
 21
-19.90078399999996
 31
0.0
  0
LINE
  5
20C
330
1F
100
AcDbEntity
  8
1
100
AcDbLine
 10
34.03092599999996
 20
-19.90078399999996
 30
0.0
 11
37.05961699999999
 21
-19.92900599999993
 31
0.0
  0
LWPOLYLINE
  5
20D
330
1F
100
AcDbEntity
  8
1
100
AcDbPolyline
 90
       59
 70
     0
 43
0.0
 10
39.96674199999995
 20
-19.82077999999992
 10
39.9627132982
 20
-19.82667054059996
 10
39.95858599999996
 20
-19.83249200000003
 10
39.9543980458667
 20
-19.83820522856651
 10
39.95012599999995
 20
-19.84385599999993
 10
39.94581449263328
 20
-19.84939642659982
 10
39.94142599999998
 20
-19.85487599999996
 10
39.93700125483332
 20
-19.8602429891666
 10
39.93249999999999
 20
-19.86554599999996
 10
39.92796316279997
 20
-19.87073636993321
 10
39.92334999999996
 20
-19.87585899999996
 10
39.91869902406659
 20
-19.88086933683321
 10
39.91397199999994
 20
-19.88580799999996
 10
39.90920755086659
 20
-19.89063416249993
 10
39.90436799999997
 20
-19.89538499999994
 10
39.89948913579997
 20
-19.90002418776664
 10
39.89453599999999
 20
-19.90458399999996
 10
39.88954236710002
 20
-19.90903209979992
 10
39.88447499999995
 20
-19.91339599999994
 10
39.87936696669999
 20
-19.91764511926666
 10
39.87418600000001
 20
-19.92180499999997
 10
39.86899369713329
 20
-19.92582628979996
 10
39.86373099999996
 20
-19.92975499999996
 10
39.85845289240001
 20
-19.93355005529994
 10
39.85310699999995
 20
-19.93724899999992
 10
39.8477263986
 20
-19.94082818799991
 10
39.84228099999995
 20
-19.94430799999993
 10
39.83678639519995
 20
-19.94767857989998
 10
39.831231
 20
-19.95094799999995
 10
39.82561776599988
 20
-19.9541151746333
 10
39.81994799999995
 20
-19.95717999999996
 10
39.81421037910001
 20
-19.96014863273314
 10
39.80841999999995
 20
-19.96301299999996
 10
39.80255174533329
 20
-19.96578464933323
 10
39.79663399999997
 20
-19.96844899999993
 10
39.79062620186664
 20
-19.97102257366664
 10
39.78457199999997
 20
-19.97348499999995
 10
39.77841495543325
 20
-19.97585724823321
 10
39.77221499999996
 20
-19.97811499999997
 10
39.76591393866668
 20
-19.98027837443319
 10
39.75957399999998
 20
-19.98232499999996
 10
39.75317505259999
 20
-19.98426171836664
 10
39.74674199999997
 20
-19.98608199999992
 10
39.74025977179996
 20
-19.98779115743328
 10
39.73374799999999
 20
-19.98938399999994
 10
39.72719360306653
 20
-19.99086368899994
 10
39.72061399999995
 20
-19.99222699999992
 10
39.71399841993331
 20
-19.99347697043336
 10
39.70736199999999
 20
-19.99461099999993
 10
39.70069220236666
 20
-19.99563175599993
 10
39.69400599999993
 20
-19.99653899999994
 10
39.68728455156656
 20
-19.99733775493317
 10
39.68055099999996
 20
-19.99802699999995
 10
39.67377914653343
 20
-19.99861092819982
 10
39.66699899999996
 20
-19.99908899999994
 10
39.66017693539999
 20
-19.99946564549994
 10
39.65334999999999
 20
-19.99974099999993
 10
39.64647985083343
 20
-19.99991875553321
 10
39.63960799999995
 20
-19.99999999999996
  0
LWPOLYLINE
  5
20E
330
1F
100
AcDbEntity
  8
1
100
AcDbPolyline
 90
       37
 70
     0
 43
0.0
 10
40.02008899999998
 20
-19.64411499999996
 10
40.02012300000001
 20
-19.64996399999992
 10
40.02002099999996
 20
-19.65592399999994
 10
40.01978499999995
 20
-19.66197899999994
 10
40.01942099999996
 20
-19.66810799999993
 10
40.01893099999995
 20
-19.67429499999994
 10
40.01831900000001
 20
-19.68051699999992
 10
40.01758999999998
 20
-19.68675699999996
 10
40.01673999999996
 20
-19.69300699999993
 10
40.01576599999999
 20
-19.69926299999994
 10
40.01466699999997
 20
-19.70551999999995
 10
40.01343599999994
 20
-19.71177399999996
 10
40.01207199999996
 20
-19.71802099999992
 10
40.01057099999996
 20
-19.72425499999993
 10
40.00892999999996
 20
-19.73047299999993
 10
40.00714899999997
 20
-19.73667499999996
 10
40.005224
 20
-19.74285799999992
 10
40.00315499999999
 20
-19.74902199999993
 10
40.00093900000002
 20
-19.75516499999995
 10
39.99977424929999
 20
-19.75823116653319
 10
39.99857499999995
 20
-19.76128399999996
 10
39.99733559173328
 20
-19.76433704663318
 10
39.99606199999993
 20
-19.76737599999992
 10
39.9947476850666
 20
-19.77041654839992
 10
39.99339899999995
 20
-19.77344199999996
 10
39.99200780593332
 20
-19.77646857176662
 10
39.99058200000002
 20
-19.77947899999994
 10
39.98911355516657
 20
-19.78249043886651
 10
39.98761100000001
 20
-19.78548499999996
 10
39.9860656542333
 20
-19.78847971039996
 10
39.98448699999993
 20
-19.79145699999995
 10
39.98286639273328
 20
-19.79443426136666
 10
39.98121399999996
 20
-19.79739399999997
 10
39.97779699999998
 20
-19.80329599999984
 10
39.97424199999999
 20
-19.80916099999993
 10
39.97055499999999
 20
-19.81498899999994
 10
39.96674199999995
 20
-19.82077999999992
  0
LWPOLYLINE
  5
20F
330
1F
100
AcDbEntity
  8
1
100
AcDbPolyline
 90
       59
 70
     0
 43
0.0
 10
39.96934799999996
 20
-19.50764899999993
 10
39.96924457770001
 20
-19.51481382239998
 10
39.96902999999996
 20
-19.52197699999996
 10
39.9686715217666
 20
-19.52944661933323
 10
39.96815900000001
 20
-19.53690699999993
 10
39.96744415316664
 20
-19.54466771876653
 10
39.96653299999996
 20
-19.55240799999993
 10
39.9653633282333
 20
-19.56044728216649
 10
39.96395999999998
 20
-19.56844899999995
 10
39.96224021809996
 20
-19.57675033129996
 10
39.96026599999999
 20
-19.58499499999996
 10
39.95795394633329
 20
-19.5935040747332
 10
39.95539399999995
 20
-19.60194199999992
 10
39.95250626563329
 20
-19.61057936933323
 10
39.94938199999999
 20
-19.61913399999994
 10
39.94593877213332
 20
-19.62782542689993
 10
39.94226500000002
 20
-19.63642199999995
 10
39.93828544063328
 20
-19.6450951225332
 10
39.93407999999997
 20
-19.65366099999996
 10
39.92958882886664
 20
-19.66223589466662
 10
39.92487599999996
 20
-19.67069099999994
 10
39.91997735066667
 20
-19.67897085266664
 10
39.91486899999995
 20
-19.68712299999993
 10
39.90961228323328
 20
-19.69505795466648
 10
39.90415599999993
 20
-19.70285699999996
 10
39.8985481413
 20
-19.71045217606663
 10
39.89274599999999
 20
-19.71789999999995
 10
39.8867787378
 20
-19.72515824976662
 10
39.88061799999996
 20
-19.73225299999993
 10
39.87426654429997
 20
-19.73917026133321
 10
39.86772199999995
 20
-19.74590499999996
 10
39.86095338326657
 20
-19.75248299453321
 10
39.85400499999996
 20
-19.75887099999997
 10
39.84679730223331
 20
-19.76515141763328
 10
39.83943099999999
 20
-19.77124499999993
 10
39.83176711890001
 20
-19.77727200179984
 10
39.82396199999993
 20
-19.78311499999992
 10
39.81582351563327
 20
-19.78892140963331
 10
39.80755899999996
 20
-19.79454699999993
 10
39.79897801946668
 20
-19.80012626679992
 10
39.79028599999996
 20
-19.80553099999994
 10
39.78142919433333
 20
-19.81080520603321
 10
39.77247599999996
 20
-19.81591399999993
 10
39.76336291693332
 20
-19.82089863819996
 10
39.75416499999994
 20
-19.82572499999994
 10
39.74479212613329
 20
-19.83044715896662
 10
39.73534599999993
 20
-19.83502099999995
 10
39.72570881623335
 20
-19.83951083833332
 10
39.71600999999997
 20
-19.84386599999996
 10
39.7061063317666
 20
-19.84816007453335
 10
39.69615099999998
 20
-19.85233299999994
 10
39.68597859606664
 20
-19.85645819436652
 10
39.67575899999996
 20
-19.86046499999994
 10
39.66530918053331
 20
-19.86442195229992
 10
39.65481399999996
 20
-19.86825699999993
 10
39.6440774171666
 20
-19.87203988946659
 10
39.63329799999996
 20
-19.87569899999996
 10
39.62226457343331
 20
-19.87930423519983
 10
39.61119099999996
 20
-19.88278399999993
  0
LINE
  5
210
330
1F
100
AcDbEntity
  8
1
100
AcDbLine
 10
39.36407499999996
 20
-19.92258799999993
 30
0.0
 11
39.35312999999996
 21
-19.92286299999998
 31
0.0
  0
LWPOLYLINE
  5
211
330
1F
100
AcDbEntity
  8
1
100
AcDbPolyline
 90
       28
 70
     0
 43
0.0
 10
39.379907
 20
-19.92225799999996
 10
39.38794099999995
 20
-19.92205899999996
 10
39.39603099999999
 20
-19.92178600000001
 10
39.40416299999997
 20
-19.92142099999992
 10
39.41233399999996
 20
-19.92095699999995
 10
39.42053999999996
 20
-19.92039099999996
 10
39.42877999999996
 20
-19.91972199999995
 10
39.43705199999997
 20
-19.91894699999996
 10
39.44535199999995
 20
-19.91806899999997
 10
39.45366100000001
 20
-19.91709199999992
 10
39.46198199999996
 20
-19.91601900000003
 10
39.47032399999999
 20
-19.91485199999996
 10
39.47869800000001
 20
-19.91358999999996
 10
39.48711400000002
 20
-19.91223499999992
 10
39.495581
 20
-19.91078499999994
 10
39.50410699999997
 20
-19.90923899999993
 10
39.51270299999999
 20
-19.90759499999993
 10
39.52137699999996
 20
-19.90584999999995
 10
39.53013099999997
 20
-19.90400399999995
 10
39.53894200000002
 20
-19.90205999999997
 10
39.54780599999996
 20
-19.90001499999996
 10
39.55672099999997
 20
-19.89786899999993
 10
39.56568599999996
 20
-19.89561899999992
 10
39.57469800000001
 20
-19.89326599999995
 10
39.58375499999997
 20
-19.89080599999996
 10
39.59285699999997
 20
-19.88823999999996
 10
39.60200299999996
 20
-19.88556599999995
 10
39.61119099999996
 20
-19.88278399999993
  0
LINE
  5
212
330
1F
100
AcDbEntity
  8
1
100
AcDbLine
 10
39.35312999999996
 20
-19.92286299999998
 30
0.0
 11
39.33156699999995
 21
-19.92324999999996
 31
0.0
  0
LINE
  5
213
330
1F
100
AcDbEntity
  8
1
100
AcDbLine
 10
39.364059
 20
-19.92253099999996
 30
0.0
 11
39.379907
 21
-19.92225799999996
 31
0.0
  0
LINE
  5
214
330
1F
100
AcDbEntity
  8
1
100
AcDbLine
 10
39.18002999999997
 20
-19.92465199999994
 30
0.0
 11
39.13198999999996
 21
-19.92543399999996
 31
0.0
  0
LINE
  5
215
330
1F
100
AcDbEntity
  8
1
100
AcDbLine
 10
39.37629499999996
 20
-19.99737499999994
 30
0.0
 11
39.35412299999995
 21
-19.99766499999995
 31
0.0
  0
LINE
  5
216
330
1F
100
AcDbEntity
  8
1
100
AcDbLine
 10
39.19932099999994
 20
-19.92443999999997
 30
0.0
 11
39.18002999999997
 21
-19.92465199999994
 31
0.0
  0
LINE
  5
217
330
1F
100
AcDbEntity
  8
1
100
AcDbLine
 10
39.33156699999995
 20
-19.92324999999996
 30
0.0
 11
39.25870999999995
 21
-19.92404499999993
 31
0.0
  0
LINE
  5
218
330
1F
100
AcDbEntity
  8
1
100
AcDbLine
 10
39.25870999999995
 20
-19.92404499999993
 30
0.0
 11
39.19932099999994
 21
-19.92443999999997
 31
0.0
  0
LINE
  5
219
330
1F
100
AcDbEntity
  8
1
100
AcDbLine
 10
39.35412299999995
 20
-19.99766499999995
 30
0.0
 11
39.33146899999997
 21
-19.99781699999997
 31
0.0
  0
LWPOLYLINE
  5
21A
330
1F
100
AcDbEntity
  8
1
100
AcDbPolyline
 90
        3
 70
     0
 43
0.0
 10
39.63960799999995
 20
-19.99999999999996
 10
39.630038
 20
-20.00001599999993
 10
39.62048599999996
 20
-19.99997899999996
  0
LINE
  5
21B
330
1F
100
AcDbEntity
  8
1
100
AcDbLine
 10
39.33146899999997
 20
-19.99781699999997
 30
0.0
 11
39.30843199999996
 21
-19.99784899999994
 31
0.0
  0
LWPOLYLINE
  5
21C
330
1F
100
AcDbEntity
  8
1
100
AcDbPolyline
 90
        3
 70
     0
 43
0.0
 10
39.39301799999997
 20
-19.99735899999993
 10
39.38452599999994
 20
-19.99730999999994
 10
39.37629499999996
 20
-19.99737499999994
  0
LINE
  5
21D
330
1F
100
AcDbEntity
  8
1
100
AcDbLine
 10
39.30843199999996
 20
-19.99784899999994
 30
0.0
 11
39.27337499999996
 21
-19.99771099999994
 31
0.0
  0
LINE
  5
21E
330
1F
100
AcDbEntity
  8
1
100
AcDbLine
 10
39.51721599999996
 20
-19.99858799999994
 30
0.0
 11
39.45444899999995
 21
-19.99823999999992
 31
0.0
  0
LINE
  5
21F
330
1F
100
AcDbEntity
  8
1
100
AcDbLine
 10
39.27337499999996
 20
-19.99771099999994
 30
0.0
 11
39.22648599999996
 21
-19.99726799999993
 31
0.0
  0
LINE
  5
220
330
1F
100
AcDbEntity
  8
1
100
AcDbLine
 10
39.45444899999995
 20
-19.99823999999992
 30
0.0
 11
39.43682599999997
 21
-19.99805899999992
 31
0.0
  0
LINE
  5
221
330
1F
100
AcDbEntity
  8
1
100
AcDbLine
 10
39.62048599999996
 20
-19.99997899999996
 30
0.0
 11
39.60143599999998
 21
-19.99978199999993
 31
0.0
  0
LINE
  5
222
330
1F
100
AcDbEntity
  8
1
100
AcDbLine
 10
39.54491399999993
 20
-19.99888699999994
 30
0.0
 11
39.51721599999996
 21
-19.99858799999994
 31
0.0
  0
LINE
  5
223
330
1F
100
AcDbEntity
  8
1
100
AcDbLine
 10
39.60143599999998
 20
-19.99978199999993
 30
0.0
 11
39.54491399999993
 21
-19.99888699999994
 31
0.0
  0
LINE
  5
224
330
1F
100
AcDbEntity
  8
1
100
AcDbLine
 10
39.43682599999997
 20
-19.99805899999992
 30
0.0
 11
39.39301799999997
 21
-19.99735899999993
 31
0.0
  0
LWPOLYLINE
  5
225
330
1F
100
AcDbEntity
  8
1
100
AcDbPolyline
 90
        3
 70
     0
 43
0.0
 10
39.41177799999996
 20
-16.55096399999993
 10
39.41028399999999
 20
-16.55311599999996
 10
39.40878899999995
 20
-16.55528299999994
  0
LINE
  5
226
330
1F
100
AcDbEntity
  8
1
100
AcDbLine
 10
39.41476699999997
 20
-16.54670599999993
 30
0.0
 11
39.41327299999999
 21
-16.54882799999993
 31
0.0
  0
LINE
  5
227
330
1F
100
AcDbEntity
  8
1
100
AcDbLine
 10
39.39832799999999
 20
-16.57087399999997
 30
0.0
 11
39.396833
 21
-16.57316199999994
 31
0.0
  0
LINE
  5
228
330
1F
100
AcDbEntity
  8
1
100
AcDbLine
 10
39.40131699999993
 20
-16.56634399999993
 30
0.0
 11
39.39982199999996
 21
-16.56860199999997
 31
0.0
  0
LINE
  5
229
330
1F
100
AcDbEntity
  8
1
100
AcDbLine
 10
39.40430600000002
 20
-16.56187399999996
 30
0.0
 11
39.40281099999998
 21
-16.56410099999996
 31
0.0
  0
LINE
  5
22A
330
1F
100
AcDbEntity
  8
1
100
AcDbLine
 10
39.40729499999997
 20
-16.55746499999995
 30
0.0
 11
39.4058
 21
-16.55966199999997
 31
0.0
  0
LWPOLYLINE
  5
22B
330
1F
100
AcDbEntity
  8
1
100
AcDbPolyline
 90
        5
 70
     0
 43
0.0
 10
39.94305999999994
 20
-18.07666799999994
 10
39.94277499999997
 20
-18.07188799999996
 10
39.94246799999996
 20
-18.06709499999996
 10
39.94213999999999
 20
-18.06229099999993
 10
39.94178899999996
 20
-18.05747499999992
  0
LWPOLYLINE
  5
22C
330
1F
100
AcDbEntity
  8
1
100
AcDbPolyline
 90
        3
 70
     0
 43
0.0
 10
39.94378599999999
 20
-18.09093499999996
 10
39.94356599999997
 20
-18.08619199999995
 10
39.94332399999996
 20
-18.08143599999996
  0
LWPOLYLINE
  5
22D
330
1F
100
AcDbEntity
  8
1
100
AcDbPolyline
 90
       16
 70
     0
 43
0.0
 10
39.99234299999999
 20
-18.06983999999996
 10
39.99174475960001
 20
-18.05480918279991
 10
39.99053199999996
 20
-18.03981199999995
 10
39.98873791969998
 20
-18.02525986923322
 10
39.98631899999996
 20
-18.01079999999993
 10
39.98329104763331
 20
-17.99657605376651
 10
39.97966099999996
 20
-17.98249299999994
 10
39.97536338750001
 20
-17.96826031513321
 10
39.97051699999996
 20
-17.95420499999996
 10
39.96485498753333
 20
-17.93956323819994
 10
39.95868699999994
 20
-17.92512699999994
 10
39.95157225313328
 20
-17.90987104876651
 10
39.94400399999989
 20
-17.89483499999996
 10
39.93530980896668
 20
-17.87865109716662
 10
39.92627699999996
 20
-17.86265299999993
 10
39.90628299999995
 20
-17.82869899999994
  0
LINE
  5
22E
330
1F
100
AcDbEntity
  8
1
100
AcDbLine
 10
39.944163
 20
-18.1003869999999
 30
0.0
 11
39.94398499999999
 21
-18.09566699999996
 31
0.0
  0
LWPOLYLINE
  5
22F
330
1F
100
AcDbEntity
  8
1
100
AcDbPolyline
 90
        3
 70
     0
 43
0.0
 10
39.94457099999999
 20
-18.11447299999993
 10
39.94445599999993
 20
-18.10978999999994
 10
39.94431999999994
 20
-18.10509399999992
  0
LWPOLYLINE
  5
230
330
1F
100
AcDbEntity
  8
1
100
AcDbPolyline
 90
        3
 70
     0
 43
0.0
 10
39.938712
 20
-18.02342799999993
 10
39.93818299999997
 20
-18.01851599999994
 10
39.93763100000001
 20
-18.01359299999992
  0
LINE
  5
231
330
1F
100
AcDbEntity
  8
1
100
AcDbLine
 10
39.939703
 20
-18.03321499999994
 30
0.0
 11
39.93921899999996
 21
-18.02832799999994
 31
0.0
  0
LINE
  5
232
330
1F
100
AcDbEntity
  8
1
100
AcDbLine
 10
39.940604
 20
-18.04295499999997
 30
0.0
 11
39.94016499999998
 21
-18.0380909999999
 31
0.0
  0
LINE
  5
233
330
1F
100
AcDbEntity
  8
1
100
AcDbLine
 10
39.94141599999998
 20
-18.05264699999995
 30
0.0
 11
39.94102099999996
 21
-18.04780699999994
 31
0.0
  0
LWPOLYLINE
  5
234
330
1F
100
AcDbEntity
  8
1
100
AcDbPolyline
 90
       24
 70
     0
 43
0.0
 10
39.93312400000002
 20
-17.97879699999995
 10
39.92975443606656
 20
-17.95690817389996
 10
39.92599199999995
 20
-17.93508399999993
 10
39.92175186609995
 20
-17.91283929863319
 10
39.91712799999999
 20
-17.89067099999996
 10
39.91201357356668
 20
-17.86806977066666
 10
39.90652699999996
 20
-17.84555599999996
 10
39.90054096356653
 20
-17.82260234486651
 10
39.89419699999996
 20
-17.79974499999994
 10
39.88735185023322
 20
-17.77645723949992
 10
39.88016699999996
 20
-17.75327199999984
 10
39.87247048016661
 20
-17.72961824596663
 10
39.86445399999997
 20
-17.70607099999992
 10
39.85591079906668
 20
-17.68200896133319
 10
39.84706899999997
 20
-17.65805499999996
 10
39.83768177363328
 20
-17.63352089576661
 10
39.82801899999996
 20
-17.60909399999994
 10
39.80736300000001
 20
-17.55917499999995
 10
39.785301
 20
-17.50853999999984
 10
39.76206499999999
 20
-17.45742399999997
 10
39.73765600000001
 20
-17.40549799999993
 10
39.71230099999996
 20
-17.35289499999996
 10
39.68647099999996
 20
-17.30018799999996
 10
39.63456799999994
 20
-17.19513699999984
  0
LINE
  5
235
330
1F
100
AcDbEntity
  8
1
100
AcDbLine
 10
39.93383699999997
 20
-17.98380299999993
 30
0.0
 11
39.93312400000002
 21
-17.97879699999995
 31
0.0
  0
LWPOLYLINE
  5
236
330
1F
100
AcDbEntity
  8
1
100
AcDbPolyline
 90
        3
 70
     0
 43
0.0
 10
39.93583699999999
 20
-17.99875099999994
 10
39.93519399999996
 20
-17.99378099999992
 10
39.934527
 20
-17.98879799999993
  0
LINE
  5
237
330
1F
100
AcDbEntity
  8
1
100
AcDbLine
 10
39.93705599999998
 20
-18.00865799999994
 30
0.0
 11
39.93645800000001
 21
-18.00370999999992
 31
0.0
  0
LWPOLYLINE
  5
238
330
1F
100
AcDbEntity
  8
1
100
AcDbPolyline
 90
       21
 70
     0
 43
0.0
 10
39.63456799999994
 20
-17.19513699999984
 10
39.60882700000002
 20
-17.14259799999993
 10
39.58378799999996
 20
-17.09064200000002
 10
39.55967499999997
 20
-17.03935400000002
 10
39.536516
 20
-16.98843699999994
 10
39.51457599999997
 20
-16.93814499999993
 10
39.49407499999995
 20
-16.88871499999996
 10
39.48438452819994
 20
-16.86430271336664
 10
39.474964
 20
-16.83978499999997
 10
39.46604562466655
 20
-16.81574395689992
 10
39.45742099999995
 20
-16.79159599999994
 10
39.44940204223326
 20
-16.76821298999996
 10
39.44168999999997
 20
-16.74472699999991
 10
39.43463206390004
 20
-16.72221824819993
 10
39.42788299999995
 20
-16.69961499999996
 10
39.42171320099999
 20
-16.67784681826659
 10
39.41585399999997
 20
-16.65599299999994
 10
39.4105377583666
 20
-16.63495120709992
 10
39.40552999999999
 20
-16.61383399999996
 10
39.4010305051666
 20
-16.5935304457333
 10
39.396833
 20
-16.57316199999994
  0
LWPOLYLINE
  5
239
330
1F
100
AcDbEntity
  8
1
100
AcDbPolyline
 90
       32
 70
     0
 43
0.0
 10
39.90628299999995
 20
-17.82869899999994
 10
39.86194899999997
 20
-17.75423099999996
 10
39.83761599999997
 20
-17.71298099999992
 10
39.81166799999994
 20
-17.66845399999996
 10
39.78394700000001
 20
-17.62031899999996
 10
39.75442399999996
 20
-17.56845199999995
 10
39.72303399999997
 20
-17.51260499999998
 10
39.68984699999998
 20
-17.45243999999994
 10
39.65437399999996
 20
-17.38639199999997
 10
39.61705899999996
 20
-17.31455599999994
 10
39.59804488169999
 20
-17.27690300786647
 10
39.579341
 20
-17.23909499999993
 10
39.56119474216653
 20
-17.2016182519666
 10
39.54337299999997
 20
-17.16398599999993
 10
39.52680564643333
 20
-17.12819293806649
 10
39.51058399999999
 20
-17.09224199999997
 10
39.49578542956658
 20
-17.05850132043318
 10
39.48137299999996
 20
-17.02459399999995
 10
39.46843083566671
 20
-16.99309284933323
 10
39.45588199999995
 20
-16.96143299999997
 10
39.44451369743329
 20
-16.93164587383316
 10
39.433535
 20
-16.90171299999994
 10
39.42360088359999
 20
-16.87347072333321
 10
39.41405199999996
 20
-16.84509599999992
 10
39.40540233576653
 20
-16.81816285303321
 10
39.39712799999995
 20
-16.79111199999996
 10
39.38954695013331
 20
-16.76502031879997
 10
39.38234699999997
 20
-16.73882099999994
 10
39.37572949453329
 20
-16.71322775159993
 10
39.36950999999999
 20
-16.68753499999994
 10
39.36381792223329
 20
-16.66227660666661
 10
39.35853499999996
 20
-16.63692899999992
  0
LINE
  5
23A
330
1F
100
AcDbEntity
  8
1
100
AcDbLine
 10
39.41775599999994
 20
-16.54250899999996
 30
0.0
 11
39.41626199999996
 21
-16.54459999999997
 31
0.0
  0
LINE
  5
23B
330
1F
100
AcDbEntity
  8
1
100
AcDbLine
 10
39.42074500000001
 20
-16.53837299999995
 30
0.0
 11
39.41925099999997
 21
-16.54043299999997
 31
0.0
  0
LINE
  5
23C
330
1F
100
AcDbEntity
  8
1
100
AcDbLine
 10
39.42373399999997
 20
-16.53429699999994
 30
0.0
 11
39.42223999999999
 21
-16.53632699999993
 31
0.0
  0
LINE
  5
23D
330
1F
100
AcDbEntity
  8
1
100
AcDbLine
 10
39.42672299999996
 20
-16.53028199999997
 30
0.0
 11
39.42522899999993
 21
-16.53228199999992
 31
0.0
  0
LINE
  5
23E
330
1F
100
AcDbEntity
  8
1
100
AcDbLine
 10
39.42971199999997
 20
-16.52632899999994
 30
0.0
 11
39.428218
 21
-16.52829799999997
 31
0.0
  0
LINE
  5
23F
330
1F
100
AcDbEntity
  8
1
100
AcDbLine
 10
39.43270099999995
 20
-16.52243599999994
 30
0.0
 11
39.43120699999996
 21
-16.52437499999993
 31
0.0
  0
LINE
  5
240
330
1F
100
AcDbEntity
  8
1
100
AcDbLine
 10
39.43568999999996
 20
-16.51860399999995
 30
0.0
 11
39.43419599999998
 21
-16.52051199999996
 31
0.0
  0
LINE
  5
241
330
1F
100
AcDbEntity
  8
1
100
AcDbLine
 10
39.43867899999998
 20
-16.51483299999991
 30
0.0
 11
39.437185
 21
-16.51671099999995
 31
0.0
  0
LINE
  5
242
330
1F
100
AcDbEntity
  8
1
100
AcDbLine
 10
40.02008899999998
 20
-19.64411499999996
 30
0.0
 11
39.99234299999999
 21
-18.06983999999996
 31
0.0
  0
LINE
  5
243
330
1F
100
AcDbEntity
  8
1
100
AcDbLine
 10
39.94457099999999
 20
-18.11447299999993
 30
0.0
 11
39.96947199999999
 21
-19.50763799999995
 31
0.0
  0
LINE
  5
244
330
1F
100
AcDbEntity
  8
1
100
AcDbLine
 10
30.90017499999999
 20
-11.97117399999993
 30
0.0
 11
38.12722499999995
 21
-11.95831999999992
 31
0.0
  0
LINE
  5
245
330
1F
100
AcDbEntity
  8
1
100
AcDbLine
 10
32.26297899999996
 20
-12.00534699999994
 30
0.0
 11
35.01562000000001
 21
-12.00292099999993
 31
0.0
  0
LINE
  5
246
330
1F
100
AcDbEntity
  8
3
100
AcDbLine
 10
27.71171434345001
 20
-8.999999999999969
 30
0.0
 11
39.21171434345
 21
-8.999999999999969
 31
0.0
  0
LINE
  5
247
330
1F
100
AcDbEntity
  8
1
100
AcDbLine
 10
27.68838299999998
 20
-11.98259799999996
 30
0.0
 11
27.24536899999998
 21
-11.9897279999999
 31
0.0
  0
LINE
  5
248
330
1F
100
AcDbEntity
  8
1
100
AcDbLine
 10
26.07405099999994
 20
-12.05519399999994
 30
0.0
 11
29.56896199999994
 21
-12.01938099999992
 31
0.0
  0
LWPOLYLINE
  5
249
330
1F
100
AcDbEntity
  8
1
100
AcDbPolyline
 90
       28
 70
     0
 43
0.0
 10
25.90066000000001
 20
-12.02640999999997
 10
25.892607
 20
-12.02672999999994
 10
25.88452199999994
 20
-12.02710699999997
 10
25.87641999999994
 20
-12.02755499999997
 10
25.86830400000007
 20
-12.02807999999996
 10
25.86017699999996
 20
-12.02868599999996
 10
25.85204299999998
 20
-12.02937599999992
 10
25.84390299999995
 20
-12.03015299999984
 10
25.83575899999994
 20
-12.03101499999994
 10
25.82762899999988
 20
-12.03195899999994
 10
25.81950999999998
 20
-12.03298099999997
 10
25.81139199999995
 20
-12.0340809999999
 10
25.80326400000001
 20
-12.03525799999997
 10
25.795116
 20
-12.03651399999992
 10
25.78693799999996
 20
-12.03784999999996
 10
25.77872200000001
 20
-12.03926799999996
 10
25.77045799999996
 20
-12.04077099999997
 10
25.76213799999993
 20
-12.04235999999994
 10
25.75376199999992
 20
-12.04403699999997
 10
25.74534899999996
 20
-12.04580099999994
 10
25.73690299999998
 20
-12.04765199999994
 10
25.72842600000001
 20
-12.04959199999993
 10
25.719919
 20
-12.05162099999991
 10
25.71138499999994
 20
-12.05374099999997
 10
25.70282499999996
 20
-12.05595399999983
 10
25.69423799999998
 20
-12.05826099999993
 10
25.68562699999994
 20
-12.06066399999994
 10
25.67699099999998
 20
-12.06316299999994
  0
LINE
  5
24A
330
1F
100
AcDbEntity
  8
1
100
AcDbLine
 10
25.80036699999992
 20
-12.05888699999994
 30
0.0
 11
25.82334600000001
 21
-12.05820599999995
 31
0.0
  0
LINE
  5
24B
330
1F
100
AcDbEntity
  8
1
100
AcDbLine
 10
25.90066000000001
 20
-12.02640999999997
 30
0.0
 11
26.52723299999996
 21
-12.00634499999992
 31
0.0
  0
LINE
  5
24C
330
1F
100
AcDbEntity
  8
1
100
AcDbLine
 10
25.82334600000001
 20
-12.05820599999995
 30
0.0
 11
25.84670999999996
 21
-12.05763799999997
 31
0.0
  0
LINE
  5
24D
330
1F
100
AcDbEntity
  8
1
100
AcDbLine
 10
25.84670999999996
 20
-12.05763799999997
 30
0.0
 11
25.88226299999996
 21
-12.05696699999995
 31
0.0
  0
LINE
  5
24E
330
1F
100
AcDbEntity
  8
1
100
AcDbLine
 10
25.88226299999996
 20
-12.05696699999995
 30
0.0
 11
25.92981499999996
 21
-12.05633699999995
 31
0.0
  0
LINE
  5
24F
330
1F
100
AcDbEntity
  8
1
100
AcDbLine
 10
25.92981499999996
 20
-12.05633699999995
 30
0.0
 11
26.07405099999994
 21
-12.05519399999994
 31
0.0
  0
LINE
  5
250
330
1F
100
AcDbEntity
  8
1
100
AcDbLine
 10
27.24536899999998
 20
-11.9897279999999
 30
0.0
 11
26.87938599999994
 21
-11.99738899999996
 31
0.0
  0
LINE
  5
251
330
1F
100
AcDbEntity
  8
1
100
AcDbLine
 10
26.52723299999996
 20
-12.00634499999992
 30
0.0
 11
26.87938599999994
 21
-11.99738899999996
 31
0.0
  0
LWPOLYLINE
  5
252
330
1F
100
AcDbEntity
  8
1
100
AcDbPolyline
 90
       59
 70
     0
 43
0.0
 10
25.67699099999998
 20
-12.06316299999994
 10
25.66632573676656
 20
-12.06638073486661
 10
25.65569999999997
 20
-12.06972699999997
 10
25.64536482990002
 20
-12.07312039893317
 10
25.63507199999998
 20
-12.07663999999996
 10
25.62505578156669
 20
-12.08020318639992
 10
25.61508399999997
 20
-12.08388899999997
 10
25.60537832156664
 20
-12.08761347559996
 10
25.59572199999996
 20
-12.09146399999994
 10
25.58633138380002
 20
-12.09535939396661
 10
25.57699799999999
 20
-12.09938999999994
 10
25.56793141423337
 20
-12.10346856679993
 10
25.55892999999997
 20
-12.10768899999996
 10
25.5501932862333
 20
-12.11196102349995
 10
25.54153099999996
 20
-12.11638199999995
 10
25.53314065583332
 20
-12.12085546126664
 10
25.52483599999993
 20
-12.12548599999993
 10
25.51681029936662
 20
-12.13017048873322
 10
25.50888199999997
 20
-12.13501799999997
 10
25.50124033623331
 20
-12.13991524849993
 10
25.49370799999996
 20
-12.14497899999995
 10
25.48650939289996
 20
-12.15005925473318
 10
25.47943199999997
 20
-12.15530700000001
 10
25.47265745563328
 20
-12.16058970129997
 10
25.46601700000007
 20
-12.16603999999992
 10
25.45962689876671
 20
-12.17156657276663
 10
25.45338599999996
 20
-12.17726099999995
 10
25.44734780199997
 20
-12.18308101883317
 10
25.44147199999996
 20
-12.18906499999994
 10
25.43577117803328
 20
-12.19520038709996
 10
25.43024099999996
 20
-12.20148999999995
 10
25.4249503804333
 20
-12.20784725686664
 10
25.41983199999998
 20
-12.21434399999995
 10
25.41492384043339
 20
-12.22092593833318
 10
25.41019099999994
 20
-12.22763499999993
 10
25.4056295465333
 20
-12.23447580953332
 10
25.40124600000001
 20
-12.24143199999994
 10
25.3969994291333
 20
-12.24856494869996
 10
25.39293099999996
 20
-12.25580099999993
 10
25.38899165036667
 20
-12.26322445143321
 10
25.38523099999996
 20
-12.27073999999996
 10
25.38164037426655
 20
-12.27835639056664
 10
25.37822499999998
 20
-12.28605299999995
 10
25.37496821603326
 20
-12.29386135639984
 10
25.371888
 20
-12.30174099999996
 10
25.36895950156667
 20
-12.30976458269984
 10
25.36621500000001
 20
-12.31785299999992
 10
25.36362087593341
 20
-12.32612356136664
 10
25.36122599999998
 20
-12.33445399999996
 10
25.35900212983335
 20
-12.34298879859997
 10
25.35700299999996
 20
-12.35157899999993
 10
25.35521383976663
 20
-12.36035168256651
 10
25.35367599999994
 20
-12.36917199999996
 10
25.35238076500002
 20
-12.37817278389994
 10
25.35136399999987
 20
-12.38720899999995
 10
25.35062314250001
 20
-12.39640400986664
 10
25.35016499999994
 20
-12.40561800000001
 10
25.34997530433337
 20
-12.41487485139995
 10
25.35004199999996
 20
-12.42413199999995
  0
LWPOLYLINE
  5
253
330
1F
100
AcDbEntity
  8
1
100
AcDbPolyline
 90
       40
 70
     0
 43
0.0
 10
25.17894499999988
 20
-12.25271599999993
 10
25.17697333843329
 20
-12.25565646356668
 10
25.17503499999998
 20
-12.25861899999991
 10
25.17313979990001
 20
-12.26158797223316
 10
25.17127799999996
 20
-12.26457799999994
 10
25.1694588606333
 20
-12.26757351853334
 10
25.16767299999996
 20
-12.27058899999994
 10
25.16592916226669
 20
-12.27360890613319
 10
25.164219
 20
-12.27664799999993
 10
25.16255122536653
 20
-12.27969091993318
 10
25.16091699999998
 20
-12.28275199999993
 10
25.15932415563327
 20
-12.28581486359993
 10
25.15776499999998
 20
-12.28889499999993
 10
25.15624806753328
 20
-12.29197627336648
 10
25.154765
 20
-12.29507399999997
 10
25.15332259206667
 20
-12.29817224563318
 10
25.15191399999996
 20
-12.30128599999997
 10
25.14921399999996
 20
-12.30752499999997
 10
25.14792123346666
 20
-12.31064997359996
 10
25.14666299999987
 20
-12.31378899999995
 10
25.14544670616658
 20
-12.31692571409991
 10
25.14426600000001
 20
-12.32007599999993
 10
25.14202299999988
 20
-12.32637999999994
 10
25.13992899999994
 20
-12.33269799999996
 10
25.13798199999996
 20
-12.33902599999996
 10
25.13617899999996
 20
-12.34535899999994
 10
25.13451500000007
 20
-12.35169399999991
 10
25.13298799999994
 20
-12.35802799999996
 10
25.13159399999994
 20
-12.36435699999995
 10
25.13032899999996
 20
-12.37067699999997
 10
25.12919299999987
 20
-12.37698699999995
 10
25.12818900000002
 20
-12.38328499999997
 10
25.12731799999994
 20
-12.38956899999996
 10
25.126577
 20
-12.39583499999993
 10
25.12596699999994
 20
-12.40208199999997
 10
25.12548599999997
 20
-12.40830699999994
 10
25.125134
 20
-12.41450799999991
 10
25.12490899999988
 20
-12.42068199999997
 10
25.12480999999997
 20
-12.42682899999997
 10
25.12483699999994
 20
-12.43294399999993
  0
LWPOLYLINE
  5
254
330
1F
100
AcDbEntity
  8
1
100
AcDbPolyline
 90
       29
 70
     0
 43
0.0
 10
25.37551399999995
 20
-13.83297099999994
 10
25.375674
 20
-13.83789399999997
 10
25.37586399999998
 20
-13.84280799999996
 10
25.37608199999999
 20
-13.84771299999997
 10
25.37632899999994
 20
-13.85260999999994
 10
25.37660599999998
 20
-13.85749799999993
 10
25.37691099999994
 20
-13.86237699999995
 10
25.377244
 20
-13.86724799999993
 10
25.37760600000001
 20
-13.87210999999993
 10
25.37799599999994
 20
-13.87696399999994
 10
25.37841500000002
 20
-13.88180999999994
 10
25.37886099999996
 20
-13.88664799999995
 10
25.37933599999997
 20
-13.8914769999999
 10
25.37983799999994
 20
-13.89629799999997
 10
25.38036799999996
 20
-13.90111099999993
 10
25.38092499999999
 20
-13.90591499999996
 10
25.38150899999993
 20
-13.91071199999996
 10
25.38212099999998
 20
-13.91550099999997
 10
25.38276000000007
 20
-13.92028199999984
 10
25.38342599999998
 20
-13.92505499999995
 10
25.38411799999994
 20
-13.92981999999997
 10
25.38483799999994
 20
-13.93457699999996
 10
25.38558299999988
 20
-13.93932699999996
 10
25.38635499999998
 20
-13.94406899999991
 10
25.387154
 20
-13.94880399999996
 10
25.38797799999996
 20
-13.95353099999997
 10
25.38882799999987
 20
-13.95825099999993
 10
25.38970499999999
 20
-13.96296299999997
 10
25.39060599999999
 20
-13.96766800000001
  0
LINE
  5
255
330
1F
100
AcDbEntity
  8
1
100
AcDbLine
 10
25.35044299999998
 20
-12.43856599999995
 30
0.0
 11
25.35004499999996
 21
-12.42423799999997
 31
0.0
  0
LINE
  5
256
330
1F
100
AcDbEntity
  8
1
100
AcDbLine
 10
25.37551399999995
 20
-13.83297099999994
 30
0.0
 11
25.37523799999997
 21
-13.82149099999995
 31
0.0
  0
LINE
  5
257
330
1F
100
AcDbEntity
  8
1
100
AcDbLine
 10
25.350909
 20
-12.45834199999993
 30
0.0
 11
25.35056599999994
 21
-12.44343799999993
 31
0.0
  0
LINE
  5
258
330
1F
100
AcDbEntity
  8
1
100
AcDbLine
 10
25.12483699999994
 20
-12.43294399999993
 30
0.0
 11
25.15258299999993
 21
-14.02971699999997
 31
0.0
  0
LINE
  5
259
330
1F
100
AcDbEntity
  8
1
100
AcDbLine
 10
25.35129499999992
 20
-12.47888099999997
 30
0.0
 11
25.35101399999996
 21
-12.46340499999993
 31
0.0
  0
LINE
  5
25A
330
1F
100
AcDbEntity
  8
1
100
AcDbLine
 10
25.37523799999997
 20
-13.82149099999995
 30
0.0
 11
25.35129499999992
 21
-12.47888099999997
 31
0.0
  0
LINE
  5
25B
330
1F
100
AcDbEntity
  8
1
100
AcDbLine
 10
25.77787499999999
 20
-12.05969899999993
 30
0.0
 11
25.80036699999992
 21
-12.05888699999994
 31
0.0
  0
LWPOLYLINE
  5
25C
330
1F
100
AcDbEntity
  8
1
100
AcDbPolyline
 90
       59
 70
     0
 43
0.0
 10
25.51081299999998
 20
-12.06332099999994
 10
25.50381722873339
 20
-12.06355369906666
 10
25.49682599999994
 20
-12.06389699999997
 10
25.48986096593329
 20
-12.06434973416665
 10
25.48290400000007
 20
-12.06491299999996
 10
25.47597766299986
 20
-12.06558499269996
 10
25.469063
 20
-12.06636799999992
 10
25.46218430853332
 20
-12.06725972199993
 10
25.45532099999996
 20
-12.06826300000003
 10
25.4484984449333
 20
-12.06937421453321
 10
25.44169499999998
 20
-12.07059699999993
 10
25.43493599656659
 20
-12.0719270098665
 10
25.42819999999994
 20
-12.07336899999992
 10
25.42151349263326
 20
-12.07491783516647
 10
25.41485399999999
 20
-12.07657899999994
 10
25.40824792173339
 20
-12.07834620559995
 10
25.40167299999996
 20
-12.08022599999995
 10
25.3951557410333
 20
-12.08221146976663
 10
25.38867399999998
 20
-12.08430999999993
 10
25.38225637390001
 20
-12.08651303733321
 10
25.37587899999994
 20
-12.08882999999994
 10
25.36959402123328
 20
-12.09124250166664
 10
25.36335399999996
 20
-12.0937689999999
 10
25.35720585066655
 20
-12.09639063536653
 10
25.35110699999995
 20
-12.09912499999993
 10
25.34509070956659
 20
-12.10195692853332
 10
25.33912799999995
 20
-12.10489999999994
 10
25.33323824763328
 20
-12.10794521706665
 10
25.32740699999999
 20
-12.11110099999993
 10
25.3216399474333
 20
-12.11436547503333
 10
25.31593600000007
 20
-12.11773899999994
 10
25.31028558759999
 20
-12.12122676356651
 10
25.30470099999996
 20
-12.12481899999997
 10
25.2991582748333
 20
-12.12852908016665
 10
25.29368299999987
 20
-12.13233799999997
 10
25.2882384304666
 20
-12.13627000003319
 10
25.28286300000002
 20
-12.14029599999995
 10
25.2775087933333
 20
-12.14445089253322
 10
25.27222499999999
 20
-12.14869499999994
 10
25.26696056359998
 20
-12.15306838413318
 10
25.26176899999994
 20
-12.1575279999999
 10
25.25662060553327
 20
-12.16210005953317
 10
25.25154699999996
 20
-12.16675499999993
 10
25.24651932073334
 20
-12.1715173455665
 10
25.24156699999997
 20
-12.17635799999996
 10
25.23666245076667
 20
-12.1813028307333
 10
25.23183399999999
 20
-12.18632199999993
 10
25.22705631833332
 20
-12.19144038339996
 10
25.22235499999998
 20
-12.19662899999994
 10
25.21770565506659
 20
-12.20191325143328
 10
25.21313299999996
 20
-12.20726399999991
 10
25.20861609936662
 20
-12.21270456759995
 10
25.20417599999996
 20
-12.21820799999997
 10
25.19979359273337
 20
-12.22379630613332
 10
25.19548799999995
 20
-12.22944399999997
 10
25.19124358703328
 20
-12.23517041379997
 10
25.18707599999999
 20
-12.24095299999996
 10
25.18297226016669
 20
-12.24680809893318
 10
25.17894499999988
 20
-12.25271599999993
  0
LWPOLYLINE
  5
25D
330
1F
100
AcDbEntity
  8
1
100
AcDbPolyline
 90
        3
 70
     0
 43
0.0
 10
25.51081299999998
 20
-12.06332099999994
 10
25.52051899999998
 20
-12.06307199999995
 10
25.530208
 20
-12.06287899999991
  0
LWPOLYLINE
  5
25E
330
1F
100
AcDbEntity
  8
1
100
AcDbPolyline
 90
        3
 70
     0
 43
0.0
 10
25.76091399999994
 20
-12.06010599999993
 10
25.76952599999998
 20
-12.05995699999997
 10
25.77787499999988
 20
-12.05969899999993
  0
LINE
  5
25F
330
1F
100
AcDbEntity
  8
1
100
AcDbLine
 10
25.63494700000001
 20
-12.06180399999996
 30
0.0
 11
25.69860899999996
 21
-12.06066299999994
 31
0.0
  0
LINE
  5
260
330
1F
100
AcDbEntity
  8
1
100
AcDbLine
 10
25.69860899999996
 20
-12.06066299999994
 30
0.0
 11
25.71648299999998
 21
-12.06042899999997
 31
0.0
  0
LINE
  5
261
330
1F
100
AcDbEntity
  8
1
100
AcDbLine
 10
25.530208
 20
-12.06287899999991
 30
0.0
 11
25.54952800000001
 21
-12.06261799999984
 31
0.0
  0
LINE
  5
262
330
1F
100
AcDbEntity
  8
1
100
AcDbLine
 10
25.606853
 20
-12.06216399999996
 30
0.0
 11
25.63494700000001
 21
-12.06180399999996
 31
0.0
  0
LINE
  5
263
330
1F
100
AcDbEntity
  8
1
100
AcDbLine
 10
25.54952800000001
 20
-12.06261799999984
 30
0.0
 11
25.606853
 21
-12.06216399999996
 31
0.0
  0
LINE
  5
264
330
1F
100
AcDbEntity
  8
1
100
AcDbLine
 10
25.71648299999998
 20
-12.06042899999997
 30
0.0
 11
25.76091399999994
 21
-12.06010599999993
 31
0.0
  0
LINE
  5
265
330
1F
100
AcDbEntity
  8
1
100
AcDbLine
 10
29.56896199999994
 20
-12.01938099999992
 30
0.0
 11
32.26297899999996
 21
-12.00534699999994
 31
0.0
  0
LINE
  5
266
330
1F
100
AcDbEntity
  8
1
100
AcDbLine
 10
28.19532099999998
 20
-11.97675899999993
 30
0.0
 11
27.68838299999998
 21
-11.98259799999996
 31
0.0
  0
LINE
  5
267
330
1F
100
AcDbEntity
  8
1
100
AcDbLine
 10
28.83175599999998
 20
-11.97234999999997
 30
0.0
 11
28.19532099999998
 21
-11.97675899999993
 31
0.0
  0
LINE
  5
268
330
1F
100
AcDbEntity
  8
1
100
AcDbLine
 10
29.82156599999996
 20
-11.97028099999997
 30
0.0
 11
28.83175599999998
 21
-11.97234999999997
 31
0.0
  0
LINE
  5
269
330
1F
100
AcDbEntity
  8
1
100
AcDbLine
 10
30.90017499999999
 20
-11.97117399999993
 30
0.0
 11
29.82156599999996
 21
-11.97028099999997
 31
0.0
  0
LWPOLYLINE
  5
26A
330
1F
100
AcDbEntity
  8
1
100
AcDbPolyline
 90
        3
 70
     0
 43
0.0
 10
35.01562000000001
 20
-12.00292099999993
 10
37.85501699999997
 20
-12.01321099999991
 10
38.10406399999999
 20
-12.01472999999995
  0
LWPOLYLINE
  5
26B
330
1F
100
AcDbEntity
  8
1
100
AcDbPolyline
 90
       10
 70
     0
 43
0.0
 10
38.12719199999998
 20
-11.95832099999992
 10
38.12820214420003
 20
-11.95858078143319
 10
38.12921299999993
 20
-11.95867699999993
 10
38.1309946232667
 20
-11.95855428199992
 10
38.13277996763327
 20
-11.95822043266665
 10
38.13456999999994
 20
-11.95786399999994
 10
38.13695824876656
 20
-11.95759547926647
 10
38.13935396793329
 20
-11.95756126073322
 10
38.14175463006666
 20
-11.95770222393327
 10
38.14415770773337
 20
-11.95795924849991
  0
LINE
  5
26C
330
1F
100
AcDbEntity
  8
1
100
AcDbLine
 10
38.54217499999998
 20
-12.26187999999993
 30
0.0
 11
38.54067999999995
 21
-12.26486799999995
 31
0.0
  0
LINE
  5
26D
330
1F
100
AcDbEntity
  8
1
100
AcDbLine
 10
38.54516399999999
 20
-12.25596599999997
 30
0.0
 11
38.54366899999996
 21
-12.25891299999998
 31
0.0
  0
LINE
  5
26E
330
1F
100
AcDbEntity
  8
1
100
AcDbLine
 10
38.54815299999993
 20
-12.25013199999998
 30
0.0
 11
38.54665799999996
 21
-12.25303899999997
 31
0.0
  0
LINE
  5
26F
330
1F
100
AcDbEntity
  8
1
100
AcDbLine
 10
38.55114099999996
 20
-12.24437899999995
 30
0.0
 11
38.54964699999992
 21
-12.24724499999993
 31
0.0
  0
LINE
  5
270
330
1F
100
AcDbEntity
  8
1
100
AcDbLine
 10
38.55412999999998
 20
-12.23870699999994
 30
0.0
 11
38.552636
 21
-12.24153299999997
 31
0.0
  0
LINE
  5
271
330
1F
100
AcDbEntity
  8
1
100
AcDbLine
 10
38.55711899999993
 20
-12.23311499999996
 30
0.0
 11
38.55562499999996
 21
-12.23590099999992
 31
0.0
  0
LINE
  5
272
330
1F
100
AcDbEntity
  8
1
100
AcDbLine
 10
38.56010799999999
 20
-12.22760499999995
 30
0.0
 11
38.55861399999998
 21
-12.23034999999994
 31
0.0
  0
LINE
  5
273
330
1F
100
AcDbEntity
  8
1
100
AcDbLine
 10
38.56309699999996
 20
-12.22217599999996
 30
0.0
 11
38.56160299999999
 21
-12.22487999999994
 31
0.0
  0
LINE
  5
274
330
1F
100
AcDbEntity
  8
1
100
AcDbLine
 10
38.56608599999997
 20
-12.21682799999993
 30
0.0
 11
38.56459199999994
 21
-12.21949199999997
 31
0.0
  0
LINE
  5
275
330
1F
100
AcDbEntity
  8
1
100
AcDbLine
 10
38.569075
 20
-12.21156199999993
 30
0.0
 11
38.56758100000002
 21
-12.21418499999995
 31
0.0
  0
LINE
  5
276
330
1F
100
AcDbEntity
  8
1
100
AcDbLine
 10
38.57206399999995
 20
-12.20637699999994
 30
0.0
 11
38.57056999999997
 21
-12.20895899999996
 31
0.0
  0
LINE
  5
277
330
1F
100
AcDbEntity
  8
1
100
AcDbLine
 10
38.57505299999997
 20
-12.20127399999991
 30
0.0
 11
38.57355899999999
 21
-12.20381499999993
 31
0.0
  0
LINE
  5
278
330
1F
100
AcDbEntity
  8
1
100
AcDbLine
 10
38.57804199999996
 20
-12.19625199999993
 30
0.0
 11
38.57654799999998
 21
-12.19875299999992
 31
0.0
  0
LINE
  5
279
330
1F
100
AcDbEntity
  8
1
100
AcDbLine
 10
38.58103099999993
 20
-12.19131299999995
 30
0.0
 11
38.57953699999995
 21
-12.19377199999994
 31
0.0
  0
LINE
  5
27A
330
1F
100
AcDbEntity
  8
1
100
AcDbLine
 10
38.58402000000001
 20
-12.18645499999993
 30
0.0
 11
38.58252599999996
 21
-12.18887299999997
 31
0.0
  0
LWPOLYLINE
  5
27B
330
1F
100
AcDbEntity
  8
1
100
AcDbPolyline
 90
       59
 70
     0
 43
0.0
 10
38.50238200000001
 20
-12.34824299999994
 10
38.50083665526659
 20
-12.34103771526664
 10
38.49910599999997
 20
-12.33387499999994
 10
38.4970964457666
 20
-12.32640557466661
 10
38.49489599999996
 20
-12.31898999999994
 10
38.49238873469992
 20
-12.31126857636664
 10
38.48968699999998
 20
-12.30361299999984
 10
38.48664832233328
 20
-12.29564491569996
 10
38.48341199999996
 20
-12.28775499999997
 10
38.47983119916671
 20
-12.27960498469993
 10
38.47605199999996
 20
-12.27154499999997
 10
38.47192551726664
 20
-12.26327089493318
 10
38.46760199999993
 20
-12.25509799999993
 10
38.46290920393334
 20
-12.24671482133318
 10
38.45802099999996
 20
-12.23844399999993
 10
38.45276094426663
 20
-12.22999690156663
 10
38.44730800000002
 20
-12.2216729999999
 10
38.4414647538
 20
-12.21318349973316
 10
38.43543
 20
-12.20482899999993
 10
38.42901755699995
 20
-12.19636062056653
 10
38.42241699999997
 20
-12.18803799999997
 10
38.41547268679994
 20
-12.17967069189993
 10
38.40834499999994
 20
-12.17145899999994
 10
38.40085083056669
 20
-12.16320069689996
 10
38.39317599999997
 20
-12.15510999999995
 10
38.38523717433332
 20
-12.14710119669992
 10
38.37712499999998
 20
-12.13926799999993
 10
38.36882152163332
 20
-12.13159175073323
 10
38.36035299999997
 20
-12.12409799999997
 10
38.35169552269997
 20
-12.11676758833319
 10
38.34287999999998
 20
-12.10962799999995
 10
38.33401505756672
 20
-12.10276185186651
 10
38.32500299999996
 20
-12.09608999999997
 10
38.315958001
 20
-12.08969410073322
 10
38.30677500000001
 20
-12.08349799999993
 10
38.2976303271667
 20
-12.07761629979992
 10
38.28835800000002
 20
-12.07193799999996
 10
38.2792451877666
 20
-12.06663034669993
 10
38.27001699999994
 20
-12.06152599999993
 10
38.26094774643332
 20
-12.05677055413334
 10
38.25177399999995
 20
-12.05221999999994
 10
38.24280904856653
 20
-12.04802252303321
 10
38.23375099999998
 20
-12.04402999999993
 10
38.22494623239986
 20
-12.04038721286664
 10
38.21605999999996
 20
-12.03694799999996
 10
38.20742724323332
 20
-12.03383500216651
 10
38.19872399999997
 20
-12.03092499999994
 10
38.19027388436665
 20
-12.02832022426665
 10
38.18176399999996
 20
-12.02591799999996
 10
38.17351351123329
 20
-12.02380227929991
 10
38.16521399999999
 20
-12.02188799999996
 10
38.15719213789996
 20
-12.02024420089983
 10
38.14913200000001
 20
-12.01879999999997
 10
38.14136328630002
 20
-12.01760793909997
 10
38.13356699999996
 20
-12.01661199999991
 10
38.12606098949999
 20
-12.01584598276665
 10
38.11853799999994
 20
-12.01527199999995
 10
38.11130467993325
 20
-12.01490716583319
 10
38.10406399999999
 20
-12.01472999999995
  0
LWPOLYLINE
  5
27C
330
1F
100
AcDbEntity
  8
1
100
AcDbPolyline
 90
       58
 70
     0
 43
0.0
 10
38.14656067353331
 20
-11.95827321399993
 10
38.14896099999998
 20
-11.95858499999994
 10
38.15400992243325
 20
-11.95910018353319
 10
38.15904499999999
 20
-11.95956899999995
 10
38.16355378889999
 20
-11.96009986649997
 10
38.16805599999998
 20
-11.96072299999994
 10
38.17867799999999
 20
-11.96238999999994
 10
38.19062199999996
 20
-11.9646019999999
 10
38.20371
 20
-11.96737699999997
 10
38.21604400000001
 20
-11.97029899999991
 10
38.22884499999998
 20
-11.97364199999995
 10
38.24228899999996
 20
-11.97750799999997
 10
38.24933432933335
 20
-11.97969112856646
 10
38.25634500000001
 20
-11.98198299999992
 10
38.26339463716668
 20
-11.9844185304666
 10
38.27040099999999
 20
-11.98697599999994
 10
38.27826691120003
 20
-11.99001624466663
 10
38.28607099999999
 20
-11.99321199999994
 10
38.2940816263
 20
-11.99667999659996
 10
38.30202199999996
 20
-12.00030599999993
 10
38.31014699563331
 20
-12.0042108616665
 10
38.31819499999994
 20
-12.00827199999994
 10
38.32656514413331
 20
-12.01269715363318
 10
38.33485399999995
 20
-12.01727299999996
 10
38.34307200303328
 20
-12.02199239489996
 10
38.35120899999997
 20
-12.02684999999994
 10
38.35962586890002
 20
-12.03207862183333
 10
38.36794399999996
 20
-12.03746300000003
 10
38.3765459136
 20
-12.04327265406667
 10
38.38502999999996
 20
-12.04925299999993
 10
38.3937530022
 20
-12.05566784453336
 10
38.40234999999995
 20
-12.06225099999997
 10
38.4116448140333
 20
-12.06966041156666
 10
38.42077799999998
 20
-12.07726799999997
 10
38.43046807339999
 20
-12.08574498893321
 10
38.43992299999996
 20
-12.09448399999993
 10
38.44658090716653
 20
-12.10095899616647
 10
38.45308809116659
 20
-12.10758539359997
 10
38.45943
 20
-12.11436999999998
 10
38.46645859496664
 20
-12.12232062456652
 10
38.47325130333331
 20
-12.13047463736663
 10
38.47980699999993
 20
-12.13881999999991
 10
38.48646265716661
 20
-12.14781132709995
 10
38.49286615463329
 20
-12.15698448089997
 10
38.49902999999994
 20
-12.16632199999994
 10
38.50390722296663
 20
-12.17408793726664
 10
38.50861102623332
 20
-12.18195947063319
 10
38.51312056639999
 20
-12.18994351866663
 10
38.51741499999996
 20
-12.19804699999994
 10
38.52121281156655
 20
-12.20572886063317
 10
38.52478345566657
 20
-12.21351917183321
 10
38.52810562193326
 20
-12.22141614716665
 10
38.531158
 20
-12.22941799999992
 10
38.53354411966654
 20
-12.23636093309997
 10
38.53570281143333
 20
-12.24337852569996
 10
38.53762064336661
 20
-12.25046965173318
 10
38.53928418353331
 20
-12.25763318519997
 10
38.54067999999995
 20
-12.26486799999995
  0
LINE
  5
27D
330
1F
100
AcDbEntity
  8
3
100
AcDbLine
 10
21.49999998304997
 20
5.500000000000028
 30
0.0
 11
27.21171436039998
 21
5.500000000000028
 31
0.0
  0
LINE
  5
27E
330
1F
100
AcDbEntity
  8
1
100
AcDbLine
 10
27.7117143434001
 20
19.41448405306665
 30
0.0
 11
19.71790743886662
 21
19.41448405306665
 31
0.0
  0
DIMENSION
  5
27F
330
1F
100
AcDbEntity
  8
2
100
AcDbDimension
  2
*D2
 10
0.0000000000000007
 20
28.64069352185007
 30
0.0
 11
20.0
 21
28.64069352185007
 31
0.0
 70
   160
 71
     5
 42
40.0
  3
ISO-25
100
AcDbAlignedDimension
 13
40.0
 23
16.50170179246916
 33
0.0
 14
0.0
 24
17.99811107155001
 34
0.0
 50
180.0
100
AcDbRotatedDimension
  0
ARC
  5
280
330
1F
100
AcDbEntity
  8
1
100
AcDbCircle
 10
1.000000000000113
 20
18.00000000000001
 30
0.0
 40
0.9999999999999998
100
AcDbArc
 50
90.0
 51
180.0
  0
LINE
  5
281
330
1F
100
AcDbEntity
  8
1
100
AcDbLine
 10
19.71790743889997
 20
19.35124812660014
 30
0.0
 11
19.71790743889997
 21
11.50000000000001
 31
0.0
  0
LINE
  5
282
330
1F
100
AcDbEntity
  8
1
100
AcDbLine
 10
18.99999999999987
 20
19.00000000000003
 30
0.0
 11
18.99999999999987
 21
11.50000000000001
 31
0.0
  0
LINE
  5
283
330
1F
100
AcDbEntity
  8
3
100
AcDbLine
 10
0.7999999999998977
 20
11.00000000000002
 30
0.0
 11
16.0
 21
11.00000000000002
 31
0.0
  0
LINE
  5
284
330
1F
100
AcDbEntity
  8
3
100
AcDbLine
 10
0.7999999999999547
 20
10.99999999999997
 30
0.0
 11
0.7999999999999547
 21
5.200000000000073
 31
0.0
  0
LINE
  5
285
330
1F
100
AcDbEntity
  8
1
100
AcDbLine
 10
0.0
 20
18.00000000000001
 30
0.0
 11
0.0
 21
5.800000000000037
 31
0.0
  0
LINE
  5
286
330
1F
100
AcDbEntity
  8
1
100
AcDbLine
 10
0.7999999999999547
 20
5.200000000000073
 30
0.0
 11
5.900000000000089
 21
5.200000000000073
 31
0.0
  0
LINE
  5
287
330
1F
100
AcDbEntity
  8
1
100
AcDbLine
 10
0.7999999999999547
 20
5.200000000000073
 30
0.0
 11
0.5999999999999659
 21
5.200000000000073
 31
0.0
  0
LINE
  5
288
330
1F
100
AcDbEntity
  8
1
100
AcDbLine
 10
0.0
 20
5.799999999999982
 30
0.0
 11
0.5999999999999659
 21
5.200000000000073
 31
0.0
  0
ARC
  5
289
330
1F
100
AcDbEntity
  8
1
100
AcDbCircle
 10
5.900000000000089
 20
4.799999999999981
 30
0.0
 40
0.3999999999999999
100
AcDbArc
 50
0.0
 51
90.0
  0
LINE
  5
28A
330
1F
100
AcDbEntity
  8
3
100
AcDbLine
 10
0.0
 20
11.79999999999998
 30
0.0
 11
0.7999999999999547
 21
10.99999999999997
 31
0.0
  0
LINE
  5
28B
330
1F
100
AcDbEntity
  8
3
100
AcDbLine
 10
20.99999999999988
 20
2.500224396500042
 30
0.0
 11
20.99999999999988
 21
4.897787919900081
 31
0.0
  0
LINE
  5
28C
330
1F
100
AcDbEntity
  8
3
100
AcDbLine
 10
16.0
 20
11.50000000000001
 30
0.0
 11
20.99999999999988
 21
11.50000000000001
 31
0.0
  0
LINE
  5
28D
330
1F
100
AcDbEntity
  8
1
100
AcDbLine
 10
19.00000000000011
 20
19.00000000000003
 30
0.0
 11
1.000000000000113
 21
19.00000000000003
 31
0.0
  0
LINE
  5
28E
330
1F
100
AcDbEntity
  8
1
100
AcDbLine
 10
19.71790743886662
 20
19.41448405306665
 30
0.0
 11
19.00000000000011
 21
19.00000000000003
 31
0.0
  0
LINE
  5
28F
330
1F
100
AcDbEntity
  8
CUT
100
AcDbLine
 10
39.94457099999999
 20
18.11447300000017
 30
0.0
 11
39.96947199999999
 21
19.50763800000017
 31
0.0
  0
LINE
  5
290
330
1F
100
AcDbEntity
  8
CUT
100
AcDbLine
 10
40.02008899999998
 20
19.64411500000002
 30
0.0
 11
39.99234299999999
 21
18.06984000000002
 31
0.0
  0
LINE
  5
291
330
1F
100
AcDbEntity
  8
CUT
100
AcDbLine
 10
25.97211099999998
 20
15.31240200000002
 30
0.0
 11
26.82826399999999
 21
19.66603700000003
 31
0.0
  0
LINE
  5
292
330
1F
100
AcDbEntity
  8
CUT
100
AcDbLine
 10
26.16434599999996
 20
15.27607400000013
 30
0.0
 11
27.02049899999996
 21
19.62938200000015
 31
0.0
  0
LINE
  5
293
330
1F
100
AcDbEntity
  8
CUT
100
AcDbLine
 10
32.26297899999996
 20
12.00534700000017
 30
0.0
 11
35.01562000000001
 21
12.00292100000003
 31
0.0
  0
LINE
  5
294
330
1F
100
AcDbEntity
  8
3
100
AcDbLine
 10
27.71171434345001
 20
9.000000000000024
 30
0.0
 11
38.67352474081497
 21
9.000000000000024
 31
0.0
  0
LINE
  5
295
330
1F
100
AcDbEntity
  8
CUT
100
AcDbLine
 10
30.90017499999999
 20
11.97117400000015
 30
0.0
 11
38.12722499999995
 21
11.95832000000015
 31
0.0
  0
LINE
  5
296
330
1F
100
AcDbEntity
  8
CUT
100
AcDbLine
 10
26.07405099999994
 20
12.05519400000005
 30
0.0
 11
29.56896199999994
 21
12.01938100000004
 31
0.0
  0
LINE
  5
297
330
1F
100
AcDbEntity
  8
CUT
100
AcDbLine
 10
27.68838299999998
 20
11.98259800000001
 30
0.0
 11
27.24536899999998
 21
11.98972800000002
 31
0.0
  0
LINE
  5
298
330
1F
100
AcDbEntity
  8
CUT
100
AcDbLine
 10
25.71648299999998
 20
12.06042900000014
 30
0.0
 11
25.76091399999994
 21
12.06010600000002
 31
0.0
  0
LINE
  5
299
330
1F
100
AcDbEntity
  8
CUT
100
AcDbLine
 10
25.54952800000001
 20
12.06261800000007
 30
0.0
 11
25.606853
 21
12.06216400000001
 31
0.0
  0
LINE
  5
29A
330
1F
100
AcDbEntity
  8
CUT
100
AcDbLine
 10
25.606853
 20
12.06216400000001
 30
0.0
 11
25.63494700000001
 21
12.06180400000002
 31
0.0
  0
LINE
  5
29B
330
1F
100
AcDbEntity
  8
CUT
100
AcDbLine
 10
25.530208
 20
12.06287900000015
 30
0.0
 11
25.54952800000001
 21
12.06261800000007
 31
0.0
  0
LINE
  5
29C
330
1F
100
AcDbEntity
  8
CUT
100
AcDbLine
 10
25.69860899999996
 20
12.06066300000016
 30
0.0
 11
25.71648299999998
 21
12.06042900000014
 31
0.0
  0
LINE
  5
29D
330
1F
100
AcDbEntity
  8
CUT
100
AcDbLine
 10
25.63494700000001
 20
12.06180400000002
 30
0.0
 11
25.69860899999996
 21
12.06066300000016
 31
0.0
  0
LWPOLYLINE
  5
29E
330
1F
100
AcDbEntity
  8
CUT
100
AcDbPolyline
 90
        3
 70
     0
 43
0.0
 10
25.76091399999994
 20
12.06010600000002
 10
25.76952599999998
 20
12.05995700000001
 10
25.77787499999988
 20
12.05969900000016
  0
LWPOLYLINE
  5
29F
330
1F
100
AcDbEntity
  8
CUT
100
AcDbPolyline
 90
        3
 70
     0
 43
0.0
 10
25.51081299999998
 20
12.06332100000016
 10
25.52051899999998
 20
12.06307200000017
 10
25.530208
 20
12.06287900000015
  0
LWPOLYLINE
  5
2A0
330
1F
100
AcDbEntity
  8
CUT
100
AcDbPolyline
 90
       59
 70
     0
 43
0.0
 10
25.51081299999998
 20
12.06332100000016
 10
25.50381722873339
 20
12.06355369906677
 10
25.49682599999994
 20
12.06389700000014
 10
25.48986096593329
 20
12.06434973416682
 10
25.48290400000007
 20
12.06491300000007
 10
25.47597766299986
 20
12.06558499270019
 10
25.469063
 20
12.06636800000002
 10
25.46218430853332
 20
12.06725972200002
 10
25.45532099999996
 20
12.06826300000014
 10
25.4484984449333
 20
12.06937421453349
 10
25.44169499999998
 20
12.07059700000002
 10
25.43493599656659
 20
12.07192700986681
 10
25.42819999999994
 20
12.07336900000004
 10
25.42151349263326
 20
12.0749178351668
 10
25.41485399999999
 20
12.07657900000016
 10
25.40824792173339
 20
12.07834620560007
 10
25.40167299999996
 20
12.08022600000006
 10
25.3951557410333
 20
12.0822114697668
 10
25.38867399999998
 20
12.08431000000016
 10
25.38225637390001
 20
12.0865130373335
 10
25.37587899999994
 20
12.08883000000017
 10
25.36959402123328
 20
12.09124250166681
 10
25.36335399999996
 20
12.09376900000002
 10
25.35720585066655
 20
12.0963906353668
 10
25.35110699999995
 20
12.09912500000003
 10
25.34509070956659
 20
12.10195692853349
 10
25.33912799999995
 20
12.10490000000007
 10
25.33323824763328
 20
12.10794521706682
 10
25.32740699999999
 20
12.11110100000002
 10
25.3216399474333
 20
12.11436547503351
 10
25.31593600000007
 20
12.11773900000016
 10
25.31028558759999
 20
12.12122676356679
 10
25.30470099999996
 20
12.12481900000014
 10
25.2991582748333
 20
12.12852908016677
 10
25.29368299999987
 20
12.13233800000014
 10
25.2882384304666
 20
12.13627000003347
 10
25.28286300000002
 20
12.14029600000017
 10
25.2775087933333
 20
12.1444508925335
 10
25.27222499999999
 20
12.14869500000006
 10
25.26696056359998
 20
12.15306838413348
 10
25.26176899999994
 20
12.15752800000015
 10
25.25662060553327
 20
12.16210005953334
 10
25.25154699999996
 20
12.16675500000016
 10
25.24651932073334
 20
12.17151734556679
 10
25.24156699999997
 20
12.176358
 10
25.23666245076667
 20
12.1813028307335
 10
25.23183399999999
 20
12.18632200000002
 10
25.22705631833332
 20
12.19144038340007
 10
25.22235499999998
 20
12.19662900000016
 10
25.21770565506659
 20
12.20191325143352
 10
25.21313299999996
 20
12.20726400000001
 10
25.20861609936662
 20
12.21270456760016
 10
25.20417599999996
 20
12.21820800000014
 10
25.19979359273337
 20
12.22379630613349
 10
25.19548799999995
 20
12.22944400000002
 10
25.19124358703328
 20
12.23517041380002
 10
25.18707599999999
 20
12.24095300000016
 10
25.18297226016669
 20
12.24680809893348
 10
25.17894499999988
 20
12.25271600000016
  0
LINE
  5
2A1
330
1F
100
AcDbEntity
  8
CUT
100
AcDbLine
 10
25.77787499999999
 20
12.05969900000016
 30
0.0
 11
25.80036699999992
 21
12.05888700000016
 31
0.0
  0
LWPOLYLINE
  5
2A2
330
1F
100
AcDbEntity
  8
CUT
100
AcDbPolyline
 90
       23
 70
     0
 43
0.0
 10
25.39060599999999
 20
13.96766800000014
 10
25.39552173356668
 20
13.99207143286675
 10
25.40112799999997
 20
14.01632400000002
 10
25.40739449896671
 20
14.04039085110017
 10
25.41430200000002
 20
14.06428200000005
 10
25.42184327163339
 20
14.08803932223347
 10
25.42997500000001
 20
14.11160100000001
 10
25.43871236810002
 20
14.13507678976682
 10
25.44798600000001
 20
14.15834600000001
 10
25.45783693960004
 20
14.18157072606678
 10
25.46816999999987
 20
14.20458500000002
 10
25.47905043826654
 20
14.22758943936682
 10
25.49035800000001
 20
14.25038700000007
 10
25.50217805429991
 20
14.27320502626682
 10
25.51437099999998
 20
14.29582600000006
 10
25.52706359613329
 20
14.31853323473343
 10
25.54007899999987
 20
14.34105700000006
 10
25.5535978538
 20
14.36375449810017
 10
25.56738999999998
 20
14.38628700000005
 10
25.59603699999996
 20
14.43146800000013
 10
25.62572599999998
 20
14.47654800000018
 10
25.65614999999997
 20
14.52147800000014
 10
25.779402
 20
14.69932100000002
  0
LINE
  5
2A3
330
1F
100
AcDbEntity
  8
CUT
100
AcDbLine
 10
25.37523799999997
 20
13.82149100000018
 30
0.0
 11
25.35129499999992
 21
12.47888100000001
 31
0.0
  0
LINE
  5
2A4
330
1F
100
AcDbEntity
  8
CUT
100
AcDbLine
 10
25.35129499999992
 20
12.47888100000001
 30
0.0
 11
25.35101399999996
 21
12.46340500000016
 31
0.0
  0
LINE
  5
2A5
330
1F
100
AcDbEntity
  8
CUT
100
AcDbLine
 10
25.12483699999994
 20
12.43294400000005
 30
0.0
 11
25.15258299999993
 21
14.02971700000001
 31
0.0
  0
LINE
  5
2A6
330
1F
100
AcDbEntity
  8
CUT
100
AcDbLine
 10
25.350909
 20
12.45834200000002
 30
0.0
 11
25.35056599999994
 21
12.44343800000002
 31
0.0
  0
LINE
  5
2A7
330
1F
100
AcDbEntity
  8
CUT
100
AcDbLine
 10
25.37551399999995
 20
13.83297100000007
 30
0.0
 11
25.37523799999997
 21
13.82149100000018
 31
0.0
  0
LINE
  5
2A8
330
1F
100
AcDbEntity
  8
CUT
100
AcDbLine
 10
25.35044299999998
 20
12.43856600000015
 30
0.0
 11
25.35004499999996
 21
12.42423800000001
 31
0.0
  0
LWPOLYLINE
  5
2A9
330
1F
100
AcDbEntity
  8
CUT
100
AcDbPolyline
 90
       29
 70
     0
 43
0.0
 10
25.37551399999995
 20
13.83297100000007
 10
25.375674
 20
13.83789400000003
 10
25.37586399999998
 20
13.84280800000017
 10
25.37608199999999
 20
13.84771300000014
 10
25.37632899999994
 20
13.85261000000005
 10
25.37660599999998
 20
13.85749800000005
 10
25.37691099999994
 20
13.86237700000017
 10
25.377244
 20
13.86724800000002
 10
25.37760600000001
 20
13.87211000000015
 10
25.37799599999994
 20
13.87696400000006
 10
25.37841500000002
 20
13.88181000000003
 10
25.37886099999996
 20
13.88664800000017
 10
25.37933599999997
 20
13.89147700000002
 10
25.37983799999994
 20
13.89629800000014
 10
25.38036799999996
 20
13.90111100000003
 10
25.38092499999999
 20
13.90591500000001
 10
25.38150899999993
 20
13.91071200000018
 10
25.38212099999998
 20
13.91550100000003
 10
25.38276000000007
 20
13.92028200000007
 10
25.38342599999998
 20
13.92505500000007
 10
25.38411799999994
 20
13.92982000000001
 10
25.38483799999994
 20
13.93457700000019
 10
25.38558299999988
 20
13.93932700000007
 10
25.38635499999998
 20
13.94406900000003
 10
25.387154
 20
13.94880400000013
 10
25.38797799999996
 20
13.95353100000014
 10
25.38882799999987
 20
13.95825100000003
 10
25.38970499999999
 20
13.96296300000003
 10
25.39060599999999
 20
13.96766800000014
  0
LWPOLYLINE
  5
2AA
330
1F
100
AcDbEntity
  8
CUT
100
AcDbPolyline
 90
       23
 70
     0
 43
0.0
 10
25.15258299999993
 20
14.02971700000001
 10
25.15322084219997
 20
14.04490563176677
 10
25.15456699999998
 20
14.06005400000017
 10
25.1565696243
 20
14.07457898466677
 10
25.15929699999998
 20
14.08898300000017
 10
25.16270775646671
 20
14.10299300273337
 10
25.16682099999997
 20
14.11681400000006
 10
25.17168858706668
 20
14.13064271296681
 10
25.17719699999998
 20
14.14422900000013
 10
25.18363231823331
 20
14.15826474293348
 10
25.19065599999999
 20
14.17201600000018
 10
25.19876893373339
 20
14.18644272393348
 10
25.20741700000007
 20
14.20055500000001
 10
25.21738690309996
 20
14.21563444180017
 10
25.22778499999998
 20
14.23042300000016
 10
25.23928058236657
 20
14.24604559493346
 10
25.25100899999994
 20
14.26149400000014
 10
25.27637599999996
 20
14.29405000000005
 10
25.30381799999998
 20
14.32833700000017
 10
25.33366499999999
 20
14.36462300000002
 10
25.36617999999998
 20
14.40325600000002
 10
25.401657
 20
14.44446100000007
 10
25.44022899999998
 20
14.48830100000017
  0
LWPOLYLINE
  5
2AB
330
1F
100
AcDbEntity
  8
CUT
100
AcDbPolyline
 90
       40
 70
     0
 43
0.0
 10
25.17894499999988
 20
12.25271600000016
 10
25.17697333843329
 20
12.25565646356679
 10
25.17503499999998
 20
12.25861900000001
 10
25.17313979990001
 20
12.26158797223344
 10
25.17127799999996
 20
12.26457800000017
 10
25.1694588606333
 20
12.2675735185335
 10
25.16767299999996
 20
12.27058900000017
 10
25.16592916226669
 20
12.27360890613349
 10
25.164219
 20
12.27664800000016
 10
25.16255122536653
 20
12.27969091993347
 10
25.16091699999998
 20
12.28275200000003
 10
25.15932415563327
 20
12.28581486360005
 10
25.15776499999998
 20
12.28889500000016
 10
25.15624806753328
 20
12.29197627336676
 10
25.154765
 20
12.29507400000014
 10
25.15332259206667
 20
12.29817224563348
 10
25.15191399999996
 20
12.30128600000014
 10
25.14921399999996
 20
12.30752500000002
 10
25.14792123346666
 20
12.31064997360019
 10
25.14666299999987
 20
12.31378900000007
 10
25.14544670616658
 20
12.31692571410005
 10
25.14426600000001
 20
12.32007600000005
 10
25.14202299999988
 20
12.32638000000016
 10
25.13992899999994
 20
12.33269800000001
 10
25.13798199999996
 20
12.33902600000019
 10
25.13617899999996
 20
12.34535900000006
 10
25.13451500000007
 20
12.35169400000001
 10
25.13298799999994
 20
12.35802800000016
 10
25.13159399999994
 20
12.36435700000007
 10
25.13032899999996
 20
12.37067700000014
 10
25.12919299999987
 20
12.37698700000017
 10
25.12818900000002
 20
12.38328500000014
 10
25.12731799999994
 20
12.38956900000002
 10
25.126577
 20
12.39583500000017
 10
25.12596699999994
 20
12.40208200000002
 10
25.12548599999997
 20
12.40830700000016
 10
25.125134
 20
12.41450800000002
 10
25.12490899999988
 20
12.42068200000002
 10
25.12480999999997
 20
12.42682900000014
 10
25.12483699999994
 20
12.43294400000005
  0
LWPOLYLINE
  5
2AC
330
1F
100
AcDbEntity
  8
CUT
100
AcDbPolyline
 90
       59
 70
     0
 43
0.0
 10
25.67699099999998
 20
12.06316300000016
 10
25.66632573676656
 20
12.06638073486677
 10
25.65569999999997
 20
12.06972700000003
 10
25.64536482990002
 20
12.07312039893352
 10
25.63507199999998
 20
12.07664000000014
 10
25.62505578156669
 20
12.08020318640004
 10
25.61508399999997
 20
12.08388900000014
 10
25.60537832156664
 20
12.08761347560008
 10
25.59572199999996
 20
12.09146400000016
 10
25.58633138380002
 20
12.09535939396678
 10
25.57699799999999
 20
12.09939000000016
 10
25.56793141423337
 20
12.10346856680002
 10
25.55892999999997
 20
12.10768900000001
 10
25.5501932862333
 20
12.11196102349999
 10
25.54153099999996
 20
12.11638200000006
 10
25.53314065583332
 20
12.12085546126681
 10
25.52483599999993
 20
12.12548600000016
 10
25.51681029936662
 20
12.13017048873339
 10
25.50888199999997
 20
12.13501800000003
 10
25.50124033623331
 20
12.13991524850004
 10
25.49370799999996
 20
12.14497900000017
 10
25.48650939289996
 20
12.15005925473346
 10
25.47943199999997
 20
12.15530700000013
 10
25.47265745563328
 20
12.16058970130015
 10
25.46601700000007
 20
12.16604000000002
 10
25.45962689876671
 20
12.1715665727668
 10
25.45338599999996
 20
12.17726100000007
 10
25.44734780199997
 20
12.18308101883335
 10
25.44147199999996
 20
12.18906500000016
 10
25.43577117803328
 20
12.19520038710001
 10
25.43024099999996
 20
12.20149000000006
 10
25.4249503804333
 20
12.20784725686681
 10
25.41983199999998
 20
12.21434400000017
 10
25.41492384043339
 20
12.22092593833335
 10
25.41019099999994
 20
12.22763500000002
 10
25.4056295465333
 20
12.23447580953344
 10
25.40124600000001
 20
12.24143200000016
 10
25.3969994291333
 20
12.24856494870002
 10
25.39293099999996
 20
12.25580100000016
 10
25.38899165036667
 20
12.2632244514335
 10
25.38523099999996
 20
12.27074000000007
 10
25.38164037426655
 20
12.27835639056681
 10
25.37822499999998
 20
12.28605300000006
 10
25.37496821603326
 20
12.29386135640001
 10
25.371888
 20
12.30174100000013
 10
25.36895950156667
 20
12.30976458270006
 10
25.36621500000001
 20
12.31785300000015
 10
25.36362087593341
 20
12.32612356136681
 10
25.36122599999998
 20
12.33445400000001
 10
25.35900212983335
 20
12.34298879860014
 10
25.35700299999996
 20
12.35157900000003
 10
25.35521383976663
 20
12.3603516825668
 10
25.35367599999994
 20
12.36917200000007
 10
25.35238076500002
 20
12.37817278390005
 10
25.35136399999987
 20
12.38720900000017
 10
25.35062314250001
 20
12.39640400986681
 10
25.35016499999994
 20
12.40561800000014
 10
25.34997530433337
 20
12.41487485140018
 10
25.35004199999996
 20
12.42413200000018
  0
LINE
  5
2AD
330
1F
100
AcDbEntity
  8
CUT
100
AcDbLine
 10
26.52723299999996
 20
12.00634500000004
 30
0.0
 11
26.87938599999994
 21
11.99738900000014
 31
0.0
  0
LINE
  5
2AE
330
1F
100
AcDbEntity
  8
CUT
100
AcDbLine
 10
27.24536899999998
 20
11.98972800000002
 30
0.0
 11
26.87938599999994
 21
11.99738900000014
 31
0.0
  0
LWPOLYLINE
  5
2AF
330
1F
100
AcDbEntity
  8
CUT
100
AcDbPolyline
 90
        3
 70
     0
 43
0.0
 10
26.16434599999996
 20
15.27607400000013
 10
26.16082699999996
 20
15.27630800000016
 10
26.15730799999994
 20
15.27655900000002
  0
LWPOLYLINE
  5
2B0
330
1F
100
AcDbEntity
  8
CUT
100
AcDbPolyline
 90
        5
 70
     0
 43
0.0
 10
26.15378899999996
 20
15.27682700000015
 10
26.15026999999996
 20
15.27711000000013
 10
26.14675099999999
 20
15.27740900000017
 10
26.14323100000001
 20
15.27772400000015
 10
26.13971199999996
 20
15.27805500000013
  0
LINE
  5
2B1
330
1F
100
AcDbEntity
  8
CUT
100
AcDbLine
 10
26.13619299999999
 20
15.27840300000005
 30
0.0
 11
26.13267399999994
 21
15.27876600000003
 31
0.0
  0
LWPOLYLINE
  5
2B2
330
1F
100
AcDbEntity
  8
CUT
100
AcDbPolyline
 90
        3
 70
     0
 43
0.0
 10
26.12915499999996
 20
15.27914600000005
 10
26.12563599999998
 20
15.27954100000013
 10
26.122117
 20
15.27995300000017
  0
LWPOLYLINE
  5
2B3
330
1F
100
AcDbEntity
  8
CUT
100
AcDbPolyline
 90
       14
 70
     0
 43
0.0
 10
26.11859800000002
 20
15.28038100000006
 10
26.11507899999998
 20
15.28082400000001
 10
26.11155999999994
 20
15.28128400000015
 10
26.10804099999994
 20
15.28176000000016
 10
26.10452099999998
 20
15.28225200000004
 10
26.10100199999999
 20
15.28276000000001
 10
26.09748300000001
 20
15.28328400000018
 10
26.09396399999996
 20
15.28382400000016
 10
26.09044499999999
 20
15.28438000000002
 10
26.08692599999995
 20
15.28495200000016
 10
26.08340699999996
 20
15.28554000000005
 10
26.07988799999998
 20
15.28614400000004
 10
26.076369
 20
15.28676400000001
 10
26.07285
 20
15.28740000000007
  0
LWPOLYLINE
  5
2B4
330
1F
100
AcDbEntity
  8
CUT
100
AcDbPolyline
 90
        3
 70
     0
 43
0.0
 10
26.06933099999996
 20
15.28805300000017
 10
26.06581099999994
 20
15.28872100000001
 10
26.06229199999996
 20
15.28940500000007
  0
LINE
  5
2B5
330
1F
100
AcDbEntity
  8
CUT
100
AcDbLine
 10
25.92981499999996
 20
12.05633700000017
 30
0.0
 11
26.07405099999994
 21
12.05519400000005
 31
0.0
  0
LINE
  5
2B6
330
1F
100
AcDbEntity
  8
CUT
100
AcDbLine
 10
25.88226299999996
 20
12.05696700000018
 30
0.0
 11
25.92981499999996
 21
12.05633700000017
 31
0.0
  0
LINE
  5
2B7
330
1F
100
AcDbEntity
  8
CUT
100
AcDbLine
 10
25.84670999999996
 20
12.05763800000013
 30
0.0
 11
25.88226299999996
 21
12.05696700000018
 31
0.0
  0
LINE
  5
2B8
330
1F
100
AcDbEntity
  8
CUT
100
AcDbLine
 10
25.82334600000001
 20
12.05820600000018
 30
0.0
 11
25.84670999999996
 21
12.05763800000013
 31
0.0
  0
LINE
  5
2B9
330
1F
100
AcDbEntity
  8
CUT
100
AcDbLine
 10
25.90066000000001
 20
12.02641000000002
 30
0.0
 11
26.52723299999996
 21
12.00634500000004
 31
0.0
  0
LWPOLYLINE
  5
2BA
330
1F
100
AcDbEntity
  8
CUT
100
AcDbPolyline
 90
       24
 70
     0
 43
0.0
 10
25.779402
 20
14.69932100000002
 10
25.80971999999996
 20
14.74390200000007
 10
25.839376
 20
14.78864900000004
 10
25.86808099999996
 20
14.83352600000015
 10
25.8819499947333
 20
14.85592977383348
 10
25.89556799999996
 20
14.87848700000002
 10
25.90872702269994
 20
14.90089440603347
 10
25.92158999999998
 20
14.92347300000002
 10
25.93392766103328
 20
14.94585773183334
 10
25.94593199999996
 20
14.96842300000017
 10
25.95742350843341
 20
14.99085815646682
 10
25.96854699999994
 20
15.01347800000015
 10
25.97915372556656
 20
15.03601586140002
 10
25.98935299999993
 20
15.05874100000001
 10
25.99901514623331
 20
15.08140274126676
 10
26.00822999999996
 20
15.10425000000005
 10
26.01688946460001
 20
15.12705469806687
 10
26.02506299999999
 20
15.15003800000013
 10
26.03266679716671
 20
15.17300574120017
 10
26.03974799999996
 20
15.19614000000004
 10
26.04624622886666
 20
15.21928812336678
 10
26.052188
 20
15.24258500000002
 10
26.05753489323331
 20
15.26593082480005
 10
26.06229199999996
 20
15.28940500000007
  0
LWPOLYLINE
  5
2BB
330
1F
100
AcDbEntity
  8
CUT
100
AcDbPolyline
 90
       26
 70
     0
 43
0.0
 10
25.44022899999998
 20
14.48830100000017
 10
25.57582599999999
 20
14.63958800000014
 10
25.60195490310002
 20
14.66924035380016
 10
25.62787199999997
 20
14.69907800000018
 10
25.65455353193327
 20
14.73039016730004
 10
25.68086599999998
 20
14.76201300000004
 10
25.70637925366657
 20
14.79353693393349
 10
25.73141199999998
 20
14.82544400000001
 10
25.75459519363329
 20
14.85601756196681
 10
25.77720799999996
 20
14.88701500000016
 10
25.7977114583
 20
14.91636393670009
 10
25.81755599999997
 20
14.94616200000002
 10
25.83523235066667
 20
14.97411914103347
 10
25.852213
 20
15.00250400000006
 10
25.8674372196333
 20
15.02949930170004
 10
25.88194499999996
 20
15.05688600000002
 10
25.8949042622666
 20
15.08302958703333
 10
25.90714700000001
 20
15.10951600000018
 10
25.91807291396667
 20
15.13496328633337
 10
25.92830099999996
 20
15.16069900000005
 10
25.93750430119996
 20
15.18583853036678
 10
25.946008
 20
15.21122300000002
 10
25.9536461321
 20
15.2363553634668
 10
25.96056899999996
 20
15.26169400000016
 10
25.96670429676668
 20
15.28696481640016
 10
25.97211099999998
 20
15.31240200000002
  0
LINE
  5
2BC
330
1F
100
AcDbEntity
  8
CUT
100
AcDbLine
 10
25.80036699999992
 20
12.05888700000016
 30
0.0
 11
25.82334600000001
 21
12.05820600000018
 31
0.0
  0
LWPOLYLINE
  5
2BD
330
1F
100
AcDbEntity
  8
CUT
100
AcDbPolyline
 90
       28
 70
     0
 43
0.0
 10
25.90066000000001
 20
12.02641000000002
 10
25.892607
 20
12.02673000000006
 10
25.88452199999994
 20
12.02710700000014
 10
25.87641999999994
 20
12.02755500000002
 10
25.86830400000007
 20
12.02808000000006
 10
25.86017699999996
 20
12.02868600000013
 10
25.85204299999998
 20
12.02937600000002
 10
25.84390299999995
 20
12.03015300000007
 10
25.83575899999994
 20
12.03101500000005
 10
25.82762899999988
 20
12.03195900000016
 10
25.81950999999998
 20
12.03298100000002
 10
25.81139199999995
 20
12.03408100000014
 10
25.80326400000001
 20
12.03525800000014
 10
25.795116
 20
12.03651400000015
 10
25.78693799999996
 20
12.03785000000006
 10
25.77872200000001
 20
12.03926800000013
 10
25.77045799999996
 20
12.04077100000001
 10
25.76213799999993
 20
12.04236000000016
 10
25.75376199999992
 20
12.04403700000014
 10
25.74534899999996
 20
12.04580100000018
 10
25.73690299999998
 20
12.04765200000005
 10
25.72842600000001
 20
12.04959200000002
 10
25.719919
 20
12.05162100000003
 10
25.71138499999994
 20
12.05374100000002
 10
25.70282499999996
 20
12.05595400000007
 10
25.69423799999998
 20
12.05826100000015
 10
25.68562699999994
 20
12.06066400000016
 10
25.67699099999998
 20
12.06316300000016
  0
LINE
  5
2BE
330
1F
100
AcDbEntity
  8
CUT
100
AcDbLine
 10
30.90017499999999
 20
11.97117400000015
 30
0.0
 11
29.82156599999996
 21
11.97028100000014
 31
0.0
  0
LINE
  5
2BF
330
1F
100
AcDbEntity
  8
CUT
100
AcDbLine
 10
29.82156599999996
 20
11.97028100000014
 30
0.0
 11
28.83175599999998
 21
11.97235000000001
 31
0.0
  0
LINE
  5
2C0
330
1F
100
AcDbEntity
  8
CUT
100
AcDbLine
 10
28.83175599999998
 20
11.97235000000001
 30
0.0
 11
28.19532099999998
 21
11.97675900000002
 31
0.0
  0
LINE
  5
2C1
330
1F
100
AcDbEntity
  8
CUT
100
AcDbLine
 10
28.19532099999998
 20
11.97675900000002
 30
0.0
 11
27.68838299999998
 21
11.98259800000001
 31
0.0
  0
LINE
  5
2C2
330
1F
100
AcDbEntity
  8
CUT
100
AcDbLine
 10
29.56896199999994
 20
12.01938100000004
 30
0.0
 11
32.26297899999996
 21
12.00534700000017
 31
0.0
  0
LINE
  5
2C3
330
1F
100
AcDbEntity
  8
CUT
100
AcDbLine
 10
39.35853499999996
 20
16.63692900000001
 30
0.0
 11
38.50238200000001
 21
12.34824300000016
 31
0.0
  0
LINE
  5
2C4
330
1F
100
AcDbEntity
  8
CUT
100
AcDbLine
 10
39.44017299999996
 20
16.51297100000013
 30
0.0
 11
38.58402000000001
 21
12.18645500000016
 31
0.0
  0
LWPOLYLINE
  5
2C5
330
1F
100
AcDbEntity
  8
CUT
100
AcDbPolyline
 90
       58
 70
     0
 43
0.0
 10
38.14656067353331
 20
11.95827321400017
 10
38.14896099999998
 20
11.95858500000005
 10
38.15400992243325
 20
11.95910018353335
 10
38.15904499999999
 20
11.95956900000018
 10
38.16355378889999
 20
11.96009986650008
 10
38.16805599999998
 20
11.96072300000015
 10
38.17867799999999
 20
11.96239000000016
 10
38.19062199999996
 20
11.96460200000003
 10
38.20371
 20
11.96737700000001
 10
38.21604400000001
 20
11.97029900000001
 10
38.22884499999998
 20
11.97364200000005
 10
38.24228899999996
 20
11.97750800000003
 10
38.24933432933335
 20
11.97969112856677
 10
38.25634500000001
 20
11.98198300000002
 10
38.26339463716668
 20
11.98441853046679
 10
38.27040099999999
 20
11.98697600000005
 10
38.27826691120003
 20
11.99001624466686
 10
38.28607099999999
 20
11.99321200000015
 10
38.2940816263
 20
11.99667999660002
 10
38.30202199999996
 20
12.00030600000016
 10
38.31014699563331
 20
12.00421086166677
 10
38.31819499999994
 20
12.00827200000015
 10
38.32656514413331
 20
12.01269715363346
 10
38.33485399999995
 20
12.01727300000007
 10
38.34307200303328
 20
12.02199239490008
 10
38.35120899999997
 20
12.02685000000005
 10
38.35962586890002
 20
12.0320786218335
 10
38.36794399999996
 20
12.03746300000014
 10
38.3765459136
 20
12.04327265406678
 10
38.38502999999996
 20
12.04925300000005
 10
38.3937530022
 20
12.05566784453347
 10
38.40234999999995
 20
12.06225100000001
 10
38.4116448140333
 20
12.06966041156678
 10
38.42077799999998
 20
12.07726800000014
 10
38.43046807339999
 20
12.0857449889335
 10
38.43992299999996
 20
12.09448400000003
 10
38.44658090716653
 20
12.10095899616683
 10
38.45308809116659
 20
12.10758539360003
 10
38.45943
 20
12.11437000000001
 10
38.46645859496664
 20
12.12232062456681
 10
38.47325130333331
 20
12.1304746373668
 10
38.47980699999993
 20
12.13882000000003
 10
38.48646265716661
 20
12.14781132710001
 10
38.49286615463329
 20
12.15698448090003
 10
38.49902999999994
 20
12.16632200000018
 10
38.50390722296663
 20
12.17408793726681
 10
38.50861102623332
 20
12.18195947063335
 10
38.51312056639999
 20
12.18994351866681
 10
38.51741499999996
 20
12.19804700000006
 10
38.52121281156655
 20
12.20572886063334
 10
38.52478345566657
 20
12.21351917183349
 10
38.52810562193326
 20
12.22141614716681
 10
38.531158
 20
12.22941800000001
 10
38.53354411966654
 20
12.23636093310008
 10
38.53570281143333
 20
12.24337852570013
 10
38.53762064336661
 20
12.25046965173348
 10
38.53928418353331
 20
12.25763318520002
 10
38.54067999999995
 20
12.26486800000015
  0
LWPOLYLINE
  5
2C6
330
1F
100
AcDbEntity
  8
CUT
100
AcDbPolyline
 90
       59
 70
     0
 43
0.0
 10
38.50238200000001
 20
12.34824300000016
 10
38.50083665526659
 20
12.34103771526682
 10
38.49910599999997
 20
12.33387500000016
 10
38.4970964457666
 20
12.32640557466678
 10
38.49489599999996
 20
12.31899000000018
 10
38.49238873469992
 20
12.31126857636681
 10
38.48968699999998
 20
12.30361300000007
 10
38.48664832233328
 20
12.29564491570013
 10
38.48341199999996
 20
12.28775500000002
 10
38.47983119916671
 20
12.27960498470005
 10
38.47605199999996
 20
12.27154500000001
 10
38.47192551726664
 20
12.26327089493335
 10
38.46760199999993
 20
12.25509800000017
 10
38.46290920393334
 20
12.24671482133348
 10
38.45802099999996
 20
12.23844400000002
 10
38.45276094426663
 20
12.22999690156685
 10
38.44730800000002
 20
12.22167300000003
 10
38.4414647538
 20
12.21318349973349
 10
38.43543
 20
12.20482900000003
 10
38.42901755699995
 20
12.19636062056682
 10
38.42241699999997
 20
12.18803800000001
 10
38.41547268679994
 20
12.17967069190002
 10
38.40834499999994
 20
12.17145900000005
 10
38.40085083056669
 20
12.16320069690002
 10
38.39317599999997
 20
12.15511000000006
 10
38.38523717433332
 20
12.14710119670002
 10
38.37712499999998
 20
12.13926800000002
 10
38.36882152163332
 20
12.13159175073335
 10
38.36035299999997
 20
12.12409800000014
 10
38.35169552269997
 20
12.11676758833348
 10
38.34287999999998
 20
12.10962800000007
 10
38.33401505756672
 20
12.1027618518668
 10
38.32500299999996
 20
12.09609000000014
 10
38.315958001
 20
12.08969410073351
 10
38.30677500000001
 20
12.08349800000016
 10
38.2976303271667
 20
12.07761629980002
 10
38.28835800000002
 20
12.07193800000005
 10
38.2792451877666
 20
12.06663034670018
 10
38.27001699999994
 20
12.06152600000015
 10
38.26094774643332
 20
12.05677055413352
 10
38.25177399999995
 20
12.05222000000006
 10
38.24280904856653
 20
12.04802252303349
 10
38.23375099999998
 20
12.04403000000002
 10
38.22494623239986
 20
12.0403872128668
 10
38.21605999999996
 20
12.036948
 10
38.20742724323332
 20
12.03383500216679
 10
38.19872399999997
 20
12.03092500000016
 10
38.19027388436665
 20
12.02832022426676
 10
38.18176399999996
 20
12.02591800000005
 10
38.17351351123329
 20
12.02380227930003
 10
38.16521399999999
 20
12.02188800000016
 10
38.15719213789996
 20
12.02024420090006
 10
38.14913200000001
 20
12.0188
 10
38.14136328630002
 20
12.01760793910014
 10
38.13356699999996
 20
12.01661200000001
 10
38.12606098949999
 20
12.01584598276681
 10
38.11853799999994
 20
12.01527200000017
 10
38.11130467993325
 20
12.01490716583347
 10
38.10406399999999
 20
12.01473000000016
  0
LINE
  5
2C7
330
1F
100
AcDbEntity
  8
CUT
100
AcDbLine
 10
38.58402000000001
 20
12.18645500000016
 30
0.0
 11
38.58252599999996
 21
12.18887300000003
 31
0.0
  0
LINE
  5
2C8
330
1F
100
AcDbEntity
  8
CUT
100
AcDbLine
 10
38.58103099999993
 20
12.19131300000017
 30
0.0
 11
38.57953699999995
 21
12.19377200000005
 31
0.0
  0
LINE
  5
2C9
330
1F
100
AcDbEntity
  8
CUT
100
AcDbLine
 10
38.57804199999996
 20
12.19625200000002
 30
0.0
 11
38.57654799999998
 21
12.19875300000001
 31
0.0
  0
LINE
  5
2CA
330
1F
100
AcDbEntity
  8
CUT
100
AcDbLine
 10
38.57505299999997
 20
12.20127400000002
 30
0.0
 11
38.57355899999999
 21
12.20381500000002
 31
0.0
  0
LINE
  5
2CB
330
1F
100
AcDbEntity
  8
CUT
100
AcDbLine
 10
38.57206399999995
 20
12.20637700000006
 30
0.0
 11
38.57056999999997
 21
12.20895900000002
 31
0.0
  0
LINE
  5
2CC
330
1F
100
AcDbEntity
  8
CUT
100
AcDbLine
 10
38.569075
 20
12.21156200000002
 30
0.0
 11
38.56758100000002
 21
12.21418500000007
 31
0.0
  0
LINE
  5
2CD
330
1F
100
AcDbEntity
  8
CUT
100
AcDbLine
 10
38.56608599999997
 20
12.21682800000005
 30
0.0
 11
38.56459199999994
 21
12.21949200000001
 31
0.0
  0
LINE
  5
2CE
330
1F
100
AcDbEntity
  8
CUT
100
AcDbLine
 10
38.56309699999996
 20
12.22217600000018
 30
0.0
 11
38.56160299999999
 21
12.22488000000018
 31
0.0
  0
LINE
  5
2CF
330
1F
100
AcDbEntity
  8
CUT
100
AcDbLine
 10
38.56010799999999
 20
12.22760500000005
 30
0.0
 11
38.55861399999998
 21
12.23035000000006
 31
0.0
  0
LINE
  5
2D0
330
1F
100
AcDbEntity
  8
CUT
100
AcDbLine
 10
38.55711899999993
 20
12.23311500000014
 30
0.0
 11
38.55562499999996
 21
12.23590100000002
 31
0.0
  0
LINE
  5
2D1
330
1F
100
AcDbEntity
  8
CUT
100
AcDbLine
 10
38.55412999999998
 20
12.23870700000015
 30
0.0
 11
38.552636
 21
12.24153300000001
 31
0.0
  0
LINE
  5
2D2
330
1F
100
AcDbEntity
  8
CUT
100
AcDbLine
 10
38.55114099999996
 20
12.24437900000016
 30
0.0
 11
38.54964699999992
 21
12.24724500000015
 31
0.0
  0
LINE
  5
2D3
330
1F
100
AcDbEntity
  8
CUT
100
AcDbLine
 10
38.54815299999993
 20
12.25013200000002
 30
0.0
 11
38.54665799999996
 21
12.25303900000001
 31
0.0
  0
LINE
  5
2D4
330
1F
100
AcDbEntity
  8
CUT
100
AcDbLine
 10
38.54516399999999
 20
12.25596600000002
 30
0.0
 11
38.54366899999996
 21
12.25891300000002
 31
0.0
  0
LINE
  5
2D5
330
1F
100
AcDbEntity
  8
CUT
100
AcDbLine
 10
38.54217499999998
 20
12.26188000000016
 30
0.0
 11
38.54067999999995
 21
12.26486800000015
 31
0.0
  0
LWPOLYLINE
  5
2D6
330
1F
100
AcDbEntity
  8
CUT
100
AcDbPolyline
 90
       10
 70
     0
 43
0.0
 10
38.12719199999998
 20
11.95832100000015
 10
38.12820214420003
 20
11.95858078143347
 10
38.12921299999993
 20
11.95867700000015
 10
38.1309946232667
 20
11.95855428200005
 10
38.13277996763327
 20
11.95822043266675
 10
38.13456999999994
 20
11.95786400000005
 10
38.13695824876656
 20
11.95759547926681
 10
38.13935396793329
 20
11.9575612607335
 10
38.14175463006666
 20
11.95770222393351
 10
38.14415770773337
 20
11.95795924850002
  0
LWPOLYLINE
  5
2D7
330
1F
100
AcDbEntity
  8
CUT
100
AcDbPolyline
 90
        3
 70
     0
 43
0.0
 10
35.01562000000001
 20
12.00292100000003
 10
37.85501699999997
 20
12.01321100000003
 10
38.10406399999999
 20
12.01473000000016
  0
LINE
  5
2D8
330
1F
100
AcDbEntity
  8
CUT
100
AcDbLine
 10
39.43867899999998
 20
16.51483300000014
 30
0.0
 11
39.437185
 21
16.51671100000016
 31
0.0
  0
LINE
  5
2D9
330
1F
100
AcDbEntity
  8
CUT
100
AcDbLine
 10
39.43568999999996
 20
16.51860400000017
 30
0.0
 11
39.43419599999998
 21
16.52051200000001
 31
0.0
  0
LINE
  5
2DA
330
1F
100
AcDbEntity
  8
CUT
100
AcDbLine
 10
39.43270099999995
 20
16.52243600000003
 30
0.0
 11
39.43120699999996
 21
16.52437500000015
 31
0.0
  0
LINE
  5
2DB
330
1F
100
AcDbEntity
  8
CUT
100
AcDbLine
 10
39.42971199999997
 20
16.52632900000006
 30
0.0
 11
39.428218
 21
16.52829800000002
 31
0.0
  0
LINE
  5
2DC
330
1F
100
AcDbEntity
  8
CUT
100
AcDbLine
 10
39.42672299999996
 20
16.53028200000001
 30
0.0
 11
39.42522899999993
 21
16.53228200000001
 31
0.0
  0
LINE
  5
2DD
330
1F
100
AcDbEntity
  8
CUT
100
AcDbLine
 10
39.42373399999997
 20
16.53429700000017
 30
0.0
 11
39.42223999999999
 21
16.53632700000005
 31
0.0
  0
LINE
  5
2DE
330
1F
100
AcDbEntity
  8
CUT
100
AcDbLine
 10
39.42074500000001
 20
16.53837300000017
 30
0.0
 11
39.41925099999997
 21
16.54043300000003
 31
0.0
  0
LINE
  5
2DF
330
1F
100
AcDbEntity
  8
CUT
100
AcDbLine
 10
39.41775599999994
 20
16.54250900000013
 30
0.0
 11
39.41626199999996
 21
16.54460000000002
 31
0.0
  0
LWPOLYLINE
  5
2E0
330
1F
100
AcDbEntity
  8
CUT
100
AcDbPolyline
 90
       32
 70
     0
 43
0.0
 10
39.90628299999995
 20
17.82869900000017
 10
39.86194899999997
 20
17.75423100000014
 10
39.83761599999997
 20
17.71298100000003
 10
39.81166799999994
 20
17.66845400000012
 10
39.78394700000001
 20
17.62031900000013
 10
39.75442399999996
 20
17.56845200000016
 10
39.72303399999997
 20
17.51260500000001
 10
39.68984699999998
 20
17.45244000000016
 10
39.65437399999996
 20
17.38639200000013
 10
39.61705899999996
 20
17.31455600000006
 10
39.59804488169999
 20
17.27690300786682
 10
39.579341
 20
17.23909500000015
 10
39.56119474216653
 20
17.20161825196677
 10
39.54337299999997
 20
17.16398600000005
 10
39.52680564643333
 20
17.12819293806679
 10
39.51058399999999
 20
17.09224200000002
 10
39.49578542956658
 20
17.05850132043346
 10
39.48137299999996
 20
17.02459400000017
 10
39.46843083566671
 20
16.99309284933335
 10
39.45588199999995
 20
16.96143300000001
 10
39.44451369743329
 20
16.9316458738335
 10
39.433535
 20
16.90171300000005
 10
39.42360088359999
 20
16.87347072333349
 10
39.41405199999996
 20
16.84509600000003
 10
39.40540233576653
 20
16.8181628530335
 10
39.39712799999995
 20
16.79111200000014
 10
39.38954695013331
 20
16.76502031880017
 10
39.38234699999997
 20
16.73882100000005
 10
39.37572949453329
 20
16.71322775160004
 10
39.36950999999999
 20
16.68753500000016
 10
39.36381792223329
 20
16.66227660666677
 10
39.35853499999996
 20
16.63692900000001
  0
LWPOLYLINE
  5
2E1
330
1F
100
AcDbEntity
  8
CUT
100
AcDbPolyline
 90
       21
 70
     0
 43
0.0
 10
39.63456799999994
 20
17.19513700000007
 10
39.60882700000002
 20
17.14259800000005
 10
39.58378799999996
 20
17.09064200000014
 10
39.55967499999997
 20
17.03935400000014
 10
39.536516
 20
16.98843700000016
 10
39.51457599999997
 20
16.93814500000002
 10
39.49407499999995
 20
16.88871500000005
 10
39.48438452819994
 20
16.86430271336685
 10
39.474964
 20
16.83978500000014
 10
39.46604562466655
 20
16.81574395690001
 10
39.45742099999995
 20
16.79159600000017
 10
39.44940204223326
 20
16.76821299000001
 10
39.44168999999997
 20
16.74472700000003
 10
39.43463206390004
 20
16.72221824820005
 10
39.42788299999995
 20
16.69961500000013
 10
39.42171320099999
 20
16.67784681826683
 10
39.41585399999997
 20
16.65599300000003
 10
39.4105377583666
 20
16.63495120710021
 10
39.40552999999999
 20
16.61383400000014
 10
39.4010305051666
 20
16.59353044573347
 10
39.396833
 20
16.57316200000003
  0
LINE
  5
2E2
330
1F
100
AcDbEntity
  8
CUT
100
AcDbLine
 10
39.93705599999998
 20
18.00865800000016
 30
0.0
 11
39.93645800000001
 21
18.00371000000003
 31
0.0
  0
LWPOLYLINE
  5
2E3
330
1F
100
AcDbEntity
  8
CUT
100
AcDbPolyline
 90
        3
 70
     0
 43
0.0
 10
39.93583699999999
 20
17.99875100000017
 10
39.93519399999996
 20
17.99378100000003
 10
39.934527
 20
17.98879800000017
  0
LINE
  5
2E4
330
1F
100
AcDbEntity
  8
CUT
100
AcDbLine
 10
39.93383699999997
 20
17.98380300000005
 30
0.0
 11
39.93312400000002
 21
17.97879700000006
 31
0.0
  0
LWPOLYLINE
  5
2E5
330
1F
100
AcDbEntity
  8
CUT
100
AcDbPolyline
 90
       24
 70
     0
 43
0.0
 10
39.93312400000002
 20
17.97879700000006
 10
39.92975443606656
 20
17.95690817390001
 10
39.92599199999995
 20
17.93508400000016
 10
39.92175186609995
 20
17.91283929863348
 10
39.91712799999999
 20
17.89067100000012
 10
39.91201357356668
 20
17.86806977066676
 10
39.90652699999996
 20
17.84555600000017
 10
39.90054096356653
 20
17.82260234486678
 10
39.89419699999996
 20
17.79974500000006
 10
39.88735185023322
 20
17.77645723950016
 10
39.88016699999996
 20
17.75327200000004
 10
39.87247048016661
 20
17.72961824596685
 10
39.86445399999997
 20
17.70607100000002
 10
39.85591079906668
 20
17.68200896133335
 10
39.84706899999997
 20
17.65805500000019
 10
39.83768177363328
 20
17.63352089576677
 10
39.82801899999996
 20
17.60909400000003
 10
39.80736300000001
 20
17.55917500000017
 10
39.785301
 20
17.50854000000006
 10
39.76206499999999
 20
17.45742400000001
 10
39.73765600000001
 20
17.40549800000016
 10
39.71230099999996
 20
17.35289500000019
 10
39.68647099999996
 20
17.30018800000006
 10
39.63456799999994
 20
17.19513700000007
  0
LINE
  5
2E6
330
1F
100
AcDbEntity
  8
CUT
100
AcDbLine
 10
39.94141599999998
 20
18.05264700000017
 30
0.0
 11
39.94102099999996
 21
18.04780700000004
 31
0.0
  0
LINE
  5
2E7
330
1F
100
AcDbEntity
  8
CUT
100
AcDbLine
 10
39.940604
 20
18.04295500000003
 30
0.0
 11
39.94016499999998
 21
18.03809100000003
 31
0.0
  0
LINE
  5
2E8
330
1F
100
AcDbEntity
  8
CUT
100
AcDbLine
 10
39.939703
 20
18.03321500000017
 30
0.0
 11
39.93921899999996
 21
18.02832800000017
 31
0.0
  0
LWPOLYLINE
  5
2E9
330
1F
100
AcDbEntity
  8
CUT
100
AcDbPolyline
 90
        3
 70
     0
 43
0.0
 10
39.938712
 20
18.02342800000015
 10
39.93818299999997
 20
18.01851600000017
 10
39.93763100000001
 20
18.01359300000014
  0
LWPOLYLINE
  5
2EA
330
1F
100
AcDbEntity
  8
CUT
100
AcDbPolyline
 90
        3
 70
     0
 43
0.0
 10
39.94457099999999
 20
18.11447300000017
 10
39.94445599999993
 20
18.10979000000017
 10
39.94431999999994
 20
18.10509400000001
  0
LINE
  5
2EB
330
1F
100
AcDbEntity
  8
CUT
100
AcDbLine
 10
39.944163
 20
18.10038700000013
 30
0.0
 11
39.94398499999999
 21
18.09566700000005
 31
0.0
  0
LWPOLYLINE
  5
2EC
330
1F
100
AcDbEntity
  8
CUT
100
AcDbPolyline
 90
       16
 70
     0
 43
0.0
 10
39.99234299999999
 20
18.06984000000014
 10
39.99174475960001
 20
18.0548091828002
 10
39.99053199999996
 20
18.03981200000007
 10
39.98873791969998
 20
18.02525986923351
 10
39.98631899999996
 20
18.01080000000014
 10
39.98329104763331
 20
17.9965760537668
 10
39.97966099999996
 20
17.98249300000017
 10
39.97536338750001
 20
17.96826031513348
 10
39.97051699999996
 20
17.95420500000014
 10
39.96485498753333
 20
17.93956323820018
 10
39.95868699999994
 20
17.92512700000006
 10
39.95157225313328
 20
17.9098710487668
 10
39.94400399999989
 20
17.89483500000002
 10
39.93530980896668
 20
17.87865109716678
 10
39.92627699999996
 20
17.86265300000005
 10
39.90628299999995
 20
17.82869900000017
  0
LWPOLYLINE
  5
2ED
330
1F
100
AcDbEntity
  8
CUT
100
AcDbPolyline
 90
        3
 70
     0
 43
0.0
 10
39.94378599999999
 20
18.09093500000003
 10
39.94356599999997
 20
18.08619200000017
 10
39.94332399999996
 20
18.08143600000001
  0
LWPOLYLINE
  5
2EE
330
1F
100
AcDbEntity
  8
CUT
100
AcDbPolyline
 90
        5
 70
     0
 43
0.0
 10
39.94305999999994
 20
18.07666800000006
 10
39.94277499999997
 20
18.07188800000003
 10
39.94246799999996
 20
18.06709500000012
 10
39.94213999999999
 20
18.06229100000003
 10
39.94178899999996
 20
18.05747500000004
  0
LINE
  5
2EF
330
1F
100
AcDbEntity
  8
CUT
100
AcDbLine
 10
39.40729499999997
 20
16.55746500000006
 30
0.0
 11
39.4058
 21
16.55966200000002
 31
0.0
  0
LINE
  5
2F0
330
1F
100
AcDbEntity
  8
CUT
100
AcDbLine
 10
39.40430600000002
 20
16.56187400000017
 30
0.0
 11
39.40281099999998
 21
16.56410100000002
 31
0.0
  0
LINE
  5
2F1
330
1F
100
AcDbEntity
  8
CUT
100
AcDbLine
 10
39.40131699999993
 20
16.56634400000003
 30
0.0
 11
39.39982199999996
 21
16.56860200000002
 31
0.0
  0
LINE
  5
2F2
330
1F
100
AcDbEntity
  8
CUT
100
AcDbLine
 10
39.39832799999999
 20
16.57087400000001
 30
0.0
 11
39.396833
 21
16.57316200000003
 31
0.0
  0
LINE
  5
2F3
330
1F
100
AcDbEntity
  8
CUT
100
AcDbLine
 10
39.41476699999997
 20
16.54670600000017
 30
0.0
 11
39.41327299999999
 21
16.54882800000002
 31
0.0
  0
LWPOLYLINE
  5
2F4
330
1F
100
AcDbEntity
  8
CUT
100
AcDbPolyline
 90
        3
 70
     0
 43
0.0
 10
39.41177799999996
 20
16.55096400000005
 10
39.41028399999999
 20
16.55311600000007
 10
39.40878899999995
 20
16.55528300000017
  0
LINE
  5
2F5
330
1F
100
AcDbEntity
  8
CUT
100
AcDbLine
 10
35.63842199999999
 20
19.97341800000017
 30
0.0
 11
32.85756800000001
 21
19.96960100000004
 31
0.0
  0
LINE
  5
2F6
330
1F
100
AcDbEntity
  8
CUT
100
AcDbLine
 10
32.80520699999998
 20
19.89837000000003
 30
0.0
 11
33.34868899999998
 21
19.89798700000003
 31
0.0
  0
LINE
  5
2F7
330
1F
100
AcDbEntity
  8
1
100
AcDbLine
 10
27.7117143434001
 20
19.41448405306665
 30
0.0
 11
39.02004332256672
 21
18.9431409696667
 31
0.0
  0
LINE
  5
2F8
330
1F
100
AcDbEntity
  8
CUT
100
AcDbLine
 10
30.07710199999996
 20
19.97831600000003
 30
0.0
 11
27.223117
 21
20.00000000000003
 31
0.0
  0
LINE
  5
2F9
330
1F
100
AcDbEntity
  8
CUT
100
AcDbLine
 10
29.46760999999998
 20
19.92153800000002
 30
0.0
 11
27.32763699999998
 21
19.94895200000003
 31
0.0
  0
LINE
  5
2FA
330
1F
100
AcDbEntity
  8
1
100
AcDbLine
 10
27.05378469095001
 20
19.22649451755003
 30
0.0
 11
27.05248676040003
 21
19.22050997205005
 31
0.0
  0
LWPOLYLINE
  5
2FB
330
1F
100
AcDbEntity
  8
CUT
100
AcDbPolyline
 90
       40
 70
     0
 43
0.0
 10
27.39855099999999
 20
19.91131100000003
 10
27.39611100000002
 20
19.91193800000004
 10
27.39366999999998
 20
19.91258300000007
 10
27.39122199999997
 20
19.91325400000001
 10
27.38876099999998
 20
19.91395700000017
 10
27.38628199999992
 20
19.91470000000006
 10
27.383778
 20
19.91549200000017
 10
27.38124199999998
 20
19.91634000000019
 10
27.37866699999994
 20
19.91725400000003
 10
27.37604499999996
 20
19.91824300000003
 10
27.373376
 20
19.91931100000012
 10
27.37066499999996
 20
19.92046000000007
 10
27.36792099999997
 20
19.92169000000003
 10
27.36653162623326
 20
19.92233787123339
 10
27.36514899999996
 20
19.92300000000014
 10
27.36375038536664
 20
19.92368823770005
 10
27.36235899999996
 20
19.92439100000003
 10
27.36095409603331
 20
19.92511856893345
 10
27.35955699999988
 20
19.92586100000002
 10
27.35815120553331
 20
19.92662822493344
 10
27.35675399999996
 20
19.92741100000015
 10
27.35535086373328
 20
19.92821754533335
 10
27.35395699999996
 20
19.92904000000017
 10
27.35256239666671
 20
19.92988518700014
 10
27.351178
 20
19.93074700000012
 10
27.34979645696671
 20
19.93163045446678
 10
27.34842600000002
 20
19.93253100000006
 10
27.34706333383326
 20
19.93345121523335
 10
27.34571199999999
 20
19.93438800000003
 10
27.34438028800002
 20
19.93533424963348
 10
27.34305899999998
 20
19.93629500000017
 10
27.34177235620001
 20
19.93725081170017
 10
27.34049499999996
 20
19.93821900000014
 10
27.33804800000007
 20
19.94012600000014
 10
27.33574899999996
 20
19.94197800000003
 10
27.33362899999996
 20
19.94373400000003
 10
27.33172200000001
 20
19.94535500000003
 10
27.33006299999999
 20
19.94679600000003
 10
27.32868899999994
 20
19.94801000000004
 10
27.32763699999998
 20
19.94895200000003
  0
LWPOLYLINE
  5
2FC
330
1F
100
AcDbEntity
  8
CUT
100
AcDbPolyline
 90
       59
 70
     0
 43
0.0
 10
26.82826399999999
 20
19.66603700000003
 10
26.82980725086656
 20
19.67338650053348
 10
26.83153699999996
 20
19.68069400000016
 10
26.8335430317333
 20
19.68830337610003
 10
26.83573999999998
 20
19.69586000000006
 10
26.83823892650002
 20
19.70371638306679
 10
26.84093299999994
 20
19.71150800000017
 10
26.84396037166669
 20
19.71960562443351
 10
26.84718699999996
 20
19.72762600000018
 10
26.85075254063338
 20
19.7358980198668
 10
26.85451799999998
 20
19.74408100000001
 10
26.85862455130004
 20
19.75246765660003
 10
26.86293
 20
19.76075400000003
 10
26.86759810729995
 20
19.76924139200017
 10
26.87246399999998
 20
19.77761700000003
 10
26.87769469313332
 20
19.78615744830007
 10
26.88312099999996
 20
19.79457500000003
 10
26.88892934223338
 20
19.80314695203347
 10
26.89493199999998
 20
19.81158400000006
 10
26.90130387646672
 20
19.82012253313333
 10
26.90786700000001
 20
19.82851500000005
 10
26.91476514003328
 20
19.8369396998668
 10
26.92184999999994
 20
19.84520800000003
 10
26.92929207223329
 20
19.85350976076679
 10
26.93691799999987
 20
19.86164300000003
 10
26.9447986859667
 20
19.8696820216668
 10
26.95285599999988
 20
19.87754400000001
 10
26.9610958184333
 20
19.88523521436681
 10
26.96950399999996
 20
19.89274200000014
 10
26.97809252856655
 20
19.90007390950003
 10
26.98684199999997
 20
19.90721300000003
 10
26.99563241686655
 20
19.91406656306682
 10
27.00457299999992
 20
19.92072300000003
 10
27.01353919246667
 20
19.92709236640004
 10
27.02264600000001
 20
19.93325900000016
 10
27.0317085635333
 20
19.93910277550006
 10
27.04090099999996
 20
19.94474000000003
 10
27.04992782776661
 20
19.94999794690019
 10
27.05907200000001
 20
19.95504900000003
 10
27.06805248576654
 20
19.9597443495668
 10
27.07713899999999
 20
19.96423100000005
 10
27.08601246859996
 20
19.96835880473335
 10
27.09497999999996
 20
19.97227800000016
 10
27.10369247009987
 20
19.97584428176677
 10
27.11248699999987
 20
19.97920300000018
 10
27.12102515489998
 20
19.98223165493348
 10
27.12963400000001
 20
19.98505300000013
 10
27.1379883189
 20
19.98756678296681
 10
27.14640200000007
 20
19.98987400000017
 10
27.15455542090001
 20
19.99189332990018
 10
27.16275699999994
 20
19.99370700000017
 10
27.17068155543325
 20
19.99524931920003
 10
27.17864300000007
 20
19.99658800000017
 10
27.18631366786655
 20
19.99767492050003
 10
27.19400999999999
 20
19.99856200000019
 10
27.20141818426668
 20
19.99921980230013
 10
27.20884100000001
 20
19.99968200000003
 10
27.21597671129996
 20
19.99993635290005
 10
27.22311699999989
 20
20.00000000000003
  0
LWPOLYLINE
  5
2FD
330
1F
100
AcDbEntity
  8
CUT
100
AcDbPolyline
 90
       59
 70
     0
 43
0.0
 10
27.26723299999996
 20
19.86684600000003
 10
27.26736843976664
 20
19.86783164333332
 10
27.26758199999995
 20
19.86880200000014
 10
27.26788816290001
 20
19.86981894730003
 10
27.26826599999998
 20
19.87081200000012
 10
27.26874428923327
 20
19.87185427240003
 10
27.26928600000007
 20
19.87286500000006
 10
27.2699357825333
 20
19.87392744766676
 10
27.27064099999994
 20
19.87495400000014
 10
27.27146234586661
 20
19.87603175810019
 10
27.272332
 20
19.87707100000013
 10
27.27332387173339
 20
19.87816001343351
 10
27.274358
 20
19.87920900000003
 10
27.2755194340333
 20
19.88030246606681
 10
27.27671900000007
 20
19.88135400000017
 10
27.27805117876653
 20
19.88244435976682
 10
27.27941799999996
 20
19.88349100000002
 10
27.2809253700667
 20
19.8845729607668
 10
27.282464
 20
19.88561000000007
 10
27.28415207253329
 20
19.88668073673347
 10
27.28586699999993
 20
19.88770800000006
 10
27.28771975103331
 20
19.88876033806681
 10
27.28959499999996
 20
19.88977200000013
 10
27.29159564403329
 20
19.89079863560007
 10
27.29361599999998
 20
19.89178600000005
 10
27.29575467916657
 20
19.89278207673346
 10
27.29791199999999
 20
19.89373700000017
 10
27.30020732399987
 20
19.89469966650007
 10
27.30252000000007
 20
19.89562000000002
 10
27.30495905726667
 20
19.89654377570005
 10
27.30741199999988
 20
19.89743000000017
 10
27.30997318906656
 20
19.89831468613348
 10
27.31254599999999
 20
19.89916500000006
 10
27.31521471316671
 20
19.90000910106678
 10
27.31789399999996
 20
19.90081900000003
 10
27.3206909610667
 20
19.90162539740006
 10
27.32349799999996
 20
19.90239600000004
 10
27.32641181479994
 20
19.90315640593334
 10
27.32933500000001
 20
19.90388000000002
 10
27.33234605910002
 20
19.9045850947335
 10
27.33536599999996
 20
19.90525100000003
 10
27.33845278453339
 20
19.90588940876678
 10
27.34154699999999
 20
19.90649100000014
 10
27.34468935353334
 20
19.90706683213348
 10
27.34783799999997
 20
19.90760700000017
 10
27.35106584990001
 20
19.90812009570007
 10
27.35429999999996
 20
19.90859200000014
 10
27.35765760829997
 20
19.90903662190001
 10
27.36102099999992
 20
19.90943500000017
 10
27.36455015829999
 20
19.90980244793346
 10
27.36808399999994
 20
19.91012200000014
 10
27.37178141699995
 20
19.9104090597668
 10
27.37548199999996
 20
19.91065200000003
 10
27.3793289708667
 20
19.91086118833348
 10
27.38317799999999
 20
19.91102800000017
 10
27.3871749170666
 20
19.91115782390014
 10
27.39117299999998
 20
19.91124600000014
 10
27.39532039829986
 20
19.91129639183353
 10
27.39946799999994
 20
19.91130800000014
  0
LWPOLYLINE
  5
2FE
330
1F
100
AcDbEntity
  8
CUT
100
AcDbPolyline
 90
       59
 70
     0
 43
0.0
 10
27.02049899999996
 20
19.62938200000015
 10
27.0214724416333
 20
19.63402884773343
 10
27.02254099999999
 20
19.63865500000017
 10
27.0237557735
 20
19.6434404648335
 10
27.025079
 20
19.64819700000017
 10
27.02650272263326
 20
19.65288998490003
 10
27.02803399999999
 20
19.65754900000003
 10
27.02968822923332
 20
19.66222207210003
 10
27.03144399999996
 20
19.66685800000005
 10
27.03334281420001
 20
19.67156865890014
 10
27.03534100000001
 20
19.67623800000002
 10
27.03748315646668
 20
19.6809619673335
 10
27.03972599999996
 20
19.68563900000005
 10
27.04210687416673
 20
19.69034305396681
 10
27.04458799999996
 20
19.69499500000014
 10
27.04720743426668
 20
19.69966271390004
 10
27.04992499999996
 20
19.70427400000001
 10
27.05278512216671
 20
19.70890411200003
 10
27.055739
 20
19.71347500000003
 10
27.05884282913331
 20
19.71807364623346
 10
27.06203699999996
 20
19.72261000000004
 10
27.06538427513327
 20
19.72717123003351
 10
27.06881899999996
 20
19.73166700000003
 10
27.07240532100001
 20
19.73618066870002
 10
27.07607599999994
 20
19.74062600000014
 10
27.07989835269994
 20
19.74508300423335
 10
27.08380199999999
 20
19.74946900000017
 10
27.08785908996667
 20
19.75386456070017
 10
27.091994
 20
19.75818700000014
 10
27.09628474956662
 20
19.76251705366681
 10
27.10064999999996
 20
19.76677200000003
 10
27.10517194136667
 20
19.7710313876
 10
27.10976499999998
 20
19.77521400000014
 10
27.11451495936666
 20
19.77939729890012
 10
27.11933299999998
 20
19.78350200000014
 10
27.12430364576658
 20
19.78759938220017
 10
27.12933899999995
 20
19.79161700000017
 10
27.13452968083334
 20
19.79562704406675
 10
27.13978199999997
 20
19.79955600000002
 10
27.1451945540333
 20
19.80347629943347
 10
27.150666
 20
19.80731400000003
 10
27.15630040296668
 20
19.81114152806677
 10
27.16199099999994
 20
19.81488500000014
 10
27.16783308363329
 20
19.81860594990016
 10
27.17372899999998
 20
19.82224100000014
 10
27.17977746563338
 20
19.82584998603346
 10
27.185877
 20
19.82937200000017
 10
27.19213565186658
 20
19.83286881660004
 10
27.198443
 20
19.83627700000013
 10
27.20491619723338
 20
19.83965787026678
 10
27.21143599999999
 20
19.84294800000017
 10
27.21811428759997
 20
19.84620289260019
 10
27.22483699999996
 20
19.84936500000017
 10
27.2317063109333
 20
19.85248058006678
 10
27.23861799999996
 20
19.85550100000014
 10
27.24566694296663
 20
19.85846659760019
 10
27.25275599999998
 20
19.86133500000001
 10
27.2599740638667
 20
19.86414075116678
 10
27.26722999999998
 20
19.86684700000014
  0
LINE
  5
2FF
330
1F
100
AcDbEntity
  8
CUT
100
AcDbLine
 10
32.79451099999994
 20
19.89840500000005
 30
0.0
 11
31.65063799999995
 21
19.90365700000015
 31
0.0
  0
LINE
  5
300
330
1F
100
AcDbEntity
  8
CUT
100
AcDbLine
 10
32.85756800000001
 20
19.96960100000004
 30
0.0
 11
30.07710199999996
 21
19.97831600000003
 31
0.0
  0
LINE
  5
301
330
1F
100
AcDbEntity
  8
CUT
100
AcDbLine
 10
31.65063799999995
 20
19.90365700000015
 30
0.0
 11
29.46760999999998
 21
19.92153800000002
 31
0.0
  0
ARC
  5
302
330
1F
100
AcDbEntity
  8
1
100
AcDbCircle
 10
39.01171434340005
 20
18.74331447466678
 30
0.0
 40
0.2
100
AcDbArc
 50
0.0
 51
87.61323300170181
  0
LINE
  5
303
330
1F
100
AcDbEntity
  8
CUT
100
AcDbLine
 10
39.22648599999996
 20
19.99726800000014
 30
0.0
 11
38.94202599999992
 21
19.99334700000003
 31
0.0
  0
LINE
  5
304
330
1F
100
AcDbEntity
  8
CUT
100
AcDbLine
 10
39.13198999999996
 20
19.92543400000012
 30
0.0
 11
39.09616399999999
 21
19.92583200000003
 31
0.0
  0
LINE
  5
305
330
1F
100
AcDbEntity
  8
CUT
100
AcDbLine
 10
34.03092599999996
 20
19.90078400000017
 30
0.0
 11
37.05961699999999
 21
19.92900600000013
 31
0.0
  0
LINE
  5
306
330
1F
100
AcDbEntity
  8
CUT
100
AcDbLine
 10
33.34868899999998
 20
19.89798700000003
 30
0.0
 11
34.03092599999996
 21
19.90078400000017
 31
0.0
  0
LINE
  5
307
330
1F
100
AcDbEntity
  8
CUT
100
AcDbLine
 10
37.74277899999996
 20
19.93207900000017
 30
0.0
 11
38.25901299999996
 21
19.93195300000005
 31
0.0
  0
LINE
  5
308
330
1F
100
AcDbEntity
  8
CUT
100
AcDbLine
 10
38.68318899999996
 20
19.92992200000005
 30
0.0
 11
38.25901299999996
 21
19.93195300000005
 31
0.0
  0
LINE
  5
309
330
1F
100
AcDbEntity
  8
CUT
100
AcDbLine
 10
39.07715399999995
 20
19.92619300000013
 30
0.0
 11
38.68318899999996
 21
19.92992200000005
 31
0.0
  0
LWPOLYLINE
  5
30A
330
1F
100
AcDbEntity
  8
CUT
100
AcDbPolyline
 90
        3
 70
     0
 43
0.0
 10
39.09616399999999
 20
19.92583200000003
 10
39.08709499999996
 20
19.92597400000012
 10
39.07715399999995
 20
19.92619300000013
  0
LINE
  5
30B
330
1F
100
AcDbEntity
  8
CUT
100
AcDbLine
 10
38.94202599999992
 20
19.99334700000003
 30
0.0
 11
35.63842199999999
 21
19.97341800000017
 31
0.0
  0
LINE
  5
30C
330
1F
100
AcDbEntity
  8
CUT
100
AcDbLine
 10
37.05961699999999
 20
19.92900600000013
 30
0.0
 11
37.74277899999996
 21
19.93207900000017
 31
0.0
  0
LINE
  5
30D
330
1F
100
AcDbEntity
  8
CUT
100
AcDbLine
 10
39.43682599999997
 20
19.99805900000002
 30
0.0
 11
39.39301799999997
 21
19.99735900000003
 31
0.0
  0
LINE
  5
30E
330
1F
100
AcDbEntity
  8
CUT
100
AcDbLine
 10
39.60143599999998
 20
19.99978200000017
 30
0.0
 11
39.54491399999993
 21
19.99888700000004
 31
0.0
  0
LINE
  5
30F
330
1F
100
AcDbEntity
  8
CUT
100
AcDbLine
 10
39.54491399999993
 20
19.99888700000004
 30
0.0
 11
39.51721599999996
 21
19.99858800000007
 31
0.0
  0
LINE
  5
310
330
1F
100
AcDbEntity
  8
CUT
100
AcDbLine
 10
39.62048599999996
 20
19.99997900000001
 30
0.0
 11
39.60143599999998
 21
19.99978200000017
 31
0.0
  0
LINE
  5
311
330
1F
100
AcDbEntity
  8
CUT
100
AcDbLine
 10
39.45444899999995
 20
19.99824000000003
 30
0.0
 11
39.43682599999997
 21
19.99805900000002
 31
0.0
  0
LINE
  5
312
330
1F
100
AcDbEntity
  8
CUT
100
AcDbLine
 10
39.27337499999996
 20
19.99771100000018
 30
0.0
 11
39.22648599999996
 21
19.99726800000014
 31
0.0
  0
LINE
  5
313
330
1F
100
AcDbEntity
  8
CUT
100
AcDbLine
 10
39.51721599999996
 20
19.99858800000007
 30
0.0
 11
39.45444899999995
 21
19.99824000000003
 31
0.0
  0
LINE
  5
314
330
1F
100
AcDbEntity
  8
CUT
100
AcDbLine
 10
39.30843199999996
 20
19.99784900000006
 30
0.0
 11
39.27337499999996
 21
19.99771100000018
 31
0.0
  0
LWPOLYLINE
  5
315
330
1F
100
AcDbEntity
  8
CUT
100
AcDbPolyline
 90
        3
 70
     0
 43
0.0
 10
39.39301799999997
 20
19.99735900000003
 10
39.38452599999994
 20
19.99731000000014
 10
39.37629499999996
 20
19.99737500000017
  0
LINE
  5
316
330
1F
100
AcDbEntity
  8
CUT
100
AcDbLine
 10
39.33146899999997
 20
19.99781700000001
 30
0.0
 11
39.30843199999996
 21
19.99784900000006
 31
0.0
  0
LWPOLYLINE
  5
317
330
1F
100
AcDbEntity
  8
CUT
100
AcDbPolyline
 90
        3
 70
     0
 43
0.0
 10
39.63960799999995
 20
20.00000000000003
 10
39.630038
 20
20.00001600000016
 10
39.62048599999996
 20
19.99997900000001
  0
LINE
  5
318
330
1F
100
AcDbEntity
  8
CUT
100
AcDbLine
 10
39.35412299999995
 20
19.99766500000005
 30
0.0
 11
39.33146899999997
 21
19.99781700000001
 31
0.0
  0
LINE
  5
319
330
1F
100
AcDbEntity
  8
CUT
100
AcDbLine
 10
39.25870999999995
 20
19.92404500000006
 30
0.0
 11
39.19932099999994
 21
19.92444000000003
 31
0.0
  0
LINE
  5
31A
330
1F
100
AcDbEntity
  8
CUT
100
AcDbLine
 10
39.33156699999995
 20
19.92325000000002
 30
0.0
 11
39.25870999999995
 21
19.92404500000006
 31
0.0
  0
LINE
  5
31B
330
1F
100
AcDbEntity
  8
CUT
100
AcDbLine
 10
39.19932099999994
 20
19.92444000000003
 30
0.0
 11
39.18002999999997
 21
19.92465200000006
 31
0.0
  0
LINE
  5
31C
330
1F
100
AcDbEntity
  8
CUT
100
AcDbLine
 10
39.37629499999996
 20
19.99737500000017
 30
0.0
 11
39.35412299999995
 21
19.99766500000005
 31
0.0
  0
LINE
  5
31D
330
1F
100
AcDbEntity
  8
CUT
100
AcDbLine
 10
39.18002999999997
 20
19.92465200000006
 30
0.0
 11
39.13198999999996
 21
19.92543400000012
 31
0.0
  0
LINE
  5
31E
330
1F
100
AcDbEntity
  8
CUT
100
AcDbLine
 10
39.364059
 20
19.92253100000002
 30
0.0
 11
39.379907
 21
19.92225800000002
 31
0.0
  0
LINE
  5
31F
330
1F
100
AcDbEntity
  8
CUT
100
AcDbLine
 10
39.35312999999996
 20
19.92286300000003
 30
0.0
 11
39.33156699999995
 21
19.92325000000002
 31
0.0
  0
LWPOLYLINE
  5
320
330
1F
100
AcDbEntity
  8
CUT
100
AcDbPolyline
 90
       28
 70
     0
 43
0.0
 10
39.379907
 20
19.92225800000002
 10
39.38794099999995
 20
19.92205900000017
 10
39.39603099999999
 20
19.92178600000014
 10
39.40416299999997
 20
19.92142100000014
 10
39.41233399999996
 20
19.92095700000007
 10
39.42053999999996
 20
19.92039100000013
 10
39.42877999999996
 20
19.91972200000017
 10
39.43705199999997
 20
19.91894700000014
 10
39.44535199999995
 20
19.91806900000003
 10
39.45366100000001
 20
19.91709200000005
 10
39.46198199999996
 20
19.91601900000014
 10
39.47032399999999
 20
19.91485200000012
 10
39.47869800000001
 20
19.91359000000014
 10
39.48711400000002
 20
19.91223500000003
 10
39.495581
 20
19.91078500000017
 10
39.50410699999997
 20
19.90923900000014
 10
39.51270299999999
 20
19.90759500000013
 10
39.52137699999996
 20
19.90585000000006
 10
39.53013099999997
 20
19.90400400000017
 10
39.53894200000002
 20
19.90206000000014
 10
39.54780599999996
 20
19.90001500000001
 10
39.55672099999997
 20
19.89786900000014
 10
39.56568599999996
 20
19.89561900000015
 10
39.57469800000001
 20
19.89326600000006
 10
39.58375499999997
 20
19.89080600000012
 10
39.59285699999997
 20
19.88824000000012
 10
39.60200299999996
 20
19.88556600000007
 10
39.61119099999996
 20
19.88278400000003
  0
LINE
  5
321
330
1F
100
AcDbEntity
  8
CUT
100
AcDbLine
 10
39.36407499999996
 20
19.92258800000002
 30
0.0
 11
39.35312999999996
 21
19.92286300000003
 31
0.0
  0
LWPOLYLINE
  5
322
330
1F
100
AcDbEntity
  8
CUT
100
AcDbPolyline
 90
       59
 70
     0
 43
0.0
 10
39.96934799999996
 20
19.50764900000003
 10
39.96924457770001
 20
19.51481382240004
 10
39.96902999999996
 20
19.52197700000019
 10
39.9686715217666
 20
19.52944661933335
 10
39.96815900000001
 20
19.53690700000007
 10
39.96744415316664
 20
19.54466771876681
 10
39.96653299999996
 20
19.55240800000003
 10
39.9653633282333
 20
19.56044728216678
 10
39.96395999999998
 20
19.56844900000017
 10
39.96224021809996
 20
19.57675033130017
 10
39.96026599999999
 20
19.58499500000002
 10
39.95795394633329
 20
19.59350407473348
 10
39.95539399999995
 20
19.60194200000001
 10
39.95250626563329
 20
19.61057936933352
 10
39.94938199999999
 20
19.61913400000003
 10
39.94593877213332
 20
19.62782542690003
 10
39.94226500000002
 20
19.63642200000005
 10
39.93828544063328
 20
19.64509512253347
 10
39.93407999999997
 20
19.65366100000001
 10
39.92958882886664
 20
19.66223589466679
 10
39.92487599999996
 20
19.67069100000017
 10
39.91997735066667
 20
19.67897085266676
 10
39.91486899999995
 20
19.68712300000007
 10
39.90961228323328
 20
19.69505795466679
 10
39.90415599999993
 20
19.70285700000013
 10
39.8985481413
 20
19.71045217606681
 10
39.89274599999999
 20
19.71790000000017
 10
39.8867787378
 20
19.72515824976684
 10
39.88061799999996
 20
19.73225300000015
 10
39.87426654429997
 20
19.73917026133348
 10
39.86772199999995
 20
19.74590500000013
 10
39.86095338326657
 20
19.75248299453348
 10
39.85400499999996
 20
19.75887100000014
 10
39.84679730223331
 20
19.76515141763346
 10
39.83943099999999
 20
19.77124500000016
 10
39.83176711890001
 20
19.77727200180007
 10
39.82396199999993
 20
19.78311500000003
 10
39.81582351563327
 20
19.78892140963348
 10
39.80755899999996
 20
19.79454700000016
 10
39.79897801946668
 20
19.80012626680005
 10
39.79028599999996
 20
19.80553100000006
 10
39.78142919433333
 20
19.8108052060335
 10
39.77247599999996
 20
19.81591400000003
 10
39.76336291693332
 20
19.82089863820012
 10
39.75416499999994
 20
19.82572500000017
 10
39.74479212613329
 20
19.83044715896678
 10
39.73534599999993
 20
19.83502100000017
 10
39.72570881623335
 20
19.83951083833348
 10
39.71600999999997
 20
19.84386600000005
 10
39.7061063317666
 20
19.84816007453346
 10
39.69615099999998
 20
19.85233300000007
 10
39.68597859606664
 20
19.85645819436681
 10
39.67575899999996
 20
19.86046500000017
 10
39.66530918053331
 20
19.86442195230014
 10
39.65481399999996
 20
19.86825700000005
 10
39.6440774171666
 20
19.87203988946676
 10
39.63329799999996
 20
19.87569900000002
 10
39.62226457343331
 20
19.87930423520006
 10
39.61119099999996
 20
19.88278400000003
  0
LWPOLYLINE
  5
323
330
1F
100
AcDbEntity
  8
CUT
100
AcDbPolyline
 90
       37
 70
     0
 43
0.0
 10
40.02008899999998
 20
19.64411500000002
 10
40.02012300000001
 20
19.64996400000003
 10
40.02002099999996
 20
19.65592400000003
 10
40.01978499999995
 20
19.66197900000017
 10
40.01942099999996
 20
19.66810800000003
 10
40.01893099999995
 20
19.67429500000005
 10
40.01831900000001
 20
19.68051700000003
 10
40.01758999999998
 20
19.68675700000003
 10
40.01673999999996
 20
19.69300700000016
 10
40.01576599999999
 20
19.69926300000006
 10
40.01466699999997
 20
19.70552000000017
 10
40.01343599999994
 20
19.71177400000019
 10
40.01207199999996
 20
19.71802100000004
 10
40.01057099999996
 20
19.72425500000005
 10
40.00892999999996
 20
19.73047300000003
 10
40.00714899999997
 20
19.73667500000019
 10
40.005224
 20
19.74285800000003
 10
40.00315499999999
 20
19.74902200000014
 10
40.00093900000002
 20
19.75516500000017
 10
39.99977424929999
 20
19.75823116653345
 10
39.99857499999995
 20
19.76128400000007
 10
39.99733559173328
 20
19.76433704663335
 10
39.99606199999993
 20
19.76737600000003
 10
39.9947476850666
 20
19.77041654840014
 10
39.99339899999995
 20
19.77344200000007
 10
39.99200780593332
 20
19.77646857176678
 10
39.99058200000002
 20
19.77947900000005
 10
39.98911355516657
 20
19.7824904388668
 10
39.98761100000001
 20
19.78548500000012
 10
39.9860656542333
 20
19.78847971040019
 10
39.98448699999993
 20
19.79145700000005
 10
39.98286639273328
 20
19.79443426136682
 10
39.98121399999996
 20
19.79739400000001
 10
39.97779699999998
 20
19.80329600000007
 10
39.97424199999999
 20
19.80916100000015
 10
39.97055499999999
 20
19.81498900000005
 10
39.96674199999995
 20
19.82078000000014
  0
LWPOLYLINE
  5
324
330
1F
100
AcDbEntity
  8
CUT
100
AcDbPolyline
 90
       59
 70
     0
 43
0.0
 10
39.96674199999995
 20
19.82078000000014
 10
39.9627132982
 20
19.82667054060007
 10
39.95858599999996
 20
19.83249200000014
 10
39.9543980458667
 20
19.8382052285668
 10
39.95012599999995
 20
19.84385600000014
 10
39.94581449263328
 20
19.84939642660005
 10
39.94142599999998
 20
19.85487600000017
 10
39.93700125483332
 20
19.86024298916677
 10
39.93249999999999
 20
19.86554600000013
 10
39.92796316279997
 20
19.87073636993349
 10
39.92334999999996
 20
19.87585900000019
 10
39.91869902406659
 20
19.88086933683351
 10
39.91397199999994
 20
19.88580800000012
 10
39.90920755086659
 20
19.89063416250004
 10
39.90436799999997
 20
19.89538500000017
 10
39.89948913579997
 20
19.90002418776682
 10
39.89453599999999
 20
19.90458400000014
 10
39.88954236710002
 20
19.90903209980004
 10
39.88447499999995
 20
19.91339600000017
 10
39.87936696669999
 20
19.91764511926676
 10
39.87418600000001
 20
19.92180500000003
 10
39.86899369713329
 20
19.92582628980001
 10
39.86373099999996
 20
19.92975500000014
 10
39.85845289240001
 20
19.93355005530005
 10
39.85310699999995
 20
19.93724900000001
 10
39.8477263986
 20
19.94082818800004
 10
39.84228099999995
 20
19.94430800000006
 10
39.83678639519995
 20
19.94767857990003
 10
39.831231
 20
19.95094800000006
 10
39.82561776599988
 20
19.95411517463346
 10
39.81994799999995
 20
19.95718000000012
 10
39.81421037910001
 20
19.96014863273344
 10
39.80841999999995
 20
19.96301300000006
 10
39.80255174533329
 20
19.96578464933335
 10
39.79663399999997
 20
19.96844900000016
 10
39.79062620186664
 20
19.97102257366682
 10
39.78457199999997
 20
19.97348500000006
 10
39.77841495543325
 20
19.97585724823348
 10
39.77221499999996
 20
19.97811500000014
 10
39.76591393866668
 20
19.98027837443336
 10
39.75957399999998
 20
19.98232500000003
 10
39.75317505259999
 20
19.98426171836681
 10
39.74674199999997
 20
19.98608200000014
 10
39.74025977179996
 20
19.98779115743346
 10
39.73374799999999
 20
19.98938400000017
 10
39.72719360306653
 20
19.99086368900018
 10
39.72061399999995
 20
19.99222700000014
 10
39.71399841993331
 20
19.99347697043346
 10
39.70736199999999
 20
19.99461100000003
 10
39.70069220236666
 20
19.99563175600005
 10
39.69400599999993
 20
19.99653900000007
 10
39.68728455156656
 20
19.99733775493345
 10
39.68055099999996
 20
19.99802700000017
 10
39.67377914653343
 20
19.99861092820006
 10
39.66699899999996
 20
19.99908900000017
 10
39.66017693539999
 20
19.99946564550018
 10
39.65334999999999
 20
19.99974100000003
 10
39.64647985083343
 20
19.99991875553351
 10
39.63960799999995
 20
20.00000000000003
  0
TEXT
  5
380
330
1F
100
AcDbEntity
  8
6
100
AcDbText
 10
46.48397624168623
 20
25.01432054903863
 30
0.0
 40
3.5
  1
BCKT130404R
 41
0.8
 72
     1
 11
57.83097624168624
 21
25.01432054903863
 31
0.0
100
AcDbText
  0
TEXT
  5
387
330
1F
100
AcDbEntity
  8
6
100
AcDbText
 10
71.43298819523976
 20
-2.325484902131906
 30
0.0
 40
3.5
  1
Z=4
 50
90.0
 41
0.8
 72
     1
 11
71.43298819523976
 21
0.8945150978680942
 31
0.0
100
AcDbText
  0
LWPOLYLINE
  5
391
330
1F
100
AcDbEntity
  8
1
100
AcDbPolyline
 90
        3
 70
     1
 43
0.0
 10
0.0
 20
1.967117971271449
 10
0.0
 20
0.0
 10
1.967117971271475
 20
0.0
 42
0.4142135623730966
  0
HATCH
  5
392
330
1F
100
AcDbEntity
  8
1
100
AcDbHatch
 10
0.0
 20
0.0
 30
0.0
210
0.0
220
0.0
230
1.0
  2
SOLID
 70
     1
 71
     0
 91
        2
 92
        7
 72
     1
 73
     1
 93
        3
 10
0.0
 20
0.0
 42
0.0
 10
1.967117971271475
 20
0.0
 42
0.4142135623730966
 10
0.0
 20
1.967117971271449
 42
0.0
 97
        0
 92
        7
 72
     1
 73
     1
 93
        3
 10
0.0
 20
-1.96711797127139
 42
0.0
 10
0.0
 20
0.0
 42
0.0
 10
-1.967117971271418
 20
0.0
 42
0.4142135623730953
 97
        0
 75
     0
 76
     1
 47
0.1190009775223266
 98
        2
 10
0.4963190690040167
 20
0.6140882339527707
 10
-0.8528911035952544
 20
-1.131084828902656
  0
CIRCLE
  5
393
330
1F
100
AcDbEntity
  8
1
100
AcDbCircle
 10
0.0
 20
0.0
 30
0.0
 40
1.967117971271456
  0
LINE
  5
394
330
1F
100
AcDbEntity
  8
1
100
AcDbLine
 10
0.0
 20
1.967117971271449
 30
0.0
 11
0.0
 21
0.0
 31
0.0
  0
LWPOLYLINE
  5
3C4
330
1F
100
AcDbEntity
  8
NOCUT
100
AcDbPolyline
 90
       34
 70
     0
 43
0.0
 10
27.68924927072669
 20
-19.4154204210321
 10
25.72444065210004
 20
-19.41251633554982
 10
24.52206294074994
 20
-19.40887084639992
 10
23.31997943664998
 20
-19.40335671189992
 10
22.11846859414998
 20
-19.39597664009991
 10
20.9178088676
 20
-19.3867333390498
 10
19.71790743889998
 20
-19.37562590614996
 10
18.99999999999987
 20
-18.95258718914979
 10
18.67565355339996
 20
-18.94888116429982
 10
17.70355900284994
 20
-18.93693506414982
 10
17.18768010040003
 20
-18.93164056824982
 10
16.70083959024998
 20
-18.92838042569994
 10
16.24383542930002
 20
-18.92750064974993
 10
15.81427374700001
 20
-18.92847433134991
 10
15.41130287764997
 20
-18.93081183184998
 10
15.03109416384995
 20
-18.93430563519993
 10
14.67034928124997
 20
-18.93860284974991
 10
14.32662556469995
 20
-18.9435624094498
 10
13.99723615050004
 20
-18.94895281414997
 10
13.37111397435001
 20
-18.96058854109982
 10
12.77070454959999
 20
-18.97262497639994
 10
11.3666044317689
 20
-18.99999999999996
 10
1.000000000000113
 20
-18.99999999999996
 42
-0.4142135623730951
 10
0.0
 20
-17.99999999999996
 10
0.0
 20
-5.799999999999926
 10
0.5999999999999659
 20
-5.200000000000017
 10
0.7999999999999547
 20
-5.200000000000017
 10
5.900000000000089
 20
-5.199999999999923
 42
0.4142135623730951
 10
6.300000000000068
 20
-4.799999999999925
 10
6.300000000000068
 20
0.0000000000000284
 10
39.2117143434001
 20
0.0000000000000284
 10
39.21171434340005
 20
-18.74331447469998
 42
-0.4020644947992506
 10
39.02004332256672
 20
-18.94314096970001
 10
27.7117143434001
 20
-19.41448405309998
  0
LWPOLYLINE
  5
3C5
330
1F
100
AcDbEntity
  8
NOCUT
100
AcDbPolyline
 90
        2
 70
     0
 43
0.0
 10
39.39832799999999
 20
-16.57087399999997
 10
39.396833
 20
-16.57316199999994
  0
ENDSEC
  0
SECTION
  2
OBJECTS
  0
DICTIONARY
  5
C
330
0
100
AcDbDictionary
281
     1
  3
ACAD_GROUP
350
D
  3
ACAD_LAYOUT
350
1A
  3
ACAD_MLINESTYLE
350
17
  3
ACAD_PLOTSETTINGS
350
19
  3
ACAD_PLOTSTYLENAME
350
E
  0
DICTIONARY
  5
388
330
2
100
AcDbDictionary
280
     1
281
     1
  3
ACAD_LAYERFILTERS
360
3C6
  3
ACAD_LAYERSTATES
360
389
  0
DICTIONARY
  5
D
102
{ACAD_REACTORS
330
C
102
}
330
C
100
AcDbDictionary
281
     1
  0
DICTIONARY
  5
1A
102
{ACAD_REACTORS
330
C
102
}
330
C
100
AcDbDictionary
281
     1
  3
Layout1
350
1E
  3
Layout2
350
26
  3
Model
350
22
  0
DICTIONARY
  5
17
102
{ACAD_REACTORS
330
C
102
}
330
C
100
AcDbDictionary
281
     1
  3
Standard
350
18
  0
DICTIONARY
  5
19
102
{ACAD_REACTORS
330
C
102
}
330
C
100
AcDbDictionary
281
     1
  0
ACDBDICTIONARYWDFLT
  5
E
102
{ACAD_REACTORS
330
C
102
}
330
C
100
AcDbDictionary
281
     1
  3
Normal
350
F
100
AcDbDictionaryWithDefault
340
F
  0
DICTIONARY
  5
3C6
102
{ACAD_REACTORS
330
388
102
}
330
388
100
AcDbDictionary
280
     1
281
     1
  0
DICTIONARY
  5
389
102
{ACAD_REACTORS
330
388
102
}
330
388
100
AcDbDictionary
281
     1
  0
LAYOUT
  5
1E
102
{ACAD_REACTORS
330
1A
102
}
330
1A
100
AcDbPlotSettings
  1

  2
\\ingdc01\ITB3
  4

  6

 40
0.0
 41
0.0
 42
0.0
 43
0.0
 44
0.0
 45
0.0
 46
0.0
 47
0.0
 48
0.0
 49
0.0
140
0.0
141
0.0
142
1.0
143
1.0
 70
   688
 72
     0
 73
     0
 74
     5
  7
monochrome.ctb
 75
    16
147
1.0
148
0.0
149
0.0
100
AcDbLayout
  1
Layout1
 70
     1
 71
     1
 10
0.0
 20
0.0
 11
420.0
 21
297.0
 12
0.0
 22
0.0
 32
0.0
 14
1.000000000000000E+20
 24
1.000000000000000E+20
 34
1.000000000000000E+20
 15
-1.000000000000000E+20
 25
-1.000000000000000E+20
 35
-1.000000000000000E+20
146
0.0
 13
0.0
 23
0.0
 33
0.0
 16
1.0
 26
0.0
 36
0.0
 17
0.0
 27
1.0
 37
0.0
 76
     0
330
1B
  0
LAYOUT
  5
26
102
{ACAD_REACTORS
330
1A
102
}
330
1A
100
AcDbPlotSettings
  1

  2
\\ingdc01\ITB3
  4

  6

 40
0.0
 41
0.0
 42
0.0
 43
0.0
 44
0.0
 45
0.0
 46
0.0
 47
0.0
 48
0.0
 49
0.0
140
0.0
141
0.0
142
1.0
143
1.0
 70
   688
 72
     0
 73
     0
 74
     5
  7
monochrome.ctb
 75
    16
147
1.0
148
0.0
149
0.0
100
AcDbLayout
  1
Layout2
 70
     1
 71
     2
 10
0.0
 20
0.0
 11
12.0
 21
9.0
 12
0.0
 22
0.0
 32
0.0
 14
0.0
 24
0.0
 34
0.0
 15
0.0
 25
0.0
 35
0.0
146
0.0
 13
0.0
 23
0.0
 33
0.0
 16
1.0
 26
0.0
 36
0.0
 17
0.0
 27
1.0
 37
0.0
 76
     0
330
23
  0
LAYOUT
  5
22
102
{ACAD_REACTORS
330
1A
102
}
330
1A
100
AcDbPlotSettings
  1

  2
\\ingdc01\ITB3
  4

  6

 40
0.0
 41
0.0
 42
0.0
 43
0.0
 44
0.0
 45
0.0
 46
0.0
 47
0.0
 48
0.0
 49
0.0
140
0.0
141
0.0
142
1.0
143
1.0
 70
  1712
 72
     0
 73
     0
 74
     0
  7
monochrome.ctb
 75
     0
147
1.0
148
0.0
149
0.0
100
AcDbLayout
  1
Model
 70
     1
 71
     0
 10
0.0
 20
0.0
 11
12.0
 21
9.0
 12
0.0
 22
0.0
 32
0.0
 14
0.0
 24
0.0
 34
0.0
 15
0.0
 25
0.0
 35
0.0
146
0.0
 13
0.0
 23
0.0
 33
0.0
 16
1.0
 26
0.0
 36
0.0
 17
0.0
 27
1.0
 37
0.0
 76
     0
330
1F
  0
MLINESTYLE
  5
18
102
{ACAD_REACTORS
330
17
102
}
330
17
100
AcDbMlineStyle
  2
STANDARD
 70
     0
  3

 62
   256
 51
90.0
 52
90.0
 71
     2
 49
0.5
 62
   256
  6
BYLAYER
 49
-0.5
 62
   256
  6
BYLAYER
  0
ACDBPLACEHOLDER
  5
F
102
{ACAD_REACTORS
330
E
102
}
330
E
  0
ENDSEC
  0
EOF
