  0
SECTION
  2
HEADER
  9
$ACADVER
  1
AC1024
  9
$ACADMAINTVER
 70
   182
  9
$DWGCODEPAGE
  3
ANSI_1252
  9
$LASTSAVEDBY
  1
kamerka
  9
$INSBASE
 10
0.0
 20
0.0
 30
0.0
  9
$EXTMIN
 10
-37.24030428399692
 20
-50.61571072231618
 30
-0.000000000000013
  9
$EXTMAX
 10
80.51767421890918
 20
57.12670250419876
 30
0.0000000000000023
  9
$LIMMIN
 10
0.0
 20
0.0
  9
$LIMMAX
 10
420.0
 20
297.0
  9
$ORTHOMODE
 70
     0
  9
$REGENMODE
 70
     1
  9
$FILLMODE
 70
     1
  9
$QTEXTMODE
 70
     0
  9
$MIRRTEXT
 70
     0
  9
$LTSCALE
 40
23.1
  9
$ATTMODE
 70
     1
  9
$TEXTSIZE
 40
3.5
  9
$TRACEWID
 40
0.05
  9
$TEXTSTYLE
  7
STANDARD
  9
$CLAYER
  8
0
  9
$CELTYPE
  6
BYLAYER
  9
$CECOLOR
 62
   256
  9
$CELTSCALE
 40
1.0
  9
$DISPSILH
 70
     0
  9
$DIMSCALE
 40
1.0
  9
$DIMASZ
 40
4.57
  9
$DIMEXO
 40
0.0625
  9
$DIMDLI
 40
0.38
  9
$DIMRND
 40
0.0
  9
$DIMDLE
 40
0.0
  9
$DIMEXE
 40
0.18
  9
$DIMTP
 40
0.01
  9
$DIMTM
 40
0.01
  9
$DIMTXT
 40
3.5
  9
$DIMCEN
 40
0.09
  9
$DIMTSZ
 40
0.0
  9
$DIMTOL
 70
     0
  9
$DIMLIM
 70
     0
  9
$DIMTIH
 70
     0
  9
$DIMTOH
 70
     0
  9
$DIMSE1
 70
     0
  9
$DIMSE2
 70
     0
  9
$DIMTAD
 70
     1
  9
$DIMZIN
 70
     8
  9
$DIMBLK
  1

  9
$DIMASO
 70
     1
  9
$DIMSHO
 70
     1
  9
$DIMPOST
  1

  9
$DIMAPOST
  1

  9
$DIMALT
 70
     0
  9
$DIMALTD
 70
     2
  9
$DIMALTF
 40
25.4
  9
$DIMLFAC
 40
1.0
  9
$DIMTOFL
 70
     0
  9
$DIMTVP
 40
0.0
  9
$DIMTIX
 70
     0
  9
$DIMSOXD
 70
     0
  9
$DIMSAH
 70
     0
  9
$DIMBLK1
  1

  9
$DIMBLK2
  1

  9
$DIMSTYLE
  2
STANDARD
  9
$DIMCLRD
 70
     0
  9
$DIMCLRE
 70
     0
  9
$DIMCLRT
 70
     0
  9
$DIMTFAC
 40
1.0
  9
$DIMGAP
 40
0.09
  9
$DIMJUST
 70
     0
  9
$DIMSD1
 70
     0
  9
$DIMSD2
 70
     0
  9
$DIMTOLJ
 70
     1
  9
$DIMTZIN
 70
     8
  9
$DIMALTZ
 70
     0
  9
$DIMALTTZ
 70
     0
  9
$DIMUPT
 70
     0
  9
$DIMDEC
 70
     3
  9
$DIMTDEC
 70
     3
  9
$DIMALTU
 70
     2
  9
$DIMALTTD
 70
     2
  9
$DIMTXSTY
  7
STANDARD
  9
$DIMAUNIT
 70
     0
  9
$DIMADEC
 70
     0
  9
$DIMALTRND
 40
0.0
  9
$DIMAZIN
 70
     0
  9
$DIMDSEP
 70
    46
  9
$DIMATFIT
 70
     0
  9
$DIMFRAC
 70
     0
  9
$DIMLDRBLK
  1

  9
$DIMLUNIT
 70
     2
  9
$DIMLWD
 70
    -2
  9
$DIMLWE
 70
    -2
  9
$DIMTMOVE
 70
     0
  9
$DIMFXL
 40
1.0
  9
$DIMFXLON
 70
     0
  9
$DIMJOGANG
 40
0.7853981633974483
  9
$DIMTFILL
 70
     0
  9
$DIMTFILLCLR
 70
     0
  9
$DIMARCSYM
 70
     0
  9
$DIMLTYPE
  6

  9
$DIMLTEX1
  6

  9
$DIMLTEX2
  6

  9
$DIMTXTDIRECTION
 70
     0
  9
$LUNITS
 70
     2
  9
$LUPREC
 70
     4
  9
$SKETCHINC
 40
0.1
  9
$FILLETRAD
 40
0.0
  9
$AUNITS
 70
     0
  9
$AUPREC
 70
     0
  9
$MENU
  1
.
  9
$ELEVATION
 40
0.0
  9
$PELEVATION
 40
0.0
  9
$THICKNESS
 40
0.0
  9
$LIMCHECK
 70
     0
  9
$CHAMFERA
 40
0.0
  9
$CHAMFERB
 40
0.0
  9
$CHAMFERC
 40
0.0
  9
$CHAMFERD
 40
0.0
  9
$SKPOLY
 70
     0
  9
$TDCREATE
 40
2458446.363560440
  9
$TDUCREATE
 40
2458446.321893773
  9
$TDUPDATE
 40
2459255.545290185
  9
$TDUUPDATE
 40
2459255.503623519
  9
$TDINDWG
 40
0.0345859375
  9
$TDUSRTIMER
 40
0.0345848495
  9
$USRTIMER
 70
     1
  9
$ANGBASE
 50
0.0
  9
$ANGDIR
 70
     0
  9
$PDMODE
 70
     3
  9
$PDSIZE
 40
0.3125
  9
$PLINEWID
 40
0.0
  9
$SPLFRAME
 70
     0
  9
$SPLINETYPE
 70
     6
  9
$SPLINESEGS
 70
     8
  9
$HANDSEED
  5
23549
  9
$SURFTAB1
 70
     6
  9
$SURFTAB2
 70
     6
  9
$SURFTYPE
 70
     6
  9
$SURFU
 70
     6
  9
$SURFV
 70
     6
  9
$UCSBASE
  2

  9
$UCSNAME
  2

  9
$UCSORG
 10
0.0
 20
0.0
 30
0.0
  9
$UCSXDIR
 10
1.0
 20
0.0
 30
0.0
  9
$UCSYDIR
 10
0.0
 20
1.0
 30
0.0
  9
$UCSORTHOREF
  2

  9
$UCSORTHOVIEW
 70
     0
  9
$UCSORGTOP
 10
0.0
 20
0.0
 30
0.0
  9
$UCSORGBOTTOM
 10
0.0
 20
0.0
 30
0.0
  9
$UCSORGLEFT
 10
0.0
 20
0.0
 30
0.0
  9
$UCSORGRIGHT
 10
0.0
 20
0.0
 30
0.0
  9
$UCSORGFRONT
 10
0.0
 20
0.0
 30
0.0
  9
$UCSORGBACK
 10
0.0
 20
0.0
 30
0.0
  9
$PUCSBASE
  2

  9
$PUCSNAME
  2

  9
$PUCSORG
 10
0.0
 20
0.0
 30
0.0
  9
$PUCSXDIR
 10
1.0
 20
0.0
 30
0.0
  9
$PUCSYDIR
 10
0.0
 20
1.0
 30
0.0
  9
$PUCSORTHOREF
  2

  9
$PUCSORTHOVIEW
 70
     0
  9
$PUCSORGTOP
 10
0.0
 20
0.0
 30
0.0
  9
$PUCSORGBOTTOM
 10
0.0
 20
0.0
 30
0.0
  9
$PUCSORGLEFT
 10
0.0
 20
0.0
 30
0.0
  9
$PUCSORGRIGHT
 10
0.0
 20
0.0
 30
0.0
  9
$PUCSORGFRONT
 10
0.0
 20
0.0
 30
0.0
  9
$PUCSORGBACK
 10
0.0
 20
0.0
 30
0.0
  9
$USERI1
 70
     0
  9
$USERI2
 70
     0
  9
$USERI3
 70
     0
  9
$USERI4
 70
     0
  9
$USERI5
 70
     0
  9
$USERR1
 40
0.0
  9
$USERR2
 40
0.0
  9
$USERR3
 40
0.0
  9
$USERR4
 40
0.0
  9
$USERR5
 40
0.0
  9
$WORLDVIEW
 70
     1
  9
$SHADEDGE
 70
     3
  9
$SHADEDIF
 70
    70
  9
$TILEMODE
 70
     1
  9
$MAXACTVP
 70
    64
  9
$PINSBASE
 10
0.0
 20
0.0
 30
0.0
  9
$PLIMCHECK
 70
     0
  9
$PEXTMIN
 10
28.69141678810127
 20
19.6363175392151
 30
0.0
  9
$PEXTMAX
 10
258.2227510929107
 20
176.7268578529358
 30
0.0
  9
$PLIMMIN
 10
-5.027069091796875
 20
-6.805083274841307
  9
$PLIMMAX
 10
291.9412536621094
 20
203.1682443618775
  9
$UNITMODE
 70
     0
  9
$VISRETAIN
 70
     1
  9
$PLINEGEN
 70
     0
  9
$PSLTSCALE
 70
     1
  9
$TREEDEPTH
 70
  3020
  9
$CMLSTYLE
  2
STANDARD
  9
$CMLJUST
 70
     0
  9
$CMLSCALE
 40
1.0
  9
$PROXYGRAPHICS
 70
     1
  9
$MEASUREMENT
 70
     1
  9
$CELWEIGHT
370
    -1
  9
$ENDCAPS
280
     0
  9
$JOINSTYLE
280
     0
  9
$LWDISPLAY
290
     0
  9
$INSUNITS
 70
     0
  9
$HYPERLINKBASE
  1

  9
$STYLESHEET
  1
A1-A2.CTB
  9
$XEDIT
290
     1
  9
$CEPSNTYPE
380
     0
  9
$PSTYLEMODE
290
     1
  9
$FINGERPRINTGUID
  2
{6D3BC7B5-ACA7-406D-8A0D-A7DBBE093430}
  9
$VERSIONGUID
  2
{15921DF7-500F-44EB-9A39-559D04B24552}
  9
$EXTNAMES
290
     1
  9
$PSVPSCALE
 40
0.0
  9
$OLESTARTUP
290
     0
  9
$SORTENTS
280
   127
  9
$INDEXCTL
280
     0
  9
$HIDETEXT
280
     0
  9
$XCLIPFRAME
280
     2
  9
$HALOGAP
280
     0
  9
$OBSCOLOR
 70
   257
  9
$OBSLTYPE
280
     0
  9
$INTERSECTIONDISPLAY
280
     0
  9
$INTERSECTIONCOLOR
 70
   257
  9
$DIMASSOC
280
     1
  9
$PROJECTNAME
  1

  9
$CAMERADISPLAY
290
     0
  9
$LENSLENGTH
 40
50.0
  9
$CAMERAHEIGHT
 40
0.0
  9
$STEPSPERSEC
 40
2.0
  9
$STEPSIZE
 40
6.0
  9
$3DDWFPREC
 40
2.0
  9
$PSOLWIDTH
 40
0.25
  9
$PSOLHEIGHT
 40
4.0
  9
$LOFTANG1
 40
1.570796326794896
  9
$LOFTANG2
 40
1.570796326794896
  9
$LOFTMAG1
 40
0.0
  9
$LOFTMAG2
 40
0.0
  9
$LOFTPARAM
 70
     7
  9
$LOFTNORMALS
280
     1
  9
$LATITUDE
 40
37.795
  9
$LONGITUDE
 40
-122.394
  9
$NORTHDIRECTION
 40
0.0
  9
$TIMEZONE
 70
 -8000
  9
$LIGHTGLYPHDISPLAY
280
     1
  9
$TILEMODELIGHTSYNCH
280
     1
  9
$CMATERIAL
347
318C
  9
$SOLIDHIST
280
     0
  9
$SHOWHIST
280
     1
  9
$DWFFRAME
280
     2
  9
$DGNFRAME
280
     0
  9
$REALWORLDSCALE
290
     1
  9
$INTERFERECOLOR
 62
     1
  9
$INTERFEREOBJVS
345
3199
  9
$INTERFEREVPVS
346
1B2E3
  9
$CSHADOW
280
     0
  9
$SHADOWPLANELOCATION
 40
0.0
  0
ENDSEC
  0
SECTION
  2
CLASSES
  0
CLASS
  1
ACDBDICTIONARYWDFLT
  2
AcDbDictionaryWithDefault
  3
ObjectDBX Classes
 90
        0
 91
        1
280
     0
281
     0
  0
CLASS
  1
MATERIAL
  2
AcDbMaterial
  3
ObjectDBX Classes
 90
     1153
 91
        3
280
     0
281
     0
  0
CLASS
  1
VISUALSTYLE
  2
AcDbVisualStyle
  3
ObjectDBX Classes
 90
     4095
 91
       26
280
     0
281
     0
  0
CLASS
  1
TABLESTYLE
  2
AcDbTableStyle
  3
ObjectDBX Classes
 90
     4095
 91
        1
280
     0
281
     0
  0
CLASS
  1
SORTENTSTABLE
  2
AcDbSortentsTable
  3
ObjectDBX Classes
 90
        0
 91
        3
280
     0
281
     0
  0
CLASS
  1
DICTIONARYVAR
  2
AcDbDictionaryVar
  3
ObjectDBX Classes
 90
        0
 91
       12
280
     0
281
     0
  0
CLASS
  1
EXACXREFPANELOBJECT
  2
ExAcXREFPanelObject
  3
EXAC_ESW
 90
     1025
 91
        0
280
     1
281
     0
  0
CLASS
  1
NPOCOLLECTION
  2
AcDbImpNonPersistentObjectsCollection
  3
ObjectDBX Classes
 90
     1153
 91
        0
280
     1
281
     0
  0
CLASS
  1
SCALE
  2
AcDbScale
  3
ObjectDBX Classes
 90
     1153
 91
       33
280
     0
281
     0
  0
CLASS
  1
MLEADERSTYLE
  2
AcDbMLeaderStyle
  3
ACDB_MLEADERSTYLE_CLASS
 90
     4095
 91
        1
280
     0
281
     0
  0
CLASS
  1
ACDBSECTIONVIEWSTYLE
  2
AcDbSectionViewStyle
  3
ObjectDBX Classes
 90
     1025
 91
        2
280
     0
281
     0
  0
CLASS
  1
ACDBDETAILVIEWSTYLE
  2
AcDbDetailViewStyle
  3
ObjectDBX Classes
 90
     1025
 91
        2
280
     0
281
     0
  0
CLASS
  1
CELLSTYLEMAP
  2
AcDbCellStyleMap
  3
ObjectDBX Classes
 90
     1152
 91
        2
280
     0
281
     0
  0
CLASS
  1
ACAD_EVALUATION_GRAPH
  2
AcDbEvalGraph
  3
ObjectDBX Classes
 90
     1153
 91
        0
280
     0
281
     0
  0
CLASS
  1
ACAECUSTOBJ
  2
AcAeEditorObj
  3
AcAeEditorObj
 90
     1024
 91
        0
280
     0
281
     0
  0
CLASS
  1
ACDB_DYNAMICBLOCKPURGEPREVENTER_VERSION
  2
AcDbDynamicBlockPurgePreventer
  3
ObjectDBX Classes
 90
     1153
 91
        0
280
     0
281
     0
  0
CLASS
  1
FIELD
  2
AcDbField
  3
ObjectDBX Classes
 90
     1152
 91
        0
280
     0
281
     0
  0
CLASS
  1
FIELDLIST
  2
AcDbFieldList
  3
ObjectDBX Classes
 90
     1152
 91
        1
280
     0
281
     0
  0
CLASS
  1
ACDB_ALDIMOBJECTCONTEXTDATA_CLASS
  2
AcDbAlignedDimensionObjectContextData
  3
ObjectDBX Classes
 90
     1153
 91
        0
280
     0
281
     0
  0
ENDSEC
  0
SECTION
  2
TABLES
  0
TABLE
  2
VPORT
  5
8
330
0
100
AcDbSymbolTable
 70
     1
  0
VPORT
  5
1F4
330
8
100
AcDbSymbolTableRecord
100
AcDbViewportTableRecord
  2
*ACTIVE
 70
     0
 10
0.0
 20
0.0
 11
1.0
 21
1.0
 12
21.63868496745614
 22
3.25549589094129
 13
0.0
 23
0.0
 14
1.0
 24
1.0
 15
0.0
 25
0.0
 16
0.0
 26
0.0
 36
1.0
 17
0.0
 27
0.0
 37
0.0
 40
108.5451066915347
 41
2.304136253041362
 42
50.0
 43
0.0
 44
0.0
 50
0.0
 51
0.0
 71
     0
 72
  2000
 73
     1
 74
     1
 75
     0
 76
     0
 77
     0
 78
     0
281
     0
 65
     1
110
0.0
120
0.0
130
0.0
111
1.0
121
0.0
131
0.0
112
0.0
122
1.0
132
0.0
 79
     0
146
0.0
348
3195
 60
     3
 61
     5
292
     1
282
     1
141
0.0
142
0.0
 63
   250
421
  3355443
1001
ACAD_NAV_VCDISPLAY
1070
     3
  0
ENDTAB
  0
TABLE
  2
LTYPE
  5
5
330
0
100
AcDbSymbolTable
 70
     5
  0
LTYPE
  5
14
330
5
100
AcDbSymbolTableRecord
100
AcDbLinetypeTableRecord
  2
BYBLOCK
 70
     0
  3

 72
    65
 73
     0
 40
0.0
  0
LTYPE
  5
15
330
5
100
AcDbSymbolTableRecord
100
AcDbLinetypeTableRecord
  2
BYLAYER
 70
     0
  3

 72
    65
 73
     0
 40
0.0
  0
LTYPE
  5
16
330
5
100
AcDbSymbolTableRecord
100
AcDbLinetypeTableRecord
  2
CONTINUOUS
 70
     0
  3
Solid line
 72
    65
 73
     0
 40
0.0
  0
LTYPE
  5
9C48
330
5
100
AcDbSymbolTableRecord
100
AcDbLinetypeTableRecord
  2
CENTER
 70
     0
  3
____ _ ____ _ ____ _ ____ _ ____ _ ____ _ ____
 72
    65
 73
     4
 40
0.6
 49
0.375
 74
     0
 49
-0.075
 74
     0
 49
0.075
 74
     0
 49
-0.075
 74
     0
  0
LTYPE
  5
2224E
330
5
100
AcDbSymbolTableRecord
100
AcDbLinetypeTableRecord
  2
HIDDEN
 70
     0
  3
- - - - - - - - - - - - - - - - - - - -
 72
    65
 73
     2
 40
0.2
 49
0.1
 74
     0
 49
-0.1
 74
     0
  0
ENDTAB
  0
TABLE
  2
LAYER
  5
2
102
{ACAD_XDICTIONARY
360
422A
102
}
330
0
100
AcDbSymbolTable
 70
    16
  0
LAYER
  5
10
102
{ACAD_XDICTIONARY
360
1B2F5
102
}
330
2
100
AcDbSymbolTableRecord
100
AcDbLayerTableRecord
  2
0
 70
     0
 62
     7
  6
CONTINUOUS
370
    -3
390
318A
347
318E
  0
LAYER
  5
3F8C
102
{ACAD_XDICTIONARY
360
1B2F7
102
}
330
2
100
AcDbSymbolTableRecord
100
AcDbLayerTableRecord
  2
1
 70
     0
 62
     4
  6
BYBLOCK
370
    50
390
318A
347
318E
  0
LAYER
  5
3FA7
330
2
100
AcDbSymbolTableRecord
100
AcDbLayerTableRecord
  2
Defpoints
 70
     0
 62
     7
  6
CONTINUOUS
290
     0
370
    -3
390
318A
347
318E
  0
LAYER
  5
9C4A
102
{ACAD_XDICTIONARY
360
1B2F9
102
}
330
2
100
AcDbSymbolTableRecord
100
AcDbLayerTableRecord
  2
2
 70
     0
 62
     7
  6
BYBLOCK
370
    25
390
318A
347
318E
  0
LAYER
  5
9C4B
102
{ACAD_XDICTIONARY
360
1B2FB
102
}
330
2
100
AcDbSymbolTableRecord
100
AcDbLayerTableRecord
  2
4
 70
     0
 62
     2
  6
CENTER
370
    25
390
318A
347
318E
  0
LAYER
  5
9C4D
102
{ACAD_XDICTIONARY
360
1B2FD
102
}
330
2
100
AcDbSymbolTableRecord
100
AcDbLayerTableRecord
  2
CUT
 70
     0
 62
     1
  6
BYBLOCK
370
    25
390
318A
347
318E
  0
LAYER
  5
9C4E
102
{ACAD_XDICTIONARY
360
1B2FF
102
}
330
2
100
AcDbSymbolTableRecord
100
AcDbLayerTableRecord
  2
NOCUT
 70
     0
 62
     7
  6
BYBLOCK
370
    25
390
318A
347
318E
  0
LAYER
  5
9C4F
102
{ACAD_XDICTIONARY
360
1B301
102
}
330
2
100
AcDbSymbolTableRecord
100
AcDbLayerTableRecord
  2
SK2
 70
     0
 62
     7
  6
BYBLOCK
370
    25
390
318A
347
318E
  0
LAYER
  5
13335
102
{ACAD_XDICTIONARY
360
1B307
102
}
330
2
100
AcDbSymbolTableRecord
100
AcDbLayerTableRecord
  2
INFTOTAL
 70
     0
 62
     9
  6
BYBLOCK
370
    18
390
318A
347
318E
1001
AcAecLayerStandard
1000

1000

  0
LAYER
  5
1686E
102
{ACAD_XDICTIONARY
360
1B309
102
}
330
2
100
AcDbSymbolTableRecord
100
AcDbLayerTableRecord
  2
SK6
 70
     0
 62
     5
  6
BYBLOCK
370
    -3
390
318A
347
318E
  0
LAYER
  5
2224F
102
{ACAD_XDICTIONARY
360
22250
102
}
330
2
100
AcDbSymbolTableRecord
100
AcDbLayerTableRecord
  2
3
 70
     0
 62
     1
  6
HIDDEN
370
    -3
390
318A
347
318E
1001
AcAecLayerStandard
1000

1000

1001
AcCmTransparency
1071
        0
  0
ENDTAB
  0
TABLE
  2
STYLE
  5
3
330
0
100
AcDbSymbolTable
 70
     1
  0
STYLE
  5
11
330
3
100
AcDbSymbolTableRecord
100
AcDbTextStyleTableRecord
  2
STANDARD
 70
     0
 40
3.5
 41
0.8
 50
0.0
 71
     0
 42
3.5
  3
monos.ttf
  4

1001
ACAD
1000
Monospac821 BT
1071
       49
  0
ENDTAB
  0
TABLE
  2
VIEW
  5
6
330
0
100
AcDbSymbolTable
 70
     0
  0
ENDTAB
  0
TABLE
  2
UCS
  5
7
330
0
100
AcDbSymbolTable
 70
     0
  0
ENDTAB
  0
TABLE
  2
APPID
  5
9
330
0
100
AcDbSymbolTable
 70
    15
  0
APPID
  5
23B
330
9
100
AcDbSymbolTableRecord
100
AcDbRegAppTableRecord
  2
ACAD
 70
     0
  0
APPID
  5
3395
330
9
100
AcDbSymbolTableRecord
100
AcDbRegAppTableRecord
  2
ACAD_EXEMPT_FROM_CAD_STANDARDS
 70
     0
  0
APPID
  5
4229
330
9
100
AcDbSymbolTableRecord
100
AcDbRegAppTableRecord
  2
AcAecLayerStandard
 70
     0
  0
APPID
  5
9A1B
330
9
100
AcDbSymbolTableRecord
100
AcDbRegAppTableRecord
  2
ACAD_PSEXT
 70
     0
  0
APPID
  5
1B313
330
9
100
AcDbSymbolTableRecord
100
AcDbRegAppTableRecord
  2
ACAD_NAV_VCDISPLAY
 70
     0
  0
APPID
  5
1B355
330
9
100
AcDbSymbolTableRecord
100
AcDbRegAppTableRecord
  2
ACAD_MLEADERVER
 70
     0
  0
APPID
  5
1EC7F
330
9
100
AcDbSymbolTableRecord
100
AcDbRegAppTableRecord
  2
ACAUTHENVIRON
 70
     0
  0
APPID
  5
1EC82
330
9
100
AcDbSymbolTableRecord
100
AcDbRegAppTableRecord
  2
AcDbDynamicBlockTrueName
 70
     0
  0
APPID
  5
1EC83
330
9
100
AcDbSymbolTableRecord
100
AcDbRegAppTableRecord
  2
AcDbDynamicBlockGUID
 70
     0
  0
APPID
  5
20A85
330
9
100
AcDbSymbolTableRecord
100
AcDbRegAppTableRecord
  2
AcCmTransparency
 70
     0
  0
APPID
  5
20AE2
330
9
100
AcDbSymbolTableRecord
100
AcDbRegAppTableRecord
  2
ACAD_DSTYLE_DIMRADIAL_EXTENSION
 70
     0
  0
APPID
  5
20CB0
330
9
100
AcDbSymbolTableRecord
100
AcDbRegAppTableRecord
  2
AcadAnnotative
 70
     0
  0
APPID
  5
21667
330
9
100
AcDbSymbolTableRecord
100
AcDbRegAppTableRecord
  2
AcadAnnoMonitorAlertIconDisabled
 70
     0
  0
APPID
  5
21CCB
330
9
100
AcDbSymbolTableRecord
100
AcDbRegAppTableRecord
  2
ACAD_DSTYLE_DIMJAG
 70
     0
  0
APPID
  5
21CCC
330
9
100
AcDbSymbolTableRecord
100
AcDbRegAppTableRecord
  2
ACAD_DSTYLE_DIMTALN
 70
     0
  0
ENDTAB
  0
TABLE
  2
DIMSTYLE
  5
A
330
0
100
AcDbSymbolTable
 70
     2
100
AcDbDimStyleTable
 71
     1
340
243
  0
DIMSTYLE
105
243
102
{ACAD_REACTORS
330
2325B
330
2325C
330
2325D
330
230F7
102
}
330
A
100
AcDbSymbolTableRecord
100
AcDbDimStyleTableRecord
  2
STANDARD
 70
     0
 41
4.57
 47
0.01
 48
0.01
 73
     0
 74
     0
 77
     1
 78
     8
140
3.5
271
     3
272
     3
284
     8
289
     0
340
11
  0
ENDTAB
  0
TABLE
  2
BLOCK_RECORD
  5
1
330
0
100
AcDbSymbolTable
 70
    36
  0
BLOCK_RECORD
  5
1F
102
{ACAD_XDICTIONARY
360
339C
102
}
330
1
100
AcDbSymbolTableRecord
100
AcDbBlockTableRecord
  2
*MODEL_SPACE
340
31A6
 70
     0
280
     1
281
     0
  0
BLOCK_RECORD
  5
1B
330
1
100
AcDbSymbolTableRecord
100
AcDbBlockTableRecord
  2
*PAPER_SPACE
340
31A7
 70
     0
280
     1
281
     0
  0
BLOCK_RECORD
  5
1B3D7
102
{ACAD_XDICTIONARY
360
1DE81
102
}
330
1
100
AcDbSymbolTableRecord
100
AcDbBlockTableRecord
  2
cero_point
340
0
310
28000000200000002000000001002000000000000010000001000000010000000000000000000000302821FF302821FF302821FF302821FF302821FF302821FF302821FF302821FF302821FF302821FF302821FF302821FF302821FF302821FF302821FF302821FF302821FF302821FF302821FF302821FF302821FF302821
310
FF302821FF302821FF302821FF302821FF302821FF302821FF302821FF302821FF302821FF302821FF302821FF302821FF302821FF302821FF302821FF302821FF302821FF302821FF302821FF302821FF302821FF302821FF302821FF302821FF302821FFFFFF00FFFFFF00FFFFFF00FF302821FF302821FF302821FF3028
310
21FF302821FF302821FF302821FF302821FF302821FF302821FF302821FF302821FF302821FF302821FF302821FF302821FF302821FF302821FF302821FF302821FF302821FF302821FF302821FF302821FFFFFF00FFFFFF00FFFFFF00FFFFFF00FFFFFF00FFFFFF00FFFFFF00FF302821FFFFFF00FFFFFF00FFFFFF00FF30
310
2821FF302821FF302821FF302821FF302821FF302821FF302821FF302821FF302821FF302821FF302821FF302821FF302821FF302821FF302821FF302821FF302821FF302821FF302821FFFFFF00FFFFFF00FFFFFF00FFFFFF00FFFFFF00FFFFFF00FFFFFF00FFFFFF00FFFFFF00FF302821FF302821FF302821FF302821FF
310
FFFF00FFFFFF00FF302821FF302821FF302821FF302821FF302821FF302821FF302821FF302821FF302821FF302821FF302821FF302821FF302821FF302821FF302821FF302821FFFFFF00FFFFFF00FFFFFF00FFFFFF00FFFFFF00FFFFFF00FFFFFF00FFFFFF00FFFFFF00FFFFFF00FF302821FF302821FF302821FF302821
310
FF302821FF302821FFFFFF00FFFFFF00FF302821FF302821FF302821FF302821FF302821FF302821FF302821FF302821FF302821FF302821FF302821FF302821FF302821FFFFFF00FFFFFF00FFFFFF00FFFFFF00FFFFFF00FFFFFF00FFFFFF00FFFFFF00FFFFFF00FFFFFF00FFFFFF00FF302821FF302821FF302821FF3028
310
21FF302821FF302821FF302821FF302821FFFFFF00FF302821FF302821FF302821FF302821FF302821FF302821FF302821FF302821FF302821FF302821FF302821FFFFFF00FFFFFF00FFFFFF00FFFFFF00FFFFFF00FFFFFF00FFFFFF00FFFFFF00FFFFFF00FFFFFF00FFFFFF00FFFFFF00FF302821FF302821FF302821FF30
310
2821FF302821FF302821FF302821FF302821FF302821FFFFFF00FF302821FF302821FF302821FF302821FF302821FF302821FF302821FF302821FF302821FFFFFF00FFFFFF00FFFFFF00FFFFFF00FFFFFF00FFFFFF00FFFFFF00FFFFFF00FFFFFF00FFFFFF00FFFFFF00FFFFFF00FFFFFF00FF302821FF302821FF302821FF
310
302821FF302821FF302821FF302821FF302821FF302821FF302821FFFFFF00FF302821FF302821FF302821FF302821FF302821FF302821FF302821FFFFFF00FFFFFF00FFFFFF00FFFFFF00FFFFFF00FFFFFF00FFFFFF00FFFFFF00FFFFFF00FFFFFF00FFFFFF00FFFFFF00FFFFFF00FFFFFF00FF302821FF302821FF302821
310
FF302821FF302821FF302821FF302821FF302821FF302821FF302821FFFFFF00FF302821FF302821FF302821FF302821FF302821FF302821FF302821FFFFFF00FFFFFF00FFFFFF00FFFFFF00FFFFFF00FFFFFF00FFFFFF00FFFFFF00FFFFFF00FFFFFF00FFFFFF00FFFFFF00FFFFFF00FFFFFF00FF302821FF302821FF3028
310
21FF302821FF302821FF302821FF302821FF302821FF302821FF302821FF302821FFFFFF00FF302821FF302821FF302821FF302821FF302821FFFFFF00FFFFFF00FFFFFF00FFFFFF00FFFFFF00FFFFFF00FFFFFF00FFFFFF00FFFFFF00FFFFFF00FFFFFF00FFFFFF00FFFFFF00FFFFFF00FFFFFF00FF302821FF302821FF30
310
2821FF302821FF302821FF302821FF302821FF302821FF302821FF302821FF302821FF302821FFFFFF00FF302821FF302821FF302821FF302821FFFFFF00FFFFFF00FFFFFF00FFFFFF00FFFFFF00FFFFFF00FFFFFF00FFFFFF00FFFFFF00FFFFFF00FFFFFF00FFFFFF00FFFFFF00FFFFFF00FFFFFF00FF302821FF302821FF
310
302821FF302821FF302821FF302821FF302821FF302821FF302821FF302821FF302821FF302821FFFFFF00FF302821FF302821FF302821FF302821FFFFFF00FFFFFF00FFFFFF00FFFFFF00FFFFFF00FFFFFF00FFFFFF00FFFFFF00FFFFFF00FFFFFF00FFFFFF00FFFFFF00FFFFFF00FFFFFF00FFFFFF00FF302821FF302821
310
FF302821FF302821FF302821FF302821FF302821FF302821FF302821FF302821FF302821FF302821FFFFFF00FF302821FF302821FF302821FF302821FFFFFF00FFFFFF00FFFFFF00FFFFFF00FFFFFF00FFFFFF00FFFFFF00FFFFFF00FFFFFF00FFFFFF00FFFFFF00FFFFFF00FFFFFF00FFFFFF00FFFFFF00FF302821FF3028
310
21FF302821FF302821FF302821FF302821FF302821FF302821FF302821FF302821FF302821FF302821FFFFFF00FF302821FF302821FF302821FFFFFF00FFFFFF00FFFFFF00FFFFFF00FFFFFF00FFFFFF00FFFFFF00FFFFFF00FFFFFF00FFFFFF00FFFFFF00FFFFFF00FFFFFF00FFFFFF00FFFFFF00FFFFFF00FF302821FF30
310
2821FF302821FF302821FF302821FF302821FF302821FF302821FF302821FF302821FF302821FF302821FF302821FFFFFF00FF302821FF302821FFFFFF00FFFFFF00FFFFFF00FFFFFF00FFFFFF00FFFFFF00FFFFFF00FFFFFF00FFFFFF00FFFFFF00FFFFFF00FFFFFF00FFFFFF00FFFFFF00FFFFFF00FFFFFF00FFFFFF00FF
310
FFFF00FFFFFF00FFFFFF00FFFFFF00FFFFFF00FFFFFF00FFFFFF00FFFFFF00FFFFFF00FFFFFF00FFFFFF00FFFFFF00FFFFFF00FF302821FF302821FFFFFF00FF302821FF302821FF302821FF302821FF302821FF302821FF302821FF302821FF302821FF302821FF302821FF302821FF302821FF302821FFFFFF00FFFFFF00
310
FFFFFF00FFFFFF00FFFFFF00FFFFFF00FFFFFF00FFFFFF00FFFFFF00FFFFFF00FFFFFF00FFFFFF00FFFFFF00FFFFFF00FFFFFF00FF302821FF302821FFFFFF00FF302821FF302821FF302821FF302821FF302821FF302821FF302821FF302821FF302821FF302821FF302821FF302821FF302821FF302821FFFFFF00FFFFFF
310
00FFFFFF00FFFFFF00FFFFFF00FFFFFF00FFFFFF00FFFFFF00FFFFFF00FFFFFF00FFFFFF00FFFFFF00FFFFFF00FFFFFF00FF302821FF302821FF302821FF302821FFFFFF00FF302821FF302821FF302821FF302821FF302821FF302821FF302821FF302821FF302821FF302821FF302821FF302821FF302821FFFFFF00FFFF
310
FF00FFFFFF00FFFFFF00FFFFFF00FFFFFF00FFFFFF00FFFFFF00FFFFFF00FFFFFF00FFFFFF00FFFFFF00FFFFFF00FFFFFF00FF302821FF302821FF302821FF302821FFFFFF00FF302821FF302821FF302821FF302821FF302821FF302821FF302821FF302821FF302821FF302821FF302821FF302821FF302821FFFFFF00FF
310
FFFF00FFFFFF00FFFFFF00FFFFFF00FFFFFF00FFFFFF00FFFFFF00FFFFFF00FFFFFF00FFFFFF00FFFFFF00FFFFFF00FFFFFF00FF302821FF302821FF302821FF302821FFFFFF00FF302821FF302821FF302821FF302821FF302821FF302821FF302821FF302821FF302821FF302821FF302821FF302821FF302821FFFFFF00
310
FFFFFF00FFFFFF00FFFFFF00FFFFFF00FFFFFF00FFFFFF00FFFFFF00FFFFFF00FFFFFF00FFFFFF00FFFFFF00FFFFFF00FFFFFF00FF302821FF302821FF302821FF302821FF302821FFFFFF00FF302821FF302821FF302821FF302821FF302821FF302821FF302821FF302821FF302821FF302821FF302821FF302821FFFFFF
310
00FFFFFF00FFFFFF00FFFFFF00FFFFFF00FFFFFF00FFFFFF00FFFFFF00FFFFFF00FFFFFF00FFFFFF00FFFFFF00FFFFFF00FFFFFF00FF302821FF302821FF302821FF302821FF302821FFFFFF00FF302821FF302821FF302821FF302821FF302821FF302821FF302821FF302821FF302821FF302821FF302821FF302821FFFF
310
FF00FFFFFF00FFFFFF00FFFFFF00FFFFFF00FFFFFF00FFFFFF00FFFFFF00FFFFFF00FFFFFF00FFFFFF00FFFFFF00FFFFFF00FF302821FF302821FF302821FF302821FF302821FF302821FF302821FFFFFF00FF302821FF302821FF302821FF302821FF302821FF302821FF302821FF302821FF302821FF302821FF302821FF
310
FFFF00FFFFFF00FFFFFF00FFFFFF00FFFFFF00FFFFFF00FFFFFF00FFFFFF00FFFFFF00FFFFFF00FFFFFF00FFFFFF00FFFFFF00FF302821FF302821FF302821FF302821FF302821FF302821FF302821FFFFFF00FF302821FF302821FF302821FF302821FF302821FF302821FF302821FF302821FF302821FF302821FF302821
310
FFFFFF00FFFFFF00FFFFFF00FFFFFF00FFFFFF00FFFFFF00FFFFFF00FFFFFF00FFFFFF00FFFFFF00FFFFFF00FFFFFF00FF302821FF302821FF302821FF302821FF302821FF302821FF302821FF302821FF302821FFFFFF00FF302821FF302821FF302821FF302821FF302821FF302821FF302821FF302821FF302821FF3028
310
21FFFFFF00FFFFFF00FFFFFF00FFFFFF00FFFFFF00FFFFFF00FFFFFF00FFFFFF00FFFFFF00FFFFFF00FFFFFF00FF302821FF302821FF302821FF302821FF302821FF302821FF302821FF302821FF302821FF302821FF302821FFFFFF00FF302821FF302821FF302821FF302821FF302821FF302821FF302821FF302821FF30
310
2821FFFFFF00FFFFFF00FFFFFF00FFFFFF00FFFFFF00FFFFFF00FFFFFF00FFFFFF00FFFFFF00FFFFFF00FF302821FF302821FF302821FF302821FF302821FF302821FF302821FF302821FF302821FF302821FF302821FF302821FF302821FFFFFF00FF302821FF302821FF302821FF302821FF302821FF302821FF302821FF
310
302821FFFFFF00FFFFFF00FFFFFF00FFFFFF00FFFFFF00FFFFFF00FFFFFF00FFFFFF00FFFFFF00FF302821FF302821FF302821FF302821FF302821FF302821FF302821FF302821FF302821FF302821FF302821FF302821FF302821FF302821FF302821FFFFFF00FFFFFF00FF302821FF302821FF302821FF302821FF302821
310
FF302821FFFFFF00FFFFFF00FFFFFF00FFFFFF00FFFFFF00FFFFFF00FFFFFF00FFFFFF00FF302821FF302821FF302821FF302821FF302821FF302821FF302821FF302821FF302821FF302821FF302821FF302821FF302821FF302821FF302821FF302821FF302821FF302821FFFFFF00FFFFFF00FFFFFF00FFFFFF00FFFFFF
310
00FF302821FFFFFF00FFFFFF00FFFFFF00FFFFFF00FFFFFF00FFFFFF00FF302821FF302821FF302821FF302821FF302821FF302821FF302821FF302821FF302821FF302821FF302821FF302821FF302821FF302821FF302821FF302821FF302821FF302821FF302821FF302821FF302821FF302821FF302821FF302821FF30
310
2821FFFFFF00FFFFFF00FFFFFF00FF302821FF302821FF302821FF302821FF302821FF302821FF302821FF302821FF302821FF302821FF302821FF302821FF302821FF302821FF302821FF302821FF302821FF302821FF302821FF302821FF302821FF302821FF302821FF302821FF302821FF302821FF302821FF302821FF
310
302821FF302821FF302821FF302821FF302821FF302821FF302821FF302821FF302821FF302821FF302821FF302821FF302821FF302821FF302821FF302821FF302821FF302821FF
102
{BLKREFS
331
230C6
102
}
 70
     0
280
     1
281
     1
  0
BLOCK_RECORD
  5
2325E
330
1
100
AcDbSymbolTableRecord
100
AcDbBlockTableRecord
  2
*D22
340
0
 70
     0
280
     1
281
     0
  0
BLOCK_RECORD
  5
2326A
330
1
100
AcDbSymbolTableRecord
100
AcDbBlockTableRecord
  2
*D23
340
0
 70
     0
280
     1
281
     0
  0
BLOCK_RECORD
  5
23276
330
1
100
AcDbSymbolTableRecord
100
AcDbBlockTableRecord
  2
*D24
340
0
 70
     0
280
     1
281
     0
  0
BLOCK_RECORD
  5
23282
330
1
100
AcDbSymbolTableRecord
100
AcDbBlockTableRecord
  2
*D25
340
0
 70
     0
280
     1
281
     0
  0
ENDTAB
  0
ENDSEC
  0
SECTION
  2
BLOCKS
  0
BLOCK
  5
20
330
1F
100
AcDbEntity
  8
0
100
AcDbBlockBegin
  2
*MODEL_SPACE
 70
     0
 10
0.0
 20
0.0
 30
0.0
  3
*MODEL_SPACE
  1

  0
ENDBLK
  5
21
330
1F
100
AcDbEntity
  8
0
100
AcDbBlockEnd
  0
BLOCK
  5
1C
330
1B
100
AcDbEntity
 67
     1
  8
0
100
AcDbBlockBegin
  2
*PAPER_SPACE
 70
     0
 10
0.0
 20
0.0
 30
0.0
  3
*PAPER_SPACE
  1

  0
ENDBLK
  5
1D
330
1B
100
AcDbEntity
 67
     1
  8
0
100
AcDbBlockEnd
  0
BLOCK
  5
1B3D8
330
1B3D7
100
AcDbEntity
  8
0
100
AcDbBlockBegin
  2
cero_point
 70
     0
 10
0.0
 20
0.0
 30
0.0
  3
cero_point
  1

  0
HATCH
  5
1B3DA
330
1B3D7
100
AcDbEntity
  8
1
  6
ByBlock
370
    50
100
AcDbHatch
 10
0.0
 20
0.0
 30
0.0
210
0.0
220
0.0
230
1.0
  2
SOLID
 70
     1
 71
     0
 91
        2
 92
        7
 72
     1
 73
     1
 93
        3
 10
-0.0000000000001137
 20
0.0
 42
0.0
 10
-2.950972054112752
 20
0.0
 42
0.4142135623730968
 10
-0.0000000000001137
 20
-2.950972054112583
 42
0.0
 97
        0
 92
        7
 72
     1
 73
     1
 93
        3
 10
-0.0000000000001137
 20
2.950972054112638
 42
0.0
 10
-0.0000000000001137
 20
0.0
 42
0.0
 10
2.950972054112526
 20
0.0
 42
0.4142135623730966
 97
        0
 75
     0
 76
     1
 47
0.1190009775223266
 98
        2
 10
-0.7445530588121301
 20
-0.9212244733764125
 10
1.279464601852737
 20
1.696796923046345
450
        0
451
        0
460
0.0
461
0.0
452
        0
462
0.0
453
        0
470

  0
LWPOLYLINE
  5
1B3DB
330
1B3D7
100
AcDbEntity
  8
1
  6
ByBlock
370
    50
100
AcDbPolyline
 90
        3
 70
     1
 43
0.0
 10
-0.0000000000001137
 20
0.0
 10
2.950972054112526
 20
0.0
 42
0.4142135623730966
 10
-0.0000000000001137
 20
2.950972054112638
  0
LINE
  5
1B3DC
330
1B3D7
100
AcDbEntity
  8
1
  6
ByBlock
370
    50
100
AcDbLine
 10
-0.0000000000001137
 20
-2.950972054112583
 30
0.0
 11
-0.0000000000001137
 21
2.950972054112638
 31
0.0
  0
LWPOLYLINE
  5
1B3DD
330
1B3D7
100
AcDbEntity
  8
1
  6
ByBlock
370
    50
100
AcDbPolyline
 90
        3
 70
     1
 43
0.0
 10
-0.0000000000001137
 20
-2.950972054112583
 10
-0.0000000000001137
 20
0.0
 10
-2.950972054112752
 20
0.0
 42
0.4142135623730966
  0
LINE
  5
1B3DE
330
1B3D7
100
AcDbEntity
  8
1
  6
ByBlock
370
    50
100
AcDbLine
 10
2.950972054112638
 20
0.0
 30
0.0
 11
-2.950972054112638
 21
0.0
 31
0.0
  0
CIRCLE
  5
1B3DF
330
1B3D7
100
AcDbEntity
  8
1
  6
ByBlock
370
    50
100
AcDbCircle
 10
-0.0000000000001137
 20
0.0
 30
0.0
 40
2.950972054112601
  0
ENDBLK
  5
1B3D9
330
1B3D7
100
AcDbEntity
  8
0
100
AcDbBlockEnd
  0
BLOCK
  5
2325F
330
2325E
100
AcDbEntity
  8
0
100
AcDbBlockBegin
  2
*D22
 70
     1
 10
0.0
 20
0.0
 30
0.0
  3
*D22
  1

  0
LINE
  5
234F0
330
2325E
100
AcDbEntity
  8
SK2
 62
     0
440
 16777216
370
    -2
100
AcDbLine
 10
0.9375
 20
22.50000000000003
 30
0.0
 11
-23.85645984951816
 21
22.50000000000003
 31
0.0
  0
LINE
  5
234F1
330
2325E
100
AcDbEntity
  8
SK2
 62
     0
440
 16777216
370
    -2
100
AcDbLine
 10
0.9374999999999998
 20
-22.49999999999997
 30
0.0
 11
-23.85645984951817
 21
-22.49999999999997
 31
0.0
  0
LINE
  5
234F2
330
2325E
100
AcDbEntity
  8
SK2
 62
     0
440
 16777216
370
    -2
100
AcDbLine
 10
-23.67645984951816
 20
17.93000000000003
 30
0.0
 11
-23.67645984951817
 21
-17.92999999999997
 31
0.0
  0
SOLID
  5
234F3
330
2325E
100
AcDbEntity
  8
SK2
 62
     0
440
 16777216
100
AcDbTrace
 10
-24.43812651618483
 20
17.93000000000003
 30
0.0
 11
-22.9147931828515
 21
17.93000000000003
 31
0.0
 12
-23.67645984951816
 22
22.50000000000003
 32
0.0
 13
-23.67645984951816
 23
22.50000000000003
 33
0.0
  0
SOLID
  5
234F4
330
2325E
100
AcDbEntity
  8
SK2
 62
     0
440
 16777216
100
AcDbTrace
 10
-24.43812651618483
 20
-17.92999999999996
 30
0.0
 11
-22.9147931828515
 21
-17.92999999999997
 31
0.0
 12
-23.67645984951817
 22
-22.49999999999997
 32
0.0
 13
-23.67645984951817
 23
-22.49999999999997
 33
0.0
  0
MTEXT
  5
234F5
330
2325E
100
AcDbEntity
  8
SK2
 62
     0
440
 16777216
100
AcDbMText
 10
-25.62960110039659
 20
0.0000000000000301
 30
0.0
 40
3.5
 41
0.0
 46
0.0
 71
     5
 72
     1
  1
\A1;%%C45
 11
0.0000000000000001
 21
1.0
 31
0.0
 73
     1
 44
1.0
  0
POINT
  5
234F6
330
2325E
100
AcDbEntity
  8
Defpoints
 62
     0
440
 16777216
100
AcDbPoint
 10
1.0
 20
22.50000000000003
 30
0.0
  0
POINT
  5
234F7
330
2325E
100
AcDbEntity
  8
Defpoints
 62
     0
440
 16777216
100
AcDbPoint
 10
0.9999999999999998
 20
-22.49999999999997
 30
0.0
  0
POINT
  5
234F8
330
2325E
100
AcDbEntity
  8
Defpoints
 62
     0
440
 16777216
100
AcDbPoint
 10
-23.67645984951817
 20
-22.49999999999997
 30
0.0
  0
ENDBLK
  5
23260
330
2325E
100
AcDbEntity
  8
0
100
AcDbBlockEnd
  0
BLOCK
  5
2326B
330
2326A
100
AcDbEntity
  8
0
100
AcDbBlockBegin
  2
*D23
 70
     1
 10
0.0
 20
0.0
 30
0.0
  3
*D23
  1

  0
LINE
  5
234F9
330
2326A
100
AcDbEntity
  8
SK2
 62
     0
440
 16777216
370
    -2
100
AcDbLine
 10
7.4375
 20
10.99999999998736
 30
0.0
 11
-13.02709864340978
 21
10.99999999998736
 31
0.0
  0
LINE
  5
234FA
330
2326A
100
AcDbEntity
  8
SK2
 62
     0
440
 16777216
370
    -2
100
AcDbLine
 10
7.4375
 20
-10.99999999998725
 30
0.0
 11
-13.02709864340978
 21
-10.99999999998724
 31
0.0
  0
LINE
  5
234FB
330
2326A
100
AcDbEntity
  8
SK2
 62
     0
440
 16777216
370
    -2
100
AcDbLine
 10
-12.84709864340977
 20
6.429999999987365
 30
0.0
 11
-12.84709864340978
 21
-6.429999999987246
 31
0.0
  0
SOLID
  5
234FC
330
2326A
100
AcDbEntity
  8
SK2
 62
     0
440
 16777216
100
AcDbTrace
 10
-13.60876531007644
 20
6.429999999987365
 30
0.0
 11
-12.08543197674311
 21
6.429999999987365
 31
0.0
 12
-12.84709864340977
 22
10.99999999998736
 32
0.0
 13
-12.84709864340977
 23
10.99999999998736
 33
0.0
  0
SOLID
  5
234FD
330
2326A
100
AcDbEntity
  8
SK2
 62
     0
440
 16777216
100
AcDbTrace
 10
-13.60876531007644
 20
-6.429999999987246
 30
0.0
 11
-12.08543197674311
 21
-6.429999999987246
 31
0.0
 12
-12.84709864340978
 22
-10.99999999998724
 32
0.0
 13
-12.84709864340978
 23
-10.99999999998724
 33
0.0
  0
MTEXT
  5
234FE
330
2326A
100
AcDbEntity
  8
SK2
 62
     0
440
 16777216
100
AcDbMText
 10
-14.8002398942882
 20
0.0000000000000579
 30
0.0
 40
3.5
 41
0.0
 46
0.0
 71
     5
 72
     1
  1
\A1;%%C22
 11
0.0000000000000001
 21
1.0
 31
0.0
 73
     1
 44
1.0
  0
POINT
  5
234FF
330
2326A
100
AcDbEntity
  8
Defpoints
 62
     0
440
 16777216
100
AcDbPoint
 10
7.5
 20
10.99999999998736
 30
0.0
  0
POINT
  5
23500
330
2326A
100
AcDbEntity
  8
Defpoints
 62
     0
440
 16777216
100
AcDbPoint
 10
7.5
 20
-10.99999999998725
 30
0.0
  0
POINT
  5
23501
330
2326A
100
AcDbEntity
  8
Defpoints
 62
     0
440
 16777216
100
AcDbPoint
 10
-12.84709864340978
 20
-10.99999999998724
 30
0.0
  0
ENDBLK
  5
2326C
330
2326A
100
AcDbEntity
  8
0
100
AcDbBlockEnd
  0
BLOCK
  5
23277
330
23276
100
AcDbEntity
  8
0
100
AcDbBlockBegin
  2
*D24
 70
     1
 10
0.0
 20
0.0
 30
0.0
  3
*D24
  1

  0
LINE
  5
23502
330
23276
100
AcDbEntity
  8
2
 62
     0
440
 16777216
370
    -2
100
AcDbLine
 10
40.0625
 20
25.00000000000003
 30
0.0
 11
59.51923501055069
 21
25.00000000000002
 31
0.0
  0
LINE
  5
23503
330
23276
100
AcDbEntity
  8
2
 62
     0
440
 16777216
370
    -2
100
AcDbLine
 10
40.06250000000003
 20
-25.0
 30
0.0
 11
59.51923501055067
 21
-25.0
 31
0.0
  0
LINE
  5
23504
330
23276
100
AcDbEntity
  8
2
 62
     0
440
 16777216
370
    -2
100
AcDbLine
 10
59.33923501055069
 20
20.43000000000002
 30
0.0
 11
59.33923501055067
 21
-20.43000000000001
 31
0.0
  0
SOLID
  5
23505
330
23276
100
AcDbEntity
  8
2
 62
     0
440
 16777216
100
AcDbTrace
 10
58.57756834388402
 20
20.43000000000002
 30
0.0
 11
60.10090167721735
 21
20.43000000000002
 31
0.0
 12
59.33923501055069
 22
25.00000000000002
 32
0.0
 13
59.33923501055069
 23
25.00000000000002
 33
0.0
  0
SOLID
  5
23506
330
23276
100
AcDbEntity
  8
2
 62
     0
440
 16777216
100
AcDbTrace
 10
58.577568343884
 20
-20.43000000000001
 30
0.0
 11
60.10090167721735
 21
-20.43000000000001
 31
0.0
 12
59.33923501055067
 22
-25.0
 32
0.0
 13
59.33923501055067
 23
-25.0
 33
0.0
  0
MTEXT
  5
23507
330
23276
100
AcDbEntity
  8
2
 62
     0
440
 16777216
100
AcDbMText
 10
57.38609375967225
 20
0.6987394988942983
 30
0.0
 40
3.5
 41
0.0
 46
0.0
 71
     5
 72
     1
  1
\A1;%%C50
 11
0.0000000000000001
 21
1.0
 31
0.0
 73
     1
 44
1.0
  0
POINT
  5
23508
330
23276
100
AcDbEntity
  8
Defpoints
 62
     0
440
 16777216
100
AcDbPoint
 10
40.0
 20
25.00000000000003
 30
0.0
  0
POINT
  5
23509
330
23276
100
AcDbEntity
  8
Defpoints
 62
     0
440
 16777216
100
AcDbPoint
 10
40.00000000000002
 20
-25.0
 30
0.0
  0
POINT
  5
2350A
330
23276
100
AcDbEntity
  8
Defpoints
 62
     0
440
 16777216
100
AcDbPoint
 10
59.33923501055067
 20
-25.0
 30
0.0
  0
ENDBLK
  5
23278
330
23276
100
AcDbEntity
  8
0
100
AcDbBlockEnd
  0
BLOCK
  5
23283
330
23282
100
AcDbEntity
  8
0
100
AcDbBlockBegin
  2
*D25
 70
     1
 10
0.0
 20
0.0
 30
0.0
  3
*D25
  1

  0
LINE
  5
234E7
330
23282
100
AcDbEntity
  8
2
 62
     0
440
 16777216
370
    -2
100
AcDbLine
 10
40.0
 20
23.56691046943339
 30
0.0
 11
40.0
 21
32.75853431403342
 31
0.0
  0
LINE
  5
234E8
330
23282
100
AcDbEntity
  8
2
 62
     0
440
 16777216
370
    -2
100
AcDbLine
 10
0.0
 20
22.16644865640004
 30
0.0
 11
0.0000000000000007
 21
32.75853431403342
 31
0.0
  0
LINE
  5
234E9
330
23282
100
AcDbEntity
  8
2
 62
     0
440
 16777216
370
    -2
100
AcDbLine
 10
35.43
 20
32.57853431403342
 30
0.0
 11
4.570000000000001
 21
32.57853431403342
 31
0.0
  0
SOLID
  5
234EA
330
23282
100
AcDbEntity
  8
2
 62
     0
440
 16777216
100
AcDbTrace
 10
35.43
 20
33.34020098070009
 30
0.0
 11
35.43
 21
31.81686764736675
 31
0.0
 12
40.0
 22
32.57853431403342
 32
0.0
 13
40.0
 23
32.57853431403342
 33
0.0
  0
SOLID
  5
234EB
330
23282
100
AcDbEntity
  8
2
 62
     0
440
 16777216
100
AcDbTrace
 10
4.570000000000001
 20
33.34020098070009
 30
0.0
 11
4.570000000000001
 21
31.81686764736675
 31
0.0
 12
0.0000000000000006
 22
32.57853431403342
 32
0.0
 13
0.0000000000000006
 23
32.57853431403342
 33
0.0
  0
MTEXT
  5
234EC
330
23282
100
AcDbEntity
  8
2
 62
     0
440
 16777216
100
AcDbMText
 10
20.0
 20
34.48002412429344
 30
0.0
 40
3.5
 41
0.0
 46
0.0
 71
     5
 72
     1
  1
\A1;40
 73
     1
 44
1.0
  0
POINT
  5
234ED
330
23282
100
AcDbEntity
  8
Defpoints
 62
     0
440
 16777216
100
AcDbPoint
 10
40.0
 20
23.50441046943339
 30
0.0
  0
POINT
  5
234EE
330
23282
100
AcDbEntity
  8
Defpoints
 62
     0
440
 16777216
100
AcDbPoint
 10
0.0
 20
22.10394865640004
 30
0.0
  0
POINT
  5
234EF
330
23282
100
AcDbEntity
  8
Defpoints
 62
     0
440
 16777216
100
AcDbPoint
 10
0.0000000000000006
 20
32.57853431403342
 30
0.0
  0
ENDBLK
  5
23284
330
23282
100
AcDbEntity
  8
0
100
AcDbBlockEnd
  0
ENDSEC
  0
SECTION
  2
ENTITIES
  0
INSERT
  5
230C6
330
1F
100
AcDbEntity
  8
1
100
AcDbBlockReference
  2
cero_point
 10
0.0000000000000568
 20
0.0
 30
0.0
 41
0.5
 42
0.5
 43
0.5
  0
LINE
  5
230C7
330
1F
100
AcDbEntity
  8
INFTOTAL
370
    18
100
AcDbLine
 10
80.50787571791188
 20
-50.59376928802336
 30
0.0
 11
80.50787571791188
 21
-25.27158921846527
 31
0.0
  0
LINE
  5
230C8
330
1F
100
AcDbEntity
  8
INFTOTAL
370
    18
100
AcDbLine
 10
-37.23814828151518
 20
57.11056539747453
 30
0.0
 11
-8.922434254509255
 21
57.11056539747453
 31
0.0
  0
LINE
  5
230C9
330
1F
100
AcDbEntity
  8
INFTOTAL
370
    18
100
AcDbLine
 10
54.36028004860048
 20
-50.59376928802336
 30
0.0
 11
80.50787571791188
 21
-50.59376928802336
 31
0.0
  0
LINE
  5
230CA
330
1F
100
AcDbEntity
  8
INFTOTAL
370
    18
100
AcDbLine
 10
-37.23814828151518
 20
31.19149975724588
 30
0.0
 11
-37.23814828151518
 21
57.11056539747445
 31
0.0
  0
MTEXT
  5
230CB
330
1F
100
AcDbEntity
  8
SK6
100
AcDbMText
 10
36.89221850524308
 20
-38.78862278246484
 30
0.0
 40
3.5
 41
41.87058589293636
 46
0.0
 71
     2
 72
     1
  1
2F6D050R00
 73
     1
 44
1.0
  0
LINE
  5
230CC
330
1F
100
AcDbEntity
  8
3
100
AcDbLine
 10
1.0
 20
11.05000000000002
 30
0.0
 11
1.0
 21
5.227500000000048
 31
0.0
  0
LINE
  5
230CD
330
1F
100
AcDbEntity
  8
3
100
AcDbLine
 10
1.0
 20
-5.227499999999935
 30
0.0
 11
1.0
 21
-11.04999999999992
 31
0.0
  0
LINE
  5
230CE
330
1F
100
AcDbEntity
  8
3
100
AcDbLine
 10
7.5
 20
-10.99999999999997
 30
0.0
 11
7.5
 21
11.00000000000003
 31
0.0
  0
LINE
  5
230CF
330
1F
100
AcDbEntity
  8
3
100
AcDbLine
 10
17.99833147733341
 20
-11.19999999999996
 30
0.0
 11
19.32867965643334
 21
-11.19999999999996
 31
0.0
  0
LINE
  5
230D0
330
1F
100
AcDbEntity
  8
3
100
AcDbLine
 10
1.0
 20
-11.04999999999992
 30
0.0
 11
7.30635083266668
 21
-11.04999999999992
 31
0.0
  0
LINE
  5
230D1
330
1F
100
AcDbEntity
  8
3
100
AcDbLine
 10
7.5
 20
-10.99999999999997
 30
0.0
 11
17.25
 21
-10.99999999999997
 31
0.0
  0
LINE
  5
230D2
330
1F
100
AcDbEntity
  8
3
100
AcDbLine
 10
19.32867965643334
 20
11.20000000000006
 30
0.0
 11
19.68933982819999
 21
11.56066017180004
 31
0.0
  0
LINE
  5
230D3
330
1F
100
AcDbEntity
  8
3
100
AcDbLine
 10
27.90000000000004
 20
-8.999999999999971
 30
0.0
 11
36.90000000000003
 21
-8.999999999999971
 31
0.0
  0
LINE
  5
230D4
330
1F
100
AcDbEntity
  8
3
100
AcDbLine
 10
19.32867965643334
 20
-11.19999999999996
 30
0.0
 11
19.68933982819999
 21
-11.56066017176661
 31
0.0
  0
LINE
  5
230D5
330
1F
100
AcDbEntity
  8
3
100
AcDbLine
 10
21.8106601717667
 20
9.439339828233386
 30
0.0
 11
21.25
 21
8.878679656433376
 31
0.0
  0
LINE
  5
230D6
330
1F
100
AcDbEntity
  8
3
100
AcDbLine
 10
21.75
 20
-5.499999999999971
 30
0.0
 11
27.40000000000004
 21
-5.499999999999971
 31
0.0
  0
LINE
  5
230D7
330
1F
100
AcDbEntity
  8
3
100
AcDbLine
 10
21.25
 20
-8.878679656433263
 30
0.0
 11
21.8106601717667
 21
-9.439339828199962
 31
0.0
  0
LINE
  5
230D8
330
1F
100
AcDbEntity
  8
3
100
AcDbLine
 10
17.25
 20
-10.99999999999997
 30
0.0
 11
17.25
 21
11.00000000000003
 31
0.0
  0
LINE
  5
230D9
330
1F
100
AcDbEntity
  8
3
100
AcDbLine
 10
19.32867965643334
 20
-11.19999999999996
 30
0.0
 11
19.32867965643334
 21
11.20000000000006
 31
0.0
  0
LINE
  5
230DA
330
1F
100
AcDbEntity
  8
3
100
AcDbLine
 10
0.0
 20
-11.62735026919992
 30
0.0
 11
1.0
 21
-11.04999999999992
 31
0.0
  0
LINE
  5
230DB
330
1F
100
AcDbEntity
  8
3
100
AcDbLine
 10
0.0
 20
11.62735026920003
 30
0.0
 11
1.0
 21
11.05000000000002
 31
0.0
  0
LINE
  5
230DC
330
1F
100
AcDbEntity
  8
3
100
AcDbLine
 10
21.25
 20
-8.878679656433263
 30
0.0
 11
21.25
 21
8.878679656433376
 31
0.0
  0
LINE
  5
230DD
330
1F
100
AcDbEntity
  8
3
100
AcDbLine
 10
21.75
 20
-5.499999999999971
 30
0.0
 11
21.75
 21
5.500000000000028
 31
0.0
  0
LINE
  5
230DE
330
1F
100
AcDbEntity
  8
3
100
AcDbLine
 10
27.40000000000004
 20
5.500000000000028
 30
0.0
 11
27.90000000000004
 21
6.000000000000028
 31
0.0
  0
LINE
  5
230DF
330
1F
100
AcDbEntity
  8
3
100
AcDbLine
 10
27.40000000000004
 20
-5.499999999999971
 30
0.0
 11
27.90000000000004
 21
-5.999999999999971
 31
0.0
  0
LINE
  5
230E0
330
1F
100
AcDbEntity
  8
3
100
AcDbLine
 10
21.25
 20
-5.999999999999971
 30
0.0
 11
21.75
 21
-5.499999999999971
 31
0.0
  0
LINE
  5
230E1
330
1F
100
AcDbEntity
  8
3
100
AcDbLine
 10
21.75
 20
5.500000000000028
 30
0.0
 11
27.40000000000004
 21
5.500000000000028
 31
0.0
  0
LINE
  5
230E2
330
1F
100
AcDbEntity
  8
3
100
AcDbLine
 10
21.25
 20
6.000000000000028
 30
0.0
 11
21.75
 21
5.500000000000028
 31
0.0
  0
LINE
  5
230E3
330
1F
100
AcDbEntity
  8
3
100
AcDbLine
 10
27.40000000000004
 20
-5.499999999999971
 30
0.0
 11
27.40000000000004
 21
5.500000000000028
 31
0.0
  0
LINE
  5
230E4
330
1F
100
AcDbEntity
  8
3
100
AcDbLine
 10
27.90000000000004
 20
-8.999999999999971
 30
0.0
 11
27.90000000000004
 21
9.000000000000028
 31
0.0
  0
LINE
  5
230E5
330
1F
100
AcDbEntity
  8
3
100
AcDbLine
 10
27.90000000000004
 20
9.000000000000028
 30
0.0
 11
36.90000000000003
 21
9.000000000000028
 31
0.0
  0
LINE
  5
230E6
330
1F
100
AcDbEntity
  8
3
100
AcDbLine
 10
7.5
 20
11.00000000000003
 30
0.0
 11
17.25
 21
11.00000000000003
 31
0.0
  0
LINE
  5
230E7
330
1F
100
AcDbEntity
  8
3
100
AcDbLine
 10
1.0
 20
11.05000000000002
 30
0.0
 11
7.30635083266668
 21
11.05000000000002
 31
0.0
  0
LINE
  5
230E8
330
1F
100
AcDbEntity
  8
3
100
AcDbLine
 10
17.99833147733341
 20
11.20000000000006
 30
0.0
 11
19.32867965643334
 21
11.20000000000006
 31
0.0
  0
LINE
  5
230E9
330
1F
100
AcDbEntity
  8
3
100
AcDbLine
 10
37.97596123493332
 20
14.5396184773667
 30
0.0
 11
39.59999999999997
 21
23.75000000000003
 31
0.0
  0
LINE
  5
230EA
330
1F
100
AcDbEntity
  8
3
100
AcDbLine
 10
37.97596123493332
 20
-14.53961847736664
 30
0.0
 11
39.59999999999997
 21
-23.74999999999997
 31
0.0
  0
LINE
  5
230EB
330
1F
100
AcDbEntity
  8
3
100
AcDbLine
 10
37.90000000000004
 20
-13.67137758899994
 30
0.0
 11
37.90000000000004
 21
13.67137758903337
 31
0.0
  0
ARC
  5
230EC
330
1F
100
AcDbEntity
  8
3
100
AcDbCircle
 10
20.75
 20
-10.49999999999997
 30
0.0
 40
1.5
100
AcDbArc
 50
224.9999999999996
 51
44.99999999999964
  0
ARC
  5
230ED
330
1F
100
AcDbEntity
  8
3
100
AcDbCircle
 10
17.99833147733341
 20
-9.69999999999996
 30
0.0
 40
1.5
100
AcDbArc
 50
240.073565133398
 51
270.0
  0
ARC
  5
230EE
330
1F
100
AcDbEntity
  8
3
100
AcDbCircle
 10
7.30635083266668
 20
-10.64999999999995
 30
0.0
 40
0.4
100
AcDbArc
 50
270.0
 51
298.9550243719
  0
ARC
  5
230EF
330
1F
100
AcDbEntity
  8
3
100
AcDbCircle
 10
20.75
 20
10.50000000000003
 30
0.0
 40
1.5
100
AcDbArc
 50
315.0000000000003
 51
135.0000000000003
  0
ARC
  5
230F0
330
1F
100
AcDbEntity
  8
3
100
AcDbCircle
 10
17.99833147733341
 20
9.700000000000073
 30
0.0
 40
1.5
100
AcDbArc
 50
90.0
 51
119.9264348666002
  0
ARC
  5
230F1
330
1F
100
AcDbEntity
  8
3
100
AcDbCircle
 10
7.30635083266668
 20
10.65000000000006
 30
0.0
 40
0.4
100
AcDbArc
 50
61.0449756281
 51
90.0
  0
ARC
  5
230F2
330
1F
100
AcDbEntity
  8
3
100
AcDbCircle
 10
42.90000000000003
 20
-13.67137758899994
 30
0.0
 40
5.0
100
AcDbArc
 50
180.0
 51
190.0000000000018
  0
ARC
  5
230F3
330
1F
100
AcDbEntity
  8
3
100
AcDbCircle
 10
36.90000000000003
 20
-9.999999999999971
 30
0.0
 40
1.0
100
AcDbArc
 50
0.0000000012017917
 51
90.0
  0
ARC
  5
230F4
330
1F
100
AcDbEntity
  8
3
100
AcDbCircle
 10
42.90000000000003
 20
13.67137758903337
 30
0.0
 40
5.0
100
AcDbArc
 50
169.9999999999981
 51
180.0
  0
ARC
  5
230F5
330
1F
100
AcDbEntity
  8
3
100
AcDbCircle
 10
36.90000000000003
 20
10.00000000000003
 30
0.0
 40
1.0
100
AcDbArc
 50
270.0
 51
359.9999999966975
  0
DIMENSION
  5
230F7
330
1F
100
AcDbEntity
  8
2
100
AcDbDimension
280
     0
  2
*D25
 10
0.0000000000000006
 20
32.57853431403342
 30
0.0
 11
20.0
 21
32.57853431403342
 31
0.0
 70
   160
 71
     5
 42
40.0
 73
     0
 74
     0
 75
     0
  3
STANDARD
100
AcDbAlignedDimension
 13
40.0
 23
23.50441046943339
 33
0.0
 14
0.0
 24
22.10394865640004
 34
0.0
 50
180.0
100
AcDbRotatedDimension
  0
LINE
  5
230F8
330
1F
100
AcDbEntity
  8
1
100
AcDbLine
 10
39.68063883743332
 20
-23.8916589071666
 30
0.0
 11
39.9666774753
 21
-23.26644662689998
 31
0.0
  0
LINE
  5
230F9
330
1F
100
AcDbEntity
  8
1
100
AcDbLine
 10
39.47824746863336
 20
-23.48214366723332
 30
0.0
 11
39.48012613650002
 21
-23.47803734706665
 31
0.0
  0
LWPOLYLINE
  5
230FA
330
1F
100
AcDbEntity
  8
1
100
AcDbPolyline
 90
        4
 70
     0
 43
0.0
 10
39.33159597133334
 20
17.65819332020007
 10
39.27346977439999
 20
17.72015361096672
 10
39.21057249979998
 20
17.77912287840004
 10
39.17772179786664
 20
17.80623415043337
  0
LWPOLYLINE
  5
230FB
330
1F
100
AcDbEntity
  8
1
100
AcDbPolyline
 90
        7
 70
     0
 43
0.0
 10
36.63468860519998
 20
-20.91591401379995
 10
36.64169991066666
 20
-20.91287604283329
 10
36.71383904789997
 20
-20.87600172309996
 10
36.78330183916666
 20
-20.83469438843329
 10
36.84979083413333
 20
-20.78913092316665
 10
36.91302131676668
 20
-20.73950643709995
 10
36.9341119939333
 20
-20.72061599956666
  0
LWPOLYLINE
  5
230FC
330
1F
100
AcDbEntity
  8
1
100
AcDbPolyline
 90
        7
 70
     0
 43
0.0
 10
36.61529537813334
 20
-20.92496285673329
 10
36.67004931150001
 20
-20.89907493299998
 10
36.72341547443335
 20
-20.87066007123329
 10
36.77526644313332
 20
-20.83978611836662
 10
36.82547841176666
 20
-20.80652679289997
 10
36.87393148796668
 20
-20.77096150896662
 10
36.92151365673334
 20
-20.73231884429995
  0
LWPOLYLINE
  5
230FD
330
1F
100
AcDbEntity
  8
1
100
AcDbPolyline
 90
       13
 70
     0
 43
0.0
 10
37.1673533046
 20
-19.30755876599997
 10
37.18499836806666
 20
-19.29341239599998
 10
37.20130503106663
 20
-19.27822159786663
 10
37.21627329359995
 20
-19.26198637149994
 10
37.22997393226666
 20
-19.24460120343329
 10
37.24233617043331
 20
-19.22617160719997
 10
37.25314767846664
 20
-19.20701412339994
 10
37.26238166816666
 20
-19.18711617809995
 10
37.27006492766662
 20
-19.16649034523331
 10
37.2760654919
 20
-19.14549088726662
 10
37.28035429303333
 20
-19.12411134999999
 10
37.2829603989
 20
-19.10235818763325
 10
37.28383904790002
 20
-19.08060502529994
  0
LWPOLYLINE
  5
230FE
330
1F
100
AcDbEntity
  8
1
100
AcDbPolyline
 90
        3
 70
     0
 43
0.0
 10
36.97233056839997
 20
-20.77651255069995
 10
37.08382121476666
 20
-20.67011658419998
 10
37.13954753763329
 20
-20.59417802909999
  0
LWPOLYLINE
  5
230FF
330
1F
100
AcDbEntity
  8
1
100
AcDbPolyline
 90
        3
 70
     0
 43
0.0
 10
36.91724664443331
 20
18.25821941950008
 10
36.97644995349998
 20
18.13780086146673
 10
37.02423314853331
 20
17.97926813510005
  0
LWPOLYLINE
  5
23100
330
1F
100
AcDbEntity
  8
1
100
AcDbPolyline
 90
       13
 70
     0
 43
0.0
 10
36.60660398959999
 20
18.33848884043337
 10
36.61586869406665
 20
18.33089761363337
 10
36.65700153313333
 20
18.29177795903339
 10
36.69475844679999
 20
18.25009785986671
 10
36.72908300736668
 20
18.20581451910007
 10
36.76003164253331
 20
18.15897073380009
 10
36.78708992050002
 20
18.1103451467001
 10
36.81019281509998
 20
18.05990797553338
 10
36.82940535253334
 20
18.0076890025667
 10
36.84440817983335
 20
17.95455621753339
 10
36.85509484599999
 20
17.90079895033338
 10
36.86157180200002
 20
17.84612787106673
 10
36.8638390479
 20
17.79054297973337
  0
LWPOLYLINE
  5
23101
330
1F
100
AcDbEntity
  8
1
100
AcDbPolyline
 90
        7
 70
     0
 43
0.0
 10
39.53947801980002
 20
16.93894625460004
 10
39.55118431773332
 20
16.93171422343336
 10
39.56229884486669
 20
16.92254000866674
 10
39.57279447523331
 20
16.91109341470005
 10
39.58262047516667
 20
16.89726723836671
 10
39.59170911723333
 20
16.88117913183336
 10
39.59999999999997
 20
16.86283765970003
  0
LINE
  5
23102
330
1F
100
AcDbEntity
  8
1
100
AcDbLine
 10
36.70443232003333
 20
-23.94999999999996
 30
0.0
 11
20.39445810386667
 21
-23.94999999999996
 31
0.0
  0
LINE
  5
23103
330
1F
100
AcDbEntity
  8
1
100
AcDbLine
 10
37.54791329336666
 20
-23.22041747123329
 30
0.0
 11
37.19710435270002
 21
-23.22041747123329
 31
0.0
  0
LWPOLYLINE
  5
23104
330
1F
100
AcDbEntity
  8
1
100
AcDbPolyline
 90
       13
 70
     0
 43
0.0
 10
36.42256786143332
 20
-18.38090996459996
 10
36.44425161746665
 20
-18.37335995559996
 10
36.46619741976662
 20
-18.36744489379995
 10
36.48840526836665
 20
-18.36316477919998
 10
36.51100158639997
 20
-18.36051565773331
 10
36.5338599507333
 20
-18.35950148343326
 10
36.55660109196669
 20
-18.36013411849998
 10
36.57922779669997
 20
-18.3624405341333
 10
36.6017372783333
 20
-18.36639375913327
 10
36.62374190769998
 20
-18.37192474179997
 10
36.64511247510001
 20
-18.37901046496662
 10
36.66597819026669
 20
-18.38767394576663
 10
36.68633905313328
 20
-18.39791518429999
  0
LWPOLYLINE
  5
23105
330
1F
100
AcDbEntity
  8
1
100
AcDbPolyline
 90
       25
 70
     0
 43
0.0
 10
35.7551102343333
 20
-20.08729037593329
 10
35.73347681183333
 20
-20.09483055393329
 10
35.71156675996667
 20
-20.10074007569992
 10
35.68938007873334
 20
-20.10501894126659
 10
35.66678582726666
 20
-20.10767300983329
 10
35.64391494643331
 20
-20.1086964222333
 10
35.62116025886667
 20
-20.10807160056661
 10
35.5985237718333
 20
-20.10577007239996
 10
35.57600347803333
 20
-20.10182031019994
 10
35.55398617866666
 20
-20.09629015379997
 10
35.53248056266665
 20
-20.08915230256659
 10
35.51147794106663
 20
-20.08043405709995
 10
35.4913390479
 20
-20.07028515913331
 10
35.47207880369996
 20
-20.05868089473333
 10
35.45368228796667
 20
-20.04564597783329
 10
35.43646547309999
 20
-20.03140429179993
 10
35.42044873793333
 20
-20.01593499026663
 10
35.40561170370001
 20
-19.99925891959995
 10
35.39220920629998
 20
-19.9816625024666
 10
35.38026602679997
 20
-19.96312984029995
 10
35.36975738413332
 20
-19.94367683169994
 10
35.36086377129999
 20
-19.92363759503328
 10
35.35364535263335
 20
-19.90312350313329
 10
35.34804196376666
 20
-19.88202318319995
 10
35.34405360473335
 20
-19.86033663523332
  0
LWPOLYLINE
  5
23106
330
1F
100
AcDbEntity
  8
1
100
AcDbPolyline
 90
       13
 70
     0
 43
0.0
 10
36.42256786143332
 20
-18.38090996459996
 10
36.36872768036665
 20
-18.40003535583329
 10
36.31417498416664
 20
-18.41570153119997
 10
36.2589097728
 20
-18.42790849066662
 10
36.20269454126668
 20
-18.43667839063332
 10
36.14576679456667
 20
-18.44198907469999
 10
36.08883904789997
 20
-18.44377407366662
 10
36.03191130119995
 20
-18.44198907469999
 10
35.97498355453331
 20
-18.43667839063332
 10
35.91876832296663
 20
-18.42790849066662
 10
35.86350311163329
 20
-18.41570153119997
 10
35.80895041539998
 20
-18.40003535583329
 10
35.7551102343333
 20
-18.38090996459996
  0
LWPOLYLINE
  5
23107
330
1F
100
AcDbEntity
  8
1
100
AcDbPolyline
 90
       16
 70
     0
 43
0.0
 10
35.7551102343333
 20
-20.08729037593329
 10
35.79796758919997
 20
-20.07174283079994
 10
35.84137125513331
 20
-20.05839304486662
 10
35.88532123216663
 20
-20.04724101806662
 10
35.92993842993332
 20
-20.03826861369995
 10
35.97510193879998
 20
-20.03149396849997
 10
36.02044902973336
 20
-20.02697149276659
 10
36.06598118113334
 20
-20.02471932329999
 10
36.11169691463334
 20
-20.02471932329999
 10
36.15722906603333
 20
-20.02697149276659
 10
36.20257615696664
 20
-20.03149396849997
 10
36.24773966583331
 20
-20.03826861369995
 10
36.29235686359999
 20
-20.04724101806662
 10
36.33630684063331
 20
-20.05839304486662
 10
36.37971050656665
 20
-20.07174283079994
 10
36.42256786143332
 20
-20.08729037593329
  0
LWPOLYLINE
  5
23108
330
1F
100
AcDbEntity
  8
1
100
AcDbPolyline
 90
       13
 70
     0
 43
0.0
 10
35.49134265136667
 20
-18.39791319183328
 10
35.51170333953332
 20
-18.38767237053329
 10
35.53256884726665
 20
-18.37900926393328
 10
35.55393917453335
 20
-18.3719238720333
 10
35.57594352543333
 20
-18.36639317976661
 10
35.59845269586669
 20
-18.36244020219996
 10
35.62107907366664
 20
-18.36013398449998
 10
35.64381987090002
 20
-18.35950149583331
 10
35.66667787546663
 20
-18.36051576706663
 10
35.68927383896664
 20
-18.3631649357666
 10
35.71148134516665
 20
-18.36744504786665
 10
35.73342681029999
 20
-18.37336005746661
 10
35.7551102343333
 20
-18.38090996459996
  0
LWPOLYLINE
  5
23109
330
1F
100
AcDbEntity
  8
1
100
AcDbPolyline
 90
        6
 70
     0
 43
0.0
 10
34.94065909733331
 20
-19.23409843496662
 10
34.94763894189998
 20
-19.22368382449994
 10
34.9613361323
 20
-19.20629447476662
 10
34.97631610783333
 20
-19.19004234546659
 10
34.99264566079995
 20
-19.17482471206662
 10
35.01032479116663
 20
-19.16064157453329
  0
LWPOLYLINE
  5
2310A
330
1F
100
AcDbEntity
  8
1
100
AcDbPolyline
 90
        3
 70
     0
 43
0.0
 10
38.07551835733335
 20
-19.88805006196659
 10
38.08798701179995
 20
-19.86027963419994
 10
38.12344278893334
 20
-19.77395601936663
  0
LINE
  5
2310B
330
1F
100
AcDbEntity
  8
1
100
AcDbLine
 10
38.03451185523335
 20
-19.9708939805333
 30
0.0
 11
38.04501450903331
 21
-19.94538154449995
 31
0.0
  0
LWPOLYLINE
  5
2310C
330
1F
100
AcDbEntity
  8
1
100
AcDbPolyline
 90
       67
 70
     0
 43
0.0
 10
38.12344278893334
 20
-19.77395601936663
 10
38.154497661
 20
-19.68609560406659
 10
38.18105919166664
 20
-19.59733137686666
 10
38.20312738086665
 20
-19.50766333776661
 10
38.22073181773334
 20
-19.41688457779995
 10
38.23384291316666
 20
-19.32520200593328
 10
38.24237189989998
 20
-19.23323634906663
 10
38.24628768509996
 20
-19.14098568623328
 10
38.24562136163331
 20
-19.04845193843332
 10
38.24037744073331
 20
-18.9562615953333
 10
38.23052486019998
 20
-18.86441698716666
 10
38.21609468226666
 20
-18.77291578366666
 10
38.19718460486667
 20
-18.68237748386659
 10
38.17376422870001
 20
-18.59280862169996
 10
38.14586395309999
 20
-18.50420266316664
 10
38.11367267383332
 20
-18.41715950533327
 10
38.07716127336664
 20
-18.33168975289996
 10
38.03635886926662
 20
-18.2477828011333
 10
37.99154170973333
 20
-18.16600673296662
 10
37.94268255179998
 20
-18.08637600796661
 10
37.88980863846666
 20
-18.00887616653327
 10
37.83327794679997
 20
-17.93403191296661
 10
37.77306566296664
 20
-17.86186126726662
 10
37.7091966008
 20
-17.79234620946661
 10
37.64210317883334
 20
-17.72595738366667
 10
37.57176351756664
 20
-17.66271600353329
 10
37.49819949646667
 20
-17.60260085546665
 10
37.4219091728333
 20
-17.54601894246664
 10
37.34287404676667
 20
-17.49299424003331
 10
37.26111261813333
 20
-17.44350277273329
 10
37.17717844379996
 20
-17.39787961709996
 10
37.09105678016664
 20
-17.35615102243329
 10
37.00276237083329
 20
-17.31829073943331
 10
36.91289300356664
 20
-17.28455509709997
 10
36.82143799109997
 20
-17.25497208399994
 10
36.72840802066668
 20
-17.22951371149995
 10
36.63443294159999
 20
-17.20835234283331
 10
36.5395063406333
 20
-17.19151713613328
 10
36.44363463099995
 20
-17.17897893323331
 10
36.3474669017333
 20
-17.17082262263327
 10
36.25100114409998
 20
-17.1670779386333
 10
36.15423936683334
 20
-17.16771514693332
 10
36.05783668499999
 20
-17.17272993343331
 10
35.96179553536666
 20
-17.18215200303328
 10
35.86611348119999
 20
-17.19595165083328
 10
35.77143832743332
 20
-17.21403544779994
 10
35.6777769066
 20
-17.23643246489993
 10
35.5851223862
 20
-17.26311363116664
 10
35.49410207360001
 20
-17.2938983046333
 10
35.4047270580333
 20
-17.32881433053328
 10
35.31698625026667
 20
-17.36783386363331
 10
35.23147368993335
 20
-17.41069272646663
 10
35.14820449719997
 20
-17.45741697153332
 10
35.06716355190003
 20
-17.5079805463333
 10
34.98889953293332
 20
-17.56204111563326
 10
34.91343128366663
 20
-17.61962240903327
 10
34.84073996076666
 20
-17.68070069693331
 10
34.77131771289999
 20
-17.74486245546663
 10
34.70518672303331
 20
-17.81212860806661
 10
34.64232480823336
 20
-17.88247823129992
 10
34.58315756826664
 20
-17.95543503059994
 10
34.52771007406665
 20
-18.03101669756663
 10
34.47595725466664
 20
-18.10920554063327
 10
34.42824949693335
 20
-18.18947219073331
 10
34.38470359646664
 20
-18.27164019153329
 10
34.34520275766664
 20
-18.35588599933325
 10
34.30974698053331
 20
-18.44220961416661
  0
LINE
  5
2310D
330
1F
100
AcDbEntity
  8
1
100
AcDbLine
 10
38.07602171916665
 20
-19.85743100999994
 30
0.0
 11
38.04501450903331
 21
-19.94538154449995
 31
0.0
  0
LINE
  5
2310E
330
1F
100
AcDbEntity
  8
1
100
AcDbLine
 10
39.71290588126663
 20
15.20476712170008
 30
0.0
 11
39.99861346673333
 21
13.14366049523338
 31
0.0
  0
LINE
  5
2310F
330
1F
100
AcDbEntity
  8
1
100
AcDbLine
 10
39.71555935409998
 20
15.66400444883337
 30
0.0
 11
39.99835798776667
 21
13.76792835856671
 31
0.0
  0
LINE
  5
23110
330
1F
100
AcDbEntity
  8
1
100
AcDbLine
 10
39.71394640929998
 20
15.66376387903338
 30
0.0
 11
39.99997895949997
 21
13.74600539330006
 31
0.0
  0
LWPOLYLINE
  5
23111
330
1F
100
AcDbEntity
  8
1
100
AcDbPolyline
 90
       16
 70
     0
 43
0.0
 10
34.77796653883331
 20
17.13361475683339
 10
34.87184964936665
 20
16.9874723337667
 10
35.0157386432
 20
16.82617482450004
 10
35.18640982326667
 20
16.68323047650008
 10
35.37283798026664
 20
16.56787336976671
 10
35.57606340176665
 20
16.48192483490007
 10
35.7950458002
 20
16.42356354130007
 10
36.01563910379997
 20
16.39655957766675
 10
36.23794966579999
 20
16.40298317853339
 10
36.46187113296668
 20
16.44076410936671
 10
36.67293837400001
 20
16.50746175496673
 10
36.87030274323331
 20
16.60498521870008
 10
37.05481288633331
 20
16.73142539720007
 10
37.21454960916668
 20
16.87861436536676
 10
37.34787735179998
 20
17.04792197390006
 10
37.45643167413329
 20
17.23797837203338
  0
LWPOLYLINE
  5
23112
330
1F
100
AcDbEntity
  8
1
100
AcDbPolyline
 90
        7
 70
     0
 43
0.0
 10
39.33159597133334
 20
-24.24348706793329
 10
39.27346977439999
 20
-24.23603135546662
 10
39.21057249979998
 20
-24.22648479726664
 10
39.14304965743332
 20
-24.21469322639993
 10
39.07106194356669
 20
-24.20050620023332
 10
38.99478500509997
 20
-24.18377751339998
 10
38.91440915226662
 20
-24.16436570809995
  0
LWPOLYLINE
  5
23113
330
1F
100
AcDbEntity
  8
1
100
AcDbPolyline
 90
       10
 70
     0
 43
0.0
 10
31.78853207486663
 20
-20.86234672276666
 10
31.73022518626664
 20
-20.86119605883332
 10
31.67218230143334
 20
-20.85790483526662
 10
31.6144034203
 20
-20.85247305203328
 10
31.55680251849998
 20
-20.84488611466665
 10
31.49946562046665
 20
-20.83515861763331
 10
31.44265079943335
 20
-20.82333434439997
 10
31.38644407983333
 20
-20.80942788946661
 10
31.33075943729995
 20
-20.79342465833329
 10
31.27559687176665
 20
-20.77532465096661
  0
LINE
  5
23114
330
1F
100
AcDbEntity
  8
1
100
AcDbLine
 10
31.88822159703335
 20
-20.86244655589994
 30
0.0
 11
31.78853207486663
 21
-20.86234672276666
 31
0.0
  0
LINE
  5
23115
330
1F
100
AcDbEntity
  8
1
100
AcDbLine
 10
36.74190416786667
 20
-22.55735738269996
 30
0.0
 11
20.39445810386667
 21
-22.55735738269996
 31
0.0
  0
LINE
  5
23116
330
1F
100
AcDbEntity
  8
1
100
AcDbLine
 10
13.58938415433334
 20
-22.49999999999997
 30
0.0
 11
1.0
 21
-22.49999999999997
 31
0.0
  0
LWPOLYLINE
  5
23117
330
1F
100
AcDbEntity
  8
1
100
AcDbPolyline
 90
       25
 70
     0
 43
0.0
 10
36.42256786143332
 20
-18.07391967463329
 10
36.4442012839333
 20
-18.06637949663329
 10
36.46611133580001
 20
-18.0604699748666
 10
36.48829801703329
 20
-18.0561911093333
 10
36.51089226849996
 20
-18.05353704073329
 10
36.53376314933331
 20
-18.05251362836665
 10
36.55651783690001
 20
-18.05313844999998
 10
36.57915432396663
 20
-18.05543997816662
 10
36.6016746177333
 20
-18.05938974036664
 10
36.62369191713333
 20
-18.06491989676667
 10
36.64519753309998
 20
-18.0720577480333
 10
36.66620015473331
 20
-18.08077599346663
 10
36.68633904789999
 20
-18.09092489143327
 10
36.70559929206667
 20
-18.10252915583325
 10
36.72399580783332
 20
-18.11556407273329
 10
36.74121262266664
 20
-18.12980575876665
 10
36.7572293578333
 20
-18.14527506029994
 10
36.77206639206662
 20
-18.16195113096663
 10
36.78546888946665
 20
-18.17954754809997
 10
36.79741206900002
 20
-18.19808021026662
 10
36.80792071163336
 20
-18.21753321889994
 10
36.81681432446664
 20
-18.23757245556666
 10
36.82403274316664
 20
-18.25808654743329
 10
36.82963613199996
 20
-18.27918686736663
 10
36.83362449103333
 20
-18.30087341533331
  0
LWPOLYLINE
  5
23118
330
1F
100
AcDbEntity
  8
1
100
AcDbPolyline
 90
       16
 70
     0
 43
0.0
 10
36.42256786143332
 20
-18.07391967463329
 10
36.37971050656665
 20
-18.08946721976665
 10
36.33630684063331
 20
-18.10281700573327
 10
36.29235686359999
 20
-18.11396903249996
 10
36.24773966583331
 20
-18.12294143686662
 10
36.20257615696664
 20
-18.12971608206666
 10
36.15722906603333
 20
-18.13423855779999
 10
36.11169691463334
 20
-18.13649072726659
 10
36.06598118113334
 20
-18.13649072726659
 10
36.02044902973336
 20
-18.13423855779999
 10
35.97510193879998
 20
-18.12971608206666
 10
35.92993842993332
 20
-18.12294143686662
 10
35.88532123216663
 20
-18.11396903249996
 10
35.84137125513331
 20
-18.10281700573327
 10
35.79796758919997
 20
-18.08946721976665
 10
35.7551102343333
 20
-18.07391967463329
  0
LINE
  5
23119
330
1F
100
AcDbEntity
  8
1
100
AcDbLine
 10
37.95230167576665
 20
-13.97197422863328
 30
0.0
 11
37.08619651636667
 21
-14.45167848086666
 31
0.0
  0
LWPOLYLINE
  5
2311A
330
1F
100
AcDbEntity
  8
1
100
AcDbPolyline
 90
       13
 70
     0
 43
0.0
 10
35.88746403553336
 20
-14.87755963626662
 10
35.51263348219999
 20
-15.16463294149994
 10
35.12617195793331
 20
-15.43507960876664
 10
34.72807946266665
 20
-15.68889963806666
 10
34.31742755193335
 20
-15.9266136227333
 10
33.89514467026669
 20
-16.14770096946663
 10
33.46401615116662
 20
-16.35059989819999
 10
33.02395726056665
 20
-16.53513331153326
 10
32.57505273256664
 20
-16.70147830686662
 10
32.12034210299999
 20
-16.84860439626661
 10
31.66083855053336
 20
-16.97616808376662
 10
31.19552889649998
 20
-17.08451286536663
 10
30.72441314093334
 20
-17.17363874099996
  0
LINE
  5
2311B
330
1F
100
AcDbEntity
  8
1
100
AcDbLine
 10
37.4482783273333
 20
-14.25113449093331
 30
0.0
 11
38.02182169656664
 21
-13.79188115273328
 31
0.0
  0
LINE
  5
2311C
330
1F
100
AcDbEntity
  8
1
100
AcDbLine
 10
37.08619651636667
 20
-14.45167848086666
 30
0.0
 11
30.65561298626665
 21
-19.60083913933326
 31
0.0
  0
LINE
  5
2311D
330
1F
100
AcDbEntity
  8
1
100
AcDbLine
 10
37.93082365949999
 20
-13.24138044076662
 30
0.0
 11
35.88746403553336
 21
-14.87755963626662
 31
0.0
  0
LINE
  5
2311E
330
1F
100
AcDbEntity
  8
1
100
AcDbLine
 10
30.65561298626665
 20
-19.60083913933326
 30
0.0
 11
30.62741755193332
 21
-19.62591061109995
 31
0.0
  0
LWPOLYLINE
  5
2311F
330
1F
100
AcDbEntity
  8
1
100
AcDbPolyline
 90
        4
 70
     0
 43
0.0
 10
37.96153757816666
 20
-12.8401867156999
 10
37.96945126113332
 20
-12.83124593826662
 10
38.00946155959997
 20
-12.77989738833329
 10
38.04501450903331
 20
-12.72745454449998
  0
LWPOLYLINE
  5
23120
330
1F
100
AcDbEntity
  8
1
100
AcDbPolyline
 90
        4
 70
     0
 43
0.0
 10
38.01819385369999
 20
-13.43596885046659
 10
38.04848617299996
 20
-13.40125956353327
 10
38.08798701179995
 20
-13.35010245143328
 10
38.12344278893334
 20
-13.29768361949996
  0
LWPOLYLINE
  5
23121
330
1F
100
AcDbEntity
  8
1
100
AcDbPolyline
 90
       11
 70
     0
 43
0.0
 10
38.12344278893334
 20
-13.29768361949996
 10
38.154497661
 20
-13.24433158653326
 10
38.18105919166664
 20
-13.19043072619993
 10
38.20312738086665
 20
-13.13598103846661
 10
38.22073181773334
 20
-13.08085688069994
 10
38.23384291316666
 20
-13.02518389556664
 10
38.24237189989998
 20
-12.96933901093328
 10
38.24628768509996
 20
-12.9133210603666
 10
38.24562136163331
 20
-12.85713121029991
 10
38.24037744073331
 20
-12.80114988803328
 10
38.23879776033328
 20
-12.79012845716662
  0
LWPOLYLINE
  5
23122
330
1F
100
AcDbEntity
  8
1
100
AcDbPolyline
 90
        5
 70
     0
 43
0.0
 10
38.1391500181
 20
-12.51561949923328
 10
38.12410205949999
 20
-12.56487571319994
 10
38.10240610126664
 20
-12.61980989613326
 10
38.07602171916665
 20
-12.67404778789998
 10
38.04501450903331
 20
-12.72745454449998
  0
LWPOLYLINE
  5
23123
330
1F
100
AcDbEntity
  8
1
100
AcDbPolyline
 90
       55
 70
     0
 43
0.0
 10
37.83618170163334
 20
-19.20804957089998
 10
37.82821773320001
 20
-19.29996079189996
 10
37.81497132883334
 20
-19.39131289986662
 10
37.7964827175
 20
-19.48182846149993
 10
37.77280804843332
 20
-19.57123258396663
 10
37.74401922086662
 20
-19.65925374989999
 10
37.71020366549999
 20
-19.7456246419666
 10
37.67146407909996
 20
-19.83008295449994
 10
37.62791811249997
 20
-19.91237219046658
 10
37.57969801336668
 20
-19.99224244013331
 10
37.52695022453333
 20
-20.06945114016659
 10
37.46983493933334
 20
-20.1437638103333
 10
37.40852561499997
 20
-20.21495476539994
 10
37.34320844593333
 20
-20.28280780086661
 10
37.27408179823334
 20
-20.3471168492666
 10
37.20135560726664
 20
-20.40768660609999
 10
37.12525074006663
 20
-20.4643331230333
 10
37.04599832460002
 20
-20.51688436646665
 10
36.96383904789997
 20
-20.56518073999993
 10
36.87902242493334
 20
-20.60907556913329
 10
36.79180604103334
 20
-20.6484355466666
 10
36.70245476946667
 20
-20.68314113769995
 10
36.61123996713332
 20
-20.71308694249998
 10
36.51843865040002
 20
-20.73818201656664
 10
36.42433265376667
 20
-20.75835014706663
 10
36.32920777406667
 20
-20.77353008399993
 10
36.23335290246667
 20
-20.7836757264333
 10
36.13705914703331
 20
-20.7887562623666
 10
36.04061894873331
 20
-20.7887562623666
 10
35.94432519330002
 20
-20.7836757264333
 10
35.84847032169995
 20
-20.77353008399993
 10
35.75334544203332
 20
-20.75835014706663
 10
35.65923944539998
 20
-20.73818201656664
 10
35.56643812863331
 20
-20.71308694249998
 10
35.47522332629995
 20
-20.68314113769995
 10
35.38587205473329
 20
-20.6484355466666
 10
35.29865567083329
 20
-20.60907556913329
 10
35.21383904789997
 20
-20.56518073999993
 10
35.13167977116666
 20
-20.51688436646665
 10
35.0524273557333
 20
-20.4643331230333
 10
34.9763224885333
 20
-20.40768660609999
 10
34.90359629753328
 20
-20.3471168492666
 10
34.83446964983335
 20
-20.28280780086661
 10
34.76915248076665
 20
-20.21495476539994
 10
34.70784315643328
 20
-20.1437638103333
 10
34.6507278712333
 20
-20.06945114016659
 10
34.59798008243331
 20
-19.99224244013331
 10
34.54975998326665
 20
-19.91237219046658
 10
34.50621401666666
 20
-19.83008295449994
 10
34.46747443026669
 20
-19.7456246419666
 10
34.43365887490001
 20
-19.65925374989999
 10
34.40487004733331
 20
-19.57123258396663
 10
34.3811953783
 20
-19.48182846149993
 10
34.36270676693329
 20
-19.39131289986662
 10
34.34946036256662
 20
-19.29996079189996
  0
LINE
  5
23124
330
1F
100
AcDbEntity
  8
1
100
AcDbLine
 10
38.5425861993333
 20
-9.913185514833259
 30
0.0
 11
38.54224096573336
 21
-9.925302420366591
 31
0.0
  0
LWPOLYLINE
  5
23125
330
1F
100
AcDbEntity
  8
1
100
AcDbPolyline
 90
       55
 70
     0
 43
0.0
 10
39.59999999999997
 20
-23.95996420436663
 10
39.59980690443331
 20
-23.96716794506662
 10
39.59938494080001
 20
-23.97441040623332
 10
39.5987294693
 20
-23.98169110606662
 10
39.59778901106665
 20
-23.98910649279995
 10
39.5965966998333
 20
-23.99655816166663
 10
39.59527809616663
 20
-24.00375367353329
 10
39.59386009179997
 20
-24.01055524873331
 10
39.59230490836666
 20
-24.01709934749997
 10
39.5906500777333
 20
-24.02350582969993
 10
39.58890729083334
 20
-24.0297767252666
 10
39.58705700510001
 20
-24.03590889449996
 10
39.58509213286664
 20
-24.04201466146659
 10
39.58300373409997
 20
-24.04812649313331
 10
39.58079076159999
 20
-24.05421040449997
 10
39.57845820986666
 20
-24.06027903259994
 10
39.57599805213334
 20
-24.06634445953327
 10
39.57340877550001
 20
-24.07239296113332
 10
39.5707070488333
 20
-24.07839868023329
 10
39.56790068516665
 20
-24.08434085473331
 10
39.56497530616668
 20
-24.0902388552
 10
39.56191482183334
 20
-24.09612705039999
 10
39.5587132870333
 20
-24.10201189463325
 10
39.5553674684
 20
-24.10788497269996
 10
39.55186382563335
 20
-24.11375806073326
 10
39.5481933173333
 20
-24.11963838783331
 10
39.54435397893332
 20
-24.12551622516659
 10
39.5403422865333
 20
-24.1313777476
 10
39.53615253526664
 20
-24.13722342039998
 10
39.53177924396664
 20
-24.14304995666666
 10
39.52721939153332
 20
-24.14883785699996
 10
39.52247008899997
 20
-24.15458442129999
 10
39.51752299446667
 20
-24.16028920009998
 10
39.51236659953332
 20
-24.16593592209998
 10
39.50700058813328
 20
-24.17152063756666
 10
39.50141297163333
 20
-24.17704356636662
 10
39.49557271160001
 20
-24.1824941587
 10
39.48947003276663
 20
-24.18787746049995
 10
39.48309838543332
 20
-24.19318334526665
 10
39.47642855203333
 20
-24.19837768589994
 10
39.46944867546665
 20
-24.20346646399995
 10
39.46215081873333
 20
-24.20843714833328
 10
39.45450914026668
 20
-24.21322704949998
 10
39.44650891456666
 20
-24.2178445658333
 10
39.43814206236664
 20
-24.22227313299996
 10
39.42939111906668
 20
-24.22641196693329
 10
39.42023824373331
 20
-24.23027341663331
 10
39.41067666123331
 20
-24.23383540956664
 10
39.40070562493332
 20
-24.23694528536666
 10
39.39031878296663
 20
-24.23962344459997
 10
39.37949900906665
 20
-24.24183888243326
 10
39.3682296888
 20
-24.24336158999992
 10
39.35649691700002
 20
-24.24411073669998
 10
39.34428982156664
 20
-24.24415476116664
 10
39.33159597133334
 20
-24.24348706793329
  0
LINE
  5
23126
330
1F
100
AcDbEntity
  8
1
100
AcDbLine
 10
39.99997895949997
 20
13.74600539330006
 30
0.0
 11
39.99861346673333
 21
13.14366049523338
 31
0.0
  0
LINE
  5
23127
330
1F
100
AcDbEntity
  8
1
100
AcDbLine
 10
39.71394640929998
 20
15.66376387903338
 30
0.0
 11
39.71290588126663
 21
15.20476712170008
 31
0.0
  0
LINE
  5
23128
330
1F
100
AcDbEntity
  8
1
100
AcDbLine
 10
39.99997895949997
 20
23.76713974523338
 30
0.0
 11
39.99861346673333
 21
22.81524586036673
 31
0.0
  0
LINE
  5
23129
330
1F
100
AcDbEntity
  8
1
100
AcDbLine
 10
39.71394640929998
 20
22.90144290666674
 30
0.0
 11
39.71290588126663
 21
22.17608405016668
 31
0.0
  0
LINE
  5
2312A
330
1F
100
AcDbEntity
  8
1
100
AcDbLine
 10
39.59999999999997
 20
22.67154330980006
 30
0.0
 11
39.59999999999997
 21
21.67762071726671
 31
0.0
  0
LINE
  5
2312B
330
1F
100
AcDbEntity
  8
1
100
AcDbLine
 10
39.59999999999997
 20
-1.178921644199959
 30
0.0
 11
39.59999999999997
 21
-4.056509758399926
 31
0.0
  0
LINE
  5
2312C
330
1F
100
AcDbEntity
  8
1
100
AcDbLine
 10
39.59999999999997
 20
-10.32327459136658
 30
0.0
 11
39.59999999999997
 21
-12.42896930676662
 31
0.0
  0
LINE
  5
2312D
330
1F
100
AcDbEntity
  8
1
100
AcDbLine
 10
39.59999999999997
 20
-23.9370082094666
 30
0.0
 11
39.59999999999997
 21
-23.95996420436663
 31
0.0
  0
LINE
  5
2312E
330
1F
100
AcDbEntity
  8
1
100
AcDbLine
 10
39.59999999999997
 20
-23.95996420436663
 30
0.0
 11
39.59999999999997
 21
-23.9370082094666
 31
0.0
  0
LINE
  5
2312F
330
1F
100
AcDbEntity
  8
1
100
AcDbLine
 10
39.59999999999997
 20
-4.220477883333245
 30
0.0
 11
39.59999999999997
 21
-1.178921644199959
 31
0.0
  0
LINE
  5
23130
330
1F
100
AcDbEntity
  8
1
100
AcDbLine
 10
39.59999999999997
 20
15.21701544113338
 30
0.0
 11
39.59999999999997
 21
17.03614080880007
 31
0.0
  0
LINE
  5
23131
330
1F
100
AcDbEntity
  8
1
100
AcDbLine
 10
39.59999999999997
 20
21.11679994603335
 30
0.0
 11
39.59999999999997
 21
22.67154330980006
 31
0.0
  0
LINE
  5
23132
330
1F
100
AcDbEntity
  8
1
100
AcDbLine
 10
39.33159597133334
 20
22.85049343456674
 30
0.0
 11
39.33159597133334
 21
21.52365643223337
 31
0.0
  0
LINE
  5
23133
330
1F
100
AcDbEntity
  8
1
100
AcDbLine
 10
39.33159597133334
 20
-1.178921644199959
 30
0.0
 11
39.33159597133334
 21
-4.774849887866622
 31
0.0
  0
LINE
  5
23134
330
1F
100
AcDbEntity
  8
1
100
AcDbLine
 10
39.33159597133334
 20
-23.84328125316662
 30
0.0
 11
39.33159597133334
 21
-24.24348706793329
 31
0.0
  0
LINE
  5
23135
330
1F
100
AcDbEntity
  8
1
100
AcDbLine
 10
38.91440915226662
 20
-6.913379067566637
 30
0.0
 11
38.91440915226662
 21
-5.364417810599974
 31
0.0
  0
LINE
  5
23136
330
1F
100
AcDbEntity
  8
1
100
AcDbLine
 10
38.91440920039997
 20
15.78493175083341
 30
0.0
 11
38.91440921206669
 21
21.08284920966676
 31
0.0
  0
LINE
  5
23137
330
1F
100
AcDbEntity
  8
1
100
AcDbLine
 10
39.99997895949997
 20
-23.11362207256664
 30
0.0
 11
39.99861346673333
 21
-22.15647532713328
 31
0.0
  0
LINE
  5
23138
330
1F
100
AcDbEntity
  8
1
100
AcDbLine
 10
39.99997895949997
 20
-15.32565005603331
 30
0.0
 11
39.99861346673333
 21
-14.7444358137333
 31
0.0
  0
LWPOLYLINE
  5
23139
330
1F
100
AcDbEntity
  8
1
100
AcDbPolyline
 90
       52
 70
     0
 43
0.0
 10
39.59999999999997
 20
21.67762071726671
 10
39.59976280393329
 20
21.68629156333341
 10
39.59927296826669
 20
21.6939531965667
 10
39.59852457063329
 20
21.70060561696673
 10
39.59745491046664
 20
21.70616646406674
 10
39.59610363213329
 20
21.71071809830008
 10
39.59462332556666
 20
21.71450760106674
 10
39.59305497399999
 20
21.71750019710007
 10
39.59134666883329
 20
21.71973066170008
 10
39.58952255103336
 20
21.72155040190003
 10
39.58758837146667
 20
21.72303606783342
 10
39.58552830656669
 20
21.72411100940006
 10
39.58333574169996
 20
21.72489668323343
 10
39.58099797476666
 20
21.72541747816675
 10
39.57851544303333
 20
21.7256490053667
 10
39.57590228300001
 20
21.72563955536671
 10
39.57315498026668
 20
21.72539448770007
 10
39.57026702769997
 20
21.72490844280006
 10
39.56725053509996
 20
21.72421363270004
 10
39.56411535573335
 20
21.72332079316672
 10
39.56084409659997
 20
21.72221918840003
 10
39.55740738803331
 20
21.72090882313339
 10
39.5537902068333
 20
21.71939251683338
 10
39.54999493646665
 20
21.71766745003342
 10
39.54601647816668
 20
21.71572516910001
 10
39.54184808309998
 20
21.7135681533334
 10
39.53748366196663
 20
21.71119392340009
 10
39.53291918413333
 20
21.70858658783337
 10
39.52814891153332
 20
21.70574935666676
 10
39.52316547929996
 20
21.70267901986674
 10
39.51796245466665
 20
21.6993500555001
 10
39.51254072989997
 20
21.69577237550007
 10
39.50688607789999
 20
21.69193606796674
 10
39.50096769756664
 20
21.68778587540007
 10
39.49477667746663
 20
21.68332974373337
 10
39.48830441946666
 20
21.67855972703339
 10
39.48151720373329
 20
21.67339673013342
 10
39.47440194963332
 20
21.66784958873339
 10
39.46694994916669
 20
21.66190946716674
 10
39.45913091139999
 20
21.65547076336671
 10
39.45092848406665
 20
21.64854472593336
 10
39.44233351843332
 20
21.64112010626675
 10
39.43332442463333
 20
21.63305755636671
 10
39.42388065546669
 20
21.6243712868334
 10
39.41399483409998
 20
21.61504708710006
 10
39.40366507403331
 20
21.6049029774334
 10
39.39288333006664
 20
21.59398199500007
 10
39.3816309202
 20
21.5822411026667
 10
39.36989037516667
 20
21.56936920933336
 10
39.3576464322
 20
21.55526261796675
 10
39.34488632143331
 20
21.54002502560004
 10
39.33159597133334
 20
21.52365643223337
  0
LWPOLYLINE
  5
2313A
330
1F
100
AcDbEntity
  8
1
100
AcDbPolyline
 90
       52
 70
     0
 43
0.0
 10
39.59999999999997
 20
17.03614080880007
 10
39.59980677283335
 20
17.03974657700004
 10
39.59935383529995
 20
17.04446286656676
 10
39.59863553709999
 20
17.05028871620007
 10
39.59758866536669
 20
17.05749367540008
 10
39.59625334519996
 20
17.06580414903342
 10
39.5947836707
 20
17.07440522673337
 10
39.59322054663329
 20
17.08303787856673
 10
39.59151142139996
 20
17.09195875756669
 10
39.58968112216667
 20
17.10112834603339
 10
39.58773484683332
 20
17.11052109733342
 10
39.58565651956667
 20
17.12016003146672
 10
39.58344081586665
 20
17.13007873050006
 10
39.58107180316665
 20
17.14032378270005
 10
39.57855228210002
 20
17.15084525470004
 10
39.57590695519997
 20
17.16153226630004
 10
39.57313695080001
 20
17.17236282720003
 10
39.57023220330001
 20
17.18335612236674
 10
39.56720382253332
 20
17.19446366860009
 10
39.56406378369996
 20
17.2056317436334
 10
39.56079345823332
 20
17.21691151130008
 10
39.55735688323335
 20
17.22841142843336
 10
39.5537361534
 20
17.24016947013339
 10
39.54993627856669
 20
17.25214312133337
 10
39.54595343749998
 20
17.26431940873343
 10
39.54178146733335
 20
17.27669618630003
 10
39.53741376969998
 20
17.28927053910004
 10
39.53284602143333
 20
17.3020282379334
 10
39.52807236756667
 20
17.31496556130005
 10
39.52308556729997
 20
17.32808045500005
 10
39.51787923863333
 20
17.34136103223338
 10
39.51245428536669
 20
17.35478676446669
 10
39.50679648973329
 20
17.36837164916673
 10
39.5008751049333
 20
17.38215482196668
 10
39.49468121783332
 20
17.39613502556673
 10
39.48820626163331
 20
17.41030467416672
 10
39.48141663136664
 20
17.42469193610006
 10
39.47429917189999
 20
17.43929934960002
 10
39.46684529456667
 20
17.4541127293667
 10
39.45902514996664
 20
17.46913360900007
 10
39.45082247313332
 20
17.4843661612667
 10
39.44222814326662
 20
17.4997914868334
 10
39.43322097626668
 20
17.51537520496671
 10
39.4237805126333
 20
17.53112621953337
 10
39.41389946276667
 20
17.54701784236672
 10
39.4035763947
 20
17.56296177546673
 10
39.3928034836
 20
17.57895196330006
 10
39.38156206863329
 20
17.59497495283338
 10
39.36983486773335
 20
17.61093091910007
 10
39.35760676989998
 20
17.62677894306674
 10
39.34486511676664
 20
17.64253713426674
 10
39.33159597133334
 20
17.65819332020007
  0
LWPOLYLINE
  5
2313B
330
1F
100
AcDbEntity
  8
1
100
AcDbPolyline
 90
       18
 70
     0
 43
0.0
 10
35.15344494723331
 20
17.66362122323338
 10
35.20122814229996
 20
17.5050884968667
 10
35.2706587249333
 20
17.3638678323334
 10
35.36173669516666
 20
17.2399592296334
 10
35.47846261616667
 20
17.1307044994667
 10
35.61683592473332
 20
17.03876183113337
 10
35.76485493133333
 20
16.97210579266672
 10
35.92338115499996
 20
16.93299489473341
 10
36.0915530767
 20
16.91917062666673
 10
36.2547844499
 20
16.93183202443342
 10
36.41263400259999
 20
16.97334469226669
 10
36.56554300683331
 20
17.04134302590003
 10
36.70024903199999
 20
17.12992924860006
 10
36.8151262536
 20
17.24094219636671
 10
36.91180049613331
 20
17.37254303316675
 10
36.9818868026
 20
17.51331747393343
 10
37.02259018733332
 20
17.65946075700006
 10
37.03670022849997
 20
17.81381838706673
  0
LWPOLYLINE
  5
2313C
330
1F
100
AcDbEntity
  8
1
100
AcDbPolyline
 90
       22
 70
     0
 43
0.0
 10
35.245478978
 20
15.18446535670007
 10
35.20100953743332
 20
15.20546527096668
 10
35.15738511966669
 20
15.22879941183336
 10
35.11469168916665
 20
15.2544598174334
 10
35.07299736853332
 20
15.28243962760004
 10
35.03241058036662
 20
15.31271970656669
 10
34.99307320333333
 20
15.3452618782334
 10
34.95505645426664
 20
15.38005462576669
 10
34.91845625466664
 20
15.41704764073339
 10
34.88343381943332
 20
15.45612366876671
 10
34.8500605896333
 20
15.49723852536672
 10
34.81840329540001
 20
15.54033401150005
 10
34.78859039280002
 20
15.58525050793335
 10
34.76067407293334
 20
15.63192943600003
 10
34.73470462583333
 20
15.68029612010005
 10
34.71077894196668
 20
15.73014990886671
 10
34.68892820723335
 20
15.78141925920006
 10
34.66918029480002
 20
15.83402070220003
 10
34.65159568193332
 20
15.8877234409334
 10
34.63619226206669
 20
15.94239329083339
 10
34.62296052656666
 20
15.99799803120007
 10
34.61190099419997
 20
16.05445584046671
  0
LWPOLYLINE
  5
2313D
330
1F
100
AcDbEntity
  8
1
100
AcDbPolyline
 90
        7
 70
     0
 43
0.0
 10
38.07384247543331
 20
-23.93905764189995
 10
38.0455261587
 20
-23.93174667679998
 10
38.01713569719999
 20
-23.92603942466664
 10
37.98867109096665
 20
-23.92193588549995
 10
37.96013233999997
 20
-23.91943605933326
 10
37.93151944426666
 20
-23.91853994613328
 10
37.90283240376664
 20
-23.91924754589999
  0
LINE
  5
2313E
330
1F
100
AcDbEntity
  8
1
100
AcDbLine
 10
30.72441314093334
 20
-17.17363874099996
 30
0.0
 11
24.84749071803333
 21
-18.1585518438666
 31
0.0
  0
LWPOLYLINE
  5
2313F
330
1F
100
AcDbEntity
  8
1
100
AcDbPolyline
 90
       16
 70
     0
 43
0.0
 10
24.84749071803333
 20
-18.1585518438666
 10
24.28136428586663
 20
-18.26490524169995
 10
23.72141856870002
 20
-18.39323493339995
 10
23.16765356649995
 20
-18.54354091899992
 10
22.61903227633331
 20
-18.7161092264333
 10
22.07659170113328
 20
-18.91065382773328
 10
21.54344284989997
 20
-19.12631663906663
 10
21.0196245235
 20
-19.36326124903328
 10
20.50509792106664
 20
-19.62132406903331
 10
20.00285764913332
 20
-19.89915624953332
 10
19.51300477849997
 20
-20.19689216379996
 10
19.03543823839999
 20
-20.51439743859996
 10
18.57284942289999
 20
-20.84992010433328
 10
18.12613546343328
 20
-21.20287617119996
 10
17.69439922859999
 20
-21.57384962903328
 10
17.27764071839999
 20
-21.96284047779997
  0
LWPOLYLINE
  5
23140
330
1F
100
AcDbEntity
  8
1
100
AcDbPolyline
 90
       13
 70
     0
 43
0.0
 10
31.83444644056664
 20
-15.66024980446659
 10
31.97067867413335
 20
-15.57673164459996
 10
32.03155705336661
 20
-15.53542637913333
 10
32.08423630113333
 20
-15.4954684149333
 10
32.12876951416666
 20
-15.45684400716661
 10
32.16518650033328
 20
-15.4198057172666
 10
32.19349340753331
 20
-15.38487288763328
 10
32.21374641569997
 20
-15.35213919146665
 10
32.22593343809996
 20
-15.32163021836661
 10
32.22994797823333
 20
-15.29373401069992
 10
32.2257545572333
 20
-15.26857992376662
 10
32.21338848543331
 20
-15.24603815566664
 10
32.19283817043333
 20
-15.2260778753666
  0
LWPOLYLINE
  5
23141
330
1F
100
AcDbEntity
  8
1
100
AcDbPolyline
 90
       10
 70
     0
 43
0.0
 10
35.245478978
 20
-13.85197267589993
 10
34.91316823839998
 20
-14.1067504781333
 10
34.56949795606664
 20
-14.3479770279333
 10
34.21506350273336
 20
-14.57517586433332
 10
33.8503781737333
 20
-14.78795216203329
 10
33.47618070233335
 20
-14.98581082156661
 10
33.09345921699998
 20
-15.16820066516661
 10
32.70302359469997
 20
-15.33474078023331
 10
32.30547918716667
 20
-15.48517789589996
 10
31.90155154476662
 20
-15.61923433839999
  0
LINE
  5
23142
330
1F
100
AcDbEntity
  8
1
100
AcDbLine
 10
37.89999999999998
 20
-11.72641826089997
 30
0.0
 11
35.245478978
 21
-13.85197267589993
 31
0.0
  0
LWPOLYLINE
  5
23143
330
1F
100
AcDbEntity
  8
1
100
AcDbPolyline
 90
       14
 70
     0
 43
0.0
 10
30.15459173916662
 20
-19.64075787483327
 10
30.21300487619999
 20
-19.56824864676665
 10
30.27823592249996
 20
-19.50031495396664
 10
30.34881421803329
 20
-19.43848838879998
 10
30.42486123149996
 20
-19.38290768149997
 10
30.50625549416662
 20
-19.33343410183326
 10
30.59116193973336
 20
-19.29118305153329
 10
30.67966035133333
 20
-19.25631859836662
 10
30.77167094586668
 20
-19.22867667453326
 10
30.86511930749998
 20
-19.20888047833327
 10
30.96003809676665
 20
-19.19710823416662
 10
31.05639465316665
 20
-19.19318171763328
 10
31.15201657946665
 20
-19.19718945356661
 10
31.15866029446664
 20
-19.19803410669996
  0
LINE
  5
23144
330
1F
100
AcDbEntity
  8
1
100
AcDbLine
 10
30.10315138786666
 20
-19.71794657659993
 30
0.0
 11
30.15459173916662
 21
-19.64075787483327
 31
0.0
  0
LWPOLYLINE
  5
23145
330
1F
100
AcDbEntity
  8
1
100
AcDbPolyline
 90
        7
 70
     0
 43
0.0
 10
39.33159597133334
 20
-4.774849887866622
 10
39.27346977439999
 20
-4.880822341866604
 10
39.21057249979998
 20
-4.98404238219993
 10
39.14304965743332
 20
-5.084256125966618
 10
39.07106194356669
 20
-5.181215823433291
 10
38.99478500509997
 20
-5.274680702833251
 10
38.91440915226662
 20
-5.364417810599974
  0
LWPOLYLINE
  5
23146
330
1F
100
AcDbEntity
  8
1
100
AcDbPolyline
 90
        3
 70
     0
 43
0.0
 10
34.38817526043334
 20
-18.6684096074666
 10
34.42372820986662
 20
-18.58204644966665
 10
34.4595381246333
 20
-18.50636281883331
  0
LWPOLYLINE
  5
23147
330
1F
100
AcDbEntity
  8
1
100
AcDbPolyline
 90
       17
 70
     0
 43
0.0
 10
34.30974698053331
 20
-18.44220961416661
 10
34.27869210846666
 20
-18.5300700294666
 10
34.25213057779996
 20
-18.61883425666664
 10
34.23006238860001
 20
-18.70850229576663
 10
34.21245795173331
 20
-18.7992810557333
 10
34.1993468563
 20
-18.89096362759997
 10
34.19081786956662
 20
-18.98292928449993
 10
34.18690208436664
 20
-19.07517994729997
 10
34.18756840783334
 20
-19.16771369509999
 10
34.19281232873328
 20
-19.25990403819995
 10
34.20266490926662
 20
-19.35174864636664
 10
34.21709508719999
 20
-19.44324984986664
 10
34.23600516459999
 20
-19.5337881496666
 10
34.25942554076665
 20
-19.62335701186666
 10
34.28732581636666
 20
-19.71196297036661
 10
34.31951709563333
 20
-19.79900612819992
 10
34.35748632409997
 20
-19.8876616680333
  0
LWPOLYLINE
  5
23148
330
1F
100
AcDbEntity
  8
1
100
AcDbPolyline
 90
       14
 70
     0
 43
0.0
 10
34.38817526043334
 20
-18.6684096074666
 10
34.35716805030001
 20
-18.75636014196661
 10
34.33078366823333
 20
-18.84567939429993
 10
34.30908770996666
 20
-18.93614530273325
 10
34.2921341151
 20
-19.02753295476665
 10
34.27996503293332
 20
-19.11961514626662
 10
34.27261071773336
 20
-19.21216294646663
 10
34.27008945343329
 20
-19.30494626686661
 10
34.27240750836666
 20
-19.39773443356662
 10
34.27955911943332
 20
-19.49029676056662
 10
34.29152650659995
 20
-19.5824031233333
 10
34.30827991709998
 20
-19.67382453093327
 10
34.32977769926669
 20
-19.76433369529994
 10
34.35596640626665
 20
-19.8537055964666
  0
LINE
  5
23149
330
1F
100
AcDbEntity
  8
1
100
AcDbLine
 10
38.80960144399995
 20
-7.238651105299908
 30
0.0
 11
38.97765631049998
 21
-6.717381746333302
 31
0.0
  0
LWPOLYLINE
  5
2314A
330
1F
100
AcDbEntity
  8
1
100
AcDbPolyline
 90
       12
 70
     0
 43
0.0
 10
38.80960144399995
 20
-7.238651105299908
 10
38.71009042496666
 20
-7.553941571733247
 10
38.61587609523332
 20
-7.859250466933275
 10
38.52729893930001
 20
-8.153283991699908
 10
38.44401847263333
 20
-8.437335945199919
 10
38.36501324166665
 20
-8.715287724866612
 10
38.29004489746666
 20
-8.987569653799909
 10
38.21935178896666
 20
-9.253751408899944
 10
38.15262750913331
 20
-9.516423418133257
 10
38.08976992236665
 20
-9.776449157533278
 10
38.03088116429996
 20
-10.03296515103326
 10
37.97596123493332
 20
-10.28597139866664
  0
LINE
  5
2314B
330
1F
100
AcDbEntity
  8
1
100
AcDbLine
 10
38.97765631049998
 20
-6.717381746333302
 30
0.0
 11
39.03702167786668
 21
-6.529796621599956
 31
0.0
  0
LINE
  5
2314C
330
1F
100
AcDbEntity
  8
1
100
AcDbLine
 10
39.03702167786668
 20
-6.529796621599956
 30
0.0
 11
39.09262199220001
 21
-6.350604753399949
 31
0.0
  0
LINE
  5
2314D
330
1F
100
AcDbEntity
  8
1
100
AcDbLine
 10
39.09262199220001
 20
-6.350604753399949
 30
0.0
 11
39.14465593076665
 21
-6.179090326499903
 31
0.0
  0
LINE
  5
2314E
330
1F
100
AcDbEntity
  8
1
100
AcDbLine
 10
39.14465593076665
 20
-6.179090326499903
 30
0.0
 11
39.19335031273334
 21
-6.014592065999948
 31
0.0
  0
LINE
  5
2314F
330
1F
100
AcDbEntity
  8
1
100
AcDbLine
 10
39.19335031273334
 20
-6.014592065999948
 30
0.0
 11
39.2388869262
 21
-5.856690230933253
 31
0.0
  0
LINE
  5
23150
330
1F
100
AcDbEntity
  8
1
100
AcDbLine
 10
39.2388869262
 20
-5.856690230933253
 30
0.0
 11
39.28149887066667
 21
-5.704617000166621
 31
0.0
  0
LINE
  5
23151
330
1F
100
AcDbEntity
  8
1
100
AcDbLine
 10
39.28149887066667
 20
-5.704617000166621
 30
0.0
 11
39.32148458379998
 21
-5.557398869499962
 31
0.0
  0
LWPOLYLINE
  5
23152
330
1F
100
AcDbEntity
  8
1
100
AcDbPolyline
 90
       20
 70
     0
 43
0.0
 10
39.32148458379998
 20
-5.557398869499962
 10
39.35902331046662
 20
-5.414421231133275
 10
39.37698137596664
 20
-5.344081614399925
 10
39.39438140523333
 20
-5.274558943999949
 10
39.41127062033331
 20
-5.205669170533241
 10
39.42764259403333
 20
-5.137376807599963
 10
39.44347706029999
 20
-5.069730500066583
 10
39.45879108323334
 20
-5.002668229333238
 10
39.47354024509997
 20
-4.936298628799903
 10
39.48773774796666
 20
-4.870526520699939
 10
39.50146836936665
 20
-4.804977331466631
 10
39.51470464453331
 20
-4.73958783253326
 10
39.5274083476333
 20
-4.674425995599932
 10
39.53961888073332
 20
-4.609305184833289
 10
39.55130226326668
 20
-4.544114714499954
 10
39.56239352116666
 20
-4.478968149599921
 10
39.57286487253333
 20
-4.41401157726662
 10
39.58266613093332
 20
-4.3492966909333
 10
39.59173097333331
 20
-4.284782566666621
 10
39.59999999999997
 20
-4.220477883333245
  0
LWPOLYLINE
  5
23153
330
1F
100
AcDbEntity
  8
1
100
AcDbPolyline
 90
       38
 70
     0
 43
0.0
 10
39.57329918823331
 20
-4.164033999933252
 10
39.57058983283332
 20
-4.174637531633294
 10
39.56777662456665
 20
-4.185437835699957
 10
39.56484488216665
 20
-4.196479477333269
 10
39.56177774149995
 20
-4.20780556579993
 10
39.55856879729998
 20
-4.219419521233277
 10
39.5552152368
 20
-4.23131467829998
 10
39.55170404769996
 20
-4.243518538033271
 10
39.54802641269998
 20
-4.256039886733304
 10
39.54418020536667
 20
-4.268865832099976
 10
39.54016188466665
 20
-4.28199109589994
 10
39.53596573753333
 20
-4.295413459899947
 10
39.53158634523333
 20
-4.309130505666615
 10
39.52702077826666
 20
-4.323136580666613
 10
39.52226632006665
 20
-4.337419806966607
 10
39.51731453313329
 20
-4.351986895366593
 10
39.51215358216666
 20
-4.366859827666615
 10
39.50678293120001
 20
-4.382018267633242
 10
39.50119083216663
 20
-4.397476411766632
 10
39.49534661156662
 20
-4.413307164599956
 10
39.48924052296667
 20
-4.429508847133291
 10
39.48286607056667
 20
-4.446074797699935
 10
39.47619449153331
 20
-4.463069118199967
 10
39.46921401553334
 20
-4.480488976366615
 10
39.46191676926668
 20
-4.498326476299922
 10
39.45427738879999
 20
-4.516636842899941
 10
39.44628127686667
 20
-4.535417950466609
 10
39.43792044843332
 20
-4.554658576166588
 10
39.42917791989998
 20
-4.574399254033295
 10
39.42003610483329
 20
-4.594639373366618
 10
39.41048827039998
 20
-4.615363684366599
 10
39.40053386300002
 20
-4.636590380099931
 10
39.39016661953332
 20
-4.658290240633249
 10
39.37936963750002
 20
-4.680475210266621
 10
39.36812671936667
 20
-4.703224851766634
 10
39.3564242283
 20
-4.726558920866608
 10
39.34425139366664
 20
-4.750437507333259
 10
39.33159597133334
 20
-4.774849887866622
  0
LINE
  5
23154
330
1F
100
AcDbEntity
  8
1
100
AcDbLine
 10
39.57836471209999
 20
-4.143651801933259
 30
0.0
 11
39.57329918823331
 21
-4.164033999933252
 31
0.0
  0
LINE
  5
23155
330
1F
100
AcDbEntity
  8
1
100
AcDbLine
 10
39.58292655039997
 20
-4.12464964236662
 30
0.0
 11
39.57836471209999
 21
-4.143651801933259
 31
0.0
  0
LINE
  5
23156
330
1F
100
AcDbEntity
  8
1
100
AcDbLine
 10
39.58699537886668
 20
-4.10719514543328
 30
0.0
 11
39.58292655039997
 21
-4.12464964236662
 31
0.0
  0
LINE
  5
23157
330
1F
100
AcDbEntity
  8
1
100
AcDbLine
 10
39.59525035680002
 20
-4.070919137033257
 30
0.0
 11
39.58699537886668
 21
-4.10719514543328
 31
0.0
  0
LWPOLYLINE
  5
23158
330
1F
100
AcDbEntity
  8
1
100
AcDbPolyline
 90
       25
 70
     0
 43
0.0
 10
36.83362449103333
 20
-19.86033663523332
 10
36.82963613199996
 20
-19.88202318319995
 10
36.82403274316664
 20
-19.90312350313329
 10
36.81681432446664
 20
-19.92363759503328
 10
36.80792071163336
 20
-19.94367683169994
 10
36.79741206900002
 20
-19.96312984029995
 10
36.78546888946665
 20
-19.9816625024666
 10
36.77206639206662
 20
-19.99925891959995
 10
36.7572293578333
 20
-20.01593499026663
 10
36.74121262266664
 20
-20.03140429179993
 10
36.72399580783332
 20
-20.04564597783329
 10
36.70559929206667
 20
-20.05868089473333
 10
36.68633904789999
 20
-20.07028515913331
 10
36.66620015473331
 20
-20.08043405709995
 10
36.64519753309998
 20
-20.08915230256659
 10
36.62369191713333
 20
-20.09629015379997
 10
36.6016746177333
 20
-20.10182031019994
 10
36.57915432396663
 20
-20.10577007239996
 10
36.55651783690001
 20
-20.10807160056661
 10
36.53376314933331
 20
-20.1086964222333
 10
36.51089226849996
 20
-20.10767300983329
 10
36.48829801703329
 20
-20.10501894126659
 10
36.46611133580001
 20
-20.10074007569992
 10
36.4442012839333
 20
-20.09483055393329
 10
36.42256786143332
 20
-20.08729037593329
  0
LWPOLYLINE
  5
23159
330
1F
100
AcDbEntity
  8
1
100
AcDbPolyline
 90
       16
 70
     0
 43
0.0
 10
36.83362449103333
 20
-19.86033663523332
 10
36.84097337963334
 20
-19.81706907796663
 10
36.85058570483335
 20
-19.77444795409994
 10
36.86246146669998
 20
-19.73247326359998
 10
36.8766446954333
 20
-19.69103580263331
 10
36.89309136079998
 20
-19.65024477499994
 10
36.91166937203332
 20
-19.61042779236661
 10
36.93239589289999
 20
-19.57159269866665
 10
36.95525375966662
 20
-19.53373164993329
 10
36.98005939019998
 20
-19.49714872569993
 10
37.00682846989997
 20
-19.46185421876666
 10
37.03554531336664
 20
-19.42783783636659
 10
37.06597928239995
 20
-19.39537277976663
 10
37.09805349760001
 20
-19.36455011603331
 10
37.13184483833334
 20
-19.33527877809998
 10
37.1673533046
 20
-19.30755876599997
  0
LINE
  5
2315A
330
1F
100
AcDbEntity
  8
1
100
AcDbLine
 10
39.71394606026667
 20
-1.178927882366593
 30
0.0
 11
39.99997857759996
 21
1.301071832700046
 31
0.0
  0
LINE
  5
2315B
330
1F
100
AcDbEntity
  8
1
100
AcDbLine
 10
39.47824746863336
 20
1.284789662933377
 30
0.0
 11
39.48012613650002
 21
1.301078355800058
 31
0.0
  0
LWPOLYLINE
  5
2315C
330
1F
100
AcDbEntity
  8
1
100
AcDbPolyline
 90
       52
 70
     0
 43
0.0
 10
37.38883904789998
 20
-19.08060502529994
 10
37.38629585339999
 20
-19.15761494029996
 10
37.37891752993329
 20
-19.23376050669995
 10
37.36670407746664
 20
-19.30904172443328
 10
37.34957269339998
 20
-19.38373689826662
 10
37.32760618033331
 20
-19.45756772346661
 10
37.30105294610002
 20
-19.5296992857333
 10
37.26986092563328
 20
-19.60011229629994
 10
37.23408218399999
 20
-19.6688260439
 10
37.19412132433331
 20
-19.73506348066664
 10
37.14993087429997
 20
-19.79879649726663
 10
37.1015583062333
 20
-19.86005320303329
 10
37.04955064026666
 20
-19.91814087779997
 10
36.99386661346665
 20
-19.97302354906659
 10
36.9345474887333
 20
-20.02473718933331
 10
36.87226407516664
 20
-20.07269699599996
 10
36.8069827243333
 20
-20.11686035836667
 10
36.73873708463333
 20
-20.15726988713331
 10
36.66829891039999
 20
-20.19346861203329
 10
36.59564331359997
 20
-20.2254087351333
 10
36.5207951823333
 20
-20.25313805436665
 10
36.44460093496667
 20
-20.27634299336662
 10
36.36704529146664
 20
-20.29497219459998
 10
36.28814353193332
 20
-20.30907701563328
 10
36.20878791519999
 20
-20.31849795229996
 10
36.12897328939999
 20
-20.32318183663333
 10
36.0487048064
 20
-20.32318183663333
 10
35.9688901806
 20
-20.31849795229996
 10
35.88953456383331
 20
-20.30907701563328
 10
35.81063280429999
 20
-20.29497219459998
 10
35.73307716079995
 20
-20.27634299336662
 10
35.65688291346663
 20
-20.25313805436665
 10
35.58203478216666
 20
-20.2254087351333
 10
35.50937918536664
 20
-20.19346861203329
 10
35.43894101116666
 20
-20.15726988713331
 10
35.37069537143333
 20
-20.11686035836667
 10
35.30541402059999
 20
-20.07269699599996
 10
35.24313060703332
 20
-20.02473718933331
 10
35.18381148233328
 20
-19.97302354906659
 10
35.12812745549997
 20
-19.91814087779997
 10
35.07611978953332
 20
-19.86005320303329
 10
35.02774722146666
 20
-19.79879649726663
 10
34.98355677143332
 20
-19.73506348066664
 10
34.94359591176664
 20
-19.6688260439
 10
34.90781717013334
 20
-19.60011229629994
 10
34.87662514966667
 20
-19.5296992857333
 10
34.85007191543332
 20
-19.45756772346661
 10
34.82810540236665
 20
-19.38373689826662
 10
34.81097401829999
 20
-19.30904172443328
 10
34.79876056583333
 20
-19.23376050669995
 10
34.79138224236664
 20
-19.15761494029996
 10
34.78883904790001
 20
-19.08060502529994
  0
LINE
  5
2315D
330
1F
100
AcDbEntity
  8
1
100
AcDbLine
 10
37.83883904789997
 20
-19.11585836826666
 30
0.0
 11
37.83618170163334
 21
-19.20804957089998
 31
0.0
  0
LINE
  5
2315E
330
1F
100
AcDbEntity
  8
1
100
AcDbLine
 10
38.5425861993333
 20
8.163516723666731
 30
0.0
 11
38.54224096573336
 21
8.149322432733384
 31
0.0
  0
LWPOLYLINE
  5
2315F
330
1F
100
AcDbEntity
  8
1
100
AcDbPolyline
 90
       10
 70
     0
 43
0.0
 10
37.89999999999998
 20
-11.02088004196659
 10
37.90042087106667
 20
-10.94731567306664
 10
37.90271891386664
 20
-10.87181997806661
 10
37.90689412833331
 20
-10.79439295696662
 10
37.91277632139998
 20
-10.71515689063327
 10
37.92053568613329
 20
-10.63398949823326
 10
37.9306828019333
 20
-10.55052393709994
 10
37.94338786190002
 20
-10.46463792633327
 10
37.95848067289995
 20
-10.37645374686664
 10
37.97596123493332
 20
-10.28597139866664
  0
LWPOLYLINE
  5
23160
330
1F
100
AcDbEntity
  8
1
100
AcDbPolyline
 90
       10
 70
     0
 43
0.0
 10
37.89999999999998
 20
4.514233279933392
 10
37.90040983686669
 20
4.763897664366737
 10
37.90269683653332
 20
5.015243303400069
 10
37.90686099896664
 20
5.268270197033388
 10
37.91272844113331
 20
5.523049899466712
 10
37.92047304603335
 20
5.779510856466714
 10
37.93061646296667
 20
6.037438405433391
 10
37.94333257496663
 20
6.296760992166724
 10
37.95844749893331
 20
6.557550170866733
 10
37.97596123493332
 20
6.81980594150005
  0
LINE
  5
23161
330
1F
100
AcDbEntity
  8
1
100
AcDbLine
 10
38.07384247543331
 20
-23.93905764189995
 30
0.0
 11
38.07384247543331
 21
-23.40407246963329
 31
0.0
  0
LINE
  5
23162
330
1F
100
AcDbEntity
  8
1
100
AcDbLine
 10
38.07384247543331
 20
-6.265178593833269
 30
0.0
 11
38.07384247543331
 21
-1.178921644199959
 31
0.0
  0
LINE
  5
23163
330
1F
100
AcDbEntity
  8
1
100
AcDbLine
 10
38.07384247543331
 20
20.30406691113339
 30
0.0
 11
38.07384247543331
 21
22.4145969774667
 31
0.0
  0
LINE
  5
23164
330
1F
100
AcDbEntity
  8
1
100
AcDbLine
 10
37.97596123493332
 20
-13.54245449206664
 30
0.0
 11
37.97596123493332
 21
-13.00890455083331
 31
0.0
  0
LINE
  5
23165
330
1F
100
AcDbEntity
  8
1
100
AcDbLine
 10
37.97596123493332
 20
1.301078355800058
 30
0.0
 11
37.97596123493332
 21
2.28135512860004
 31
0.0
  0
LINE
  5
23166
330
1F
100
AcDbEntity
  8
1
100
AcDbLine
 10
37.90283240376664
 20
22.38588435140005
 30
0.0
 11
37.90283240376664
 21
20.17759749836674
 31
0.0
  0
LINE
  5
23167
330
1F
100
AcDbEntity
  8
1
100
AcDbLine
 10
37.90283240376664
 20
-1.178921644199959
 30
0.0
 11
37.90283240376664
 21
-6.439087553266602
 31
0.0
  0
LINE
  5
23168
330
1F
100
AcDbEntity
  8
1
100
AcDbLine
 10
37.90283240376664
 20
-23.91924754589999
 30
0.0
 11
37.90283240376664
 21
-23.3443555809333
 31
0.0
  0
LINE
  5
23169
330
1F
100
AcDbEntity
  8
1
100
AcDbLine
 10
37.89999999999998
 20
1.301078355800058
 30
0.0
 11
37.89999999999998
 21
4.514233279933392
 31
0.0
  0
LINE
  5
2316A
330
1F
100
AcDbEntity
  8
1
100
AcDbLine
 10
37.1673533046
 20
-18.85365128459998
 30
0.0
 11
37.1673533046
 21
-19.16064157453329
 31
0.0
  0
LINE
  5
2316B
330
1F
100
AcDbEntity
  8
1
100
AcDbLine
 10
36.83362449103333
 20
-18.30087341533331
 30
0.0
 11
36.83362449103333
 21
-18.60786370529998
 31
0.0
  0
LWPOLYLINE
  5
2316C
330
1F
100
AcDbEntity
  8
1
100
AcDbPolyline
 90
        9
 70
     0
 43
0.0
 10
37.90042087149999
 20
3.960706721733373
 10
37.90271891469996
 20
3.758352878400074
 10
37.90689412966668
 20
3.55388340463341
 10
37.91277632346663
 20
3.347345826100053
 10
37.92053568896665
 20
3.138692617133386
 10
37.93068280496664
 20
2.927781200633404
 10
37.94338786443331
 20
2.714564050833388
 10
37.9584806744333
 20
2.499088693500056
 10
37.97596123493332
 20
2.28135512860004
  0
LWPOLYLINE
  5
2316D
330
1F
100
AcDbEntity
  8
1
100
AcDbPolyline
 90
        5
 70
     0
 43
0.0
 10
37.90689404306665
 20
-11.78076796479992
 10
37.91277619026664
 20
-11.98542682829995
 10
37.92053550650002
 20
-12.1903657396999
 10
37.93068260749999
 20
-12.39521948869995
 10
37.94338769853329
 20
-12.59986633849993
  0
LWPOLYLINE
  5
2316E
330
1F
100
AcDbEntity
  8
1
100
AcDbPolyline
 90
        3
 70
     0
 43
0.0
 10
38.02182169656664
 20
-13.79188115273328
 10
38.0249200225
 20
-13.88606762443325
 10
38.02698051876666
 20
-13.93994817993328
  0
LINE
  5
2316F
330
1F
100
AcDbEntity
  8
1
100
AcDbLine
 10
37.94338769853329
 20
-12.59986633849993
 30
0.0
 11
37.95848057433335
 21
-12.8044280258666
 31
0.0
  0
LINE
  5
23170
330
1F
100
AcDbEntity
  8
1
100
AcDbLine
 10
37.03670022849997
 20
17.81381838706673
 30
0.0
 11
37.02423314853331
 21
17.97926813510005
 31
0.0
  0
LINE
  5
23171
330
1F
100
AcDbEntity
  8
1
100
AcDbLine
 10
37.95848057433335
 20
-12.8044280258666
 30
0.0
 11
37.97596123493332
 21
-13.00890455083331
 31
0.0
  0
LINE
  5
23172
330
1F
100
AcDbEntity
  8
1
100
AcDbLine
 10
38.03088140259996
 20
1.682696171300023
 30
0.0
 11
37.97596123493332
 21
2.28135512860004
 31
0.0
  0
LINE
  5
23173
330
1F
100
AcDbEntity
  8
1
100
AcDbLine
 10
38.06823910746664
 20
1.301078355800058
 30
0.0
 11
38.03088140259996
 21
1.682696171300023
 31
0.0
  0
LWPOLYLINE
  5
23174
330
1F
100
AcDbEntity
  8
1
100
AcDbPolyline
 90
        6
 70
     0
 43
0.0
 10
39.5486505106
 20
-9.837284885733282
 10
39.56040413936666
 20
-9.940481328999936
 10
39.57147881016664
 20
-10.04076350849991
 10
39.58181445383332
 20
-10.13785846353326
 10
39.59134337336667
 20
-10.23203096213328
 10
39.59999999999997
 20
-10.32327459136658
  0
LINE
  5
23175
330
1F
100
AcDbEntity
  8
1
100
AcDbLine
 10
39.52333443159995
 20
-9.624825774233244
 30
0.0
 11
39.5486505106
 21
-9.837284885733282
 31
0.0
  0
LINE
  5
23176
330
1F
100
AcDbEntity
  8
1
100
AcDbLine
 10
39.4958996914333
 20
-9.404284874333278
 30
0.0
 11
39.52333443159995
 21
-9.624825774233244
 31
0.0
  0
LINE
  5
23177
330
1F
100
AcDbEntity
  8
1
100
AcDbLine
 10
39.46645652526667
 20
-9.175911435433278
 30
0.0
 11
39.4958996914333
 21
-9.404284874333278
 31
0.0
  0
LINE
  5
23178
330
1F
100
AcDbEntity
  8
1
100
AcDbLine
 10
39.43497339699997
 20
-8.938575095099935
 30
0.0
 11
39.46645652526667
 21
-9.175911435433278
 31
0.0
  0
LINE
  5
23179
330
1F
100
AcDbEntity
  8
1
100
AcDbLine
 10
39.40152887356664
 20
-8.692147660399967
 30
0.0
 11
39.43497339699997
 21
-8.938575095099935
 31
0.0
  0
LWPOLYLINE
  5
2317A
330
1F
100
AcDbEntity
  8
1
100
AcDbPolyline
 90
        4
 70
     0
 43
0.0
 10
34.61190099419997
 20
16.05445584046671
 10
34.59734781886664
 20
16.15881095373342
 10
34.58983424146663
 20
16.26740763753341
 10
34.58883940986664
 20
16.32354357476671
  0
LINE
  5
2317B
330
1F
100
AcDbEntity
  8
1
100
AcDbLine
 10
39.34793195586662
 20
-8.306488454099934
 30
0.0
 11
39.40152887356664
 21
-8.692147660399967
 31
0.0
  0
LINE
  5
2317C
330
1F
100
AcDbEntity
  8
1
100
AcDbLine
 10
39.29009982383332
 20
-7.899479891166578
 30
0.0
 11
39.34793195586662
 21
-8.306488454099934
 31
0.0
  0
LINE
  5
2317D
330
1F
100
AcDbEntity
  8
1
100
AcDbLine
 10
39.20524194586665
 20
-7.313753048399945
 30
0.0
 11
39.29009982383332
 21
-7.899479891166578
 31
0.0
  0
LINE
  5
2317E
330
1F
100
AcDbEntity
  8
1
100
AcDbLine
 10
39.71290588126663
 20
-12.80309622786657
 30
0.0
 11
39.99861346673333
 21
-14.7444358137333
 31
0.0
  0
LWPOLYLINE
  5
2317F
330
1F
100
AcDbEntity
  8
1
100
AcDbPolyline
 90
        7
 70
     0
 43
0.0
 10
39.59999999999997
 20
-4.056509758399926
 10
39.59980527009998
 20
-4.055196586399944
 10
39.59938056946663
 20
-4.055370837933281
 10
39.59872120633333
 20
-4.057031710766608
 10
39.59777516076662
 20
-4.060428095466619
 10
39.59657590809996
 20
-4.065307843499937
 10
39.59525035680002
 20
-4.070919137033257
  0
LINE
  5
23180
330
1F
100
AcDbEntity
  8
1
100
AcDbLine
 10
39.07273162876669
 20
-6.415075177533282
 30
0.0
 11
39.20524194586665
 21
-7.313753048399945
 31
0.0
  0
LWPOLYLINE
  5
23181
330
1F
100
AcDbEntity
  8
1
100
AcDbPolyline
 90
        4
 70
     0
 43
0.0
 10
16.3255453009333
 20
22.35109371293336
 10
16.34274915836664
 20
22.34287596773336
 10
16.36348706506663
 20
22.33623882600003
 10
16.38775902109995
 20
22.33119601323338
  0
LWPOLYLINE
  5
23182
330
1F
100
AcDbEntity
  8
1
100
AcDbPolyline
 90
       39
 70
     0
 43
0.0
 10
36.19462520076667
 20
-17.44599770543331
 10
36.26716035449999
 20
-17.44607034506666
 10
36.36409009453331
 20
-17.4507938450333
 10
36.46065313823334
 20
-17.46013190636662
 10
36.55660941463333
 20
-17.47406131313332
 10
36.65172036136664
 20
-17.49254743469996
 10
36.74574951760002
 20
-17.51554431159994
 10
36.83846311203331
 20
-17.54299476996661
 10
36.92963064406666
 20
-17.57483056369997
 10
37.01902545686664
 20
-17.61097254396665
 10
37.10642530083334
 20
-17.65133085606661
 10
37.19161288619995
 20
-17.69580516293328
 10
37.27437642313333
 20
-17.74428489443332
 10
37.35451014853334
 20
-17.79664952226662
 10
37.43181483730001
 20
-17.85276885976665
 10
37.50609829779995
 20
-17.91250338536665
 10
37.5771758496
 20
-17.97570458969997
 10
37.64487078276665
 20
-18.04221534453327
 10
37.70901479699996
 20
-18.11187029369998
 10
37.76944842019998
 20
-18.1844962640333
 10
37.82602140483329
 20
-18.25991269586663
 10
37.87859310156665
 20
-18.33793209213328
 10
37.9270328088333
 20
-18.41836048429999
 10
37.97122009793333
 20
-18.50099791466661
 10
38.0110451123
 20
-18.5856389336333
 10
38.04640884066663
 20
-18.6720731102333
 10
38.07722336319995
 20
-18.76008555549995
 10
38.10341207020002
 20
-18.84945745666661
 10
38.12490985236667
 20
-18.93996662103328
 10
38.14166326286665
 20
-19.0313880286333
 10
38.15363065003334
 20
-19.12349439136662
 10
38.1607822611
 20
-19.21605671836661
 10
38.16310031603331
 20
-19.3088448851
 10
38.16057905173335
 20
-19.40162820549996
 10
38.15322473653333
 20
-19.49417600569993
 10
38.14105565436666
 20
-19.58625819719995
 10
38.12410205949999
 20
-19.6776458492333
 10
38.10240610126664
 20
-19.76811175766662
 10
38.07602171916665
 20
-19.85743100999994
  0
LWPOLYLINE
  5
23183
330
1F
100
AcDbEntity
  8
1
100
AcDbPolyline
 90
       15
 70
     0
 43
0.0
 10
30.56015060069996
 20
-16.07476072896665
 10
30.66864807969995
 20
-16.06827654573331
 10
30.77512935069996
 20
-16.05733796239994
 10
30.87941449626664
 20
-16.04215191393327
 10
30.9813167914333
 20
-16.02313352716666
 10
31.08062935966666
 20
-16.00034020636664
 10
31.17712614649998
 20
-15.97345241939999
 10
31.27034296719995
 20
-15.94245289273326
 10
31.36027015883332
 20
-15.90792354853326
 10
31.4473345573
 20
-15.87046593013328
 10
31.53123125593328
 20
-15.8300266354
 10
31.61166954539999
 20
-15.78740021986661
 10
31.68911025616666
 20
-15.7444747484333
 10
31.76354412823332
 20
-15.70212664759995
 10
31.83444644056664
 20
-15.66024980446659
  0
LINE
  5
23184
330
1F
100
AcDbEntity
  8
1
100
AcDbLine
 10
29.78788195663333
 20
-16.06734168676664
 30
0.0
 11
24.67487392363336
 21
-16.92423041943331
 31
0.0
  0
LWPOLYLINE
  5
23185
330
1F
100
AcDbEntity
  8
1
100
AcDbPolyline
 90
       16
 70
     0
 43
0.0
 10
24.67487392363336
 20
-16.92423041943331
 10
24.04550084570002
 20
-17.04302559083325
 10
23.42108927623332
 20
-17.18768150493328
 10
22.80281367693334
 20
-17.35804706999997
 10
22.19173611006664
 20
-17.55395965899996
 10
21.58913657989996
 20
-17.77514087873331
 10
20.99649278116664
 20
-18.02115177029994
 10
20.41492670386668
 20
-18.29160908959997
 10
19.845562718
 20
-18.58607418203328
 10
19.28981946723331
 20
-18.90387219929997
 10
18.74876347136666
 20
-19.24442490643329
 10
18.22340337809999
 20
-19.60712996613327
 10
17.71498504489995
 20
-19.99113764513331
 10
17.2245291672333
 20
-20.39565390469997
 10
16.75285667793332
 20
-20.81997771616662
 10
16.30083844893334
 20
-21.26330985633329
  0
LWPOLYLINE
  5
23186
330
1F
100
AcDbEntity
  8
1
100
AcDbPolyline
 90
       14
 70
     0
 43
0.0
 10
35.245478978
 20
-9.974142468866574
 10
35.20099814556664
 20
-10.00330507703327
 10
35.15738663869996
 20
-10.03064330516659
 10
35.11472835286662
 20
-10.05615715329995
 10
35.07309449733333
 20
-10.07988027979993
 10
35.03258523273331
 20
-10.1017790262666
 10
34.99332473089999
 20
-10.12175241756662
 10
34.95538354393335
 20
-10.13978855936662
 10
34.91885600609999
 20
-10.15589934603329
 10
34.88388800443335
 20
-10.17001948533331
 10
34.85055054433332
 20
-10.18212855566659
 10
34.81891320323331
 20
-10.19224697863328
 10
34.78909787186666
 20
-10.20037072699992
 10
34.76115792863334
 20
-10.20648101019995
  0
LWPOLYLINE
  5
23187
330
1F
100
AcDbEntity
  8
1
100
AcDbPolyline
 90
       24
 70
     0
 43
0.0
 10
35.07622612486665
 20
-9.203333584666637
 10
34.90468566089999
 20
-9.364521870499942
 10
34.7308575861
 20
-9.521120975633294
 10
34.5547322398333
 20
-9.673191624599922
 10
34.37631928269997
 20
-9.82073230466662
 10
34.1956476968
 20
-9.963680115733239
 10
34.01271264736664
 20
-10.10209734746658
 10
33.82751896913334
 20
-10.2359832613333
 10
33.64011014853332
 20
-10.36518283643326
 10
33.45050683096662
 20
-10.48973978446659
 10
33.25868837106663
 20
-10.60967424653327
 10
33.06463631899999
 20
-10.72479877909993
 10
32.8683788477
 20
-10.83516010159994
 10
32.66988778423331
 20
-10.94077600459994
 10
32.46906016013332
 20
-11.04141844739992
 10
32.26591406146662
 20
-11.1371464704666
 10
32.0604314021333
 20
-11.22796443619992
 10
31.85245495539999
 20
-11.31356503593329
 10
31.64193661496665
 20
-11.39402708343331
 10
31.4289244871
 20
-11.46933234009995
 10
31.21340566413329
 20
-11.5390308459666
 10
30.99537584346666
 20
-11.60299251373325
 10
30.77483932773333
 20
-11.66140395416661
 10
30.55179611686668
 20
-11.71429003829993
  0
LINE
  5
23188
330
1F
100
AcDbEntity
  8
1
100
AcDbLine
 10
35.245478978
 20
-9.037526872433289
 30
0.0
 11
35.07622612486665
 21
-9.203333584666637
 31
0.0
  0
LWPOLYLINE
  5
23189
330
1F
100
AcDbEntity
  8
1
100
AcDbPolyline
 90
        7
 70
     0
 43
0.0
 10
38.07384247543331
 20
-6.265178593833269
 10
38.04553536869997
 20
-6.295413113266619
 10
38.01715043320001
 20
-6.325147755533265
 10
37.98868766896664
 20
-6.354382520666575
 10
37.960147076
 20
-6.383117408666606
 10
37.93152865426663
 20
-6.411352419533244
 10
37.90283240376664
 20
-6.439087553266602
  0
LWPOLYLINE
  5
2318A
330
1F
100
AcDbEntity
  8
1
100
AcDbPolyline
 90
       13
 70
     0
 43
0.0
 10
35.34405360473335
 20
-18.60786370529998
 10
35.34805822783329
 20
-18.58613055546661
 10
35.35367447523333
 20
-18.56499785666662
 10
35.36090234696667
 20
-18.54446560893328
 10
35.36980147380001
 20
-18.5244271335666
 10
35.38031222493334
 20
-18.50498910923326
 10
35.39225570799999
 20
-18.486471572
 10
35.40565774126668
 20
-18.46888569969994
 10
35.42049250643334
 20
-18.45222031449995
 10
35.43650365603332
 20
-18.43676191893328
 10
35.45360574083332
 20
-18.42260601386661
 10
35.47188421003335
 20
-18.40965709846662
 10
35.49133906359998
 20
-18.39791517269995
  0
LWPOLYLINE
  5
2318B
330
1F
100
AcDbEntity
  8
1
100
AcDbPolyline
 90
       25
 70
     0
 43
0.0
 10
35.34405360473335
 20
-18.30087341533331
 10
35.34804196376666
 20
-18.27918686736663
 10
35.35364535263335
 20
-18.25808654743329
 10
35.36086377129999
 20
-18.23757245556666
 10
35.36975738413332
 20
-18.21753321889994
 10
35.38026602679997
 20
-18.19808021026662
 10
35.39220920629998
 20
-18.17954754809997
 10
35.40561170370001
 20
-18.16195113096663
 10
35.42044873793333
 20
-18.14527506029994
 10
35.43646547309999
 20
-18.12980575876665
 10
35.45368228796667
 20
-18.11556407273329
 10
35.47207880369996
 20
-18.10252915583325
 10
35.4913390479
 20
-18.09092489143327
 10
35.51147794106663
 20
-18.08077599346663
 10
35.53248056266665
 20
-18.0720577480333
 10
35.55398617866666
 20
-18.06491989676667
 10
35.57600347803333
 20
-18.05938974036664
 10
35.5985237718333
 20
-18.05543997816662
 10
35.62116025886667
 20
-18.05313844999998
 10
35.64391494643331
 20
-18.05251362836665
 10
35.66678582726666
 20
-18.05353704073329
 10
35.68938007873334
 20
-18.0561911093333
 10
35.71156675996667
 20
-18.0604699748666
 10
35.73347681183333
 20
-18.06637949663329
 10
35.7551102343333
 20
-18.07391967463329
  0
LWPOLYLINE
  5
2318C
330
1F
100
AcDbEntity
  8
1
100
AcDbPolyline
 90
       13
 70
     0
 43
0.0
 10
35.34405360473335
 20
-18.60786370529998
 10
35.33445338483335
 20
-18.66201598889998
 10
35.32136425660002
 20
-18.71502875829994
 10
35.30478621999999
 20
-18.76690201359994
 10
35.28462058726666
 20
-18.8178435308333
 10
35.2609660462
 20
-18.86764553393331
 10
35.23411866009997
 20
-18.91568469446665
 10
35.20403829953335
 20
-18.9619388560333
 10
35.1707650939
 20
-19.00643017503327
 10
35.13471549510001
 20
-19.04860179229999
 10
35.09602832033335
 20
-19.08826808813327
 10
35.05456475236662
 20
-19.12561468219994
 10
35.01032479116663
 20
-19.16064157453329
  0
LWPOLYLINE
  5
2318D
330
1F
100
AcDbEntity
  8
1
100
AcDbPolyline
 90
       16
 70
     0
 43
0.0
 10
35.34405360473335
 20
-18.30087341533331
 10
35.33670471613334
 20
-18.34414097259999
 10
35.32709239093333
 20
-18.38676209646664
 10
35.31521662910001
 20
-18.42873678696659
 10
35.30103340033333
 20
-18.47017424796664
 10
35.28458673496664
 20
-18.51096527556663
 10
35.26600872373331
 20
-18.55078225819997
 10
35.24528220286664
 20
-18.58961735189993
 10
35.22242433613332
 20
-18.62747840063329
 10
35.19761870559995
 20
-18.66406132486664
 10
35.17084962589996
 20
-18.69935583179998
 10
35.14213278239998
 20
-18.73337221419999
 10
35.11169881336667
 20
-18.76583727079995
 10
35.07962459819998
 20
-18.79665993453327
 10
35.04583325746665
 20
-18.82593127246664
 10
35.01032479116663
 20
-18.85365128459998
  0
LINE
  5
2318E
330
1F
100
AcDbEntity
  8
1
100
AcDbLine
 10
39.05761837316664
 20
16.88958967773342
 30
0.0
 11
39.41988050123331
 21
19.65403341156676
 31
0.0
  0
LWPOLYLINE
  5
2318F
330
1F
100
AcDbEntity
  8
1
100
AcDbPolyline
 90
        3
 70
     0
 43
0.0
 10
38.91440920039997
 20
15.78493174666673
 10
38.94457824906664
 20
16.01885253470007
 10
39.05761837316664
 20
16.88958967773342
  0
LINE
  5
23190
330
1F
100
AcDbEntity
  8
1
100
AcDbLine
 10
39.41988050123331
 20
19.65403341156676
 30
0.0
 11
39.46754365723331
 21
20.02438278836675
 31
0.0
  0
LWPOLYLINE
  5
23191
330
1F
100
AcDbEntity
  8
1
100
AcDbPolyline
 90
       13
 70
     0
 43
0.0
 10
38.91440920039997
 20
15.78493175083341
 10
38.80969336536663
 20
14.96019772776677
 10
38.7102524266
 20
14.15493756056671
 10
38.61608638413333
 20
13.36915124926671
 10
38.52753215640002
 20
12.60631311666671
 10
38.4442528249333
 20
11.86294883996672
 10
38.3652376344333
 20
11.12863545053338
 10
38.29025006303329
 20
10.40257165760002
 10
38.21952663263329
 20
9.685558751933427
 10
38.15276615356669
 20
8.969577637133426
 10
38.08986822933332
 20
8.251955281066699
 10
38.03093325646666
 20
7.535364715866734
 10
37.97596123493332
 20
6.81980594150005
  0
LINE
  5
23192
330
1F
100
AcDbEntity
  8
1
100
AcDbLine
 10
39.46754365723331
 20
20.02438278836675
 30
0.0
 11
39.51055572636665
 21
20.3641646173667
 31
0.0
  0
LINE
  5
23193
330
1F
100
AcDbEntity
  8
1
100
AcDbLine
 10
39.51055572636665
 20
20.3641646173667
 30
0.0
 11
39.54892498516665
 21
20.67520008140005
 31
0.0
  0
LINE
  5
23194
330
1F
100
AcDbEntity
  8
1
100
AcDbLine
 10
39.54892498516665
 20
20.67520008140005
 30
0.0
 11
39.57156825123332
 21
20.86512644270002
 31
0.0
  0
LWPOLYLINE
  5
23195
330
1F
100
AcDbEntity
  8
1
100
AcDbPolyline
 90
        3
 70
     0
 43
0.0
 10
39.57156825123332
 20
20.86512644270002
 10
39.59135546676663
 20
21.03721268540008
 10
39.59999999999997
 20
21.11679994603335
  0
LWPOLYLINE
  5
23196
330
1F
100
AcDbEntity
  8
1
100
AcDbPolyline
 90
       14
 70
     0
 43
0.0
 10
34.58883936053331
 20
-10.12338582333328
 10
34.58977577583329
 20
-10.10613932566659
 10
34.59754790973335
 20
-10.06719128633327
 10
34.61342567119999
 20
-10.0221083197666
 10
34.63754217333331
 20
-9.970980121733276
 10
34.66982045443331
 20
-9.914128468966595
 10
34.71041119843329
 20
-9.851231584733312
 10
34.75986169053334
 20
-9.781413834433266
 10
34.81863847213333
 20
-9.70437480109993
 10
34.88662749733334
 20
-9.620414901666634
 10
34.9635529149
 20
-9.529559752366566
 10
35.04914725023332
 20
-9.431817891866643
 10
35.14324116400002
 20
-9.327180781499947
 10
35.245478978
 20
-9.215648421233282
  0
LWPOLYLINE
  5
23197
330
1F
100
AcDbEntity
  8
1
100
AcDbPolyline
 90
        3
 70
     0
 43
0.0
 10
35.31383904789999
 20
17.79054297973337
 10
35.31610629376667
 20
17.84612787106673
 10
35.31757250146666
 20
17.85850392496675
  0
LWPOLYLINE
  5
23198
330
1F
100
AcDbEntity
  8
1
100
AcDbPolyline
 90
       13
 70
     0
 43
0.0
 10
34.89383904789998
 20
-19.08060502529994
 10
34.89471769686662
 20
-19.05885186293332
 10
34.8973238027333
 20
-19.03709870056664
 10
34.90161260386668
 20
-19.01571916329996
 10
34.9076131681
 20
-18.99471970533326
 10
34.91529642763334
 20
-18.97409387246662
 10
34.92453041729999
 20
-18.95419592716663
 10
34.93534192533332
 20
-18.93503844336666
 10
34.94770416353333
 20
-18.91660884713329
 10
34.96140480216667
 20
-18.89922367906663
 10
34.9763730647
 20
-18.88298845273331
 10
34.99267972770002
 20
-18.8677976545666
 10
35.01032479116663
 20
-18.85365128459998
  0
LWPOLYLINE
  5
23199
330
1F
100
AcDbEntity
  8
1
100
AcDbPolyline
 90
       52
 70
     0
 43
0.0
 10
34.78883904790001
 20
-19.08060502529994
 10
34.79138224236664
 20
-19.00359511026661
 10
34.79876056583333
 20
-18.92744954389999
 10
34.81097401829999
 20
-18.8521683261666
 10
34.82810540236665
 20
-18.77747315229996
 10
34.85007191543332
 20
-18.70364232709997
 10
34.87662514966667
 20
-18.63151076483328
 10
34.90781717013334
 20
-18.56109775429999
 10
34.94359591176664
 20
-18.49238400666664
 10
34.98355677143332
 20
-18.42614656993325
 10
35.02774722146666
 20
-18.36241355329994
 10
35.07611978953332
 20
-18.30115684753329
 10
35.12812745549997
 20
-18.24306917276667
 10
35.18381148233328
 20
-18.18818650149998
 10
35.24313060703332
 20
-18.13647286123327
 10
35.30541402059999
 20
-18.08851305456662
 10
35.37069537143333
 20
-18.04434969219997
 10
35.43894101116666
 20
-18.00394016343327
 10
35.50937918536664
 20
-17.96774143853329
 10
35.58203478216666
 20
-17.93580131543328
 10
35.65688291346663
 20
-17.90807199619993
 10
35.73307716079995
 20
-17.88486705723332
 10
35.81063280429999
 20
-17.86623785596666
 10
35.88953456383331
 20
-17.85213303496661
 10
35.9688901806
 20
-17.84271209826662
 10
36.0487048064
 20
-17.83802821396662
 10
36.12897328939999
 20
-17.83802821396662
 10
36.20878791519999
 20
-17.84271209826662
 10
36.28814353193332
 20
-17.85213303496661
 10
36.36704529146664
 20
-17.86623785596666
 10
36.44460093496667
 20
-17.88486705723332
 10
36.5207951823333
 20
-17.90807199619993
 10
36.59564331359997
 20
-17.93580131543328
 10
36.66829891039999
 20
-17.96774143853329
 10
36.73873708463333
 20
-18.00394016343327
 10
36.8069827243333
 20
-18.04434969219997
 10
36.87226407516664
 20
-18.08851305456662
 10
36.9345474887333
 20
-18.13647286123327
 10
36.99386661346665
 20
-18.18818650149998
 10
37.04955064026666
 20
-18.24306917276667
 10
37.1015583062333
 20
-18.30115684753329
 10
37.14993087429997
 20
-18.36241355329994
 10
37.19412132433331
 20
-18.42614656993325
 10
37.23408218399999
 20
-18.49238400666664
 10
37.26986092563328
 20
-18.56109775429999
 10
37.30105294610002
 20
-18.63151076483328
 10
37.32760618033331
 20
-18.70364232709997
 10
37.34957269339998
 20
-18.77747315229996
 10
37.36670407746664
 20
-18.8521683261666
 10
37.37891752993329
 20
-18.92744954389999
 10
37.38629585339999
 20
-19.00359511026661
 10
37.38883904789998
 20
-19.08060502529994
  0
LWPOLYLINE
  5
2319A
330
1F
100
AcDbEntity
  8
1
100
AcDbPolyline
 90
       58
 70
     0
 43
0.0
 10
34.33883904789997
 20
-19.11585836826666
 10
34.34149639413334
 20
-19.02366716563333
 10
34.34946036256662
 20
-18.93175594463329
 10
34.36270676693329
 20
-18.84040383666664
 10
34.3811953783
 20
-18.74988827503327
 10
34.40487004733331
 20
-18.66048415256662
 10
34.43365887490001
 20
-18.57246298659996
 10
34.46747443026669
 20
-18.4860920945666
 10
34.50621401666666
 20
-18.40163378199995
 10
34.54975998326665
 20
-18.31934454606662
 10
34.59798008243331
 20
-18.23947429639995
 10
34.6507278712333
 20
-18.1622655963333
 10
34.70784315643328
 20
-18.08795292619996
 10
34.76915248076665
 20
-18.01676197109995
 10
34.83446964983335
 20
-17.94890893566659
 10
34.90359629753328
 20
-17.8845998872666
 10
34.9763224885333
 20
-17.82403013043333
 10
35.0524273557333
 20
-17.76738361346665
 10
35.13167977116666
 20
-17.71483237003329
 10
35.21383904789997
 20
-17.66653599653327
 10
35.29865567083329
 20
-17.62264116739996
 10
35.38587205473329
 20
-17.5832811898666
 10
35.47522332629995
 20
-17.54857559879994
 10
35.56643812863331
 20
-17.51862979403327
 10
35.65923944539998
 20
-17.49353471996662
 10
35.75334544203332
 20
-17.47336658946662
 10
35.84847032169995
 20
-17.45818665253327
 10
35.94432519330002
 20
-17.44804101009995
 10
36.04061894873331
 20
-17.4429604741666
 10
36.13705914703331
 20
-17.4429604741666
 10
36.23335290246667
 20
-17.44804101009995
 10
36.32920777406667
 20
-17.45818665253327
 10
36.42433265376667
 20
-17.47336658946662
 10
36.51843865040002
 20
-17.49353471996662
 10
36.61123996713332
 20
-17.51862979403327
 10
36.70245476946667
 20
-17.54857559879994
 10
36.79180604103334
 20
-17.5832811898666
 10
36.87902242493334
 20
-17.62264116739996
 10
36.96383904789997
 20
-17.66653599653327
 10
37.04599832460002
 20
-17.71483237003329
 10
37.12525074006663
 20
-17.76738361346665
 10
37.20135560726664
 20
-17.82403013043333
 10
37.27408179823334
 20
-17.8845998872666
 10
37.34320844593333
 20
-17.94890893566659
 10
37.40852561499997
 20
-18.01676197109995
 10
37.46983493933334
 20
-18.08795292619996
 10
37.52695022453333
 20
-18.1622655963333
 10
37.57969801336668
 20
-18.23947429639995
 10
37.62791811249997
 20
-18.31934454606662
 10
37.67146407909996
 20
-18.40163378199995
 10
37.71020366549999
 20
-18.4860920945666
 10
37.74401922086662
 20
-18.57246298659996
 10
37.77280804843332
 20
-18.66048415256662
 10
37.7964827175
 20
-18.74988827503327
 10
37.81497132883334
 20
-18.84040383666664
 10
37.82821773320001
 20
-18.93175594463329
 10
37.83618170163334
 20
-19.02366716563333
 10
37.83883904789997
 20
-19.11585836826666
  0
LINE
  5
2319B
330
1F
100
AcDbEntity
  8
1
100
AcDbLine
 10
36.42256786143332
 20
-18.07391967463329
 30
0.0
 11
36.42256786143332
 21
-18.38090996459996
 31
0.0
  0
LINE
  5
2319C
330
1F
100
AcDbEntity
  8
1
100
AcDbLine
 10
35.7551102343333
 20
-18.07391967463329
 30
0.0
 11
35.7551102343333
 21
-18.38090996459996
 31
0.0
  0
LINE
  5
2319D
330
1F
100
AcDbEntity
  8
1
100
AcDbLine
 10
35.34405360473335
 20
-18.30087341533331
 30
0.0
 11
35.34405360473335
 21
-18.60786370529998
 31
0.0
  0
LINE
  5
2319E
330
1F
100
AcDbEntity
  8
1
100
AcDbLine
 10
35.245478978
 20
-13.85197267589993
 30
0.0
 11
35.245478978
 21
-9.974142468866574
 31
0.0
  0
LINE
  5
2319F
330
1F
100
AcDbEntity
  8
1
100
AcDbLine
 10
35.245478978
 20
-9.215648421233282
 30
0.0
 11
35.245478978
 21
-9.037526872433289
 31
0.0
  0
LINE
  5
231A0
330
1F
100
AcDbEntity
  8
1
100
AcDbLine
 10
35.245478978
 20
2.101078355800069
 30
0.0
 11
35.245478978
 21
15.18446535670007
 31
0.0
  0
LINE
  5
231A1
330
1F
100
AcDbEntity
  8
1
100
AcDbLine
 10
35.245478978
 20
17.79306137526672
 30
0.0
 11
35.245478978
 21
18.56794476483335
 31
0.0
  0
LINE
  5
231A2
330
1F
100
AcDbEntity
  8
1
100
AcDbLine
 10
35.01032479116663
 20
-18.85365128459998
 30
0.0
 11
35.01032479116663
 21
-19.16064157453329
 31
0.0
  0
LWPOLYLINE
  5
231A3
330
1F
100
AcDbEntity
  8
1
100
AcDbPolyline
 90
       13
 70
     0
 43
0.0
 10
37.28383904790002
 20
-19.08060502529994
 10
37.2829603989
 20
-19.05885186293332
 10
37.28035429303333
 20
-19.03709870056664
 10
37.2760654919
 20
-19.01571916329996
 10
37.27006492766662
 20
-18.99471970533326
 10
37.26238166816666
 20
-18.97409387246662
 10
37.25314767846664
 20
-18.95419592716663
 10
37.24233617043331
 20
-18.93503844336666
 10
37.22997393226666
 20
-18.91660884713329
 10
37.21627329359995
 20
-18.89922367906663
 10
37.20130503106663
 20
-18.88298845273331
 10
37.18499836806666
 20
-18.8677976545666
 10
37.1673533046
 20
-18.85365128459998
  0
LWPOLYLINE
  5
231A4
330
1F
100
AcDbEntity
  8
1
100
AcDbPolyline
 90
       43
 70
     0
 43
0.0
 10
35.31383904789999
 20
17.79054297973337
 10
35.31610629376667
 20
17.73495808840008
 10
35.32258324979995
 20
17.68028700913342
 10
35.33326991593333
 20
17.62652974193341
 10
35.34827274323334
 20
17.5733969569001
 10
35.36748528066664
 20
17.52117798393342
 10
35.39058817526666
 20
17.47074081273339
 10
35.41764645326663
 20
17.42211522566671
 10
35.4485950884
 20
17.37527144036673
 10
35.48291964896663
 20
17.33098809956672
 10
35.52067656263336
 20
17.28930800043341
 10
35.56180940169998
 20
17.25018834580007
 10
35.60563445143333
 20
17.21427938703337
 10
35.65219671143331
 20
17.18163479003343
 10
35.70145118213333
 20
17.15220088890007
 10
35.75257915006665
 20
17.12646693730008
 10
35.80561193026665
 20
17.10449477886672
 10
35.86051820773332
 20
17.08622256993337
 10
35.91638532406665
 20
17.07195403326673
 10
35.97322933943332
 20
17.06175608916672
 10
36.03103419366664
 20
17.05556181730006
 10
36.08883904789997
 20
17.05347417960004
 10
36.14664390209998
 20
17.05556181730006
 10
36.20444875633331
 20
17.06175608916672
 10
36.26129277169997
 20
17.07195403326673
 10
36.31715988803331
 20
17.08622256993337
 10
36.37206616549998
 20
17.10449477886672
 10
36.42509894569997
 20
17.12646693730008
 10
36.4762269136333
 20
17.15220088890007
 10
36.52548138433332
 20
17.18163479003343
 10
36.57204364433329
 20
17.21427938703337
 10
36.61586869406665
 20
17.25018834580007
 10
36.65700153313333
 20
17.28930800043341
 10
36.69475844679999
 20
17.33098809956672
 10
36.72908300736668
 20
17.37527144036673
 10
36.76003164253331
 20
17.42211522566671
 10
36.78708992050002
 20
17.47074081273339
 10
36.81019281509998
 20
17.52117798393342
 10
36.82940535253334
 20
17.5733969569001
 10
36.84440817983335
 20
17.62652974193341
 10
36.85509484599999
 20
17.68028700913342
 10
36.86157180200002
 20
17.73495808840008
 10
36.8638390479
 20
17.79054297973337
  0
LINE
  5
231A5
330
1F
100
AcDbEntity
  8
1
100
AcDbLine
 10
38.03086600513331
 20
-13.56411206389995
 30
0.0
 11
37.97596123493332
 21
-13.00890455083331
 31
0.0
  0
LWPOLYLINE
  5
231A6
330
1F
100
AcDbEntity
  8
1
100
AcDbPolyline
 90
        7
 70
     0
 43
0.0
 10
37.93082365949999
 20
-13.24138044076662
 10
37.92174525870001
 20
-13.14963317866662
 10
37.91384195159998
 20
-13.05592557633328
 10
37.90742060103332
 20
-12.96063437139995
 10
37.90278097819999
 20
-12.86413892036657
 10
37.90021399170001
 20
-12.76681881433328
 10
37.89999999999998
 20
-11.02088004196659
  0
LINE
  5
231A7
330
1F
100
AcDbEntity
  8
1
100
AcDbLine
 10
38.06964669399997
 20
-13.92917599536659
 30
0.0
 11
38.03086600513331
 21
-13.56411206389995
 31
0.0
  0
LWPOLYLINE
  5
231A8
330
1F
100
AcDbEntity
  8
1
100
AcDbPolyline
 90
        7
 70
     0
 43
0.0
 10
37.97596123493332
 20
-13.54245449206664
 10
37.96705339466666
 20
-13.49245615253326
 10
37.95869951883333
 20
-13.44238554539996
 10
37.9508996074
 20
-13.3922426706666
 10
37.94365366036664
 20
-13.34202752829995
 10
37.93696167773334
 20
-13.29174011833331
 10
37.93082365949999
 20
-13.24138044076662
  0
LINE
  5
231A9
330
1F
100
AcDbEntity
  8
1
100
AcDbLine
 10
39.99861346673333
 20
-22.15647532713328
 30
0.0
 11
38.55084786373328
 21
-14.25618724159992
 31
0.0
  0
LINE
  5
231AA
330
1F
100
AcDbEntity
  8
1
100
AcDbLine
 10
37.97596123493332
 20
-13.54245449206664
 30
0.0
 11
38.02182169656664
 21
-13.79188115273328
 31
0.0
  0
LWPOLYLINE
  5
231AB
330
1F
100
AcDbEntity
  8
1
100
AcDbPolyline
 90
       12
 70
     0
 43
0.0
 10
38.23879776033328
 20
-12.79012845716662
 10
38.23052486019998
 20
-12.74537850856663
 10
38.21609468226666
 20
-12.68981565686661
 10
38.19718460486667
 20
-12.63483751526664
 10
38.17376422870001
 20
-12.58044805133326
 10
38.14586395309999
 20
-12.52664329749993
 10
38.11367267383332
 20
-12.4737875329333
 10
38.07716127336664
 20
-12.4218871972333
 10
38.03635886926662
 20
-12.37093585083326
 10
37.99154170973333
 20
-12.3212784542666
 10
37.94268255179998
 20
-12.27292378796662
 10
37.92379205236665
 20
-12.25611019536663
  0
LINE
  5
231AC
330
1F
100
AcDbEntity
  8
1
100
AcDbLine
 10
38.55084786373328
 20
-14.25618724159992
 30
0.0
 11
38.54224096573336
 21
-14.22030049216661
 31
0.0
  0
LINE
  5
231AD
330
1F
100
AcDbEntity
  8
1
100
AcDbLine
 10
38.55084786373328
 20
-9.94709415709994
 30
0.0
 11
38.5425861993333
 21
-9.913185514833259
 31
0.0
  0
LINE
  5
231AE
330
1F
100
AcDbEntity
  8
1
100
AcDbLine
 10
39.71290588126663
 20
-12.80309622786657
 30
0.0
 11
38.42042974453335
 21
-8.520324487599935
 31
0.0
  0
LINE
  5
231AF
330
1F
100
AcDbEntity
  8
1
100
AcDbLine
 10
39.99861346673333
 20
-14.7444358137333
 30
0.0
 11
38.55084786373328
 21
-9.94709415709994
 31
0.0
  0
LWPOLYLINE
  5
231B0
330
1F
100
AcDbEntity
  8
1
100
AcDbPolyline
 90
        8
 70
     0
 43
0.0
 10
29.78788195663333
 20
-16.06734168676664
 10
30.00549524826664
 20
-16.07559575629997
 10
30.08805435156665
 20
-16.07805681309995
 10
30.1753793873333
 20
-16.07992753436664
 10
30.26640253033332
 20
-16.08080485036666
 10
30.36073094699998
 20
-16.08036170823331
 10
30.45866027630001
 20
-16.07841516059997
 10
30.56015060069996
 20
-16.07476072896665
  0
LINE
  5
231B1
330
1F
100
AcDbEntity
  8
1
100
AcDbLine
 10
38.55084786373328
 20
8.171906431000053
 30
0.0
 11
38.54224096573336
 21
8.149322432733384
 31
0.0
  0
LWPOLYLINE
  5
231B2
330
1F
100
AcDbEntity
  8
1
100
AcDbPolyline
 90
        4
 70
     0
 43
0.0
 10
30.01283256139999
 20
-19.91117893433326
 10
30.02173044406664
 20
-19.88420717846665
 10
30.05852894589998
 20
-19.79971081366662
 10
30.10315138786666
 20
-19.71794657659993
  0
LWPOLYLINE
  5
231B3
330
1F
100
AcDbEntity
  8
1
100
AcDbPolyline
 90
        3
 70
     0
 43
0.0
 10
39.59999999999997
 20
15.21701544113338
 10
38.37998849579998
 20
11.04575899220006
 10
38.34393663199995
 20
10.92238945100004
  0
LINE
  5
231B4
330
1F
100
AcDbEntity
  8
1
100
AcDbLine
 10
39.99861346673333
 20
13.14366049523338
 30
0.0
 11
38.55084786373328
 21
8.171906431000053
 31
0.0
  0
LINE
  5
231B5
330
1F
100
AcDbEntity
  8
1
100
AcDbLine
 10
39.71290588126663
 20
15.20476712170008
 30
0.0
 11
38.2778205898
 21
10.27655835940007
 31
0.0
  0
LINE
  5
231B6
330
1F
100
AcDbEntity
  8
1
100
AcDbLine
 10
39.99861346673333
 20
22.81524586036673
 30
0.0
 11
39.42872468003333
 21
19.72249600166671
 31
0.0
  0
LINE
  5
231B7
330
1F
100
AcDbEntity
  8
1
100
AcDbLine
 10
39.71290588126663
 20
22.17608405016668
 30
0.0
 11
39.59999999999997
 21
21.56335108106671
 31
0.0
  0
LWPOLYLINE
  5
231B8
330
1F
100
AcDbEntity
  8
1
100
AcDbPolyline
 90
       14
 70
     0
 43
0.0
 10
34.58883940986664
 20
16.32354357476671
 10
34.58974845086664
 20
16.37977904383339
 10
34.59746893756665
 20
16.49560351046673
 10
34.61332508430002
 20
16.61411953080008
 10
34.63745268526662
 20
16.73414615340007
 10
34.66977745083335
 20
16.85445915000005
 10
34.71045688416666
 20
16.97504253946673
 10
34.76000714066669
 20
17.09642428550003
 10
34.81887523443333
 20
17.21832882443337
 10
34.88694193290001
 20
17.33934887503338
 10
34.96389985033335
 20
17.4582186801334
 10
35.04945829079998
 20
17.57396988346673
 10
35.1434403624333
 20
17.68587231070003
 10
35.245478978
 20
17.79306137526672
  0
LWPOLYLINE
  5
231B9
330
1F
100
AcDbEntity
  8
1
100
AcDbPolyline
 90
       52
 70
     0
 43
0.0
 10
34.33883904789997
 20
-19.25602804813329
 10
34.34215822259995
 20
-19.35905227593329
 10
34.35210315596663
 20
-19.46168569753328
 10
34.3686361234333
 20
-19.56353898926662
 10
34.39169440983329
 20
-19.66422578663329
 10
34.42119054713334
 20
-19.76336415019997
 10
34.45701264643333
 20
-19.86057801413332
 10
34.4990248222
 20
-19.95549861296663
 10
34.5470677079
 20
-20.04776588036666
 10
34.60095906036662
 20
-20.13702981496667
 10
34.66049445126663
 20
-20.22295180809996
 10
34.72544804246667
 20
-20.30520592823328
 10
34.79557344276662
 20
-20.38348015726663
 10
34.87060464246662
 20
-20.45747757429999
 10
34.95025702253332
 20
-20.52691748173331
 10
35.03422843423328
 20
-20.59153647023331
 10
35.12220034519998
 20
-20.65108941786665
 10
35.21383904789997
 20
-20.70535041986662
 10
35.30879692526668
 20
-20.75411364566659
 10
35.40671376963331
 20
-20.79719411966661
 10
35.50721814879995
 20
-20.83442842286664
 10
35.60992881526664
 20
-20.8656753128333
 10
35.71445615226668
 20
-20.89081625933326
 10
35.82040365186669
 20
-20.90975589423326
 10
35.92736941883334
 20
-20.92242237293331
 10
36.03494769539998
 20
-20.92876764719992
 10
36.14273040036664
 20
-20.92876764719992
 10
36.25030867693335
 20
-20.92242237293331
 10
36.35727444393331
 20
-20.90975589423326
 10
36.46322194350001
 20
-20.89081625933326
 10
36.56774928049998
 20
-20.8656753128333
 10
36.67045994696668
 20
-20.83442842286664
 10
36.77096432616662
 20
-20.79719411966661
 10
36.8688811705
 20
-20.75411364566659
 10
36.96383904789997
 20
-20.70535041986662
 10
37.05547775056664
 20
-20.65108941786665
 10
37.14344966156665
 20
-20.59153647023331
 10
37.2274210732333
 20
-20.52691748173331
 10
37.30707345333332
 20
-20.45747757429999
 10
37.38210465303331
 20
-20.38348015726663
 10
37.45223005329996
 20
-20.30520592823328
 10
37.51718364449999
 20
-20.22295180809996
 10
37.5767190354
 20
-20.13702981496667
 10
37.63061038789999
 20
-20.04776588036666
 10
37.67865327356668
 20
-19.95549861296663
 10
37.72066544933335
 20
-19.86057801413332
 10
37.75648754863329
 20
-19.76336415019997
 10
37.78598368593333
 20
-19.66422578663329
 10
37.80904197233332
 20
-19.56353898926662
 10
37.82557493979999
 20
-19.46168569753328
 10
37.83551987316668
 20
-19.35905227593329
 10
37.83883904789997
 20
-19.25602804813329
  0
LWPOLYLINE
  5
231BA
330
1F
100
AcDbEntity
  8
1
100
AcDbPolyline
 90
        3
 70
     0
 43
0.0
 10
34.34946036256662
 20
-19.29996079189996
 10
34.34149639413334
 20
-19.20804957089998
 10
34.33883904789997
 20
-19.11585836826666
  0
LINE
  5
231BB
330
1F
100
AcDbEntity
  8
1
100
AcDbLine
 10
38.55084786373328
 20
-9.94709415709994
 30
0.0
 11
38.54224096573336
 21
-9.925302420366591
 31
0.0
  0
LWPOLYLINE
  5
231BC
330
1F
100
AcDbEntity
  8
1
100
AcDbPolyline
 90
       10
 70
     0
 43
0.0
 10
35.48711042539998
 20
1.32107835580004
 10
35.45789155546669
 20
1.357934413000037
 10
35.41037561599996
 20
1.431948694133353
 10
35.36808676760001
 20
1.513294060466733
 10
35.33148832906665
 20
1.601079267533378
 10
35.30098127213336
 20
1.694342518666729
 10
35.27689982649997
 20
1.792062017466747
 10
35.25950782766666
 20
1.893167136166738
 10
35.24899582259997
 20
1.996550142933386
 10
35.24547897819997
 20
2.101078355800069
  0
LINE
  5
231BD
330
1F
100
AcDbEntity
  8
1
100
AcDbLine
 10
16.37581458903332
 20
22.33367762346674
 30
0.0
 11
16.30083844893334
 21
22.40680943920009
 31
0.0
  0
LWPOLYLINE
  5
231BE
330
1F
100
AcDbEntity
  8
1
100
AcDbPolyline
 90
        3
 70
     0
 43
0.0
 10
16.31199589779999
 20
22.36171653856676
 10
16.31540584629999
 20
22.35851049260006
 10
16.3255453009333
 20
22.35109371293336
  0
LWPOLYLINE
  5
231BF
330
1F
100
AcDbEntity
  8
1
100
AcDbPolyline
 90
        9
 70
     0
 43
0.0
 10
34.76115792863334
 20
-10.20648101019995
 10
34.73514894286666
 20
-10.21059661873326
 10
34.71116959666665
 20
-10.21276989689997
 10
34.68925408603332
 20
-10.21298277913327
 10
34.66943533596662
 20
-10.21125333093332
 10
34.65177889159998
 20
-10.20768809329993
 10
34.63630668523331
 20
-10.20232257989991
 10
34.62301261809995
 20
-10.19512127703328
 10
34.61190099419997
 20
-10.18608418473329
  0
LWPOLYLINE
  5
231C0
330
1F
100
AcDbEntity
  8
1
100
AcDbPolyline
 90
       10
 70
     0
 43
0.0
 10
24.67487392363336
 20
-13.03513972236661
 10
24.16864123853333
 20
-13.16186029083329
 10
23.66836850409999
 20
-13.3121476786666
 10
23.17405572036665
 20
-13.48563135533331
 10
22.68343917909999
 20
-13.68249180543327
 10
22.19878258853333
 20
-13.90159003953326
 10
21.72687707326662
 20
-14.14051198806666
 10
21.26998634149999
 20
-14.39804115996659
 10
20.8258466850333
 20
-14.6741059623333
 10
20.39445810386667
 20
-14.96794253286665
  0
LWPOLYLINE
  5
231C1
330
1F
100
AcDbEntity
  8
1
100
AcDbPolyline
 90
       31
 70
     0
 43
0.0
 10
20.39445810386667
 20
-14.96794253286665
 10
20.19807463823332
 20
-15.11331999939997
 10
20.01517253253331
 20
-15.25516470169995
 10
19.84551635246663
 20
-15.39298117653331
 10
19.6898024148
 20
-15.52603067579994
 10
19.54686803529995
 20
-15.65415315286665
 10
19.41375442046666
 20
-15.77786456969997
 10
19.29020907706666
 20
-15.89674821289995
 10
19.17618372626663
 20
-16.01069605693331
 10
19.0691309669333
 20
-16.1208694648333
 10
18.96876936623329
 20
-16.22713864856663
 10
18.87519259179999
 20
-16.32932819413329
 10
18.78649060219999
 20
-16.4286495712666
 10
18.70243896046662
 20
-16.52508872743325
 10
18.62314587623331
 20
-16.61848005419997
 10
18.5472487116333
 20
-16.70987971606663
 10
18.47462330756667
 20
-16.79926267843328
 10
18.4053209772
 20
-16.88654523966661
 10
18.33827452199995
 20
-16.97274096549998
 10
18.27335367346666
 20
-17.05790370453327
 10
18.2106457251333
 20
-17.14191617293326
 10
18.14943162966665
 20
-17.22556459706661
 10
18.08950677626666
 20
-17.30906941016664
 10
18.03105132793331
 20
-17.39217340836663
 10
17.97393323576665
 20
-17.47495937803327
 10
17.91810716989999
 20
-17.55745691953328
 10
17.86359606993329
 20
-17.63960417539997
 10
17.81037199473331
 20
-17.72134928599993
 10
17.75841848506667
 20
-17.80266515356661
 10
17.70773036223335
 20
-17.88354918769997
 10
17.65829695726665
 20
-17.96398709603326
  0
LINE
  5
231C2
330
1F
100
AcDbEntity
  8
1
100
AcDbLine
 10
31.43230218066668
 20
-18.59029921446662
 30
0.0
 11
31.43230218066668
 21
-18.97892086006661
 31
0.0
  0
LINE
  5
231C3
330
1F
100
AcDbEntity
  8
1
100
AcDbLine
 10
30.55179634653331
 20
4.058881815066712
 30
0.0
 11
30.55179625313332
 21
16.55195460550007
 31
0.0
  0
LINE
  5
231C4
330
1F
100
AcDbEntity
  8
1
100
AcDbLine
 10
30.55179634653331
 20
-15.36691098163331
 30
0.0
 11
30.55179605926668
 21
-11.7142900512666
 31
0.0
  0
LINE
  5
231C5
330
1F
100
AcDbEntity
  8
1
100
AcDbLine
 10
31.5649746711
 20
1.301078355800058
 30
0.0
 11
31.56715419186668
 21
1.101078355766759
 31
0.0
  0
LWPOLYLINE
  5
231C6
330
1F
100
AcDbEntity
  8
1
100
AcDbPolyline
 90
       20
 70
     0
 43
0.0
 10
32.22994805273334
 20
2.846837338566757
 10
32.22657951809998
 20
2.934426084433397
 10
32.21533705569999
 20
3.021771776633414
 10
32.19621050283331
 20
3.108874415166752
 10
32.16914570316664
 20
3.196475100166736
 10
32.13415562916663
 20
3.283832731500041
 10
32.09132115113329
 20
3.36872400866676
 10
32.04066572309995
 20
3.450834717733386
 10
31.98208865843333
 20
3.530479072633426
 10
31.91547644916665
 20
3.606376414666698
 10
31.84034640266663
 20
3.678796197466709
 10
31.7570724236333
 20
3.747468967333389
 10
31.66682989449999
 20
3.810305704766761
 10
31.5700208065
 20
3.866986805600078
 10
31.46614690346666
 20
3.917831873966719
 10
31.35504165413335
 20
3.961710702466717
 10
31.23595870046666
 20
3.998896570333414
 10
31.10954392999997
 20
4.029116198333412
 10
30.97773979456662
 20
4.050419541333411
 10
30.906779514
 20
4.057688714666738
  0
LINE
  5
231C7
330
1F
100
AcDbEntity
  8
1
100
AcDbLine
 10
30.71633222463333
 20
1.101078355766759
 30
0.0
 11
30.69750401896664
 21
1.301078355800058
 31
0.0
  0
LINE
  5
231C8
330
1F
100
AcDbEntity
  8
1
100
AcDbLine
 10
30.51709054499998
 20
1.101078355766759
 30
0.0
 11
30.49826490819999
 21
1.301051068133375
 31
0.0
  0
LWPOLYLINE
  5
231C9
330
1F
100
AcDbEntity
  8
1
100
AcDbPolyline
 90
        9
 70
     0
 43
0.0
 10
30.6210711005333
 20
1.301078355800058
 10
30.61706487113332
 20
1.317971960100095
 10
30.60611516736668
 20
1.372837561033378
 10
30.59599757806666
 20
1.432825647866735
 10
30.58678327089996
 20
1.497514261066754
 10
30.5785370598
 20
1.566448377366697
 10
30.57131694913329
 20
1.639143110400056
 10
30.56517372549996
 20
1.715087121400046
 10
30.56015060069996
 20
1.793746216000073
  0
LINE
  5
231CA
330
1F
100
AcDbEntity
  8
1
100
AcDbLine
 10
38.7596121185
 20
-15.39538943786661
 30
0.0
 11
39.44332380420002
 21
-15.54036880756664
 31
0.0
  0
LINE
  5
231CB
330
1F
100
AcDbEntity
  8
1
100
AcDbLine
 10
39.44332380420002
 20
-15.54036880756664
 30
0.0
 11
39.48012613650002
 21
-15.54693623669996
 31
0.0
  0
LINE
  5
231CC
330
1F
100
AcDbEntity
  8
1
100
AcDbLine
 10
39.71394640929998
 20
22.90144290666674
 30
0.0
 11
39.99997895949997
 21
23.76713974523338
 31
0.0
  0
LINE
  5
231CD
330
1F
100
AcDbEntity
  8
1
100
AcDbLine
 10
39.47824746863336
 20
24.12386917850003
 30
0.0
 11
39.48012613650002
 21
24.12955509380007
 31
0.0
  0
LWPOLYLINE
  5
231CE
330
1F
100
AcDbEntity
  8
1
100
AcDbPolyline
 90
       22
 70
     0
 43
0.0
 10
29.9551056163333
 20
-19.57878687393329
 10
29.95528426746665
 20
-19.56093298083326
 10
29.96207308610002
 20
-19.46044008413329
 10
29.97855160113335
 20
-19.3618962186666
 10
30.00498147976663
 20
-19.26535401746659
 10
30.04110105479998
 20
-19.17076084749996
 10
30.08594363029999
 20
-19.08064837849994
 10
30.1397447681
 20
-18.99513761039995
 10
30.20226890639998
 20
-18.91410754326662
 10
30.27184266356665
 20
-18.83972684706666
 10
30.34865641236667
 20
-18.77217508596661
 10
30.43251978006669
 20
-18.71127269579998
 10
30.52118826689997
 20
-18.65864965403327
 10
30.61479163356665
 20
-18.61452954183332
 10
30.71320011936666
 20
-18.5786887780666
 10
30.81377994236664
 20
-18.5520865966333
 10
30.91658973883335
 20
-18.5349724824666
 10
31.02157087249998
 20
-18.52709695063331
 10
31.12591365259999
 20
-18.52867078003331
 10
31.22868151553331
 20
-18.53976423029994
 10
31.33081102490002
 20
-18.56030704176666
 10
31.43230218066668
 20
-18.59029921446662
  0
LINE
  5
231CF
330
1F
100
AcDbEntity
  8
1
100
AcDbLine
 10
31.5649746711
 20
-20.71609464229997
 30
0.0
 11
31.57331246976668
 21
-20.84706073279997
 31
0.0
  0
LINE
  5
231D0
330
1F
100
AcDbEntity
  8
1
100
AcDbLine
 10
39.47824746863336
 20
1.284789662933377
 30
0.0
 11
39.44332380420002
 21
1.301078355800058
 31
0.0
  0
LINE
  5
231D1
330
1F
100
AcDbEntity
  8
1
100
AcDbLine
 10
39.71290588126663
 20
22.17608405016668
 30
0.0
 11
39.99861346673333
 21
22.81524586036673
 31
0.0
  0
LINE
  5
231D2
330
1F
100
AcDbEntity
  8
1
100
AcDbLine
 10
37.45643167413329
 20
17.23797837203338
 30
0.0
 11
37.53320006173334
 21
17.4365060824334
 31
0.0
  0
LWPOLYLINE
  5
231D3
330
1F
100
AcDbEntity
  8
1
100
AcDbPolyline
 90
       16
 70
     0
 43
0.0
 10
30.72441314093334
 20
-17.17363874099996
 10
30.70994863053335
 20
-17.09367931503331
 10
30.69558586429997
 20
-17.01222576939992
 10
30.68142587073334
 20
-16.92985105279999
 10
30.66756825199997
 20
-16.84713459356661
 10
30.65411048333334
 20
-16.76465822383326
 10
30.64114722743335
 20
-16.68300208689996
 10
30.62876966856663
 20
-16.60274055653329
 10
30.61706487113332
 20
-16.52443819679999
 10
30.60611516736668
 20
-16.44864579076662
 10
30.59599757806666
 20
-16.37589646639995
 10
30.58678327089996
 20
-16.30670194649994
 10
30.5785370598
 20
-16.24154894906664
 10
30.57131694913329
 20
-16.1808957639333
 10
30.56517372549996
 20
-16.1251690289333
 10
30.56015060069996
 20
-16.07476072896665
  0
LWPOLYLINE
  5
231D4
330
1F
100
AcDbEntity
  8
1
100
AcDbPolyline
 90
        3
 70
     0
 43
0.0
 10
34.35596640626665
 20
-19.8537055964666
 10
34.38678092879996
 20
-19.9417180417333
 10
34.40022269466664
 20
-19.97457170333328
  0
LWPOLYLINE
  5
231D5
330
1F
100
AcDbEntity
  8
1
100
AcDbPolyline
 90
       10
 70
     0
 43
0.0
 10
29.78788195663333
 20
2.101078355800069
 10
29.85666198196663
 20
2.056018632533408
 10
29.92992937136666
 20
2.013539297466735
 10
30.00762830346668
 20
1.973696590000059
 10
30.08985180939999
 20
1.936400850600051
 10
30.17640617699999
 20
1.901787139266758
 10
30.26680373013329
 20
1.870210940800035
 10
30.36084852339997
 20
1.841765022000032
 10
30.45864372173332
 20
1.816291384133393
 10
30.56015060069996
 20
1.793746216000073
  0
LINE
  5
231D6
330
1F
100
AcDbEntity
  8
1
100
AcDbLine
 10
38.55084786373328
 20
8.171906431000053
 30
0.0
 11
38.5425861993333
 21
8.163516723666731
 31
0.0
  0
LWPOLYLINE
  5
231D7
330
1F
100
AcDbEntity
  8
1
100
AcDbPolyline
 90
       10
 70
     0
 43
0.0
 10
31.90155154476662
 20
2.101078355800069
 10
31.96980099526667
 20
2.170953332800053
 10
32.03017389776665
 20
2.2447139176667
 10
32.08271712739998
 20
2.322360110433379
 10
32.12768019193334
 20
2.404743677533389
 10
32.16489208313334
 20
2.491012852500062
 10
32.19376369793332
 20
2.578612336033387
 10
32.214115204
 20
2.666690361666752
 10
32.22617283596668
 20
2.756098695833401
 10
32.22994805273334
 20
2.846837338566757
  0
LWPOLYLINE
  5
231D8
330
1F
100
AcDbEntity
  8
1
100
AcDbPolyline
 90
       29
 70
     0
 43
0.0
 10
39.00454262670002
 20
16.48205551230003
 10
39.0076728588333
 20
16.48674930666672
 10
39.03683037736664
 20
16.52913854116676
 10
39.06504561166668
 20
16.56885622166672
 10
39.09236651806663
 20
16.60616031013339
 10
39.11879809156665
 20
16.64108789160005
 10
39.14435492139995
 20
16.6736590205667
 10
39.16909490500001
 20
16.70410008040008
 10
39.19302010236669
 20
16.73244292060005
 10
39.21614556526669
 20
16.75870336320005
 10
39.23854176063333
 20
16.78307675236672
 10
39.26020526263329
 20
16.8055916476334
 10
39.2811506708
 20
16.82625743233339
 10
39.30146495679998
 20
16.84523229220005
 10
39.3211421506
 20
16.86254779356673
 10
39.34018825926666
 20
16.87819982090005
 10
39.35869378080003
 20
16.89228357196671
 10
39.37666046316662
 20
16.90483585080008
 10
39.3940704868333
 20
16.91583713636672
 10
39.41097119270001
 20
16.92529051860006
 10
39.42735595099998
 20
16.93322006153337
 10
39.44320441236664
 20
16.93961464906672
 10
39.4585338678333
 20
16.94442043046675
 10
39.47329959826664
 20
16.94766350270007
 10
39.4875147084
 20
16.94933100283336
 10
39.50126437316664
 20
16.94930378916675
 10
39.51452067936663
 20
16.94762633680003
 10
39.52724524036666
 20
16.94425871003344
 10
39.53947801980002
 20
16.93894625460004
  0
LWPOLYLINE
  5
231D9
330
1F
100
AcDbEntity
  8
1
100
AcDbPolyline
 90
       13
 70
     0
 43
0.0
 10
17.65829695726665
 20
-17.96398709603326
 10
17.48506871259997
 20
-18.25590292999996
 10
17.32281734526663
 20
-18.54684140906661
 10
17.17124604343331
 20
-18.83641232776662
 10
17.02906227996663
 20
-19.12615417926665
 10
16.89701155999995
 20
-19.41385339656662
 10
16.77776517906664
 20
-19.69342830969995
 10
16.67170386756669
 20
-19.96390188189994
 10
16.57776239833333
 20
-20.2255322592666
 10
16.49636219376663
 20
-20.47403007489996
 10
16.42746411389999
 20
-20.70779434713327
 10
16.37059150986664
 20
-20.92793143859998
 10
16.3255453009333
 20
-21.13425664206662
  0
LINE
  5
231DA
330
1F
100
AcDbEntity
  8
1
100
AcDbLine
 10
24.67487392363336
 20
-16.92423041943331
 30
0.0
 11
24.67487392363336
 21
-13.03513972236661
 31
0.0
  0
LINE
  5
231DB
330
1F
100
AcDbEntity
  8
1
100
AcDbLine
 10
24.67487392363336
 20
2.101078355800069
 30
0.0
 11
24.67487392363336
 21
15.40294934476676
 31
0.0
  0
LWPOLYLINE
  5
231DC
330
1F
100
AcDbEntity
  8
1
100
AcDbPolyline
 90
       50
 70
     0
 43
0.0
 10
34.35748632409997
 20
-19.8876616680333
 10
34.39683090019997
 20
-19.96838283239995
 10
34.44164805973333
 20
-20.05015890056663
 10
34.49050721766667
 20
-20.12978962559996
 10
34.54338113099999
 20
-20.20728946699998
 10
34.59991182266668
 20
-20.28213372059994
 10
34.66012410649995
 20
-20.35430436626663
 10
34.72399316866666
 20
-20.42381942406664
 10
34.79108659063331
 20
-20.49020824989995
 10
34.86142625193333
 20
-20.55344962999996
 10
34.93499027299999
 20
-20.61356477809997
 10
35.0112805966333
 20
-20.67014669109997
 10
35.09031572269999
 20
-20.72317139349994
 10
35.17207715133333
 20
-20.77266286079995
 10
35.25601132566663
 20
-20.81828601643329
 10
35.34213298929996
 20
-20.86001461109995
 10
35.4304273986333
 20
-20.89787489409994
 10
35.52029676590001
 20
-20.93161053643328
 10
35.61175177836668
 20
-20.96119354956663
 10
35.70478174879998
 20
-20.98665192203331
 10
35.79875682786667
 20
-21.00781329069994
 10
35.8936834288333
 20
-21.02464849739996
 10
35.98955513846664
 20
-21.03718670029994
 10
36.0857228677333
 20
-21.04534301089993
 10
36.18218862536668
 20
-21.04908769489995
 10
36.27895040263331
 20
-21.04845048659999
 10
36.37535308446667
 20
-21.0434357001333
 10
36.47139423409999
 20
-21.03401363049997
 10
36.56707628829997
 20
-21.02021398269997
 10
36.66175144203336
 20
-21.00213018573331
 10
36.75541286286665
 20
-20.97973316863326
 10
36.84806738326666
 20
-20.95305200239997
 10
36.93908769586665
 20
-20.92226732889995
 10
37.02846271143329
 20
-20.88735130303328
 10
37.11620351919999
 20
-20.84833176989994
 10
37.2017160795333
 20
-20.80547290709998
 10
37.28498527226662
 20
-20.75874866199999
 10
37.36602621756669
 20
-20.70818508719995
 10
37.44429023653334
 20
-20.65412451789993
 10
37.51975848579997
 20
-20.59654322449998
 10
37.5924498087
 20
-20.53546493659994
 10
37.66187205656667
 20
-20.47130317809999
 10
37.72800304643335
 20
-20.40403702546663
 10
37.79086496123336
 20
-20.33368740223327
 10
37.85003220120001
 20
-20.26073060293331
 10
37.90547969539995
 20
-20.18514893596663
 10
37.95723251479996
 20
-20.10696009289998
 10
38.00494027253331
 20
-20.02669344279994
 10
38.04848617299996
 20
-19.94452544203326
 10
38.07551835733335
 20
-19.88805006196659
  0
LWPOLYLINE
  5
231DD
330
1F
100
AcDbEntity
  8
1
100
AcDbPolyline
 90
        4
 70
     0
 43
0.0
 10
34.61190099419997
 20
-10.18608418473329
 10
34.59730602356666
 20
-10.16557082559993
 10
34.58981059659999
 20
-10.13892253923327
 10
34.58883936053331
 20
-10.12338582333328
  0
LINE
  5
231DE
330
1F
100
AcDbEntity
  8
1
100
AcDbLine
 10
6.149999999999977
 20
-5.227499999999935
 30
0.0
 11
0.8000000000000113
 21
-5.227499999999935
 31
0.0
  0
LWPOLYLINE
  5
231DF
330
1F
100
AcDbEntity
  8
1
100
AcDbPolyline
 90
       16
 70
     0
 43
0.0
 10
35.88746403553336
 20
-14.87755963626662
 10
35.82035808176665
 20
-14.79931584126663
 10
35.75398740060001
 20
-14.71872604913332
 10
35.68907916543333
 20
-14.63667322726664
 10
35.6263445263333
 20
-14.55405637219994
 10
35.56647081299997
 20
-14.47178065246666
 10
35.51011400520002
 20
-14.39074749153329
 10
35.45789155546669
 20
-14.31184470549996
 10
35.41037561599996
 20
-14.23593676443326
 10
35.36808676760001
 20
-14.16385531573328
 10
35.33148832906665
 20
-14.09639009343331
 10
35.30098127213336
 20
-14.03428025213324
 10
35.27689982649997
 20
-13.97820626199993
 10
35.25950782766666
 20
-13.92878247253324
 10
35.24899582259997
 20
-13.88655037813325
 10
35.24547897819997
 20
-13.85197267573326
  0
LWPOLYLINE
  5
231E0
330
1F
100
AcDbEntity
  8
1
100
AcDbPolyline
 90
       16
 70
     0
 43
0.0
 10
24.84749071803333
 20
1.101078355800069
 10
24.82944741673333
 20
1.106556419300062
 10
24.81160178896664
 20
1.122930605366747
 10
24.79414935446664
 20
1.150021536733362
 10
24.77728132523334
 20
1.187532422400039
 10
24.76118251209999
 20
1.235052305600078
 10
24.74602929959997
 20
1.292060562733382
 10
24.73198771073334
 20
1.357932616333386
 10
24.71921159029995
 20
1.431946771500093
 10
24.70784091996666
 20
1.513292113133417
 10
24.69800028106664
 20
1.601077412533385
 10
24.68979749203328
 20
1.694340879200041
 10
24.68332242769998
 20
1.792060683166738
 10
24.67864603179999
 20
1.893166177966719
 10
24.67581954086666
 20
1.996549633766704
 10
24.67487392389995
 20
2.101078355800069
  0
LINE
  5
231E1
330
1F
100
AcDbEntity
  8
1
100
AcDbLine
 10
34.7141980317333
 20
1.301078355800058
 30
0.0
 11
34.78883904790001
 21
1.32107835580004
 31
0.0
  0
LWPOLYLINE
  5
231E2
330
1F
100
AcDbEntity
  8
1
100
AcDbPolyline
 90
        7
 70
     0
 43
0.0
 10
39.33159597133334
 20
21.52365643223337
 10
39.27346979396663
 20
21.4512461031334
 10
39.21057253663332
 20
21.37841275746669
 10
39.14304970803329
 20
21.30515639520004
 10
39.07106200326666
 20
21.23147701630003
 10
38.99478506819998
 20
21.1573746208667
 10
38.91440921206669
 20
21.08284920880007
  0
LWPOLYLINE
  5
231E3
330
1F
100
AcDbEntity
  8
1
100
AcDbPolyline
 90
       16
 70
     0
 43
0.0
 10
24.84749071803333
 20
-18.1585518438666
 10
24.82944741673333
 20
-18.05849002499994
 10
24.81160178896664
 20
-17.95632116903331
 10
24.79414935446664
 20
-17.85316464936662
 10
24.77728132523334
 20
-17.75015066089995
 10
24.76118251209999
 20
-17.64840784683329
 10
24.74602929959997
 20
-17.54905093266663
 10
24.73198771073334
 20
-17.45316849523326
 10
24.71921159029995
 20
-17.36181105083332
 10
24.70784091996666
 20
-17.27597955193331
 10
24.69800028106664
 20
-17.19661439419994
 10
24.68979749203328
 20
-17.12458513059997
 10
24.68332242769998
 20
-17.06068095169993
 10
24.67864603179999
 20
-17.00560201629994
 10
24.67581954086666
 20
-16.9599517848666
 10
24.67487392389995
 20
-16.92423041939995
  0
LINE
  5
231E4
330
1F
100
AcDbEntity
  8
1
100
AcDbLine
 10
30.86869278429998
 20
-20.63323333509996
 30
0.0
 11
30.69750401896664
 21
-20.23865214913329
 31
0.0
  0
LINE
  5
231E5
330
1F
100
AcDbEntity
  8
1
100
AcDbLine
 10
30.74540232210001
 20
-20.55444527696662
 30
0.0
 11
30.52870741086662
 21
-20.05497479529996
 31
0.0
  0
LINE
  5
231E6
330
1F
100
AcDbEntity
  8
1
100
AcDbLine
 10
39.7139456727333
 20
-1.178921644199959
 30
0.0
 11
37.19710435270002
 21
-1.178921644199959
 31
0.0
  0
LINE
  5
231E7
330
1F
100
AcDbEntity
  8
4
100
AcDbLine
 10
41.30845645246665
 20
0.0000000000000284
 30
0.0
 11
-1.0
 21
0.0000000000000284
 31
0.0
  0
LINE
  5
231E8
330
1F
100
AcDbEntity
  8
1
100
AcDbLine
 10
16.3255453009333
 20
-21.13425664206662
 30
0.0
 11
16.31686099859996
 21
-21.17778568306662
 31
0.0
  0
LINE
  5
231E9
330
1F
100
AcDbEntity
  8
1
100
AcDbLine
 10
16.31686099859996
 20
-21.17778568306662
 30
0.0
 11
16.30862575839995
 21
-21.22080376209996
 31
0.0
  0
LINE
  5
231EA
330
1F
100
AcDbEntity
  8
1
100
AcDbLine
 10
16.30862575839995
 20
-21.22080376209996
 30
0.0
 11
16.30083844893334
 21
-21.26330985633329
 31
0.0
  0
LWPOLYLINE
  5
231EB
330
1F
100
AcDbEntity
  8
1
100
AcDbPolyline
 90
       12
 70
     0
 43
0.0
 10
30.81056428393333
 20
1.757610645733421
 10
30.82782093656664
 20
1.756127937466686
 10
30.95838539166664
 20
1.749678366633389
 10
31.08712254846665
 20
1.75233425020005
 10
31.21271881166666
 20
1.764723149833372
 10
31.33211104063332
 20
1.786876394466759
 10
31.44338377299999
 20
1.818719773933395
 10
31.54742704203335
 20
1.860016181033387
 10
31.64547115586663
 20
1.909636176133432
 10
31.73769771363334
 20
1.966656372266726
 10
31.82316680316666
 20
2.030695657633401
 10
31.90155154476662
 20
2.101078355800069
  0
LINE
  5
231EC
330
1F
100
AcDbEntity
  8
1
100
AcDbLine
 10
36.74190416786667
 20
1.101078355800069
 30
0.0
 11
17.27764071839999
 21
1.101078355766759
 31
0.0
  0
LINE
  5
231ED
330
1F
100
AcDbEntity
  8
1
100
AcDbLine
 10
39.99997809226665
 20
1.301078355800058
 30
0.0
 11
30.49826321463331
 21
1.301078355800058
 31
0.0
  0
LINE
  5
231EE
330
1F
100
AcDbEntity
  8
1
100
AcDbLine
 10
37.38883904789998
 20
1.32107835580004
 30
0.0
 11
34.78883904790001
 21
1.32107835580004
 31
0.0
  0
LINE
  5
231EF
330
1F
100
AcDbEntity
  8
1
100
AcDbLine
 10
37.89999999999998
 20
2.101078355800069
 30
0.0
 11
31.90155154476662
 21
2.101078355800069
 31
0.0
  0
LINE
  5
231F0
330
1F
100
AcDbEntity
  8
1
100
AcDbLine
 10
29.78788195663333
 20
2.101078355800069
 30
0.0
 11
16.30083844893334
 21
2.101078355800069
 31
0.0
  0
LWPOLYLINE
  5
231F1
330
1F
100
AcDbEntity
  8
1
100
AcDbPolyline
 90
        7
 70
     0
 43
0.0
 10
16.30083844893334
 20
-21.26330985633329
 10
16.29892983526662
 20
-21.28051665043333
 10
16.29943286076667
 20
-21.29845191009994
 10
16.30234735126663
 20
-21.3171178013333
 10
16.30767229666668
 20
-21.33651862646664
 10
16.31540584629999
 20
-21.35666083146666
 10
16.3255453009333
 20
-21.3775530116333
  0
LINE
  5
231F2
330
1F
100
AcDbEntity
  8
1
100
AcDbLine
 10
16.3255453009333
 20
2.456146637766693
 30
0.0
 11
16.31268731783331
 21
2.278355441800073
 31
0.0
  0
LINE
  5
231F3
330
1F
100
AcDbEntity
  8
1
100
AcDbLine
 10
16.31268731783331
 20
2.278355441800073
 30
0.0
 11
16.30083844893334
 21
2.101078355800069
 31
0.0
  0
LWPOLYLINE
  5
231F4
330
1F
100
AcDbEntity
  8
1
100
AcDbPolyline
 90
        7
 70
     0
 43
0.0
 10
16.30083844893334
 20
2.101078355766759
 10
16.29892983526662
 20
2.053962381933416
 10
16.29943286076667
 20
2.006878030433398
 10
16.30234735126663
 20
1.959820178533419
 10
16.30767229666668
 20
1.912783882933382
 10
16.31540584629999
 20
1.865764355733375
 10
16.3255453009333
 20
1.81875694043336
  0
LINE
  5
231F5
330
1F
100
AcDbEntity
  8
1
100
AcDbLine
 10
16.3255453009333
 20
22.98245903370006
 30
0.0
 11
16.3255453009333
 21
22.49142880240007
 31
0.0
  0
LWPOLYLINE
  5
231F6
330
1F
100
AcDbEntity
  8
1
100
AcDbPolyline
 90
       19
 70
     0
 43
0.0
 10
16.3255453009333
 20
1.81875694043336
 10
16.34649755399999
 20
1.747485644300041
 10
16.37206107513333
 20
1.679465303966736
 10
16.40223586429999
 20
1.614687493766751
 10
16.43714928886663
 20
1.553110023633422
 10
16.47667398149997
 20
1.494761357466728
 10
16.52042784006664
 20
1.439742127800087
 10
16.56857365346667
 20
1.387816280333396
 10
16.62094863283329
 20
1.339215311466688
 10
16.6766823095333
 20
1.294748618633406
 10
16.73594798416667
 20
1.254491188300022
 10
16.79857235613332
 20
1.218379620200067
 10
16.86316505523331
 20
1.187026249433387
 10
16.92969353796667
 20
1.160636413633397
 10
16.99819034783331
 20
1.13903130590009
 10
17.06736274479999
 20
1.122254099533421
 10
17.13677981556662
 20
1.110330390866721
 10
17.20687247343329
 20
1.103266474933406
 10
17.27764071839999
 20
1.101078355766759
  0
LWPOLYLINE
  5
231F7
330
1F
100
AcDbEntity
  8
1
100
AcDbPolyline
 90
        6
 70
     0
 43
0.0
 10
37.1673533046
 20
-19.16064157453329
 10
37.18503243736666
 20
-19.17482471409997
 10
37.20136199229995
 20
-19.1900423498333
 10
37.21634196939999
 20
-19.20629448173329
 10
37.23003916103329
 20
-19.22368383439996
 10
37.23701899836664
 20
-19.23409843509998
  0
LWPOLYLINE
  5
231F8
330
1F
100
AcDbEntity
  8
1
100
AcDbPolyline
 90
        3
 70
     0
 43
0.0
 10
30.56015060069996
 20
1.793746216000073
 10
30.69496707009995
 20
1.771033560166728
 10
30.81056428393333
 20
1.757610645733421
  0
LWPOLYLINE
  5
231F9
330
1F
100
AcDbEntity
  8
1
100
AcDbPolyline
 90
        4
 70
     0
 43
0.0
 10
30.906779514
 20
4.057688714666738
 10
30.84118848253331
 20
4.062156584266716
 10
30.69921181966669
 20
4.064977342166713
 10
30.55179634653331
 20
4.058881815066712
  0
LWPOLYLINE
  5
231FA
330
1F
100
AcDbEntity
  8
1
100
AcDbPolyline
 90
        7
 70
     0
 43
0.0
 10
38.07384247543331
 20
20.30406691113339
 10
38.04555531126664
 20
20.27819617116674
 10
38.01718234129999
 20
20.25424243296672
 10
37.98872356559997
 20
20.23220569660006
 10
37.96017898409997
 20
20.2120859620334
 10
37.93154859679999
 20
20.19388322930004
 10
37.90283240376664
 20
20.17759749836674
  0
LWPOLYLINE
  5
231FB
330
1F
100
AcDbEntity
  8
1
100
AcDbPolyline
 90
       13
 70
     0
 43
0.0
 10
35.01032479116663
 20
-19.30755876599997
 10
34.99267972770002
 20
-19.29341239599998
 10
34.9763730647
 20
-19.27822159786663
 10
34.96140480216667
 20
-19.26198637149994
 10
34.94770416353333
 20
-19.24460120343329
 10
34.93534192533332
 20
-19.22617160719997
 10
34.92453041729999
 20
-19.20701412339994
 10
34.91529642763334
 20
-19.18711617809995
 10
34.9076131681
 20
-19.16649034523331
 10
34.90161260386668
 20
-19.14549088726662
 10
34.8973238027333
 20
-19.12411134999999
 10
34.89471769686662
 20
-19.10235818763325
 10
34.89383904789998
 20
-19.08060502529994
  0
LWPOLYLINE
  5
231FC
330
1F
100
AcDbEntity
  8
1
100
AcDbPolyline
 90
       13
 70
     0
 43
0.0
 10
37.1673533046
 20
-19.16064157453329
 10
37.12311334343332
 20
-19.12561468219994
 10
37.08164977543333
 20
-19.08826808813327
 10
37.04296260066667
 20
-19.04860179229999
 10
37.00691300186662
 20
-19.00643017503327
 10
36.97363979626664
 20
-18.9619388560333
 10
36.94355943566666
 20
-18.91568469446665
 10
36.91671204956668
 20
-18.86764553393331
 10
36.89305750850002
 20
-18.8178435308333
 10
36.87289187576664
 20
-18.76690201359994
 10
36.85631383916666
 20
-18.71502875829994
 10
36.84322471093333
 20
-18.66201598889998
 10
36.83362449103333
 20
-18.60786370529998
  0
LWPOLYLINE
  5
231FD
330
1F
100
AcDbEntity
  8
1
100
AcDbPolyline
 90
       16
 70
     0
 43
0.0
 10
37.1673533046
 20
-18.85365128459998
 10
37.13184483833334
 20
-18.82593127246664
 10
37.09805349760001
 20
-18.79665993453327
 10
37.06597928239995
 20
-18.76583727079995
 10
37.03554531336664
 20
-18.73337221419999
 10
37.00682846989997
 20
-18.69935583179998
 10
36.98005939019998
 20
-18.66406132486664
 10
36.95525375966662
 20
-18.62747840063329
 10
36.93239589289999
 20
-18.58961735189993
 10
36.91166937203332
 20
-18.55078225819997
 10
36.89309136079998
 20
-18.51096527556663
 10
36.8766446954333
 20
-18.47017424796664
 10
36.86246146669998
 20
-18.42873678696659
 10
36.85058570483335
 20
-18.38676209646664
 10
36.84097337963334
 20
-18.34414097259999
 10
36.83362449103333
 20
-18.30087341533331
  0
LWPOLYLINE
  5
231FE
330
1F
100
AcDbEntity
  8
1
100
AcDbPolyline
 90
       16
 70
     0
 43
0.0
 10
35.01032479116663
 20
-19.30755876599997
 10
35.04583325746665
 20
-19.33527877809998
 10
35.07962459819998
 20
-19.36455011603331
 10
35.11169881336667
 20
-19.39537277976663
 10
35.14213278239998
 20
-19.42783783636659
 10
35.17084962589996
 20
-19.46185421876666
 10
35.19761870559995
 20
-19.49714872569993
 10
35.22242433613332
 20
-19.53373164993329
 10
35.24528220286664
 20
-19.57159269866665
 10
35.26600872373331
 20
-19.61042779236661
 10
35.28458673496664
 20
-19.65024477499994
 10
35.30103340033333
 20
-19.69103580263331
 10
35.31521662910001
 20
-19.73247326359998
 10
35.32709239093333
 20
-19.77444795409994
 10
35.33670471613334
 20
-19.81706907796663
 10
35.34405360473335
 20
-19.86033663523332
  0
LINE
  5
231FF
330
1F
100
AcDbEntity
  8
1
100
AcDbLine
 10
37.46348006403332
 20
1.301078355800058
 30
0.0
 11
37.38883904789998
 21
1.32107835580004
 31
0.0
  0
LINE
  5
23200
330
1F
100
AcDbEntity
  8
1
100
AcDbLine
 10
6.149999999999977
 20
5.227500000000048
 30
0.0
 11
0.8000000000000113
 21
5.227500000000048
 31
0.0
  0
LWPOLYLINE
  5
23201
330
1F
100
AcDbEntity
  8
1
100
AcDbPolyline
 90
       25
 70
     0
 43
0.0
 10
35.245478978
 20
18.56794476483335
 10
35.07620165503335
 20
18.45414722490008
 10
34.90462634440002
 20
18.34217742036677
 10
34.73075304603333
 20
18.23211623773338
 10
34.55456899803329
 20
18.12401738543339
 10
34.37608696233332
 20
18.01798036036675
 10
34.19534522473333
 20
17.91415239486676
 10
34.01233837069998
 20
17.81258274173339
 10
33.8270718147333
 20
17.71336275040008
 10
33.63960008623332
 20
17.61670342336677
 10
33.44994430106664
 20
17.52266373616672
 10
33.25808334336665
 20
17.43131513100005
 10
33.06400839476663
 20
17.3428891282667
 10
32.86775234496662
 20
17.25743835940003
 10
32.6692823043
 20
17.17502983896671
 10
32.46849078559995
 20
17.0959184344334
 10
32.26539802613331
 20
17.02013863203339
 10
32.05998378863331
 20
16.94776406003339
 10
31.85207987413332
 20
16.87911026613338
 10
31.64163912039999
 20
16.81418767493338
 10
31.42870868966662
 20
16.75308211513337
 10
31.21326186933328
 20
16.69622488503339
 10
30.99528975519997
 20
16.64378950143342
 10
30.77480125149998
 20
16.5956872415334
 10
30.55179635816666
 20
16.55195462480006
  0
LWPOLYLINE
  5
23202
330
1F
100
AcDbEntity
  8
1
100
AcDbPolyline
 90
       10
 70
     0
 43
0.0
 10
17.65829695726665
 20
9.188377413066717
 10
17.4276488320333
 20
8.485220309800098
 10
17.21907174659998
 20
7.769979705533415
 10
17.03174004206664
 20
7.042655600200049
 10
16.86442744256664
 20
6.302092838666709
 10
16.7168607864333
 20
5.549446576100052
 10
16.58966811333329
 20
4.788182278133405
 10
16.48263050079998
 20
4.019455100033411
 10
16.39474729609998
 20
3.242109886600047
 10
16.3255453009333
 20
2.456146637766693
  0
LWPOLYLINE
  5
23203
330
1F
100
AcDbEntity
  8
1
100
AcDbPolyline
 90
       13
 70
     0
 43
0.0
 10
36.68634266053329
 20
-18.39791717599993
 10
36.7057970464
 20
-18.40965916603326
 10
36.72407507060001
 20
-18.42260809683327
 10
36.74117673306665
 20
-18.43676396846663
 10
36.75718747823334
 20
-18.45222227813329
 10
36.77202186166665
 20
-18.46888752859999
 10
36.78542355033329
 20
-18.48647322819997
 10
36.79736672716666
 20
-18.50499055256662
 10
36.8078772092
 20
-18.52442832606661
 10
36.81677611476664
 20
-18.54446652996663
 10
36.82400381666667
 20
-18.56499849133328
 10
36.82961994210001
 20
-18.58613088313328
 10
36.83362449103333
 20
-18.60786370529998
  0
LWPOLYLINE
  5
23204
330
1F
100
AcDbEntity
  8
1
100
AcDbPolyline
 90
       19
 70
     0
 43
0.0
 10
32.19283817043333
 20
-15.2260778753666
 10
32.16607379086662
 20
-15.21007934476662
 10
32.13121461266667
 20
-15.19719853269996
 10
32.08822964903328
 20
-15.18734976283329
 10
32.03689782586668
 20
-15.18025291246661
 10
31.97735871493331
 20
-15.17595418996663
 10
31.91011696886665
 20
-15.17483699016665
 10
31.8352287656333
 20
-15.17680989743328
 10
31.7525365551
 20
-15.18163842749996
 10
31.66222489693331
 20
-15.18948009176662
 10
31.56378899126668
 20
-15.2002135842666
 10
31.45762049773333
 20
-15.21352862903327
 10
31.34526417369995
 20
-15.22932919133328
 10
31.22687444649995
 20
-15.2474184567333
 10
31.10222190679997
 20
-15.26758802269998
 10
30.97230308006664
 20
-15.28979551823326
 10
30.83744131066664
 20
-15.3139135028666
 10
30.69727674013331
 20
-15.33968760396667
 10
30.55179634653331
 20
-15.36691098163331
  0
LWPOLYLINE
  5
23205
330
1F
100
AcDbEntity
  8
1
100
AcDbPolyline
 90
        6
 70
     0
 43
0.0
 10
16.30083844893334
 20
22.40680943920009
 10
16.29892983526662
 20
22.39566238733337
 10
16.29943286076667
 20
22.38525876973338
 10
16.30234735126663
 20
22.37559766803341
 10
16.30767229666668
 20
22.36668039603339
 10
16.31199589779999
 20
22.36171653856676
  0
LINE
  5
23206
330
1F
100
AcDbEntity
  8
1
100
AcDbLine
 10
0.8000000000000113
 20
5.227500000000048
 30
0.0
 11
0.0
 21
6.02750000000006
 31
0.0
  0
LINE
  5
23207
330
1F
100
AcDbEntity
  8
1
100
AcDbLine
 10
39.59999999999997
 20
15.78848563880004
 30
0.0
 11
39.64531087716665
 21
15.79844300920004
 31
0.0
  0
LWPOLYLINE
  5
23208
330
1F
100
AcDbEntity
  8
1
100
AcDbPolyline
 90
       31
 70
     0
 43
0.0
 10
20.39445810386667
 20
13.50345344313339
 10
20.19805506979998
 20
13.34315546266671
 10
20.01513481043332
 20
13.18282348516672
 10
19.84546184839996
 20
13.02245751063341
 10
19.68973236813332
 20
12.86124376106673
 10
19.54678373066662
 20
12.69999601446673
 10
19.41365736723333
 20
12.54115560470004
 10
19.29010084486668
 20
12.38541471360006
 10
19.17606574506663
 20
12.23208115933337
 10
19.06900460056664
 20
12.0815197302667
 10
18.96863586259996
 20
11.93403080880003
 10
18.8750532583
 20
11.78931401256673
 10
18.78634695026665
 20
11.64683298256673
 10
18.70229251253334
 20
11.50669035186675
 10
18.62299809409995
 20
11.36878348743337
 10
18.54710115453332
 20
11.23226813120007
 10
18.47447752593331
 20
11.09724344096675
 10
18.40517848833332
 20
10.96361025893341
 10
18.33813690433334
 20
10.83022685366668
 10
18.27322253366668
 20
10.69706175783338
 10
18.21052260396664
 20
10.56414643873339
 10
18.14931798763331
 20
10.43043356670003
 10
18.08940435099998
 20
10.29558759466673
 10
18.03096154463333
 20
10.15994406966675
 10
17.97385656613329
 20
10.02346230296669
 10
17.91804414046663
 20
9.886073540300031
 10
17.86354714283328
 20
9.747846535933405
 10
17.81033652293331
 20
9.608946863633406
 10
17.75839546279996
 20
9.469429714700055
 10
17.70771916129996
 20
9.329239897833389
 10
17.65829695726665
 20
9.188377413066717
  0
LINE
  5
23209
330
1F
100
AcDbEntity
  8
1
100
AcDbLine
 10
0.0
 20
-6.027499999999946
 30
0.0
 11
0.8000000000000113
 21
-5.227499999999935
 31
0.0
  0
LWPOLYLINE
  5
2320A
330
1F
100
AcDbEntity
  8
1
100
AcDbPolyline
 90
        7
 70
     0
 43
0.0
 10
16.3255453009333
 20
22.49142880240007
 10
16.32114694396665
 20
22.47755762340003
 10
16.31686099859996
 20
22.46359379816674
 10
16.31268731783331
 20
22.44953719430006
 10
16.30862575839995
 20
22.43538768286672
 10
16.30467618069997
 20
22.42114513846676
 10
16.30083844893334
 20
22.40680943920009
  0
LINE
  5
2320B
330
1F
100
AcDbEntity
  8
1
100
AcDbLine
 10
30.69750401896664
 20
-20.23865214913329
 30
0.0
 11
31.5649746711
 21
-20.71609464229997
 31
0.0
  0
LINE
  5
2320C
330
1F
100
AcDbEntity
  8
1
100
AcDbLine
 10
6.550000000000011
 20
4.827500000000071
 30
0.0
 11
6.550000000000011
 21
-4.827499999999957
 31
0.0
  0
LWPOLYLINE
  5
2320D
330
1F
100
AcDbEntity
  8
1
100
AcDbPolyline
 90
       19
 70
     0
 43
0.0
 10
16.3255453009333
 20
-21.3775530116333
 10
16.34628203469998
 20
-21.41074789959995
 10
16.37164316243331
 20
-21.44420769409996
 10
16.40162868416666
 20
-21.47796172879996
 10
16.43635718273333
 20
-21.51209931363329
 10
16.47571007526664
 20
-21.54658476206666
 10
16.51933161316668
 20
-21.58125831129993
 10
16.56739003039996
 20
-21.61628098609995
 10
16.61971709299996
 20
-21.65153656433327
 10
16.67545235036664
 20
-21.6864514713333
 10
16.73478141056665
 20
-21.72108750996662
 10
16.79751866556665
 20
-21.75542391523331
 10
16.86224684043333
 20
-21.78876486969997
 10
16.92893610049998
 20
-21.82104619589992
 10
16.9976162804333
 20
-21.85235945333326
 10
17.06695960926663
 20
-21.88223895849998
 10
17.13652349673333
 20
-21.91053201633329
 10
17.20675053309998
 20
-21.93739933236665
 10
17.27764071839999
 20
-21.96284047779997
  0
LINE
  5
2320E
330
1F
100
AcDbEntity
  8
1
100
AcDbLine
 10
39.47824746863336
 20
-23.48214366723332
 30
0.0
 11
39.44332380420002
 21
-23.46722206936661
 31
0.0
  0
LWPOLYLINE
  5
2320F
330
1F
100
AcDbEntity
  8
1
100
AcDbPolyline
 90
       33
 70
     0
 43
0.0
 10
35.71856262709997
 20
-20.89155035059994
 10
35.72178271563331
 20
-20.8927071808333
 10
35.78583947696666
 20
-20.9125885633666
 10
35.85068797603333
 20
-20.92965561476663
 10
35.91632947963331
 20
-20.94392236156662
 10
35.98261484546668
 20
-20.95535959656664
 10
36.04933936949999
 20
-20.96393896319998
 10
36.11642954283332
 20
-20.96965662596662
 10
36.1837055520333
 20
-20.97249991293333
 10
36.25099093246666
 20
-20.97246774579994
 10
36.31821937426668
 20
-20.9695629948333
 10
36.38521376296666
 20
-20.9637926990666
 10
36.45179699043331
 20
-20.95517522736665
 10
36.51790184093335
 20
-20.94371907133328
 10
36.58332561396668
 20
-20.92945756386663
 10
36.64792277479995
 20
-20.9124243876
 10
36.71170409886662
 20
-20.89260776669997
 10
36.77453461299996
 20
-20.8700283027666
 10
36.83619669006663
 20
-20.8447464221666
 10
36.89656845836663
 20
-20.81679719826659
 10
36.95542975926668
 20
-20.78627154106661
 10
37.01266849249999
 20
-20.75322032776663
 10
37.0683088656333
 20
-20.71760418056667
 10
37.12218307826669
 20
-20.67948967339996
 10
37.17411624563335
 20
-20.63896238706664
 10
37.22408955103333
 20
-20.59598462663328
 10
37.27195514336666
 20
-20.55061054316664
 10
37.3175081719333
 20
-20.50296174666661
 10
37.36062500306668
 20
-20.45309239989999
 10
37.40108092326665
 20
-20.40119053029994
 10
37.43878811799999
 20
-20.34729524246663
 10
37.47378131103329
 20
-20.29121709809996
 10
37.49812822556663
 20
-20.2470826789
  0
LINE
  5
23210
330
1F
100
AcDbEntity
  8
1
100
AcDbLine
 10
31.43230218066668
 20
-18.59029921446662
 30
0.0
 11
31.77025434483329
 21
-18.70831244949997
 31
0.0
  0
LWPOLYLINE
  5
23211
330
1F
100
AcDbEntity
  8
1
100
AcDbPolyline
 90
       10
 70
     0
 43
0.0
 10
24.67487392363336
 20
15.40294934476676
 10
24.1654645209
 20
15.2856202029001
 10
23.6633048324
 20
15.14569570280005
 10
23.1683948581333
 20
14.98277495856669
 10
22.67913166876661
 20
14.79604994166672
 10
22.19711819363334
 20
14.5853597579667
 10
21.72716322079998
 20
14.35122533326674
 10
21.27086967953329
 20
14.09344353943336
 10
20.82663464056663
 20
13.81106137803337
 10
20.39445810386667
 20
13.50345344313339
  0
LINE
  5
23212
330
1F
100
AcDbEntity
  8
1
100
AcDbLine
 10
39.33159597133334
 20
22.85049343456674
 30
0.0
 11
38.07384247543331
 21
22.4145969774667
 31
0.0
  0
LINE
  5
23213
330
1F
100
AcDbEntity
  8
1
100
AcDbLine
 10
37.54791329336666
 20
22.38588435140005
 30
0.0
 11
39.64531087716665
 21
23.11427817903339
 31
0.0
  0
LWPOLYLINE
  5
23214
330
1F
100
AcDbEntity
  8
1
100
AcDbPolyline
 90
       14
 70
     0
 43
0.0
 10
30.67769338193335
 20
-20.56653615203331
 10
30.5798737052333
 20
-20.52692878193326
 10
30.48793318206668
 20
-20.47970214319994
 10
30.40187181239998
 20
-20.42485623583329
 10
30.32102075266664
 20
-20.36176019043328
 10
30.24604884646663
 20
-20.29104487643329
 10
30.17896262453331
 20
-20.21460290206662
 10
30.11997503729998
 20
-20.13227962076664
 10
30.06887313429996
 20
-20.04422967913328
 10
30.02702459509999
 20
-19.95280962539996
 10
29.99467930383332
 20
-19.85792845083333
 10
29.97158737636664
 20
-19.75967716419993
 10
29.9583668396333
 20
-19.66068534019993
 10
29.9551056163333
 20
-19.57878687393329
  0
LINE
  5
23215
330
1F
100
AcDbEntity
  8
1
100
AcDbLine
 10
31.5649746711
 20
-20.71609464229997
 30
0.0
 11
39.44332380420002
 21
-23.46722206936661
 31
0.0
  0
LINE
  5
23216
330
1F
100
AcDbEntity
  8
1
100
AcDbLine
 10
36.74190416786667
 20
-22.55735738269996
 30
0.0
 11
31.88822159703335
 21
-20.86244655589994
 31
0.0
  0
LINE
  5
23217
330
1F
100
AcDbEntity
  8
1
100
AcDbLine
 10
31.27559687176665
 20
-20.77532465096661
 30
0.0
 11
30.67769338193335
 21
-20.56653615203331
 31
0.0
  0
LINE
  5
23218
330
1F
100
AcDbEntity
  8
1
100
AcDbLine
 10
37.24320183959998
 20
-23.11401192566663
 30
0.0
 11
39.64531087716665
 21
-23.95283081326661
 31
0.0
  0
LWPOLYLINE
  5
23219
330
1F
100
AcDbEntity
  8
1
100
AcDbPolyline
 90
       13
 70
     0
 43
0.0
 10
39.33159597133334
 20
22.85049343456674
 10
39.36344968433332
 20
22.85855180063342
 10
39.39476416003333
 20
22.86186029390004
 10
39.42553939843333
 20
22.86041891436671
 10
39.45656268766669
 20
22.85396573353339
 10
39.48704673959998
 20
22.84276267990006
 10
39.51462968956668
 20
22.82759553916676
 10
39.53906056490001
 20
22.80811050396673
 10
39.56059033823334
 20
22.78466138166672
 10
39.57761006306663
 20
22.75909538030007
 10
39.58958342390003
 20
22.73202823586675
 10
39.59704673619996
 20
22.70284421236673
 10
39.59999999999997
 20
22.67154330980006
  0
LINE
  5
2321A
330
1F
100
AcDbEntity
  8
1
100
AcDbLine
 10
36.49234867519999
 20
23.09397102853339
 30
0.0
 11
39.44332380420002
 21
24.11879917080003
 31
0.0
  0
LINE
  5
2321B
330
1F
100
AcDbEntity
  8
1
100
AcDbLine
 10
1.0
 20
-22.49999999999997
 30
0.0
 11
1.0
 21
-5.227499999999935
 31
0.0
  0
LINE
  5
2321C
330
1F
100
AcDbEntity
  8
1
100
AcDbLine
 10
1.0
 20
5.227500000000048
 30
0.0
 11
1.0
 21
22.50000000000003
 31
0.0
  0
LINE
  5
2321D
330
1F
100
AcDbEntity
  8
1
100
AcDbLine
 10
39.44332380420002
 20
-23.46722206936661
 30
0.0
 11
39.48012613650002
 21
-23.47803734706665
 31
0.0
  0
LINE
  5
2321E
330
1F
100
AcDbEntity
  8
1
100
AcDbLine
 10
39.44332380420002
 20
24.11879917080003
 30
0.0
 11
39.48012613650002
 21
24.12955509380007
 31
0.0
  0
LINE
  5
2321F
330
1F
100
AcDbEntity
  8
1
100
AcDbLine
 10
0.0
 20
21.50000000000003
 30
0.0
 11
0.0
 21
6.02750000000006
 31
0.0
  0
LINE
  5
23220
330
1F
100
AcDbEntity
  8
1
100
AcDbLine
 10
0.0
 20
-6.02749999999996
 30
0.0
 11
0.0
 21
-21.49999999999997
 31
0.0
  0
LWPOLYLINE
  5
23221
330
1F
100
AcDbEntity
  8
1
100
AcDbPolyline
 90
       19
 70
     0
 43
0.0
 10
16.38775902109995
 20
22.33119601323338
 10
16.41578679536667
 20
22.3277921394334
 10
16.44734861893329
 20
22.32600776250004
 10
16.48177918486664
 20
22.32576440503343
 10
16.51893754846668
 20
22.32707500696668
 10
16.55896465443328
 20
22.3299592821667
 10
16.60161803003331
 20
22.33435259906676
 10
16.64700093079995
 20
22.34027490400004
 10
16.69501010116664
 20
22.34773365860011
 10
16.74509330193331
 20
22.35664692496673
 10
16.79717460569998
 20
22.36701779836673
 10
16.85132993986661
 20
22.37887054483341
 10
16.90723484699998
 20
22.39215666116675
 10
16.96482249656662
 20
22.40685760530007
 10
17.02415971913331
 20
22.42301425143339
 10
17.0851225491333
 20
22.44066724030009
 10
17.14766966476662
 20
22.45983586833339
 10
17.21184238786662
 20
22.48051712033342
 10
17.27764071839999
 20
22.50271685676674
  0
LINE
  5
23222
330
1F
100
AcDbEntity
  8
1
100
AcDbLine
 10
39.47824746863336
 20
24.12386917850003
 30
0.0
 11
39.44332380420002
 21
24.11879917080003
 31
0.0
  0
LINE
  5
23223
330
1F
100
AcDbEntity
  8
1
100
AcDbLine
 10
17.65829695726665
 20
-23.46754096629998
 30
0.0
 11
16.3255453009333
 21
-22.98245903373331
 31
0.0
  0
LINE
  5
23224
330
1F
100
AcDbEntity
  8
1
100
AcDbLine
 10
17.27764071839999
 20
-21.96284047779997
 30
0.0
 11
17.65829695726665
 21
-22.0954810964333
 31
0.0
  0
LWPOLYLINE
  5
23225
330
1F
100
AcDbEntity
  8
1
100
AcDbPolyline
 90
       10
 70
     0
 43
0.0
 10
17.65829695726665
 20
-22.0954810964333
 10
17.95247780263332
 20
-22.19179919476662
 10
18.24949403210002
 20
-22.27693098939997
 10
18.54934564566662
 20
-22.35087648036662
 10
18.85253413553329
 20
-22.41372009976661
 10
19.15855800946662
 20
-22.46537741546664
 10
19.46591279093332
 20
-22.50559513123332
 10
19.77409698773334
 20
-22.53428881499994
 10
20.08361209203332
 20
-22.55154289879996
 10
20.39445810386667
 20
-22.55735738269996
  0
LWPOLYLINE
  5
23226
330
1F
100
AcDbEntity
  8
1
100
AcDbPolyline
 90
       29
 70
     0
 43
0.0
 10
19.99465966666668
 20
23.08325696813338
 10
19.84549041306667
 20
23.11920629546674
 10
19.68976907733332
 20
23.15484614500005
 10
19.54682791063334
 20
23.18556596433339
 10
19.41370822673332
 20
23.21334244543337
 10
19.29015756116666
 20
23.23817617570004
 10
19.17612756859995
 20
23.25954464623342
 10
19.06907081656664
 20
23.27882128103337
 10
18.96870581713329
 20
23.29605721360005
 10
18.87512626616666
 20
23.3108977438001
 10
18.78642221953333
 20
23.32422544523339
 10
18.7023692455333
 20
23.33608784880008
 10
18.62307552486663
 20
23.3462587166334
 10
18.54717846623333
 20
23.35528160323341
 10
18.47455390626663
 20
23.36319106180005
 10
18.4052531424
 20
23.36984437436675
 10
18.33820900529997
 20
23.37556434146674
 10
18.27329123986664
 20
23.38038558393342
 10
18.21058710829999
 20
23.3842103723334
 10
18.14937752509996
 20
23.38719217973338
 10
18.08945801139998
 20
23.38934853666675
 10
18.03100858149997
 20
23.39062532463336
 10
17.97389673253332
 20
23.39108149450007
 10
17.91807716073333
 20
23.39070505153339
 10
17.86357277500002
 20
23.38947590670009
 10
17.81035510606665
 20
23.38744340903341
 10
17.75840752376666
 20
23.38461425736674
 10
17.70772502926667
 20
23.38095223960002
 10
17.65829695726665
 20
23.37644314676672
  0
LINE
  5
23227
330
1F
100
AcDbEntity
  8
1
100
AcDbLine
 10
37.90283240376664
 20
22.38588435140005
 30
0.0
 11
37.19710435270002
 21
22.38588435140005
 31
0.0
  0
LINE
  5
23228
330
1F
100
AcDbEntity
  8
1
100
AcDbLine
 10
13.58938415433334
 20
22.50000000000003
 30
0.0
 11
1.0
 21
22.50000000000003
 31
0.0
  0
LINE
  5
23229
330
1F
100
AcDbEntity
  8
1
100
AcDbLine
 10
36.74190416786667
 20
23.09397102853339
 30
0.0
 11
20.39445810386667
 21
23.09397102853339
 31
0.0
  0
LWPOLYLINE
  5
2322A
330
1F
100
AcDbEntity
  8
1
100
AcDbPolyline
 90
        7
 70
     0
 43
0.0
 10
37.90283240376664
 20
22.38588435140005
 10
37.93202914033333
 20
22.38670611753341
 10
37.96094785370002
 20
22.38911335230007
 10
37.98958854389997
 20
22.39310605570009
 10
38.01795121089998
 20
22.39868422766668
 10
38.04603585476667
 20
22.40584786826671
 10
38.07384247543331
 20
22.4145969774667
  0
LWPOLYLINE
  5
2322B
330
1F
100
AcDbEntity
  8
1
100
AcDbPolyline
 90
        5
 70
     0
 43
0.0
 10
17.65829695726665
 20
23.37644314676672
 10
17.48641915419995
 20
23.35600274906673
 10
17.32506000539996
 20
23.3264244741334
 10
17.17394000780001
 20
23.28734012696671
 10
17.06957107823331
 20
23.25263359840008
  0
LWPOLYLINE
  5
2322C
330
1F
100
AcDbEntity
  8
1
100
AcDbPolyline
 90
       10
 70
     0
 43
0.0
 10
17.65829695726665
 20
22.63462953823339
 10
17.95247780263332
 20
22.73041903890007
 10
18.24949403210002
 20
22.81508362676672
 10
18.54934564566662
 20
22.88862330186672
 10
18.85253413553329
 20
22.95112203290009
 10
19.15855800946662
 20
23.00249585113338
 10
19.46591279093332
 20
23.04249285043338
 10
19.77409698773334
 20
23.07102906206674
 10
20.08361209203332
 20
23.08818845476677
 10
20.39445810386667
 20
23.09397102853339
  0
LINE
  5
2322D
330
1F
100
AcDbEntity
  8
1
100
AcDbLine
 10
17.27764071839999
 20
22.50271685676674
 30
0.0
 11
17.65829695726665
 21
22.63462953823339
 31
0.0
  0
LINE
  5
2322E
330
1F
100
AcDbEntity
  8
1
100
AcDbLine
 10
17.07822306696664
 20
23.25641133653338
 30
0.0
 11
16.3255453009333
 21
22.98245903370006
 31
0.0
  0
LWPOLYLINE
  5
2322F
330
1F
100
AcDbEntity
  8
1
100
AcDbPolyline
 90
       10
 70
     0
 43
0.0
 10
17.06957107823331
 20
23.25263359840008
 10
17.03165382036667
 20
23.23825472416675
 10
16.89909385259994
 20
23.17902777750007
 10
16.77932292433331
 20
23.10974285910007
 10
16.67279906580001
 20
23.02916387820008
 10
16.57837727396662
 20
22.93780875660005
 10
16.49661721556663
 20
22.83831446700006
 10
16.42752188756668
 20
22.73138602266673
 10
16.37056501283331
 20
22.6158193722334
 10
16.3255453009333
 20
22.49142880240007
  0
LWPOLYLINE
  5
23230
330
1F
100
AcDbEntity
  8
CUT
100
AcDbPolyline
 90
      184
 70
     1
 43
0.0
 10
39.99861300000004
 20
23.60251100000002
 10
38.95023099999998
 20
17.632395
 10
38.55084800000003
 20
15.36055899999999
 10
38.54224099999999
 20
15.32316700000004
 10
38.53907312194002
 20
15.31044527617999
 10
38.53550699999999
 20
15.297829
 10
38.53158100119998
 20
15.28544882734005
 10
38.527263
 20
15.2732
 10
38.52257936458
 20
15.26116164010003
 10
38.51750899999996
 20
15.24928100000002
 10
38.51204468579999
 20
15.23755086226001
 10
38.50620299999997
 20
15.22600400000001
 10
38.49995294653997
 20
15.21457978508002
 10
38.49334099999999
 20
15.203361
 10
38.48638990327998
 20
15.19237806838001
 10
38.47908999999999
 20
15.18162400000003
 10
38.47149231307998
 20
15.17117871076002
 10
38.46355899999998
 20
15.16098600000001
 10
38.45525274004001
 20
15.15100208614004
 10
38.44662999999997
 20
15.14129
 10
38.43770610897997
 20
15.13185825925998
 10
38.42848599999996
 20
15.122716
 10
38.41904447112
 20
15.11393836764003
 10
38.40932300000003
 20
15.10547199999999
 10
38.39929094365999
 20
15.09729744903998
 10
38.38900000000001
 20
15.08945100000002
 10
38.37844941305997
 20
15.08192396094003
 10
38.36766499999999
 20
15.074736
 10
38.35672913705997
 20
15.06794099358002
 10
38.34557899999999
 20
15.06150400000004
 10
38.33421249999998
 20
15.05543127950003
 10
38.322655
 20
15.04972999999998
 10
38.31088248326
 20
15.04438213020003
 10
38.298946
 20
15.039411
 10
38.28691601482001
 20
15.03484405060001
 10
38.274745
 20
15.03066800000002
 10
38.26247640733999
 20
15.02690301040004
 10
38.250092
 20
15.023538
 10
38.23754284785997
 20
15.02055724061998
 10
38.22490499999998
 20
15.017978
 10
38.21222705645999
 20
15.01580702644
 10
38.19948600000003
 20
15.01404500000004
 10
38.18675990221999
 20
15.01270609908002
 10
38.17399699999999
 20
15.01178100000001
 10
38.16113750384
 20
15.01126610544
 10
38.14826799999997
 20
15.01116300000004
 10
38.13541125377998
 20
15.01146761012003
 10
38.122571
 20
15.01218400000002
 10
38.10983986256002
 20
15.01330909345998
 10
38.09715199999999
 20
15.014847
 10
38.08445477312
 20
15.01680733669999
 10
38.07182699999998
 20
15.01917500000003
 10
38.05926398419996
 20
15.02194605998002
 10
38.04679600000003
 20
15.02511700000005
 10
38.03451430269996
 20
15.02866504232
 10
38.02235400000001
 20
15.03260899999999
 10
38.01035187432001
 20
15.03693857968002
 10
37.99849599999999
 20
15.04165400000002
 10
37.98673604755999
 20
15.04677455193999
 10
37.975145
 20
15.052267
 10
37.96362750064003
 20
15.05817784086
 10
37.95230199999997
 20
15.064448
 10
37.08619700000003
 20
15.56425700000002
 10
30.65561299999996
 20
20.93468500000003
 10
30.62741799999998
 20
20.96085200000002
 10
30.61794459599997
 20
20.96996118135999
 10
30.60876100000001
 20
20.97936300000001
 10
30.59996396358002
 20
20.98895632588003
 10
30.591476
 20
20.99882400000004
 10
30.58335479627999
 20
21.00890110286005
 10
30.57556299999999
 20
21.01923500000001
 10
30.56810000690001
 20
21.02983297185998
 10
30.56098400000002
 20
21.04066700000001
 10
30.55417987601999
 20
21.05179075084001
 10
30.54773399999999
 20
21.06312600000004
 10
30.54166336833998
 20
21.07463418930004
 10
30.53596499999998
 20
21.086331
 10
30.53068467752002
 20
21.09812922512
 10
30.52579099999997
 20
21.11009300000004
 10
30.52126601539999
 20
21.12227282851998
 10
30.517135
 20
21.13459200000002
 10
30.51339891853996
 20
21.1470295476
 10
30.51006200000001
 20
21.15958000000004
 10
30.50715299014001
 20
21.17213707158001
 10
30.50465400000002
 20
21.18478200000001
 10
30.50256433190003
 20
21.19754742173999
 10
30.50088899999997
 20
21.21037400000003
 10
30.49962117972001
 20
21.22326358926003
 10
30.49876499999999
 20
21.236187
 10
30.49832645871999
 20
21.24904285068001
 10
30.49830600000002
 20
21.26190599999998
 10
30.49870975953997
 20
21.27477288960003
 10
30.49953199999999
 20
21.28761999999998
 10
30.50076953811998
 20
21.30047453381999
 10
30.50241699999998
 20
21.31328299999998
 10
30.50446240069999
 20
21.32596958260004
 10
30.50691799999999
 20
21.338583
 10
30.5097792281
 20
21.35107387140002
 10
30.51304599999998
 20
21.36346500000005
 10
30.51672919461998
 20
21.37580615766004
 10
30.520806
 20
21.388023
 10
30.52525794436002
 20
21.40006969556001
 10
30.53009700000001
 20
21.41196600000004
 10
30.53529618030001
 20
21.42363729366005
 10
30.54087299999998
 20
21.43513299999998
 10
30.54685500175998
 20
21.44650815696005
 10
30.5532
 20
21.457685
 10
30.55989382339999
 20
21.46864612936
 10
30.566937
 20
21.47938600000001
 10
30.57428082228
 20
21.48982795984003
 10
30.58196100000003
 20
21.50002500000002
 10
30.59001421401996
 20
21.5100195249
 10
30.59838600000001
 20
21.51974900000002
 10
30.60707643606003
 20
21.52922128888
 10
30.61606599999999
 20
21.53841000000003
 10
30.62529183394003
 20
21.54724971802003
 10
30.63479999999998
 20
21.55578500000004
 10
30.64456557936001
 20
21.56399189070001
 10
30.65459200000004
 20
21.571878
 10
30.66492430348001
 20
21.57947924558002
 10
30.67549400000002
 20
21.58674699999997
 10
30.68639173909998
 20
21.59374239759998
 10
30.69750400000004
 20
21.60039100000003
 10
31.564975
 20
22.09876299999999
 10
39.44332400000002
 20
24.97117800000004
 10
39.48012599999998
 20
24.982473
 10
39.49276752018
 20
24.98610866074003
 10
39.505517
 20
24.98934699999998
 10
39.51823975285999
 20
24.99215534774001
 10
39.53104500000001
 20
24.99455900000001
 10
39.54384992603997
 20
24.99654103980001
 10
39.55671200000001
 20
24.99811000000003
 10
39.56963974688
 20
24.99926315776
 10
39.58259800000002
 20
24.99999800000003
 10
39.59565265388
 20
25.00031752274001
 10
39.60871100000003
 20
25.00022100000004
 10
39.62173202002004
 20
24.99971349886002
 10
39.63472999999999
 20
24.99879000000002
 10
39.64760706016
 20
24.99745455836003
 10
39.66043400000001
 20
24.99570200000004
 10
39.67326467172
 20
24.99352216347998
 10
39.68601899999999
 20
24.99093200000002
 10
39.69867888510004
 20
24.98794134264003
 10
39.71123700000004
 20
24.98454900000004
 10
39.72358690594001
 20
24.98078285846001
 10
39.73580799999997
 20
24.976618
 10
39.74792898423999
 20
24.97203899214
 10
39.75989599999997
 20
24.967071
 10
39.77171360374001
 20
24.96171903720003
 10
39.78335499999997
 20
24.95599400000001
 10
39.79472812514001
 20
24.94994216398001
 10
39.80589900000001
 20
24.94352500000005
 10
39.81686095636002
 20
24.93673917978
 10
39.82759700000002
 20
24.92960100000002
 10
39.83813113820003
 20
24.92210039438001
 10
39.84842099999998
 20
24.91426800000002
 10
39.85840543900002
 20
24.90615331412002
 10
39.86812200000003
 20
24.89772000000002
 10
39.8775289582
 20
24.88899737798002
 10
39.88664699999998
 20
24.87997299999998
 10
39.89551242674003
 20
24.87061392590002
 10
39.90407399999998
 20
24.86097600000004
 10
39.91229965261999
 20
24.85110066261999
 10
39.92020199999996
 20
24.84096500000001
 10
39.92772835561999
 20
24.83063041662004
 10
39.93491399999999
 20
24.82005600000005
 10
39.94179188262001
 20
24.80919278946001
 10
39.94831700000003
 20
24.79811400000003
 10
39.95448014471998
 20
24.78684228082002
 10
39.96027699999996
 20
24.77537800000002
 10
39.96566401332001
 20
24.76380418242005
 10
39.97067099999998
 20
24.752061
 10
39.97531596862001
 20
24.74009749230001
 10
39.97957200000002
 20
24.72799000000001
 10
39.98344471147999
 20
24.71573595791998
 10
39.98692199999999
 20
24.70336399999999
 10
39.98997836432
 20
24.69096438867999
 10
39.99263000000002
 20
24.67847200000004
 10
39.99486791542
 20
24.66592153884003
 10
39.99669699999998
 20
24.65330500000002
 10
39.99812551936003
 20
24.64056765160004
 10
39.999146
 20
24.62779100000003
 10
39.99976630876
 20
24.61486786006001
 10
39.999979
 20
24.60193200000001
  0
ARC
  5
23231
330
1F
100
AcDbEntity
  8
1
100
AcDbCircle
 10
20.39445810386667
 20
-15.94999999999996
 30
0.0
 40
8.0
100
AcDbArc
 50
249.9999999999965
 51
270.0
  0
ARC
  5
23232
330
1F
100
AcDbEntity
  8
1
100
AcDbCircle
 10
13.58938415433334
 20
30.50000000000003
 30
0.0
 40
8.0
100
AcDbArc
 50
270.0
 51
290.0000000000034
  0
ARC
  5
23233
330
1F
100
AcDbEntity
  8
1
100
AcDbCircle
 10
13.58938415433334
 20
-30.49999999999997
 30
0.0
 40
8.0
100
AcDbArc
 50
69.9999999999965
 51
90.0
  0
ARC
  5
23234
330
1F
100
AcDbEntity
  8
1
100
AcDbCircle
 10
1.0
 20
21.50000000000003
 30
0.0
 40
1.0
100
AcDbArc
 50
90.0
 51
180.0
  0
ARC
  5
23235
330
1F
100
AcDbEntity
  8
1
100
AcDbCircle
 10
1.0
 20
-21.49999999999997
 30
0.0
 40
1.0
100
AcDbArc
 50
180.0
 51
270.0
  0
ARC
  5
23236
330
1F
100
AcDbEntity
  8
1
100
AcDbCircle
 10
6.149999999999977
 20
4.827500000000071
 30
0.0
 40
0.4
100
AcDbArc
 50
0.0
 51
90.0
  0
ARC
  5
23237
330
1F
100
AcDbEntity
  8
1
100
AcDbCircle
 10
6.149999999999977
 20
-4.827499999999957
 30
0.0
 40
0.4
100
AcDbArc
 50
270.0
 51
0.0
  0
ELLIPSE
  5
23238
330
1F
100
AcDbEntity
  8
1
100
AcDbEllipse
 10
39.22023033889997
 20
-1.96848429076661
 30
0.0
 11
0.2417701498666666
 21
3.257618735566667
 31
0.0
210
0.0
220
0.0
230
-1.0
 40
0.1155738096
 41
0.0437825656
 42
1.317415959099998
  0
ELLIPSE
  5
23239
330
1F
100
AcDbEntity
  8
1
100
AcDbEllipse
 10
39.59732765416669
 20
-15.32484456253328
 30
0.0
 11
-0.4026505055000002
 21
0.0016813712666667
 31
0.0
210
0.0
220
0.0
230
-1.0
 40
0.5773766806000003
 41
3.137825171999998
 42
5.0053274717
  0
ELLIPSE
  5
2323A
330
1F
100
AcDbEntity
  8
1
100
AcDbEllipse
 10
38.15242606396663
 20
-9.977407202633258
 30
0.0
 11
-0.400089483
 21
0.0009046623
 31
0.0
210
0.0
220
0.0
230
-1.0
 40
0.5847992650000001
 41
1.430905393699999
 42
2.913148153699998
  0
ELLIPSE
  5
2323B
330
1F
100
AcDbEntity
  8
1
100
AcDbEllipse
 10
38.22172338920001
 20
-7.545230353833261
 30
0.0
 11
-0.3302173781
 21
2.394401660266664
 31
0.0
210
0.0
220
0.0
230
-1.0
 40
0.0155573193
 41
-2.990666626799998
 42
-2.096384516699997
  0
ELLIPSE
  5
2323C
330
1F
100
AcDbEntity
  8
1
100
AcDbEllipse
 10
39.59732765416669
 20
13.74517061526674
 30
0.0
 11
-0.4026502200333334
 21
-0.0018094888333333
 31
0.0
210
0.0
220
0.0
230
-1.0
 40
0.5983670156000003
 41
3.054731995
 42
3.145638177599998
  0
ELLIPSE
  5
2323D
330
1F
100
AcDbEntity
  8
1
100
AcDbEllipse
 10
38.15242606396663
 20
8.203321539233371
 30
0.0
 11
-0.4000893963666667
 21
-0.0009750707
 31
0.0
210
0.0
220
0.0
230
-1.0
 40
0.6060600195000001
 41
-2.912993424499997
 42
-1.352458085599999
  0
ELLIPSE
  5
2323E
330
1F
100
AcDbEntity
  8
1
100
AcDbEllipse
 10
38.22172338920001
 20
11.05248346393338
 30
0.0
 11
-0.3184335861999999
 21
2.890282161166665
 31
0.0
210
0.0
220
0.0
230
-1.0
 40
0.0328799887
 41
-3.168358055799997
 42
-1.944190151199999
  0
ELLIPSE
  5
2323F
330
1F
100
AcDbEntity
  8
1
100
AcDbEllipse
 10
39.31129510396664
 20
15.66292910100006
 30
0.0
 11
-0.4026502200333334
 21
-0.0018094888333333
 31
0.0
210
0.0
220
0.0
230
-1.0
 40
0.5983670156000003
 41
8.834954578599997
 42
9.4288234847
  0
ELLIPSE
  5
23240
330
1F
100
AcDbEntity
  8
1
100
AcDbEllipse
 10
39.31129510396664
 20
-23.7374945555666
 30
0.0
 11
-0.4022383492333331
 21
0.0191868337
 31
0.0
210
0.0
220
0.0
230
-1.0
 40
0.9506302087999998
 41
-2.777448253399999
 42
-2.594394420199999
  0
ELLIPSE
  5
23241
330
1F
100
AcDbEntity
  8
1
100
AcDbEllipse
 10
38.15242606396663
 20
-14.30610692829995
 30
0.0
 11
-0.3998787279999999
 21
0.0134949366666667
 31
0.0
210
0.0
220
0.0
230
-1.0
 40
0.9629741931999998
 41
1.014481563399999
 42
2.881983863
  0
ELLIPSE
  5
23242
330
1F
100
AcDbEntity
  8
1
100
AcDbEllipse
 10
31.20783092609997
 20
-20.61530888259998
 30
0.0
 11
-0.54296532
 21
1.013746260633332
 31
0.0
210
0.0
220
0.0
230
-1.0
 40
0.3391033438999999
 41
-1.373120761999998
 42
-1.3316745837
  0
ELLIPSE
  5
23243
330
1F
100
AcDbEntity
  8
1
100
AcDbEllipse
 10
39.59732765416669
 20
-23.1122955815666
 30
0.0
 11
-0.4022383492333331
 21
0.0191868337
 31
0.0
210
0.0
220
0.0
230
-1.0
 40
0.9506302087999998
 41
3.094921980799997
 42
4.9624242804
  0
ELLIPSE
  5
23244
330
1F
100
AcDbEntity
  8
1
100
AcDbEllipse
 10
30.90003093606668
 20
-19.90584594043329
 30
0.0
 11
-0.4006158806666667
 21
-0.0318626374666667
 31
0.0
210
0.0
220
0.0
230
-1.0
 40
0.9544885252
 41
-0.9667010342999999
 42
0.9008012653999999
  0
ELLIPSE
  5
23245
330
1F
100
AcDbEntity
  8
1
100
AcDbEllipse
 10
39.22023033889997
 20
-23.93654042516661
 30
0.0
 11
0.3232841937333333
 21
0.4160469489999999
 31
0.0
210
0.0
220
0.0
230
-1.0
 40
0.743512889
 41
-0.1928161091
 42
1.080817284399999
  0
ELLIPSE
  5
23246
330
1F
100
AcDbEntity
  8
1
100
AcDbEllipse
 10
39.59732765416669
 20
23.76582053410007
 30
0.0
 11
-0.4023190645999998
 21
-0.0173072093333334
 31
0.0
210
0.0
220
0.0
230
-1.0
 40
0.9454344199999999
 41
1.316095731599999
 42
3.183598031199998
  0
ELLIPSE
  5
23247
330
1F
100
AcDbEntity
  8
1
100
AcDbEllipse
 10
39.31129510396664
 20
22.90012369553338
 30
0.0
 11
-0.4023190645999998
 21
-0.0173072093333334
 31
0.0
210
0.0
220
0.0
230
-1.0
 40
0.9454344199999999
 41
2.589729124999998
 42
3.183598031199998
  0
ELLIPSE
  5
23248
330
1F
100
AcDbEntity
  8
1
100
AcDbEllipse
 10
39.22023033889997
 20
22.6245100314334
 30
0.0
 11
0.2861170008666665
 21
1.498860238533331
 31
0.0
210
0.0
220
0.0
230
-1.0
 40
0.2295103013
 41
6.2040226371
 42
7.477656030599999
  0
ELLIPSE
  5
23249
330
1F
100
AcDbEntity
  8
1
100
AcDbEllipse
 10
-28.31168250299999
 20
0.0000000000000284
 30
0.0
 11
-65.5474061014333
 21
-23.02489823573333
 31
0.0
210
0.0
220
0.0
230
-1.0
 40
0.1005708611
 41
-3.0979739187
 42
-3.057035533399997
  0
ELLIPSE
  5
2324A
330
1F
100
AcDbEntity
  8
1
100
AcDbEllipse
 10
-28.38289014716668
 20
0.0000000000000284
 30
0.0
 11
-66.07369472473333
 21
-22.08457009250001
 31
0.0
210
0.0
220
0.0
230
-1.0
 40
0.1402500165
 41
3.0124679216
 42
3.0667639772
  0
ELLIPSE
  5
2324B
330
1F
100
AcDbEntity
  8
1
100
AcDbEllipse
 10
53.31183082903334
 20
0.0000000000000284
 30
0.0
 11
-26.82136947193332
 21
-19.81579738236667
 31
0.0
210
0.0
220
0.0
230
-1.0
 40
0.5015131821
 41
-0.6470476409
 42
-0.5962981869
  0
ELLIPSE
  5
2324C
330
1F
100
AcDbEntity
  8
1
100
AcDbEllipse
 10
-28.31168250299999
 20
0.0000000000000284
 30
0.0
 11
-65.55145266449996
 21
23.12530585583333
 31
0.0
210
0.0
220
0.0
230
-1.0
 40
0.0950518798
 41
3.116378518799998
 42
3.157316903999997
  0
ELLIPSE
  5
2324D
330
1F
100
AcDbEntity
  8
1
100
AcDbEllipse
 10
-28.38289014716668
 20
0.0000000000000284
 30
0.0
 11
-66.13421189179999
 21
23.6894218595
 31
0.0
210
0.0
220
0.0
230
-1.0
 40
0.0532753178
 41
2.946543818199998
 42
3.000839873799998
  0
ELLIPSE
  5
2324E
330
1F
100
AcDbEntity
  8
1
100
AcDbEllipse
 10
-28.31168250299999
 20
0.0000000000000284
 30
0.0
 11
-65.58829626323333
 21
0.0
 31
0.0
210
0.0
220
0.0
230
-1.0
 40
0.3651566112
 41
-3.133286852699998
 42
-3.092348467499998
  0
ELLIPSE
  5
2324F
330
1F
100
AcDbEntity
  8
1
100
AcDbEllipse
 10
-28.38289014716668
 20
0.0000000000000284
 30
0.0
 11
-66.13395504719999
 21
3.561542435999996
 31
0.0
210
0.0
220
0.0
230
-1.0
 40
0.3581171832000001
 41
2.946341379999998
 42
3.000637435599998
  0
ELLIPSE
  5
23250
330
1F
100
AcDbEntity
  8
1
100
AcDbEllipse
 10
72.21129273299999
 20
9.18952828366676
 30
0.0
 11
-41.49087199486666
 21
-28.1520140737
 31
0.0
210
0.0
220
0.0
230
-1.0
 40
0.4616102279999999
 41
-0.3949416004
 42
-0.3643136398
  0
ELLIPSE
  5
23251
330
1F
100
AcDbEntity
  8
1
100
AcDbEllipse
 10
30.83011656223329
 20
2.910361792166696
 30
0.0
 11
-1.563177052366665
 21
0.1690336734333333
 31
0.0
210
0.0
220
0.0
230
-1.0
 40
0.7312955465999999
 41
-0.9226634775
 42
1.3134430175
  0
ELLIPSE
  5
23252
330
1F
100
AcDbEntity
  8
1
100
AcDbEllipse
 10
129.3262975448333
 20
0.0000000000000284
 30
0.0
 11
-136.6591303937
 21
-22.96132487196667
 31
0.0
210
0.0
220
0.0
230
-1.0
 40
0.0498341438
 41
0.706950857
 42
0.7713891081000001
  0
ELLIPSE
  5
23253
330
1F
100
AcDbEntity
  8
1
100
AcDbEllipse
 10
53.31183082903334
 20
0.0000000000000284
 30
0.0
 11
-28.3923460959
 21
-23.58341951093334
 31
0.0
210
0.0
220
0.0
230
-1.0
 40
0.1470222016
 41
1.0086762918
 42
1.123404596999999
  0
ELLIPSE
  5
23254
330
1F
100
AcDbEntity
  8
1
100
AcDbEllipse
 10
36.08883904789997
 20
16.71820848126671
 30
0.0
 11
1.031040304599997
 21
1.426047389899999
 31
0.0
210
0.0
220
0.0
230
-1.0
 40
0.7639823616000001
 41
4.928244992899998
 42
9.264021726900001
  0
ELLIPSE
  5
23255
330
1F
100
AcDbEntity
  8
1
100
AcDbEllipse
 10
36.08883904789997
 20
-8.856470325266599
 30
0.0
 11
-1.482053619466665
 21
-1.368376311733331
 31
0.0
210
0.0
220
0.0
230
-1.0
 40
0.1690599019999999
 41
1.128547351299999
 42
5.464324085199998
  0
ELLIPSE
  5
23256
330
1F
100
AcDbEntity
  8
1
100
AcDbEllipse
 10
72.21129273299999
 20
0.0000000000000284
 30
0.0
 11
-43.4783760036
 21
0.0
 31
0.0
210
0.0
220
0.0
230
-1.0
 40
0.7540722058
 41
0.6678430508
 42
0.6984710135
  0
ELLIPSE
  5
23257
330
1F
100
AcDbEntity
  8
1
100
AcDbEllipse
 10
129.3262975448333
 20
0.0000000000000284
 30
0.0
 11
-136.6639207920333
 21
0.0
 31
0.0
210
0.0
220
0.0
230
-1.0
 40
0.1752474235
 41
0.6985779716
 42
0.7630162249
  0
ELLIPSE
  5
23258
330
1F
100
AcDbEntity
  8
1
100
AcDbEllipse
 10
72.21129273299999
 20
15.13336468550008
 30
0.0
 11
-43.21994046429996
 21
-35.65108917909999
 31
0.0
210
0.0
220
0.0
230
-1.0
 40
0.1327726575
 41
0.776929251
 42
0.8075572116
  0
ELLIPSE
  5
23259
330
1F
100
AcDbEntity
  8
1
100
AcDbEllipse
 10
53.31183082903334
 20
0.0000000000000284
 30
0.0
 11
-28.6032758758
 21
0.0
 31
0.0
210
0.0
220
0.0
230
-1.0
 40
0.8373166802
 41
0.8871575379000001
 42
1.001885843099999
  0
ELLIPSE
  5
2325A
330
1F
100
AcDbEntity
  8
1
100
AcDbEllipse
 10
30.83011656223329
 20
-15.6560620691333
 30
0.0
 11
-1.567171911033333
 21
-0.2510599734999999
 31
0.0
210
0.0
220
0.0
230
-1.0
 40
0.2098239604
 41
-0.8101482595
 42
1.4259582356
  0
DIMENSION
  5
2325B
330
1F
100
AcDbEntity
  8
SK2
100
AcDbDimension
280
     0
  2
*D22
 10
-23.67645984951817
 20
-22.49999999999997
 30
0.0
 11
-25.62960110039659
 21
0.0000000000000301
 31
0.0
 70
    32
  1
%%C<>
 71
     5
 42
45.0
 73
     0
 74
     0
 75
     0
  3
STANDARD
100
AcDbAlignedDimension
 13
1.0
 23
22.50000000000003
 33
0.0
 14
1.0
 24
-22.49999999999997
 34
0.0
 50
90.0
100
AcDbRotatedDimension
  0
DIMENSION
  5
2325C
330
1F
100
AcDbEntity
  8
SK2
100
AcDbDimension
280
     0
  2
*D23
 10
-12.84709864340978
 20
-10.99999999998724
 30
0.0
 11
-14.8002398942882
 21
0.0000000000000579
 31
0.0
 70
    32
  1
%%C<>
 71
     5
 42
21.99999999997461
 73
     0
 74
     0
 75
     0
  3
STANDARD
100
AcDbAlignedDimension
 13
7.5
 23
10.99999999998736
 33
0.0
 14
7.5
 24
-10.99999999998725
 34
0.0
 50
90.0
100
AcDbRotatedDimension
  0
DIMENSION
  5
2325D
330
1F
100
AcDbEntity
  8
2
100
AcDbDimension
280
     0
  2
*D24
 10
59.33923501055067
 20
-25.0
 30
0.0
 11
59.33923501055068
 21
0.6987394988942981
 31
0.0
 70
   160
  1
%%C<>
 71
     5
 42
50.00000000000003
 73
     0
 74
     0
 75
     0
  3
STANDARD
100
AcDbAlignedDimension
 13
40.0
 23
25.00000000000003
 33
0.0
 14
40.00000000000002
 24
-25.0
 34
0.0
 50
90.0
100
AcDbRotatedDimension
  0
LWPOLYLINE
  5
234D2
330
1F
100
AcDbEntity
  8
NOCUT
100
AcDbPolyline
 90
       15
 70
     1
 43
0.0
 10
37.97596123493332
 20
14.53961847736666
 10
39.59999999999997
 20
23.75000000000061
 10
39.60000000000002
 20
24.24999999999999
 42
0.5205670505517205
 10
39.33159597133334
 20
24.43793852416671
 10
38.07384247543331
 20
23.98015368963335
 10
37.9028324037667
 20
23.95000000000003
 10
20.39445810386667
 20
23.95000000000003
 42
0.0874886635259312
 10
17.65829695726665
 20
23.46754096630001
 10
16.32554530093893
 20
22.98245903371279
 42
-0.0874886635259309
 10
13.58938415433334
 20
22.49999999999999
 10
1.0
 20
22.49999999999999
 42
0.4142135623730951
 10
0.0
 20
21.49999999999999
 10
0.0
 20
0.0
 10
37.90000000000004
 20
0.0000000000000426
 10
37.90000000000004
 20
13.67137758903332
 42
-0.0436609429085201
  0
VIEWPORT
  5
9C00
330
1B
100
AcDbEntity
 67
     1
  8
0
348
3195
100
AcDbViewport
 10
108.2280559557949
 20
71.69854161746989
 30
0.0
 40
251.8950231529317
 41
201.8884082081047
 68
     1
 69
     1
 12
108.2280559557949
 22
71.69854161746989
 13
0.0
 23
0.0
 14
10.0
 24
10.0
 15
10.0
 25
10.0
 16
0.0
 26
0.0
 36
1.0
 17
0.0
 27
0.0
 37
0.0
 42
50.0
 43
0.0
 44
0.0
 45
201.8884082081047
 50
0.0
 51
0.0
 72
   100
 90
   557088
  1

281
     0
 71
     1
 74
     0
110
0.0
120
0.0
130
0.0
111
1.0
121
0.0
131
0.0
112
0.0
122
1.0
132
0.0
 79
     0
146
0.0
170
     0
 61
     5
292
     1
282
     1
141
0.0
142
0.0
 63
   250
421
  3355443
  0
VIEWPORT
  5
9C02
330
1B
100
AcDbEntity
 67
     1
  8
1
348
3195
100
AcDbViewport
 10
143.457083940506
 20
98.18158769607544
 30
0.0
 40
229.5313343048095
 41
157.0905403137207
 68
     2
 69
     2
 12
-44.37697124786255
 22
-35.12342998133886
 13
0.0
 23
0.0
 14
10.0
 24
10.0
 15
10.0
 25
10.0
 16
0.0
 26
0.0
 36
1.0
 17
0.0
 27
0.0
 37
0.0
 42
50.0
 43
0.0
 44
0.0
 45
300.3886240724386
 50
0.0
 51
0.0
 72
   100
 90
   557088
  1

281
     0
 71
     1
 74
     0
110
0.0
120
0.0
130
0.0
111
1.0
121
0.0
131
0.0
112
0.0
122
1.0
132
0.0
 79
     0
146
0.0
170
     0
 61
     5
348
3195
292
     1
282
     1
141
0.0
142
0.0
 63
   250
421
  3355443
  0
ENDSEC
  0
SECTION
  2
OBJECTS
  0
DICTIONARY
  5
3182
330
0
100
AcDbDictionary
281
     1
  3
ACAD_CIP_PREVIOUS_PRODUCT_INFO
350
1B2F4
  3
ACAD_COLOR
350
31A0
  3
ACAD_DETAILVIEWSTYLE
350
1B2F0
  3
ACAD_FIELDLIST
350
20CBF
  3
ACAD_GROUP
350
3183
  3
ACAD_LAYOUT
350
31A5
  3
ACAD_MATERIAL
350
318B
  3
ACAD_MLEADERSTYLE
350
1B221
  3
ACAD_MLINESTYLE
350
3184
  3
ACAD_PLOTSETTINGS
350
31A4
  3
ACAD_PLOTSTYLENAME
350
3189
  3
ACAD_SCALELIST
350
1B1FC
  3
ACAD_SECTIONVIEWSTYLE
350
1B2EE
  3
ACAD_TABLESTYLE
350
31A1
  3
ACAD_VISUALSTYLE
350
318F
  3
ACDB_RECOMPOSE_DATA
350
2350C
  3
AcDbVariableDictionary
350
33A3
  0
DICTIONARY
  5
422A
330
2
100
AcDbDictionary
280
     1
281
     1
  3
ACAD_LAYERFILTERS
360
1B063
  3
ACAD_LAYERSTATES
360
9A1C
  3
ACLYDICTIONARY
360
1B062
  0
DICTIONARY
  5
1B2F5
330
10
100
AcDbDictionary
280
     1
281
     1
  3
ADSK_XREC_LAYER_RECONCILED
360
21B8E
  0
DICTIONARY
  5
1B2F7
330
3F8C
100
AcDbDictionary
280
     1
281
     1
  3
ADSK_XREC_LAYER_RECONCILED
360
21B8F
  0
DICTIONARY
  5
1B2F9
330
9C4A
100
AcDbDictionary
280
     1
281
     1
  3
ADSK_XREC_LAYER_RECONCILED
360
21B90
  0
DICTIONARY
  5
1B2FB
330
9C4B
100
AcDbDictionary
280
     1
281
     1
  3
ADSK_XREC_LAYER_RECONCILED
360
21B91
  0
DICTIONARY
  5
1B2FD
330
9C4D
100
AcDbDictionary
280
     1
281
     1
  3
ADSK_XREC_LAYER_RECONCILED
360
21B92
  0
DICTIONARY
  5
1B2FF
330
9C4E
100
AcDbDictionary
280
     1
281
     1
  3
ADSK_XREC_LAYER_RECONCILED
360
21B93
  0
DICTIONARY
  5
1B301
330
9C4F
100
AcDbDictionary
280
     1
281
     1
  3
ADSK_XREC_LAYER_RECONCILED
360
21B94
  0
DICTIONARY
  5
1B307
330
13335
100
AcDbDictionary
280
     1
281
     1
  3
ADSK_XREC_LAYER_RECONCILED
360
21B97
  0
DICTIONARY
  5
1B309
330
1686E
100
AcDbDictionary
280
     1
281
     1
  3
ADSK_XREC_LAYER_RECONCILED
360
21B98
  0
DICTIONARY
  5
22250
330
2224F
100
AcDbDictionary
280
     1
281
     1
  0
DICTIONARY
  5
339C
330
1F
100
AcDbDictionary
280
     1
281
     1
  3
ACAD_SORTENTS
360
339D
  0
DICTIONARY
  5
1DE81
330
1B3D7
100
AcDbDictionary
280
     1
281
     1
  0
XRECORD
  5
1B2F4
102
{ACAD_REACTORS
330
3182
102
}
330
3182
100
AcDbXrecord
280
     1
300
ACDLT
300
2015
300
ACDLT_F_S
  0
DICTIONARY
  5
31A0
102
{ACAD_REACTORS
330
3182
102
}
330
3182
100
AcDbDictionary
281
     1
  0
DICTIONARY
  5
1B2F0
102
{ACAD_REACTORS
330
3182
102
}
330
3182
100
AcDbDictionary
281
     1
  3
Imperial24
350
20CB3
  3
Metric50
350
1B2F1
  0
FIELDLIST
  5
20CBF
102
{ACAD_REACTORS
330
3182
102
}
330
3182
100
AcDbIdSet
 90
        0
100
AcDbFieldList
  0
DICTIONARY
  5
3183
102
{ACAD_REACTORS
330
3182
102
}
330
3182
100
AcDbDictionary
281
     1
  0
DICTIONARY
  5
31A5
102
{ACAD_REACTORS
330
3182
102
}
330
3182
100
AcDbDictionary
281
     1
  3
Layout1
350
31A7
  3
Model
350
31A6
  0
DICTIONARY
  5
318B
102
{ACAD_REACTORS
330
3182
102
}
330
3182
100
AcDbDictionary
281
     1
  3
ByBlock
350
318D
  3
ByLayer
350
318C
  3
Global
350
318E
  0
DICTIONARY
  5
1B221
102
{ACAD_REACTORS
330
3182
102
}
330
3182
100
AcDbDictionary
281
     1
  3
Standard
350
1B2ED
  0
DICTIONARY
  5
3184
102
{ACAD_REACTORS
330
3182
102
}
330
3182
100
AcDbDictionary
281
     1
  3
STANDARD
350
3185
  0
DICTIONARY
  5
31A4
102
{ACAD_REACTORS
330
3182
102
}
330
3182
100
AcDbDictionary
281
     1
  0
ACDBDICTIONARYWDFLT
  5
3189
102
{ACAD_REACTORS
330
3182
102
}
330
3182
100
AcDbDictionary
281
     1
  3
Normal
350
318A
100
AcDbDictionaryWithDefault
340
318A
  0
DICTIONARY
  5
1B1FC
102
{ACAD_REACTORS
330
3182
102
}
330
3182
100
AcDbDictionary
281
     1
  3
A0
350
1B1FD
  3
A1
350
1B1FE
  3
A2
350
1B1FF
  3
A3
350
1B200
  3
A4
350
1B201
  3
A5
350
1B202
  3
A6
350
1B203
  3
A7
350
1B204
  3
A8
350
1B205
  3
A9
350
1B206
  3
B0
350
1B207
  3
B1
350
1B208
  3
B2
350
1B209
  3
B3
350
1B20A
  3
B4
350
1B20B
  3
B5
350
1B20C
  3
B6
350
1B20D
  3
B7
350
1B20E
  3
B8
350
1B20F
  3
B9
350
1B210
  3
C0
350
1B211
  3
C1
350
1B212
  3
C2
350
1B213
  3
C3
350
1B214
  3
C4
350
1B215
  3
C5
350
1B216
  3
C6
350
1B217
  3
C7
350
1B218
  3
C8
350
1B219
  3
C9
350
1B21A
  3
D0
350
1B21B
  3
D1
350
1B21C
  3
D2
350
1B21D
  0
DICTIONARY
  5
1B2EE
102
{ACAD_REACTORS
330
3182
102
}
330
3182
100
AcDbDictionary
281
     1
  3
Imperial24
350
20CB1
  3
Metric50
350
1B2EF
  0
DICTIONARY
  5
31A1
102
{ACAD_REACTORS
330
3182
102
}
330
3182
100
AcDbDictionary
281
     1
  3
Standard
350
31A2
  0
DICTIONARY
  5
318F
102
{ACAD_REACTORS
330
3182
102
}
330
3182
100
AcDbDictionary
281
     1
  3
2dWireframe
350
3195
  3
3D Hidden
350
3197
  3
3dWireframe
350
3196
  3
Basic
350
3194
  3
Brighten
350
319B
  3
ColorChange
350
319F
  3
Conceptual
350
3198
  3
Dim
350
319A
  3
EdgeColorOff
350
1B2EC
  3
Facepattern
350
319E
  3
Flat
350
3190
  3
FlatWithEdges
350
3191
  3
Gouraud
350
3192
  3
GouraudWithEdges
350
3193
  3
Hidden
350
1B2E4
  3
JitterOff
350
1B2EA
  3
Linepattern
350
319D
  3
OverhangOff
350
1B2EB
  3
Realistic
350
3199
  3
Shaded
350
1B2E9
  3
Shaded with edges
350
1B2E8
  3
Shades of Gray
350
1B2E5
  3
Sketchy
350
1B2E6
  3
Thicken
350
319C
  3
Wireframe
350
1B2E3
  3
X-Ray
350
1B2E7
  0
XRECORD
  5
2350C
102
{ACAD_REACTORS
330
3182
102
}
330
3182
100
AcDbXrecord
280
     1
 90
        1
330
31A2
  0
DICTIONARY
  5
33A3
102
{ACAD_REACTORS
330
3182
102
}
330
3182
100
AcDbDictionary
281
     1
  3
CANNOSCALE
350
1B222
  3
CMLEADERSTYLE
350
1B30F
  3
CTABLESTYLE
350
33A4
  3
CVIEWDETAILSTYLE
350
1B310
  3
CVIEWSECTIONSTYLE
350
1B311
  3
DIMASSOC
350
9BE8
  3
INDEXCTL
350
9BE7
  3
LAYEREVAL
350
20993
  3
LAYERNOTIFY
350
20994
  3
LIGHTINGUNITS
350
20992
  3
MSLTSCALE
350
20991
  3
SORTENTS
350
9BE6
  0
DICTIONARY
  5
1B063
102
{ACAD_REACTORS
330
422A
102
}
330
422A
100
AcDbDictionary
281
     1
  0
DICTIONARY
  5
9A1C
102
{ACAD_REACTORS
330
422A
102
}
330
422A
100
AcDbDictionary
281
     1
  0
DICTIONARY
  5
1B062
102
{ACAD_REACTORS
330
422A
102
}
330
422A
100
AcDbDictionary
281
     1
1001
ACAD
1000
<All
  0
XRECORD
  5
21B8E
102
{ACAD_REACTORS
330
1B2F5
102
}
330
1B2F5
100
AcDbXrecord
280
     1
290
     1
  0
XRECORD
  5
21B8F
102
{ACAD_REACTORS
330
1B2F7
102
}
330
1B2F7
100
AcDbXrecord
280
     1
290
     1
  0
XRECORD
  5
21B90
102
{ACAD_REACTORS
330
1B2F9
102
}
330
1B2F9
100
AcDbXrecord
280
     1
290
     1
  0
XRECORD
  5
21B91
102
{ACAD_REACTORS
330
1B2FB
102
}
330
1B2FB
100
AcDbXrecord
280
     1
290
     1
  0
XRECORD
  5
21B92
102
{ACAD_REACTORS
330
1B2FD
102
}
330
1B2FD
100
AcDbXrecord
280
     1
290
     1
  0
XRECORD
  5
21B93
102
{ACAD_REACTORS
330
1B2FF
102
}
330
1B2FF
100
AcDbXrecord
280
     1
290
     1
  0
XRECORD
  5
21B94
102
{ACAD_REACTORS
330
1B301
102
}
330
1B301
100
AcDbXrecord
280
     1
290
     1
  0
XRECORD
  5
21B97
102
{ACAD_REACTORS
330
1B307
102
}
330
1B307
100
AcDbXrecord
280
     1
290
     1
  0
XRECORD
  5
21B98
102
{ACAD_REACTORS
330
1B309
102
}
330
1B309
100
AcDbXrecord
280
     1
290
     1
  0
SORTENTSTABLE
  5
339D
102
{ACAD_REACTORS
330
339C
102
}
330
339C
100
AcDbSortentsTable
330
1F
331
23238
  5
23238
331
23249
  5
23249
331
23149
  5
23149
331
2325A
  5
2325A
331
2315A
  5
2315A
331
2316B
  5
2316B
331
2317C
  5
2317C
331
2318D
  5
2318D
331
230CE
  5
230CE
331
2319E
  5
2319E
331
231AF
  5
231AF
331
231C8
  5
231C8
331
231D9
  5
231D9
331
230D9
  5
230D9
331
231EA
  5
231EA
331
230EA
  5
230EA
331
231FB
  5
231FB
331
230FB
  5
230FB
331
2320C
  5
2320C
331
2310C
  5
2310C
331
2321D
  5
2321D
331
2311D
  5
2311D
331
2322E
  5
2322E
331
2312E
  5
2312E
331
2313F
  5
2313F
331
23140
  5
23140
331
23239
  5
23239
331
2324A
  5
2324A
331
2314A
  5
2314A
331
2325B
  5
2325B
331
2315B
  5
2315B
331
2316C
  5
2316C
331
2317D
  5
2317D
331
2318E
  5
2318E
331
230CF
  5
230CF
331
2319F
  5
2319F
331
231B0
  5
231B0
331
231C9
  5
231C9
331
231DA
  5
231DA
331
230DA
  5
230DA
331
231EB
  5
231EB
331
230EB
  5
230EB
331
231FC
  5
231FC
331
230FC
  5
230FC
331
2320D
  5
2320D
331
2310D
  5
2310D
331
2321E
  5
2321E
331
2311E
  5
2311E
331
2322F
  5
2322F
331
2312F
  5
2312F
331
23230
  5
23230
331
23130
  5
23130
331
23141
  5
23141
331
2323A
  5
2323A
331
2324B
  5
2324B
331
2314B
  5
2314B
331
2325C
  5
2325C
331
2315C
  5
2315C
331
2316D
  5
2316D
331
2317E
  5
2317E
331
2318F
  5
2318F
331
231A0
  5
231A0
331
231B1
  5
231B1
331
231CA
  5
231CA
331
231DB
  5
231DB
331
230DB
  5
230DB
331
231EC
  5
231EC
331
230EC
  5
230EC
331
231FD
  5
231FD
331
230FD
  5
230FD
331
2320E
  5
2320E
331
2310E
  5
2310E
331
2321F
  5
2321F
331
2311F
  5
2311F
331
23220
  5
23220
331
23120
  5
23120
331
23231
  5
23231
331
23131
  5
23131
331
23142
  5
23142
331
2323B
  5
2323B
331
2324C
  5
2324C
331
2314C
  5
2314C
331
2325D
  5
2325D
331
2315D
  5
2315D
331
2316E
  5
2316E
331
2317F
  5
2317F
331
23190
  5
23190
331
231A1
  5
231A1
331
231B2
  5
231B2
331
231CB
  5
231CB
331
231DC
  5
231DC
331
230DC
  5
230DC
331
231ED
  5
231ED
331
230ED
  5
230ED
331
231FE
  5
231FE
331
230FE
  5
230FE
331
2320F
  5
2320F
331
2310F
  5
2310F
331
23210
  5
23210
331
23110
  5
23110
331
23221
  5
23221
331
23121
  5
23121
331
23232
  5
23232
331
23132
  5
23132
331
23143
  5
23143
331
2323C
  5
2323C
331
2324D
  5
2324D
331
2314D
  5
2314D
331
2315E
  5
2315E
331
2316F
  5
2316F
331
23180
  5
23180
331
23191
  5
23191
331
231A2
  5
231A2
331
231B3
  5
231B3
331
231CC
  5
231CC
331
231DD
  5
231DD
331
230DD
  5
230DD
331
231EE
  5
231EE
331
230EE
  5
230EE
331
231FF
  5
231FF
331
230FF
  5
230FF
331
23200
  5
23200
331
23100
  5
23100
331
23211
  5
23211
331
23111
  5
23111
331
23222
  5
23222
331
234D2
  5
233F5
331
23122
  5
23122
331
23233
  5
23233
331
23133
  5
23133
331
23144
  5
23144
331
2323D
  5
2323D
331
2324E
  5
2324E
331
2314E
  5
2314E
331
2315F
  5
2315F
331
23170
  5
23170
331
23181
  5
23181
331
23192
  5
23192
331
231A3
  5
231A3
331
231B4
  5
231B4
331
231CD
  5
231CD
331
231DE
  5
231DE
331
230DE
  5
230DE
331
231EF
  5
231EF
331
230EF
  5
230EF
331
231F0
  5
231F0
331
230F0
  5
230F0
331
23201
  5
23201
331
23101
  5
23101
331
23212
  5
23212
331
23112
  5
23112
331
23223
  5
23223
331
23123
  5
23123
331
23234
  5
23234
331
23134
  5
23134
331
23145
  5
23145
331
2323E
  5
2323E
331
2324F
  5
2324F
331
2314F
  5
2314F
331
23160
  5
23160
331
23171
  5
23171
331
23182
  5
23182
331
23193
  5
23193
331
231A4
  5
231A4
331
231B5
  5
231B5
331
231CE
  5
231CE
331
231DF
  5
231DF
331
230DF
  5
230DF
331
231E0
  5
231E0
331
230E0
  5
230E0
331
231F1
  5
231F1
331
230F1
  5
230F1
331
23202
  5
23202
331
23102
  5
23102
331
23213
  5
23213
331
23113
  5
23113
331
23224
  5
23224
331
23124
  5
23124
331
23235
  5
23235
331
23135
  5
23135
331
23146
  5
23146
331
2323F
  5
2323F
331
23250
  5
23250
331
23150
  5
23150
331
23161
  5
23161
331
23172
  5
23172
331
23183
  5
23183
331
23194
  5
23194
331
231A5
  5
231A5
331
231B6
  5
231B6
331
231CF
  5
231CF
331
231D0
  5
231D0
331
230D0
  5
230D0
331
231E1
  5
231E1
331
230E1
  5
230E1
331
231F2
  5
231F2
331
230F2
  5
230F2
331
23203
  5
23203
331
23103
  5
23103
331
23214
  5
23214
331
23114
  5
23114
331
23225
  5
23225
331
23125
  5
23125
331
23236
  5
23236
331
23136
  5
23136
331
23147
  5
23147
331
23240
  5
23240
331
23251
  5
23251
331
23151
  5
23151
331
23162
  5
23162
331
23173
  5
23173
331
23184
  5
23184
331
23195
  5
23195
331
231A6
  5
231A6
331
231B7
  5
231B7
331
231C0
  5
231C0
331
231B8
  5
231B8
331
231D1
  5
231D1
331
230D1
  5
230D1
331
231E2
  5
231E2
331
230E2
  5
230E2
331
231F3
  5
231F3
331
230F3
  5
230F3
331
23204
  5
23204
331
23104
  5
23104
331
23215
  5
23215
331
23115
  5
23115
331
23226
  5
23226
331
23126
  5
23126
331
23237
  5
23237
331
23137
  5
23137
331
23241
  5
23241
331
23252
  5
23252
331
23152
  5
23152
331
23163
  5
23163
331
23174
  5
23174
331
23185
  5
23185
331
230C6
  5
230C6
331
23196
  5
23196
331
231A7
  5
231A7
331
231A8
  5
231A8
331
231C1
  5
231C1
331
231B9
  5
231B9
331
231D2
  5
231D2
331
230D2
  5
230D2
331
231E3
  5
231E3
331
230E3
  5
230E3
331
231F4
  5
231F4
331
230F4
  5
230F4
331
23205
  5
23205
331
23105
  5
23105
331
23216
  5
23216
331
23116
  5
23116
331
23227
  5
23227
331
23127
  5
23127
331
23138
  5
23138
331
23242
  5
23242
331
23253
  5
23253
331
23153
  5
23153
331
23164
  5
23164
331
23175
  5
23175
331
23186
  5
23186
331
230C7
  5
230C7
331
23197
  5
23197
331
230C8
  5
230C8
331
23198
  5
23198
331
231A9
  5
231A9
331
231C2
  5
231C2
331
231BA
  5
231BA
331
231D3
  5
231D3
331
230D3
  5
230D3
331
231E4
  5
231E4
331
230E4
  5
230E4
331
231F5
  5
231F5
331
230F5
  5
230F5
331
23206
  5
23206
331
23106
  5
23106
331
23217
  5
23217
331
23117
  5
23117
331
23228
  5
23228
331
23128
  5
23128
331
23139
  5
23139
331
23243
  5
23243
331
23254
  5
23254
331
23154
  5
23154
331
23165
  5
23165
331
23176
  5
23176
331
23187
  5
23187
331
23188
  5
23188
331
230C9
  5
230C9
331
23199
  5
23199
331
231AA
  5
231AA
331
231C3
  5
231C3
331
231BB
  5
231BB
331
231D4
  5
231D4
331
230D4
  5
230D4
331
231E5
  5
231E5
331
230E5
  5
230E5
331
231F6
  5
231F6
331
23207
  5
23207
331
23107
  5
23107
331
23218
  5
23218
331
23118
  5
23118
331
23229
  5
23229
331
23129
  5
23129
331
2313A
  5
2313A
331
23244
  5
23244
331
23255
  5
23255
331
23155
  5
23155
331
23166
  5
23166
331
23177
  5
23177
331
23178
  5
23178
331
23189
  5
23189
331
230CA
  5
230CA
331
2319A
  5
2319A
331
231AB
  5
231AB
331
231C4
  5
231C4
331
231BC
  5
231BC
331
231D5
  5
231D5
331
230D5
  5
230D5
331
231E6
  5
231E6
331
230E6
  5
230E6
331
231F7
  5
231F7
331
230F7
  5
230F7
331
23208
  5
23208
331
23108
  5
23108
331
23219
  5
23219
331
23119
  5
23119
331
2322A
  5
2322A
331
2312A
  5
2312A
331
2313B
  5
2313B
331
23245
  5
23245
331
23256
  5
23256
331
23156
  5
23156
331
23167
  5
23167
331
23168
  5
23168
331
23179
  5
23179
331
2318A
  5
2318A
331
230CB
  5
230CB
331
2319B
  5
2319B
331
231AC
  5
231AC
331
231C5
  5
231C5
331
231BD
  5
231BD
331
231D6
  5
231D6
331
230D6
  5
230D6
331
231E7
  5
231E7
331
230E7
  5
230E7
331
231F8
  5
231F8
331
230F8
  5
230F8
331
23209
  5
23209
331
23109
  5
23109
331
2321A
  5
2321A
331
2311A
  5
2311A
331
2322B
  5
2322B
331
2312B
  5
2312B
331
2313C
  5
2313C
331
23246
  5
23246
331
23257
  5
23257
331
23157
  5
23157
331
23258
  5
23258
331
23158
  5
23158
331
23169
  5
23169
331
2317A
  5
2317A
331
2318B
  5
2318B
331
230CC
  5
230CC
331
2319C
  5
2319C
331
231AD
  5
231AD
331
231C6
  5
231C6
331
231BE
  5
231BE
331
231D7
  5
231D7
331
230D7
  5
230D7
331
231E8
  5
231E8
331
230E8
  5
230E8
331
231F9
  5
231F9
331
230F9
  5
230F9
331
2320A
  5
2320A
331
2310A
  5
2310A
331
2321B
  5
2321B
331
2311B
  5
2311B
331
2322C
  5
2322C
331
2312C
  5
2312C
331
2313D
  5
2313D
331
23247
  5
23247
331
23248
  5
23248
331
23148
  5
23148
331
23259
  5
23259
331
23159
  5
23159
331
2316A
  5
2316A
331
2317B
  5
2317B
331
2318C
  5
2318C
331
230CD
  5
230CD
331
2319D
  5
2319D
331
231AE
  5
231AE
331
231C7
  5
231C7
331
231BF
  5
231BF
331
231D8
  5
231D8
331
230D8
  5
230D8
331
231E9
  5
231E9
331
230E9
  5
230E9
331
231FA
  5
231FA
331
230FA
  5
230FA
331
2320B
  5
2320B
331
2310B
  5
2310B
331
2321C
  5
2321C
331
2311C
  5
2311C
331
2322D
  5
2322D
331
2312D
  5
2312D
331
2313E
  5
2313E
  0
ACDBDETAILVIEWSTYLE
  5
20CB3
102
{ACAD_XDICTIONARY
360
23547
102
}
102
{ACAD_REACTORS
330
1B2F0
102
}
330
1B2F0
100
AcDbModelDocViewStyle
 70
     0
  3
Imperial24
290
     0
100
AcDbDetailViewStyle
 70
     0
 71
     0
 90
        3
 71
     1
340
11
 62
   256
 40
0.24
340
0
 62
   256
 40
0.24
300

 40
0.36
280
     3
 71
     2
340
16
 90
       25
 62
   256
 71
     3
340
11
 62
   256
 40
0.24
 90
        1
 40
0.75
 90
        1
300
%<\AcVar ViewType \f "%tc1">% %<\AcVar ViewDetailId>%\PVARIA %<\AcVar ViewScale \f "%sn">%
 71
     4
340
16
 90
       25
 62
   256
340
16
 90
       25
 62
   256
280
     0
  0
ACDBDETAILVIEWSTYLE
  5
1B2F1
102
{ACAD_XDICTIONARY
360
23543
102
}
102
{ACAD_REACTORS
330
1B2F0
102
}
330
1B2F0
100
AcDbModelDocViewStyle
 70
     0
  3
Metric50
290
     0
100
AcDbDetailViewStyle
 70
     0
 71
     0
 90
        3
 71
     1
340
11
 62
   256
 40
5.0
340
0
 62
   256
 40
5.0
300

 40
0.0
280
     1
 71
     2
340
16
 90
       25
 62
   256
 71
     3
340
11
 62
   256
 40
5.0
 90
        0
 40
15.0
 90
        1
300
%<\AcVar ViewDetailId>% (%<\AcVar ViewScale \f "%sn">%)
 71
     4
340
16
 90
       25
 62
   256
340
16
 90
       25
 62
   256
280
     0
  0
LAYOUT
  5
31A7
102
{ACAD_REACTORS
330
31A5
102
}
330
31A5
100
AcDbPlotSettings
  1

  2
\\ingdc01\ITB3
  4
A4
  6

 40
6.805083274841307
 41
5.027085781097412
 42
6.805068969726562
 43
5.027069091796875
 44
209.9733276367186
 45
296.9683227539062
 46
0.0
 47
0.0
 48
0.0
 49
0.0
140
0.0
141
0.0
142
1.0
143
1.0
 70
   688
 72
     1
 73
     1
 74
     5
  7

 75
    16
147
1.0
 76
     0
 77
     2
 78
   300
148
0.0
149
0.0
100
AcDbLayout
  1
Layout1
 70
     1
 71
     1
 10
-5.027069091796875
 20
-6.805083274841307
 11
291.9412536621094
 21
203.1682443618775
 12
0.0
 22
0.0
 32
0.0
 14
28.69141678810127
 24
19.6363175392151
 34
0.0
 15
258.2227510929107
 25
176.7268578529358
 35
0.0
146
0.0
 13
0.0
 23
0.0
 33
0.0
 16
1.0
 26
0.0
 36
0.0
 17
0.0
 27
1.0
 37
0.0
 76
     0
330
1B
331
9C00
1001
ACAD_PSEXT
1000
\\ingdc01\ITB3
1000
HP LaserJet 5000 Series PCL
1000
TB
1000

1070
     0
  0
LAYOUT
  5
31A6
102
{ACAD_REACTORS
330
31A5
102
}
330
31A5
100
AcDbPlotSettings
  1

  2
\\ingdc01\ITB3
  4
A4
  6

 40
6.805083274841307
 41
5.027085781097412
 42
6.805068969726562
 43
5.027069091796875
 44
209.9733276367186
 45
296.9683227539062
 46
0.0
 47
0.0
 48
0.0
 49
0.0
140
0.0
141
0.0
142
1.0
143
1.500313223655698
 70
 11952
 72
     1
 73
     1
 74
     0
  7

 75
     0
147
0.6665274852163048
 76
     0
 77
     2
 78
   300
148
239.0155119930048
149
102.2558208723354
100
AcDbLayout
  1
Model
 70
     1
 71
     0
 10
0.0
 20
0.0
 11
12.0
 21
9.0
 12
0.0
 22
0.0
 32
0.0
 14
0.0
 24
0.0
 34
0.0
 15
0.0
 25
0.0
 35
0.0
146
0.0
 13
0.0
 23
0.0
 33
0.0
 16
1.0
 26
0.0
 36
0.0
 17
0.0
 27
1.0
 37
0.0
 76
     0
330
1F
331
1F4
1001
ACAD_PSEXT
1000
\\ingdc01\ITB3
1000
HP LaserJet 5000 Series PCL
1000
TB
1000

1070
     0
  0
MATERIAL
  5
318D
102
{ACAD_XDICTIONARY
360
1B22B
102
}
102
{ACAD_REACTORS
330
318B
102
}
330
318B
100
AcDbMaterial
  1
ByBlock
  0
MATERIAL
  5
318C
102
{ACAD_XDICTIONARY
360
1B22D
102
}
102
{ACAD_REACTORS
330
318B
102
}
330
318B
100
AcDbMaterial
  1
ByLayer
  0
MATERIAL
  5
318E
102
{ACAD_XDICTIONARY
360
1B22F
102
}
102
{ACAD_REACTORS
330
318B
102
}
330
318B
100
AcDbMaterial
  1
Global
  0
MLEADERSTYLE
  5
1B2ED
102
{ACAD_REACTORS
330
1B221
102
}
330
1B221
100
AcDbMLeaderStyle
179
     2
170
     2
171
     1
172
     0
 90
        2
 40
0.0
 41
0.0
173
     1
 91
-1056964608
340
14
 92
       -2
290
     1
 42
2.0
291
     1
 43
0.36
  3
Standard
 44
4.0
300

342
11
174
     1
178
     6
175
     1
176
     0
 93
-1056964608
 45
4.0
292
     0
297
     0
 46
4.0
 94
-1056964608
 47
1.0
 49
1.0
140
1.0
293
     1
141
0.0
294
     1
177
     0
142
1.0
295
     0
296
     0
143
0.125
271
     0
272
     9
273
     9
1001
ACAD_MLEADERVER
1070
     2
  0
MLINESTYLE
  5
3185
102
{ACAD_REACTORS
330
3184
102
}
330
3184
100
AcDbMlineStyle
  2
STANDARD
 70
     0
  3

 62
   256
 51
90.0
 52
90.0
 71
     2
 49
0.5
 62
   256
  6
BYLAYER
 49
-0.5
 62
   256
  6
BYLAYER
  0
ACDBPLACEHOLDER
  5
318A
102
{ACAD_REACTORS
330
3189
102
}
330
3189
  0
SCALE
  5
1B1FD
102
{ACAD_REACTORS
330
1B1FC
102
}
330
1B1FC
100
AcDbScale
 70
     0
300
1:1
140
1.0
141
1.0
290
     1
1001
ACAD
1000
AcRTDxfName
1000
SCALE
  0
SCALE
  5
1B1FE
102
{ACAD_REACTORS
330
1B1FC
102
}
330
1B1FC
100
AcDbScale
 70
     0
300
1:2
140
1.0
141
2.0
290
     0
1001
ACAD
1000
AcRTDxfName
1000
SCALE
  0
SCALE
  5
1B1FF
102
{ACAD_REACTORS
330
1B1FC
102
}
330
1B1FC
100
AcDbScale
 70
     0
300
1:4
140
1.0
141
4.0
290
     0
1001
ACAD
1000
AcRTDxfName
1000
SCALE
  0
SCALE
  5
1B200
102
{ACAD_REACTORS
330
1B1FC
102
}
330
1B1FC
100
AcDbScale
 70
     0
300
1:5
140
1.0
141
5.0
290
     0
1001
ACAD
1000
AcRTDxfName
1000
SCALE
  0
SCALE
  5
1B201
102
{ACAD_REACTORS
330
1B1FC
102
}
330
1B1FC
100
AcDbScale
 70
     0
300
1:8
140
1.0
141
8.0
290
     0
1001
ACAD
1000
AcRTDxfName
1000
SCALE
  0
SCALE
  5
1B202
102
{ACAD_REACTORS
330
1B1FC
102
}
330
1B1FC
100
AcDbScale
 70
     0
300
1:10
140
1.0
141
10.0
290
     0
1001
ACAD
1000
AcRTDxfName
1000
SCALE
  0
SCALE
  5
1B203
102
{ACAD_REACTORS
330
1B1FC
102
}
330
1B1FC
100
AcDbScale
 70
     0
300
1:16
140
1.0
141
16.0
290
     0
1001
ACAD
1000
AcRTDxfName
1000
SCALE
  0
SCALE
  5
1B204
102
{ACAD_REACTORS
330
1B1FC
102
}
330
1B1FC
100
AcDbScale
 70
     0
300
1:20
140
1.0
141
20.0
290
     0
1001
ACAD
1000
AcRTDxfName
1000
SCALE
  0
SCALE
  5
1B205
102
{ACAD_REACTORS
330
1B1FC
102
}
330
1B1FC
100
AcDbScale
 70
     0
300
1:30
140
1.0
141
30.0
290
     0
1001
ACAD
1000
AcRTDxfName
1000
SCALE
  0
SCALE
  5
1B206
102
{ACAD_REACTORS
330
1B1FC
102
}
330
1B1FC
100
AcDbScale
 70
     0
300
1:40
140
1.0
141
40.0
290
     0
1001
ACAD
1000
AcRTDxfName
1000
SCALE
  0
SCALE
  5
1B207
102
{ACAD_REACTORS
330
1B1FC
102
}
330
1B1FC
100
AcDbScale
 70
     0
300
1:50
140
1.0
141
50.0
290
     0
1001
ACAD
1000
AcRTDxfName
1000
SCALE
  0
SCALE
  5
1B208
102
{ACAD_REACTORS
330
1B1FC
102
}
330
1B1FC
100
AcDbScale
 70
     0
300
1:100
140
1.0
141
100.0
290
     0
1001
ACAD
1000
AcRTDxfName
1000
SCALE
  0
SCALE
  5
1B209
102
{ACAD_REACTORS
330
1B1FC
102
}
330
1B1FC
100
AcDbScale
 70
     0
300
2:1
140
2.0
141
1.0
290
     0
1001
ACAD
1000
AcRTDxfName
1000
SCALE
  0
SCALE
  5
1B20A
102
{ACAD_REACTORS
330
1B1FC
102
}
330
1B1FC
100
AcDbScale
 70
     0
300
4:1
140
4.0
141
1.0
290
     0
1001
ACAD
1000
AcRTDxfName
1000
SCALE
  0
SCALE
  5
1B20B
102
{ACAD_REACTORS
330
1B1FC
102
}
330
1B1FC
100
AcDbScale
 70
     0
300
8:1
140
8.0
141
1.0
290
     0
1001
ACAD
1000
AcRTDxfName
1000
SCALE
  0
SCALE
  5
1B20C
102
{ACAD_REACTORS
330
1B1FC
102
}
330
1B1FC
100
AcDbScale
 70
     0
300
10:1
140
10.0
141
1.0
290
     0
1001
ACAD
1000
AcRTDxfName
1000
SCALE
  0
SCALE
  5
1B20D
102
{ACAD_REACTORS
330
1B1FC
102
}
330
1B1FC
100
AcDbScale
 70
     0
300
100:1
140
100.0
141
1.0
290
     0
1001
ACAD
1000
AcRTDxfName
1000
SCALE
  0
SCALE
  5
1B20E
102
{ACAD_REACTORS
330
1B1FC
102
}
330
1B1FC
100
AcDbScale
 70
     0
300
1/128" = 1'-0"
140
0.0078125
141
12.0
290
     0
1001
ACAD
1000
AcRTDxfName
1000
SCALE
  0
SCALE
  5
1B20F
102
{ACAD_REACTORS
330
1B1FC
102
}
330
1B1FC
100
AcDbScale
 70
     0
300
1/64" = 1'-0"
140
0.015625
141
12.0
290
     0
1001
ACAD
1000
AcRTDxfName
1000
SCALE
  0
SCALE
  5
1B210
102
{ACAD_REACTORS
330
1B1FC
102
}
330
1B1FC
100
AcDbScale
 70
     0
300
1/32" = 1'-0"
140
0.03125
141
12.0
290
     0
1001
ACAD
1000
AcRTDxfName
1000
SCALE
  0
SCALE
  5
1B211
102
{ACAD_REACTORS
330
1B1FC
102
}
330
1B1FC
100
AcDbScale
 70
     0
300
1/16" = 1'-0"
140
0.0625
141
12.0
290
     0
1001
ACAD
1000
AcRTDxfName
1000
SCALE
  0
SCALE
  5
1B212
102
{ACAD_REACTORS
330
1B1FC
102
}
330
1B1FC
100
AcDbScale
 70
     0
300
3/32" = 1'-0"
140
0.09375
141
12.0
290
     0
1001
ACAD
1000
AcRTDxfName
1000
SCALE
  0
SCALE
  5
1B213
102
{ACAD_REACTORS
330
1B1FC
102
}
330
1B1FC
100
AcDbScale
 70
     0
300
1/8" = 1'-0"
140
0.125
141
12.0
290
     0
1001
ACAD
1000
AcRTDxfName
1000
SCALE
  0
SCALE
  5
1B214
102
{ACAD_REACTORS
330
1B1FC
102
}
330
1B1FC
100
AcDbScale
 70
     0
300
3/16" = 1'-0"
140
0.1875
141
12.0
290
     0
1001
ACAD
1000
AcRTDxfName
1000
SCALE
  0
SCALE
  5
1B215
102
{ACAD_REACTORS
330
1B1FC
102
}
330
1B1FC
100
AcDbScale
 70
     0
300
1/4" = 1'-0"
140
0.25
141
12.0
290
     0
1001
ACAD
1000
AcRTDxfName
1000
SCALE
  0
SCALE
  5
1B216
102
{ACAD_REACTORS
330
1B1FC
102
}
330
1B1FC
100
AcDbScale
 70
     0
300
3/8" = 1'-0"
140
0.375
141
12.0
290
     0
1001
ACAD
1000
AcRTDxfName
1000
SCALE
  0
SCALE
  5
1B217
102
{ACAD_REACTORS
330
1B1FC
102
}
330
1B1FC
100
AcDbScale
 70
     0
300
1/2" = 1'-0"
140
0.5
141
12.0
290
     0
1001
ACAD
1000
AcRTDxfName
1000
SCALE
  0
SCALE
  5
1B218
102
{ACAD_REACTORS
330
1B1FC
102
}
330
1B1FC
100
AcDbScale
 70
     0
300
3/4" = 1'-0"
140
0.75
141
12.0
290
     0
1001
ACAD
1000
AcRTDxfName
1000
SCALE
  0
SCALE
  5
1B219
102
{ACAD_REACTORS
330
1B1FC
102
}
330
1B1FC
100
AcDbScale
 70
     0
300
1" = 1'-0"
140
1.0
141
12.0
290
     0
1001
ACAD
1000
AcRTDxfName
1000
SCALE
  0
SCALE
  5
1B21A
102
{ACAD_REACTORS
330
1B1FC
102
}
330
1B1FC
100
AcDbScale
 70
     0
300
1-1/2" = 1'-0"
140
1.5
141
12.0
290
     0
1001
ACAD
1000
AcRTDxfName
1000
SCALE
  0
SCALE
  5
1B21B
102
{ACAD_REACTORS
330
1B1FC
102
}
330
1B1FC
100
AcDbScale
 70
     0
300
3" = 1'-0"
140
3.0
141
12.0
290
     0
1001
ACAD
1000
AcRTDxfName
1000
SCALE
  0
SCALE
  5
1B21C
102
{ACAD_REACTORS
330
1B1FC
102
}
330
1B1FC
100
AcDbScale
 70
     0
300
6" = 1'-0"
140
6.0
141
12.0
290
     0
1001
ACAD
1000
AcRTDxfName
1000
SCALE
  0
SCALE
  5
1B21D
102
{ACAD_REACTORS
330
1B1FC
102
}
330
1B1FC
100
AcDbScale
 70
     0
300
1'-0" = 1'-0"
140
12.0
141
12.0
290
     0
1001
ACAD
1000
AcRTDxfName
1000
SCALE
  0
ACDBSECTIONVIEWSTYLE
  5
20CB1
102
{ACAD_XDICTIONARY
360
23545
102
}
102
{ACAD_REACTORS
330
1B2EE
102
}
330
1B2EE
100
AcDbModelDocViewStyle
 70
     0
  3
Imperial24
290
     0
100
AcDbSectionViewStyle
 70
     0
 71
     0
 90
       78
 71
     1
340
11
 62
   256
 40
0.24
340
0
340
0
 62
   256
 40
0.24
300
I, O, Q, S, X, Z
 40
0.48
 90
        3
 40
0.18
 90
        1
 71
     2
340
16
 90
       25
 62
   256
340
16
 90
       50
 62
   256
 40
0.24
 40
0.0
 40
0.24
 71
     3
340
11
 62
   256
 40
0.24
 90
        1
 40
0.75
 90
        1
300
%<\AcVar ViewType \f "%tc1">% %<\AcVar ViewSectionStartId>%-%<\AcVar ViewSectionEndId>%\PVARIA %<\AcVar ViewScale \f "%sn">%
 71
     4
 62
   256
 62
   257
300
ANSI31
 40
1.0
 90
        0
290
     0
290
     0
 90
        6
 40
0.0
 40
1.570796326794896
 40
0.2617993877991494
 40
1.308996938995747
 40
-0.2617993877991494
 40
1.832595714594044
  0
ACDBSECTIONVIEWSTYLE
  5
1B2EF
102
{ACAD_XDICTIONARY
360
23541
102
}
102
{ACAD_REACTORS
330
1B2EE
102
}
330
1B2EE
100
AcDbModelDocViewStyle
 70
     0
  3
Metric50
290
     0
100
AcDbSectionViewStyle
 70
     0
 71
     0
 90
      102
 71
     1
340
11
 62
   256
 40
5.0
340
0
340
0
 62
   256
 40
5.0
300
I, O, Q, S, X, Z
 40
10.0
 90
        0
 40
2.5
 90
        0
 71
     2
340
16
 90
       25
 62
   256
340
16
 90
       50
 62
   256
 40
5.0
 40
2.5
 40
5.0
 71
     3
340
11
 62
   256
 40
5.0
 90
        0
 40
15.0
 90
        1
300
%<\AcVar ViewSectionStartId>%-%<\AcVar ViewSectionEndId>% (%<\AcVar ViewScale \f "%sn">%)
 71
     4
 62
   256
 62
   257
300
ANSI31
 40
1.0
 90
        0
290
     0
290
     0
 90
        6
 40
0.0
 40
1.570796326794896
 40
0.2617993877991494
 40
1.308996938995747
 40
-0.2617993877991494
 40
1.832595714594044
  0
TABLESTYLE
  5
31A2
102
{ACAD_XDICTIONARY
360
1B314
102
}
102
{ACAD_REACTORS
330
31A1
102
}
330
31A1
100
AcDbTableStyle
280
     0
  3
Standard
 70
     0
 71
     0
 40
1.5
 41
1.5
280
     0
281
     0
  7
STANDARD
140
4.5
170
     2
 62
     0
 63
     7
283
     0
 90
        4
 91
        0
  1

274
    -2
284
     1
 64
     0
275
    -2
285
     1
 65
     0
276
    -2
286
     1
 66
     0
277
    -2
287
     1
 67
     0
278
    -2
288
     1
 68
     0
279
    -2
289
     1
 69
     0
  7
STANDARD
140
6.0
170
     5
 62
     0
 63
     7
283
     0
 90
        4
 91
        0
  1

274
    -2
284
     1
 64
     0
275
    -2
285
     1
 65
     0
276
    -2
286
     1
 66
     0
277
    -2
287
     1
 67
     0
278
    -2
288
     1
 68
     0
279
    -2
289
     1
 69
     0
  7
STANDARD
140
4.5
170
     5
 62
     0
 63
     7
283
     0
 90
        4
 91
        0
  1

274
    -2
284
     1
 64
     0
275
    -2
285
     1
 65
     0
276
    -2
286
     1
 66
     0
277
    -2
287
     1
 67
     0
278
    -2
288
     1
 68
     0
279
    -2
289
     1
 69
     0
  0
VISUALSTYLE
  5
3195
102
{ACAD_XDICTIONARY
360
23517
102
}
102
{ACAD_REACTORS
330
318F
102
}
330
318F
100
AcDbVisualStyle
  2

 70
     4
177
     2
291
     0
 71
     0
176
     1
 72
     2
176
     1
 73
     0
176
     1
 90
        0
176
     1
 40
0.6
176
     1
 41
30.0
176
     1
 63
     7
176
     1
 74
     1
176
     1
 91
        4
176
     1
 64
     7
176
     1
 65
   257
176
     1
 75
     1
176
     1
175
     1
176
     1
 42
1.0
176
     1
 92
        0
176
     1
 66
   257
176
     1
 43
1.0
176
     1
 76
     1
176
     1
 77
     6
176
     1
 78
     2
176
     1
 67
     7
176
     1
 79
     5
176
     1
170
     0
176
     1
171
     0
176
     1
290
     0
176
     1
 93
        1
176
     1
 44
0.0
176
     1
173
     0
176
     1
1001
ACAD
1000
AcDbSavedByObjectVersion
1070
     0
  0
VISUALSTYLE
  5
3197
102
{ACAD_XDICTIONARY
360
2351B
102
}
102
{ACAD_REACTORS
330
318F
102
}
330
318F
100
AcDbVisualStyle
  2

 70
     6
177
     2
291
     0
 71
     1
176
     1
 72
     2
176
     1
 73
     2
176
     1
 90
        0
176
     1
 40
0.6
176
     1
 41
30.0
176
     1
 63
     7
176
     1
 74
     2
176
     1
 91
        2
176
     1
 64
     7
176
     1
 65
   257
176
     1
 75
     2
176
     1
175
     1
176
     1
 42
40.0
176
     1
 92
        0
176
     1
 66
   257
176
     1
 43
1.0
176
     1
 76
     1
176
     1
 77
     6
176
     1
 78
     2
176
     1
 67
     7
176
     1
 79
     3
176
     1
170
     0
176
     1
171
     0
176
     1
290
     0
176
     1
 93
        1
176
     1
 44
0.0
176
     1
173
     0
176
     1
1001
ACAD
1000
AcDbSavedByObjectVersion
1070
     0
  0
VISUALSTYLE
  5
3196
102
{ACAD_XDICTIONARY
360
23519
102
}
102
{ACAD_REACTORS
330
318F
102
}
330
318F
100
AcDbVisualStyle
  2

 70
     5
177
     2
291
     0
 71
     0
176
     1
 72
     2
176
     1
 73
     0
176
     1
 90
        0
176
     1
 40
0.6
176
     1
 41
30.0
176
     1
 63
     7
176
     1
 74
     1
176
     1
 91
        4
176
     1
 64
     7
176
     1
 65
   257
176
     1
 75
     1
176
     1
175
     1
176
     1
 42
1.0
176
     1
 92
        0
176
     1
 66
   257
176
     1
 43
1.0
176
     1
 76
     1
176
     1
 77
     6
176
     1
 78
     2
176
     1
 67
     7
176
     1
 79
     5
176
     1
170
     0
176
     1
171
     0
176
     1
290
     0
176
     1
 93
        1
176
     1
 44
0.0
176
     1
173
     0
176
     1
1001
ACAD
1000
AcDbSavedByObjectVersion
1070
     0
  0
VISUALSTYLE
  5
3194
102
{ACAD_XDICTIONARY
360
23515
102
}
102
{ACAD_REACTORS
330
318F
102
}
330
318F
100
AcDbVisualStyle
  2

 70
     7
177
     2
291
     1
 71
     1
176
     1
 72
     0
176
     1
 73
     1
176
     1
 90
        0
176
     1
 40
0.6
176
     1
 41
30.0
176
     1
 63
     7
176
     1
 74
     0
176
     1
 91
        4
176
     1
 64
     7
176
     1
 65
   257
176
     1
 75
     1
176
     1
175
     1
176
     1
 42
1.0
176
     1
 92
        8
176
     1
 66
     7
176
     1
 43
1.0
176
     1
 76
     1
176
     1
 77
     6
176
     1
 78
     2
176
     1
 67
     7
176
     1
 79
     5
176
     1
170
     0
176
     1
171
     0
176
     1
290
     0
176
     1
 93
        1
176
     1
 44
0.0
176
     1
173
     0
176
     1
1001
ACAD
1000
AcDbSavedByObjectVersion
1070
     0
  0
VISUALSTYLE
  5
319B
102
{ACAD_XDICTIONARY
360
23523
102
}
102
{ACAD_REACTORS
330
318F
102
}
330
318F
100
AcDbVisualStyle
  2

 70
    12
177
     2
291
     1
 71
     2
176
     1
 72
     2
176
     1
 73
     0
176
     1
 90
        0
176
     1
 40
0.6
176
     1
 41
30.0
176
     1
 63
     7
176
     1
 74
     1
176
     1
 91
        4
176
     1
 64
     7
176
     1
 65
   257
176
     1
 75
     1
176
     1
175
     1
176
     1
 42
1.0
176
     1
 92
        8
176
     1
 66
     7
176
     1
 43
1.0
176
     1
 76
     1
176
     1
 77
     6
176
     1
 78
     2
176
     1
 67
     7
176
     1
 79
     5
176
     1
170
     0
176
     1
171
     0
176
     1
290
     0
176
     1
 93
        1
176
     1
 44
50.0
176
     1
173
     0
176
     1
1001
ACAD
1000
AcDbSavedByObjectVersion
1070
     0
  0
VISUALSTYLE
  5
319F
102
{ACAD_XDICTIONARY
360
2352B
102
}
102
{ACAD_REACTORS
330
318F
102
}
330
318F
100
AcDbVisualStyle
  2

 70
    16
177
     2
291
     1
 71
     2
176
     1
 72
     2
176
     1
 73
     3
176
     1
 90
        0
176
     1
 40
0.6
176
     1
 41
30.0
176
     1
 63
     8
176
     1
 74
     1
176
     1
 91
        4
176
     1
 64
     7
176
     1
 65
   257
176
     1
 75
     1
176
     1
175
     1
176
     1
 42
1.0
176
     1
 92
        8
176
     1
 66
     8
176
     1
 43
1.0
176
     1
 76
     1
176
     1
 77
     6
176
     1
 78
     2
176
     1
 67
     7
176
     1
 79
     5
176
     1
170
     0
176
     1
171
     0
176
     1
290
     0
176
     1
 93
        1
176
     1
 44
0.0
176
     1
173
     0
176
     1
1001
ACAD
1000
AcDbSavedByObjectVersion
1070
     0
  0
VISUALSTYLE
  5
3198
102
{ACAD_XDICTIONARY
360
2351D
102
}
102
{ACAD_REACTORS
330
318F
102
}
330
318F
100
AcDbVisualStyle
  2

 70
     9
177
     2
291
     0
 71
     3
176
     1
 72
     2
176
     1
 73
     0
176
     1
 90
        0
176
     1
 40
0.6
176
     1
 41
30.0
176
     1
 63
     7
176
     1
 74
     2
176
     1
 91
        2
176
     1
 64
     7
176
     1
 65
   257
176
     1
 75
     1
176
     1
175
     1
176
     1
 42
40.0
176
     1
 92
        8
176
     1
 66
     7
176
     1
 43
1.0
176
     1
 76
     1
176
     1
 77
     6
176
     1
 78
     2
176
     1
 67
     7
176
     1
 79
     3
176
     1
170
     0
176
     1
171
     0
176
     1
290
     0
176
     1
 93
        1
176
     1
 44
0.0
176
     1
173
     0
176
     1
1001
ACAD
1000
AcDbSavedByObjectVersion
1070
     0
  0
VISUALSTYLE
  5
319A
102
{ACAD_XDICTIONARY
360
23521
102
}
102
{ACAD_REACTORS
330
318F
102
}
330
318F
100
AcDbVisualStyle
  2

 70
    11
177
     2
291
     1
 71
     2
176
     1
 72
     2
176
     1
 73
     0
176
     1
 90
        0
176
     1
 40
0.6
176
     1
 41
30.0
176
     1
 63
     7
176
     1
 74
     1
176
     1
 91
        4
176
     1
 64
     7
176
     1
 65
   257
176
     1
 75
     1
176
     1
175
     1
176
     1
 42
1.0
176
     1
 92
        8
176
     1
 66
     7
176
     1
 43
1.0
176
     1
 76
     1
176
     1
 77
     6
176
     1
 78
     2
176
     1
 67
     7
176
     1
 79
     5
176
     1
170
     0
176
     1
171
     0
176
     1
290
     0
176
     1
 93
        1
176
     1
 44
-50.0
176
     1
173
     0
176
     1
1001
ACAD
1000
AcDbSavedByObjectVersion
1070
     0
  0
VISUALSTYLE
  5
1B2EC
102
{ACAD_XDICTIONARY
360
2353F
102
}
102
{ACAD_REACTORS
330
318F
102
}
330
318F
100
AcDbVisualStyle
  2

 70
    22
177
     2
291
     1
 71
     2
176
     0
 72
     2
176
     0
 73
     0
176
     0
 90
        0
176
     0
 40
0.6
176
     0
 41
30.0
176
     0
 63
     7
176
     0
 74
     1
176
     0
 91
        4
176
     0
 64
     7
176
     0
 65
   257
176
     0
 75
     1
176
     0
175
     1
176
     0
 42
1.0
176
     0
 92
        8
176
     2
 66
     7
176
     0
 43
1.0
176
     0
 76
     1
176
     0
 77
     6
176
     0
 78
     2
176
     0
 67
     7
176
     0
 79
     5
176
     0
170
     0
176
     0
171
     0
176
     0
290
     0
176
     0
 93
        1
176
     0
 44
0.0
176
     0
173
     0
176
     0
1001
ACAD
1000
AcDbSavedByObjectVersion
1070
     0
  0
VISUALSTYLE
  5
319E
102
{ACAD_XDICTIONARY
360
23529
102
}
102
{ACAD_REACTORS
330
318F
102
}
330
318F
100
AcDbVisualStyle
  2

 70
    15
177
     2
291
     1
 71
     2
176
     1
 72
     2
176
     1
 73
     0
176
     1
 90
        0
176
     1
 40
0.6
176
     1
 41
30.0
176
     1
 63
     7
176
     1
 74
     1
176
     1
 91
        4
176
     1
 64
     7
176
     1
 65
   257
176
     1
 75
     1
176
     1
175
     1
176
     1
 42
1.0
176
     1
 92
        8
176
     1
 66
     7
176
     1
 43
1.0
176
     1
 76
     1
176
     1
 77
     6
176
     1
 78
     2
176
     1
 67
     7
176
     1
 79
     5
176
     1
170
     0
176
     1
171
     0
176
     1
290
     0
176
     1
 93
        1
176
     1
 44
0.0
176
     1
173
     0
176
     1
1001
ACAD
1000
AcDbSavedByObjectVersion
1070
     0
  0
VISUALSTYLE
  5
3190
102
{ACAD_XDICTIONARY
360
2350D
102
}
102
{ACAD_REACTORS
330
318F
102
}
330
318F
100
AcDbVisualStyle
  2

 70
     0
177
     2
291
     1
 71
     2
176
     1
 72
     1
176
     1
 73
     1
176
     1
 90
        2
176
     1
 40
0.6
176
     1
 41
30.0
176
     1
 63
     7
176
     1
 74
     0
176
     1
 91
        4
176
     1
 64
     7
176
     1
 65
   257
176
     1
 75
     1
176
     1
175
     1
176
     1
 42
1.0
176
     1
 92
        8
176
     1
 66
     7
176
     1
 43
1.0
176
     1
 76
     1
176
     1
 77
     6
176
     1
 78
     2
176
     1
 67
     7
176
     1
 79
     5
176
     1
170
     0
176
     1
171
     0
176
     1
290
     0
176
     1
 93
       13
176
     1
 44
0.0
176
     1
173
     0
176
     1
1001
ACAD
1000
AcDbSavedByObjectVersion
1070
     0
  0
VISUALSTYLE
  5
3191
102
{ACAD_XDICTIONARY
360
2350F
102
}
102
{ACAD_REACTORS
330
318F
102
}
330
318F
100
AcDbVisualStyle
  2

 70
     1
177
     2
291
     1
 71
     2
176
     1
 72
     1
176
     1
 73
     1
176
     1
 90
        2
176
     1
 40
0.6
176
     1
 41
30.0
176
     1
 63
     7
176
     1
 74
     1
176
     1
 91
        4
176
     1
 64
     7
176
     1
 65
   257
176
     1
 75
     1
176
     1
175
     1
176
     1
 42
1.0
176
     1
 92
        0
176
     1
 66
   257
176
     1
 43
1.0
176
     1
 76
     1
176
     1
 77
     6
176
     1
 78
     2
176
     1
 67
     7
176
     1
 79
     5
176
     1
170
     0
176
     1
171
     0
176
     1
290
     0
176
     1
 93
       13
176
     1
 44
0.0
176
     1
173
     0
176
     1
1001
ACAD
1000
AcDbSavedByObjectVersion
1070
     0
  0
VISUALSTYLE
  5
3192
102
{ACAD_XDICTIONARY
360
23511
102
}
102
{ACAD_REACTORS
330
318F
102
}
330
318F
100
AcDbVisualStyle
  2

 70
     2
177
     2
291
     1
 71
     2
176
     1
 72
     2
176
     1
 73
     1
176
     1
 90
        2
176
     1
 40
0.6
176
     1
 41
30.0
176
     1
 63
     7
176
     1
 74
     0
176
     1
 91
        4
176
     1
 64
     7
176
     1
 65
   257
176
     1
 75
     1
176
     1
175
     1
176
     1
 42
1.0
176
     1
 92
        0
176
     1
 66
     7
176
     1
 43
1.0
176
     1
 76
     1
176
     1
 77
     6
176
     1
 78
     2
176
     1
 67
     7
176
     1
 79
     5
176
     1
170
     0
176
     1
171
     0
176
     1
290
     0
176
     1
 93
       13
176
     1
 44
0.0
176
     1
173
     0
176
     1
1001
ACAD
1000
AcDbSavedByObjectVersion
1070
     0
  0
VISUALSTYLE
  5
3193
102
{ACAD_XDICTIONARY
360
23513
102
}
102
{ACAD_REACTORS
330
318F
102
}
330
318F
100
AcDbVisualStyle
  2

 70
     3
177
     2
291
     1
 71
     2
176
     1
 72
     2
176
     1
 73
     1
176
     1
 90
        2
176
     1
 40
0.6
176
     1
 41
30.0
176
     1
 63
     7
176
     1
 74
     1
176
     1
 91
        4
176
     1
 64
     7
176
     1
 65
   257
176
     1
 75
     1
176
     1
175
     1
176
     1
 42
1.0
176
     1
 92
        0
176
     1
 66
   257
176
     1
 43
1.0
176
     1
 76
     1
176
     1
 77
     6
176
     1
 78
     2
176
     1
 67
     7
176
     1
 79
     5
176
     1
170
     0
176
     1
171
     0
176
     1
290
     0
176
     1
 93
       13
176
     1
 44
0.0
176
     1
173
     0
176
     1
1001
ACAD
1000
AcDbSavedByObjectVersion
1070
     0
  0
VISUALSTYLE
  5
1B2E4
102
{ACAD_XDICTIONARY
360
2352F
102
}
102
{ACAD_REACTORS
330
318F
102
}
330
318F
100
AcDbVisualStyle
  2

 70
     6
177
     2
291
     0
 71
     1
176
     1
 72
     2
176
     1
 73
     2
176
     1
 90
        0
176
     1
 40
0.6
176
     1
 41
30.0
176
     1
 63
     7
176
     1
 74
     2
176
     1
 91
        2
176
     1
 64
     7
176
     1
 65
   257
176
     1
 75
     2
176
     1
175
     1
176
     1
 42
40.0
176
     1
 92
        0
176
     1
 66
   257
176
     1
 43
1.0
176
     1
 76
     1
176
     1
 77
     6
176
     1
 78
     2
176
     1
 67
     7
176
     1
 79
     3
176
     1
170
     0
176
     1
171
     0
176
     1
290
     0
176
     1
 93
        1
176
     1
 44
0.0
176
     1
173
     0
176
     1
1001
ACAD
1000
AcDbSavedByObjectVersion
1070
     0
  0
VISUALSTYLE
  5
1B2EA
102
{ACAD_XDICTIONARY
360
2353B
102
}
102
{ACAD_REACTORS
330
318F
102
}
330
318F
100
AcDbVisualStyle
  2

 70
    20
177
     2
291
     1
 71
     2
176
     0
 72
     2
176
     0
 73
     0
176
     0
 90
        0
176
     0
 40
0.6
176
     0
 41
30.0
176
     0
 63
     7
176
     0
 74
     1
176
     0
 91
        4
176
     0
 64
     7
176
     0
 65
   257
176
     0
 75
     1
176
     0
175
     1
176
     0
 42
1.0
176
     0
 92
       10
176
     2
 66
     7
176
     0
 43
1.0
176
     0
 76
     1
176
     0
 77
     6
176
     0
 78
     2
176
     0
 67
     7
176
     0
 79
     5
176
     0
170
     0
176
     0
171
     0
176
     0
290
     0
176
     0
 93
        1
176
     0
 44
0.0
176
     0
173
     0
176
     0
1001
ACAD
1000
AcDbSavedByObjectVersion
1070
     0
  0
VISUALSTYLE
  5
319D
102
{ACAD_XDICTIONARY
360
23527
102
}
102
{ACAD_REACTORS
330
318F
102
}
330
318F
100
AcDbVisualStyle
  2

 70
    14
177
     2
291
     1
 71
     2
176
     1
 72
     2
176
     1
 73
     0
176
     1
 90
        0
176
     1
 40
0.6
176
     1
 41
30.0
176
     1
 63
     7
176
     1
 74
     1
176
     1
 91
        4
176
     1
 64
     7
176
     1
 65
   257
176
     1
 75
     7
176
     1
175
     7
176
     1
 42
1.0
176
     1
 92
        8
176
     1
 66
     7
176
     1
 43
1.0
176
     1
 76
     1
176
     1
 77
     6
176
     1
 78
     2
176
     1
 67
     7
176
     1
 79
     5
176
     1
170
     0
176
     1
171
     0
176
     1
290
     0
176
     1
 93
        1
176
     1
 44
0.0
176
     1
173
     0
176
     1
1001
ACAD
1000
AcDbSavedByObjectVersion
1070
     0
  0
VISUALSTYLE
  5
1B2EB
102
{ACAD_XDICTIONARY
360
2353D
102
}
102
{ACAD_REACTORS
330
318F
102
}
330
318F
100
AcDbVisualStyle
  2

 70
    21
177
     2
291
     1
 71
     2
176
     0
 72
     2
176
     0
 73
     0
176
     0
 90
        0
176
     0
 40
0.6
176
     0
 41
30.0
176
     0
 63
     7
176
     0
 74
     1
176
     0
 91
        4
176
     0
 64
     7
176
     0
 65
   257
176
     0
 75
     1
176
     0
175
     1
176
     0
 42
1.0
176
     0
 92
        9
176
     2
 66
     7
176
     0
 43
1.0
176
     0
 76
     1
176
     0
 77
     6
176
     0
 78
     2
176
     0
 67
     7
176
     0
 79
     5
176
     0
170
     0
176
     0
171
     0
176
     0
290
     0
176
     0
 93
        1
176
     0
 44
0.0
176
     0
173
     0
176
     0
1001
ACAD
1000
AcDbSavedByObjectVersion
1070
     0
  0
VISUALSTYLE
  5
3199
102
{ACAD_XDICTIONARY
360
2351F
102
}
102
{ACAD_REACTORS
330
318F
102
}
330
318F
100
AcDbVisualStyle
  2

 70
     8
177
     2
291
     0
 71
     2
176
     1
 72
     2
176
     1
 73
     0
176
     1
 90
        0
176
     1
 40
0.6
176
     1
 41
30.0
176
     1
 63
     7
176
     1
 74
     1
176
     1
 91
        0
176
     1
 64
     7
176
     1
 65
   257
176
     1
 75
     1
176
     1
175
     1
176
     1
 42
1.0
176
     1
 92
        8
176
     1
 66
     8
176
     1
 43
1.0
176
     1
 76
     1
176
     1
 77
     6
176
     1
 78
     2
176
     1
 67
     7
176
     1
 79
     5
176
     1
170
     0
176
     1
171
     0
176
     1
290
     0
176
     1
 93
       13
176
     1
 44
0.0
176
     1
173
     0
176
     1
1001
ACAD
1000
AcDbSavedByObjectVersion
1070
     0
  0
VISUALSTYLE
  5
1B2E9
102
{ACAD_XDICTIONARY
360
23539
102
}
102
{ACAD_REACTORS
330
318F
102
}
330
318F
100
AcDbVisualStyle
  2

 70
    27
177
     2
291
     0
 71
     2
176
     1
 72
     2
176
     1
 73
     1
176
     1
 90
        2
176
     1
 40
0.6
176
     1
 41
30.0
176
     1
 63
     7
176
     1
 74
     0
176
     1
 91
        4
176
     1
 64
     7
176
     1
 65
   257
176
     1
 75
     1
176
     1
175
     1
176
     1
 42
1.0
176
     1
 92
        8
176
     1
 66
   257
176
     1
 43
1.0
176
     1
 76
     1
176
     1
 77
     6
176
     1
 78
     2
176
     1
 67
     8
176
     1
 79
     3
176
     1
170
     0
176
     1
171
     0
176
     1
290
     0
176
     1
 93
        5
176
     1
 44
0.0
176
     1
173
     0
176
     1
1001
ACAD
1000
AcDbSavedByObjectVersion
1070
     0
  0
VISUALSTYLE
  5
1B2E8
102
{ACAD_XDICTIONARY
360
23537
102
}
102
{ACAD_REACTORS
330
318F
102
}
330
318F
100
AcDbVisualStyle
  2

 70
    26
177
     2
291
     0
 71
     2
176
     1
 72
     2
176
     1
 73
     1
176
     1
 90
        2
176
     1
 40
0.6
176
     1
 41
30.0
176
     1
 63
     7
176
     1
 74
     1
176
     1
 91
       10
176
     1
 64
     7
176
     1
 65
   257
176
     1
 75
     2
176
     1
175
     1
176
     1
 42
1.0
176
     1
 92
        8
176
     1
 66
   257
176
     1
 43
1.0
176
     1
 76
     1
176
     1
 77
     6
176
     1
 78
     2
176
     1
 67
     7
176
     1
 79
     3
176
     1
170
     0
176
     1
171
     0
176
     1
290
     0
176
     1
 93
        5
176
     1
 44
0.0
176
     1
173
     0
176
     1
1001
ACAD
1000
AcDbSavedByObjectVersion
1070
     0
  0
VISUALSTYLE
  5
1B2E5
102
{ACAD_XDICTIONARY
360
23531
102
}
102
{ACAD_REACTORS
330
318F
102
}
330
318F
100
AcDbVisualStyle
  2

 70
    23
177
     2
291
     0
 71
     2
176
     1
 72
     2
176
     1
 73
     3
176
     1
 90
        0
176
     1
 40
0.6
176
     1
 41
30.0
176
     1
 63
     7
176
     1
 74
     2
176
     1
 91
        2
176
     1
 64
     7
176
     1
 65
     7
176
     1
 75
     1
176
     1
175
     1
176
     1
 42
40.0
176
     1
 92
        8
176
     1
 66
     7
176
     1
 43
1.0
176
     1
 76
     1
176
     1
 77
     6
176
     1
 78
     2
176
     1
 67
     7
176
     1
 79
     3
176
     1
170
     0
176
     1
171
     0
176
     1
290
     0
176
     1
 93
        1
176
     1
 44
0.0
176
     1
173
     0
176
     1
1001
ACAD
1000
AcDbSavedByObjectVersion
1070
     0
  0
VISUALSTYLE
  5
1B2E6
102
{ACAD_XDICTIONARY
360
23533
102
}
102
{ACAD_REACTORS
330
318F
102
}
330
318F
100
AcDbVisualStyle
  2

 70
    24
177
     2
291
     0
 71
     1
176
     1
 72
     2
176
     1
 73
     2
176
     1
 90
        0
176
     1
 40
0.6
176
     1
 41
30.0
176
     1
 63
     7
176
     1
 74
     2
176
     1
 91
        2
176
     1
 64
     7
176
     1
 65
     7
176
     1
 75
     1
176
     1
175
     1
176
     1
 42
40.0
176
     1
 92
       11
176
     1
 66
     7
176
     1
 43
1.0
176
     1
 76
     1
176
     1
 77
     6
176
     1
 78
     2
176
     1
 67
     7
176
     1
 79
     6
176
     1
170
     0
176
     1
171
     0
176
     1
290
     0
176
     1
 93
        1
176
     1
 44
0.0
176
     1
173
     0
176
     1
1001
ACAD
1000
AcDbSavedByObjectVersion
1070
     0
  0
VISUALSTYLE
  5
319C
102
{ACAD_XDICTIONARY
360
23525
102
}
102
{ACAD_REACTORS
330
318F
102
}
330
318F
100
AcDbVisualStyle
  2

 70
    13
177
     2
291
     1
 71
     2
176
     1
 72
     2
176
     1
 73
     0
176
     1
 90
        0
176
     1
 40
0.6
176
     1
 41
30.0
176
     1
 63
     7
176
     1
 74
     1
176
     1
 91
        4
176
     1
 64
     7
176
     1
 65
   257
176
     1
 75
     1
176
     1
175
     1
176
     1
 42
1.0
176
     1
 92
       12
176
     1
 66
     7
176
     1
 43
1.0
176
     1
 76
     1
176
     1
 77
     6
176
     1
 78
     2
176
     1
 67
     7
176
     1
 79
     5
176
     1
170
     0
176
     1
171
     0
176
     1
290
     0
176
     1
 93
        1
176
     1
 44
0.0
176
     1
173
     0
176
     1
1001
ACAD
1000
AcDbSavedByObjectVersion
1070
     0
  0
VISUALSTYLE
  5
1B2E3
102
{ACAD_XDICTIONARY
360
2352D
102
}
102
{ACAD_REACTORS
330
318F
102
}
330
318F
100
AcDbVisualStyle
  2

 70
     5
177
     2
291
     0
 71
     0
176
     1
 72
     2
176
     1
 73
     0
176
     1
 90
        0
176
     1
 40
0.6
176
     1
 41
30.0
176
     1
 63
     7
176
     1
 74
     1
176
     1
 91
        4
176
     1
 64
     7
176
     1
 65
   257
176
     1
 75
     1
176
     1
175
     1
176
     1
 42
1.0
176
     1
 92
        0
176
     1
 66
   257
176
     1
 43
1.0
176
     1
 76
     1
176
     1
 77
     6
176
     1
 78
     2
176
     1
 67
     7
176
     1
 79
     3
176
     1
170
     0
176
     1
171
     0
176
     1
290
     0
176
     1
 93
        1
176
     1
 44
0.0
176
     1
173
     0
176
     1
1001
ACAD
1000
AcDbSavedByObjectVersion
1070
     0
  0
VISUALSTYLE
  5
1B2E7
102
{ACAD_XDICTIONARY
360
23535
102
}
102
{ACAD_REACTORS
330
318F
102
}
330
318F
100
AcDbVisualStyle
  2

 70
    25
177
     2
291
     0
 71
     2
176
     1
 72
     2
176
     1
 73
     1
176
     1
 90
        1
176
     1
 40
0.5
176
     1
 41
30.0
176
     1
 63
     7
176
     1
 74
     1
176
     1
 91
        0
176
     1
 64
     7
176
     1
 65
   257
176
     1
 75
     1
176
     1
175
     1
176
     1
 42
1.0
176
     1
 92
        8
176
     1
 66
     7
176
     1
 43
1.0
176
     1
 76
     1
176
     1
 77
     6
176
     1
 78
     2
176
     1
 67
     7
176
     1
 79
     3
176
     1
170
     0
176
     1
171
     0
176
     1
290
     0
176
     1
 93
       13
176
     1
 44
0.0
176
     1
173
     0
176
     1
1001
ACAD
1000
AcDbSavedByObjectVersion
1070
     0
  0
DICTIONARYVAR
  5
1B222
102
{ACAD_REACTORS
330
33A3
102
}
330
33A3
100
DictionaryVariables
280
     0
  1
1:1
  0
DICTIONARYVAR
  5
1B30F
102
{ACAD_REACTORS
330
33A3
102
}
330
33A3
100
DictionaryVariables
280
     0
  1
STANDARD
  0
DICTIONARYVAR
  5
33A4
102
{ACAD_REACTORS
330
33A3
102
}
330
33A3
100
DictionaryVariables
280
     0
  1
STANDARD
  0
DICTIONARYVAR
  5
1B310
102
{ACAD_REACTORS
330
33A3
102
}
330
33A3
100
DictionaryVariables
280
     0
  1
Metric50
  0
DICTIONARYVAR
  5
1B311
102
{ACAD_REACTORS
330
33A3
102
}
330
33A3
100
DictionaryVariables
280
     0
  1
Metric50
  0
DICTIONARYVAR
  5
9BE8
102
{ACAD_REACTORS
330
33A3
102
}
330
33A3
100
DictionaryVariables
280
     0
  1
1
  0
DICTIONARYVAR
  5
9BE7
102
{ACAD_REACTORS
330
33A3
102
}
330
33A3
100
DictionaryVariables
280
     0
  1
0
  0
DICTIONARYVAR
  5
20993
102
{ACAD_REACTORS
330
33A3
102
}
330
33A3
100
DictionaryVariables
280
     0
  1
1
  0
DICTIONARYVAR
  5
20994
102
{ACAD_REACTORS
330
33A3
102
}
330
33A3
100
DictionaryVariables
280
     0
  1
15
  0
DICTIONARYVAR
  5
20992
102
{ACAD_REACTORS
330
33A3
102
}
330
33A3
100
DictionaryVariables
280
     0
  1
0
  0
DICTIONARYVAR
  5
20991
102
{ACAD_REACTORS
330
33A3
102
}
330
33A3
100
DictionaryVariables
280
     0
  1
0
  0
DICTIONARYVAR
  5
9BE6
102
{ACAD_REACTORS
330
33A3
102
}
330
33A3
100
DictionaryVariables
280
     0
  1
127
  0
DICTIONARY
  5
23547
330
20CB3
100
AcDbDictionary
280
     1
281
     1
  3
ACAD_XREC_ROUNDTRIP
360
23548
  0
DICTIONARY
  5
23543
330
1B2F1
100
AcDbDictionary
280
     1
281
     1
  3
ACAD_XREC_ROUNDTRIP
360
23544
  0
DICTIONARY
  5
1B22B
330
318D
100
AcDbDictionary
280
     1
281
     1
  3
ACAD_XREC_ROUNDTRIP
360
1B22C
  0
DICTIONARY
  5
1B22D
330
318C
100
AcDbDictionary
280
     1
281
     1
  3
ACAD_XREC_ROUNDTRIP
360
1B22E
  0
DICTIONARY
  5
1B22F
330
318E
100
AcDbDictionary
280
     1
281
     1
  3
ACAD_XREC_ROUNDTRIP
360
1B230
  0
DICTIONARY
  5
23545
330
20CB1
100
AcDbDictionary
280
     1
281
     1
  3
ACAD_XREC_ROUNDTRIP
360
23546
  0
DICTIONARY
  5
23541
330
1B2EF
100
AcDbDictionary
280
     1
281
     1
  3
ACAD_XREC_ROUNDTRIP
360
23542
  0
DICTIONARY
  5
1B314
330
31A2
100
AcDbDictionary
280
     1
281
     1
  3
ACAD_ROUNDTRIP_2008_TABLESTYLE_CELLSTYLEMAP
360
2350B
  0
DICTIONARY
  5
23517
330
3195
100
AcDbDictionary
280
     1
281
     1
  3
ACAD_XREC_ROUNDTRIP
360
23518
  0
DICTIONARY
  5
2351B
330
3197
100
AcDbDictionary
280
     1
281
     1
  3
ACAD_XREC_ROUNDTRIP
360
2351C
  0
DICTIONARY
  5
23519
330
3196
100
AcDbDictionary
280
     1
281
     1
  3
ACAD_XREC_ROUNDTRIP
360
2351A
  0
DICTIONARY
  5
23515
330
3194
100
AcDbDictionary
280
     1
281
     1
  3
ACAD_XREC_ROUNDTRIP
360
23516
  0
DICTIONARY
  5
23523
330
319B
100
AcDbDictionary
280
     1
281
     1
  3
ACAD_XREC_ROUNDTRIP
360
23524
  0
DICTIONARY
  5
2352B
330
319F
100
AcDbDictionary
280
     1
281
     1
  3
ACAD_XREC_ROUNDTRIP
360
2352C
  0
DICTIONARY
  5
2351D
330
3198
100
AcDbDictionary
280
     1
281
     1
  3
ACAD_XREC_ROUNDTRIP
360
2351E
  0
DICTIONARY
  5
23521
330
319A
100
AcDbDictionary
280
     1
281
     1
  3
ACAD_XREC_ROUNDTRIP
360
23522
  0
DICTIONARY
  5
2353F
330
1B2EC
100
AcDbDictionary
280
     1
281
     1
  3
ACAD_XREC_ROUNDTRIP
360
23540
  0
DICTIONARY
  5
23529
330
319E
100
AcDbDictionary
280
     1
281
     1
  3
ACAD_XREC_ROUNDTRIP
360
2352A
  0
DICTIONARY
  5
2350D
330
3190
100
AcDbDictionary
280
     1
281
     1
  3
ACAD_XREC_ROUNDTRIP
360
2350E
  0
DICTIONARY
  5
2350F
330
3191
100
AcDbDictionary
280
     1
281
     1
  3
ACAD_XREC_ROUNDTRIP
360
23510
  0
DICTIONARY
  5
23511
330
3192
100
AcDbDictionary
280
     1
281
     1
  3
ACAD_XREC_ROUNDTRIP
360
23512
  0
DICTIONARY
  5
23513
330
3193
100
AcDbDictionary
280
     1
281
     1
  3
ACAD_XREC_ROUNDTRIP
360
23514
  0
DICTIONARY
  5
2352F
330
1B2E4
100
AcDbDictionary
280
     1
281
     1
  3
ACAD_XREC_ROUNDTRIP
360
23530
  0
DICTIONARY
  5
2353B
330
1B2EA
100
AcDbDictionary
280
     1
281
     1
  3
ACAD_XREC_ROUNDTRIP
360
2353C
  0
DICTIONARY
  5
23527
330
319D
100
AcDbDictionary
280
     1
281
     1
  3
ACAD_XREC_ROUNDTRIP
360
23528
  0
DICTIONARY
  5
2353D
330
1B2EB
100
AcDbDictionary
280
     1
281
     1
  3
ACAD_XREC_ROUNDTRIP
360
2353E
  0
DICTIONARY
  5
2351F
330
3199
100
AcDbDictionary
280
     1
281
     1
  3
ACAD_XREC_ROUNDTRIP
360
23520
  0
DICTIONARY
  5
23539
330
1B2E9
100
AcDbDictionary
280
     1
281
     1
  3
ACAD_XREC_ROUNDTRIP
360
2353A
  0
DICTIONARY
  5
23537
330
1B2E8
100
AcDbDictionary
280
     1
281
     1
  3
ACAD_XREC_ROUNDTRIP
360
23538
  0
DICTIONARY
  5
23531
330
1B2E5
100
AcDbDictionary
280
     1
281
     1
  3
ACAD_XREC_ROUNDTRIP
360
23532
  0
DICTIONARY
  5
23533
330
1B2E6
100
AcDbDictionary
280
     1
281
     1
  3
ACAD_XREC_ROUNDTRIP
360
23534
  0
DICTIONARY
  5
23525
330
319C
100
AcDbDictionary
280
     1
281
     1
  3
ACAD_XREC_ROUNDTRIP
360
23526
  0
DICTIONARY
  5
2352D
330
1B2E3
100
AcDbDictionary
280
     1
281
     1
  3
ACAD_XREC_ROUNDTRIP
360
2352E
  0
DICTIONARY
  5
23535
330
1B2E7
100
AcDbDictionary
280
     1
281
     1
  3
ACAD_XREC_ROUNDTRIP
360
23536
  0
XRECORD
  5
23548
102
{ACAD_REACTORS
330
23547
102
}
330
23547
100
AcDbXrecord
280
     1
102
DISPLAYNAME
  1
Imperial24
102
FLAGS
 90
        0
  0
XRECORD
  5
23544
102
{ACAD_REACTORS
330
23543
102
}
330
23543
100
AcDbXrecord
280
     1
102
DISPLAYNAME
  1
Metric50
102
FLAGS
 90
        0
  0
XRECORD
  5
1B22C
102
{ACAD_REACTORS
330
1B22B
102
}
330
1B22B
100
AcDbXrecord
280
     1
102
MATERIAL
148
0.0
149
0.0
149
0.0
 93
        0
 94
      127
282
     0
 72
     1
 77
     1
171
     1
175
     1
179
     1
273
     0
  0
XRECORD
  5
1B22E
102
{ACAD_REACTORS
330
1B22D
102
}
330
1B22D
100
AcDbXrecord
280
     1
102
MATERIAL
148
0.0
149
0.0
149
0.0
 93
        0
 94
      127
282
     0
 72
     1
 77
     1
171
     1
175
     1
179
     1
273
     0
  0
XRECORD
  5
1B230
102
{ACAD_REACTORS
330
1B22F
102
}
330
1B22F
100
AcDbXrecord
280
     1
102
MATERIAL
148
0.0
149
0.0
149
0.0
 93
        0
 94
      127
282
     0
 72
     1
 77
     1
171
     1
175
     1
179
     1
273
     0
  0
XRECORD
  5
23546
102
{ACAD_REACTORS
330
23545
102
}
330
23545
100
AcDbXrecord
280
     1
102
DISPLAYNAME
  1
Imperial24
102
FLAGS
 90
        0
  0
XRECORD
  5
23542
102
{ACAD_REACTORS
330
23541
102
}
330
23541
100
AcDbXrecord
280
     1
102
DISPLAYNAME
  1
Metric50
102
FLAGS
 90
        0
  0
CELLSTYLEMAP
  5
2350B
102
{ACAD_REACTORS
330
1B314
102
}
330
1B314
100
AcDbCellStyleMap
 90
        3
300
CELLSTYLE
  1
TABLEFORMAT_BEGIN
 90
        5
170
     1
 91
        0
 92
    32768
 62
   257
 93
        1
300
CONTENTFORMAT
  1
CONTENTFORMAT_BEGIN
 90
        0
 91
        0
 92
        4
 93
        0
300

 40
0.0
140
1.0
 94
        5
 62
     0
340
11
144
6.0
309
CONTENTFORMAT_END
171
     1
301
MARGIN
  1
CELLMARGIN_BEGIN
 40
1.5
 40
1.5
 40
1.5
 40
1.5
 40
0.18
 40
0.18
309
CELLMARGIN_END
 94
        6
 95
        1
302
GRIDFORMAT
  1
GRIDFORMAT_BEGIN
 90
        0
 91
        1
 62
     0
 92
       -2
340
0
 93
        0
 40
0.045
309
GRIDFORMAT_END
 95
        2
302
GRIDFORMAT
  1
GRIDFORMAT_BEGIN
 90
        0
 91
        1
 62
     0
 92
       -2
340
0
 93
        0
 40
0.045
309
GRIDFORMAT_END
 95
        4
302
GRIDFORMAT
  1
GRIDFORMAT_BEGIN
 90
        0
 91
        1
 62
     0
 92
       -2
340
0
 93
        0
 40
0.045
309
GRIDFORMAT_END
 95
        8
302
GRIDFORMAT
  1
GRIDFORMAT_BEGIN
 90
        0
 91
        1
 62
     0
 92
       -2
340
0
 93
        0
 40
0.045
309
GRIDFORMAT_END
 95
       16
302
GRIDFORMAT
  1
GRIDFORMAT_BEGIN
 90
        0
 91
        1
 62
     0
 92
       -2
340
0
 93
        0
 40
0.045
309
GRIDFORMAT_END
 95
       32
302
GRIDFORMAT
  1
GRIDFORMAT_BEGIN
 90
        0
 91
        1
 62
     0
 92
       -2
340
0
 93
        0
 40
0.045
309
GRIDFORMAT_END
309
TABLEFORMAT_END
  1
CELLSTYLE_BEGIN
 90
        1
 91
        1
300
_TITLE
309
CELLSTYLE_END
300
CELLSTYLE
  1
TABLEFORMAT_BEGIN
 90
        5
170
     1
 91
        0
 92
        0
 62
   257
 93
        1
300
CONTENTFORMAT
  1
CONTENTFORMAT_BEGIN
 90
        0
 91
        0
 92
        4
 93
        0
300

 40
0.0
140
1.0
 94
        5
 62
     0
340
11
144
4.5
309
CONTENTFORMAT_END
171
     1
301
MARGIN
  1
CELLMARGIN_BEGIN
 40
1.5
 40
1.5
 40
1.5
 40
1.5
 40
0.18
 40
0.18
309
CELLMARGIN_END
 94
        6
 95
        1
302
GRIDFORMAT
  1
GRIDFORMAT_BEGIN
 90
        0
 91
        1
 62
     0
 92
       -2
340
0
 93
        0
 40
0.045
309
GRIDFORMAT_END
 95
        2
302
GRIDFORMAT
  1
GRIDFORMAT_BEGIN
 90
        0
 91
        1
 62
     0
 92
       -2
340
0
 93
        0
 40
0.045
309
GRIDFORMAT_END
 95
        4
302
GRIDFORMAT
  1
GRIDFORMAT_BEGIN
 90
        0
 91
        1
 62
     0
 92
       -2
340
0
 93
        0
 40
0.045
309
GRIDFORMAT_END
 95
        8
302
GRIDFORMAT
  1
GRIDFORMAT_BEGIN
 90
        0
 91
        1
 62
     0
 92
       -2
340
0
 93
        0
 40
0.045
309
GRIDFORMAT_END
 95
       16
302
GRIDFORMAT
  1
GRIDFORMAT_BEGIN
 90
        0
 91
        1
 62
     0
 92
       -2
340
0
 93
        0
 40
0.045
309
GRIDFORMAT_END
 95
       32
302
GRIDFORMAT
  1
GRIDFORMAT_BEGIN
 90
        0
 91
        1
 62
     0
 92
       -2
340
0
 93
        0
 40
0.045
309
GRIDFORMAT_END
309
TABLEFORMAT_END
  1
CELLSTYLE_BEGIN
 90
        2
 91
        1
300
_HEADER
309
CELLSTYLE_END
300
CELLSTYLE
  1
TABLEFORMAT_BEGIN
 90
        5
170
     1
 91
        0
 92
        0
 62
   257
 93
        1
300
CONTENTFORMAT
  1
CONTENTFORMAT_BEGIN
 90
        0
 91
        0
 92
        4
 93
        0
300

 40
0.0
140
1.0
 94
        2
 62
     0
340
11
144
4.5
309
CONTENTFORMAT_END
171
     1
301
MARGIN
  1
CELLMARGIN_BEGIN
 40
1.5
 40
1.5
 40
1.5
 40
1.5
 40
0.18
 40
0.18
309
CELLMARGIN_END
 94
        6
 95
        1
302
GRIDFORMAT
  1
GRIDFORMAT_BEGIN
 90
        0
 91
        1
 62
     0
 92
       -2
340
0
 93
        0
 40
0.045
309
GRIDFORMAT_END
 95
        2
302
GRIDFORMAT
  1
GRIDFORMAT_BEGIN
 90
        0
 91
        1
 62
     0
 92
       -2
340
0
 93
        0
 40
0.045
309
GRIDFORMAT_END
 95
        4
302
GRIDFORMAT
  1
GRIDFORMAT_BEGIN
 90
        0
 91
        1
 62
     0
 92
       -2
340
0
 93
        0
 40
0.045
309
GRIDFORMAT_END
 95
        8
302
GRIDFORMAT
  1
GRIDFORMAT_BEGIN
 90
        0
 91
        1
 62
     0
 92
       -2
340
0
 93
        0
 40
0.045
309
GRIDFORMAT_END
 95
       16
302
GRIDFORMAT
  1
GRIDFORMAT_BEGIN
 90
        0
 91
        1
 62
     0
 92
       -2
340
0
 93
        0
 40
0.045
309
GRIDFORMAT_END
 95
       32
302
GRIDFORMAT
  1
GRIDFORMAT_BEGIN
 90
        0
 91
        1
 62
     0
 92
       -2
340
0
 93
        0
 40
0.045
309
GRIDFORMAT_END
309
TABLEFORMAT_END
  1
CELLSTYLE_BEGIN
 90
        3
 91
        2
300
_DATA
309
CELLSTYLE_END
  0
XRECORD
  5
23518
102
{ACAD_REACTORS
330
23517
102
}
330
23517
100
AcDbXrecord
280
     1
102
RTVSPost2010Prop28
280
     1
102
RTVSPost2010PropOp28
 70
     1
102
RTVSPost2010Prop29
280
     1
102
RTVSPost2010PropOp29
 70
     1
102
RTVSPost2010Prop30
280
     0
102
RTVSPost2010PropOp30
 70
     1
102
RTVSPost2010Prop31
280
     0
102
RTVSPost2010PropOp31
 70
     1
102
RTVSPost2010Prop32
280
     0
102
RTVSPost2010PropOp32
 70
     1
102
RTVSPost2010Prop33
280
     0
102
RTVSPost2010PropOp33
 70
     1
102
RTVSPost2010Prop34
280
     0
102
RTVSPost2010PropOp34
 70
     1
102
RTVSPost2010Prop35
280
     0
102
RTVSPost2010PropOp35
 70
     1
102
RTVSPost2010Prop36
280
     0
102
RTVSPost2010PropOp36
 70
     1
102
RTVSPost2010Prop37
 90
       50
102
RTVSPost2010PropOp37
 70
     1
102
RTVSPost2010Prop38
140
0.0
102
RTVSPost2010PropOp38
 70
     1
102
RTVSPost2010Prop39
140
1.0
102
RTVSPost2010PropOp39
 70
     1
102
RTVSPost2010Prop40
 90
        0
102
RTVSPost2010PropOp40
 70
     1
102
RTVSPost2010Prop41ColorIndex
 90
       18
102
RTVSPost2010Prop41ColorRGB
 90
        0
102
RTVSPost2010PropOp41
 70
     1
102
RTVSPost2010Prop42
 90
       50
102
RTVSPost2010PropOp42
 70
     1
102
RTVSPost2010Prop43
 90
        3
102
RTVSPost2010PropOp43
 70
     1
102
RTVSPost2010Prop44ColorIndex
 90
        5
102
RTVSPost2010Prop44ColorRGB
 90
      255
102
RTVSPost2010PropOp44
 70
     1
102
RTVSPost2010Prop45
280
     0
102
RTVSPost2010PropOp45
 70
     1
102
RTVSPost2010Prop46
 90
       50
102
RTVSPost2010PropOp46
 70
     1
102
RTVSPost2010Prop47
 90
       50
102
RTVSPost2010PropOp47
 70
     1
102
RTVSPost2010Prop48
 90
       50
102
RTVSPost2010PropOp48
 70
     1
102
RTVSPost2010Prop49
280
     0
102
RTVSPost2010PropOp49
 70
     1
102
RTVSPost2010Prop50
 90
       50
102
RTVSPost2010PropOp50
 70
     1
102
RTVSPost2010Prop51ColorIndex
 90
      256
102
RTVSPost2010Prop51ColorRGB
 90
-16777216
102
RTVSPost2010PropOp51
 70
     0
102
RTVSPost2010Prop52
140
1.0
102
RTVSPost2010PropOp52
 70
     0
102
RTVSPost2010Prop53
 90
        2
102
RTVSPost2010PropOp53
 70
     1
102
RTVSPost2010Prop54
  1
strokes_ogs.tif
102
RTVSPost2010PropOp54
 70
     1
102
RTVSPost2010Prop55
280
     0
102
RTVSPost2010PropOp55
 70
     1
102
RTVSPost2010Prop56
140
1.0
102
RTVSPost2010PropOp56
 70
     1
102
RTVSPost2010Prop57
140
1.0
102
RTVSPost2010PropOp57
 70
     1
  0
XRECORD
  5
2351C
102
{ACAD_REACTORS
330
2351B
102
}
330
2351B
100
AcDbXrecord
280
     1
102
RTVSPost2010Prop28
280
     0
102
RTVSPost2010PropOp28
 70
     1
102
RTVSPost2010Prop29
280
     1
102
RTVSPost2010PropOp29
 70
     1
102
RTVSPost2010Prop30
280
     1
102
RTVSPost2010PropOp30
 70
     1
102
RTVSPost2010Prop31
280
     0
102
RTVSPost2010PropOp31
 70
     1
102
RTVSPost2010Prop32
280
     0
102
RTVSPost2010PropOp32
 70
     1
102
RTVSPost2010Prop33
280
     0
102
RTVSPost2010PropOp33
 70
     1
102
RTVSPost2010Prop34
280
     0
102
RTVSPost2010PropOp34
 70
     1
102
RTVSPost2010Prop35
280
     0
102
RTVSPost2010PropOp35
 70
     1
102
RTVSPost2010Prop36
280
     0
102
RTVSPost2010PropOp36
 70
     1
102
RTVSPost2010Prop37
 90
       50
102
RTVSPost2010PropOp37
 70
     1
102
RTVSPost2010Prop38
140
0.0
102
RTVSPost2010PropOp38
 70
     1
102
RTVSPost2010Prop39
140
1.0
102
RTVSPost2010PropOp39
 70
     1
102
RTVSPost2010Prop40
 90
        0
102
RTVSPost2010PropOp40
 70
     1
102
RTVSPost2010Prop41ColorIndex
 90
       18
102
RTVSPost2010Prop41ColorRGB
 90
        0
102
RTVSPost2010PropOp41
 70
     1
102
RTVSPost2010Prop42
 90
       50
102
RTVSPost2010PropOp42
 70
     1
102
RTVSPost2010Prop43
 90
        3
102
RTVSPost2010PropOp43
 70
     1
102
RTVSPost2010Prop44ColorIndex
 90
        5
102
RTVSPost2010Prop44ColorRGB
 90
      255
102
RTVSPost2010PropOp44
 70
     1
102
RTVSPost2010Prop45
280
     0
102
RTVSPost2010PropOp45
 70
     1
102
RTVSPost2010Prop46
 90
       50
102
RTVSPost2010PropOp46
 70
     1
102
RTVSPost2010Prop47
 90
       50
102
RTVSPost2010PropOp47
 70
     1
102
RTVSPost2010Prop48
 90
       50
102
RTVSPost2010PropOp48
 70
     1
102
RTVSPost2010Prop49
280
     0
102
RTVSPost2010PropOp49
 70
     1
102
RTVSPost2010Prop50
 90
       50
102
RTVSPost2010PropOp50
 70
     1
102
RTVSPost2010Prop51ColorIndex
 90
      256
102
RTVSPost2010Prop51ColorRGB
 90
-16777216
102
RTVSPost2010PropOp51
 70
     0
102
RTVSPost2010Prop52
140
1.0
102
RTVSPost2010PropOp52
 70
     0
102
RTVSPost2010Prop53
 90
        2
102
RTVSPost2010PropOp53
 70
     1
102
RTVSPost2010Prop54
  1
strokes_ogs.tif
102
RTVSPost2010PropOp54
 70
     1
102
RTVSPost2010Prop55
280
     0
102
RTVSPost2010PropOp55
 70
     1
102
RTVSPost2010Prop56
140
1.0
102
RTVSPost2010PropOp56
 70
     1
102
RTVSPost2010Prop57
140
1.0
102
RTVSPost2010PropOp57
 70
     1
  0
XRECORD
  5
2351A
102
{ACAD_REACTORS
330
23519
102
}
330
23519
100
AcDbXrecord
280
     1
102
RTVSPost2010Prop28
280
     0
102
RTVSPost2010PropOp28
 70
     1
102
RTVSPost2010Prop29
280
     1
102
RTVSPost2010PropOp29
 70
     1
102
RTVSPost2010Prop30
280
     1
102
RTVSPost2010PropOp30
 70
     1
102
RTVSPost2010Prop31
280
     0
102
RTVSPost2010PropOp31
 70
     1
102
RTVSPost2010Prop32
280
     0
102
RTVSPost2010PropOp32
 70
     1
102
RTVSPost2010Prop33
280
     0
102
RTVSPost2010PropOp33
 70
     1
102
RTVSPost2010Prop34
280
     0
102
RTVSPost2010PropOp34
 70
     1
102
RTVSPost2010Prop35
280
     0
102
RTVSPost2010PropOp35
 70
     1
102
RTVSPost2010Prop36
280
     0
102
RTVSPost2010PropOp36
 70
     1
102
RTVSPost2010Prop37
 90
       50
102
RTVSPost2010PropOp37
 70
     1
102
RTVSPost2010Prop38
140
0.0
102
RTVSPost2010PropOp38
 70
     1
102
RTVSPost2010Prop39
140
1.0
102
RTVSPost2010PropOp39
 70
     1
102
RTVSPost2010Prop40
 90
        0
102
RTVSPost2010PropOp40
 70
     1
102
RTVSPost2010Prop41ColorIndex
 90
       18
102
RTVSPost2010Prop41ColorRGB
 90
        0
102
RTVSPost2010PropOp41
 70
     1
102
RTVSPost2010Prop42
 90
       50
102
RTVSPost2010PropOp42
 70
     1
102
RTVSPost2010Prop43
 90
        3
102
RTVSPost2010PropOp43
 70
     1
102
RTVSPost2010Prop44ColorIndex
 90
        5
102
RTVSPost2010Prop44ColorRGB
 90
      255
102
RTVSPost2010PropOp44
 70
     1
102
RTVSPost2010Prop45
280
     0
102
RTVSPost2010PropOp45
 70
     1
102
RTVSPost2010Prop46
 90
       50
102
RTVSPost2010PropOp46
 70
     1
102
RTVSPost2010Prop47
 90
       50
102
RTVSPost2010PropOp47
 70
     1
102
RTVSPost2010Prop48
 90
       50
102
RTVSPost2010PropOp48
 70
     1
102
RTVSPost2010Prop49
280
     0
102
RTVSPost2010PropOp49
 70
     1
102
RTVSPost2010Prop50
 90
       50
102
RTVSPost2010PropOp50
 70
     1
102
RTVSPost2010Prop51ColorIndex
 90
      256
102
RTVSPost2010Prop51ColorRGB
 90
-16777216
102
RTVSPost2010PropOp51
 70
     0
102
RTVSPost2010Prop52
140
1.0
102
RTVSPost2010PropOp52
 70
     0
102
RTVSPost2010Prop53
 90
        2
102
RTVSPost2010PropOp53
 70
     1
102
RTVSPost2010Prop54
  1
strokes_ogs.tif
102
RTVSPost2010PropOp54
 70
     1
102
RTVSPost2010Prop55
280
     0
102
RTVSPost2010PropOp55
 70
     1
102
RTVSPost2010Prop56
140
1.0
102
RTVSPost2010PropOp56
 70
     1
102
RTVSPost2010Prop57
140
1.0
102
RTVSPost2010PropOp57
 70
     1
  0
XRECORD
  5
23516
102
{ACAD_REACTORS
330
23515
102
}
330
23515
100
AcDbXrecord
280
     1
102
RTVSPost2010Prop28
280
     0
102
RTVSPost2010PropOp28
 70
     1
102
RTVSPost2010Prop29
280
     1
102
RTVSPost2010PropOp29
 70
     1
102
RTVSPost2010Prop30
280
     1
102
RTVSPost2010PropOp30
 70
     1
102
RTVSPost2010Prop31
280
     0
102
RTVSPost2010PropOp31
 70
     1
102
RTVSPost2010Prop32
280
     0
102
RTVSPost2010PropOp32
 70
     1
102
RTVSPost2010Prop33
280
     0
102
RTVSPost2010PropOp33
 70
     1
102
RTVSPost2010Prop34
280
     0
102
RTVSPost2010PropOp34
 70
     1
102
RTVSPost2010Prop35
280
     0
102
RTVSPost2010PropOp35
 70
     1
102
RTVSPost2010Prop36
280
     0
102
RTVSPost2010PropOp36
 70
     1
102
RTVSPost2010Prop37
 90
       50
102
RTVSPost2010PropOp37
 70
     1
102
RTVSPost2010Prop38
140
0.0
102
RTVSPost2010PropOp38
 70
     1
102
RTVSPost2010Prop39
140
1.0
102
RTVSPost2010PropOp39
 70
     1
102
RTVSPost2010Prop40
 90
        0
102
RTVSPost2010PropOp40
 70
     1
102
RTVSPost2010Prop41ColorIndex
 90
       18
102
RTVSPost2010Prop41ColorRGB
 90
        0
102
RTVSPost2010PropOp41
 70
     1
102
RTVSPost2010Prop42
 90
       50
102
RTVSPost2010PropOp42
 70
     1
102
RTVSPost2010Prop43
 90
        3
102
RTVSPost2010PropOp43
 70
     1
102
RTVSPost2010Prop44ColorIndex
 90
        5
102
RTVSPost2010Prop44ColorRGB
 90
      255
102
RTVSPost2010PropOp44
 70
     1
102
RTVSPost2010Prop45
280
     0
102
RTVSPost2010PropOp45
 70
     1
102
RTVSPost2010Prop46
 90
       50
102
RTVSPost2010PropOp46
 70
     1
102
RTVSPost2010Prop47
 90
       50
102
RTVSPost2010PropOp47
 70
     1
102
RTVSPost2010Prop48
 90
       50
102
RTVSPost2010PropOp48
 70
     1
102
RTVSPost2010Prop49
280
     0
102
RTVSPost2010PropOp49
 70
     1
102
RTVSPost2010Prop50
 90
       50
102
RTVSPost2010PropOp50
 70
     1
102
RTVSPost2010Prop51ColorIndex
 90
      256
102
RTVSPost2010Prop51ColorRGB
 90
-16777216
102
RTVSPost2010PropOp51
 70
     0
102
RTVSPost2010Prop52
140
1.0
102
RTVSPost2010PropOp52
 70
     0
102
RTVSPost2010Prop53
 90
        2
102
RTVSPost2010PropOp53
 70
     1
102
RTVSPost2010Prop54
  1
strokes_ogs.tif
102
RTVSPost2010PropOp54
 70
     1
102
RTVSPost2010Prop55
280
     0
102
RTVSPost2010PropOp55
 70
     1
102
RTVSPost2010Prop56
140
1.0
102
RTVSPost2010PropOp56
 70
     1
102
RTVSPost2010Prop57
140
1.0
102
RTVSPost2010PropOp57
 70
     1
  0
XRECORD
  5
23524
102
{ACAD_REACTORS
330
23523
102
}
330
23523
100
AcDbXrecord
280
     1
102
RTVSPost2010Prop28
280
     0
102
RTVSPost2010PropOp28
 70
     1
102
RTVSPost2010Prop29
280
     1
102
RTVSPost2010PropOp29
 70
     1
102
RTVSPost2010Prop30
280
     1
102
RTVSPost2010PropOp30
 70
     1
102
RTVSPost2010Prop31
280
     0
102
RTVSPost2010PropOp31
 70
     1
102
RTVSPost2010Prop32
280
     0
102
RTVSPost2010PropOp32
 70
     1
102
RTVSPost2010Prop33
280
     0
102
RTVSPost2010PropOp33
 70
     1
102
RTVSPost2010Prop34
280
     0
102
RTVSPost2010PropOp34
 70
     1
102
RTVSPost2010Prop35
280
     0
102
RTVSPost2010PropOp35
 70
     1
102
RTVSPost2010Prop36
280
     0
102
RTVSPost2010PropOp36
 70
     1
102
RTVSPost2010Prop37
 90
       50
102
RTVSPost2010PropOp37
 70
     1
102
RTVSPost2010Prop38
140
0.0
102
RTVSPost2010PropOp38
 70
     1
102
RTVSPost2010Prop39
140
1.0
102
RTVSPost2010PropOp39
 70
     1
102
RTVSPost2010Prop40
 90
        0
102
RTVSPost2010PropOp40
 70
     1
102
RTVSPost2010Prop41ColorIndex
 90
       18
102
RTVSPost2010Prop41ColorRGB
 90
        0
102
RTVSPost2010PropOp41
 70
     1
102
RTVSPost2010Prop42
 90
       50
102
RTVSPost2010PropOp42
 70
     1
102
RTVSPost2010Prop43
 90
        3
102
RTVSPost2010PropOp43
 70
     1
102
RTVSPost2010Prop44ColorIndex
 90
        5
102
RTVSPost2010Prop44ColorRGB
 90
      255
102
RTVSPost2010PropOp44
 70
     1
102
RTVSPost2010Prop45
280
     0
102
RTVSPost2010PropOp45
 70
     1
102
RTVSPost2010Prop46
 90
       50
102
RTVSPost2010PropOp46
 70
     1
102
RTVSPost2010Prop47
 90
       50
102
RTVSPost2010PropOp47
 70
     1
102
RTVSPost2010Prop48
 90
       50
102
RTVSPost2010PropOp48
 70
     1
102
RTVSPost2010Prop49
280
     0
102
RTVSPost2010PropOp49
 70
     1
102
RTVSPost2010Prop50
 90
       50
102
RTVSPost2010PropOp50
 70
     1
102
RTVSPost2010Prop51ColorIndex
 90
      256
102
RTVSPost2010Prop51ColorRGB
 90
-16777216
102
RTVSPost2010PropOp51
 70
     0
102
RTVSPost2010Prop52
140
1.0
102
RTVSPost2010PropOp52
 70
     0
102
RTVSPost2010Prop53
 90
        2
102
RTVSPost2010PropOp53
 70
     1
102
RTVSPost2010Prop54
  1
strokes_ogs.tif
102
RTVSPost2010PropOp54
 70
     1
102
RTVSPost2010Prop55
280
     0
102
RTVSPost2010PropOp55
 70
     1
102
RTVSPost2010Prop56
140
1.0
102
RTVSPost2010PropOp56
 70
     1
102
RTVSPost2010Prop57
140
1.0
102
RTVSPost2010PropOp57
 70
     1
  0
XRECORD
  5
2352C
102
{ACAD_REACTORS
330
2352B
102
}
330
2352B
100
AcDbXrecord
280
     1
102
RTVSPost2010Prop28
280
     0
102
RTVSPost2010PropOp28
 70
     1
102
RTVSPost2010Prop29
280
     1
102
RTVSPost2010PropOp29
 70
     1
102
RTVSPost2010Prop30
280
     1
102
RTVSPost2010PropOp30
 70
     1
102
RTVSPost2010Prop31
280
     0
102
RTVSPost2010PropOp31
 70
     1
102
RTVSPost2010Prop32
280
     0
102
RTVSPost2010PropOp32
 70
     1
102
RTVSPost2010Prop33
280
     0
102
RTVSPost2010PropOp33
 70
     1
102
RTVSPost2010Prop34
280
     0
102
RTVSPost2010PropOp34
 70
     1
102
RTVSPost2010Prop35
280
     0
102
RTVSPost2010PropOp35
 70
     1
102
RTVSPost2010Prop36
280
     0
102
RTVSPost2010PropOp36
 70
     1
102
RTVSPost2010Prop37
 90
       50
102
RTVSPost2010PropOp37
 70
     1
102
RTVSPost2010Prop38
140
0.0
102
RTVSPost2010PropOp38
 70
     1
102
RTVSPost2010Prop39
140
1.0
102
RTVSPost2010PropOp39
 70
     1
102
RTVSPost2010Prop40
 90
        0
102
RTVSPost2010PropOp40
 70
     1
102
RTVSPost2010Prop41ColorIndex
 90
       18
102
RTVSPost2010Prop41ColorRGB
 90
        0
102
RTVSPost2010PropOp41
 70
     1
102
RTVSPost2010Prop42
 90
       50
102
RTVSPost2010PropOp42
 70
     1
102
RTVSPost2010Prop43
 90
        3
102
RTVSPost2010PropOp43
 70
     1
102
RTVSPost2010Prop44ColorIndex
 90
        5
102
RTVSPost2010Prop44ColorRGB
 90
      255
102
RTVSPost2010PropOp44
 70
     1
102
RTVSPost2010Prop45
280
     0
102
RTVSPost2010PropOp45
 70
     1
102
RTVSPost2010Prop46
 90
       50
102
RTVSPost2010PropOp46
 70
     1
102
RTVSPost2010Prop47
 90
       50
102
RTVSPost2010PropOp47
 70
     1
102
RTVSPost2010Prop48
 90
       50
102
RTVSPost2010PropOp48
 70
     1
102
RTVSPost2010Prop49
280
     0
102
RTVSPost2010PropOp49
 70
     1
102
RTVSPost2010Prop50
 90
       50
102
RTVSPost2010PropOp50
 70
     1
102
RTVSPost2010Prop51ColorIndex
 90
      256
102
RTVSPost2010Prop51ColorRGB
 90
-16777216
102
RTVSPost2010PropOp51
 70
     0
102
RTVSPost2010Prop52
140
1.0
102
RTVSPost2010PropOp52
 70
     0
102
RTVSPost2010Prop53
 90
        2
102
RTVSPost2010PropOp53
 70
     1
102
RTVSPost2010Prop54
  1
strokes_ogs.tif
102
RTVSPost2010PropOp54
 70
     1
102
RTVSPost2010Prop55
280
     0
102
RTVSPost2010PropOp55
 70
     1
102
RTVSPost2010Prop56
140
1.0
102
RTVSPost2010PropOp56
 70
     1
102
RTVSPost2010Prop57
140
1.0
102
RTVSPost2010PropOp57
 70
     1
  0
XRECORD
  5
2351E
102
{ACAD_REACTORS
330
2351D
102
}
330
2351D
100
AcDbXrecord
280
     1
102
RTVSPost2010Prop28
280
     0
102
RTVSPost2010PropOp28
 70
     1
102
RTVSPost2010Prop29
280
     1
102
RTVSPost2010PropOp29
 70
     1
102
RTVSPost2010Prop30
280
     1
102
RTVSPost2010PropOp30
 70
     1
102
RTVSPost2010Prop31
280
     0
102
RTVSPost2010PropOp31
 70
     1
102
RTVSPost2010Prop32
280
     0
102
RTVSPost2010PropOp32
 70
     1
102
RTVSPost2010Prop33
280
     0
102
RTVSPost2010PropOp33
 70
     1
102
RTVSPost2010Prop34
280
     0
102
RTVSPost2010PropOp34
 70
     1
102
RTVSPost2010Prop35
280
     0
102
RTVSPost2010PropOp35
 70
     1
102
RTVSPost2010Prop36
280
     0
102
RTVSPost2010PropOp36
 70
     1
102
RTVSPost2010Prop37
 90
       50
102
RTVSPost2010PropOp37
 70
     1
102
RTVSPost2010Prop38
140
0.0
102
RTVSPost2010PropOp38
 70
     1
102
RTVSPost2010Prop39
140
1.0
102
RTVSPost2010PropOp39
 70
     1
102
RTVSPost2010Prop40
 90
        0
102
RTVSPost2010PropOp40
 70
     1
102
RTVSPost2010Prop41ColorIndex
 90
       18
102
RTVSPost2010Prop41ColorRGB
 90
        0
102
RTVSPost2010PropOp41
 70
     1
102
RTVSPost2010Prop42
 90
       50
102
RTVSPost2010PropOp42
 70
     1
102
RTVSPost2010Prop43
 90
        3
102
RTVSPost2010PropOp43
 70
     1
102
RTVSPost2010Prop44ColorIndex
 90
        5
102
RTVSPost2010Prop44ColorRGB
 90
      255
102
RTVSPost2010PropOp44
 70
     1
102
RTVSPost2010Prop45
280
     0
102
RTVSPost2010PropOp45
 70
     1
102
RTVSPost2010Prop46
 90
       50
102
RTVSPost2010PropOp46
 70
     1
102
RTVSPost2010Prop47
 90
       50
102
RTVSPost2010PropOp47
 70
     1
102
RTVSPost2010Prop48
 90
       50
102
RTVSPost2010PropOp48
 70
     1
102
RTVSPost2010Prop49
280
     0
102
RTVSPost2010PropOp49
 70
     1
102
RTVSPost2010Prop50
 90
       50
102
RTVSPost2010PropOp50
 70
     1
102
RTVSPost2010Prop51ColorIndex
 90
      256
102
RTVSPost2010Prop51ColorRGB
 90
-16777216
102
RTVSPost2010PropOp51
 70
     0
102
RTVSPost2010Prop52
140
1.0
102
RTVSPost2010PropOp52
 70
     0
102
RTVSPost2010Prop53
 90
        2
102
RTVSPost2010PropOp53
 70
     1
102
RTVSPost2010Prop54
  1
strokes_ogs.tif
102
RTVSPost2010PropOp54
 70
     1
102
RTVSPost2010Prop55
280
     0
102
RTVSPost2010PropOp55
 70
     1
102
RTVSPost2010Prop56
140
1.0
102
RTVSPost2010PropOp56
 70
     1
102
RTVSPost2010Prop57
140
1.0
102
RTVSPost2010PropOp57
 70
     1
  0
XRECORD
  5
23522
102
{ACAD_REACTORS
330
23521
102
}
330
23521
100
AcDbXrecord
280
     1
102
RTVSPost2010Prop28
280
     0
102
RTVSPost2010PropOp28
 70
     1
102
RTVSPost2010Prop29
280
     1
102
RTVSPost2010PropOp29
 70
     1
102
RTVSPost2010Prop30
280
     1
102
RTVSPost2010PropOp30
 70
     1
102
RTVSPost2010Prop31
280
     0
102
RTVSPost2010PropOp31
 70
     1
102
RTVSPost2010Prop32
280
     0
102
RTVSPost2010PropOp32
 70
     1
102
RTVSPost2010Prop33
280
     0
102
RTVSPost2010PropOp33
 70
     1
102
RTVSPost2010Prop34
280
     0
102
RTVSPost2010PropOp34
 70
     1
102
RTVSPost2010Prop35
280
     0
102
RTVSPost2010PropOp35
 70
     1
102
RTVSPost2010Prop36
280
     0
102
RTVSPost2010PropOp36
 70
     1
102
RTVSPost2010Prop37
 90
       50
102
RTVSPost2010PropOp37
 70
     1
102
RTVSPost2010Prop38
140
0.0
102
RTVSPost2010PropOp38
 70
     1
102
RTVSPost2010Prop39
140
1.0
102
RTVSPost2010PropOp39
 70
     1
102
RTVSPost2010Prop40
 90
        0
102
RTVSPost2010PropOp40
 70
     1
102
RTVSPost2010Prop41ColorIndex
 90
       18
102
RTVSPost2010Prop41ColorRGB
 90
        0
102
RTVSPost2010PropOp41
 70
     1
102
RTVSPost2010Prop42
 90
       50
102
RTVSPost2010PropOp42
 70
     1
102
RTVSPost2010Prop43
 90
        3
102
RTVSPost2010PropOp43
 70
     1
102
RTVSPost2010Prop44ColorIndex
 90
        5
102
RTVSPost2010Prop44ColorRGB
 90
      255
102
RTVSPost2010PropOp44
 70
     1
102
RTVSPost2010Prop45
280
     0
102
RTVSPost2010PropOp45
 70
     1
102
RTVSPost2010Prop46
 90
       50
102
RTVSPost2010PropOp46
 70
     1
102
RTVSPost2010Prop47
 90
       50
102
RTVSPost2010PropOp47
 70
     1
102
RTVSPost2010Prop48
 90
       50
102
RTVSPost2010PropOp48
 70
     1
102
RTVSPost2010Prop49
280
     0
102
RTVSPost2010PropOp49
 70
     1
102
RTVSPost2010Prop50
 90
       50
102
RTVSPost2010PropOp50
 70
     1
102
RTVSPost2010Prop51ColorIndex
 90
      256
102
RTVSPost2010Prop51ColorRGB
 90
-16777216
102
RTVSPost2010PropOp51
 70
     0
102
RTVSPost2010Prop52
140
1.0
102
RTVSPost2010PropOp52
 70
     0
102
RTVSPost2010Prop53
 90
        2
102
RTVSPost2010PropOp53
 70
     1
102
RTVSPost2010Prop54
  1
strokes_ogs.tif
102
RTVSPost2010PropOp54
 70
     1
102
RTVSPost2010Prop55
280
     0
102
RTVSPost2010PropOp55
 70
     1
102
RTVSPost2010Prop56
140
1.0
102
RTVSPost2010PropOp56
 70
     1
102
RTVSPost2010Prop57
140
1.0
102
RTVSPost2010PropOp57
 70
     1
  0
XRECORD
  5
23540
102
{ACAD_REACTORS
330
2353F
102
}
330
2353F
100
AcDbXrecord
280
     1
102
RTVSPost2010Prop28
280
     0
102
RTVSPost2010PropOp28
 70
     1
102
RTVSPost2010Prop29
280
     1
102
RTVSPost2010PropOp29
 70
     1
102
RTVSPost2010Prop30
280
     1
102
RTVSPost2010PropOp30
 70
     1
102
RTVSPost2010Prop31
280
     0
102
RTVSPost2010PropOp31
 70
     1
102
RTVSPost2010Prop32
280
     0
102
RTVSPost2010PropOp32
 70
     1
102
RTVSPost2010Prop33
280
     0
102
RTVSPost2010PropOp33
 70
     1
102
RTVSPost2010Prop34
280
     0
102
RTVSPost2010PropOp34
 70
     1
102
RTVSPost2010Prop35
280
     0
102
RTVSPost2010PropOp35
 70
     1
102
RTVSPost2010Prop36
280
     0
102
RTVSPost2010PropOp36
 70
     1
102
RTVSPost2010Prop37
 90
       50
102
RTVSPost2010PropOp37
 70
     0
102
RTVSPost2010Prop38
140
0.0
102
RTVSPost2010PropOp38
 70
     0
102
RTVSPost2010Prop39
140
1.0
102
RTVSPost2010PropOp39
 70
     0
102
RTVSPost2010Prop40
 90
        0
102
RTVSPost2010PropOp40
 70
     0
102
RTVSPost2010Prop41ColorIndex
 90
       18
102
RTVSPost2010Prop41ColorRGB
 90
        0
102
RTVSPost2010PropOp41
 70
     0
102
RTVSPost2010Prop42
 90
       50
102
RTVSPost2010PropOp42
 70
     0
102
RTVSPost2010Prop43
 90
        3
102
RTVSPost2010PropOp43
 70
     0
102
RTVSPost2010Prop44ColorIndex
 90
        5
102
RTVSPost2010Prop44ColorRGB
 90
      255
102
RTVSPost2010PropOp44
 70
     0
102
RTVSPost2010Prop45
280
     0
102
RTVSPost2010PropOp45
 70
     1
102
RTVSPost2010Prop46
 90
       50
102
RTVSPost2010PropOp46
 70
     0
102
RTVSPost2010Prop47
 90
       50
102
RTVSPost2010PropOp47
 70
     0
102
RTVSPost2010Prop48
 90
       50
102
RTVSPost2010PropOp48
 70
     0
102
RTVSPost2010Prop49
280
     0
102
RTVSPost2010PropOp49
 70
     1
102
RTVSPost2010Prop50
 90
       50
102
RTVSPost2010PropOp50
 70
     0
102
RTVSPost2010Prop51ColorIndex
 90
      256
102
RTVSPost2010Prop51ColorRGB
 90
-16777216
102
RTVSPost2010PropOp51
 70
     0
102
RTVSPost2010Prop52
140
1.0
102
RTVSPost2010PropOp52
 70
     0
102
RTVSPost2010Prop53
 90
        2
102
RTVSPost2010PropOp53
 70
     0
102
RTVSPost2010Prop54
  1
strokes_ogs.tif
102
RTVSPost2010PropOp54
 70
     0
102
RTVSPost2010Prop55
280
     0
102
RTVSPost2010PropOp55
 70
     1
102
RTVSPost2010Prop56
140
1.0
102
RTVSPost2010PropOp56
 70
     0
102
RTVSPost2010Prop57
140
1.0
102
RTVSPost2010PropOp57
 70
     0
  0
XRECORD
  5
2352A
102
{ACAD_REACTORS
330
23529
102
}
330
23529
100
AcDbXrecord
280
     1
102
RTVSPost2010Prop28
280
     0
102
RTVSPost2010PropOp28
 70
     1
102
RTVSPost2010Prop29
280
     1
102
RTVSPost2010PropOp29
 70
     1
102
RTVSPost2010Prop30
280
     1
102
RTVSPost2010PropOp30
 70
     1
102
RTVSPost2010Prop31
280
     0
102
RTVSPost2010PropOp31
 70
     1
102
RTVSPost2010Prop32
280
     0
102
RTVSPost2010PropOp32
 70
     1
102
RTVSPost2010Prop33
280
     0
102
RTVSPost2010PropOp33
 70
     1
102
RTVSPost2010Prop34
280
     0
102
RTVSPost2010PropOp34
 70
     1
102
RTVSPost2010Prop35
280
     0
102
RTVSPost2010PropOp35
 70
     1
102
RTVSPost2010Prop36
280
     0
102
RTVSPost2010PropOp36
 70
     1
102
RTVSPost2010Prop37
 90
       50
102
RTVSPost2010PropOp37
 70
     1
102
RTVSPost2010Prop38
140
0.0
102
RTVSPost2010PropOp38
 70
     1
102
RTVSPost2010Prop39
140
1.0
102
RTVSPost2010PropOp39
 70
     1
102
RTVSPost2010Prop40
 90
        0
102
RTVSPost2010PropOp40
 70
     1
102
RTVSPost2010Prop41ColorIndex
 90
       18
102
RTVSPost2010Prop41ColorRGB
 90
        0
102
RTVSPost2010PropOp41
 70
     1
102
RTVSPost2010Prop42
 90
       50
102
RTVSPost2010PropOp42
 70
     1
102
RTVSPost2010Prop43
 90
        3
102
RTVSPost2010PropOp43
 70
     1
102
RTVSPost2010Prop44ColorIndex
 90
        5
102
RTVSPost2010Prop44ColorRGB
 90
      255
102
RTVSPost2010PropOp44
 70
     1
102
RTVSPost2010Prop45
280
     0
102
RTVSPost2010PropOp45
 70
     1
102
RTVSPost2010Prop46
 90
       50
102
RTVSPost2010PropOp46
 70
     1
102
RTVSPost2010Prop47
 90
       50
102
RTVSPost2010PropOp47
 70
     1
102
RTVSPost2010Prop48
 90
       50
102
RTVSPost2010PropOp48
 70
     1
102
RTVSPost2010Prop49
280
     0
102
RTVSPost2010PropOp49
 70
     1
102
RTVSPost2010Prop50
 90
       50
102
RTVSPost2010PropOp50
 70
     1
102
RTVSPost2010Prop51ColorIndex
 90
      256
102
RTVSPost2010Prop51ColorRGB
 90
-16777216
102
RTVSPost2010PropOp51
 70
     0
102
RTVSPost2010Prop52
140
1.0
102
RTVSPost2010PropOp52
 70
     0
102
RTVSPost2010Prop53
 90
        2
102
RTVSPost2010PropOp53
 70
     1
102
RTVSPost2010Prop54
  1
strokes_ogs.tif
102
RTVSPost2010PropOp54
 70
     1
102
RTVSPost2010Prop55
280
     0
102
RTVSPost2010PropOp55
 70
     1
102
RTVSPost2010Prop56
140
1.0
102
RTVSPost2010PropOp56
 70
     1
102
RTVSPost2010Prop57
140
1.0
102
RTVSPost2010PropOp57
 70
     1
  0
XRECORD
  5
2350E
102
{ACAD_REACTORS
330
2350D
102
}
330
2350D
100
AcDbXrecord
280
     1
102
RTVSPost2010Prop28
280
     0
102
RTVSPost2010PropOp28
 70
     1
102
RTVSPost2010Prop29
280
     1
102
RTVSPost2010PropOp29
 70
     1
102
RTVSPost2010Prop30
280
     1
102
RTVSPost2010PropOp30
 70
     1
102
RTVSPost2010Prop31
280
     0
102
RTVSPost2010PropOp31
 70
     1
102
RTVSPost2010Prop32
280
     0
102
RTVSPost2010PropOp32
 70
     1
102
RTVSPost2010Prop33
280
     0
102
RTVSPost2010PropOp33
 70
     1
102
RTVSPost2010Prop34
280
     0
102
RTVSPost2010PropOp34
 70
     1
102
RTVSPost2010Prop35
280
     0
102
RTVSPost2010PropOp35
 70
     1
102
RTVSPost2010Prop36
280
     0
102
RTVSPost2010PropOp36
 70
     1
102
RTVSPost2010Prop37
 90
       50
102
RTVSPost2010PropOp37
 70
     1
102
RTVSPost2010Prop38
140
0.0
102
RTVSPost2010PropOp38
 70
     1
102
RTVSPost2010Prop39
140
1.0
102
RTVSPost2010PropOp39
 70
     1
102
RTVSPost2010Prop40
 90
        0
102
RTVSPost2010PropOp40
 70
     1
102
RTVSPost2010Prop41ColorIndex
 90
       18
102
RTVSPost2010Prop41ColorRGB
 90
        0
102
RTVSPost2010PropOp41
 70
     1
102
RTVSPost2010Prop42
 90
       50
102
RTVSPost2010PropOp42
 70
     1
102
RTVSPost2010Prop43
 90
        3
102
RTVSPost2010PropOp43
 70
     1
102
RTVSPost2010Prop44ColorIndex
 90
        5
102
RTVSPost2010Prop44ColorRGB
 90
      255
102
RTVSPost2010PropOp44
 70
     1
102
RTVSPost2010Prop45
280
     0
102
RTVSPost2010PropOp45
 70
     1
102
RTVSPost2010Prop46
 90
       50
102
RTVSPost2010PropOp46
 70
     1
102
RTVSPost2010Prop47
 90
       50
102
RTVSPost2010PropOp47
 70
     1
102
RTVSPost2010Prop48
 90
       50
102
RTVSPost2010PropOp48
 70
     1
102
RTVSPost2010Prop49
280
     0
102
RTVSPost2010PropOp49
 70
     1
102
RTVSPost2010Prop50
 90
       50
102
RTVSPost2010PropOp50
 70
     1
102
RTVSPost2010Prop51ColorIndex
 90
      256
102
RTVSPost2010Prop51ColorRGB
 90
-16777216
102
RTVSPost2010PropOp51
 70
     0
102
RTVSPost2010Prop52
140
1.0
102
RTVSPost2010PropOp52
 70
     0
102
RTVSPost2010Prop53
 90
        2
102
RTVSPost2010PropOp53
 70
     1
102
RTVSPost2010Prop54
  1
strokes_ogs.tif
102
RTVSPost2010PropOp54
 70
     1
102
RTVSPost2010Prop55
280
     0
102
RTVSPost2010PropOp55
 70
     1
102
RTVSPost2010Prop56
140
1.0
102
RTVSPost2010PropOp56
 70
     1
102
RTVSPost2010Prop57
140
1.0
102
RTVSPost2010PropOp57
 70
     1
  0
XRECORD
  5
23510
102
{ACAD_REACTORS
330
2350F
102
}
330
2350F
100
AcDbXrecord
280
     1
102
RTVSPost2010Prop28
280
     0
102
RTVSPost2010PropOp28
 70
     1
102
RTVSPost2010Prop29
280
     1
102
RTVSPost2010PropOp29
 70
     1
102
RTVSPost2010Prop30
280
     1
102
RTVSPost2010PropOp30
 70
     1
102
RTVSPost2010Prop31
280
     0
102
RTVSPost2010PropOp31
 70
     1
102
RTVSPost2010Prop32
280
     0
102
RTVSPost2010PropOp32
 70
     1
102
RTVSPost2010Prop33
280
     0
102
RTVSPost2010PropOp33
 70
     1
102
RTVSPost2010Prop34
280
     0
102
RTVSPost2010PropOp34
 70
     1
102
RTVSPost2010Prop35
280
     0
102
RTVSPost2010PropOp35
 70
     1
102
RTVSPost2010Prop36
280
     0
102
RTVSPost2010PropOp36
 70
     1
102
RTVSPost2010Prop37
 90
       50
102
RTVSPost2010PropOp37
 70
     1
102
RTVSPost2010Prop38
140
0.0
102
RTVSPost2010PropOp38
 70
     1
102
RTVSPost2010Prop39
140
1.0
102
RTVSPost2010PropOp39
 70
     1
102
RTVSPost2010Prop40
 90
        0
102
RTVSPost2010PropOp40
 70
     1
102
RTVSPost2010Prop41ColorIndex
 90
       18
102
RTVSPost2010Prop41ColorRGB
 90
        0
102
RTVSPost2010PropOp41
 70
     1
102
RTVSPost2010Prop42
 90
       50
102
RTVSPost2010PropOp42
 70
     1
102
RTVSPost2010Prop43
 90
        3
102
RTVSPost2010PropOp43
 70
     1
102
RTVSPost2010Prop44ColorIndex
 90
        5
102
RTVSPost2010Prop44ColorRGB
 90
      255
102
RTVSPost2010PropOp44
 70
     1
102
RTVSPost2010Prop45
280
     0
102
RTVSPost2010PropOp45
 70
     1
102
RTVSPost2010Prop46
 90
       50
102
RTVSPost2010PropOp46
 70
     1
102
RTVSPost2010Prop47
 90
       50
102
RTVSPost2010PropOp47
 70
     1
102
RTVSPost2010Prop48
 90
       50
102
RTVSPost2010PropOp48
 70
     1
102
RTVSPost2010Prop49
280
     0
102
RTVSPost2010PropOp49
 70
     1
102
RTVSPost2010Prop50
 90
       50
102
RTVSPost2010PropOp50
 70
     1
102
RTVSPost2010Prop51ColorIndex
 90
      256
102
RTVSPost2010Prop51ColorRGB
 90
-16777216
102
RTVSPost2010PropOp51
 70
     0
102
RTVSPost2010Prop52
140
1.0
102
RTVSPost2010PropOp52
 70
     0
102
RTVSPost2010Prop53
 90
        2
102
RTVSPost2010PropOp53
 70
     1
102
RTVSPost2010Prop54
  1
strokes_ogs.tif
102
RTVSPost2010PropOp54
 70
     1
102
RTVSPost2010Prop55
280
     0
102
RTVSPost2010PropOp55
 70
     1
102
RTVSPost2010Prop56
140
1.0
102
RTVSPost2010PropOp56
 70
     1
102
RTVSPost2010Prop57
140
1.0
102
RTVSPost2010PropOp57
 70
     1
  0
XRECORD
  5
23512
102
{ACAD_REACTORS
330
23511
102
}
330
23511
100
AcDbXrecord
280
     1
102
RTVSPost2010Prop28
280
     0
102
RTVSPost2010PropOp28
 70
     1
102
RTVSPost2010Prop29
280
     1
102
RTVSPost2010PropOp29
 70
     1
102
RTVSPost2010Prop30
280
     1
102
RTVSPost2010PropOp30
 70
     1
102
RTVSPost2010Prop31
280
     0
102
RTVSPost2010PropOp31
 70
     1
102
RTVSPost2010Prop32
280
     0
102
RTVSPost2010PropOp32
 70
     1
102
RTVSPost2010Prop33
280
     0
102
RTVSPost2010PropOp33
 70
     1
102
RTVSPost2010Prop34
280
     0
102
RTVSPost2010PropOp34
 70
     1
102
RTVSPost2010Prop35
280
     0
102
RTVSPost2010PropOp35
 70
     1
102
RTVSPost2010Prop36
280
     0
102
RTVSPost2010PropOp36
 70
     1
102
RTVSPost2010Prop37
 90
       50
102
RTVSPost2010PropOp37
 70
     1
102
RTVSPost2010Prop38
140
0.0
102
RTVSPost2010PropOp38
 70
     1
102
RTVSPost2010Prop39
140
1.0
102
RTVSPost2010PropOp39
 70
     1
102
RTVSPost2010Prop40
 90
        0
102
RTVSPost2010PropOp40
 70
     1
102
RTVSPost2010Prop41ColorIndex
 90
       18
102
RTVSPost2010Prop41ColorRGB
 90
        0
102
RTVSPost2010PropOp41
 70
     1
102
RTVSPost2010Prop42
 90
       50
102
RTVSPost2010PropOp42
 70
     1
102
RTVSPost2010Prop43
 90
        3
102
RTVSPost2010PropOp43
 70
     1
102
RTVSPost2010Prop44ColorIndex
 90
        5
102
RTVSPost2010Prop44ColorRGB
 90
      255
102
RTVSPost2010PropOp44
 70
     1
102
RTVSPost2010Prop45
280
     0
102
RTVSPost2010PropOp45
 70
     1
102
RTVSPost2010Prop46
 90
       50
102
RTVSPost2010PropOp46
 70
     1
102
RTVSPost2010Prop47
 90
       50
102
RTVSPost2010PropOp47
 70
     1
102
RTVSPost2010Prop48
 90
       50
102
RTVSPost2010PropOp48
 70
     1
102
RTVSPost2010Prop49
280
     0
102
RTVSPost2010PropOp49
 70
     1
102
RTVSPost2010Prop50
 90
       50
102
RTVSPost2010PropOp50
 70
     1
102
RTVSPost2010Prop51ColorIndex
 90
      256
102
RTVSPost2010Prop51ColorRGB
 90
-16777216
102
RTVSPost2010PropOp51
 70
     0
102
RTVSPost2010Prop52
140
1.0
102
RTVSPost2010PropOp52
 70
     0
102
RTVSPost2010Prop53
 90
        2
102
RTVSPost2010PropOp53
 70
     1
102
RTVSPost2010Prop54
  1
strokes_ogs.tif
102
RTVSPost2010PropOp54
 70
     1
102
RTVSPost2010Prop55
280
     0
102
RTVSPost2010PropOp55
 70
     1
102
RTVSPost2010Prop56
140
1.0
102
RTVSPost2010PropOp56
 70
     1
102
RTVSPost2010Prop57
140
1.0
102
RTVSPost2010PropOp57
 70
     1
  0
XRECORD
  5
23514
102
{ACAD_REACTORS
330
23513
102
}
330
23513
100
AcDbXrecord
280
     1
102
RTVSPost2010Prop28
280
     0
102
RTVSPost2010PropOp28
 70
     1
102
RTVSPost2010Prop29
280
     1
102
RTVSPost2010PropOp29
 70
     1
102
RTVSPost2010Prop30
280
     1
102
RTVSPost2010PropOp30
 70
     1
102
RTVSPost2010Prop31
280
     0
102
RTVSPost2010PropOp31
 70
     1
102
RTVSPost2010Prop32
280
     0
102
RTVSPost2010PropOp32
 70
     1
102
RTVSPost2010Prop33
280
     0
102
RTVSPost2010PropOp33
 70
     1
102
RTVSPost2010Prop34
280
     0
102
RTVSPost2010PropOp34
 70
     1
102
RTVSPost2010Prop35
280
     0
102
RTVSPost2010PropOp35
 70
     1
102
RTVSPost2010Prop36
280
     0
102
RTVSPost2010PropOp36
 70
     1
102
RTVSPost2010Prop37
 90
       50
102
RTVSPost2010PropOp37
 70
     1
102
RTVSPost2010Prop38
140
0.0
102
RTVSPost2010PropOp38
 70
     1
102
RTVSPost2010Prop39
140
1.0
102
RTVSPost2010PropOp39
 70
     1
102
RTVSPost2010Prop40
 90
        0
102
RTVSPost2010PropOp40
 70
     1
102
RTVSPost2010Prop41ColorIndex
 90
       18
102
RTVSPost2010Prop41ColorRGB
 90
        0
102
RTVSPost2010PropOp41
 70
     1
102
RTVSPost2010Prop42
 90
       50
102
RTVSPost2010PropOp42
 70
     1
102
RTVSPost2010Prop43
 90
        3
102
RTVSPost2010PropOp43
 70
     1
102
RTVSPost2010Prop44ColorIndex
 90
        5
102
RTVSPost2010Prop44ColorRGB
 90
      255
102
RTVSPost2010PropOp44
 70
     1
102
RTVSPost2010Prop45
280
     0
102
RTVSPost2010PropOp45
 70
     1
102
RTVSPost2010Prop46
 90
       50
102
RTVSPost2010PropOp46
 70
     1
102
RTVSPost2010Prop47
 90
       50
102
RTVSPost2010PropOp47
 70
     1
102
RTVSPost2010Prop48
 90
       50
102
RTVSPost2010PropOp48
 70
     1
102
RTVSPost2010Prop49
280
     0
102
RTVSPost2010PropOp49
 70
     1
102
RTVSPost2010Prop50
 90
       50
102
RTVSPost2010PropOp50
 70
     1
102
RTVSPost2010Prop51ColorIndex
 90
      256
102
RTVSPost2010Prop51ColorRGB
 90
-16777216
102
RTVSPost2010PropOp51
 70
     0
102
RTVSPost2010Prop52
140
1.0
102
RTVSPost2010PropOp52
 70
     0
102
RTVSPost2010Prop53
 90
        2
102
RTVSPost2010PropOp53
 70
     1
102
RTVSPost2010Prop54
  1
strokes_ogs.tif
102
RTVSPost2010PropOp54
 70
     1
102
RTVSPost2010Prop55
280
     0
102
RTVSPost2010PropOp55
 70
     1
102
RTVSPost2010Prop56
140
1.0
102
RTVSPost2010PropOp56
 70
     1
102
RTVSPost2010Prop57
140
1.0
102
RTVSPost2010PropOp57
 70
     1
  0
XRECORD
  5
23530
102
{ACAD_REACTORS
330
2352F
102
}
330
2352F
100
AcDbXrecord
280
     1
102
RTVSPost2010Prop28
280
     0
102
RTVSPost2010PropOp28
 70
     1
102
RTVSPost2010Prop29
280
     1
102
RTVSPost2010PropOp29
 70
     1
102
RTVSPost2010Prop30
280
     1
102
RTVSPost2010PropOp30
 70
     1
102
RTVSPost2010Prop31
280
     0
102
RTVSPost2010PropOp31
 70
     1
102
RTVSPost2010Prop32
280
     0
102
RTVSPost2010PropOp32
 70
     1
102
RTVSPost2010Prop33
280
     0
102
RTVSPost2010PropOp33
 70
     1
102
RTVSPost2010Prop34
280
     0
102
RTVSPost2010PropOp34
 70
     1
102
RTVSPost2010Prop35
280
     0
102
RTVSPost2010PropOp35
 70
     1
102
RTVSPost2010Prop36
280
     0
102
RTVSPost2010PropOp36
 70
     1
102
RTVSPost2010Prop37
 90
       50
102
RTVSPost2010PropOp37
 70
     1
102
RTVSPost2010Prop38
140
0.0
102
RTVSPost2010PropOp38
 70
     1
102
RTVSPost2010Prop39
140
1.0
102
RTVSPost2010PropOp39
 70
     1
102
RTVSPost2010Prop40
 90
        0
102
RTVSPost2010PropOp40
 70
     1
102
RTVSPost2010Prop41ColorIndex
 90
       18
102
RTVSPost2010Prop41ColorRGB
 90
        0
102
RTVSPost2010PropOp41
 70
     1
102
RTVSPost2010Prop42
 90
       50
102
RTVSPost2010PropOp42
 70
     1
102
RTVSPost2010Prop43
 90
        3
102
RTVSPost2010PropOp43
 70
     1
102
RTVSPost2010Prop44ColorIndex
 90
        5
102
RTVSPost2010Prop44ColorRGB
 90
      255
102
RTVSPost2010PropOp44
 70
     1
102
RTVSPost2010Prop45
280
     0
102
RTVSPost2010PropOp45
 70
     1
102
RTVSPost2010Prop46
 90
       50
102
RTVSPost2010PropOp46
 70
     1
102
RTVSPost2010Prop47
 90
       50
102
RTVSPost2010PropOp47
 70
     1
102
RTVSPost2010Prop48
 90
       50
102
RTVSPost2010PropOp48
 70
     1
102
RTVSPost2010Prop49
280
     0
102
RTVSPost2010PropOp49
 70
     1
102
RTVSPost2010Prop50
 90
       50
102
RTVSPost2010PropOp50
 70
     1
102
RTVSPost2010Prop51ColorIndex
 90
      256
102
RTVSPost2010Prop51ColorRGB
 90
-16777216
102
RTVSPost2010PropOp51
 70
     0
102
RTVSPost2010Prop52
140
1.0
102
RTVSPost2010PropOp52
 70
     0
102
RTVSPost2010Prop53
 90
        2
102
RTVSPost2010PropOp53
 70
     1
102
RTVSPost2010Prop54
  1
strokes_ogs.tif
102
RTVSPost2010PropOp54
 70
     1
102
RTVSPost2010Prop55
280
     0
102
RTVSPost2010PropOp55
 70
     1
102
RTVSPost2010Prop56
140
1.0
102
RTVSPost2010PropOp56
 70
     1
102
RTVSPost2010Prop57
140
1.0
102
RTVSPost2010PropOp57
 70
     1
  0
XRECORD
  5
2353C
102
{ACAD_REACTORS
330
2353B
102
}
330
2353B
100
AcDbXrecord
280
     1
102
RTVSPost2010Prop28
280
     0
102
RTVSPost2010PropOp28
 70
     1
102
RTVSPost2010Prop29
280
     1
102
RTVSPost2010PropOp29
 70
     1
102
RTVSPost2010Prop30
280
     1
102
RTVSPost2010PropOp30
 70
     1
102
RTVSPost2010Prop31
280
     0
102
RTVSPost2010PropOp31
 70
     1
102
RTVSPost2010Prop32
280
     0
102
RTVSPost2010PropOp32
 70
     1
102
RTVSPost2010Prop33
280
     0
102
RTVSPost2010PropOp33
 70
     1
102
RTVSPost2010Prop34
280
     0
102
RTVSPost2010PropOp34
 70
     1
102
RTVSPost2010Prop35
280
     0
102
RTVSPost2010PropOp35
 70
     1
102
RTVSPost2010Prop36
280
     0
102
RTVSPost2010PropOp36
 70
     1
102
RTVSPost2010Prop37
 90
       50
102
RTVSPost2010PropOp37
 70
     0
102
RTVSPost2010Prop38
140
0.0
102
RTVSPost2010PropOp38
 70
     0
102
RTVSPost2010Prop39
140
1.0
102
RTVSPost2010PropOp39
 70
     0
102
RTVSPost2010Prop40
 90
        0
102
RTVSPost2010PropOp40
 70
     0
102
RTVSPost2010Prop41ColorIndex
 90
       18
102
RTVSPost2010Prop41ColorRGB
 90
        0
102
RTVSPost2010PropOp41
 70
     0
102
RTVSPost2010Prop42
 90
       50
102
RTVSPost2010PropOp42
 70
     0
102
RTVSPost2010Prop43
 90
        3
102
RTVSPost2010PropOp43
 70
     0
102
RTVSPost2010Prop44ColorIndex
 90
        5
102
RTVSPost2010Prop44ColorRGB
 90
      255
102
RTVSPost2010PropOp44
 70
     0
102
RTVSPost2010Prop45
280
     0
102
RTVSPost2010PropOp45
 70
     1
102
RTVSPost2010Prop46
 90
       50
102
RTVSPost2010PropOp46
 70
     0
102
RTVSPost2010Prop47
 90
       50
102
RTVSPost2010PropOp47
 70
     0
102
RTVSPost2010Prop48
 90
       50
102
RTVSPost2010PropOp48
 70
     0
102
RTVSPost2010Prop49
280
     0
102
RTVSPost2010PropOp49
 70
     1
102
RTVSPost2010Prop50
 90
       50
102
RTVSPost2010PropOp50
 70
     0
102
RTVSPost2010Prop51ColorIndex
 90
      256
102
RTVSPost2010Prop51ColorRGB
 90
-16777216
102
RTVSPost2010PropOp51
 70
     0
102
RTVSPost2010Prop52
140
1.0
102
RTVSPost2010PropOp52
 70
     0
102
RTVSPost2010Prop53
 90
        2
102
RTVSPost2010PropOp53
 70
     0
102
RTVSPost2010Prop54
  1
strokes_ogs.tif
102
RTVSPost2010PropOp54
 70
     0
102
RTVSPost2010Prop55
280
     0
102
RTVSPost2010PropOp55
 70
     1
102
RTVSPost2010Prop56
140
1.0
102
RTVSPost2010PropOp56
 70
     0
102
RTVSPost2010Prop57
140
1.0
102
RTVSPost2010PropOp57
 70
     0
  0
XRECORD
  5
23528
102
{ACAD_REACTORS
330
23527
102
}
330
23527
100
AcDbXrecord
280
     1
102
RTVSPost2010Prop28
280
     0
102
RTVSPost2010PropOp28
 70
     1
102
RTVSPost2010Prop29
280
     1
102
RTVSPost2010PropOp29
 70
     1
102
RTVSPost2010Prop30
280
     1
102
RTVSPost2010PropOp30
 70
     1
102
RTVSPost2010Prop31
280
     0
102
RTVSPost2010PropOp31
 70
     1
102
RTVSPost2010Prop32
280
     0
102
RTVSPost2010PropOp32
 70
     1
102
RTVSPost2010Prop33
280
     0
102
RTVSPost2010PropOp33
 70
     1
102
RTVSPost2010Prop34
280
     0
102
RTVSPost2010PropOp34
 70
     1
102
RTVSPost2010Prop35
280
     0
102
RTVSPost2010PropOp35
 70
     1
102
RTVSPost2010Prop36
280
     0
102
RTVSPost2010PropOp36
 70
     1
102
RTVSPost2010Prop37
 90
       50
102
RTVSPost2010PropOp37
 70
     1
102
RTVSPost2010Prop38
140
0.0
102
RTVSPost2010PropOp38
 70
     1
102
RTVSPost2010Prop39
140
1.0
102
RTVSPost2010PropOp39
 70
     1
102
RTVSPost2010Prop40
 90
        0
102
RTVSPost2010PropOp40
 70
     1
102
RTVSPost2010Prop41ColorIndex
 90
       18
102
RTVSPost2010Prop41ColorRGB
 90
        0
102
RTVSPost2010PropOp41
 70
     1
102
RTVSPost2010Prop42
 90
       50
102
RTVSPost2010PropOp42
 70
     1
102
RTVSPost2010Prop43
 90
        3
102
RTVSPost2010PropOp43
 70
     1
102
RTVSPost2010Prop44ColorIndex
 90
        5
102
RTVSPost2010Prop44ColorRGB
 90
      255
102
RTVSPost2010PropOp44
 70
     1
102
RTVSPost2010Prop45
280
     0
102
RTVSPost2010PropOp45
 70
     1
102
RTVSPost2010Prop46
 90
       50
102
RTVSPost2010PropOp46
 70
     1
102
RTVSPost2010Prop47
 90
       50
102
RTVSPost2010PropOp47
 70
     1
102
RTVSPost2010Prop48
 90
       50
102
RTVSPost2010PropOp48
 70
     1
102
RTVSPost2010Prop49
280
     0
102
RTVSPost2010PropOp49
 70
     1
102
RTVSPost2010Prop50
 90
       50
102
RTVSPost2010PropOp50
 70
     1
102
RTVSPost2010Prop51ColorIndex
 90
      256
102
RTVSPost2010Prop51ColorRGB
 90
-16777216
102
RTVSPost2010PropOp51
 70
     0
102
RTVSPost2010Prop52
140
1.0
102
RTVSPost2010PropOp52
 70
     0
102
RTVSPost2010Prop53
 90
        2
102
RTVSPost2010PropOp53
 70
     1
102
RTVSPost2010Prop54
  1
strokes_ogs.tif
102
RTVSPost2010PropOp54
 70
     1
102
RTVSPost2010Prop55
280
     0
102
RTVSPost2010PropOp55
 70
     1
102
RTVSPost2010Prop56
140
1.0
102
RTVSPost2010PropOp56
 70
     1
102
RTVSPost2010Prop57
140
1.0
102
RTVSPost2010PropOp57
 70
     1
  0
XRECORD
  5
2353E
102
{ACAD_REACTORS
330
2353D
102
}
330
2353D
100
AcDbXrecord
280
     1
102
RTVSPost2010Prop28
280
     0
102
RTVSPost2010PropOp28
 70
     1
102
RTVSPost2010Prop29
280
     1
102
RTVSPost2010PropOp29
 70
     1
102
RTVSPost2010Prop30
280
     1
102
RTVSPost2010PropOp30
 70
     1
102
RTVSPost2010Prop31
280
     0
102
RTVSPost2010PropOp31
 70
     1
102
RTVSPost2010Prop32
280
     0
102
RTVSPost2010PropOp32
 70
     1
102
RTVSPost2010Prop33
280
     0
102
RTVSPost2010PropOp33
 70
     1
102
RTVSPost2010Prop34
280
     0
102
RTVSPost2010PropOp34
 70
     1
102
RTVSPost2010Prop35
280
     0
102
RTVSPost2010PropOp35
 70
     1
102
RTVSPost2010Prop36
280
     0
102
RTVSPost2010PropOp36
 70
     1
102
RTVSPost2010Prop37
 90
       50
102
RTVSPost2010PropOp37
 70
     0
102
RTVSPost2010Prop38
140
0.0
102
RTVSPost2010PropOp38
 70
     0
102
RTVSPost2010Prop39
140
1.0
102
RTVSPost2010PropOp39
 70
     0
102
RTVSPost2010Prop40
 90
        0
102
RTVSPost2010PropOp40
 70
     0
102
RTVSPost2010Prop41ColorIndex
 90
       18
102
RTVSPost2010Prop41ColorRGB
 90
        0
102
RTVSPost2010PropOp41
 70
     0
102
RTVSPost2010Prop42
 90
       50
102
RTVSPost2010PropOp42
 70
     0
102
RTVSPost2010Prop43
 90
        3
102
RTVSPost2010PropOp43
 70
     0
102
RTVSPost2010Prop44ColorIndex
 90
        5
102
RTVSPost2010Prop44ColorRGB
 90
      255
102
RTVSPost2010PropOp44
 70
     0
102
RTVSPost2010Prop45
280
     0
102
RTVSPost2010PropOp45
 70
     1
102
RTVSPost2010Prop46
 90
       50
102
RTVSPost2010PropOp46
 70
     0
102
RTVSPost2010Prop47
 90
       50
102
RTVSPost2010PropOp47
 70
     0
102
RTVSPost2010Prop48
 90
       50
102
RTVSPost2010PropOp48
 70
     0
102
RTVSPost2010Prop49
280
     0
102
RTVSPost2010PropOp49
 70
     1
102
RTVSPost2010Prop50
 90
       50
102
RTVSPost2010PropOp50
 70
     0
102
RTVSPost2010Prop51ColorIndex
 90
      256
102
RTVSPost2010Prop51ColorRGB
 90
-16777216
102
RTVSPost2010PropOp51
 70
     0
102
RTVSPost2010Prop52
140
1.0
102
RTVSPost2010PropOp52
 70
     0
102
RTVSPost2010Prop53
 90
        2
102
RTVSPost2010PropOp53
 70
     0
102
RTVSPost2010Prop54
  1
strokes_ogs.tif
102
RTVSPost2010PropOp54
 70
     0
102
RTVSPost2010Prop55
280
     0
102
RTVSPost2010PropOp55
 70
     1
102
RTVSPost2010Prop56
140
1.0
102
RTVSPost2010PropOp56
 70
     0
102
RTVSPost2010Prop57
140
1.0
102
RTVSPost2010PropOp57
 70
     0
  0
XRECORD
  5
23520
102
{ACAD_REACTORS
330
2351F
102
}
330
2351F
100
AcDbXrecord
280
     1
102
RTVSPost2010Prop28
280
     0
102
RTVSPost2010PropOp28
 70
     1
102
RTVSPost2010Prop29
280
     1
102
RTVSPost2010PropOp29
 70
     1
102
RTVSPost2010Prop30
280
     1
102
RTVSPost2010PropOp30
 70
     1
102
RTVSPost2010Prop31
280
     0
102
RTVSPost2010PropOp31
 70
     1
102
RTVSPost2010Prop32
280
     0
102
RTVSPost2010PropOp32
 70
     1
102
RTVSPost2010Prop33
280
     0
102
RTVSPost2010PropOp33
 70
     1
102
RTVSPost2010Prop34
280
     0
102
RTVSPost2010PropOp34
 70
     1
102
RTVSPost2010Prop35
280
     0
102
RTVSPost2010PropOp35
 70
     1
102
RTVSPost2010Prop36
280
     0
102
RTVSPost2010PropOp36
 70
     1
102
RTVSPost2010Prop37
 90
       50
102
RTVSPost2010PropOp37
 70
     1
102
RTVSPost2010Prop38
140
0.0
102
RTVSPost2010PropOp38
 70
     1
102
RTVSPost2010Prop39
140
1.0
102
RTVSPost2010PropOp39
 70
     1
102
RTVSPost2010Prop40
 90
        0
102
RTVSPost2010PropOp40
 70
     1
102
RTVSPost2010Prop41ColorIndex
 90
       18
102
RTVSPost2010Prop41ColorRGB
 90
        0
102
RTVSPost2010PropOp41
 70
     1
102
RTVSPost2010Prop42
 90
       50
102
RTVSPost2010PropOp42
 70
     1
102
RTVSPost2010Prop43
 90
        3
102
RTVSPost2010PropOp43
 70
     1
102
RTVSPost2010Prop44ColorIndex
 90
        5
102
RTVSPost2010Prop44ColorRGB
 90
      255
102
RTVSPost2010PropOp44
 70
     1
102
RTVSPost2010Prop45
280
     0
102
RTVSPost2010PropOp45
 70
     1
102
RTVSPost2010Prop46
 90
       50
102
RTVSPost2010PropOp46
 70
     1
102
RTVSPost2010Prop47
 90
       50
102
RTVSPost2010PropOp47
 70
     1
102
RTVSPost2010Prop48
 90
       50
102
RTVSPost2010PropOp48
 70
     1
102
RTVSPost2010Prop49
280
     0
102
RTVSPost2010PropOp49
 70
     1
102
RTVSPost2010Prop50
 90
       50
102
RTVSPost2010PropOp50
 70
     1
102
RTVSPost2010Prop51ColorIndex
 90
      256
102
RTVSPost2010Prop51ColorRGB
 90
-16777216
102
RTVSPost2010PropOp51
 70
     0
102
RTVSPost2010Prop52
140
1.0
102
RTVSPost2010PropOp52
 70
     0
102
RTVSPost2010Prop53
 90
        2
102
RTVSPost2010PropOp53
 70
     1
102
RTVSPost2010Prop54
  1
strokes_ogs.tif
102
RTVSPost2010PropOp54
 70
     1
102
RTVSPost2010Prop55
280
     0
102
RTVSPost2010PropOp55
 70
     1
102
RTVSPost2010Prop56
140
1.0
102
RTVSPost2010PropOp56
 70
     1
102
RTVSPost2010Prop57
140
1.0
102
RTVSPost2010PropOp57
 70
     1
  0
XRECORD
  5
2353A
102
{ACAD_REACTORS
330
23539
102
}
330
23539
100
AcDbXrecord
280
     1
102
RTVSPost2010Prop28
280
     0
102
RTVSPost2010PropOp28
 70
     1
102
RTVSPost2010Prop29
280
     1
102
RTVSPost2010PropOp29
 70
     1
102
RTVSPost2010Prop30
280
     1
102
RTVSPost2010PropOp30
 70
     1
102
RTVSPost2010Prop31
280
     0
102
RTVSPost2010PropOp31
 70
     1
102
RTVSPost2010Prop32
280
     0
102
RTVSPost2010PropOp32
 70
     1
102
RTVSPost2010Prop33
280
     0
102
RTVSPost2010PropOp33
 70
     1
102
RTVSPost2010Prop34
280
     0
102
RTVSPost2010PropOp34
 70
     1
102
RTVSPost2010Prop35
280
     0
102
RTVSPost2010PropOp35
 70
     1
102
RTVSPost2010Prop36
280
     0
102
RTVSPost2010PropOp36
 70
     1
102
RTVSPost2010Prop37
 90
       50
102
RTVSPost2010PropOp37
 70
     1
102
RTVSPost2010Prop38
140
0.0
102
RTVSPost2010PropOp38
 70
     1
102
RTVSPost2010Prop39
140
1.0
102
RTVSPost2010PropOp39
 70
     1
102
RTVSPost2010Prop40
 90
        0
102
RTVSPost2010PropOp40
 70
     1
102
RTVSPost2010Prop41ColorIndex
 90
       18
102
RTVSPost2010Prop41ColorRGB
 90
        0
102
RTVSPost2010PropOp41
 70
     1
102
RTVSPost2010Prop42
 90
       50
102
RTVSPost2010PropOp42
 70
     1
102
RTVSPost2010Prop43
 90
        3
102
RTVSPost2010PropOp43
 70
     1
102
RTVSPost2010Prop44ColorIndex
 90
        5
102
RTVSPost2010Prop44ColorRGB
 90
      255
102
RTVSPost2010PropOp44
 70
     1
102
RTVSPost2010Prop45
280
     0
102
RTVSPost2010PropOp45
 70
     1
102
RTVSPost2010Prop46
 90
       50
102
RTVSPost2010PropOp46
 70
     1
102
RTVSPost2010Prop47
 90
       50
102
RTVSPost2010PropOp47
 70
     1
102
RTVSPost2010Prop48
 90
       50
102
RTVSPost2010PropOp48
 70
     1
102
RTVSPost2010Prop49
280
     0
102
RTVSPost2010PropOp49
 70
     1
102
RTVSPost2010Prop50
 90
       50
102
RTVSPost2010PropOp50
 70
     1
102
RTVSPost2010Prop51ColorIndex
 90
      256
102
RTVSPost2010Prop51ColorRGB
 90
-16777216
102
RTVSPost2010PropOp51
 70
     0
102
RTVSPost2010Prop52
140
1.0
102
RTVSPost2010PropOp52
 70
     0
102
RTVSPost2010Prop53
 90
        2
102
RTVSPost2010PropOp53
 70
     1
102
RTVSPost2010Prop54
  1
strokes_ogs.tif
102
RTVSPost2010PropOp54
 70
     1
102
RTVSPost2010Prop55
280
     0
102
RTVSPost2010PropOp55
 70
     1
102
RTVSPost2010Prop56
140
1.0
102
RTVSPost2010PropOp56
 70
     1
102
RTVSPost2010Prop57
140
1.0
102
RTVSPost2010PropOp57
 70
     1
  0
XRECORD
  5
23538
102
{ACAD_REACTORS
330
23537
102
}
330
23537
100
AcDbXrecord
280
     1
102
RTVSPost2010Prop28
280
     0
102
RTVSPost2010PropOp28
 70
     1
102
RTVSPost2010Prop29
280
     1
102
RTVSPost2010PropOp29
 70
     1
102
RTVSPost2010Prop30
280
     1
102
RTVSPost2010PropOp30
 70
     1
102
RTVSPost2010Prop31
280
     0
102
RTVSPost2010PropOp31
 70
     1
102
RTVSPost2010Prop32
280
     0
102
RTVSPost2010PropOp32
 70
     1
102
RTVSPost2010Prop33
280
     0
102
RTVSPost2010PropOp33
 70
     1
102
RTVSPost2010Prop34
280
     0
102
RTVSPost2010PropOp34
 70
     1
102
RTVSPost2010Prop35
280
     0
102
RTVSPost2010PropOp35
 70
     1
102
RTVSPost2010Prop36
280
     0
102
RTVSPost2010PropOp36
 70
     1
102
RTVSPost2010Prop37
 90
       50
102
RTVSPost2010PropOp37
 70
     1
102
RTVSPost2010Prop38
140
0.0
102
RTVSPost2010PropOp38
 70
     1
102
RTVSPost2010Prop39
140
1.0
102
RTVSPost2010PropOp39
 70
     1
102
RTVSPost2010Prop40
 90
        0
102
RTVSPost2010PropOp40
 70
     1
102
RTVSPost2010Prop41ColorIndex
 90
       18
102
RTVSPost2010Prop41ColorRGB
 90
        0
102
RTVSPost2010PropOp41
 70
     1
102
RTVSPost2010Prop42
 90
       50
102
RTVSPost2010PropOp42
 70
     1
102
RTVSPost2010Prop43
 90
        3
102
RTVSPost2010PropOp43
 70
     1
102
RTVSPost2010Prop44ColorIndex
 90
        5
102
RTVSPost2010Prop44ColorRGB
 90
      255
102
RTVSPost2010PropOp44
 70
     1
102
RTVSPost2010Prop45
280
     0
102
RTVSPost2010PropOp45
 70
     1
102
RTVSPost2010Prop46
 90
       50
102
RTVSPost2010PropOp46
 70
     1
102
RTVSPost2010Prop47
 90
       50
102
RTVSPost2010PropOp47
 70
     1
102
RTVSPost2010Prop48
 90
       50
102
RTVSPost2010PropOp48
 70
     1
102
RTVSPost2010Prop49
280
     0
102
RTVSPost2010PropOp49
 70
     1
102
RTVSPost2010Prop50
 90
       50
102
RTVSPost2010PropOp50
 70
     1
102
RTVSPost2010Prop51ColorIndex
 90
      256
102
RTVSPost2010Prop51ColorRGB
 90
-16777216
102
RTVSPost2010PropOp51
 70
     0
102
RTVSPost2010Prop52
140
1.0
102
RTVSPost2010PropOp52
 70
     0
102
RTVSPost2010Prop53
 90
        2
102
RTVSPost2010PropOp53
 70
     1
102
RTVSPost2010Prop54
  1
strokes_ogs.tif
102
RTVSPost2010PropOp54
 70
     1
102
RTVSPost2010Prop55
280
     0
102
RTVSPost2010PropOp55
 70
     1
102
RTVSPost2010Prop56
140
1.0
102
RTVSPost2010PropOp56
 70
     1
102
RTVSPost2010Prop57
140
1.0
102
RTVSPost2010PropOp57
 70
     1
  0
XRECORD
  5
23532
102
{ACAD_REACTORS
330
23531
102
}
330
23531
100
AcDbXrecord
280
     1
102
RTVSPost2010Prop28
280
     0
102
RTVSPost2010PropOp28
 70
     1
102
RTVSPost2010Prop29
280
     1
102
RTVSPost2010PropOp29
 70
     1
102
RTVSPost2010Prop30
280
     1
102
RTVSPost2010PropOp30
 70
     1
102
RTVSPost2010Prop31
280
     0
102
RTVSPost2010PropOp31
 70
     1
102
RTVSPost2010Prop32
280
     0
102
RTVSPost2010PropOp32
 70
     1
102
RTVSPost2010Prop33
280
     0
102
RTVSPost2010PropOp33
 70
     1
102
RTVSPost2010Prop34
280
     0
102
RTVSPost2010PropOp34
 70
     1
102
RTVSPost2010Prop35
280
     0
102
RTVSPost2010PropOp35
 70
     1
102
RTVSPost2010Prop36
280
     0
102
RTVSPost2010PropOp36
 70
     1
102
RTVSPost2010Prop37
 90
       50
102
RTVSPost2010PropOp37
 70
     1
102
RTVSPost2010Prop38
140
0.0
102
RTVSPost2010PropOp38
 70
     1
102
RTVSPost2010Prop39
140
1.0
102
RTVSPost2010PropOp39
 70
     1
102
RTVSPost2010Prop40
 90
        0
102
RTVSPost2010PropOp40
 70
     1
102
RTVSPost2010Prop41ColorIndex
 90
       18
102
RTVSPost2010Prop41ColorRGB
 90
        0
102
RTVSPost2010PropOp41
 70
     1
102
RTVSPost2010Prop42
 90
       50
102
RTVSPost2010PropOp42
 70
     1
102
RTVSPost2010Prop43
 90
        3
102
RTVSPost2010PropOp43
 70
     1
102
RTVSPost2010Prop44ColorIndex
 90
        5
102
RTVSPost2010Prop44ColorRGB
 90
      255
102
RTVSPost2010PropOp44
 70
     1
102
RTVSPost2010Prop45
280
     0
102
RTVSPost2010PropOp45
 70
     1
102
RTVSPost2010Prop46
 90
       50
102
RTVSPost2010PropOp46
 70
     1
102
RTVSPost2010Prop47
 90
       50
102
RTVSPost2010PropOp47
 70
     1
102
RTVSPost2010Prop48
 90
       50
102
RTVSPost2010PropOp48
 70
     1
102
RTVSPost2010Prop49
280
     0
102
RTVSPost2010PropOp49
 70
     1
102
RTVSPost2010Prop50
 90
       50
102
RTVSPost2010PropOp50
 70
     1
102
RTVSPost2010Prop51ColorIndex
 90
      256
102
RTVSPost2010Prop51ColorRGB
 90
-16777216
102
RTVSPost2010PropOp51
 70
     0
102
RTVSPost2010Prop52
140
1.0
102
RTVSPost2010PropOp52
 70
     0
102
RTVSPost2010Prop53
 90
        2
102
RTVSPost2010PropOp53
 70
     1
102
RTVSPost2010Prop54
  1
strokes_ogs.tif
102
RTVSPost2010PropOp54
 70
     1
102
RTVSPost2010Prop55
280
     0
102
RTVSPost2010PropOp55
 70
     1
102
RTVSPost2010Prop56
140
1.0
102
RTVSPost2010PropOp56
 70
     1
102
RTVSPost2010Prop57
140
1.0
102
RTVSPost2010PropOp57
 70
     1
  0
XRECORD
  5
23534
102
{ACAD_REACTORS
330
23533
102
}
330
23533
100
AcDbXrecord
280
     1
102
RTVSPost2010Prop28
280
     0
102
RTVSPost2010PropOp28
 70
     1
102
RTVSPost2010Prop29
280
     1
102
RTVSPost2010PropOp29
 70
     1
102
RTVSPost2010Prop30
280
     1
102
RTVSPost2010PropOp30
 70
     1
102
RTVSPost2010Prop31
280
     0
102
RTVSPost2010PropOp31
 70
     1
102
RTVSPost2010Prop32
280
     0
102
RTVSPost2010PropOp32
 70
     1
102
RTVSPost2010Prop33
280
     0
102
RTVSPost2010PropOp33
 70
     1
102
RTVSPost2010Prop34
280
     0
102
RTVSPost2010PropOp34
 70
     1
102
RTVSPost2010Prop35
280
     0
102
RTVSPost2010PropOp35
 70
     1
102
RTVSPost2010Prop36
280
     0
102
RTVSPost2010PropOp36
 70
     1
102
RTVSPost2010Prop37
 90
       50
102
RTVSPost2010PropOp37
 70
     1
102
RTVSPost2010Prop38
140
0.0
102
RTVSPost2010PropOp38
 70
     1
102
RTVSPost2010Prop39
140
1.0
102
RTVSPost2010PropOp39
 70
     1
102
RTVSPost2010Prop40
 90
        0
102
RTVSPost2010PropOp40
 70
     1
102
RTVSPost2010Prop41ColorIndex
 90
       18
102
RTVSPost2010Prop41ColorRGB
 90
        0
102
RTVSPost2010PropOp41
 70
     1
102
RTVSPost2010Prop42
 90
       50
102
RTVSPost2010PropOp42
 70
     1
102
RTVSPost2010Prop43
 90
        3
102
RTVSPost2010PropOp43
 70
     1
102
RTVSPost2010Prop44ColorIndex
 90
        5
102
RTVSPost2010Prop44ColorRGB
 90
      255
102
RTVSPost2010PropOp44
 70
     1
102
RTVSPost2010Prop45
280
     0
102
RTVSPost2010PropOp45
 70
     1
102
RTVSPost2010Prop46
 90
       50
102
RTVSPost2010PropOp46
 70
     1
102
RTVSPost2010Prop47
 90
       50
102
RTVSPost2010PropOp47
 70
     1
102
RTVSPost2010Prop48
 90
       50
102
RTVSPost2010PropOp48
 70
     1
102
RTVSPost2010Prop49
280
     0
102
RTVSPost2010PropOp49
 70
     1
102
RTVSPost2010Prop50
 90
       50
102
RTVSPost2010PropOp50
 70
     1
102
RTVSPost2010Prop51ColorIndex
 90
      256
102
RTVSPost2010Prop51ColorRGB
 90
-16777216
102
RTVSPost2010PropOp51
 70
     0
102
RTVSPost2010Prop52
140
1.0
102
RTVSPost2010PropOp52
 70
     0
102
RTVSPost2010Prop53
 90
        2
102
RTVSPost2010PropOp53
 70
     1
102
RTVSPost2010Prop54
  1
strokes_ogs.tif
102
RTVSPost2010PropOp54
 70
     1
102
RTVSPost2010Prop55
280
     0
102
RTVSPost2010PropOp55
 70
     1
102
RTVSPost2010Prop56
140
1.0
102
RTVSPost2010PropOp56
 70
     1
102
RTVSPost2010Prop57
140
1.0
102
RTVSPost2010PropOp57
 70
     1
  0
XRECORD
  5
23526
102
{ACAD_REACTORS
330
23525
102
}
330
23525
100
AcDbXrecord
280
     1
102
RTVSPost2010Prop28
280
     0
102
RTVSPost2010PropOp28
 70
     1
102
RTVSPost2010Prop29
280
     1
102
RTVSPost2010PropOp29
 70
     1
102
RTVSPost2010Prop30
280
     1
102
RTVSPost2010PropOp30
 70
     1
102
RTVSPost2010Prop31
280
     0
102
RTVSPost2010PropOp31
 70
     1
102
RTVSPost2010Prop32
280
     0
102
RTVSPost2010PropOp32
 70
     1
102
RTVSPost2010Prop33
280
     0
102
RTVSPost2010PropOp33
 70
     1
102
RTVSPost2010Prop34
280
     0
102
RTVSPost2010PropOp34
 70
     1
102
RTVSPost2010Prop35
280
     0
102
RTVSPost2010PropOp35
 70
     1
102
RTVSPost2010Prop36
280
     0
102
RTVSPost2010PropOp36
 70
     1
102
RTVSPost2010Prop37
 90
       50
102
RTVSPost2010PropOp37
 70
     1
102
RTVSPost2010Prop38
140
0.0
102
RTVSPost2010PropOp38
 70
     1
102
RTVSPost2010Prop39
140
1.0
102
RTVSPost2010PropOp39
 70
     1
102
RTVSPost2010Prop40
 90
        0
102
RTVSPost2010PropOp40
 70
     1
102
RTVSPost2010Prop41ColorIndex
 90
       18
102
RTVSPost2010Prop41ColorRGB
 90
        0
102
RTVSPost2010PropOp41
 70
     1
102
RTVSPost2010Prop42
 90
       50
102
RTVSPost2010PropOp42
 70
     1
102
RTVSPost2010Prop43
 90
        3
102
RTVSPost2010PropOp43
 70
     1
102
RTVSPost2010Prop44ColorIndex
 90
        5
102
RTVSPost2010Prop44ColorRGB
 90
      255
102
RTVSPost2010PropOp44
 70
     1
102
RTVSPost2010Prop45
280
     0
102
RTVSPost2010PropOp45
 70
     1
102
RTVSPost2010Prop46
 90
       50
102
RTVSPost2010PropOp46
 70
     1
102
RTVSPost2010Prop47
 90
       50
102
RTVSPost2010PropOp47
 70
     1
102
RTVSPost2010Prop48
 90
       50
102
RTVSPost2010PropOp48
 70
     1
102
RTVSPost2010Prop49
280
     0
102
RTVSPost2010PropOp49
 70
     1
102
RTVSPost2010Prop50
 90
       50
102
RTVSPost2010PropOp50
 70
     1
102
RTVSPost2010Prop51ColorIndex
 90
      256
102
RTVSPost2010Prop51ColorRGB
 90
-16777216
102
RTVSPost2010PropOp51
 70
     0
102
RTVSPost2010Prop52
140
1.0
102
RTVSPost2010PropOp52
 70
     0
102
RTVSPost2010Prop53
 90
        2
102
RTVSPost2010PropOp53
 70
     1
102
RTVSPost2010Prop54
  1
strokes_ogs.tif
102
RTVSPost2010PropOp54
 70
     1
102
RTVSPost2010Prop55
280
     0
102
RTVSPost2010PropOp55
 70
     1
102
RTVSPost2010Prop56
140
1.0
102
RTVSPost2010PropOp56
 70
     1
102
RTVSPost2010Prop57
140
1.0
102
RTVSPost2010PropOp57
 70
     1
  0
XRECORD
  5
2352E
102
{ACAD_REACTORS
330
2352D
102
}
330
2352D
100
AcDbXrecord
280
     1
102
RTVSPost2010Prop28
280
     0
102
RTVSPost2010PropOp28
 70
     1
102
RTVSPost2010Prop29
280
     1
102
RTVSPost2010PropOp29
 70
     1
102
RTVSPost2010Prop30
280
     1
102
RTVSPost2010PropOp30
 70
     1
102
RTVSPost2010Prop31
280
     0
102
RTVSPost2010PropOp31
 70
     1
102
RTVSPost2010Prop32
280
     0
102
RTVSPost2010PropOp32
 70
     1
102
RTVSPost2010Prop33
280
     0
102
RTVSPost2010PropOp33
 70
     1
102
RTVSPost2010Prop34
280
     0
102
RTVSPost2010PropOp34
 70
     1
102
RTVSPost2010Prop35
280
     0
102
RTVSPost2010PropOp35
 70
     1
102
RTVSPost2010Prop36
280
     0
102
RTVSPost2010PropOp36
 70
     1
102
RTVSPost2010Prop37
 90
       50
102
RTVSPost2010PropOp37
 70
     1
102
RTVSPost2010Prop38
140
0.0
102
RTVSPost2010PropOp38
 70
     1
102
RTVSPost2010Prop39
140
1.0
102
RTVSPost2010PropOp39
 70
     1
102
RTVSPost2010Prop40
 90
        0
102
RTVSPost2010PropOp40
 70
     1
102
RTVSPost2010Prop41ColorIndex
 90
       18
102
RTVSPost2010Prop41ColorRGB
 90
        0
102
RTVSPost2010PropOp41
 70
     1
102
RTVSPost2010Prop42
 90
       50
102
RTVSPost2010PropOp42
 70
     1
102
RTVSPost2010Prop43
 90
        3
102
RTVSPost2010PropOp43
 70
     1
102
RTVSPost2010Prop44ColorIndex
 90
        5
102
RTVSPost2010Prop44ColorRGB
 90
      255
102
RTVSPost2010PropOp44
 70
     1
102
RTVSPost2010Prop45
280
     0
102
RTVSPost2010PropOp45
 70
     1
102
RTVSPost2010Prop46
 90
       50
102
RTVSPost2010PropOp46
 70
     1
102
RTVSPost2010Prop47
 90
       50
102
RTVSPost2010PropOp47
 70
     1
102
RTVSPost2010Prop48
 90
       50
102
RTVSPost2010PropOp48
 70
     1
102
RTVSPost2010Prop49
280
     0
102
RTVSPost2010PropOp49
 70
     1
102
RTVSPost2010Prop50
 90
       50
102
RTVSPost2010PropOp50
 70
     1
102
RTVSPost2010Prop51ColorIndex
 90
      256
102
RTVSPost2010Prop51ColorRGB
 90
-16777216
102
RTVSPost2010PropOp51
 70
     0
102
RTVSPost2010Prop52
140
1.0
102
RTVSPost2010PropOp52
 70
     0
102
RTVSPost2010Prop53
 90
        2
102
RTVSPost2010PropOp53
 70
     1
102
RTVSPost2010Prop54
  1
strokes_ogs.tif
102
RTVSPost2010PropOp54
 70
     1
102
RTVSPost2010Prop55
280
     0
102
RTVSPost2010PropOp55
 70
     1
102
RTVSPost2010Prop56
140
1.0
102
RTVSPost2010PropOp56
 70
     1
102
RTVSPost2010Prop57
140
1.0
102
RTVSPost2010PropOp57
 70
     1
  0
XRECORD
  5
23536
102
{ACAD_REACTORS
330
23535
102
}
330
23535
100
AcDbXrecord
280
     1
102
RTVSPost2010Prop28
280
     0
102
RTVSPost2010PropOp28
 70
     1
102
RTVSPost2010Prop29
280
     1
102
RTVSPost2010PropOp29
 70
     1
102
RTVSPost2010Prop30
280
     1
102
RTVSPost2010PropOp30
 70
     1
102
RTVSPost2010Prop31
280
     0
102
RTVSPost2010PropOp31
 70
     1
102
RTVSPost2010Prop32
280
     0
102
RTVSPost2010PropOp32
 70
     1
102
RTVSPost2010Prop33
280
     0
102
RTVSPost2010PropOp33
 70
     1
102
RTVSPost2010Prop34
280
     0
102
RTVSPost2010PropOp34
 70
     1
102
RTVSPost2010Prop35
280
     0
102
RTVSPost2010PropOp35
 70
     1
102
RTVSPost2010Prop36
280
     0
102
RTVSPost2010PropOp36
 70
     1
102
RTVSPost2010Prop37
 90
       50
102
RTVSPost2010PropOp37
 70
     1
102
RTVSPost2010Prop38
140
0.0
102
RTVSPost2010PropOp38
 70
     1
102
RTVSPost2010Prop39
140
1.0
102
RTVSPost2010PropOp39
 70
     1
102
RTVSPost2010Prop40
 90
        0
102
RTVSPost2010PropOp40
 70
     1
102
RTVSPost2010Prop41ColorIndex
 90
       18
102
RTVSPost2010Prop41ColorRGB
 90
        0
102
RTVSPost2010PropOp41
 70
     1
102
RTVSPost2010Prop42
 90
       50
102
RTVSPost2010PropOp42
 70
     1
102
RTVSPost2010Prop43
 90
        3
102
RTVSPost2010PropOp43
 70
     1
102
RTVSPost2010Prop44ColorIndex
 90
        5
102
RTVSPost2010Prop44ColorRGB
 90
      255
102
RTVSPost2010PropOp44
 70
     1
102
RTVSPost2010Prop45
280
     0
102
RTVSPost2010PropOp45
 70
     1
102
RTVSPost2010Prop46
 90
       50
102
RTVSPost2010PropOp46
 70
     1
102
RTVSPost2010Prop47
 90
       50
102
RTVSPost2010PropOp47
 70
     1
102
RTVSPost2010Prop48
 90
       50
102
RTVSPost2010PropOp48
 70
     1
102
RTVSPost2010Prop49
280
     0
102
RTVSPost2010PropOp49
 70
     1
102
RTVSPost2010Prop50
 90
       50
102
RTVSPost2010PropOp50
 70
     1
102
RTVSPost2010Prop51ColorIndex
 90
      256
102
RTVSPost2010Prop51ColorRGB
 90
-16777216
102
RTVSPost2010PropOp51
 70
     0
102
RTVSPost2010Prop52
140
1.0
102
RTVSPost2010PropOp52
 70
     0
102
RTVSPost2010Prop53
 90
        2
102
RTVSPost2010PropOp53
 70
     1
102
RTVSPost2010Prop54
  1
strokes_ogs.tif
102
RTVSPost2010PropOp54
 70
     1
102
RTVSPost2010Prop55
280
     0
102
RTVSPost2010PropOp55
 70
     1
102
RTVSPost2010Prop56
140
1.0
102
RTVSPost2010PropOp56
 70
     1
102
RTVSPost2010Prop57
140
1.0
102
RTVSPost2010PropOp57
 70
     1
  0
ENDSEC
  0
EOF
