  0
SECTION
  2
HEADER
  9
$ACADVER
  1
AC1018
  9
$ACADMAINTVER
 70
   104
  9
$DWGCODEPAGE
  3
ANSI_1252
  9
$LASTSAVEDBY
  1
Bernd Dutschke
  9
$CUSTOMPROPERTYTAG
  1
AmdtFileType
  9
$CUSTOMPROPERTY
  1
84
  9
$INSBASE
 10
0.0
 20
0.0
 30
0.0
  9
$EXTMIN
 10
-31.66484334726545
 20
-63.07857613554848
 30
-0.0000000000000098
  9
$EXTMAX
 10
87.80187904751802
 20
94.8366465279612
 30
0.0000000000000055
  9
$LIMMIN
 10
0.0
 20
0.0
  9
$LIMMAX
 10
420.0
 20
297.0
  9
$ORTHOMODE
 70
     1
  9
$REGENMODE
 70
     1
  9
$FILLMODE
 70
     1
  9
$QTEXTMODE
 70
     0
  9
$MIRRTEXT
 70
     1
  9
$LTSCALE
 40
1.0
  9
$ATTMODE
 70
     1
  9
$TEXTSIZE
 40
3.5
  9
$TRACEWID
 40
1.0
  9
$TEXTSTYLE
  7
STANDARD
  9
$CLAYER
  8
0
  9
$CELTYPE
  6
ByLayer
  9
$CECOLOR
 62
   256
  9
$CELTSCALE
 40
1.0
  9
$DISPSILH
 70
     0
  9
$DIMSCALE
 40
1.0
  9
$DIMASZ
 40
2.5
  9
$DIMEXO
 40
0.0
  9
$DIMDLI
 40
10.0
  9
$DIMRND
 40
0.0
  9
$DIMDLE
 40
0.0
  9
$DIMEXE
 40
1.0
  9
$DIMTP
 40
0.1
  9
$DIMTM
 40
0.1
  9
$DIMTXT
 40
3.5
  9
$DIMCEN
 40
0.0
  9
$DIMTSZ
 40
0.0
  9
$DIMTOL
 70
     0
  9
$DIMLIM
 70
     0
  9
$DIMTIH
 70
     0
  9
$DIMTOH
 70
     0
  9
$DIMSE1
 70
     0
  9
$DIMSE2
 70
     0
  9
$DIMTAD
 70
     1
  9
$DIMZIN
 70
     8
  9
$DIMBLK
  1

  9
$DIMASO
 70
     1
  9
$DIMSHO
 70
     1
  9
$DIMPOST
  1

  9
$DIMAPOST
  1
"
  9
$DIMALT
 70
     0
  9
$DIMALTD
 70
     2
  9
$DIMALTF
 40
0.0393701
  9
$DIMLFAC
 40
1.0
  9
$DIMTOFL
 70
     1
  9
$DIMTVP
 40
0.0
  9
$DIMTIX
 70
     0
  9
$DIMSOXD
 70
     0
  9
$DIMSAH
 70
     0
  9
$DIMBLK1
  1

  9
$DIMBLK2
  1

  9
$DIMSTYLE
  2
AM_DIN
  9
$DIMCLRD
 70
   256
  9
$DIMCLRE
 70
   256
  9
$DIMCLRT
 70
     2
  9
$DIMTFAC
 40
0.71
  9
$DIMGAP
 40
1.5
  9
$DIMJUST
 70
     0
  9
$DIMSD1
 70
     0
  9
$DIMSD2
 70
     0
  9
$DIMTOLJ
 70
     0
  9
$DIMTZIN
 70
     8
  9
$DIMALTZ
 70
     0
  9
$DIMALTTZ
 70
     0
  9
$DIMUPT
 70
     0
  9
$DIMDEC
 70
     1
  9
$DIMTDEC
 70
     2
  9
$DIMALTU
 70
     2
  9
$DIMALTTD
 70
     2
  9
$DIMTXSTY
  7
STANDARD
  9
$DIMAUNIT
 70
     0
  9
$DIMADEC
 70
     0
  9
$DIMALTRND
 40
0.0
  9
$DIMAZIN
 70
     2
  9
$DIMDSEP
 70
    46
  9
$DIMATFIT
 70
     3
  9
$DIMFRAC
 70
     0
  9
$DIMLDRBLK
  1

  9
$DIMLUNIT
 70
     2
  9
$DIMLWD
 70
    -1
  9
$DIMLWE
 70
    -1
  9
$DIMTMOVE
 70
     0
  9
$LUNITS
 70
     2
  9
$LUPREC
 70
     2
  9
$SKETCHINC
 40
1.0
  9
$FILLETRAD
 40
0.5
  9
$AUNITS
 70
     0
  9
$AUPREC
 70
     0
  9
$MENU
  1
.
  9
$ELEVATION
 40
0.0
  9
$PELEVATION
 40
0.0
  9
$THICKNESS
 40
0.0
  9
$LIMCHECK
 70
     0
  9
$CHAMFERA
 40
2.5
  9
$CHAMFERB
 40
2.5
  9
$CHAMFERC
 40
20.0
  9
$CHAMFERD
 40
0.0
  9
$SKPOLY
 70
     0
  9
$TDCREATE
 40
2453599.656190694
  9
$TDUCREATE
 40
2453599.614524028
  9
$TDUPDATE
 40
2454798.608531540
  9
$TDUUPDATE
 40
2454798.566864873
  9
$TDINDWG
 40
0.1775635069
  9
$TDUSRTIMER
 40
0.1773767824
  9
$USRTIMER
 70
     1
  9
$ANGBASE
 50
0.0
  9
$ANGDIR
 70
     0
  9
$PDMODE
 70
     0
  9
$PDSIZE
 40
0.0
  9
$PLINEWID
 40
0.0
  9
$SPLFRAME
 70
     0
  9
$SPLINETYPE
 70
     6
  9
$SPLINESEGS
 70
     8
  9
$HANDSEED
  5
EB10
  9
$SURFTAB1
 70
     6
  9
$SURFTAB2
 70
     6
  9
$SURFTYPE
 70
     6
  9
$SURFU
 70
     6
  9
$SURFV
 70
     6
  9
$UCSBASE
  2

  9
$UCSNAME
  2

  9
$UCSORG
 10
0.0
 20
0.0
 30
0.0
  9
$UCSXDIR
 10
1.0
 20
0.0
 30
0.0
  9
$UCSYDIR
 10
0.0
 20
1.0
 30
0.0
  9
$UCSORTHOREF
  2

  9
$UCSORTHOVIEW
 70
     0
  9
$UCSORGTOP
 10
0.0
 20
0.0
 30
0.0
  9
$UCSORGBOTTOM
 10
0.0
 20
0.0
 30
0.0
  9
$UCSORGLEFT
 10
0.0
 20
0.0
 30
0.0
  9
$UCSORGRIGHT
 10
0.0
 20
0.0
 30
0.0
  9
$UCSORGFRONT
 10
0.0
 20
0.0
 30
0.0
  9
$UCSORGBACK
 10
0.0
 20
0.0
 30
0.0
  9
$PUCSBASE
  2

  9
$PUCSNAME
  2

  9
$PUCSORG
 10
0.0
 20
0.0
 30
0.0
  9
$PUCSXDIR
 10
1.0
 20
0.0
 30
0.0
  9
$PUCSYDIR
 10
0.0
 20
1.0
 30
0.0
  9
$PUCSORTHOREF
  2

  9
$PUCSORTHOVIEW
 70
     0
  9
$PUCSORGTOP
 10
0.0
 20
0.0
 30
0.0
  9
$PUCSORGBOTTOM
 10
0.0
 20
0.0
 30
0.0
  9
$PUCSORGLEFT
 10
0.0
 20
0.0
 30
0.0
  9
$PUCSORGRIGHT
 10
0.0
 20
0.0
 30
0.0
  9
$PUCSORGFRONT
 10
0.0
 20
0.0
 30
0.0
  9
$PUCSORGBACK
 10
0.0
 20
0.0
 30
0.0
  9
$USERI1
 70
     0
  9
$USERI2
 70
     0
  9
$USERI3
 70
     0
  9
$USERI4
 70
     0
  9
$USERI5
 70
     0
  9
$USERR1
 40
0.0
  9
$USERR2
 40
0.0
  9
$USERR3
 40
0.0
  9
$USERR4
 40
0.0
  9
$USERR5
 40
0.0
  9
$WORLDVIEW
 70
     1
  9
$SHADEDGE
 70
     3
  9
$SHADEDIF
 70
    70
  9
$TILEMODE
 70
     1
  9
$MAXACTVP
 70
    64
  9
$PINSBASE
 10
0.0
 20
0.0
 30
0.0
  9
$PLIMCHECK
 70
     0
  9
$PEXTMIN
 10
1.000000000000000E+20
 20
1.000000000000000E+20
 30
1.000000000000000E+20
  9
$PEXTMAX
 10
-1.000000000000000E+20
 20
-1.000000000000000E+20
 30
-1.000000000000000E+20
  9
$PLIMMIN
 10
0.0
 20
0.0
  9
$PLIMMAX
 10
420.0
 20
297.0
  9
$UNITMODE
 70
     0
  9
$VISRETAIN
 70
     1
  9
$PLINEGEN
 70
     0
  9
$PSLTSCALE
 70
     1
  9
$TREEDEPTH
 70
  3020
  9
$CMLSTYLE
  2
Standard
  9
$CMLJUST
 70
     0
  9
$CMLSCALE
 40
20.0
  9
$PROXYGRAPHICS
 70
     1
  9
$MEASUREMENT
 70
     1
  9
$CELWEIGHT
370
    -1
  9
$ENDCAPS
280
     0
  9
$JOINSTYLE
280
     0
  9
$LWDISPLAY
290
     0
  9
$INSUNITS
 70
     4
  9
$HYPERLINKBASE
  1

  9
$STYLESHEET
  1

  9
$XEDIT
290
     1
  9
$CEPSNTYPE
380
     0
  9
$PSTYLEMODE
290
     1
  9
$FINGERPRINTGUID
  2
{03052709-208C-44F1-88CB-F8F0E550BC5D}
  9
$VERSIONGUID
  2
{CC2BD25C-6110-4C4B-9828-2F6A0DA93FDB}
  9
$EXTNAMES
290
     1
  9
$PSVPSCALE
 40
0.0
  9
$OLESTARTUP
290
     0
  9
$SORTENTS
280
   127
  9
$INDEXCTL
280
     0
  9
$HIDETEXT
280
     1
  9
$XCLIPFRAME
290
     0
  9
$HALOGAP
280
     0
  9
$OBSCOLOR
 70
   257
  9
$OBSLTYPE
280
     0
  9
$INTERSECTIONDISPLAY
280
     0
  9
$INTERSECTIONCOLOR
 70
   257
  9
$DIMASSOC
280
     1
  9
$PROJECTNAME
  1

  0
ENDSEC
  0
SECTION
  2
CLASSES
  0
CLASS
  1
ACDBDICTIONARYWDFLT
  2
AcDbDictionaryWithDefault
  3
ObjectDBX Classes
 90
        0
 91
        1
280
     0
281
     0
  0
CLASS
  1
ACME_DOCUMENT
  2
AcMeDbDoc
  3
AcMeServices
 90
     1024
 91
        2
280
     0
281
     0
  0
CLASS
  1
ACMESCOPE
  2
AcMeScope
  3
AcMeServices
 90
     1024
 91
        1
280
     0
281
     0
  0
CLASS
  1
ACMECOMMANDHISTORY
  2
AcMeCommandHistory
  3
AcMeServices
 90
     1024
 91
        1
280
     0
281
     0
  0
CLASS
  1
ACIMSYSVARMAN
  2
AcImSysVarManager
  3
AcMeServices
 90
     1024
 91
        6
280
     0
281
     0
  0
CLASS
  1
ACIMREALSYSVAR
  2
AcImRealSysVar
  3
AcMeServices
 90
     1024
 91
        1
280
     0
281
     0
  0
CLASS
  1
ACIMINTSYSVAR
  2
AcImIntSysVar
  3
AcMeServices
 90
     1024
 91
       27
280
     0
281
     0
  0
CLASS
  1
ACMEDRAWINGMAN
  2
AcMeDrawingMan
  3
AcMeServices
 90
     1024
 91
        1
280
     0
281
     0
  0
CLASS
  1
ACMEVIEW
  2
AcMeView
  3
AcMeServices
 90
     1024
 91
        1
280
     0
281
     0
  0
CLASS
  1
ACDBENTITYCACHE
  2
AcMeEntityCache
  3
AcMeServices
 90
     1024
 91
        1
280
     0
281
     0
  0
CLASS
  1
GSMANAGER
  2
AcMeGSManager
  3
AcMeServices
 90
     1024
 91
        1
280
     0
281
     0
  0
CLASS
  1
AMDTINTERNALREACTOR
  2
AmdtInternalReactor
  3
AcMeServices
 90
     1024
 91
        2
280
     0
281
     0
  0
CLASS
  1
ACMESTATEMGR
  2
AcMeStateMgr
  3
AcMeServices
 90
     1024
 91
        1
280
     0
281
     0
  0
CLASS
  1
ACGREFMASTER
  2
AcGrefMaster
  3
AcAttribServices
 90
     1024
 91
        1
280
     0
281
     0
  0
CLASS
  1
ACME_DATABASE
  2
AcMeDbDatabase
  3
AcMeServices
 90
     1024
 91
        1
280
     0
281
     0
  0
CLASS
  1
ACRFINSADJUSTERMGR
  2
AcRfInsAdjusterMgr
  3
AcMeServices
 90
     1024
 91
        1
280
     0
281
     0
  0
CLASS
  1
ACGREFACADMASTER
  2
AcGrefacadMaster
  3
AcGrefServices
 90
     1024
 91
        1
280
     0
281
     0
  0
CLASS
  1
AMIMASTER
  2
AmiMaster
  3
AmiServices
 90
     1024
 91
        1
280
     0
281
     0
  0
CLASS
  1
AMGSETTINGSOBJ
  2
AmgSettingsObj
  3
"AcadM|Product Description: AutoCAD Mechanical|Company: Autodesk, Inc."
 90
     1024
 91
        2
280
     0
281
     0
  0
CLASS
  1
ACMDATADICTIONARY
  2
AcmDataDictionary
  3
"AcmSymBB|Product Description: AutoCAD Mechanical|Company: Autodesk, Inc."
 90
     1024
 91
        1
280
     0
281
     0
  0
CLASS
  1
ACMDATAENTRYBLOCK
  2
AcmDataEntryBlock
  3
AcmSymBB|Product Description: AutoCAD Mechanical|Company: Autodesk, Inc.
 90
     1024
 91
        0
280
     0
281
     0
  0
CLASS
  1
ACIMSTRSYSVAR
  2
AcImStrSysVar
  3
AcMeServices
 90
     1024
 91
        6
280
     0
281
     0
  0
CLASS
  1
ACMSTANDARDDIN
  2
AcmStandardDIN
  3
"Amdt_StdImp|Product Description: AutoCAD Mechanical|Company: Autodesk, Inc."
 90
     1024
 91
        1
280
     0
281
     0
  0
CLASS
  1
AMGOBJPROPCFG
  2
AmgObjPropCfg
  3
"AmgLay|Product Description: AutoCAD Mechanical|Company: Autodesk, Inc."
 90
     1025
 91
        1
280
     0
281
     0
  0
CLASS
  1
AMDTEDGESTANDARDDIN
  2
AmdtEdgeStdDIN
  3
"Amdt_StdImp|Product Description: AutoCAD Mechanical|Company: Autodesk, Inc."
 90
     1024
 91
        0
280
     0
281
     0
  0
CLASS
  1
ACMSURFSTANDARDDIN
  2
AcmSurfTextStdDIN
  3
"Amdt_StdImp|Product Description: AutoCAD Mechanical|Company: Autodesk, Inc."
 90
     1024
 91
        0
280
     0
281
     0
  0
CLASS
  1
ACMFCFSTANDARDDIN
  2
AcmFCFStdDIN
  3
"Amdt_StdImp|Product Description: AutoCAD Mechanical|Company: Autodesk, Inc."
 90
     1024
 91
        1
280
     0
281
     0
  0
CLASS
  1
ACMWELDSTANDARDDIN
  2
AcmWeldingStdDIN
  3
"Amdt_StdImp|Product Description: AutoCAD Mechanical|Company: Autodesk, Inc."
 90
     1024
 91
        1
280
     0
281
     0
  0
CLASS
  1
ACMIDSTANDARDDIN
  2
AcmIdStdDIN
  3
"Amdt_StdImp|Product Description: AutoCAD Mechanical|Company: Autodesk, Inc."
 90
     1024
 91
        1
280
     0
281
     0
  0
CLASS
  1
ACMDATUMSTANDARDDIN
  2
AcmDatumStdDIN
  3
"Amdt_StdImp|Product Description: AutoCAD Mechanical|Company: Autodesk, Inc."
 90
     1024
 91
        1
280
     0
281
     0
  0
CLASS
  1
ACMBOMSTANDARDDIN
  2
AcmBOMStdDIN
  3
"Amdt_StdImp|Product Description: AutoCAD Mechanical|Company: Autodesk, Inc."
 90
     1024
 91
        1
280
     0
281
     0
  0
CLASS
  1
ACMDETAILSTANDARDDIN
  2
AmdtDetailSymStdDIN
  3
"Amdt_StdImp|Product Description: AutoCAD Mechanical|Company: Autodesk, Inc."
 90
     1024
 91
        1
280
     0
281
     0
  0
CLASS
  1
ACMSECTIONSTANDARDDIN
  2
AmdtSectionSymStdDIN
  3
"Amdt_StdImp|Product Description: AutoCAD Mechanical|Company: Autodesk, Inc."
 90
     1024
 91
        1
280
     0
281
     0
  0
CLASS
  1
ACMCENTERLINESTANDARDDIN
  2
AmdtCenterLineStdDIN
  3
"Amdt_StdImp|Product Description: AutoCAD Mechanical|Company: Autodesk, Inc."
 90
     1024
 91
        1
280
     0
281
     0
  0
CLASS
  1
ACMNOTESTANDARDDIN
  2
AmdtNoteStdDIN
  3
"Amdt_StdImp|Product Description: AutoCAD Mechanical|Company: Autodesk, Inc."
 90
     1024
 91
        1
280
     0
281
     0
  0
CLASS
  1
ACAMGLAYSTD
  2
AcAmgLayStd
  3
"AmgLay|Product Description: AutoCAD Mechanical|Company: Autodesk, Inc."
 90
     1024
 91
        1
280
     0
281
     0
  0
CLASS
  1
ACAMGDIMSTD
  2
AcAmgDimStd
  3
"AmgDim|Product Description: AutoCAD Mechanical|Company: Autodesk, Inc."
 90
     1024
 91
        1
280
     0
281
     0
  0
CLASS
  1
ACAMGHOLECHARTSTDDIN
  2
AcAmgHoleChartStdDIN
  3
AmgDim|Product Description: AutoCAD Mechanical|Company: Autodesk, Inc.
 90
     1024
 91
        1
280
     0
281
     0
  0
CLASS
  1
ACAMGTITLESTD
  2
AcAmgTitleStd
  3
"AmgTitle|Product Description: AutoCAD Mechanical|Company: Autodesk, Inc."
 90
     4095
 91
        1
280
     0
281
     0
  0
CLASS
  1
ACMSTANDARDANSI
  2
AcmStandardANSI
  3
"Amdt_StdImp|Product Description: AutoCAD Mechanical|Company: Autodesk, Inc."
 90
     1024
 91
        0
280
     0
281
     0
  0
CLASS
  1
ACMSURFSTANDARDANSI
  2
AcmSurfTextStdANSI
  3
"Amdt_StdImp|Product Description: AutoCAD Mechanical|Company: Autodesk, Inc."
 90
     1024
 91
        0
280
     0
281
     0
  0
CLASS
  1
ACMFCFSTANDARDANSI
  2
AcmFCFStdANSI
  3
"Amdt_StdImp|Product Description: AutoCAD Mechanical|Company: Autodesk, Inc."
 90
     1024
 91
        0
280
     0
281
     0
  0
CLASS
  1
ACMWELDSTANDARDANSI
  2
AcmWeldingStdANSI
  3
"Amdt_StdImp|Product Description: AutoCAD Mechanical|Company: Autodesk, Inc."
 90
     1024
 91
        0
280
     0
281
     0
  0
CLASS
  1
ACMIDSTANDARDANSI
  2
AcmIdStdANSI
  3
"Amdt_StdImp|Product Description: AutoCAD Mechanical|Company: Autodesk, Inc."
 90
     1024
 91
        0
280
     0
281
     0
  0
CLASS
  1
ACMDATUMSTANDARDANSI
  2
AcmDatumStdANSI
  3
"Amdt_StdImp|Product Description: AutoCAD Mechanical|Company: Autodesk, Inc."
 90
     1024
 91
        0
280
     0
281
     0
  0
CLASS
  1
ACMBOMSTANDARDANSI
  2
AcmBOMStdANSI
  3
"Amdt_StdImp|Product Description: AutoCAD Mechanical|Company: Autodesk, Inc."
 90
     1024
 91
        0
280
     0
281
     0
  0
CLASS
  1
ACMDETAILSTANDARDANSI
  2
AmdtDetailSymStdANSI
  3
"Amdt_StdImp|Product Description: AutoCAD Mechanical|Company: Autodesk, Inc."
 90
     1024
 91
        0
280
     0
281
     0
  0
CLASS
  1
ACMSECTIONSTANDARDANSI
  2
AmdtSectionSymStdANSI
  3
"Amdt_StdImp|Product Description: AutoCAD Mechanical|Company: Autodesk, Inc."
 90
     1024
 91
        0
280
     0
281
     0
  0
CLASS
  1
ACMCENTERLINESTANDARDANSI
  2
AmdtCenterLineStdANSI
  3
"Amdt_StdImp|Product Description: AutoCAD Mechanical|Company: Autodesk, Inc."
 90
     1024
 91
        0
280
     0
281
     0
  0
CLASS
  1
ACMNOTESTANDARDANSI
  2
AmdtNoteStdANSI
  3
"Amdt_StdImp|Product Description: AutoCAD Mechanical|Company: Autodesk, Inc."
 90
     1024
 91
        0
280
     0
281
     0
  0
CLASS
  1
ACAMGHOLECHARTSTDANSI
  2
AcAmgHoleChartStdANSI
  3
AmgDim|Product Description: AutoCAD Mechanical|Company: Autodesk, Inc.
 90
     1024
 91
        0
280
     0
281
     0
  0
CLASS
  1
ACAMGFILTERDAT
  2
AcAmgFilterDat
  3
"AcadM|Product Description: AutoCAD Mechanical|Company: Autodesk, Inc."
 90
     1024
 91
        0
280
     0
281
     0
  0
CLASS
  1
AMDTFORMULAUPDATEDISPATCHER
  2
AmdtFormulaUpdateDispatcher
  3
AcMeServices
 90
     1024
 91
        0
280
     0
281
     0
  0
CLASS
  1
LAYER_INDEX
  2
AcDbLayerIndex
  3
ObjectDBX Classes
 90
        0
 91
        0
280
     0
281
     0
  0
CLASS
  1
IDBUFFER
  2
AcDbIdBuffer
  3
ObjectDBX Classes
 90
        0
 91
        0
280
     0
281
     0
  0
CLASS
  1
DICTIONARYVAR
  2
AcDbDictionaryVar
  3
ObjectDBX Classes
 90
        0
 91
       11
280
     0
281
     0
  0
CLASS
  1
DIMASSOC
  2
AcDbDimAssoc
  3
"AcDbDimAssoc|Product Desc:     AcDim ARX App For Dimension|Company:          Autodesk, Inc.|WEB Address:      www.autodesk.com"
 90
        0
 91
        0
280
     0
281
     0
  0
CLASS
  1
ACMSTANDARDISO
  2
AcmStandardISO
  3
"Amdt_StdImp|Product Description: AutoCAD Mechanical|Company: Autodesk, Inc."
 90
     1024
 91
        0
280
     0
281
     0
  0
CLASS
  1
AMDTEDGESTANDARDISO
  2
AmdtEdgeStdISO
  3
"Amdt_StdImp|Product Description: AutoCAD Mechanical|Company: Autodesk, Inc."
 90
     1024
 91
        0
280
     0
281
     0
  0
CLASS
  1
ACMSURFSTANDARDISO
  2
AcmSurfTextStdISO
  3
"Amdt_StdImp|Product Description: AutoCAD Mechanical|Company: Autodesk, Inc."
 90
     1024
 91
        0
280
     0
281
     0
  0
CLASS
  1
ACMFCFSTANDARDISO
  2
AcmFCFStdISO
  3
"Amdt_StdImp|Product Description: AutoCAD Mechanical|Company: Autodesk, Inc."
 90
     1024
 91
        0
280
     0
281
     0
  0
CLASS
  1
ACMWELDSTANDARDISO
  2
AcmWeldingStdISO
  3
"Amdt_StdImp|Product Description: AutoCAD Mechanical|Company: Autodesk, Inc."
 90
     1024
 91
        0
280
     0
281
     0
  0
CLASS
  1
ACMIDSTANDARDISO
  2
AcmIdStdISO
  3
"Amdt_StdImp|Product Description: AutoCAD Mechanical|Company: Autodesk, Inc."
 90
     1024
 91
        0
280
     0
281
     0
  0
CLASS
  1
ACMDATUMSTANDARDISO
  2
AcmDatumStdISO
  3
"Amdt_StdImp|Product Description: AutoCAD Mechanical|Company: Autodesk, Inc."
 90
     1024
 91
        0
280
     0
281
     0
  0
CLASS
  1
ACMBOMSTANDARDISO
  2
AcmBOMStdISO
  3
"Amdt_StdImp|Product Description: AutoCAD Mechanical|Company: Autodesk, Inc."
 90
     1024
 91
        0
280
     0
281
     0
  0
CLASS
  1
ACMDETAILSTANDARDISO
  2
AmdtDetailSymStdISO
  3
"Amdt_StdImp|Product Description: AutoCAD Mechanical|Company: Autodesk, Inc."
 90
     1024
 91
        0
280
     0
281
     0
  0
CLASS
  1
ACMSECTIONSTANDARDISO
  2
AmdtSectionSymStdISO
  3
"Amdt_StdImp|Product Description: AutoCAD Mechanical|Company: Autodesk, Inc."
 90
     1024
 91
        0
280
     0
281
     0
  0
CLASS
  1
ACMCENTERLINESTANDARDISO
  2
AmdtCenterLineStdISO
  3
"Amdt_StdImp|Product Description: AutoCAD Mechanical|Company: Autodesk, Inc."
 90
     1024
 91
        0
280
     0
281
     0
  0
CLASS
  1
ACMNOTESTANDARDISO
  2
AmdtNoteStdISO
  3
"Amdt_StdImp|Product Description: AutoCAD Mechanical|Company: Autodesk, Inc."
 90
     1024
 91
        0
280
     0
281
     0
  0
CLASS
  1
ACAMGHOLECHARTSTDISO
  2
AcAmgHoleChartStdISO
  3
AmgDim|Product Description: AutoCAD Mechanical|Company: Autodesk, Inc.
 90
     1024
 91
        0
280
     0
281
     0
  0
CLASS
  1
TABLESTYLE
  2
AcDbTableStyle
  3
ObjectDBX Classes
 90
     4095
 91
        1
280
     0
281
     0
  0
CLASS
  1
AM_DRAWING_MGR
  2
AcDmDwgMgr
  3
AcMechDwgViewMgmt
 90
     1024
 91
        1
280
     0
281
     0
  0
CLASS
  1
AM_DWG_DOCUMENT
  2
AcDmDwgDocument
  3
AcMechDwgViewMgmt
 90
     1024
 91
        1
280
     0
281
     0
  0
CLASS
  1
AM_DWG_SHEET
  2
AcDmSheet
  3
AcMechDwgViewMgmt
 90
     1024
 91
        2
280
     0
281
     0
  0
CLASS
  1
AM_VIEWDIMPARMAP
  2
AcDmViewDimParMap
  3
AcMechDwgViewMgmt
 90
     1024
 91
        2
280
     0
281
     0
  0
CLASS
  1
AM_DWGMGR_NAME
  2
AcDmDwgMgrName
  3
AcMechDwgViewMgmt
 90
     1024
 91
        1
280
     0
281
     0
  0
CLASS
  1
AMDTMENUSTATEMGR
  2
AmdtMenuStateMgr
  3
McadcomServices
 90
     1024
 91
        1
280
     0
281
     0
  0
CLASS
  1
AMDTMCOMMENUSTATE
  2
AmdtMcomMenuState
  3
McadcomServices
 90
     1024
 91
        1
280
     0
281
     0
  0
CLASS
  1
MAPIAMMOUDLE
  2
MApiAmModule
  3
MApiAmServices
 90
     1024
 91
        1
280
     0
281
     0
  0
CLASS
  1
AMDTADMENUSTATE
  2
AmdtAdMenuState
  3
DesignerServices
 90
     1024
 91
        1
280
     0
281
     0
  0
CLASS
  1
ADAPPL
  2
AcAdAppl
  3
DesignerServices
 90
     1024
 91
        1
280
     0
281
     0
  0
CLASS
  1
DEPMGR
  2
AcAdDepMgr
  3
DesignerServices
 90
     1024
 91
        1
280
     0
281
     0
  0
CLASS
  1
PARAMMGR
  2
AcAdParamMgr
  3
DesignerServices
 90
     1024
 91
        1
280
     0
281
     0
  0
CLASS
  1
PARAMSCOPE
  2
AcAdParamScope
  3
DesignerServices
 90
     1024
 91
        1
280
     0
281
     0
  0
CLASS
  1
NAMEDAPPL
  2
AcAdNamedAppl
  3
DesignerServices
 90
     1024
 91
        1
280
     0
281
     0
  0
CLASS
  1
AMDTDMMENUSTATE
  2
AmdtDmMenuState
  3
AcMechDwgViewMgmt
 90
     1024
 91
        1
280
     0
281
     0
  0
CLASS
  1
AMDTAMMENUSTATE
  2
AmdtAmMenuState
  3
DesignerAssemblies
 90
     1024
 91
        1
280
     0
281
     0
  0
CLASS
  1
ACAMPROJECT
  2
AcAmProject
  3
DesignerAssemblies
 90
     1024
 91
        1
280
     0
281
     0
  0
CLASS
  1
ACAMGRCOMPDEF
  2
AcAmGrCompDef
  3
DesignerAssemblies
 90
     1024
 91
        1
280
     0
281
     0
  0
CLASS
  1
ACCMCONTEXT
  2
AcCmContext
  3
DesignerAssemblies
 90
     1024
 91
        1
280
     0
281
     0
  0
CLASS
  1
ACAMCOMPDEF
  2
AcAmCompDef
  3
DesignerAssemblies
 90
     1024
 91
        1
280
     0
281
     0
  0
CLASS
  1
ACAMCOMPDEFMGR
  2
AcAmCompDefMgr
  3
DesignerAssemblies
 90
     1024
 91
        1
280
     0
281
     0
  0
CLASS
  1
AMCONTEXTMGR
  2
AcAmContextMgr
  3
DesignerAssemblies
 90
     1024
 91
        1
280
     0
281
     0
  0
CLASS
  1
ACAMCONTEXTMODELER
  2
AcAmContextModeler
  3
DesignerAssemblies
 90
     1024
 91
        1
280
     0
281
     0
  0
CLASS
  1
ACMTHREADLINESTANDARDDIN
  2
AmdtThreadLineStdDIN
  3
"Amdt_StdImp|Product Description: AutoCAD Mechanical|Company: Autodesk, Inc."
 90
     1024
 91
        1
280
     0
281
     0
  0
CLASS
  1
ACMTHREADLINESTANDARDANSI
  2
AmdtThreadLineStdANSI
  3
"Amdt_StdImp|Product Description: AutoCAD Mechanical|Company: Autodesk, Inc."
 90
     1024
 91
        0
280
     0
281
     0
  0
CLASS
  1
ACMTHREADLINESTANDARDISO
  2
AmdtThreadLineStdISO
  3
"Amdt_StdImp|Product Description: AutoCAD Mechanical|Company: Autodesk, Inc."
 90
     1024
 91
        0
280
     0
281
     0
  0
CLASS
  1
CATALOGSTATE
  2
AcAmCatalogState
  3
DesignerAssemblies
 90
     1024
 91
        1
280
     0
281
     0
  0
CLASS
  1
ACAMGRCOMPDEFSET
  2
AcAmGrCompDefSet
  3
DesignerAssemblies
 90
     1024
 91
        1
280
     0
281
     0
  0
CLASS
  1
AMDTBROWSERDBTAB
  2
AmdtBrowserDbTab
  3
McadcomServices
 90
     1024
 91
        1
280
     0
281
     0
  0
CLASS
  1
CBROWSERAPPOBJECT
  2
CBrowserAppObject
  3
McadcomServices
 90
     1024
 91
        3
280
     0
281
     0
  0
CLASS
  1
DM_PLACEHOLDER
  2
AcDmSelsetPlaceholder
  3
AcMechDwgViewMgmt
 90
     1024
 91
        1
280
     0
281
     0
  0
CLASS
  1
MATERIAL
  2
AcDbMaterial
  3
ObjectDBX Classes
 90
     1153
 91
        3
280
     0
281
     0
  0
CLASS
  1
VISUALSTYLE
  2
AcDbVisualStyle
  3
ObjectDBX Classes
 90
     4095
 91
       16
280
     0
281
     0
  0
CLASS
  1
SCALE
  2
AcDbScale
  3
ObjectDBX Classes
 90
     1153
 91
       17
280
     0
281
     0
  0
CLASS
  1
MLEADERSTYLE
  2
AcDbMLeaderStyle
  3
ACDB_MLEADERSTYLE_CLASS
 90
     4095
 91
        1
280
     0
281
     0
  0
CLASS
  1
ACRFATTGENMGR
  2
AcRfAttGeneralMgr
  3
AcAttribServices
 90
     1024
 91
        0
280
     0
281
     0
  0
CLASS
  1
ACRFOBJATTMGR
  2
AcRfObjAttGroupMgr
  3
AcAttribServices
 90
     1024
 91
        0
280
     0
281
     0
  0
CLASS
  1
ACRFMCADAPIATTHOLDER
  2
AcRfMCADAPIAttHolder
  3
AcAttribServices
 90
     1024
 91
        0
280
     0
281
     0
  0
CLASS
  1
AMDTSYSATTR
  2
AmdtSystemAttribute
  3
AcAttribServices
 90
     1024
 91
        0
280
     0
281
     0
  0
CLASS
  1
ACMTAPERSTANDARDDIN
  2
AcmTaperStdDIN
  3
"Amdt_StdImp|Product Description: AutoCAD Mechanical|Company: Autodesk, Inc."
 90
     1024
 91
        1
280
     0
281
     0
  0
CLASS
  1
ACMANOOTATIONVIEWSTANDARDDIN
  2
AmdtAnViewStdDIN
  3
"Amdt_StdImp|Product Description: AutoCAD Mechanical|Company: Autodesk, Inc."
 90
     1024
 91
        1
280
     0
281
     0
  0
CLASS
  1
ACMTAPERSTANDARDANSI
  2
AcmTaperStdANSI
  3
"Amdt_StdImp|Product Description: AutoCAD Mechanical|Company: Autodesk, Inc."
 90
     1024
 91
        0
280
     0
281
     0
  0
CLASS
  1
ACMANOOTATIONVIEWSTANDARDANSI
  2
AmdtAnViewStdANSI
  3
"Amdt_StdImp|Product Description: AutoCAD Mechanical|Company: Autodesk, Inc."
 90
     1024
 91
        0
280
     0
281
     0
  0
CLASS
  1
ACMTAPERSTANDARDISO
  2
AcmTaperStdISO
  3
"Amdt_StdImp|Product Description: AutoCAD Mechanical|Company: Autodesk, Inc."
 90
     1024
 91
        0
280
     0
281
     0
  0
CLASS
  1
ACMANOOTATIONVIEWSTANDARDISO
  2
AmdtAnViewStdISO
  3
"Amdt_StdImp|Product Description: AutoCAD Mechanical|Company: Autodesk, Inc."
 90
     1024
 91
        0
280
     0
281
     0
  0
CLASS
  1
CAMSSTRUCTBTNSTATE
  2
StructBtnState
  3
DesignerAssemblies
 90
     1024
 91
        1
280
     0
281
     0
  0
CLASS
  1
CELLSTYLEMAP
  2
AcDbCellStyleMap
  3
ObjectDBX Classes
 90
     1152
 91
        3
280
     0
281
     0
  0
CLASS
  1
SORTENTSTABLE
  2
AcDbSortentsTable
  3
ObjectDBX Classes
 90
        0
 91
        1
280
     0
281
     0
  0
CLASS
  1
AMDTEDGESTANDARDDIN13715
  2
AmdtEdgeStdDIN13715
  3
"Amdt_StdImp|Product Description: AutoCAD Mechanical|Company: Autodesk, Inc."
 90
     1024
 91
        1
280
     0
281
     0
  0
CLASS
  1
ACMSURFSTANDARDDIN2002
  2
AcmSurfTextStdDIN2002
  3
"Amdt_StdImp|Product Description: AutoCAD Mechanical|Company: Autodesk, Inc."
 90
     1024
 91
        1
280
     0
281
     0
  0
CLASS
  1
AMDTNOTETEMPLATEDB
  2
AmdtNoteTemplateDB
  3
AcmSymBB|Product Description: AutoCAD Mechanical|Company: Autodesk, Inc.
 90
     1024
 91
        6
280
     0
281
     0
  0
ENDSEC
  0
SECTION
  2
TABLES
  0
TABLE
  2
VPORT
  5
8
102
{ACAD_XDICTIONARY
360
EA25
102
}
330
0
100
AcDbSymbolTable
 70
     1
  0
VPORT
  5
2F0A
330
8
100
AcDbSymbolTableRecord
100
AcDbViewportTableRecord
  2
*Active
 70
     0
 10
0.0
 20
0.0
 11
1.0
 21
1.0
 12
194.1675783263672
 22
116.9607119322257
 13
0.0
 23
0.0
 14
2.5
 24
2.5
 15
10.0
 25
10.0
 16
0.0
 26
0.0
 36
1.0
 17
0.0
 27
0.0
 37
0.0
 40
364.3482825719384
 41
1.784158415841583
 42
50.0
 43
0.0
 44
0.0
 50
0.0
 51
0.0
 71
     0
 72
 10000
 73
     1
 74
     3
 75
     0
 76
     0
 77
     0
 78
     0
281
     0
 65
     1
110
0.0
120
0.0
130
0.0
111
1.0
121
0.0
131
0.0
112
0.0
122
1.0
132
0.0
 79
     0
146
0.0
  0
ENDTAB
  0
TABLE
  2
LTYPE
  5
5
330
0
100
AcDbSymbolTable
 70
    26
  0
LTYPE
  5
14
330
5
100
AcDbSymbolTableRecord
100
AcDbLinetypeTableRecord
  2
ByBlock
 70
     0
  3

 72
    65
 73
     0
 40
0.0
  0
LTYPE
  5
15
330
5
100
AcDbSymbolTableRecord
100
AcDbLinetypeTableRecord
  2
ByLayer
 70
     0
  3

 72
    65
 73
     0
 40
0.0
  0
LTYPE
  5
16
330
5
100
AcDbSymbolTableRecord
100
AcDbLinetypeTableRecord
  2
Continuous
 70
     0
  3
Solid line
 72
    65
 73
     0
 40
0.0
  0
LTYPE
  5
50
330
5
100
AcDbSymbolTableRecord
100
AcDbLinetypeTableRecord
  2
Amconstr
 70
     0
  3
_______________________
 72
    65
 73
     2
 40
9999.0
 49
9999.0
 74
     0
 49
0.0
 74
     0
  0
LTYPE
  5
55
330
5
100
AcDbSymbolTableRecord
100
AcDbLinetypeTableRecord
  2
Amzigzag
 70
     0
  3
/\/-/\/-/\/-/\/-/\/-/\/
 72
    65
 73
     2
 40
11.0001
 49
0.0001
 74
     4
 75
   135
340
54
 46
0.04
 50
0.0
 44
0.0
 45
0.0
 49
-11.0
 74
     0
  0
LTYPE
  5
56
330
5
100
AcDbSymbolTableRecord
100
AcDbLinetypeTableRecord
  2
AM_DIN_F_W050
 70
     0
  3
__ __ __ __ __ __ __ __ __ __ __ __ __ __ __
 72
    65
 73
     2
 40
6.25
 49
4.75
 74
     0
 49
-1.5
 74
     0
  0
LTYPE
  5
57
330
5
100
AcDbSymbolTableRecord
100
AcDbLinetypeTableRecord
  2
AM_DIN_G_W050
 70
     0
  3
____ . ____ . ____ . ____ . ____ . ____ . ____
 72
    65
 73
     4
 40
13.75
 49
9.75
 74
     0
 49
-1.5
 74
     0
 49
1.0
 74
     0
 49
-1.5
 74
     0
  0
LTYPE
  5
58
330
5
100
AcDbSymbolTableRecord
100
AcDbLinetypeTableRecord
  2
AM_DIN_K_W050
 70
     0
  3
_____ . . _____ . . _____ . . ____ .. ____
 72
    65
 73
     6
 40
16.25
 49
9.75
 74
     0
 49
-1.5
 74
     0
 49
1.0
 74
     0
 49
-1.5
 74
     0
 49
1.0
 74
     0
 49
-1.5
 74
     0
  0
LTYPE
  5
59
330
5
100
AcDbSymbolTableRecord
100
AcDbLinetypeTableRecord
  2
AM_DIN_G_W050x2
 70
     0
  3
__ . __ . __ . __ . __ . __
 72
    65
 73
     4
 40
6.875
 49
4.75
 74
     0
 49
-0.875
 74
     0
 49
0.375
 74
     0
 49
-0.875
 74
     0
  0
LTYPE
  5
5A
330
5
100
AcDbSymbolTableRecord
100
AcDbLinetypeTableRecord
  2
AM_DIN_F_W050x2
 70
     0
  3
 _ _ _ _ _ _ _ _ _ _ _ _
 72
    65
 73
     2
 40
3.125
 49
2.25
 74
     0
 49
-0.875
 74
     0
  0
LTYPE
  5
68
330
5
100
AcDbSymbolTableRecord
100
AcDbLinetypeTableRecord
  2
ACDINWELD
 70
     0
  3
_ _ _ _ _
 72
    65
 73
     2
 40
2.0
 49
2.0
 74
     0
 49
-1.0
 74
     0
  0
LTYPE
  5
69
330
5
100
AcDbSymbolTableRecord
100
AcDbLinetypeTableRecord
  2
ACDINTGB
 70
     0
  3
__ . . __ . .
 72
    65
 73
     6
 40
9.0
 49
4.0
 74
     0
 49
-1.0
 74
     0
 49
1.0
 74
     0
 49
-1.0
 74
     0
 49
1.0
 74
     0
 49
-1.0
 74
     0
  0
LTYPE
  5
6A
330
5
100
AcDbSymbolTableRecord
100
AcDbLinetypeTableRecord
  2
ACDINTGL
 70
     0
  3
_ _ _ _ _
 72
    65
 73
     2
 40
3.0
 49
2.0
 74
     0
 49
-1.0
 74
     0
  0
LTYPE
  5
6C
330
5
100
AcDbSymbolTableRecord
100
AcDbLinetypeTableRecord
  2
CENTER
 70
     0
  3
__ . __
 72
    65
 73
     4
 40
7.0
 49
4.0
 74
     0
 49
-1.0
 74
     0
 49
1.0
 74
     0
 49
-1.0
 74
     0
  0
LTYPE
  5
AFA
330
5
100
AcDbSymbolTableRecord
100
AcDbLinetypeTableRecord
  2
PHANTOM2
 70
     0
  3
Phantom (.5x) ___ _ _ ___ _ _ ___ _ _ ___ _ _
 72
    65
 73
     6
 40
1.25
 49
0.625
 74
     0
 49
-0.125
 74
     0
 49
0.125
 74
     0
 49
-0.125
 74
     0
 49
0.125
 74
     0
 49
-0.125
 74
     0
  0
LTYPE
  5
AFD
330
5
100
AcDbSymbolTableRecord
100
AcDbLinetypeTableRecord
  2
DASHED
 70
     0
  3
__ __ __ __ __ __ __ __ __ __ __ __ __ __ __ __
 72
    65
 73
     2
 40
19.05
 49
12.7
 74
     0
 49
-6.349999999999998
 74
     0
  0
LTYPE
  5
2E96
330
5
100
AcDbSymbolTableRecord
100
AcDbLinetypeTableRecord
  2
HIDDEN
 70
     0
  3
Verdeckt
 72
    65
 73
     2
 40
9.525
 49
6.349999999999999
 74
     0
 49
-3.174999999999999
 74
     0
  0
ENDTAB
  0
TABLE
  2
LAYER
  5
2
330
0
100
AcDbSymbolTable
 70
    11
  0
LAYER
  5
10
102
{ACAD_XDICTIONARY
360
2F6F
102
}
330
2
100
AcDbSymbolTableRecord
100
AcDbLayerTableRecord
  2
0
 70
     0
 62
     7
  6
Continuous
370
    -3
390
F
  0
LAYER
  5
263
330
2
100
AcDbSymbolTableRecord
100
AcDbLayerTableRecord
  2
Defpoints
 70
     0
 62
     7
  6
Continuous
290
     0
370
    -3
390
F
  0
LAYER
  5
AFE
102
{ACAD_XDICTIONARY
360
2F71
102
}
330
2
100
AcDbSymbolTableRecord
100
AcDbLayerTableRecord
  2
1
 70
     0
 62
     4
  6
Continuous
370
    -3
390
F
  0
LAYER
  5
AFF
102
{ACAD_XDICTIONARY
360
2F73
102
}
330
2
100
AcDbSymbolTableRecord
100
AcDbLayerTableRecord
  2
2
 70
     0
 62
     7
  6
Continuous
370
    -3
390
F
  0
LAYER
  5
B00
102
{ACAD_XDICTIONARY
360
2F75
102
}
330
2
100
AcDbSymbolTableRecord
100
AcDbLayerTableRecord
  2
4
 70
     0
 62
     2
  6
CENTER
370
    -3
390
F
  0
LAYER
  5
B01
102
{ACAD_XDICTIONARY
360
2F77
102
}
330
2
100
AcDbSymbolTableRecord
100
AcDbLayerTableRecord
  2
6
 70
     0
 62
     5
  6
Continuous
370
    -3
390
F
  0
LAYER
  5
B02
102
{ACAD_XDICTIONARY
360
2F79
102
}
330
2
100
AcDbSymbolTableRecord
100
AcDbLayerTableRecord
  2
SK1
 70
     0
 62
     4
  6
Continuous
370
    -3
390
F
  0
LAYER
  5
B03
102
{ACAD_XDICTIONARY
360
2F7B
102
}
330
2
100
AcDbSymbolTableRecord
100
AcDbLayerTableRecord
  2
SK2
 70
     0
 62
     7
  6
Continuous
370
    -3
390
F
  0
LAYER
  5
B04
102
{ACAD_XDICTIONARY
360
2F7D
102
}
330
2
100
AcDbSymbolTableRecord
100
AcDbLayerTableRecord
  2
SK3
 70
     0
 62
     1
  6
DASHED
370
    -3
390
F
  0
LAYER
  5
B06
102
{ACAD_XDICTIONARY
360
2F7F
102
}
330
2
100
AcDbSymbolTableRecord
100
AcDbLayerTableRecord
  2
CUT
 70
     0
 62
     1
  6
Continuous
370
    -3
390
F
  0
LAYER
  5
B07
102
{ACAD_XDICTIONARY
360
2F81
102
}
330
2
100
AcDbSymbolTableRecord
100
AcDbLayerTableRecord
  2
NOCUT
 70
     0
 62
     7
  6
Continuous
370
    -3
390
F
  0
ENDTAB
  0
TABLE
  2
STYLE
  5
3
330
0
100
AcDbSymbolTable
 70
     8
  0
STYLE
  5
11
330
3
100
AcDbSymbolTableRecord
100
AcDbTextStyleTableRecord
  2
STANDARD
 70
     0
 40
0.0
 41
1.0
 50
0.0
 71
     0
 42
3.5
  3
ISOCP.SHX
  4

  0
STYLE
  5
54
330
3
100
AcDbSymbolTableRecord
100
AcDbTextStyleTableRecord
  2

 70
     1
 40
0.0
 41
1.0
 50
0.0
 71
     0
 42
2.5
  3
ltypeshp.shx
  4

  0
STYLE
  5
67
330
3
100
AcDbSymbolTableRecord
100
AcDbTextStyleTableRecord
  2
ACDINGDT
 70
     0
 40
0.0
 41
1.0
 50
0.0
 71
     0
 42
2.5
  3
amgdt.shx
  4

  0
ENDTAB
  0
TABLE
  2
VIEW
  5
6
330
0
100
AcDbSymbolTable
 70
     0
  0
ENDTAB
  0
TABLE
  2
UCS
  5
7
330
0
100
AcDbSymbolTable
 70
     0
  0
ENDTAB
  0
TABLE
  2
APPID
  5
9
330
0
100
AcDbSymbolTable
 70
    63
  0
APPID
  5
12
330
9
100
AcDbSymbolTableRecord
100
AcDbRegAppTableRecord
  2
ACAD
 70
     0
  0
APPID
  5
2C
330
9
100
AcDbSymbolTableRecord
100
AcDbRegAppTableRecord
  2
MCAD_NO_VIS
 70
     0
  0
APPID
  5
2D
330
9
100
AcDbSymbolTableRecord
100
AcDbRegAppTableRecord
  2
ACAD_TEMP_GRAPHIC
 70
     0
  0
APPID
  5
3E
330
9
100
AcDbSymbolTableRecord
100
AcDbRegAppTableRecord
  2
ACATTRIBSERVICES
 70
     0
  0
APPID
  5
29A
330
9
100
AcDbSymbolTableRecord
100
AcDbRegAppTableRecord
  2
GENIUS_GENDIMSH_14
 70
     0
  0
APPID
  5
551
330
9
100
AcDbSymbolTableRecord
100
AcDbRegAppTableRecord
  2
GENIUS12
 70
     0
  0
APPID
  5
552
330
9
100
AcDbSymbolTableRecord
100
AcDbRegAppTableRecord
  2
GENIUS_GENOENT_13
 70
     0
  0
APPID
  5
553
330
9
100
AcDbSymbolTableRecord
100
AcDbRegAppTableRecord
  2
GENIUS_GENODEF_13
 70
     0
  0
APPID
  5
554
330
9
100
AcDbSymbolTableRecord
100
AcDbRegAppTableRecord
  2
GENIUS_GENOBJ-N-RSBK_13
 70
     0
  0
APPID
  5
555
330
9
100
AcDbSymbolTableRecord
100
AcDbRegAppTableRecord
  2
GENIUS_GENOBJ-N-DIM12_13
 70
     0
  0
APPID
  5
556
330
9
100
AcDbSymbolTableRecord
100
AcDbRegAppTableRecord
  2
GENIUS_GENSCALE_13
 70
     0
  0
APPID
  5
557
330
9
100
AcDbSymbolTableRecord
100
AcDbRegAppTableRecord
  2
GENIUS_GENCFG_13
 70
     0
  0
APPID
  5
558
330
9
100
AcDbSymbolTableRecord
100
AcDbRegAppTableRecord
  2
GENIUS_GENCFG0_13
 70
     0
  0
APPID
  5
559
330
9
100
AcDbSymbolTableRecord
100
AcDbRegAppTableRecord
  2
GENIUS_GENCFG1_13
 70
     0
  0
APPID
  5
55A
330
9
100
AcDbSymbolTableRecord
100
AcDbRegAppTableRecord
  2
GENIUS_GENCFG2_13
 70
     0
  0
APPID
  5
55B
330
9
100
AcDbSymbolTableRecord
100
AcDbRegAppTableRecord
  2
GENIUS_GENCFG3_13
 70
     0
  0
APPID
  5
55C
330
9
100
AcDbSymbolTableRecord
100
AcDbRegAppTableRecord
  2
GENIUS_GENCFG4_13
 70
     0
  0
APPID
  5
55D
330
9
100
AcDbSymbolTableRecord
100
AcDbRegAppTableRecord
  2
GENIUS_GEVCFG0_13
 70
     0
  0
APPID
  5
55E
330
9
100
AcDbSymbolTableRecord
100
AcDbRegAppTableRecord
  2
GENIUS_GENOBJ-F-SUF_13
 70
     0
  0
APPID
  5
55F
330
9
100
AcDbSymbolTableRecord
100
AcDbRegAppTableRecord
  2
GENIUS_GEFCFG0_13
 70
     0
  0
APPID
  5
560
330
9
100
AcDbSymbolTableRecord
100
AcDbRegAppTableRecord
  2
GEV_VCCNULL_SWITCH_OFF
 70
     0
  0
APPID
  5
561
330
9
100
AcDbSymbolTableRecord
100
AcDbRegAppTableRecord
  2
GENIUS_GENDTOL_13
 70
     0
  0
APPID
  5
562
330
9
100
AcDbSymbolTableRecord
100
AcDbRegAppTableRecord
  2
GENIUS_GENDIM_13
 70
     0
  0
APPID
  5
563
330
9
100
AcDbSymbolTableRecord
100
AcDbRegAppTableRecord
  2
GENIUS_GE3DTOL_13
 70
     0
  0
APPID
  5
564
330
9
100
AcDbSymbolTableRecord
100
AcDbRegAppTableRecord
  2
AD_DRAW
 70
     0
  0
APPID
  5
565
330
9
100
AcDbSymbolTableRecord
100
AcDbRegAppTableRecord
  2
ASURF_PCURVE_APPNAME
 70
     0
  0
APPID
  5
566
330
9
100
AcDbSymbolTableRecord
100
AcDbRegAppTableRecord
  2
AMG_3D2D_5.0
 70
     0
  0
APPID
  5
567
330
9
100
AcDbSymbolTableRecord
100
AcDbRegAppTableRecord
  2
DESIGNERASSEMBLIES
 70
     0
  0
APPID
  5
568
330
9
100
AcDbSymbolTableRecord
100
AcDbRegAppTableRecord
  2
ACADM_DIM_EDIT
 70
     0
  0
APPID
  5
569
330
9
100
AcDbSymbolTableRecord
100
AcDbRegAppTableRecord
  2
AMDT_DM_ADJ
 70
     0
  0
APPID
  5
56A
330
9
100
AcDbSymbolTableRecord
100
AcDbRegAppTableRecord
  2
GENIUS_GENSCREG_15
 70
     0
  0
APPID
  5
56B
330
9
100
AcDbSymbolTableRecord
100
AcDbRegAppTableRecord
  2
GENIUS_GENOBJ-N-SDF_13
 70
     0
  0
APPID
  5
56C
330
9
100
AcDbSymbolTableRecord
100
AcDbRegAppTableRecord
  2
GENIUS_GENOBJ-N-FIL_13
 70
     0
  0
APPID
  5
56D
330
9
100
AcDbSymbolTableRecord
100
AcDbRegAppTableRecord
  2
GENIUS_GENHINW_13
 70
     0
  0
APPID
  5
56E
330
9
100
AcDbSymbolTableRecord
100
AcDbRegAppTableRecord
  2
GENIUS_GENOBJ-F-TOLL_13
 70
     0
  0
APPID
  5
56F
330
9
100
AcDbSymbolTableRecord
100
AcDbRegAppTableRecord
  2
GENIUS_GENOREF_13
 70
     0
  0
APPID
  5
570
330
9
100
AcDbSymbolTableRecord
100
AcDbRegAppTableRecord
  2
GENIUS_GENOLIS_13
 70
     0
  0
APPID
  5
571
330
9
100
AcDbSymbolTableRecord
100
AcDbRegAppTableRecord
  2
GENIUS_GEFTOLC_13
 70
     0
  0
APPID
  5
572
330
9
100
AcDbSymbolTableRecord
100
AcDbRegAppTableRecord
  2
GENIUS_GENOBJ-F-TOL_13
 70
     0
  0
APPID
  5
573
330
9
100
AcDbSymbolTableRecord
100
AcDbRegAppTableRecord
  2
GENIUS_GENOBJ-N-RSSYM_13
 70
     0
  0
APPID
  5
574
330
9
100
AcDbSymbolTableRecord
100
AcDbRegAppTableRecord
  2
GENIUS_GENSYMENT_13
 70
     0
  0
APPID
  5
575
330
9
100
AcDbSymbolTableRecord
100
AcDbRegAppTableRecord
  2
GENIUS_GENSCSYM_13
 70
     0
  0
APPID
  5
B11
330
9
100
AcDbSymbolTableRecord
100
AcDbRegAppTableRecord
  2
GENIUS_GENBLLY_14
 70
     0
  0
APPID
  5
B12
330
9
100
AcDbSymbolTableRecord
100
AcDbRegAppTableRecord
  2
GENIUS_GENTRA_14
 70
     0
  0
APPID
  5
B13
330
9
100
AcDbSymbolTableRecord
100
AcDbRegAppTableRecord
  2
GENIUS_GENOBJ-N-TIT_13
 70
     0
  0
APPID
  5
B14
330
9
100
AcDbSymbolTableRecord
100
AcDbRegAppTableRecord
  2
GENIUS_GENTITLE_13
 70
     0
  0
APPID
  5
B15
330
9
100
AcDbSymbolTableRecord
100
AcDbRegAppTableRecord
  2
ACADIGES
 70
     0
  0
APPID
  5
B16
330
9
100
AcDbSymbolTableRecord
100
AcDbRegAppTableRecord
  2
GENIUS_GENOBJ-N-HTC_13
 70
     0
  0
APPID
  5
B17
330
9
100
AcDbSymbolTableRecord
100
AcDbRegAppTableRecord
  2
GENIUS_GENHATCH_13
 70
     0
  0
APPID
  5
B18
330
9
100
AcDbSymbolTableRecord
100
AcDbRegAppTableRecord
  2
GENIUS_GENOBJ-N-CRS_13
 70
     0
  0
APPID
  5
B19
330
9
100
AcDbSymbolTableRecord
100
AcDbRegAppTableRecord
  2
GENIUS_GENFIL_13
 70
     0
  0
APPID
  5
B1A
330
9
100
AcDbSymbolTableRecord
100
AcDbRegAppTableRecord
  2
GENIUS_GENOBJ-N-CHA_13
 70
     0
  0
APPID
  5
B1B
330
9
100
AcDbSymbolTableRecord
100
AcDbRegAppTableRecord
  2
GENIUS_GENOBJ-N-CEN_13
 70
     0
  0
APPID
  5
1455
330
9
100
AcDbSymbolTableRecord
100
AcDbRegAppTableRecord
  2
AD_SKETCHDIM
 70
     0
  0
APPID
  5
2AA9
330
9
100
AcDbSymbolTableRecord
100
AcDbRegAppTableRecord
  2
AMG_3D2D_5_0
 70
     0
  0
APPID
  5
2EB7
330
9
100
AcDbSymbolTableRecord
100
AcDbRegAppTableRecord
  2
ACAD_DSTYLE_DIMARC_LENGTH_SYMBOL
 70
     0
  0
APPID
  5
2EB8
330
9
100
AcDbSymbolTableRecord
100
AcDbRegAppTableRecord
  2
ACAD_DSTYLE_DIMJOGGED_JOGANGLE_SYMBOL
 70
     0
  0
APPID
  5
2F49
330
9
100
AcDbSymbolTableRecord
100
AcDbRegAppTableRecord
  2
ACAD_MLEADERVER
 70
     0
  0
APPID
  5
35F0
330
9
100
AcDbSymbolTableRecord
100
AcDbRegAppTableRecord
  2
AcadAnnotative
 70
     0
  0
APPID
  5
8CBA
330
9
100
AcDbSymbolTableRecord
100
AcDbRegAppTableRecord
  2
AcAecLayerStandard
 70
     0
  0
APPID
  5
8CBB
330
9
100
AcDbSymbolTableRecord
100
AcDbRegAppTableRecord
  2
ACAD_EXEMPT_FROM_CAD_STANDARDS
 70
     0
  0
APPID
  5
8CBC
330
9
100
AcDbSymbolTableRecord
100
AcDbRegAppTableRecord
  2
ACAD_DSTYLE_DIMINSPECT
 70
     0
  0
APPID
  5
9072
330
9
100
AcDbSymbolTableRecord
100
AcDbRegAppTableRecord
  2
ACAD_DSTYLE_DIMANGULAR_EXTENSION
 70
     0
  0
ENDTAB
  0
TABLE
  2
DIMSTYLE
  5
A
330
0
100
AcDbSymbolTable
 70
    24
100
AcDbDimStyleTable
 71
     1
340
6F
  0
DIMSTYLE
105
6F
102
{ACAD_REACTORS
330
8A76
330
EA96
102
}
330
A
100
AcDbSymbolTableRecord
100
AcDbDimStyleTableRecord
  2
AM_DIN
 70
     0
  4
"
 41
2.5
 42
0.0
 43
10.0
 44
1.0
 47
0.1
 48
0.1
 73
     0
 74
     0
 77
     1
 78
     8
 79
     2
140
3.5
141
0.0
143
0.0393701
146
0.71
147
1.5
172
     1
176
   256
177
   256
178
     2
271
     2
272
     2
283
     0
284
     8
340
11
371
    -1
372
    -1
1001
ACAD_DSTYLE_DIMJOGGED_JOGANGLE_SYMBOL
1070
   384
1040
1.570796326794896
  0
DIMSTYLE
105
70
330
A
100
AcDbSymbolTableRecord
100
AcDbDimStyleTableRecord
  2
AM_DIN$3
 70
     0
  4
"
 41
3.5
 42
0.0
 43
10.0
 44
1.0
 47
0.1
 48
0.1
 73
     0
 77
     1
 78
     8
 79
     2
140
3.5
141
0.0
143
0.0393701
146
0.71
147
1.5
176
   256
177
   256
178
     2
271
     2
272
     2
283
     0
284
     8
288
     1
289
     0
340
11
371
    -1
372
    -1
1001
ACAD_DSTYLE_DIMJOGGED_JOGANGLE_SYMBOL
1070
   384
1040
1.570796326794896
  0
DIMSTYLE
105
71
330
A
100
AcDbSymbolTableRecord
100
AcDbDimStyleTableRecord
  2
AM_DIN$4
 70
     0
  4
"
 41
3.5
 42
0.0
 43
10.0
 44
1.0
 47
0.1
 48
0.1
 73
     0
 77
     1
 78
     8
 79
     2
140
3.5
141
0.0
143
0.0393701
146
0.71
147
1.5
176
   256
177
   256
178
     2
271
     2
272
     2
283
     0
284
     8
288
     1
289
     0
340
11
371
    -1
372
    -1
1001
ACAD_DSTYLE_DIMJOGGED_JOGANGLE_SYMBOL
1070
   384
1040
1.570796326794896
  0
DIMSTYLE
105
72
330
A
100
AcDbSymbolTableRecord
100
AcDbDimStyleTableRecord
  2
AM_DIN$6
 70
     0
  4
"
 41
3.5
 42
0.0
 43
0.0
 44
1.0
 47
0.1
 48
0.1
 73
     0
 74
     0
 78
     8
 79
     2
140
3.5
141
0.0
143
0.0393701
146
0.71
147
1.5
172
     1
176
   256
177
   256
178
     2
271
     2
272
     2
283
     0
284
     8
340
11
371
    -1
372
    -1
1001
ACAD_DSTYLE_DIMJOGGED_JOGANGLE_SYMBOL
1070
   384
1040
1.570796326794896
  0
DIMSTYLE
105
73
330
A
100
AcDbSymbolTableRecord
100
AcDbDimStyleTableRecord
  2
AM_DIN$7
 70
     0
  4
"
 41
3.5
 42
0.0
 43
10.0
 44
1.0
 47
0.1
 48
0.1
 73
     0
 74
     0
 77
     1
 78
     8
 79
     2
140
3.5
141
0.0
143
0.0393701
146
0.71
147
1.5
172
     1
176
   256
177
   256
178
     2
271
     2
272
     2
283
     0
284
     8
340
11
371
    -1
372
    -1
1001
ACAD_DSTYLE_DIMJOGGED_JOGANGLE_SYMBOL
1070
   384
1040
1.570796326794896
  0
DIMSTYLE
105
74
330
A
100
AcDbSymbolTableRecord
100
AcDbDimStyleTableRecord
  2
AM_DIN$SF
 70
     0
  4
"
 41
2.5
 42
1.0
 43
10.0
 44
1.0
 47
0.1
 48
0.1
 73
     0
 74
     0
 75
     1
 76
     1
 77
     1
 78
     8
 79
     2
140
3.5
141
0.0
143
0.0393701
146
0.71
147
1.5
172
     1
176
   256
177
   256
178
     2
271
     2
272
     3
274
     4
283
     0
284
     8
340
11
371
    -1
372
    -1
1001
ACAD_DSTYLE_DIMJOGGED_JOGANGLE_SYMBOL
1070
   384
1040
1.570796326794896
  0
DIMSTYLE
105
79
330
A
100
AcDbSymbolTableRecord
100
AcDbDimStyleTableRecord
  2
AM_DIN$SH
 70
     0
  4
"
 41
2.5
 42
1.0
 43
10.0
 44
1.0
 47
0.1
 48
0.1
 73
     0
 74
     0
 75
     1
 76
     1
 77
     1
 78
     8
 79
     2
140
3.5
141
0.0
143
0.0393701
144
2.0
146
0.71
147
1.5
172
     1
173
     1
176
   256
177
   256
178
     2
271
     2
272
     3
274
     4
283
     0
284
     8
340
11
343
75
371
    -1
372
    -1
1001
ACAD_DSTYLE_DIMJOGGED_JOGANGLE_SYMBOL
1070
   384
1040
1.570796326794896
  0
DIMSTYLE
105
B0A
330
A
100
AcDbSymbolTableRecord
100
AcDbDimStyleTableRecord
  2
STANDARD
 70
     0
271
     2
272
     2
279
     2
284
     8
285
     8
286
     8
340
11
  0
DIMSTYLE
105
8CB9
102
{ACAD_REACTORS
330
8EF5
330
8F78
330
8FDA
330
E8E7
330
E91A
102
}
330
A
100
AcDbSymbolTableRecord
100
AcDbDimStyleTableRecord
  2
AM_DIN$0
 70
     0
  4
"
 41
2.5
 42
0.0
 43
10.0
 44
1.0
 47
0.1
 48
0.1
 73
     0
 74
     0
 77
     1
 78
     8
140
3.5
141
0.0
143
0.0393701
146
0.71
147
1.5
172
     1
176
   256
177
   256
178
     2
271
     2
272
     2
279
     2
284
     8
285
     8
286
     8
340
11
  0
DIMSTYLE
105
9040
102
{ACAD_REACTORS
330
8A76
330
E94C
102
}
330
A
100
AcDbSymbolTableRecord
100
AcDbDimStyleTableRecord
  2
AM_DIN$2
 70
     0
  4
"
 41
2.5
 42
0.0
 43
10.0
 44
1.0
 47
0.1
 48
0.1
 73
     0
 74
     0
 77
     1
 78
     8
 79
     2
140
3.5
141
0.0
143
0.0393701
146
0.71
147
1.5
172
     1
176
   256
177
   256
178
     2
271
     2
272
     2
283
     0
284
     8
340
11
371
    -1
372
    -1
1001
ACAD_DSTYLE_DIMJOGGED_JOGANGLE_SYMBOL
1070
   384
1040
1.570796326794896
  0
ENDTAB
  0
TABLE
  2
BLOCK_RECORD
  5
1
330
0
100
AcDbSymbolTable
 70
    11
  0
BLOCK_RECORD
  5
1F
102
{ACAD_XDICTIONARY
360
1F1
102
}
330
1
100
AcDbSymbolTableRecord
100
AcDbBlockTableRecord
  2
*Model_Space
340
22
  0
BLOCK_RECORD
  5
1B
330
1
100
AcDbSymbolTableRecord
100
AcDbBlockTableRecord
  2
*Paper_Space
340
1E
  0
BLOCK_RECORD
  5
23
330
1
100
AcDbSymbolTableRecord
100
AcDbBlockTableRecord
  2
*Paper_Space0
340
26
  0
BLOCK_RECORD
  5
75
330
1
100
AcDbSymbolTableRecord
100
AcDbBlockTableRecord
  2
GENAXEH
340
0
  0
BLOCK_RECORD
  5
8A77
330
1
100
AcDbSymbolTableRecord
100
AcDbBlockTableRecord
  2
*D2
340
0
  0
BLOCK_RECORD
  5
8EF6
330
1
100
AcDbSymbolTableRecord
100
AcDbBlockTableRecord
  2
*D3
340
0
  0
BLOCK_RECORD
  5
8F79
330
1
100
AcDbSymbolTableRecord
100
AcDbBlockTableRecord
  2
*D4
340
0
  0
BLOCK_RECORD
  5
8FDB
330
1
100
AcDbSymbolTableRecord
100
AcDbBlockTableRecord
  2
*D5
340
0
  0
BLOCK_RECORD
  5
E8E8
330
1
100
AcDbSymbolTableRecord
100
AcDbBlockTableRecord
  2
*D6
340
0
  0
BLOCK_RECORD
  5
E91B
330
1
100
AcDbSymbolTableRecord
100
AcDbBlockTableRecord
  2
*D7
340
0
  0
BLOCK_RECORD
  5
E94D
330
1
100
AcDbSymbolTableRecord
100
AcDbBlockTableRecord
  2
*D8
340
0
  0
ENDTAB
  0
ENDSEC
  0
SECTION
  2
BLOCKS
  0
BLOCK
  5
20
330
1F
100
AcDbEntity
  8
0
100
AcDbBlockBegin
  2
*Model_Space
 70
     0
 10
0.0
 20
0.0
 30
0.0
  3
*Model_Space
  1

  0
ENDBLK
  5
21
330
1F
100
AcDbEntity
  8
0
100
AcDbBlockEnd
  0
BLOCK
  5
1C
330
1B
100
AcDbEntity
 67
     1
  8
0
100
AcDbBlockBegin
  2
*Paper_Space
 70
     0
 10
0.0
 20
0.0
 30
0.0
  3
*Paper_Space
  1

  0
ENDBLK
  5
1D
330
1B
100
AcDbEntity
 67
     1
  8
0
100
AcDbBlockEnd
  0
BLOCK
  5
24
330
23
100
AcDbEntity
 67
     1
  8
0
100
AcDbBlockBegin
  2
*Paper_Space0
 70
     0
 10
0.0
 20
0.0
 30
0.0
  3
*Paper_Space0
  1

  0
ENDBLK
  5
25
330
23
100
AcDbEntity
 67
     1
  8
0
100
AcDbBlockEnd
  0
BLOCK
  5
77
330
75
100
AcDbEntity
  8
0
100
AcDbBlockBegin
  2
GENAXEH
 70
     0
 10
0.0
 20
0.0
 30
0.0
  3
GENAXEH
  1

  0
LINE
  5
76
330
75
100
AcDbEntity
  8
0
100
AcDbLine
 10
-1.0
 20
0.0
 30
0.0
 11
1.0
 21
0.0
 31
0.0
  0
ENDBLK
  5
78
330
75
100
AcDbEntity
  8
0
100
AcDbBlockEnd
  0
BLOCK
  5
8A78
330
8A77
100
AcDbEntity
  8
0
100
AcDbBlockBegin
  2
*D2
 70
     1
 10
0.0
 20
0.0
 30
0.0
  3
*D2
  1

  0
LINE
  5
EAC3
330
8A77
100
AcDbEntity
  8
SK2
100
AcDbLine
 10
-0.0000000000001705
 20
-13.49999999999986
 30
0.0
 11
-14.38609939715872
 21
-13.49999999999985
 31
0.0
  0
LINE
  5
EAC4
330
8A77
100
AcDbEntity
  8
SK2
100
AcDbLine
 10
-0.0000000000001705
 20
13.50000000000014
 30
0.0
 11
-14.38609939715871
 21
13.50000000000014
 31
0.0
  0
LINE
  5
EAC5
330
8A77
100
AcDbEntity
  8
SK2
100
AcDbLine
 10
-13.38609939715872
 20
-10.99999999999985
 30
0.0
 11
-13.38609939715872
 21
11.00000000000014
 31
0.0
  0
SOLID
  5
EAC6
330
8A77
100
AcDbEntity
  8
SK2
100
AcDbTrace
 10
-13.80276606382539
 20
-10.99999999999985
 30
0.0
 11
-12.96943273049205
 21
-10.99999999999985
 31
0.0
 12
-13.38609939715872
 22
-13.49999999999985
 32
0.0
 13
-13.38609939715872
 23
-13.49999999999985
 33
0.0
  0
SOLID
  5
EAC7
330
8A77
100
AcDbEntity
  8
SK2
100
AcDbTrace
 10
-13.80276606382538
 20
11.00000000000014
 30
0.0
 11
-12.96943273049205
 21
11.00000000000014
 31
0.0
 12
-13.38609939715871
 22
13.50000000000014
 32
0.0
 13
-13.38609939715871
 23
13.50000000000014
 33
0.0
  0
MTEXT
  5
EAC8
330
8A77
100
AcDbEntity
  8
SK2
 62
     2
100
AcDbMText
 10
-16.63644388534769
 20
0.0000000000001433
 30
0.0
 40
3.5
 41
0.0
 71
     5
 72
     1
  1
%%c27
 11
0.0000000000000001
 21
1.0
 31
0.0
 73
     1
 44
1.0
  0
POINT
  5
EAC9
330
8A77
100
AcDbEntity
  8
Defpoints
 62
     0
100
AcDbPoint
 10
-0.0000000000001705
 20
-13.49999999999986
 30
0.0
  0
POINT
  5
EACA
330
8A77
100
AcDbEntity
  8
Defpoints
 62
     0
100
AcDbPoint
 10
-0.0000000000001705
 20
13.50000000000014
 30
0.0
  0
POINT
  5
EACB
330
8A77
100
AcDbEntity
  8
Defpoints
 62
     0
100
AcDbPoint
 10
-13.38609939715871
 20
13.50000000000014
 30
0.0
  0
ENDBLK
  5
8A79
330
8A77
100
AcDbEntity
  8
0
100
AcDbBlockEnd
  0
BLOCK
  5
8EF7
330
8EF6
100
AcDbEntity
  8
0
100
AcDbBlockBegin
  2
*D3
 70
     1
 10
0.0
 20
0.0
 30
0.0
  3
*D3
  1

  0
LINE
  5
EACC
330
8EF6
100
AcDbEntity
  8
2
370
    -2
100
AcDbLine
 10
49.99999999999977
 20
17.4999999999998
 30
0.0
 11
67.09601900593765
 21
17.4999999999998
 31
0.0
  0
LINE
  5
EACD
330
8EF6
100
AcDbEntity
  8
2
370
    -2
100
AcDbLine
 10
49.9999999999996
 20
-17.5000000000002
 30
0.0
 11
67.09601900593765
 21
-17.5000000000002
 31
0.0
  0
LINE
  5
EACE
330
8EF6
100
AcDbEntity
  8
2
370
    -2
100
AcDbLine
 10
66.09601900593765
 20
14.9999999999998
 30
0.0
 11
66.09601900593765
 21
-15.0000000000002
 31
0.0
  0
SOLID
  5
EACF
330
8EF6
100
AcDbEntity
  8
2
100
AcDbTrace
 10
65.67935233927098
 20
14.9999999999998
 30
0.0
 11
66.51268567260432
 21
14.9999999999998
 31
0.0
 12
66.09601900593765
 22
17.4999999999998
 32
0.0
 13
66.09601900593765
 23
17.4999999999998
 33
0.0
  0
SOLID
  5
EAD0
330
8EF6
100
AcDbEntity
  8
2
100
AcDbTrace
 10
65.67935233927098
 20
-15.0000000000002
 30
0.0
 11
66.51268567260432
 21
-15.0000000000002
 31
0.0
 12
66.09601900593765
 22
-17.5000000000002
 32
0.0
 13
66.09601900593765
 23
-17.5000000000002
 33
0.0
  0
MTEXT
  5
EAD1
330
8EF6
100
AcDbEntity
  8
2
 62
     2
100
AcDbMText
 10
62.84601900593765
 20
-0.0000000000001919
 30
0.0
 40
3.5
 41
0.0
 71
     5
 72
     1
  1
\A1;%%c35
 11
0.0000000000000001
 21
1.0
 31
0.0
 73
     1
 44
1.0
  0
POINT
  5
EAD2
330
8EF6
100
AcDbEntity
  8
Defpoints
 62
     0
100
AcDbPoint
 10
49.99999999999977
 20
17.4999999999998
 30
0.0
  0
POINT
  5
EAD3
330
8EF6
100
AcDbEntity
  8
Defpoints
 62
     0
100
AcDbPoint
 10
49.9999999999996
 20
-17.5000000000002
 30
0.0
  0
POINT
  5
EAD4
330
8EF6
100
AcDbEntity
  8
Defpoints
 62
     0
100
AcDbPoint
 10
66.09601900593765
 20
-17.5000000000002
 30
0.0
  0
ENDBLK
  5
8EF8
330
8EF6
100
AcDbEntity
  8
0
100
AcDbBlockEnd
  0
BLOCK
  5
8F7A
330
8F79
100
AcDbEntity
  8
0
100
AcDbBlockBegin
  2
*D4
 70
     1
 10
0.0
 20
0.0
 30
0.0
  3
*D4
  1

  0
LINE
  5
EAD5
330
8F79
100
AcDbEntity
  8
SK2
370
    -2
100
AcDbLine
 10
2.999999999999772
 20
34.99999999999989
 30
0.0
 11
-27.80483419381254
 21
34.99999999999989
 31
0.0
  0
LINE
  5
EAD6
330
8F79
100
AcDbEntity
  8
SK2
370
    -2
100
AcDbLine
 10
2.999999999999772
 20
-35.00000000000017
 30
0.0
 11
-27.80483419381255
 21
-35.00000000000016
 31
0.0
  0
LINE
  5
EAD7
330
8F79
100
AcDbEntity
  8
SK2
370
    -2
100
AcDbLine
 10
-26.80483419381254
 20
32.49999999999989
 30
0.0
 11
-26.80483419381256
 21
-32.50000000000016
 31
0.0
  0
SOLID
  5
EAD8
330
8F79
100
AcDbEntity
  8
SK2
100
AcDbTrace
 10
-27.22150086047921
 20
32.49999999999989
 30
0.0
 11
-26.38816752714587
 21
32.49999999999989
 31
0.0
 12
-26.80483419381254
 22
34.99999999999989
 32
0.0
 13
-26.80483419381254
 23
34.99999999999989
 33
0.0
  0
SOLID
  5
EAD9
330
8F79
100
AcDbEntity
  8
SK2
100
AcDbTrace
 10
-27.22150086047922
 20
-32.50000000000016
 30
0.0
 11
-26.38816752714589
 21
-32.50000000000016
 31
0.0
 12
-26.80483419381256
 22
-35.00000000000016
 32
0.0
 13
-26.80483419381256
 23
-35.00000000000016
 33
0.0
  0
MTEXT
  5
EADA
330
8F79
100
AcDbEntity
  8
SK2
 62
     2
100
AcDbMText
 10
-30.05483419381255
 20
-0.0000000000001401
 30
0.0
 40
3.5
 41
0.0
 71
     5
 72
     1
  1
\A1;%%c70
 11
0.0000000000000001
 21
1.0
 31
0.0
 73
     1
 44
1.0
  0
POINT
  5
EADB
330
8F79
100
AcDbEntity
  8
Defpoints
 62
     0
100
AcDbPoint
 10
2.999999999999772
 20
34.99999999999989
 30
0.0
  0
POINT
  5
EADC
330
8F79
100
AcDbEntity
  8
Defpoints
 62
     0
100
AcDbPoint
 10
2.999999999999772
 20
-35.00000000000017
 30
0.0
  0
POINT
  5
EADD
330
8F79
100
AcDbEntity
  8
Defpoints
 62
     0
100
AcDbPoint
 10
-26.80483419381256
 20
-35.00000000000016
 30
0.0
  0
ENDBLK
  5
8F7B
330
8F79
100
AcDbEntity
  8
0
100
AcDbBlockEnd
  0
BLOCK
  5
8FDC
330
8FDB
100
AcDbEntity
  8
0
100
AcDbBlockBegin
  2
*D5
 70
     1
 10
0.0
 20
0.0
 30
0.0
  3
*D5
  1

  0
LINE
  5
EADE
330
8FDB
100
AcDbEntity
  8
2
370
    -2
100
AcDbLine
 10
49.99999999999977
 20
17.4999999999998
 30
0.0
 11
49.99999999999978
 21
90.99999999999988
 31
0.0
  0
LINE
  5
EADF
330
8FDB
100
AcDbEntity
  8
2
370
    -2
100
AcDbLine
 10
-0.0000000000002274
 20
31.99999999999989
 30
0.0
 11
-0.0000000000002238
 21
90.99999999999988
 31
0.0
  0
LINE
  5
EAE0
330
8FDB
100
AcDbEntity
  8
2
370
    -2
100
AcDbLine
 10
47.49999999999977
 20
89.99999999999989
 30
0.0
 11
2.499999999999776
 21
89.99999999999989
 31
0.0
  0
SOLID
  5
EAE1
330
8FDB
100
AcDbEntity
  8
2
100
AcDbTrace
 10
47.49999999999977
 20
90.41666666666655
 30
0.0
 11
47.49999999999977
 21
89.58333333333321
 31
0.0
 12
49.99999999999978
 22
89.99999999999989
 32
0.0
 13
49.99999999999978
 23
89.99999999999989
 33
0.0
  0
SOLID
  5
EAE2
330
8FDB
100
AcDbEntity
  8
2
100
AcDbTrace
 10
2.499999999999776
 20
90.41666666666655
 30
0.0
 11
2.499999999999776
 21
89.58333333333321
 31
0.0
 12
-0.0000000000002238
 22
89.99999999999989
 32
0.0
 13
-0.0000000000002238
 23
89.99999999999989
 33
0.0
  0
MTEXT
  5
EAE3
330
8FDB
100
AcDbEntity
  8
2
 62
     2
100
AcDbMText
 10
24.99999999999978
 20
93.24999999999988
 30
0.0
 40
3.5
 41
0.0
 71
     5
 72
     1
  1
\A1;50
 73
     1
 44
1.0
  0
POINT
  5
EAE4
330
8FDB
100
AcDbEntity
  8
Defpoints
 62
     0
100
AcDbPoint
 10
49.99999999999977
 20
17.4999999999998
 30
0.0
  0
POINT
  5
EAE5
330
8FDB
100
AcDbEntity
  8
Defpoints
 62
     0
100
AcDbPoint
 10
-0.0000000000002274
 20
31.99999999999989
 30
0.0
  0
POINT
  5
EAE6
330
8FDB
100
AcDbEntity
  8
Defpoints
 62
     0
100
AcDbPoint
 10
-0.0000000000002238
 20
89.99999999999989
 30
0.0
  0
ENDBLK
  5
8FDD
330
8FDB
100
AcDbEntity
  8
0
100
AcDbBlockEnd
  0
BLOCK
  5
E8E9
330
E8E8
100
AcDbEntity
  8
0
100
AcDbBlockBegin
  2
*D6
 70
     1
 10
0.0
 20
0.0
 30
0.0
  3
*D6
  1

  0
LINE
  5
EAE7
330
E8E8
100
AcDbEntity
  8
2
370
    -2
100
AcDbLine
 10
32.43648920019115
 20
47.74999999999987
 30
0.0
 11
87.79493851313828
 21
47.74999999999987
 31
0.0
  0
LINE
  5
EAE8
330
E8E8
100
AcDbEntity
  8
2
370
    -2
100
AcDbLine
 10
32.4364829182543
 20
-47.75000000000011
 30
0.0
 11
87.79493851313826
 21
-47.75000000000012
 31
0.0
  0
LINE
  5
EAE9
330
E8E8
100
AcDbEntity
  8
2
370
    -2
100
AcDbLine
 10
86.79493851313829
 20
45.24999999999987
 30
0.0
 11
86.79493851313827
 21
-45.25000000000012
 31
0.0
  0
SOLID
  5
EAEA
330
E8E8
100
AcDbEntity
  8
2
100
AcDbTrace
 10
86.37827184647163
 20
45.24999999999987
 30
0.0
 11
87.21160517980496
 21
45.24999999999987
 31
0.0
 12
86.79493851313829
 22
47.74999999999987
 32
0.0
 13
86.79493851313829
 23
47.74999999999987
 33
0.0
  0
SOLID
  5
EAEB
330
E8E8
100
AcDbEntity
  8
2
100
AcDbTrace
 10
86.37827184647159
 20
-45.25000000000012
 30
0.0
 11
87.21160517980493
 21
-45.25000000000012
 31
0.0
 12
86.79493851313827
 22
-47.75000000000012
 32
0.0
 13
86.79493851313827
 23
-47.75000000000012
 33
0.0
  0
MTEXT
  5
EAEC
330
E8E8
100
AcDbEntity
  8
2
 62
     2
100
AcDbMText
 10
83.54493851313828
 20
-0.0000000000001151
 30
0.0
 40
3.5
 41
0.0
 71
     5
 72
     1
  1
\A1;%%c95.5
 11
0.0000000000000001
 21
1.0
 31
0.0
 73
     1
 44
1.0
  0
POINT
  5
EAED
330
E8E8
100
AcDbEntity
  8
Defpoints
 62
     0
100
AcDbPoint
 10
32.43648920019115
 20
47.74999999999987
 30
0.0
  0
POINT
  5
EAEE
330
E8E8
100
AcDbEntity
  8
Defpoints
 62
     0
100
AcDbPoint
 10
32.4364829182543
 20
-47.75000000000011
 30
0.0
  0
POINT
  5
EAEF
330
E8E8
100
AcDbEntity
  8
Defpoints
 62
     0
100
AcDbPoint
 10
86.79493851313827
 20
-47.75000000000012
 30
0.0
  0
ENDBLK
  5
E8EA
330
E8E8
100
AcDbEntity
  8
0
100
AcDbBlockEnd
  0
BLOCK
  5
E91C
330
E91B
100
AcDbEntity
  8
0
100
AcDbBlockBegin
  2
*D7
 70
     1
 10
0.0
 20
0.0
 30
0.0
  3
*D7
  1

  0
LINE
  5
EAF0
330
E91B
100
AcDbEntity
  8
2
370
    -2
100
AcDbLine
 10
32.59999999999978
 20
47.46838204892607
 30
0.0
 11
32.59999999999978
 21
60.99999999999985
 31
0.0
  0
LINE
  5
EAF1
330
E91B
100
AcDbEntity
  8
2
370
    -2
100
AcDbLine
 10
49.99999999999977
 20
17.4999999999998
 30
0.0
 11
49.99999999999977
 21
60.99999999999985
 31
0.0
  0
LINE
  5
EAF2
330
E91B
100
AcDbEntity
  8
2
370
    -2
100
AcDbLine
 10
35.09999999999978
 20
59.99999999999985
 30
0.0
 11
47.49999999999977
 21
59.99999999999985
 31
0.0
  0
SOLID
  5
EAF3
330
E91B
100
AcDbEntity
  8
2
100
AcDbTrace
 10
35.09999999999978
 20
60.41666666666651
 30
0.0
 11
35.09999999999978
 21
59.58333333333318
 31
0.0
 12
32.59999999999978
 22
59.99999999999985
 32
0.0
 13
32.59999999999978
 23
59.99999999999985
 33
0.0
  0
SOLID
  5
EAF4
330
E91B
100
AcDbEntity
  8
2
100
AcDbTrace
 10
47.49999999999977
 20
60.41666666666651
 30
0.0
 11
47.49999999999977
 21
59.58333333333318
 31
0.0
 12
49.99999999999977
 22
59.99999999999985
 32
0.0
 13
49.99999999999977
 23
59.99999999999985
 33
0.0
  0
MTEXT
  5
EAF5
330
E91B
100
AcDbEntity
  8
2
 62
     2
100
AcDbMText
 10
41.29999999999977
 20
63.24999999999985
 30
0.0
 40
3.5
 41
0.0
 71
     5
 72
     1
  1
\A1;17.4
 73
     1
 44
1.0
  0
POINT
  5
EAF6
330
E91B
100
AcDbEntity
  8
Defpoints
 62
     0
100
AcDbPoint
 10
32.59999999999978
 20
47.46838204892607
 30
0.0
  0
POINT
  5
EAF7
330
E91B
100
AcDbEntity
  8
Defpoints
 62
     0
100
AcDbPoint
 10
49.99999999999977
 20
17.4999999999998
 30
0.0
  0
POINT
  5
EAF8
330
E91B
100
AcDbEntity
  8
Defpoints
 62
     0
100
AcDbPoint
 10
49.99999999999977
 20
59.99999999999985
 30
0.0
  0
ENDBLK
  5
E91D
330
E91B
100
AcDbEntity
  8
0
100
AcDbBlockEnd
  0
BLOCK
  5
E94E
330
E94D
100
AcDbEntity
  8
0
100
AcDbBlockBegin
  2
*D8
 70
     1
 10
0.0
 20
0.0
 30
0.0
  3
*D8
  1

  0
LINE
  5
EAF9
330
E94D
100
AcDbEntity
  8
2
100
AcDbLine
 10
49.99999999999977
 20
52.08885392533444
 30
0.0
 11
49.99999999999971
 21
77.81891980036362
 31
0.0
  0
LINE
  5
EAFA
330
E94D
100
AcDbEntity
  8
2
100
AcDbLine
 10
32.43660981187299
 20
47.74999999999987
 30
0.0
 11
19.71317754613431
 21
69.66397516903054
 31
0.0
  0
ARC
  5
EAFB
330
E94D
100
AcDbEntity
  8
2
100
AcDbCircle
 10
49.99999999999978
 20
17.5000101837291
 30
0.0
 40
59.31890961663451
100
AcDbArc
 50
92.41491377344924
 51
117.7248852298301
  0
SOLID
  5
EAFC
330
E94D
100
AcDbEntity
  8
2
100
AcDbTrace
 10
47.49177490214728
 20
77.18281259998228
 30
0.0
 11
47.50933535080353
 21
76.34966430880751
 31
0.0
 12
49.99999999999971
 22
76.8189198003636
 32
0.0
 13
49.99999999999971
 23
76.8189198003636
 33
0.0
  0
SOLID
  5
EAFD
330
E94D
100
AcDbEntity
  8
2
100
AcDbTrace
 10
22.60484161750908
 20
69.64395037081475
 30
0.0
 11
22.20169454641191
 21
70.37327669250498
 31
0.0
 12
20.21528911688978
 22
68.79917231836834
 32
0.0
 13
20.21528911688978
 23
68.79917231836834
 33
0.0
  0
MTEXT
  5
EAFE
330
E94D
100
AcDbEntity
  8
2
 62
     2
100
AcDbMText
 10
33.732255003296
 20
77.91713460501215
 30
0.0
 40
3.5
 41
0.0
 71
     5
 72
     1
  1
30\U+00B0
 11
0.9656093544136275
 21
0.2599972589642002
 31
0.0
 73
     1
 44
1.0
  0
POINT
  5
EAFF
330
E94D
100
AcDbEntity
  8
Defpoints
 62
     0
100
AcDbPoint
 10
39.6518706925346
 20
75.90933527777922
 30
0.0
  0
POINT
  5
EB00
330
E94D
100
AcDbEntity
  8
Defpoints
 62
     0
100
AcDbPoint
 10
32.43660981187299
 20
47.74999999999987
 30
0.0
  0
POINT
  5
EB01
330
E94D
100
AcDbEntity
  8
Defpoints
 62
     0
100
AcDbPoint
 10
49.99999999999977
 20
52.08885392533444
 30
0.0
  0
POINT
  5
EB02
330
E94D
100
AcDbEntity
  8
Defpoints
 62
     0
100
AcDbPoint
 10
49.99999999999977
 20
42.52210095338933
 30
0.0
  0
POINT
  5
EB03
330
E94D
100
AcDbEntity
  8
Defpoints
 62
     0
100
AcDbPoint
 10
49.94641016151352
 20
17.59230968007353
 30
0.0
  0
ENDBLK
  5
E94F
330
E94D
100
AcDbEntity
  8
0
100
AcDbBlockEnd
  0
ENDSEC
  0
SECTION
  2
ENTITIES
  0
TEXT
  5
894B
330
1F
100
AcDbEntity
  8
6
100
AcDbText
 10
52.3820319550698
 20
22.96515548672437
 30
0.0
 40
2.5
  1
BOMT130404
100
AcDbText
  0
LINE
  5
8A68
330
1F
100
AcDbEntity
  8
SK3
 48
0.5
100
AcDbLine
 10
21.99999999999972
 20
-13.49999999999986
 30
0.0
 11
21.99999999999972
 21
13.50000000000014
 31
0.0
  0
LINE
  5
8A69
330
1F
100
AcDbEntity
  8
SK3
 48
0.5
100
AcDbLine
 10
-0.0000000000001705
 20
-13.49999999999986
 30
0.0
 11
21.99999999999972
 21
-13.49999999999986
 31
0.0
  0
LINE
  5
8A6A
330
1F
100
AcDbEntity
  8
SK3
 48
0.5
100
AcDbLine
 10
48.79999999999996
 20
-10.00000000000306
 30
0.0
 11
32.99999999999972
 21
-10.00000000000293
 31
0.0
  0
LINE
  5
8A6B
330
1F
100
AcDbEntity
  8
SK3
 48
0.5
100
AcDbLine
 10
32.99999999999972
 20
-10.00000000000293
 30
0.0
 11
32.99999999999972
 21
10.00000000000327
 31
0.0
  0
LINE
  5
8A6C
330
1F
100
AcDbEntity
  8
SK3
 48
0.5
100
AcDbLine
 10
21.99999999999972
 20
-6.499999999999857
 30
0.0
 11
32.99999999999972
 21
-6.499999999999857
 31
0.0
  0
LINE
  5
8A6D
330
1F
100
AcDbEntity
  8
SK3
 48
0.5
100
AcDbLine
 10
32.99999999999972
 20
10.00000000000327
 30
0.0
 11
48.79999999999995
 21
10.00000000000321
 31
0.0
  0
LINE
  5
8A6E
330
1F
100
AcDbEntity
  8
SK3
 48
0.5
100
AcDbLine
 10
21.99999999999972
 20
6.500000000000142
 30
0.0
 11
32.9999999999996
 21
6.500000000000085
 31
0.0
  0
LINE
  5
8A6F
330
1F
100
AcDbEntity
  8
SK3
 48
0.5
100
AcDbLine
 10
21.99999999999972
 20
13.50000000000014
 30
0.0
 11
-0.0000000000002274
 21
13.50000000000011
 31
0.0
  0
LINE
  5
8A70
330
1F
100
AcDbEntity
  8
SK1
100
AcDbLine
 10
-2.262823140784234
 20
-2.262823140784178
 30
0.0
 11
2.262823140784178
 21
2.262823140784206
 31
0.0
  0
CIRCLE
  5
8A71
330
1F
100
AcDbEntity
  8
SK1
100
AcDbCircle
 10
0.0
 20
0.0
 30
0.0
 40
3.200115174948665
  0
LINE
  5
8A72
330
1F
100
AcDbEntity
  8
1
100
AcDbLine
 10
6.999999999999829
 20
6.200000000000159
 30
0.0
 11
-0.0000000000001705
 21
6.200000000000159
 31
0.0
  0
LINE
  5
8A73
330
1F
100
AcDbEntity
  8
1
100
AcDbLine
 10
-0.0000000000001705
 20
-6.199999999999846
 30
0.0
 11
6.999999999999829
 21
-6.199999999999903
 31
0.0
  0
LINE
  5
8A74
330
1F
100
AcDbEntity
  8
SK1
100
AcDbLine
 10
-2.262823140784234
 20
2.262823140784178
 30
0.0
 11
2.262823140784121
 21
-2.262823140784178
 31
0.0
  0
LINE
  5
8A75
330
1F
100
AcDbEntity
  8
1
100
AcDbLine
 10
6.999999999999829
 20
-6.199999999999903
 30
0.0
 11
6.999999999999829
 21
6.200000000000159
 31
0.0
  0
DIMENSION
  5
8A76
330
1F
100
AcDbEntity
  8
SK2
100
AcDbDimension
  2
*D2
 10
-13.38609939715871
 20
13.50000000000014
 30
0.0
 11
-16.63644388534769
 21
0.0000000000001433
 31
0.0
 70
    32
  1
%%c<>
 71
     5
 42
27.0
  3
AM_DIN
100
AcDbAlignedDimension
 13
-0.0000000000001705
 23
-13.49999999999986
 33
0.0
 14
-0.0000000000001705
 24
13.50000000000014
 34
0.0
 50
270.0
100
AcDbRotatedDimension
  0
LINE
  5
8E52
330
1F
100
AcDbEntity
  8
4
100
AcDbLine
 10
52.51703724361641
 20
-0.000000000000199
 30
0.0
 11
0.0
 21
0.0
 31
0.0
  0
CIRCLE
  5
8E56
330
1F
100
AcDbEntity
  8
SK1
100
AcDbCircle
 10
49.99999999999977
 20
17.4999999999998
 30
0.0
 40
0.4637693698488208
  0
LINE
  5
8E58
330
1F
100
AcDbEntity
  8
1
100
AcDbLine
 10
49.79999999999977
 20
17.04589951855983
 30
0.0
 11
48.41435935394471
 21
16.24589951855982
 31
0.0
  0
LINE
  5
8E59
330
1F
100
AcDbEntity
  8
1
100
AcDbLine
 10
48.41435935394471
 20
16.24589951855982
 30
0.0
 11
47.17388885869389
 21
16.3944574416244
 31
0.0
  0
LINE
  5
8E5A
330
1F
100
AcDbEntity
  8
1
100
AcDbLine
 10
47.17388885869381
 20
16.39445744162432
 30
0.0
 11
42.69483960612525
 21
14.73760681302443
 31
0.0
  0
ARC
  5
8E5B
330
1F
100
AcDbEntity
  8
1
100
AcDbCircle
 10
49.59999999999977
 20
17.39230968007352
 30
0.0
 40
0.4
100
AcDbArc
 50
299.999999999998
 51
30.00000000000162
1001
GENIUS_GENOBJ-N-FIL_13
1002
{
1000
OWNER
1000
GEN
1002
}
1001
GENIUS_GENODEF_13
1002
{
1000
HIER
1070
     0
1002
}
1002
{
1000
MANEDIT
1070
     0
1002
}
1002
{
1000
NOSEL
1070
     0
1002
}
1002
{
1000
BEHIND
1070
     0
1002
}
1002
{
1000
OTHER
1070
     0
1002
}
1002
{
1000
REACTOR
1002
}
  0
ARC
  5
8E5C
330
1F
100
AcDbEntity
  8
1
100
AcDbCircle
 10
42.55606534549591
 20
15.11276238686929
 30
0.0
 40
0.4
100
AcDbArc
 50
210.0000000000015
 51
290.3000000000003
1001
GENIUS_GENODEF_13
1002
{
1000
HIER
1070
     0
1002
}
1002
{
1000
MANEDIT
1070
     0
1002
}
1002
{
1000
NOSEL
1070
     0
1002
}
1002
{
1000
BEHIND
1070
     0
1002
}
1002
{
1000
OTHER
1070
     0
1002
}
1002
{
1000
REACTOR
1002
}
1001
GENIUS_GENOBJ-N-FIL_13
1002
{
1000
OWNER
1000
GEN
1002
}
  0
CIRCLE
  5
8E5D
330
1F
100
AcDbEntity
  8
1
100
AcDbCircle
 10
42.91998803830016
 20
21.72242979290528
 30
0.0
 40
2.749999999999976
  0
LINE
  5
8E5E
330
1F
100
AcDbEntity
  8
1
100
AcDbLine
 10
36.03997607660043
 20
26.3989600672507
 30
0.0
 11
37.42561672265555
 21
27.19896006725073
 31
0.0
  0
LINE
  5
8E5F
330
1F
100
AcDbEntity
  8
1
100
AcDbLine
 10
37.42561672265555
 20
27.19896006725073
 30
0.0
 11
38.66608721790643
 21
27.0504021441861
 31
0.0
  0
LINE
  5
8E60
330
1F
100
AcDbEntity
  8
1
100
AcDbLine
 10
38.66608721790649
 20
27.05040214418611
 30
0.0
 11
43.14513647047504
 21
28.707252772786
 31
0.0
  0
LINE
  5
8E66
330
1F
100
AcDbEntity
  8
CUT
100
AcDbLine
 10
38.66608721790649
 20
27.05040214418611
 30
0.0
 11
43.14513647047504
 21
28.707252772786
 31
0.0
  0
LINE
  5
8E67
330
1F
100
AcDbEntity
  8
CUT
100
AcDbLine
 10
36.03997607660043
 20
26.3989600672507
 30
0.0
 11
37.42561672265555
 21
27.19896006725073
 31
0.0
  0
LINE
  5
8E69
330
1F
100
AcDbEntity
  8
CUT
100
AcDbLine
 10
37.42561672265555
 20
27.19896006725073
 30
0.0
 11
38.66608721790643
 21
27.0504021441861
 31
0.0
  0
LINE
  5
8E6B
330
1F
100
AcDbEntity
  8
CUT
100
AcDbLine
 10
49.79999999999977
 20
17.04589951855983
 30
0.0
 11
48.41435935394471
 21
16.24589951855982
 31
0.0
  0
LINE
  5
8E6C
330
1F
100
AcDbEntity
  8
CUT
100
AcDbLine
 10
47.17388885869381
 20
16.39445744162432
 30
0.0
 11
42.69483960612525
 21
14.73760681302443
 31
0.0
  0
ARC
  5
8E6D
330
1F
100
AcDbEntity
  8
CUT
100
AcDbCircle
 10
42.55606534549591
 20
15.11276238686929
 30
0.0
 40
0.4
100
AcDbArc
 50
210.0000000000015
 51
290.3000000000003
1001
GENIUS_GENODEF_13
1002
{
1000
HIER
1070
     0
1002
}
1002
{
1000
MANEDIT
1070
     0
1002
}
1002
{
1000
NOSEL
1070
     0
1002
}
1002
{
1000
BEHIND
1070
     0
1002
}
1002
{
1000
OTHER
1070
     0
1002
}
1002
{
1000
REACTOR
1002
}
1001
GENIUS_GENOBJ-N-FIL_13
1002
{
1000
OWNER
1000
GEN
1002
}
  0
LINE
  5
8E6E
330
1F
100
AcDbEntity
  8
CUT
100
AcDbLine
 10
48.41435935394471
 20
16.24589951855982
 30
0.0
 11
47.17388885869389
 21
16.3944574416244
 31
0.0
  0
ARC
  5
8E6F
330
1F
100
AcDbEntity
  8
CUT
100
AcDbCircle
 10
49.59999999999977
 20
17.39230968007352
 30
0.0
 40
0.4
100
AcDbArc
 50
299.999999999998
 51
30.00000000000162
1001
GENIUS_GENOBJ-N-FIL_13
1002
{
1000
OWNER
1000
GEN
1002
}
1001
GENIUS_GENODEF_13
1002
{
1000
HIER
1070
     0
1002
}
1002
{
1000
MANEDIT
1070
     0
1002
}
1002
{
1000
NOSEL
1070
     0
1002
}
1002
{
1000
BEHIND
1070
     0
1002
}
1002
{
1000
OTHER
1070
     0
1002
}
1002
{
1000
REACTOR
1002
}
  0
LINE
  5
8E70
330
1F
100
AcDbEntity
  8
SK1
100
AcDbLine
 10
50.46376936984865
 20
17.49999999999977
 30
0.0
 11
49.53623063015095
 21
17.4999999999998
 31
0.0
  0
LINE
  5
8E71
330
1F
100
AcDbEntity
  8
SK1
100
AcDbLine
 10
49.99999999999983
 20
17.96376936984862
 30
0.0
 11
49.99999999999983
 21
17.03623063015098
 31
0.0
  0
CIRCLE
  5
8E7F
330
1F
100
AcDbEntity
  8
1
100
AcDbCircle
 10
32.43648920019115
 20
47.74999999999987
 30
0.0
 40
0.0959690010191452
  0
CIRCLE
  5
8E87
330
1F
100
AcDbEntity
  8
1
100
AcDbCircle
 10
31.93870813898837
 20
40.57445556189984
 30
0.0
 40
2.749999999999976
  0
LINE
  5
8E88
330
1F
100
AcDbEntity
  8
1
100
AcDbLine
 10
24.87614385448317
 20
45.5721502317501
 30
0.0
 11
26.26178450053828
 21
46.37215023175013
 31
0.0
  0
LINE
  5
8E89
330
1F
100
AcDbEntity
  8
1
100
AcDbLine
 10
26.26178450053828
 20
46.37215023175013
 30
0.0
 11
27.50225499578916
 21
46.22359230868552
 31
0.0
  0
LINE
  5
8E8A
330
1F
100
AcDbEntity
  8
1
100
AcDbLine
 10
27.50225499578922
 20
46.22359230868553
 30
0.0
 11
31.98130424835778
 21
47.88044293728542
 31
0.0
  0
ARC
  5
8E8C
330
1F
100
AcDbEntity
  8
1
100
AcDbCircle
 10
25.07614385448317
 20
45.22574007023643
 30
0.0
 40
0.4
100
AcDbArc
 50
119.999999999998
 51
210.0000000000015
1001
GENIUS_GENOBJ-N-FIL_13
1002
{
1000
OWNER
1000
GEN
1002
}
1001
GENIUS_GENODEF_13
1002
{
1000
HIER
1070
     0
1002
}
1002
{
1000
MANEDIT
1070
     0
1002
}
1002
{
1000
NOSEL
1070
     0
1002
}
1002
{
1000
BEHIND
1070
     0
1002
}
1002
{
1000
OTHER
1070
     0
1002
}
1002
{
1000
REACTOR
1002
}
  0
ARC
  5
8E8D
330
1F
100
AcDbEntity
  8
1
100
AcDbCircle
 10
32.12007850898701
 20
47.50528736344071
 30
0.0
 40
0.4
100
AcDbArc
 50
30.00000000000162
 51
110.3000000000002
1001
GENIUS_GENODEF_13
1002
{
1000
HIER
1070
     0
1002
}
1002
{
1000
MANEDIT
1070
     0
1002
}
1002
{
1000
NOSEL
1070
     0
1002
}
1002
{
1000
BEHIND
1070
     0
1002
}
1002
{
1000
OTHER
1070
     0
1002
}
1002
{
1000
REACTOR
1002
}
1001
GENIUS_GENOBJ-N-FIL_13
1002
{
1000
OWNER
1000
GEN
1002
}
  0
LINE
  5
8E90
330
1F
100
AcDbEntity
  8
CUT
100
AcDbLine
 10
27.47237613715683
 20
46.26830494525264
 30
0.0
 11
31.95142538972539
 21
47.92515557385252
 31
0.0
  0
LINE
  5
8E91
330
1F
100
AcDbEntity
  8
CUT
100
AcDbLine
 10
24.84626499585078
 20
45.61686286831721
 30
0.0
 11
26.2319056419059
 21
46.41686286831723
 31
0.0
  0
ARC
  5
8E92
330
1F
100
AcDbEntity
  8
CUT
100
AcDbCircle
 10
25.04626499585078
 20
45.27045270680353
 30
0.0
 40
0.4
100
AcDbArc
 50
119.999999999998
 51
210.0000000000015
1001
GENIUS_GENOBJ-N-FIL_13
1002
{
1000
OWNER
1000
GEN
1002
}
1001
GENIUS_GENODEF_13
1002
{
1000
HIER
1070
     0
1002
}
1002
{
1000
MANEDIT
1070
     0
1002
}
1002
{
1000
NOSEL
1070
     0
1002
}
1002
{
1000
BEHIND
1070
     0
1002
}
1002
{
1000
OTHER
1070
     0
1002
}
1002
{
1000
REACTOR
1002
}
  0
LINE
  5
8E93
330
1F
100
AcDbEntity
  8
CUT
100
AcDbLine
 10
26.2319056419059
 20
46.41686286831723
 30
0.0
 11
27.47237613715677
 21
46.26830494525262
 31
0.0
  0
ARC
  5
8E94
330
1F
100
AcDbEntity
  8
CUT
100
AcDbCircle
 10
32.09019965035463
 20
47.55000000000781
 30
0.0
 40
0.4
100
AcDbArc
 50
30.00000000000162
 51
110.3000000000002
1001
GENIUS_GENODEF_13
1002
{
1000
HIER
1070
     0
1002
}
1002
{
1000
MANEDIT
1070
     0
1002
}
1002
{
1000
NOSEL
1070
     0
1002
}
1002
{
1000
BEHIND
1070
     0
1002
}
1002
{
1000
OTHER
1070
     0
1002
}
1002
{
1000
REACTOR
1002
}
1001
GENIUS_GENOBJ-N-FIL_13
1002
{
1000
OWNER
1000
GEN
1002
}
  0
CIRCLE
  5
8EA0
330
1F
100
AcDbEntity
  8
1
100
AcDbCircle
 10
37.42934808864423
 20
31.14844267740255
 30
0.0
 40
2.749999999999976
  0
LINE
  5
8EA1
330
1F
100
AcDbEntity
  8
1
100
AcDbLine
 10
30.54933612694451
 20
35.82497295174797
 30
0.0
 11
31.93497677299963
 21
36.62497295174799
 31
0.0
  0
LINE
  5
8EA2
330
1F
100
AcDbEntity
  8
1
100
AcDbLine
 10
31.93497677299963
 20
36.62497295174799
 30
0.0
 11
33.17544726825051
 21
36.47641502868338
 31
0.0
  0
LINE
  5
8EA3
330
1F
100
AcDbEntity
  8
1
100
AcDbLine
 10
33.17544726825055
 20
36.47641502868339
 30
0.0
 11
37.65449652081911
 21
38.13326565728328
 31
0.0
  0
LINE
  5
8EA8
330
1F
100
AcDbEntity
  8
CUT
100
AcDbLine
 10
33.17544726825055
 20
36.47641502868339
 30
0.0
 11
37.65449652081911
 21
38.13326565728328
 31
0.0
  0
LINE
  5
8EA9
330
1F
100
AcDbEntity
  8
CUT
100
AcDbLine
 10
30.54933612694451
 20
35.82497295174797
 30
0.0
 11
31.93497677299963
 21
36.62497295174799
 31
0.0
  0
LINE
  5
8EAB
330
1F
100
AcDbEntity
  8
CUT
100
AcDbLine
 10
31.93497677299963
 20
36.62497295174799
 30
0.0
 11
33.17544726825051
 21
36.47641502868338
 31
0.0
  0
LINE
  5
8EB2
330
1F
100
AcDbEntity
  8
1
100
AcDbLine
 10
32.43648920019115
 20
47.74999999999987
 30
0.0
 11
49.94641016151352
 21
17.59230968007353
 31
0.0
  0
LINE
  5
8EB5
330
1F
100
AcDbEntity
  8
1
100
AcDbLine
 10
42.20965518398216
 20
14.91276238686927
 30
0.0
 11
24.724407936354
 21
45.0281641122887
 31
0.0
  0
ARC
  5
8EB7
330
1F
100
AcDbEntity
  8
1
100
AcDbCircle
 10
30.71703287576124
 20
35.47585974061295
 30
0.0
 40
0.4
100
AcDbArc
 50
104.9999999999979
 51
195.0000000000015
1001
GENIUS_GENOBJ-N-FIL_13
1002
{
1000
OWNER
1000
GEN
1002
}
1001
GENIUS_GENODEF_13
1002
{
1000
HIER
1070
     0
1002
}
1002
{
1000
MANEDIT
1070
     0
1002
}
1002
{
1000
NOSEL
1070
     0
1002
}
1002
{
1000
BEHIND
1070
     0
1002
}
1002
{
1000
OTHER
1070
     0
1002
}
1002
{
1000
REACTOR
1002
}
  0
ARC
  5
8EB8
330
1F
100
AcDbEntity
  8
1
100
AcDbCircle
 10
37.79327078144836
 20
37.75811008343857
 30
0.0
 40
0.4
100
AcDbArc
 50
30.00000000000162
 51
110.3000000000002
1001
GENIUS_GENODEF_13
1002
{
1000
HIER
1070
     0
1002
}
1002
{
1000
MANEDIT
1070
     0
1002
}
1002
{
1000
NOSEL
1070
     0
1002
}
1002
{
1000
BEHIND
1070
     0
1002
}
1002
{
1000
OTHER
1070
     0
1002
}
1002
{
1000
REACTOR
1002
}
1001
GENIUS_GENOBJ-N-FIL_13
1002
{
1000
OWNER
1000
GEN
1002
}
  0
ARC
  5
8EB9
330
1F
100
AcDbEntity
  8
CUT
100
AcDbCircle
 10
30.71703287576124
 20
35.47585974061295
 30
0.0
 40
0.4
100
AcDbArc
 50
104.9999999999979
 51
195.0000000000015
1001
GENIUS_GENOBJ-N-FIL_13
1002
{
1000
OWNER
1000
GEN
1002
}
1001
GENIUS_GENODEF_13
1002
{
1000
HIER
1070
     0
1002
}
1002
{
1000
MANEDIT
1070
     0
1002
}
1002
{
1000
NOSEL
1070
     0
1002
}
1002
{
1000
BEHIND
1070
     0
1002
}
1002
{
1000
OTHER
1070
     0
1002
}
1002
{
1000
REACTOR
1002
}
  0
ARC
  5
8EBA
330
1F
100
AcDbEntity
  8
CUT
100
AcDbCircle
 10
37.79327078144836
 20
37.75811008343857
 30
0.0
 40
0.4
100
AcDbArc
 50
30.00000000000162
 51
110.3000000000002
1001
GENIUS_GENODEF_13
1002
{
1000
HIER
1070
     0
1002
}
1002
{
1000
MANEDIT
1070
     0
1002
}
1002
{
1000
NOSEL
1070
     0
1002
}
1002
{
1000
BEHIND
1070
     0
1002
}
1002
{
1000
OTHER
1070
     0
1002
}
1002
{
1000
REACTOR
1002
}
1001
GENIUS_GENOBJ-N-FIL_13
1002
{
1000
OWNER
1000
GEN
1002
}
  0
ARC
  5
8EBB
330
1F
100
AcDbEntity
  8
1
100
AcDbCircle
 10
36.23997607660044
 20
26.05254990573701
 30
0.0
 40
0.4
100
AcDbArc
 50
119.999999999998
 51
210.0000000000015
1001
GENIUS_GENOBJ-N-FIL_13
1002
{
1000
OWNER
1000
GEN
1002
}
1001
GENIUS_GENODEF_13
1002
{
1000
HIER
1070
     0
1002
}
1002
{
1000
MANEDIT
1070
     0
1002
}
1002
{
1000
NOSEL
1070
     0
1002
}
1002
{
1000
BEHIND
1070
     0
1002
}
1002
{
1000
OTHER
1070
     0
1002
}
1002
{
1000
REACTOR
1002
}
  0
ARC
  5
8EBC
330
1F
100
AcDbEntity
  8
1
100
AcDbCircle
 10
43.28391073110427
 20
28.3320971989413
 30
0.0
 40
0.4
100
AcDbArc
 50
30.00000000000162
 51
110.3000000000002
1001
GENIUS_GENODEF_13
1002
{
1000
HIER
1070
     0
1002
}
1002
{
1000
MANEDIT
1070
     0
1002
}
1002
{
1000
NOSEL
1070
     0
1002
}
1002
{
1000
BEHIND
1070
     0
1002
}
1002
{
1000
OTHER
1070
     0
1002
}
1002
{
1000
REACTOR
1002
}
1001
GENIUS_GENOBJ-N-FIL_13
1002
{
1000
OWNER
1000
GEN
1002
}
  0
ARC
  5
8EBD
330
1F
100
AcDbEntity
  8
CUT
100
AcDbCircle
 10
36.23997607660044
 20
26.05254990573701
 30
0.0
 40
0.4
100
AcDbArc
 50
119.999999999998
 51
210.0000000000015
1001
GENIUS_GENOBJ-N-FIL_13
1002
{
1000
OWNER
1000
GEN
1002
}
1001
GENIUS_GENODEF_13
1002
{
1000
HIER
1070
     0
1002
}
1002
{
1000
MANEDIT
1070
     0
1002
}
1002
{
1000
NOSEL
1070
     0
1002
}
1002
{
1000
BEHIND
1070
     0
1002
}
1002
{
1000
OTHER
1070
     0
1002
}
1002
{
1000
REACTOR
1002
}
  0
ARC
  5
8EBE
330
1F
100
AcDbEntity
  8
CUT
100
AcDbCircle
 10
43.28391073110427
 20
28.3320971989413
 30
0.0
 40
0.4
100
AcDbArc
 50
30.00000000000162
 51
110.3000000000002
1001
GENIUS_GENODEF_13
1002
{
1000
HIER
1070
     0
1002
}
1002
{
1000
MANEDIT
1070
     0
1002
}
1002
{
1000
NOSEL
1070
     0
1002
}
1002
{
1000
BEHIND
1070
     0
1002
}
1002
{
1000
OTHER
1070
     0
1002
}
1002
{
1000
REACTOR
1002
}
1001
GENIUS_GENOBJ-N-FIL_13
1002
{
1000
OWNER
1000
GEN
1002
}
  0
LINE
  5
8EBF
330
1F
100
AcDbEntity
  8
CUT
100
AcDbLine
 10
32.43660981187299
 20
47.74999999999987
 30
0.0
 11
49.94641016151352
 21
17.59230968007353
 31
0.0
  0
LINE
  5
8EC0
330
1F
100
AcDbEntity
  8
CUT
100
AcDbLine
 10
42.20965518398216
 20
14.91276238686927
 30
0.0
 11
24.70557353963356
 21
45.0606031973905
 31
0.0
  0
CIRCLE
  5
8ED6
330
1F
100
AcDbEntity
  8
SK1
100
AcDbCircle
 10
49.9999999999996
 20
-17.5000000000002
 30
0.0
 40
0.4637693698488208
  0
LINE
  5
8ED7
330
1F
100
AcDbEntity
  8
1
100
AcDbLine
 10
49.79999999999965
 20
-17.04588869905433
 30
0.0
 11
49.16923439367124
 21
-16.68171600644502
 31
0.0
  0
LINE
  5
8ED8
330
1F
100
AcDbEntity
  8
SK3
100
AcDbLine
 10
48.4143593539446
 20
-16.24588869905429
 30
0.0
 11
47.17388885869379
 21
-16.39444662211888
 31
0.0
  0
LINE
  5
8ED9
330
1F
100
AcDbEntity
  8
SK3
100
AcDbLine
 10
47.1738888586937
 20
-16.39444662211879
 30
0.0
 11
42.69483960612515
 21
-14.73759599351885
 31
0.0
  0
ARC
  5
8EDA
330
1F
100
AcDbEntity
  8
1
100
AcDbCircle
 10
49.59999999999966
 20
-17.39229886056802
 30
0.0
 40
0.4
100
AcDbArc
 50
329.9999999999983
 51
60.00000000000198
1001
GENIUS_GENOBJ-N-FIL_13
1002
{
1000
OWNER
1000
GEN
1002
}
1001
GENIUS_GENODEF_13
1002
{
1000
HIER
1070
     0
1002
}
1002
{
1000
MANEDIT
1070
     0
1002
}
1002
{
1000
NOSEL
1070
     0
1002
}
1002
{
1000
BEHIND
1070
     0
1002
}
1002
{
1000
OTHER
1070
     0
1002
}
1002
{
1000
REACTOR
1002
}
  0
ARC
  5
8EDB
330
1F
100
AcDbEntity
  8
SK3
100
AcDbCircle
 10
42.55606534549581
 20
-15.11275156736371
 30
0.0
 40
0.4
100
AcDbArc
 50
69.69999999999969
 51
149.9999999999984
1001
GENIUS_GENODEF_13
1002
{
1000
HIER
1070
     0
1002
}
1002
{
1000
MANEDIT
1070
     0
1002
}
1002
{
1000
NOSEL
1070
     0
1002
}
1002
{
1000
BEHIND
1070
     0
1002
}
1002
{
1000
OTHER
1070
     0
1002
}
1002
{
1000
REACTOR
1002
}
1001
GENIUS_GENOBJ-N-FIL_13
1002
{
1000
OWNER
1000
GEN
1002
}
  0
CIRCLE
  5
8EDC
330
1F
100
AcDbEntity
  8
SK3
 48
0.3
100
AcDbCircle
 10
42.9199880383
 20
-21.72241897339971
 30
0.0
 40
2.749999999999976
  0
LINE
  5
8EDD
330
1F
100
AcDbEntity
  8
SK3
100
AcDbLine
 10
36.03997607660024
 20
-26.39894924774507
 30
0.0
 11
37.42561672265529
 21
-27.1989492477451
 31
0.0
  0
LINE
  5
8EDE
330
1F
100
AcDbEntity
  8
SK3
100
AcDbLine
 10
37.42561672265529
 20
-27.1989492477451
 30
0.0
 11
38.66608721790622
 21
-27.05039132468049
 31
0.0
  0
LINE
  5
8EDF
330
1F
100
AcDbEntity
  8
SK3
100
AcDbLine
 10
38.66608721790628
 20
-27.0503913246805
 30
0.0
 11
42.66012101952545
 21
-28.52782929012983
 31
0.0
  0
LINE
  5
8EE0
330
1F
100
AcDbEntity
  8
SK1
100
AcDbLine
 10
50.46376936984848
 20
-17.50000000000017
 30
0.0
 11
49.53623063015078
 21
-17.5000000000002
 31
0.0
  0
LINE
  5
8EE1
330
1F
100
AcDbEntity
  8
SK1
100
AcDbLine
 10
49.99999999999966
 20
-17.96376936984902
 30
0.0
 11
49.99999999999966
 21
-17.03623063015138
 31
0.0
  0
CIRCLE
  5
8EE3
330
1F
100
AcDbEntity
  8
SK3
 48
0.3
100
AcDbCircle
 10
31.938708138988
 20
-40.57444474239416
 30
0.0
 40
2.749999999999976
  0
LINE
  5
8EE4
330
1F
100
AcDbEntity
  8
1
100
AcDbLine
 10
24.87613757254676
 20
-45.57215023175041
 30
0.0
 11
26.26177821860188
 21
-46.37215023175047
 31
0.0
  0
LINE
  5
8EE5
330
1F
100
AcDbEntity
  8
1
100
AcDbLine
 10
26.26177821860188
 20
-46.37215023175047
 30
0.0
 11
27.50224871385275
 21
-46.22359230868584
 31
0.0
  0
LINE
  5
8EE6
330
1F
100
AcDbEntity
  8
1
100
AcDbLine
 10
27.5022487138528
 20
-46.22359230868585
 30
0.0
 11
31.98129796642135
 21
-47.88044293728579
 31
0.0
  0
ARC
  5
8EE7
330
1F
100
AcDbEntity
  8
1
100
AcDbCircle
 10
25.07613757254676
 20
-45.22574007023672
 30
0.0
 40
0.4
100
AcDbArc
 50
149.9999999999984
 51
240.0000000000019
1001
GENIUS_GENOBJ-N-FIL_13
1002
{
1000
OWNER
1000
GEN
1002
}
1001
GENIUS_GENODEF_13
1002
{
1000
HIER
1070
     0
1002
}
1002
{
1000
MANEDIT
1070
     0
1002
}
1002
{
1000
NOSEL
1070
     0
1002
}
1002
{
1000
BEHIND
1070
     0
1002
}
1002
{
1000
OTHER
1070
     0
1002
}
1002
{
1000
REACTOR
1002
}
  0
ARC
  5
8EE8
330
1F
100
AcDbEntity
  8
1
100
AcDbCircle
 10
32.12007222705059
 20
-47.5052873634411
 30
0.0
 40
0.4
100
AcDbArc
 50
249.6999999999997
 51
329.9999999999983
1001
GENIUS_GENODEF_13
1002
{
1000
HIER
1070
     0
1002
}
1002
{
1000
MANEDIT
1070
     0
1002
}
1002
{
1000
NOSEL
1070
     0
1002
}
1002
{
1000
BEHIND
1070
     0
1002
}
1002
{
1000
OTHER
1070
     0
1002
}
1002
{
1000
REACTOR
1002
}
1001
GENIUS_GENOBJ-N-FIL_13
1002
{
1000
OWNER
1000
GEN
1002
}
  0
CIRCLE
  5
8EE9
330
1F
100
AcDbEntity
  8
SK3
 48
0.3
100
AcDbCircle
 10
37.42934808864398
 20
-31.14843185789693
 30
0.0
 40
2.749999999999976
  0
LINE
  5
8EEA
330
1F
100
AcDbEntity
  8
SK3
100
AcDbLine
 10
30.54933612694421
 20
-35.82496213224228
 30
0.0
 11
31.93497677299931
 21
-36.62496213224233
 31
0.0
  0
LINE
  5
8EEB
330
1F
100
AcDbEntity
  8
SK3
100
AcDbLine
 10
31.93497677299931
 20
-36.62496213224233
 30
0.0
 11
33.17544726825019
 21
-36.4764042091777
 31
0.0
  0
LINE
  5
8EEC
330
1F
100
AcDbEntity
  8
SK3
100
AcDbLine
 10
33.17544726825025
 20
-36.47640420917772
 30
0.0
 11
37.17324102253777
 21
-37.95523302335201
 31
0.0
  0
LINE
  5
8EED
330
1F
100
AcDbEntity
  8
1
100
AcDbLine
 10
32.4364829182543
 20
-47.75000000000011
 30
0.0
 11
49.94641016151341
 21
-17.59229886056804
 31
0.0
  0
LINE
  5
8EEE
330
1F
100
AcDbEntity
  8
SK3
 48
0.3
100
AcDbLine
 10
42.20965518398207
 20
-14.91275156736369
 30
0.0
 11
25.12526019106173
 21
-44.33775260744449
 31
0.0
  0
ARC
  5
8EEF
330
1F
100
AcDbEntity
  8
SK3
100
AcDbCircle
 10
30.74933612694421
 20
-35.47855197072859
 30
0.0
 40
0.4
100
AcDbArc
 50
149.9999999999984
 51
240.0000000000019
1001
GENIUS_GENOBJ-N-FIL_13
1002
{
1000
OWNER
1000
GEN
1002
}
1001
GENIUS_GENODEF_13
1002
{
1000
HIER
1070
     0
1002
}
1002
{
1000
MANEDIT
1070
     0
1002
}
1002
{
1000
NOSEL
1070
     0
1002
}
1002
{
1000
BEHIND
1070
     0
1002
}
1002
{
1000
OTHER
1070
     0
1002
}
1002
{
1000
REACTOR
1002
}
  0
ARC
  5
8EF0
330
1F
100
AcDbEntity
  8
1
100
AcDbCircle
 10
37.77988248337297
 20
-37.75032585560448
 30
0.0
 40
0.4
100
AcDbArc
 50
249.6999999999997
 51
329.9999999999983
1001
GENIUS_GENODEF_13
1002
{
1000
HIER
1070
     0
1002
}
1002
{
1000
MANEDIT
1070
     0
1002
}
1002
{
1000
NOSEL
1070
     0
1002
}
1002
{
1000
BEHIND
1070
     0
1002
}
1002
{
1000
OTHER
1070
     0
1002
}
1002
{
1000
REACTOR
1002
}
1001
GENIUS_GENOBJ-N-FIL_13
1002
{
1000
OWNER
1000
GEN
1002
}
  0
ARC
  5
8EF1
330
1F
100
AcDbEntity
  8
SK3
100
AcDbCircle
 10
36.23997607660023
 20
-26.05253908623137
 30
0.0
 40
0.4
100
AcDbArc
 50
149.9999999999984
 51
240.0000000000019
1001
GENIUS_GENOBJ-N-FIL_13
1002
{
1000
OWNER
1000
GEN
1002
}
1001
GENIUS_GENODEF_13
1002
{
1000
HIER
1070
     0
1002
}
1002
{
1000
MANEDIT
1070
     0
1002
}
1002
{
1000
NOSEL
1070
     0
1002
}
1002
{
1000
BEHIND
1070
     0
1002
}
1002
{
1000
OTHER
1070
     0
1002
}
1002
{
1000
REACTOR
1002
}
  0
ARC
  5
8EF2
330
1F
100
AcDbEntity
  8
1
100
AcDbCircle
 10
43.25722324382676
 20
-28.31659130047166
 30
0.0
 40
0.4
100
AcDbArc
 50
249.6999999999997
 51
329.9999999999983
1001
GENIUS_GENODEF_13
1002
{
1000
HIER
1070
     0
1002
}
1002
{
1000
MANEDIT
1070
     0
1002
}
1002
{
1000
NOSEL
1070
     0
1002
}
1002
{
1000
BEHIND
1070
     0
1002
}
1002
{
1000
OTHER
1070
     0
1002
}
1002
{
1000
REACTOR
1002
}
1001
GENIUS_GENOBJ-N-FIL_13
1002
{
1000
OWNER
1000
GEN
1002
}
  0
DIMENSION
  5
8EF5
330
1F
100
AcDbEntity
  8
2
100
AcDbDimension
  2
*D3
 10
66.09601900593765
 20
-17.5000000000002
 30
0.0
 11
62.84601900593765
 21
-0.0000000000001919
 31
0.0
 70
    32
  1
%%c<>
 71
     5
 42
35.0
  3
AM_DIN$0
100
AcDbAlignedDimension
 13
49.99999999999977
 23
17.4999999999998
 33
0.0
 14
49.9999999999996
 24
-17.5000000000002
 34
0.0
 50
90.0
100
AcDbRotatedDimension
1001
ACAD
1000
DSTYLE
1002
{
1070
    50
1040
0.7853981633974483
1070
    90
1070
     1
1070
   271
1070
     1
1002
}
1001
ACAD_DSTYLE_DIMINSPECT
1070
   396
1000
100%
1070
   395
1000

1070
   394
1070
    33
1070
   393
1070
     0
  0
CIRCLE
  5
8F28
330
1F
100
AcDbEntity
  8
1
100
AcDbCircle
 10
32.4364829182543
 20
-47.75000000000011
 30
0.0
 40
0.0959690010191452
  0
TEXT
  5
8F75
330
1F
100
AcDbEntity
  8
6
100
AcDbText
 10
72.90313308816871
 20
-17.13328041475458
 30
0.0
 40
3.5
  1
Z=9
 50
90.0
100
AcDbText
  0
TEXT
  5
8F77
330
1F
100
AcDbEntity
  8
6
100
AcDbText
 10
72.35330513203121
 20
-3.289705765278966
 30
0.0
 40
3.5
  1
Zeff.=3
 50
90.0
100
AcDbText
  0
DIMENSION
  5
8F78
330
1F
100
AcDbEntity
  8
SK2
100
AcDbDimension
  2
*D4
 10
-26.80483419381256
 20
-35.00000000000016
 30
0.0
 11
-30.05483419381255
 21
-0.0000000000001401
 31
0.0
 70
    32
  1
%%c<>
 71
     5
 42
70.00000000000006
  3
AM_DIN$0
100
AcDbAlignedDimension
 13
2.999999999999772
 23
34.99999999999989
 33
0.0
 14
2.999999999999772
 24
-35.00000000000017
 34
0.0
 50
90.0
100
AcDbRotatedDimension
1001
ACAD
1000
DSTYLE
1002
{
1070
    50
1040
0.7853981633974483
1070
    90
1070
     1
1070
   271
1070
     1
1002
}
1001
ACAD_DSTYLE_DIMINSPECT
1070
   396
1000
100%
1070
   395
1000

1070
   394
1070
    33
1070
   393
1070
     0
  0
DIMENSION
  5
8FDA
330
1F
100
AcDbEntity
  8
2
100
AcDbDimension
  2
*D5
 10
-0.0000000000002238
 20
89.99999999999989
 30
0.0
 11
24.99999999999978
 21
93.24999999999988
 31
0.0
 70
    32
 71
     5
 42
50.0
  3
AM_DIN$0
100
AcDbAlignedDimension
 13
49.99999999999977
 23
17.4999999999998
 33
0.0
 14
-0.0000000000002274
 24
31.99999999999989
 34
0.0
100
AcDbRotatedDimension
1001
ACAD
1000
DSTYLE
1002
{
1070
    50
1040
0.7853981633974483
1070
    90
1070
     1
1070
   271
1070
     1
1002
}
1001
ACAD_DSTYLE_DIMINSPECT
1070
   396
1000
100%
1070
   395
1000

1070
   394
1070
    33
1070
   393
1070
     0
  0
LINE
  5
9087
330
1F
100
AcDbEntity
  8
1
100
AcDbLine
 10
25.12855043959751
 20
-44.3388343861207
 30
0.0
 11
24.72972741103302
 21
-45.0257400702367
 31
0.0
  0
LINE
  5
908B
330
1F
100
AcDbEntity
  8
1
100
AcDbLine
 10
49.16923439367124
 20
-16.68171600644502
 30
0.0
 11
48.79179687380791
 21
-16.46380235274966
 31
0.0
  0
TEXT
  5
9149
330
1F
100
AcDbEntity
  8
6
100
AcDbText
 10
45.91519372475477
 20
-63.2451318858591
 30
0.0
 40
3.5
  1
22P3R035050F2R00
100
AcDbText
  0
LINE
  5
E88D
330
1F
100
AcDbEntity
  8
1
100
AcDbLine
 10
0.0000000000001137
 20
-32.00000000000006
 30
0.0
 11
0.000000000000022
 21
-6.199999999999846
 31
0.0
  0
LINE
  5
E88F
330
1F
100
AcDbEntity
  8
1
100
AcDbLine
 10
48.79999999999995
 20
0.0
 30
0.0
 11
48.79999999999995
 21
-16.46380235274966
 31
0.0
  0
LINE
  5
E890
330
1F
100
AcDbEntity
  8
1
100
AcDbLine
 10
48.79999999999995
 20
-17.97846096900093
 30
0.0
 11
42.66012101952545
 21
-28.52782929012982
 31
0.0
  0
LINE
  5
E891
330
1F
100
AcDbEntity
  8
1
100
AcDbLine
 10
24.05488052387159
 20
-43.98582967919082
 30
0.0
 11
31.73539534132556
 21
-46.51105446428949
 31
0.0
  0
LINE
  5
E892
330
1F
100
AcDbEntity
  8
1
100
AcDbLine
 10
17.59959565486497
 20
-36.21169482107053
 30
0.0
 11
22.58315852301178
 21
-42.92421870354866
 31
0.0
  0
LINE
  5
E893
330
1F
100
AcDbEntity
  8
1
100
AcDbLine
 10
3.000000000000113
 20
-35.00000000000006
 30
0.0
 11
15.19086889846153
 21
-35.00000000000006
 31
0.0
  0
ARC
  5
E894
330
1F
100
AcDbEntity
  8
1
100
AcDbCircle
 10
15.19086889846153
 20
-38.00000000000006
 30
0.0
 40
3.0
100
AcDbArc
 50
36.591211580949
 51
90.0
1001
GENIUS_GENODEF_13
1002
{
1000
HIER
1070
     0
1002
}
1002
{
1000
MANEDIT
1070
     0
1002
}
1002
{
1000
NOSEL
1070
     0
1002
}
1002
{
1000
BEHIND
1070
     0
1002
}
1002
{
1000
OTHER
1070
     0
1002
}
1002
{
1000
REACTOR
1002
}
1001
GENIUS_GENOBJ-N-FIL_13
1002
{
1000
OWNER
1000
GEN
1002
}
  0
ARC
  5
E895
330
1F
100
AcDbEntity
  8
1
100
AcDbCircle
 10
24.99188527941522
 20
-41.13591352461912
 30
0.0
 40
3.0
100
AcDbArc
 50
216.591211580949
 51
251.7999999998619
1001
GENIUS_GENODEF_13
1002
{
1000
HIER
1070
     0
1002
}
1002
{
1000
MANEDIT
1070
     0
1002
}
1002
{
1000
NOSEL
1070
     0
1002
}
1002
{
1000
BEHIND
1070
     0
1002
}
1002
{
1000
OTHER
1070
     0
1002
}
1002
{
1000
REACTOR
1002
}
1001
GENIUS_GENOBJ-N-FIL_13
1002
{
1000
OWNER
1000
GEN
1002
}
  0
ARC
  5
E897
330
1F
100
AcDbEntity
  8
1
100
AcDbCircle
 10
3.000000000000113
 20
-32.00000000000006
 30
0.0
 40
3.0
100
AcDbArc
 50
180.0
 51
270.0
1001
GENIUS_GENOBJ-N-FIL_13
1002
{
1000
OWNER
1000
GEN
1002
}
1001
GENIUS_GENODEF_13
1002
{
1000
HIER
1070
     0
1002
}
1002
{
1000
MANEDIT
1070
     0
1002
}
1002
{
1000
NOSEL
1070
     0
1002
}
1002
{
1000
BEHIND
1070
     0
1002
}
1002
{
1000
OTHER
1070
     0
1002
}
1002
{
1000
REACTOR
1002
}
  0
ARC
  5
E898
330
1F
100
AcDbEntity
  8
1
100
AcDbCircle
 10
31.89156280058285
 20
-46.03606843852753
 30
0.0
 40
0.5
100
AcDbArc
 50
251.7999999998619
 51
329.8000000000357
1001
GENIUS_GENODEF_13
1002
{
1000
HIER
1070
     0
1002
}
1002
{
1000
MANEDIT
1070
     0
1002
}
1002
{
1000
NOSEL
1070
     0
1002
}
1002
{
1000
BEHIND
1070
     0
1002
}
1002
{
1000
OTHER
1070
     0
1002
}
1002
{
1000
REACTOR
1002
}
1001
GENIUS_GENOBJ-N-FIL_13
1002
{
1000
OWNER
1000
GEN
1002
}
  0
LINE
  5
E8B6
330
1F
100
AcDbEntity
  8
NOCUT
100
AcDbLine
 10
0.0000000000001137
 20
-32.00000000000006
 30
0.0
 11
0.0
 21
0.0
 31
0.0
  0
ARC
  5
E8B7
330
1F
100
AcDbEntity
  8
NOCUT
100
AcDbCircle
 10
3.000000000000113
 20
-32.00000000000006
 30
0.0
 40
3.0
100
AcDbArc
 50
180.0
 51
270.0
1001
GENIUS_GENOBJ-N-FIL_13
1002
{
1000
OWNER
1000
GEN
1002
}
1001
GENIUS_GENODEF_13
1002
{
1000
HIER
1070
     0
1002
}
1002
{
1000
MANEDIT
1070
     0
1002
}
1002
{
1000
NOSEL
1070
     0
1002
}
1002
{
1000
BEHIND
1070
     0
1002
}
1002
{
1000
OTHER
1070
     0
1002
}
1002
{
1000
REACTOR
1002
}
  0
LINE
  5
E8B8
330
1F
100
AcDbEntity
  8
NOCUT
100
AcDbLine
 10
0.0
 20
0.0
 30
0.0
 11
48.79999999999995
 21
0.0
 31
0.0
  0
LINE
  5
E8B9
330
1F
100
AcDbEntity
  8
NOCUT
100
AcDbLine
 10
48.79999999999995
 20
0.0
 30
0.0
 11
48.79999999999995
 21
-16.46380235274966
 31
0.0
  0
LINE
  5
E8BA
330
1F
100
AcDbEntity
  8
NOCUT
100
AcDbLine
 10
48.79999999999995
 20
-17.97846096900093
 30
0.0
 11
42.66012101952545
 21
-28.52782929012982
 31
0.0
  0
ARC
  5
E8BB
330
1F
100
AcDbEntity
  8
NOCUT
100
AcDbCircle
 10
31.89156280058285
 20
-46.03606843852753
 30
0.0
 40
0.5
100
AcDbArc
 50
251.7999999998619
 51
329.8000000000354
1001
GENIUS_GENODEF_13
1002
{
1000
HIER
1070
     0
1002
}
1002
{
1000
MANEDIT
1070
     0
1002
}
1002
{
1000
NOSEL
1070
     0
1002
}
1002
{
1000
BEHIND
1070
     0
1002
}
1002
{
1000
OTHER
1070
     0
1002
}
1002
{
1000
REACTOR
1002
}
1001
GENIUS_GENOBJ-N-FIL_13
1002
{
1000
OWNER
1000
GEN
1002
}
  0
LINE
  5
E8BC
330
1F
100
AcDbEntity
  8
NOCUT
100
AcDbLine
 10
24.05488052387159
 20
-43.98582967919082
 30
0.0
 11
31.73539534132556
 21
-46.51105446428949
 31
0.0
  0
ARC
  5
E8BD
330
1F
100
AcDbEntity
  8
NOCUT
100
AcDbCircle
 10
24.99188527941522
 20
-41.13591352461912
 30
0.0
 40
3.0
100
AcDbArc
 50
216.591211580949
 51
251.7999999998619
1001
GENIUS_GENODEF_13
1002
{
1000
HIER
1070
     0
1002
}
1002
{
1000
MANEDIT
1070
     0
1002
}
1002
{
1000
NOSEL
1070
     0
1002
}
1002
{
1000
BEHIND
1070
     0
1002
}
1002
{
1000
OTHER
1070
     0
1002
}
1002
{
1000
REACTOR
1002
}
1001
GENIUS_GENOBJ-N-FIL_13
1002
{
1000
OWNER
1000
GEN
1002
}
  0
LINE
  5
E8BE
330
1F
100
AcDbEntity
  8
NOCUT
100
AcDbLine
 10
17.59959565486497
 20
-36.21169482107053
 30
0.0
 11
22.58315852301178
 21
-42.92421870354866
 31
0.0
  0
ARC
  5
E8BF
330
1F
100
AcDbEntity
  8
NOCUT
100
AcDbCircle
 10
15.19086889846153
 20
-38.00000000000006
 30
0.0
 40
3.0
100
AcDbArc
 50
36.591211580949
 51
90.0
1001
GENIUS_GENODEF_13
1002
{
1000
HIER
1070
     0
1002
}
1002
{
1000
MANEDIT
1070
     0
1002
}
1002
{
1000
NOSEL
1070
     0
1002
}
1002
{
1000
BEHIND
1070
     0
1002
}
1002
{
1000
OTHER
1070
     0
1002
}
1002
{
1000
REACTOR
1002
}
1001
GENIUS_GENOBJ-N-FIL_13
1002
{
1000
OWNER
1000
GEN
1002
}
  0
LINE
  5
E8C0
330
1F
100
AcDbEntity
  8
NOCUT
100
AcDbLine
 10
3.000000000000113
 20
-35.00000000000006
 30
0.0
 11
15.19086889846153
 21
-35.00000000000006
 31
0.0
  0
LINE
  5
E8C1
330
1F
100
AcDbEntity
  8
1
100
AcDbLine
 10
0.0000000000001137
 20
32.00000000000006
 30
0.0
 11
0.000000000000022
 21
6.200000000000159
 31
0.0
  0
ARC
  5
E8C2
330
1F
100
AcDbEntity
  8
1
100
AcDbCircle
 10
3.000000000000113
 20
32.00000000000006
 30
0.0
 40
3.0
100
AcDbArc
 50
90.0
 51
180.0
1001
GENIUS_GENOBJ-N-FIL_13
1002
{
1000
OWNER
1000
GEN
1002
}
1001
GENIUS_GENODEF_13
1002
{
1000
HIER
1070
     0
1002
}
1002
{
1000
MANEDIT
1070
     0
1002
}
1002
{
1000
NOSEL
1070
     0
1002
}
1002
{
1000
BEHIND
1070
     0
1002
}
1002
{
1000
OTHER
1070
     0
1002
}
1002
{
1000
REACTOR
1002
}
  0
LINE
  5
E8C3
330
1F
100
AcDbEntity
  8
1
100
AcDbLine
 10
48.79999999999995
 20
0.0
 30
0.0
 11
48.79999999999995
 21
16.46854924937028
 31
0.0
  0
LINE
  5
E8C6
330
1F
100
AcDbEntity
  8
1
100
AcDbLine
 10
24.05488052387159
 20
43.98582967919082
 30
0.0
 11
25.12526546599985
 21
44.33775434175591
 31
0.0
  0
ARC
  5
E8C7
330
1F
100
AcDbEntity
  8
1
100
AcDbCircle
 10
24.99188527941522
 20
41.13591352461912
 30
0.0
 40
3.0
100
AcDbArc
 50
108.2000000001381
 51
143.408788419051
1001
GENIUS_GENODEF_13
1002
{
1000
HIER
1070
     0
1002
}
1002
{
1000
MANEDIT
1070
     0
1002
}
1002
{
1000
NOSEL
1070
     0
1002
}
1002
{
1000
BEHIND
1070
     0
1002
}
1002
{
1000
OTHER
1070
     0
1002
}
1002
{
1000
REACTOR
1002
}
1001
GENIUS_GENOBJ-N-FIL_13
1002
{
1000
OWNER
1000
GEN
1002
}
  0
LINE
  5
E8C8
330
1F
100
AcDbEntity
  8
1
100
AcDbLine
 10
17.59959565486497
 20
36.21169482107053
 30
0.0
 11
22.58315852301178
 21
42.92421870354866
 31
0.0
  0
ARC
  5
E8C9
330
1F
100
AcDbEntity
  8
1
100
AcDbCircle
 10
15.19086889846153
 20
38.00000000000006
 30
0.0
 40
3.0
100
AcDbArc
 50
270.0
 51
323.408788419051
1001
GENIUS_GENODEF_13
1002
{
1000
HIER
1070
     0
1002
}
1002
{
1000
MANEDIT
1070
     0
1002
}
1002
{
1000
NOSEL
1070
     0
1002
}
1002
{
1000
BEHIND
1070
     0
1002
}
1002
{
1000
OTHER
1070
     0
1002
}
1002
{
1000
REACTOR
1002
}
1001
GENIUS_GENOBJ-N-FIL_13
1002
{
1000
OWNER
1000
GEN
1002
}
  0
LINE
  5
E8CA
330
1F
100
AcDbEntity
  8
1
100
AcDbLine
 10
3.000000000000113
 20
35.00000000000006
 30
0.0
 11
15.19086889846153
 21
35.00000000000006
 31
0.0
  0
LINE
  5
E8D8
330
1F
100
AcDbEntity
  8
NOCUT
100
AcDbLine
 10
48.79999999999995
 20
-16.46380235274966
 30
0.0
 11
48.79999999999995
 21
-17.97846096900093
 31
0.0
  0
LINE
  5
E8D9
330
1F
100
AcDbEntity
  8
1
100
AcDbLine
 10
48.79999999999995
 20
-16.46380235274966
 30
0.0
 11
48.79999999999995
 21
-17.97846096900093
 31
0.0
  0
LINE
  5
E8DA
330
1F
100
AcDbEntity
  8
SK3
100
AcDbLine
 10
48.79179687380791
 20
-16.46380235274966
 30
0.0
 11
48.4143593539446
 21
-16.24588869905429
 31
0.0
  0
LINE
  5
E8DC
330
1F
100
AcDbEntity
  8
NOCUT
100
AcDbLine
 10
42.66012101952545
 20
-28.52782929012982
 30
0.0
 11
37.17324102253777
 21
-37.95523302335201
 31
0.0
  0
LINE
  5
E8DD
330
1F
100
AcDbEntity
  8
1
100
AcDbLine
 10
42.66012101952545
 20
-28.52782929012982
 30
0.0
 11
37.17324102253777
 21
-37.95523302335201
 31
0.0
  0
LINE
  5
E8DE
330
1F
100
AcDbEntity
  8
1
100
AcDbLine
 10
42.66012101952545
 20
-28.52782929012983
 30
0.0
 11
43.14513647047482
 21
-28.70724195328044
 31
0.0
  0
LINE
  5
E8E0
330
1F
100
AcDbEntity
  8
NOCUT
100
AcDbLine
 10
37.17324102253777
 20
-37.95523302335201
 30
0.0
 11
32.32370020155986
 21
-46.28757841184238
 31
0.0
  0
LINE
  5
E8E1
330
1F
100
AcDbEntity
  8
1
100
AcDbLine
 10
37.17324102253777
 20
-37.95523302335201
 30
0.0
 11
32.32370020155986
 21
-46.28757841184238
 31
0.0
  0
LINE
  5
E8E2
330
1F
100
AcDbEntity
  8
1
100
AcDbLine
 10
37.17324102253777
 20
-37.95523302335201
 30
0.0
 11
37.65449652081879
 21
-38.13325483777766
 31
0.0
  0
DIMENSION
  5
E8E7
330
1F
100
AcDbEntity
  8
2
100
AcDbDimension
  2
*D6
 10
86.79493851313827
 20
-47.75000000000012
 30
0.0
 11
83.54493851313828
 21
-0.0000000000001151
 31
0.0
 70
    32
  1
%%c<>
 71
     5
 42
95.5
  3
AM_DIN$0
100
AcDbAlignedDimension
 13
32.43648920019115
 23
47.74999999999987
 33
0.0
 14
32.4364829182543
 24
-47.75000000000011
 34
0.0
 50
90.00000000000003
100
AcDbRotatedDimension
1001
ACAD
1000
DSTYLE
1002
{
1070
    50
1040
0.7853981633974483
1070
    90
1070
     1
1070
   271
1070
     1
1002
}
1001
ACAD_DSTYLE_DIMINSPECT
1070
   396
1000
100%
1070
   395
1000

1070
   394
1070
    33
1070
   393
1070
     0
  0
DIMENSION
  5
E91A
330
1F
100
AcDbEntity
  8
2
100
AcDbDimension
  2
*D7
 10
49.99999999999977
 20
59.99999999999985
 30
0.0
 11
41.29999999999977
 21
63.24999999999985
 31
0.0
 70
    32
 71
     5
 42
17.39999999999999
  3
AM_DIN$0
100
AcDbAlignedDimension
 13
32.59999999999978
 23
47.46838204892607
 33
0.0
 14
49.99999999999977
 24
17.4999999999998
 34
0.0
100
AcDbRotatedDimension
1001
ACAD
1000
DSTYLE
1002
{
1070
    50
1040
0.7853981633974483
1070
    90
1070
     1
1070
   271
1070
     1
1002
}
1001
ACAD_DSTYLE_DIMINSPECT
1070
   396
1000
100%
1070
   395
1000

1070
   394
1070
    33
1070
   393
1070
     0
  0
DIMENSION
  5
E94C
330
1F
100
AcDbEntity
  8
2
100
AcDbDimension
  2
*D8
 10
49.94641016151352
 20
17.59230968007353
 30
0.0
 11
33.73225500329601
 21
77.91713460501215
 31
0.0
 70
    34
 71
     5
 42
0.5260387284965278
  3
AM_DIN$2
100
AcDb2LineAngularDimension
 13
49.99999999999977
 23
52.08885392533443
 33
0.0
 14
49.99999999999977
 24
42.52210095338933
 34
0.0
 15
32.43660981187299
 25
47.74999999999987
 35
0.0
 16
39.6518706925346
 26
75.90933527777922
 36
0.0
1001
ACAD
1000
DSTYLE
1002
{
1070
    50
1040
0.7853981633974483
1070
    90
1070
     1
1070
   271
1070
     1
1002
}
1001
ACAD_DSTYLE_DIMINSPECT
1070
   396
1000
100%
1070
   395
1000

1070
   394
1070
    33
1070
   393
1070
     0
  0
LINE
  5
E993
330
1F
100
AcDbEntity
  8
1
100
AcDbLine
 10
16.31193503138002
 20
-34.43732159021124
 30
0.0
 11
16.31193503138002
 21
34.36176892309573
 31
0.0
  0
LINE
  5
EAB5
330
1F
100
AcDbEntity
  8
1
100
AcDbLine
 10
22.3806565221561
 20
42.65146213300723
 30
0.0
 11
38.53882233640533
 21
14.8217352923952
 31
0.0
  0
ARC
  5
EAB6
330
1F
100
AcDbEntity
  8
1
100
AcDbCircle
 10
46.35919700045237
 20
20.05886534529835
 30
0.0
 40
9.412002500907554
100
AcDbArc
 50
206.4702621794497
 51
285.0302372652424
  0
LINE
  5
EAB8
330
1F
100
AcDbEntity
  8
SK3
 48
0.3
100
AcDbLine
 10
22.38065652215577
 20
-42.6514621330074
 30
0.0
 11
38.53882233640522
 21
-14.82173529239549
 31
0.0
  0
ARC
  5
EAB9
330
1F
100
AcDbEntity
  8
SK3
 48
0.3
100
AcDbCircle
 10
46.35919700045222
 20
-20.0588653452987
 30
0.0
 40
9.412002500907554
100
AcDbArc
 50
74.96976273475716
 51
153.5297378205499
  0
LINE
  5
EABB
330
1F
100
AcDbEntity
  8
1
100
AcDbLine
 10
23.64091290138731
 20
-43.20650495601888
 30
0.0
 11
23.64091290138731
 21
38.47524108716459
 31
0.0
  0
LINE
  5
EABC
330
1F
100
AcDbEntity
  8
1
100
AcDbLine
 10
31.88655461496273
 20
-45.95266442431056
 30
0.0
 11
31.88655461496273
 21
24.83716451840007
 31
0.0
  0
ENDSEC
  0
SECTION
  2
OBJECTS
  0
DICTIONARY
  5
C
330
0
100
AcDbDictionary
281
     1
  3
ACAD_2007HEADERVARS_RT
350
EB07
  3
ACAD_COLOR
350
2E66
  3
ACAD_GROUP
350
D
  3
ACAD_LAYOUT
350
1A
  3
ACAD_MATERIAL
350
2E65
  3
ACAD_MLEADERSTYLE
350
2F47
  3
ACAD_MLINESTYLE
350
17
  3
ACAD_PLOTSETTINGS
350
19
  3
ACAD_PLOTSTYLENAME
350
E
  3
ACAD_SCALELIST
350
2F35
  3
ACAD_TABLESTYLE
350
2E67
  3
ACAD_VISUALSTYLE
350
2F24
  3
ACDB_RECOMPOSE_DATA
350
E9FF
  3
AcDbVariableDictionary
350
216
  3
AcmDictionary
350
45
  3
AcmSystemVariableManager
350
EB0A
  3
AMG
350
41
  3
AMGSNAPSETTINGS
350
23D
  0
DICTIONARY
  5
EA25
330
8
100
AcDbDictionary
280
     1
281
     1
  0
DICTIONARY
  5
2F6F
330
10
100
AcDbDictionary
280
     1
281
     1
  3
ADSK_XREC_LAYER_RECONCILED
360
2F70
  0
DICTIONARY
  5
2F71
330
AFE
100
AcDbDictionary
280
     1
281
     1
  3
ADSK_XREC_LAYER_RECONCILED
360
2F72
  0
DICTIONARY
  5
2F73
330
AFF
100
AcDbDictionary
280
     1
281
     1
  3
ADSK_XREC_LAYER_RECONCILED
360
2F74
  0
DICTIONARY
  5
2F75
330
B00
100
AcDbDictionary
280
     1
281
     1
  3
ADSK_XREC_LAYER_RECONCILED
360
2F76
  0
DICTIONARY
  5
2F77
330
B01
100
AcDbDictionary
280
     1
281
     1
  3
ADSK_XREC_LAYER_RECONCILED
360
2F78
  0
DICTIONARY
  5
2F79
330
B02
100
AcDbDictionary
280
     1
281
     1
  3
ADSK_XREC_LAYER_RECONCILED
360
2F7A
  0
DICTIONARY
  5
2F7B
330
B03
100
AcDbDictionary
280
     1
281
     1
  3
ADSK_XREC_LAYER_RECONCILED
360
2F7C
  0
DICTIONARY
  5
2F7D
330
B04
100
AcDbDictionary
280
     1
281
     1
  3
ADSK_XREC_LAYER_RECONCILED
360
2F7E
  0
DICTIONARY
  5
2F7F
330
B06
100
AcDbDictionary
280
     1
281
     1
  3
ADSK_XREC_LAYER_RECONCILED
360
2F80
  0
DICTIONARY
  5
2F81
330
B07
100
AcDbDictionary
280
     1
281
     1
  3
ADSK_XREC_LAYER_RECONCILED
360
2F82
  0
DICTIONARY
  5
1F1
330
1F
100
AcDbDictionary
280
     1
281
     1
  3
ACAD_SORTENTS
360
8923
  0
DICTIONARY
  5
EB07
102
{ACAD_REACTORS
330
C
102
}
330
C
100
AcDbDictionary
281
     1
  3
DIMARCSYM
350
EB08
  3
DIMJOGANG
350
EB09
  0
DICTIONARY
  5
2E66
102
{ACAD_REACTORS
330
C
102
}
330
C
100
AcDbDictionary
281
     1
  0
DICTIONARY
  5
D
102
{ACAD_REACTORS
330
C
102
}
330
C
100
AcDbDictionary
281
     1
  0
DICTIONARY
  5
1A
102
{ACAD_REACTORS
330
C
102
}
330
C
100
AcDbDictionary
281
     1
  3
Layout1
350
1E
  3
Layout2
350
26
  3
Model
350
22
  0
DICTIONARY
  5
2E65
102
{ACAD_REACTORS
330
C
102
}
330
C
100
AcDbDictionary
281
     1
  3
ByBlock
350
2F14
  3
ByLayer
350
2F0C
  3
Global
350
2F1C
  0
DICTIONARY
  5
2F47
102
{ACAD_REACTORS
330
C
102
}
330
C
100
AcDbDictionary
281
     1
  3
Standard
350
2F48
  0
DICTIONARY
  5
17
102
{ACAD_REACTORS
330
C
102
}
330
C
100
AcDbDictionary
281
     1
  3
Standard
350
18
  0
DICTIONARY
  5
19
102
{ACAD_REACTORS
330
C
102
}
330
C
100
AcDbDictionary
281
     1
  0
ACDBDICTIONARYWDFLT
  5
E
102
{ACAD_REACTORS
330
C
102
}
330
C
100
AcDbDictionary
281
     1
  3
Normal
350
F
100
AcDbDictionaryWithDefault
340
F
  0
DICTIONARY
  5
2F35
102
{ACAD_REACTORS
330
C
102
}
330
C
100
AcDbDictionary
281
     1
  3
A0
350
2F36
  3
A1
350
2F37
  3
A2
350
2F38
  3
A3
350
2F39
  3
A4
350
2F3A
  3
A5
350
2F3B
  3
A6
350
2F3C
  3
A7
350
2F3D
  3
A8
350
2F3E
  3
A9
350
2F3F
  3
B0
350
2F40
  3
B1
350
2F41
  3
B2
350
2F42
  3
B3
350
2F43
  3
B4
350
2F44
  3
B5
350
2F45
  3
B6
350
2F46
  0
DICTIONARY
  5
2E67
102
{ACAD_REACTORS
330
C
102
}
330
C
100
AcDbDictionary
281
     1
  3
Standard
350
2E68
  0
DICTIONARY
  5
2F24
102
{ACAD_REACTORS
330
C
102
}
330
C
100
AcDbDictionary
281
     1
  3
2dWireframe
350
2F2A
  3
3D Hidden
350
2F2C
  3
3dWireframe
350
2F2B
  3
Basic
350
2F29
  3
Brighten
350
2F30
  3
ColorChange
350
2F34
  3
Conceptual
350
2F2D
  3
Dim
350
2F2F
  3
Facepattern
350
2F33
  3
Flat
350
2F25
  3
FlatWithEdges
350
2F26
  3
Gouraud
350
2F27
  3
GouraudWithEdges
350
2F28
  3
Linepattern
350
2F32
  3
Realistic
350
2F2E
  3
Thicken
350
2F31
  0
XRECORD
  5
E9FF
102
{ACAD_REACTORS
330
C
102
}
330
C
100
AcDbXrecord
280
     1
 90
        1
330
2E68
  0
DICTIONARY
  5
216
102
{ACAD_REACTORS
330
C
102
}
330
C
100
AcDbDictionary
281
     1
  3
CANNOSCALE
350
EA02
  3
CMLEADERSTYLE
350
EA00
  3
CTABLESTYLE
350
2EEA
  3
DIMASSOC
350
219
  3
HIDETEXT
350
218
  3
INDEXCTL
350
217
  3
LAYEREVAL
350
EA04
  3
LAYERNOTIFY
350
EA05
  3
LIGHTINGUNITS
350
EA03
  3
MSLTSCALE
350
EA01
  3
SORTENTS
350
EA31
  0
DICTIONARY
  5
45
102
{ACAD_REACTORS
330
C
102
}
330
C
100
AcDbDictionary
281
     1
  3
AcmStdDictionary
350
4A
  3
AMDTSECTSYM_ARROWCOLOR
350
2EB6
  0
DICTIONARY
  5
41
102
{ACAD_REACTORS
330
C
102
}
330
C
100
AcDbDictionary
281
     1
  0
DICTIONARY
  5
23D
102
{ACAD_REACTORS
330
C
102
}
330
C
100
AcDbDictionary
281
     1
  0
XRECORD
  5
2F70
102
{ACAD_REACTORS
330
2F6F
102
}
330
2F6F
100
AcDbXrecord
280
     1
290
     1
  0
XRECORD
  5
2F72
102
{ACAD_REACTORS
330
2F71
102
}
330
2F71
100
AcDbXrecord
280
     1
290
     1
  0
XRECORD
  5
2F74
102
{ACAD_REACTORS
330
2F73
102
}
330
2F73
100
AcDbXrecord
280
     1
290
     1
  0
XRECORD
  5
2F76
102
{ACAD_REACTORS
330
2F75
102
}
330
2F75
100
AcDbXrecord
280
     1
290
     1
  0
XRECORD
  5
2F78
102
{ACAD_REACTORS
330
2F77
102
}
330
2F77
100
AcDbXrecord
280
     1
290
     1
  0
XRECORD
  5
2F7A
102
{ACAD_REACTORS
330
2F79
102
}
330
2F79
100
AcDbXrecord
280
     1
290
     1
  0
XRECORD
  5
2F7C
102
{ACAD_REACTORS
330
2F7B
102
}
330
2F7B
100
AcDbXrecord
280
     1
290
     1
  0
XRECORD
  5
2F7E
102
{ACAD_REACTORS
330
2F7D
102
}
330
2F7D
100
AcDbXrecord
280
     1
290
     1
  0
XRECORD
  5
2F80
102
{ACAD_REACTORS
330
2F7F
102
}
330
2F7F
100
AcDbXrecord
280
     1
290
     1
  0
XRECORD
  5
2F82
102
{ACAD_REACTORS
330
2F81
102
}
330
2F81
100
AcDbXrecord
280
     1
290
     1
  0
SORTENTSTABLE
  5
8923
102
{ACAD_REACTORS
330
1F1
102
}
330
1F1
100
AcDbSortentsTable
330
1F
331
8E8C
  5
8EA9
331
8E94
  5
8EB9
331
8E5D
  5
8E71
331
E8E2
  5
8FD9
331
E893
  5
E8BE
331
8EDD
  5
8EEC
331
E91A
  5
E942
331
8EE5
  5
8F26
331
8EED
  5
8FDA
331
8E6D
  5
8E90
331
8A6E
  5
8A74
331
8EBC
  5
8EDD
331
8A76
  5
8D52
331
E8BB
  5
E8C9
331
8EF5
  5
9149
331
E8C3
  5
E8E0
331
8F75
  5
E88E
331
8E8D
  5
8EAB
331
8E56
  5
8E6A
331
8E5E
  5
8E7D
331
8E66
  5
8E88
331
8ED6
  5
8EE2
331
8EDE
  5
8EED
331
E894
  5
E8BD
331
8EE6
  5
8F27
331
8EEE
  5
9002
331
8EB5
  5
8ED7
331
8A6F
  5
8A75
331
8E6E
  5
8E91
331
8EBD
  5
8EDE
331
E8BC
  5
E8CA
331
E8DC
  5
E8C7
331
8E5F
  5
8E7F
331
8E67
  5
8E89
331
E88D
  5
E894
331
8ED7
  5
8EE3
331
E895
  5
E8BB
331
8EDF
  5
8EEE
331
8EE7
  5
8F28
331
8EEF
  5
9041
331
8A68
  5
8A6E
331
8E6F
  5
8E92
331
8A70
  5
8A76
331
8EBE
  5
8EDF
331
8E7F
  5
8EA0
331
8E87
  5
8EA1
331
E8BD
  5
E8D8
331
E8DD
  5
E8B7
331
8F77
  5
E890
331
8E58
  5
8E6C
331
8E60
  5
8E87
331
8ED8
  5
8EE7
331
8EE0
  5
8EF0
331
8EE8
  5
8F29
331
E8B6
  5
E8BF
331
8A69
  5
8A6F
331
8EB7
  5
8ED8
331
8E70
  5
8E93
331
8A71
  5
8D4D
331
8EBF
  5
8EE0
331
8EF0
  5
9087
331
9087
  5
900C
331
E8BE
  5
E8D9
331
8F28
  5
E88D
331
E8C6
  5
E8E1
331
E8DE
  5
8EEF
331
8E88
  5
8EA2
331
8E90
  5
8EB2
331
8EA0
  5
8EBA
331
8E59
  5
8E6D
331
8EA8
  5
8EBE
331
8F78
  5
E891
331
E88F
  5
E897
331
8ED9
  5
8EE8
331
8EE1
  5
8EF1
331
E897
  5
E895
331
8EE9
  5
8F75
331
E8B7
  5
E8C0
331
8E69
  5
8E8A
331
8A6A
  5
8A70
331
8EB8
  5
8ED9
331
8E71
  5
8E94
331
8A72
  5
8D4E
331
8EC0
  5
8EE1
331
8EF1
  5
9088
331
E8BF
  5
E8DA
331
E8C7
  5
E8E2
331
8E89
  5
8EA3
331
8E91
  5
8EB5
331
8E52
  5
8E60
331
8EA1
  5
8EBB
331
8E5A
  5
8E6E
331
8EA9
  5
8EBF
331
894B
  5
894D
331
E890
  5
E8B6
331
8EDA
  5
8EE9
331
E8E7
  5
E918
331
E898
  5
E8B9
331
8EEA
  5
8F77
331
8A6B
  5
8A71
331
8EB9
  5
8EDA
331
8A73
  5
8D4F
331
8EF2
  5
908A
331
E8B8
  5
E8C1
331
E8C0
  5
E8DC
331
9149
  5
E893
331
E8C8
  5
E8E4
331
E8D8
  5
E8C3
331
8E8A
  5
8EA8
331
8E92
  5
8EB7
331
8EA2
  5
8EBC
331
8E5B
  5
8E6F
331
E8E0
  5
E8C8
331
8FDA
  5
E892
331
E891
  5
E8BA
331
8EDB
  5
8EEA
331
8EE3
  5
8EF2
331
8EEB
  5
8F78
331
8EB2
  5
8ED6
331
8E6B
  5
8E8C
331
8A6C
  5
8A72
331
8EBA
  5
8EDB
331
8A74
  5
8D50
331
E8B9
  5
E8C2
331
E8C1
  5
E8DD
331
E8C9
  5
E8E5
331
E8D9
  5
E898
331
8E93
  5
8EB8
331
8EA3
  5
8EBD
331
8E5C
  5
8E70
331
8EAB
  5
8EC0
331
E8E1
  5
E8B8
331
E892
  5
E8BC
331
8EDC
  5
8EEB
331
8EE4
  5
8EF5
331
8EEC
  5
8FD7
331
8A6D
  5
8A73
331
8E6C
  5
8E8D
331
8EBB
  5
8EDC
331
8A75
  5
8D51
331
E8BA
  5
E8C6
331
908B
  5
8EE5
331
E8C2
  5
E8DE
331
E8CA
  5
E8E7
331
E8DA
  5
8EE6
  0
XRECORD
  5
EB08
102
{ACAD_REACTORS
330
EB07
102
}
330
EB07
100
AcDbXrecord
280
     1
 70
     1
  0
XRECORD
  5
EB09
102
{ACAD_REACTORS
330
EB07
102
}
330
EB07
100
AcDbXrecord
280
     1
 40
1.570796326794896
  0
LAYOUT
  5
1E
102
{ACAD_REACTORS
330
1A
102
}
330
1A
100
AcDbPlotSettings
  1

  2
HP DesignJet 220 (D/A1) by HP
  4

  6

 40
0.0
 41
0.0
 42
0.0
 43
0.0
 44
0.0
 45
0.0
 46
0.0
 47
0.0
 48
0.0
 49
0.0
140
0.0
141
0.0
142
1.0
143
1.0
 70
   688
 72
     0
 73
     0
 74
     5
  7
monochrome2.ctb
 75
    16
147
1.0
 76
     0
 77
     2
 78
   300
148
0.0
149
0.0
100
AcDbLayout
  1
Layout1
 70
     1
 71
     1
 10
0.0
 20
0.0
 11
420.0
 21
297.0
 12
0.0
 22
0.0
 32
0.0
 14
1.000000000000000E+20
 24
1.000000000000000E+20
 34
1.000000000000000E+20
 15
-1.000000000000000E+20
 25
-1.000000000000000E+20
 35
-1.000000000000000E+20
146
0.0
 13
0.0
 23
0.0
 33
0.0
 16
1.0
 26
0.0
 36
0.0
 17
0.0
 27
1.0
 37
0.0
 76
     0
330
1B
  0
LAYOUT
  5
26
102
{ACAD_REACTORS
330
1A
102
}
330
1A
100
AcDbPlotSettings
  1

  2
HP DesignJet 220 (D/A1) by HP
  4

  6

 40
0.0
 41
0.0
 42
0.0
 43
0.0
 44
0.0
 45
0.0
 46
0.0
 47
0.0
 48
0.0
 49
0.0
140
0.0
141
0.0
142
1.0
143
1.0
 70
   688
 72
     0
 73
     0
 74
     5
  7
monochrome2.ctb
 75
    16
147
1.0
 76
     0
 77
     2
 78
   300
148
0.0
149
0.0
100
AcDbLayout
  1
Layout2
 70
     1
 71
     2
 10
0.0
 20
0.0
 11
12.0
 21
9.0
 12
0.0
 22
0.0
 32
0.0
 14
0.0
 24
0.0
 34
0.0
 15
0.0
 25
0.0
 35
0.0
146
0.0
 13
0.0
 23
0.0
 33
0.0
 16
1.0
 26
0.0
 36
0.0
 17
0.0
 27
1.0
 37
0.0
 76
     0
330
23
  0
LAYOUT
  5
22
102
{ACAD_REACTORS
330
1A
102
}
330
1A
100
AcDbPlotSettings
  1

  2
HP DesignJet 220 (D/A1) by HP
  4

  6

 40
0.0
 41
0.0
 42
0.0
 43
0.0
 44
0.0
 45
0.0
 46
0.0
 47
0.0
 48
0.0
 49
0.0
140
0.0
141
0.0
142
1.0
143
1.0
 70
  1712
 72
     0
 73
     0
 74
     0
  7
monochrome2.ctb
 75
     0
147
1.0
 76
     0
 77
     2
 78
   300
148
0.0
149
0.0
100
AcDbLayout
  1
Model
 70
     1
 71
     0
 10
0.0
 20
0.0
 11
12.0
 21
9.0
 12
0.0
 22
0.0
 32
0.0
 14
0.0
 24
0.0
 34
0.0
 15
0.0
 25
0.0
 35
0.0
146
0.0
 13
0.0
 23
0.0
 33
0.0
 16
1.0
 26
0.0
 36
0.0
 17
0.0
 27
1.0
 37
0.0
 76
     0
330
1F
331
2F0A
  0
MATERIAL
  5
2F14
102
{ACAD_XDICTIONARY
360
2F15
102
}
102
{ACAD_REACTORS
330
2E65
102
}
330
2E65
100
AcDbMaterial
  1
ByBlock
 72
     0
 43
0.0008202099737533
 43
0.0
 43
0.0
 43
0.0
 43
0.0
 43
0.0008202099737533
 43
0.0
 43
0.0
 43
0.0
 43
0.0
 43
1.0
 43
0.0
 43
0.0
 43
0.0
 43
0.0
 43
1.0
 77
     0
 47
0.0008202099737533
 47
0.0
 47
0.0
 47
0.0
 47
0.0
 47
0.0008202099737533
 47
0.0
 47
0.0
 47
0.0
 47
0.0
 47
1.0
 47
0.0
 47
0.0
 47
0.0
 47
0.0
 47
1.0
171
     0
 49
0.0008202099737533
 49
0.0
 49
0.0
 49
0.0
 49
0.0
 49
0.0008202099737533
 49
0.0
 49
0.0
 49
0.0
 49
0.0
 49
1.0
 49
0.0
 49
0.0
 49
0.0
 49
0.0
 49
1.0
175
     0
142
0.0008202099737533
142
0.0
142
0.0
142
0.0
142
0.0
142
0.0008202099737533
142
0.0
142
0.0
142
0.0
142
0.0
142
1.0
142
0.0
142
0.0
142
0.0
142
0.0
142
1.0
179
     0
144
0.0008202099737533
144
0.0
144
0.0
144
0.0
144
0.0
144
0.0008202099737533
144
0.0
144
0.0
144
0.0
144
0.0
144
1.0
144
0.0
144
0.0
144
0.0
144
0.0
144
1.0
147
0.0008202099737533
147
0.0
147
0.0
147
0.0
147
0.0
147
0.0008202099737533
147
0.0
147
0.0
147
0.0
147
0.0
147
1.0
147
0.0
147
0.0
147
0.0
147
0.0
147
1.0
  0
MATERIAL
  5
2F0C
102
{ACAD_XDICTIONARY
360
2F0D
102
}
102
{ACAD_REACTORS
330
2E65
102
}
330
2E65
100
AcDbMaterial
  1
ByLayer
 72
     0
 43
0.0008202099737533
 43
0.0
 43
0.0
 43
0.0
 43
0.0
 43
0.0008202099737533
 43
0.0
 43
0.0
 43
0.0
 43
0.0
 43
1.0
 43
0.0
 43
0.0
 43
0.0
 43
0.0
 43
1.0
 77
     0
 47
0.0008202099737533
 47
0.0
 47
0.0
 47
0.0
 47
0.0
 47
0.0008202099737533
 47
0.0
 47
0.0
 47
0.0
 47
0.0
 47
1.0
 47
0.0
 47
0.0
 47
0.0
 47
0.0
 47
1.0
171
     0
 49
0.0008202099737533
 49
0.0
 49
0.0
 49
0.0
 49
0.0
 49
0.0008202099737533
 49
0.0
 49
0.0
 49
0.0
 49
0.0
 49
1.0
 49
0.0
 49
0.0
 49
0.0
 49
0.0
 49
1.0
175
     0
142
0.0008202099737533
142
0.0
142
0.0
142
0.0
142
0.0
142
0.0008202099737533
142
0.0
142
0.0
142
0.0
142
0.0
142
1.0
142
0.0
142
0.0
142
0.0
142
0.0
142
1.0
179
     0
144
0.0008202099737533
144
0.0
144
0.0
144
0.0
144
0.0
144
0.0008202099737533
144
0.0
144
0.0
144
0.0
144
0.0
144
1.0
144
0.0
144
0.0
144
0.0
144
0.0
144
1.0
147
0.0008202099737533
147
0.0
147
0.0
147
0.0
147
0.0
147
0.0008202099737533
147
0.0
147
0.0
147
0.0
147
0.0
147
1.0
147
0.0
147
0.0
147
0.0
147
0.0
147
1.0
  0
MATERIAL
  5
2F1C
102
{ACAD_XDICTIONARY
360
2F1D
102
}
102
{ACAD_REACTORS
330
2E65
102
}
330
2E65
100
AcDbMaterial
  1
Global
 72
     0
 43
0.0008202099737533
 43
0.0
 43
0.0
 43
0.0
 43
0.0
 43
0.0008202099737533
 43
0.0
 43
0.0
 43
0.0
 43
0.0
 43
1.0
 43
0.0
 43
0.0
 43
0.0
 43
0.0
 43
1.0
 77
     0
 47
0.0008202099737533
 47
0.0
 47
0.0
 47
0.0
 47
0.0
 47
0.0008202099737533
 47
0.0
 47
0.0
 47
0.0
 47
0.0
 47
1.0
 47
0.0
 47
0.0
 47
0.0
 47
0.0
 47
1.0
171
     0
 49
0.0008202099737533
 49
0.0
 49
0.0
 49
0.0
 49
0.0
 49
0.0008202099737533
 49
0.0
 49
0.0
 49
0.0
 49
0.0
 49
1.0
 49
0.0
 49
0.0
 49
0.0
 49
0.0
 49
1.0
175
     0
142
0.0008202099737533
142
0.0
142
0.0
142
0.0
142
0.0
142
0.0008202099737533
142
0.0
142
0.0
142
0.0
142
0.0
142
1.0
142
0.0
142
0.0
142
0.0
142
0.0
142
1.0
179
     0
144
0.0008202099737533
144
0.0
144
0.0
144
0.0
144
0.0
144
0.0008202099737533
144
0.0
144
0.0
144
0.0
144
0.0
144
1.0
144
0.0
144
0.0
144
0.0
144
0.0
144
1.0
147
0.0008202099737533
147
0.0
147
0.0
147
0.0
147
0.0
147
0.0008202099737533
147
0.0
147
0.0
147
0.0
147
0.0
147
1.0
147
0.0
147
0.0
147
0.0
147
0.0
147
1.0
  0
MLEADERSTYLE
  5
2F48
102
{ACAD_REACTORS
330
2F47
102
}
330
2F47
100
AcDbMLeaderStyle
170
     2
171
     1
172
     0
 90
        2
 40
0.0
 41
0.0
173
     1
 91
-1056964608
340
14
 92
       -2
290
     1
 42
2.0
291
     1
 43
0.36
  3
Standard
 44
4.0
300

342
11
174
     1
178
     6
175
     1
176
     0
 93
-1056964608
 45
4.0
292
     0
297
     0
 46
4.0
 94
-1056964608
 47
1.0
 49
1.0
140
1.0
293
     1
141
0.0
294
     1
177
     0
142
1.0
295
     0
296
     0
143
0.125
1001
ACAD_MLEADERVER
1070
     2
  0
MLINESTYLE
  5
18
102
{ACAD_REACTORS
330
17
102
}
330
17
100
AcDbMlineStyle
  2
STANDARD
 70
     0
  3

 62
   256
 51
90.0
 52
90.0
 71
     2
 49
0.5
 62
   256
  6
BYLAYER
 49
-0.5
 62
   256
  6
BYLAYER
  0
ACDBPLACEHOLDER
  5
F
102
{ACAD_REACTORS
330
E
102
}
330
E
  0
SCALE
  5
2F36
102
{ACAD_REACTORS
330
2F35
102
}
330
2F35
100
AcDbScale
 70
     0
300
1:1
140
1.0
141
1.0
290
     1
  0
SCALE
  5
2F37
102
{ACAD_REACTORS
330
2F35
102
}
330
2F35
100
AcDbScale
 70
     0
300
1:2
140
1.0
141
2.0
290
     0
  0
SCALE
  5
2F38
102
{ACAD_REACTORS
330
2F35
102
}
330
2F35
100
AcDbScale
 70
     0
300
1:4
140
1.0
141
4.0
290
     0
  0
SCALE
  5
2F39
102
{ACAD_REACTORS
330
2F35
102
}
330
2F35
100
AcDbScale
 70
     0
300
1:5
140
1.0
141
5.0
290
     0
  0
SCALE
  5
2F3A
102
{ACAD_REACTORS
330
2F35
102
}
330
2F35
100
AcDbScale
 70
     0
300
1:8
140
1.0
141
8.0
290
     0
  0
SCALE
  5
2F3B
102
{ACAD_REACTORS
330
2F35
102
}
330
2F35
100
AcDbScale
 70
     0
300
1:10
140
1.0
141
10.0
290
     0
  0
SCALE
  5
2F3C
102
{ACAD_REACTORS
330
2F35
102
}
330
2F35
100
AcDbScale
 70
     0
300
1:16
140
1.0
141
16.0
290
     0
  0
SCALE
  5
2F3D
102
{ACAD_REACTORS
330
2F35
102
}
330
2F35
100
AcDbScale
 70
     0
300
1:20
140
1.0
141
20.0
290
     0
  0
SCALE
  5
2F3E
102
{ACAD_REACTORS
330
2F35
102
}
330
2F35
100
AcDbScale
 70
     0
300
1:30
140
1.0
141
30.0
290
     0
  0
SCALE
  5
2F3F
102
{ACAD_REACTORS
330
2F35
102
}
330
2F35
100
AcDbScale
 70
     0
300
1:40
140
1.0
141
40.0
290
     0
  0
SCALE
  5
2F40
102
{ACAD_REACTORS
330
2F35
102
}
330
2F35
100
AcDbScale
 70
     0
300
1:50
140
1.0
141
50.0
290
     0
  0
SCALE
  5
2F41
102
{ACAD_REACTORS
330
2F35
102
}
330
2F35
100
AcDbScale
 70
     0
300
1:100
140
1.0
141
100.0
290
     0
  0
SCALE
  5
2F42
102
{ACAD_REACTORS
330
2F35
102
}
330
2F35
100
AcDbScale
 70
     0
300
2:1
140
2.0
141
1.0
290
     0
  0
SCALE
  5
2F43
102
{ACAD_REACTORS
330
2F35
102
}
330
2F35
100
AcDbScale
 70
     0
300
4:1
140
4.0
141
1.0
290
     0
  0
SCALE
  5
2F44
102
{ACAD_REACTORS
330
2F35
102
}
330
2F35
100
AcDbScale
 70
     0
300
8:1
140
8.0
141
1.0
290
     0
  0
SCALE
  5
2F45
102
{ACAD_REACTORS
330
2F35
102
}
330
2F35
100
AcDbScale
 70
     0
300
10:1
140
10.0
141
1.0
290
     0
  0
SCALE
  5
2F46
102
{ACAD_REACTORS
330
2F35
102
}
330
2F35
100
AcDbScale
 70
     0
300
100:1
140
100.0
141
1.0
290
     0
  0
TABLESTYLE
  5
2E68
102
{ACAD_XDICTIONARY
360
E9FD
102
}
102
{ACAD_REACTORS
330
2E67
102
}
330
2E67
100
AcDbTableStyle
  3
Standard
 70
     0
 71
     0
 40
1.5
 41
1.5
280
     0
281
     0
  7
STANDARD
140
4.5
170
     2
 62
     0
 63
     7
283
     0
274
    -2
284
     1
 64
     0
275
    -2
285
     1
 65
     0
276
    -2
286
     1
 66
     0
277
    -2
287
     1
 67
     0
278
    -2
288
     1
 68
     0
279
    -2
289
     1
 69
     0
  7
STANDARD
140
6.0
170
     5
 62
     0
 63
     7
283
     0
274
    -2
284
     1
 64
     0
275
    -2
285
     1
 65
     0
276
    -2
286
     1
 66
     0
277
    -2
287
     1
 67
     0
278
    -2
288
     1
 68
     0
279
    -2
289
     1
 69
     0
  7
STANDARD
140
4.5
170
     5
 62
     0
 63
     7
283
     0
274
    -2
284
     1
 64
     0
275
    -2
285
     1
 65
     0
276
    -2
286
     1
 66
     0
277
    -2
287
     1
 67
     0
278
    -2
288
     1
 68
     0
279
    -2
289
     1
 69
     0
  0
VISUALSTYLE
  5
2F2A
102
{ACAD_REACTORS
330
2F24
102
}
330
2F24
100
AcDbVisualStyle
  2
2dWireframe
 70
     4
 71
     0
 72
     2
 73
     0
 90
        0
 40
-0.6
 41
-30.0
 62
     5
 63
     7
 74
     1
 91
        4
 64
     7
 65
   257
 75
     1
175
     1
 42
1.0
 92
        0
 66
   257
 43
1.0
 76
     1
 77
     6
 78
     2
 67
     7
 79
     5
170
     0
171
     0
290
     0
174
     0
 93
        1
 44
0.0
173
     0
291
     0
 45
0.0
1001
ACAD
1000
AcDbSavedByObjectVersion
1070
     0
  0
VISUALSTYLE
  5
2F2C
102
{ACAD_REACTORS
330
2F24
102
}
330
2F24
100
AcDbVisualStyle
  2
3D Hidden
 70
     6
 71
     1
 72
     2
 73
     2
 90
        0
 40
-0.6
 41
-30.0
 62
     5
 63
     7
 74
     2
 91
        2
 64
     7
 65
   257
 75
     2
175
     1
 42
40.0
 92
        0
 66
   257
 43
1.0
 76
     1
 77
     6
 78
     2
 67
     7
 79
     3
170
     0
171
     0
290
     0
174
     0
 93
        1
 44
0.0
173
     0
291
     0
 45
0.0
1001
ACAD
1000
AcDbSavedByObjectVersion
1070
     0
  0
VISUALSTYLE
  5
2F2B
102
{ACAD_REACTORS
330
2F24
102
}
330
2F24
100
AcDbVisualStyle
  2
3dWireframe
 70
     5
 71
     0
 72
     2
 73
     0
 90
        0
 40
-0.6
 41
-30.0
 62
     5
 63
     7
 74
     1
 91
        4
 64
     7
 65
   257
 75
     1
175
     1
 42
1.0
 92
        0
 66
   257
 43
1.0
 76
     1
 77
     6
 78
     2
 67
     7
 79
     5
170
     0
171
     0
290
     0
174
     0
 93
        1
 44
0.0
173
     0
291
     0
 45
0.0
1001
ACAD
1000
AcDbSavedByObjectVersion
1070
     0
  0
VISUALSTYLE
  5
2F29
102
{ACAD_REACTORS
330
2F24
102
}
330
2F24
100
AcDbVisualStyle
  2
Basic
 70
     7
 71
     1
 72
     0
 73
     1
 90
        0
 40
-0.6
 41
-30.0
 62
     5
 63
     7
 74
     0
 91
        4
 64
     7
 65
   257
 75
     1
175
     1
 42
1.0
 92
        8
 66
     7
 43
1.0
 76
     1
 77
     6
 78
     2
 67
     7
 79
     5
170
     0
171
     0
290
     0
174
     0
 93
        1
 44
0.0
173
     0
291
     1
 45
0.0
1001
ACAD
1000
AcDbSavedByObjectVersion
1070
     0
  0
VISUALSTYLE
  5
2F30
102
{ACAD_REACTORS
330
2F24
102
}
330
2F24
100
AcDbVisualStyle
  2
Brighten
 70
    12
 71
     2
 72
     2
 73
     0
 90
        0
 40
-0.6
 41
-30.0
 62
     5
 63
     7
 74
     1
 91
        4
 64
     7
 65
   257
 75
     1
175
     1
 42
1.0
 92
        8
 66
     7
 43
1.0
 76
     1
 77
     6
 78
     2
 67
     7
 79
     5
170
     0
171
     0
290
     0
174
     0
 93
        1
 44
50.0
173
     0
291
     1
 45
0.0
1001
ACAD
1000
AcDbSavedByObjectVersion
1070
     0
  0
VISUALSTYLE
  5
2F34
102
{ACAD_REACTORS
330
2F24
102
}
330
2F24
100
AcDbVisualStyle
  2
ColorChange
 70
    16
 71
     2
 72
     2
 73
     3
 90
        0
 40
-0.6
 41
-30.0
 62
     5
 63
     8
 74
     1
 91
        4
 64
     7
 65
   257
 75
     1
175
     1
 42
1.0
 92
        8
 66
     8
 43
1.0
 76
     1
 77
     6
 78
     2
 67
     7
 79
     5
170
     0
171
     0
290
     0
174
     0
 93
        1
 44
0.0
173
     0
291
     1
 45
0.0
1001
ACAD
1000
AcDbSavedByObjectVersion
1070
     0
  0
VISUALSTYLE
  5
2F2D
102
{ACAD_REACTORS
330
2F24
102
}
330
2F24
100
AcDbVisualStyle
  2
Conceptual
 70
     9
 71
     3
 72
     2
 73
     0
 90
        0
 40
-0.6
 41
-30.0
 62
     5
 63
     7
 74
     2
 91
        2
 64
     7
 65
   257
 75
     1
175
     1
 42
40.0
 92
        8
 66
     7
 43
1.0
 76
     1
 77
     6
 78
     2
 67
     7
 79
     3
170
     0
171
     0
290
     0
174
     0
 93
        1
 44
0.0
173
     0
291
     0
 45
0.0
1001
ACAD
1000
AcDbSavedByObjectVersion
1070
     0
  0
VISUALSTYLE
  5
2F2F
102
{ACAD_REACTORS
330
2F24
102
}
330
2F24
100
AcDbVisualStyle
  2
Dim
 70
    11
 71
     2
 72
     2
 73
     0
 90
        0
 40
-0.6
 41
-30.0
 62
     5
 63
     7
 74
     1
 91
        4
 64
     7
 65
   257
 75
     1
175
     1
 42
1.0
 92
        8
 66
     7
 43
1.0
 76
     1
 77
     6
 78
     2
 67
     7
 79
     5
170
     0
171
     0
290
     0
174
     0
 93
        1
 44
-50.0
173
     0
291
     1
 45
0.0
1001
ACAD
1000
AcDbSavedByObjectVersion
1070
     0
  0
VISUALSTYLE
  5
2F33
102
{ACAD_REACTORS
330
2F24
102
}
330
2F24
100
AcDbVisualStyle
  2
Facepattern
 70
    15
 71
     2
 72
     2
 73
     0
 90
        0
 40
-0.6
 41
-30.0
 62
     5
 63
     7
 74
     1
 91
        4
 64
     7
 65
   257
 75
     1
175
     1
 42
1.0
 92
        8
 66
     7
 43
1.0
 76
     1
 77
     6
 78
     2
 67
     7
 79
     5
170
     0
171
     0
290
     0
174
     0
 93
        1
 44
0.0
173
     0
291
     1
 45
0.0
1001
ACAD
1000
AcDbSavedByObjectVersion
1070
     0
  0
VISUALSTYLE
  5
2F25
102
{ACAD_REACTORS
330
2F24
102
}
330
2F24
100
AcDbVisualStyle
  2
Flat
 70
     0
 71
     2
 72
     1
 73
     1
 90
        2
 40
-0.6
 41
30.0
 62
     5
 63
     7
 74
     0
 91
        4
 64
     7
 65
   257
 75
     1
175
     1
 42
1.0
 92
        8
 66
     7
 43
1.0
 76
     1
 77
     6
 78
     2
 67
     7
 79
     5
170
     0
171
     0
290
     0
174
     0
 93
       13
 44
0.0
173
     0
291
     1
 45
0.0
1001
ACAD
1000
AcDbSavedByObjectVersion
1070
     0
  0
VISUALSTYLE
  5
2F26
102
{ACAD_REACTORS
330
2F24
102
}
330
2F24
100
AcDbVisualStyle
  2
FlatWithEdges
 70
     1
 71
     2
 72
     1
 73
     1
 90
        2
 40
-0.6
 41
30.0
 62
     5
 63
     7
 74
     1
 91
        4
 64
     7
 65
   257
 75
     1
175
     1
 42
1.0
 92
        0
 66
   257
 43
1.0
 76
     1
 77
     6
 78
     2
 67
     7
 79
     5
170
     0
171
     0
290
     0
174
     0
 93
       13
 44
0.0
173
     0
291
     1
 45
0.0
1001
ACAD
1000
AcDbSavedByObjectVersion
1070
     0
  0
VISUALSTYLE
  5
2F27
102
{ACAD_REACTORS
330
2F24
102
}
330
2F24
100
AcDbVisualStyle
  2
Gouraud
 70
     2
 71
     2
 72
     2
 73
     1
 90
        2
 40
-0.6
 41
30.0
 62
     5
 63
     7
 74
     0
 91
        4
 64
     7
 65
   257
 75
     1
175
     1
 42
1.0
 92
        0
 66
     7
 43
1.0
 76
     1
 77
     6
 78
     2
 67
     7
 79
     5
170
     0
171
     0
290
     0
174
     0
 93
       13
 44
0.0
173
     0
291
     1
 45
0.0
1001
ACAD
1000
AcDbSavedByObjectVersion
1070
     0
  0
VISUALSTYLE
  5
2F28
102
{ACAD_REACTORS
330
2F24
102
}
330
2F24
100
AcDbVisualStyle
  2
GouraudWithEdges
 70
     3
 71
     2
 72
     2
 73
     1
 90
        2
 40
-0.6
 41
30.0
 62
     5
 63
     7
 74
     1
 91
        4
 64
     7
 65
   257
 75
     1
175
     1
 42
1.0
 92
        0
 66
   257
 43
1.0
 76
     1
 77
     6
 78
     2
 67
     7
 79
     5
170
     0
171
     0
290
     0
174
     0
 93
       13
 44
0.0
173
     0
291
     1
 45
0.0
1001
ACAD
1000
AcDbSavedByObjectVersion
1070
     0
  0
VISUALSTYLE
  5
2F32
102
{ACAD_REACTORS
330
2F24
102
}
330
2F24
100
AcDbVisualStyle
  2
Linepattern
 70
    14
 71
     2
 72
     2
 73
     0
 90
        0
 40
-0.6
 41
-30.0
 62
     5
 63
     7
 74
     1
 91
        4
 64
     7
 65
   257
 75
     7
175
     7
 42
1.0
 92
        8
 66
     7
 43
1.0
 76
     1
 77
     6
 78
     2
 67
     7
 79
     5
170
     0
171
     0
290
     0
174
     0
 93
        1
 44
0.0
173
     0
291
     1
 45
0.0
1001
ACAD
1000
AcDbSavedByObjectVersion
1070
     0
  0
VISUALSTYLE
  5
2F2E
102
{ACAD_REACTORS
330
2F24
102
}
330
2F24
100
AcDbVisualStyle
  2
Realistic
 70
     8
 71
     2
 72
     2
 73
     0
 90
        0
 40
-0.6
 41
-30.0
 62
     5
 63
     7
 74
     1
 91
        0
 64
     7
 65
   257
 75
     1
175
     1
 42
1.0
 92
        8
 66
     8
 43
1.0
 76
     1
 77
     6
 78
     2
 67
     7
 79
     5
170
     0
171
     0
290
     0
174
     0
 93
       13
 44
0.0
173
     0
291
     0
 45
0.0
1001
ACAD
1000
AcDbSavedByObjectVersion
1070
     0
  0
VISUALSTYLE
  5
2F31
102
{ACAD_REACTORS
330
2F24
102
}
330
2F24
100
AcDbVisualStyle
  2
Thicken
 70
    13
 71
     2
 72
     2
 73
     0
 90
        0
 40
-0.6
 41
-30.0
 62
     5
 63
     7
 74
     1
 91
        4
 64
     7
 65
   257
 75
     1
175
     1
 42
1.0
 92
       12
 66
     7
 43
1.0
 76
     1
 77
     6
 78
     2
 67
     7
 79
     5
170
     0
171
     0
290
     0
174
     0
 93
        1
 44
0.0
173
     0
291
     1
 45
0.0
1001
ACAD
1000
AcDbSavedByObjectVersion
1070
     0
  0
DICTIONARYVAR
  5
EA02
102
{ACAD_REACTORS
330
216
102
}
330
216
100
DictionaryVariables
280
     0
  1
1:1
  0
DICTIONARYVAR
  5
EA00
102
{ACAD_REACTORS
330
216
102
}
330
216
100
DictionaryVariables
280
     0
  1
STANDARD
  0
DICTIONARYVAR
  5
2EEA
102
{ACAD_REACTORS
330
216
102
}
330
216
100
DictionaryVariables
280
     0
  1
STANDARD
  0
DICTIONARYVAR
  5
219
102
{ACAD_REACTORS
330
216
102
}
330
216
100
DictionaryVariables
280
     0
  1
1
  0
DICTIONARYVAR
  5
218
102
{ACAD_REACTORS
330
216
102
}
330
216
100
DictionaryVariables
280
     0
  1
1
  0
DICTIONARYVAR
  5
217
102
{ACAD_REACTORS
330
216
102
}
330
216
100
DictionaryVariables
280
     0
  1
0
  0
DICTIONARYVAR
  5
EA04
102
{ACAD_REACTORS
330
216
102
}
330
216
100
DictionaryVariables
280
     0
  1
1
  0
DICTIONARYVAR
  5
EA05
102
{ACAD_REACTORS
330
216
102
}
330
216
100
DictionaryVariables
280
     0
  1
15
  0
DICTIONARYVAR
  5
EA03
102
{ACAD_REACTORS
330
216
102
}
330
216
100
DictionaryVariables
280
     0
  1
0
  0
DICTIONARYVAR
  5
EA01
102
{ACAD_REACTORS
330
216
102
}
330
216
100
DictionaryVariables
280
     0
  1
0
  0
DICTIONARYVAR
  5
EA31
102
{ACAD_REACTORS
330
216
102
}
330
216
100
DictionaryVariables
280
     0
  1
127
  0
DICTIONARY
  5
4A
102
{ACAD_REACTORS
330
45
102
}
330
45
100
AcDbDictionary
281
     1
  0
XRECORD
  5
2EB6
102
{ACAD_REACTORS
330
45
102
}
330
45
100
AcDbXrecord
280
     1
 90
-1023410169
  0
DICTIONARY
  5
2F15
330
2F14
100
AcDbDictionary
280
     1
281
     1
  3
ACAD_XREC_ROUNDTRIP
360
EB0E
  3
BUMPTILE
360
2F17
  3
DIFFUSETILE
360
2F16
  3
OPACITYTILE
360
2F1A
  3
REFLECTIONTILE
360
2F19
  3
REFRACTIONTILE
360
2F1B
  3
SPECULARTILE
360
2F18
  0
DICTIONARY
  5
2F0D
330
2F0C
100
AcDbDictionary
280
     1
281
     1
  3
ACAD_XREC_ROUNDTRIP
360
EB0D
  3
BUMPTILE
360
2F0F
  3
DIFFUSETILE
360
2F0E
  3
OPACITYTILE
360
2F12
  3
REFLECTIONTILE
360
2F11
  3
REFRACTIONTILE
360
2F13
  3
SPECULARTILE
360
2F10
  0
DICTIONARY
  5
2F1D
330
2F1C
100
AcDbDictionary
280
     1
281
     1
  3
ACAD_XREC_ROUNDTRIP
360
EB0F
  3
BUMPTILE
360
2F1F
  3
DIFFUSETILE
360
2F1E
  3
OPACITYTILE
360
2F22
  3
REFLECTIONTILE
360
2F21
  3
REFRACTIONTILE
360
2F23
  3
SPECULARTILE
360
2F20
  0
DICTIONARY
  5
E9FD
330
2E68
100
AcDbDictionary
280
     1
281
     1
  3
ACAD_ROUNDTRIP_2008_TABLESTYLE_CELLSTYLEMAP
360
EB06
  3
ACAD_XREC_ROUNDTRIP
360
EB0C
  0
XRECORD
  5
EB0E
102
{ACAD_REACTORS
330
2F15
102
}
330
2F15
100
AcDbXrecord
280
     1
102
MATERIAL
148
0.0
149
0.0
149
0.0
 93
        0
 94
      127
282
     0
 72
     0
 77
     0
171
     0
175
     0
179
     0
273
     0
  0
XRECORD
  5
2F17
102
{ACAD_REACTORS
330
2F15
102
}
330
2F15
100
AcDbXrecord
280
     1
270
     1
271
     1
  0
XRECORD
  5
2F16
102
{ACAD_REACTORS
330
2F15
102
}
330
2F15
100
AcDbXrecord
280
     1
270
     1
271
     1
  0
XRECORD
  5
2F1A
102
{ACAD_REACTORS
330
2F15
102
}
330
2F15
100
AcDbXrecord
280
     1
270
     1
271
     1
  0
XRECORD
  5
2F19
102
{ACAD_REACTORS
330
2F15
102
}
330
2F15
100
AcDbXrecord
280
     1
270
     1
271
     1
  0
XRECORD
  5
2F1B
102
{ACAD_REACTORS
330
2F15
102
}
330
2F15
100
AcDbXrecord
280
     1
270
     1
271
     1
  0
XRECORD
  5
2F18
102
{ACAD_REACTORS
330
2F15
102
}
330
2F15
100
AcDbXrecord
280
     1
270
     1
271
     1
  0
XRECORD
  5
EB0D
102
{ACAD_REACTORS
330
2F0D
102
}
330
2F0D
100
AcDbXrecord
280
     1
102
MATERIAL
148
0.0
149
0.0
149
0.0
 93
        0
 94
      127
282
     0
 72
     0
 77
     0
171
     0
175
     0
179
     0
273
     0
  0
XRECORD
  5
2F0F
102
{ACAD_REACTORS
330
2F0D
102
}
330
2F0D
100
AcDbXrecord
280
     1
270
     1
271
     1
  0
XRECORD
  5
2F0E
102
{ACAD_REACTORS
330
2F0D
102
}
330
2F0D
100
AcDbXrecord
280
     1
270
     1
271
     1
  0
XRECORD
  5
2F12
102
{ACAD_REACTORS
330
2F0D
102
}
330
2F0D
100
AcDbXrecord
280
     1
270
     1
271
     1
  0
XRECORD
  5
2F11
102
{ACAD_REACTORS
330
2F0D
102
}
330
2F0D
100
AcDbXrecord
280
     1
270
     1
271
     1
  0
XRECORD
  5
2F13
102
{ACAD_REACTORS
330
2F0D
102
}
330
2F0D
100
AcDbXrecord
280
     1
270
     1
271
     1
  0
XRECORD
  5
2F10
102
{ACAD_REACTORS
330
2F0D
102
}
330
2F0D
100
AcDbXrecord
280
     1
270
     1
271
     1
  0
XRECORD
  5
EB0F
102
{ACAD_REACTORS
330
2F1D
102
}
330
2F1D
100
AcDbXrecord
280
     1
102
MATERIAL
148
0.0
149
0.0
149
0.0
 93
        0
 94
      127
282
     0
 72
     0
 77
     0
171
     0
175
     0
179
     0
273
     0
  0
XRECORD
  5
2F1F
102
{ACAD_REACTORS
330
2F1D
102
}
330
2F1D
100
AcDbXrecord
280
     1
270
     1
271
     1
  0
XRECORD
  5
2F1E
102
{ACAD_REACTORS
330
2F1D
102
}
330
2F1D
100
AcDbXrecord
280
     1
270
     1
271
     1
  0
XRECORD
  5
2F22
102
{ACAD_REACTORS
330
2F1D
102
}
330
2F1D
100
AcDbXrecord
280
     1
270
     1
271
     1
  0
XRECORD
  5
2F21
102
{ACAD_REACTORS
330
2F1D
102
}
330
2F1D
100
AcDbXrecord
280
     1
270
     1
271
     1
  0
XRECORD
  5
2F23
102
{ACAD_REACTORS
330
2F1D
102
}
330
2F1D
100
AcDbXrecord
280
     1
270
     1
271
     1
  0
XRECORD
  5
2F20
102
{ACAD_REACTORS
330
2F1D
102
}
330
2F1D
100
AcDbXrecord
280
     1
270
     1
271
     1
  0
CELLSTYLEMAP
  5
EB06
102
{ACAD_REACTORS
330
E9FD
102
}
330
E9FD
100
AcDbCellStyleMap
 90
        3
300
CELLSTYLE
  1
TABLEFORMAT_BEGIN
 90
        5
170
     1
 91
        0
 92
    32768
 62
   257
 93
        1
300
CONTENTFORMAT
  1
CONTENTFORMAT_BEGIN
 90
        0
 91
        0
 92
        4
 93
        0
300

 40
0.0
140
1.0
 94
        5
 62
     0
340
11
144
6.0
309
CONTENTFORMAT_END
171
     1
301
MARGIN
  1
CELLMARGIN_BEGIN
 40
1.5
 40
1.5
 40
1.5
 40
1.5
 40
0.18
 40
0.18
309
CELLMARGIN_END
 94
        6
 95
        1
302
GRIDFORMAT
  1
GRIDFORMAT_BEGIN
 90
        0
 91
        1
 62
     0
 92
       -2
340
0
 93
        0
 40
0.045
309
GRIDFORMAT_END
 95
        2
302
GRIDFORMAT
  1
GRIDFORMAT_BEGIN
 90
        0
 91
        1
 62
     0
 92
       -2
340
0
 93
        0
 40
0.045
309
GRIDFORMAT_END
 95
        4
302
GRIDFORMAT
  1
GRIDFORMAT_BEGIN
 90
        0
 91
        1
 62
     0
 92
       -2
340
0
 93
        0
 40
0.045
309
GRIDFORMAT_END
 95
        8
302
GRIDFORMAT
  1
GRIDFORMAT_BEGIN
 90
        0
 91
        1
 62
     0
 92
       -2
340
0
 93
        0
 40
0.045
309
GRIDFORMAT_END
 95
       16
302
GRIDFORMAT
  1
GRIDFORMAT_BEGIN
 90
        0
 91
        1
 62
     0
 92
       -2
340
0
 93
        0
 40
0.045
309
GRIDFORMAT_END
 95
       32
302
GRIDFORMAT
  1
GRIDFORMAT_BEGIN
 90
        0
 91
        1
 62
     0
 92
       -2
340
0
 93
        0
 40
0.045
309
GRIDFORMAT_END
309
TABLEFORMAT_END
  1
CELLSTYLE_BEGIN
 90
        1
 91
        1
300
_TITLE
309
CELLSTYLE_END
300
CELLSTYLE
  1
TABLEFORMAT_BEGIN
 90
        5
170
     1
 91
        0
 92
        0
 62
   257
 93
        1
300
CONTENTFORMAT
  1
CONTENTFORMAT_BEGIN
 90
        0
 91
        0
 92
        4
 93
        0
300

 40
0.0
140
1.0
 94
        5
 62
     0
340
11
144
4.5
309
CONTENTFORMAT_END
171
     1
301
MARGIN
  1
CELLMARGIN_BEGIN
 40
1.5
 40
1.5
 40
1.5
 40
1.5
 40
0.18
 40
0.18
309
CELLMARGIN_END
 94
        6
 95
        1
302
GRIDFORMAT
  1
GRIDFORMAT_BEGIN
 90
        0
 91
        1
 62
     0
 92
       -2
340
0
 93
        0
 40
0.045
309
GRIDFORMAT_END
 95
        2
302
GRIDFORMAT
  1
GRIDFORMAT_BEGIN
 90
        0
 91
        1
 62
     0
 92
       -2
340
0
 93
        0
 40
0.045
309
GRIDFORMAT_END
 95
        4
302
GRIDFORMAT
  1
GRIDFORMAT_BEGIN
 90
        0
 91
        1
 62
     0
 92
       -2
340
0
 93
        0
 40
0.045
309
GRIDFORMAT_END
 95
        8
302
GRIDFORMAT
  1
GRIDFORMAT_BEGIN
 90
        0
 91
        1
 62
     0
 92
       -2
340
0
 93
        0
 40
0.045
309
GRIDFORMAT_END
 95
       16
302
GRIDFORMAT
  1
GRIDFORMAT_BEGIN
 90
        0
 91
        1
 62
     0
 92
       -2
340
0
 93
        0
 40
0.045
309
GRIDFORMAT_END
 95
       32
302
GRIDFORMAT
  1
GRIDFORMAT_BEGIN
 90
        0
 91
        1
 62
     0
 92
       -2
340
0
 93
        0
 40
0.045
309
GRIDFORMAT_END
309
TABLEFORMAT_END
  1
CELLSTYLE_BEGIN
 90
        2
 91
        1
300
_HEADER
309
CELLSTYLE_END
300
CELLSTYLE
  1
TABLEFORMAT_BEGIN
 90
        5
170
     1
 91
        0
 92
        0
 62
   257
 93
        1
300
CONTENTFORMAT
  1
CONTENTFORMAT_BEGIN
 90
        0
 91
        0
 92
        4
 93
        0
300

 40
0.0
140
1.0
 94
        2
 62
     0
340
11
144
4.5
309
CONTENTFORMAT_END
171
     1
301
MARGIN
  1
CELLMARGIN_BEGIN
 40
1.5
 40
1.5
 40
1.5
 40
1.5
 40
0.18
 40
0.18
309
CELLMARGIN_END
 94
        6
 95
        1
302
GRIDFORMAT
  1
GRIDFORMAT_BEGIN
 90
        0
 91
        1
 62
     0
 92
       -2
340
0
 93
        0
 40
0.045
309
GRIDFORMAT_END
 95
        2
302
GRIDFORMAT
  1
GRIDFORMAT_BEGIN
 90
        0
 91
        1
 62
     0
 92
       -2
340
0
 93
        0
 40
0.045
309
GRIDFORMAT_END
 95
        4
302
GRIDFORMAT
  1
GRIDFORMAT_BEGIN
 90
        0
 91
        1
 62
     0
 92
       -2
340
0
 93
        0
 40
0.045
309
GRIDFORMAT_END
 95
        8
302
GRIDFORMAT
  1
GRIDFORMAT_BEGIN
 90
        0
 91
        1
 62
     0
 92
       -2
340
0
 93
        0
 40
0.045
309
GRIDFORMAT_END
 95
       16
302
GRIDFORMAT
  1
GRIDFORMAT_BEGIN
 90
        0
 91
        1
 62
     0
 92
       -2
340
0
 93
        0
 40
0.045
309
GRIDFORMAT_END
 95
       32
302
GRIDFORMAT
  1
GRIDFORMAT_BEGIN
 90
        0
 91
        1
 62
     0
 92
       -2
340
0
 93
        0
 40
0.045
309
GRIDFORMAT_END
309
TABLEFORMAT_END
  1
CELLSTYLE_BEGIN
 90
        3
 91
        2
300
_DATA
309
CELLSTYLE_END
  0
XRECORD
  5
EB0C
102
{ACAD_REACTORS
330
E9FD
102
}
330
E9FD
100
AcDbXrecord
280
     1
102
ACAD_ROUNDTRIP_PRE2007_TABLESTYLE
 90
        4
 91
        0
  1

 92
        4
 93
        0
  2

 94
        4
 95
        0
  3

  0
ENDSEC
  0
EOF
