  0
SECTION
  2
HEADER
  9
$ACADVER
  1
AC1018
  9
$ACADMAINTVER
 70
   104
  9
$DWGCODEPAGE
  3
ANSI_1252
  9
$LASTSAVEDBY
  1
Bernd Dutschke
  9
$CUSTOMPROPERTYTAG
  1
AmdtFileType
  9
$CUSTOMPROPERTY
  1
84
  9
$INSBASE
 10
0.0
 20
0.0
 30
0.0
  9
$EXTMIN
 10
-31.63668226547339
 20
-50.60023720812444
 30
-0.0000000000000098
  9
$EXTMAX
 10
84.70483874558306
 20
94.84096815430097
 30
0.0000000000000055
  9
$LIMMIN
 10
0.0
 20
0.0
  9
$LIMMAX
 10
420.0
 20
297.0
  9
$ORTHOMODE
 70
     0
  9
$REGENMODE
 70
     1
  9
$FILLMODE
 70
     1
  9
$QTEXTMODE
 70
     0
  9
$MIRRTEXT
 70
     1
  9
$LTSCALE
 40
1.0
  9
$ATTMODE
 70
     1
  9
$TEXTSIZE
 40
3.5
  9
$TRACEWID
 40
1.0
  9
$TEXTSTYLE
  7
STANDARD
  9
$CLAYER
  8
0
  9
$CELTYPE
  6
ByLayer
  9
$CECOLOR
 62
   256
  9
$CELTSCALE
 40
1.0
  9
$DISPSILH
 70
     0
  9
$DIMSCALE
 40
1.0
  9
$DIMASZ
 40
2.5
  9
$DIMEXO
 40
0.0
  9
$DIMDLI
 40
10.0
  9
$DIMRND
 40
0.0
  9
$DIMDLE
 40
0.0
  9
$DIMEXE
 40
1.0
  9
$DIMTP
 40
0.1
  9
$DIMTM
 40
0.1
  9
$DIMTXT
 40
3.5
  9
$DIMCEN
 40
0.0
  9
$DIMTSZ
 40
0.0
  9
$DIMTOL
 70
     0
  9
$DIMLIM
 70
     0
  9
$DIMTIH
 70
     0
  9
$DIMTOH
 70
     0
  9
$DIMSE1
 70
     0
  9
$DIMSE2
 70
     0
  9
$DIMTAD
 70
     1
  9
$DIMZIN
 70
     8
  9
$DIMBLK
  1

  9
$DIMASO
 70
     1
  9
$DIMSHO
 70
     1
  9
$DIMPOST
  1

  9
$DIMAPOST
  1
"
  9
$DIMALT
 70
     0
  9
$DIMALTD
 70
     2
  9
$DIMALTF
 40
0.0393701
  9
$DIMLFAC
 40
1.0
  9
$DIMTOFL
 70
     1
  9
$DIMTVP
 40
0.0
  9
$DIMTIX
 70
     0
  9
$DIMSOXD
 70
     0
  9
$DIMSAH
 70
     0
  9
$DIMBLK1
  1

  9
$DIMBLK2
  1

  9
$DIMSTYLE
  2
AM_DIN
  9
$DIMCLRD
 70
   256
  9
$DIMCLRE
 70
   256
  9
$DIMCLRT
 70
     2
  9
$DIMTFAC
 40
0.71
  9
$DIMGAP
 40
1.5
  9
$DIMJUST
 70
     0
  9
$DIMSD1
 70
     0
  9
$DIMSD2
 70
     0
  9
$DIMTOLJ
 70
     0
  9
$DIMTZIN
 70
     8
  9
$DIMALTZ
 70
     0
  9
$DIMALTTZ
 70
     0
  9
$DIMUPT
 70
     0
  9
$DIMDEC
 70
     1
  9
$DIMTDEC
 70
     2
  9
$DIMALTU
 70
     2
  9
$DIMALTTD
 70
     2
  9
$DIMTXSTY
  7
STANDARD
  9
$DIMAUNIT
 70
     0
  9
$DIMADEC
 70
     0
  9
$DIMALTRND
 40
0.0
  9
$DIMAZIN
 70
     2
  9
$DIMDSEP
 70
    46
  9
$DIMATFIT
 70
     3
  9
$DIMFRAC
 70
     0
  9
$DIMLDRBLK
  1

  9
$DIMLUNIT
 70
     2
  9
$DIMLWD
 70
    -1
  9
$DIMLWE
 70
    -1
  9
$DIMTMOVE
 70
     0
  9
$LUNITS
 70
     2
  9
$LUPREC
 70
     2
  9
$SKETCHINC
 40
1.0
  9
$FILLETRAD
 40
1.0
  9
$AUNITS
 70
     0
  9
$AUPREC
 70
     0
  9
$MENU
  1
.
  9
$ELEVATION
 40
0.0
  9
$PELEVATION
 40
0.0
  9
$THICKNESS
 40
0.0
  9
$LIMCHECK
 70
     0
  9
$CHAMFERA
 40
2.5
  9
$CHAMFERB
 40
2.5
  9
$CHAMFERC
 40
20.0
  9
$CHAMFERD
 40
0.0
  9
$SKPOLY
 70
     0
  9
$TDCREATE
 40
2453599.656190694
  9
$TDUCREATE
 40
2453599.614524028
  9
$TDUPDATE
 40
2454798.610042859
  9
$TDUUPDATE
 40
2454798.568376193
  9
$TDINDWG
 40
0.1803934259
  9
$TDUSRTIMER
 40
0.1802067014
  9
$USRTIMER
 70
     1
  9
$ANGBASE
 50
0.0
  9
$ANGDIR
 70
     0
  9
$PDMODE
 70
     0
  9
$PDSIZE
 40
0.0
  9
$PLINEWID
 40
0.0
  9
$SPLFRAME
 70
     0
  9
$SPLINETYPE
 70
     6
  9
$SPLINESEGS
 70
     8
  9
$HANDSEED
  5
E11B
  9
$SURFTAB1
 70
     6
  9
$SURFTAB2
 70
     6
  9
$SURFTYPE
 70
     6
  9
$SURFU
 70
     6
  9
$SURFV
 70
     6
  9
$UCSBASE
  2

  9
$UCSNAME
  2

  9
$UCSORG
 10
0.0
 20
0.0
 30
0.0
  9
$UCSXDIR
 10
1.0
 20
0.0
 30
0.0
  9
$UCSYDIR
 10
0.0
 20
1.0
 30
0.0
  9
$UCSORTHOREF
  2

  9
$UCSORTHOVIEW
 70
     0
  9
$UCSORGTOP
 10
0.0
 20
0.0
 30
0.0
  9
$UCSORGBOTTOM
 10
0.0
 20
0.0
 30
0.0
  9
$UCSORGLEFT
 10
0.0
 20
0.0
 30
0.0
  9
$UCSORGRIGHT
 10
0.0
 20
0.0
 30
0.0
  9
$UCSORGFRONT
 10
0.0
 20
0.0
 30
0.0
  9
$UCSORGBACK
 10
0.0
 20
0.0
 30
0.0
  9
$PUCSBASE
  2

  9
$PUCSNAME
  2

  9
$PUCSORG
 10
0.0
 20
0.0
 30
0.0
  9
$PUCSXDIR
 10
1.0
 20
0.0
 30
0.0
  9
$PUCSYDIR
 10
0.0
 20
1.0
 30
0.0
  9
$PUCSORTHOREF
  2

  9
$PUCSORTHOVIEW
 70
     0
  9
$PUCSORGTOP
 10
0.0
 20
0.0
 30
0.0
  9
$PUCSORGBOTTOM
 10
0.0
 20
0.0
 30
0.0
  9
$PUCSORGLEFT
 10
0.0
 20
0.0
 30
0.0
  9
$PUCSORGRIGHT
 10
0.0
 20
0.0
 30
0.0
  9
$PUCSORGFRONT
 10
0.0
 20
0.0
 30
0.0
  9
$PUCSORGBACK
 10
0.0
 20
0.0
 30
0.0
  9
$USERI1
 70
     0
  9
$USERI2
 70
     0
  9
$USERI3
 70
     0
  9
$USERI4
 70
     0
  9
$USERI5
 70
     0
  9
$USERR1
 40
0.0
  9
$USERR2
 40
0.0
  9
$USERR3
 40
0.0
  9
$USERR4
 40
0.0
  9
$USERR5
 40
0.0
  9
$WORLDVIEW
 70
     1
  9
$SHADEDGE
 70
     3
  9
$SHADEDIF
 70
    70
  9
$TILEMODE
 70
     1
  9
$MAXACTVP
 70
    64
  9
$PINSBASE
 10
0.0
 20
0.0
 30
0.0
  9
$PLIMCHECK
 70
     0
  9
$PEXTMIN
 10
1.000000000000000E+20
 20
1.000000000000000E+20
 30
1.000000000000000E+20
  9
$PEXTMAX
 10
-1.000000000000000E+20
 20
-1.000000000000000E+20
 30
-1.000000000000000E+20
  9
$PLIMMIN
 10
0.0
 20
0.0
  9
$PLIMMAX
 10
420.0
 20
297.0
  9
$UNITMODE
 70
     0
  9
$VISRETAIN
 70
     1
  9
$PLINEGEN
 70
     0
  9
$PSLTSCALE
 70
     1
  9
$TREEDEPTH
 70
  3020
  9
$CMLSTYLE
  2
Standard
  9
$CMLJUST
 70
     0
  9
$CMLSCALE
 40
20.0
  9
$PROXYGRAPHICS
 70
     1
  9
$MEASUREMENT
 70
     1
  9
$CELWEIGHT
370
    -1
  9
$ENDCAPS
280
     0
  9
$JOINSTYLE
280
     0
  9
$LWDISPLAY
290
     0
  9
$INSUNITS
 70
     4
  9
$HYPERLINKBASE
  1

  9
$STYLESHEET
  1
monochrome-Neu.ctb
  9
$XEDIT
290
     1
  9
$CEPSNTYPE
380
     0
  9
$PSTYLEMODE
290
     1
  9
$FINGERPRINTGUID
  2
{03052709-208C-44F1-88CB-F8F0E550BC5D}
  9
$VERSIONGUID
  2
{4EF2857D-A4BD-46F7-A822-8B199D28FFEC}
  9
$EXTNAMES
290
     1
  9
$PSVPSCALE
 40
0.0
  9
$OLESTARTUP
290
     0
  9
$SORTENTS
280
   127
  9
$INDEXCTL
280
     0
  9
$HIDETEXT
280
     1
  9
$XCLIPFRAME
290
     0
  9
$HALOGAP
280
     0
  9
$OBSCOLOR
 70
   257
  9
$OBSLTYPE
280
     0
  9
$INTERSECTIONDISPLAY
280
     0
  9
$INTERSECTIONCOLOR
 70
   257
  9
$DIMASSOC
280
     1
  9
$PROJECTNAME
  1

  0
ENDSEC
  0
SECTION
  2
CLASSES
  0
CLASS
  1
ACDBDICTIONARYWDFLT
  2
AcDbDictionaryWithDefault
  3
ObjectDBX Classes
 90
        0
 91
        1
280
     0
281
     0
  0
CLASS
  1
ACME_DOCUMENT
  2
AcMeDbDoc
  3
AcMeServices
 90
     1024
 91
        2
280
     0
281
     0
  0
CLASS
  1
ACMESCOPE
  2
AcMeScope
  3
AcMeServices
 90
     1024
 91
        1
280
     0
281
     0
  0
CLASS
  1
ACMECOMMANDHISTORY
  2
AcMeCommandHistory
  3
AcMeServices
 90
     1024
 91
        1
280
     0
281
     0
  0
CLASS
  1
ACIMSYSVARMAN
  2
AcImSysVarManager
  3
AcMeServices
 90
     1024
 91
        6
280
     0
281
     0
  0
CLASS
  1
ACIMREALSYSVAR
  2
AcImRealSysVar
  3
AcMeServices
 90
     1024
 91
        1
280
     0
281
     0
  0
CLASS
  1
ACIMINTSYSVAR
  2
AcImIntSysVar
  3
AcMeServices
 90
     1024
 91
       27
280
     0
281
     0
  0
CLASS
  1
ACMEDRAWINGMAN
  2
AcMeDrawingMan
  3
AcMeServices
 90
     1024
 91
        1
280
     0
281
     0
  0
CLASS
  1
ACMEVIEW
  2
AcMeView
  3
AcMeServices
 90
     1024
 91
        1
280
     0
281
     0
  0
CLASS
  1
ACDBENTITYCACHE
  2
AcMeEntityCache
  3
AcMeServices
 90
     1024
 91
        1
280
     0
281
     0
  0
CLASS
  1
GSMANAGER
  2
AcMeGSManager
  3
AcMeServices
 90
     1024
 91
        1
280
     0
281
     0
  0
CLASS
  1
AMDTINTERNALREACTOR
  2
AmdtInternalReactor
  3
AcMeServices
 90
     1024
 91
        2
280
     0
281
     0
  0
CLASS
  1
ACMESTATEMGR
  2
AcMeStateMgr
  3
AcMeServices
 90
     1024
 91
        1
280
     0
281
     0
  0
CLASS
  1
ACGREFMASTER
  2
AcGrefMaster
  3
AcAttribServices
 90
     1024
 91
        1
280
     0
281
     0
  0
CLASS
  1
ACME_DATABASE
  2
AcMeDbDatabase
  3
AcMeServices
 90
     1024
 91
        1
280
     0
281
     0
  0
CLASS
  1
ACRFINSADJUSTERMGR
  2
AcRfInsAdjusterMgr
  3
AcMeServices
 90
     1024
 91
        1
280
     0
281
     0
  0
CLASS
  1
ACGREFACADMASTER
  2
AcGrefacadMaster
  3
AcGrefServices
 90
     1024
 91
        1
280
     0
281
     0
  0
CLASS
  1
AMIMASTER
  2
AmiMaster
  3
AmiServices
 90
     1024
 91
        1
280
     0
281
     0
  0
CLASS
  1
AMGSETTINGSOBJ
  2
AmgSettingsObj
  3
"AcadM|Product Description: AutoCAD Mechanical|Company: Autodesk, Inc."
 90
     1024
 91
        2
280
     0
281
     0
  0
CLASS
  1
ACMDATADICTIONARY
  2
AcmDataDictionary
  3
"AcmSymBB|Product Description: AutoCAD Mechanical|Company: Autodesk, Inc."
 90
     1024
 91
        1
280
     0
281
     0
  0
CLASS
  1
ACMDATAENTRYBLOCK
  2
AcmDataEntryBlock
  3
AcmSymBB|Product Description: AutoCAD Mechanical|Company: Autodesk, Inc.
 90
     1024
 91
        0
280
     0
281
     0
  0
CLASS
  1
ACIMSTRSYSVAR
  2
AcImStrSysVar
  3
AcMeServices
 90
     1024
 91
        6
280
     0
281
     0
  0
CLASS
  1
ACMSTANDARDDIN
  2
AcmStandardDIN
  3
"Amdt_StdImp|Product Description: AutoCAD Mechanical|Company: Autodesk, Inc."
 90
     1024
 91
        1
280
     0
281
     0
  0
CLASS
  1
AMGOBJPROPCFG
  2
AmgObjPropCfg
  3
"AmgLay|Product Description: AutoCAD Mechanical|Company: Autodesk, Inc."
 90
     1025
 91
        1
280
     0
281
     0
  0
CLASS
  1
AMDTEDGESTANDARDDIN
  2
AmdtEdgeStdDIN
  3
"Amdt_StdImp|Product Description: AutoCAD Mechanical|Company: Autodesk, Inc."
 90
     1024
 91
        0
280
     0
281
     0
  0
CLASS
  1
ACMSURFSTANDARDDIN
  2
AcmSurfTextStdDIN
  3
"Amdt_StdImp|Product Description: AutoCAD Mechanical|Company: Autodesk, Inc."
 90
     1024
 91
        0
280
     0
281
     0
  0
CLASS
  1
ACMFCFSTANDARDDIN
  2
AcmFCFStdDIN
  3
"Amdt_StdImp|Product Description: AutoCAD Mechanical|Company: Autodesk, Inc."
 90
     1024
 91
        1
280
     0
281
     0
  0
CLASS
  1
ACMWELDSTANDARDDIN
  2
AcmWeldingStdDIN
  3
"Amdt_StdImp|Product Description: AutoCAD Mechanical|Company: Autodesk, Inc."
 90
     1024
 91
        1
280
     0
281
     0
  0
CLASS
  1
ACMIDSTANDARDDIN
  2
AcmIdStdDIN
  3
"Amdt_StdImp|Product Description: AutoCAD Mechanical|Company: Autodesk, Inc."
 90
     1024
 91
        1
280
     0
281
     0
  0
CLASS
  1
ACMDATUMSTANDARDDIN
  2
AcmDatumStdDIN
  3
"Amdt_StdImp|Product Description: AutoCAD Mechanical|Company: Autodesk, Inc."
 90
     1024
 91
        1
280
     0
281
     0
  0
CLASS
  1
ACMBOMSTANDARDDIN
  2
AcmBOMStdDIN
  3
"Amdt_StdImp|Product Description: AutoCAD Mechanical|Company: Autodesk, Inc."
 90
     1024
 91
        1
280
     0
281
     0
  0
CLASS
  1
ACMDETAILSTANDARDDIN
  2
AmdtDetailSymStdDIN
  3
"Amdt_StdImp|Product Description: AutoCAD Mechanical|Company: Autodesk, Inc."
 90
     1024
 91
        1
280
     0
281
     0
  0
CLASS
  1
ACMSECTIONSTANDARDDIN
  2
AmdtSectionSymStdDIN
  3
"Amdt_StdImp|Product Description: AutoCAD Mechanical|Company: Autodesk, Inc."
 90
     1024
 91
        1
280
     0
281
     0
  0
CLASS
  1
ACMCENTERLINESTANDARDDIN
  2
AmdtCenterLineStdDIN
  3
"Amdt_StdImp|Product Description: AutoCAD Mechanical|Company: Autodesk, Inc."
 90
     1024
 91
        1
280
     0
281
     0
  0
CLASS
  1
ACMNOTESTANDARDDIN
  2
AmdtNoteStdDIN
  3
"Amdt_StdImp|Product Description: AutoCAD Mechanical|Company: Autodesk, Inc."
 90
     1024
 91
        1
280
     0
281
     0
  0
CLASS
  1
ACAMGLAYSTD
  2
AcAmgLayStd
  3
"AmgLay|Product Description: AutoCAD Mechanical|Company: Autodesk, Inc."
 90
     1024
 91
        1
280
     0
281
     0
  0
CLASS
  1
ACAMGDIMSTD
  2
AcAmgDimStd
  3
"AmgDim|Product Description: AutoCAD Mechanical|Company: Autodesk, Inc."
 90
     1024
 91
        1
280
     0
281
     0
  0
CLASS
  1
ACAMGHOLECHARTSTDDIN
  2
AcAmgHoleChartStdDIN
  3
AmgDim|Product Description: AutoCAD Mechanical|Company: Autodesk, Inc.
 90
     1024
 91
        1
280
     0
281
     0
  0
CLASS
  1
ACAMGTITLESTD
  2
AcAmgTitleStd
  3
"AmgTitle|Product Description: AutoCAD Mechanical|Company: Autodesk, Inc."
 90
     4095
 91
        1
280
     0
281
     0
  0
CLASS
  1
ACMSTANDARDANSI
  2
AcmStandardANSI
  3
"Amdt_StdImp|Product Description: AutoCAD Mechanical|Company: Autodesk, Inc."
 90
     1024
 91
        0
280
     0
281
     0
  0
CLASS
  1
ACMSURFSTANDARDANSI
  2
AcmSurfTextStdANSI
  3
"Amdt_StdImp|Product Description: AutoCAD Mechanical|Company: Autodesk, Inc."
 90
     1024
 91
        0
280
     0
281
     0
  0
CLASS
  1
ACMFCFSTANDARDANSI
  2
AcmFCFStdANSI
  3
"Amdt_StdImp|Product Description: AutoCAD Mechanical|Company: Autodesk, Inc."
 90
     1024
 91
        0
280
     0
281
     0
  0
CLASS
  1
ACMWELDSTANDARDANSI
  2
AcmWeldingStdANSI
  3
"Amdt_StdImp|Product Description: AutoCAD Mechanical|Company: Autodesk, Inc."
 90
     1024
 91
        0
280
     0
281
     0
  0
CLASS
  1
ACMIDSTANDARDANSI
  2
AcmIdStdANSI
  3
"Amdt_StdImp|Product Description: AutoCAD Mechanical|Company: Autodesk, Inc."
 90
     1024
 91
        0
280
     0
281
     0
  0
CLASS
  1
ACMDATUMSTANDARDANSI
  2
AcmDatumStdANSI
  3
"Amdt_StdImp|Product Description: AutoCAD Mechanical|Company: Autodesk, Inc."
 90
     1024
 91
        0
280
     0
281
     0
  0
CLASS
  1
ACMBOMSTANDARDANSI
  2
AcmBOMStdANSI
  3
"Amdt_StdImp|Product Description: AutoCAD Mechanical|Company: Autodesk, Inc."
 90
     1024
 91
        0
280
     0
281
     0
  0
CLASS
  1
ACMDETAILSTANDARDANSI
  2
AmdtDetailSymStdANSI
  3
"Amdt_StdImp|Product Description: AutoCAD Mechanical|Company: Autodesk, Inc."
 90
     1024
 91
        0
280
     0
281
     0
  0
CLASS
  1
ACMSECTIONSTANDARDANSI
  2
AmdtSectionSymStdANSI
  3
"Amdt_StdImp|Product Description: AutoCAD Mechanical|Company: Autodesk, Inc."
 90
     1024
 91
        0
280
     0
281
     0
  0
CLASS
  1
ACMCENTERLINESTANDARDANSI
  2
AmdtCenterLineStdANSI
  3
"Amdt_StdImp|Product Description: AutoCAD Mechanical|Company: Autodesk, Inc."
 90
     1024
 91
        0
280
     0
281
     0
  0
CLASS
  1
ACMNOTESTANDARDANSI
  2
AmdtNoteStdANSI
  3
"Amdt_StdImp|Product Description: AutoCAD Mechanical|Company: Autodesk, Inc."
 90
     1024
 91
        0
280
     0
281
     0
  0
CLASS
  1
ACAMGHOLECHARTSTDANSI
  2
AcAmgHoleChartStdANSI
  3
AmgDim|Product Description: AutoCAD Mechanical|Company: Autodesk, Inc.
 90
     1024
 91
        0
280
     0
281
     0
  0
CLASS
  1
ACAMGFILTERDAT
  2
AcAmgFilterDat
  3
"AcadM|Product Description: AutoCAD Mechanical|Company: Autodesk, Inc."
 90
     1024
 91
        0
280
     0
281
     0
  0
CLASS
  1
AMDTFORMULAUPDATEDISPATCHER
  2
AmdtFormulaUpdateDispatcher
  3
AcMeServices
 90
     1024
 91
        0
280
     0
281
     0
  0
CLASS
  1
LAYER_INDEX
  2
AcDbLayerIndex
  3
ObjectDBX Classes
 90
        0
 91
        0
280
     0
281
     0
  0
CLASS
  1
IDBUFFER
  2
AcDbIdBuffer
  3
ObjectDBX Classes
 90
        0
 91
        0
280
     0
281
     0
  0
CLASS
  1
DICTIONARYVAR
  2
AcDbDictionaryVar
  3
ObjectDBX Classes
 90
        0
 91
       11
280
     0
281
     0
  0
CLASS
  1
DIMASSOC
  2
AcDbDimAssoc
  3
"AcDbDimAssoc|Product Desc:     AcDim ARX App For Dimension|Company:          Autodesk, Inc.|WEB Address:      www.autodesk.com"
 90
        0
 91
        0
280
     0
281
     0
  0
CLASS
  1
ACMSTANDARDISO
  2
AcmStandardISO
  3
"Amdt_StdImp|Product Description: AutoCAD Mechanical|Company: Autodesk, Inc."
 90
     1024
 91
        0
280
     0
281
     0
  0
CLASS
  1
AMDTEDGESTANDARDISO
  2
AmdtEdgeStdISO
  3
"Amdt_StdImp|Product Description: AutoCAD Mechanical|Company: Autodesk, Inc."
 90
     1024
 91
        0
280
     0
281
     0
  0
CLASS
  1
ACMSURFSTANDARDISO
  2
AcmSurfTextStdISO
  3
"Amdt_StdImp|Product Description: AutoCAD Mechanical|Company: Autodesk, Inc."
 90
     1024
 91
        0
280
     0
281
     0
  0
CLASS
  1
ACMFCFSTANDARDISO
  2
AcmFCFStdISO
  3
"Amdt_StdImp|Product Description: AutoCAD Mechanical|Company: Autodesk, Inc."
 90
     1024
 91
        0
280
     0
281
     0
  0
CLASS
  1
ACMWELDSTANDARDISO
  2
AcmWeldingStdISO
  3
"Amdt_StdImp|Product Description: AutoCAD Mechanical|Company: Autodesk, Inc."
 90
     1024
 91
        0
280
     0
281
     0
  0
CLASS
  1
ACMIDSTANDARDISO
  2
AcmIdStdISO
  3
"Amdt_StdImp|Product Description: AutoCAD Mechanical|Company: Autodesk, Inc."
 90
     1024
 91
        0
280
     0
281
     0
  0
CLASS
  1
ACMDATUMSTANDARDISO
  2
AcmDatumStdISO
  3
"Amdt_StdImp|Product Description: AutoCAD Mechanical|Company: Autodesk, Inc."
 90
     1024
 91
        0
280
     0
281
     0
  0
CLASS
  1
ACMBOMSTANDARDISO
  2
AcmBOMStdISO
  3
"Amdt_StdImp|Product Description: AutoCAD Mechanical|Company: Autodesk, Inc."
 90
     1024
 91
        0
280
     0
281
     0
  0
CLASS
  1
ACMDETAILSTANDARDISO
  2
AmdtDetailSymStdISO
  3
"Amdt_StdImp|Product Description: AutoCAD Mechanical|Company: Autodesk, Inc."
 90
     1024
 91
        0
280
     0
281
     0
  0
CLASS
  1
ACMSECTIONSTANDARDISO
  2
AmdtSectionSymStdISO
  3
"Amdt_StdImp|Product Description: AutoCAD Mechanical|Company: Autodesk, Inc."
 90
     1024
 91
        0
280
     0
281
     0
  0
CLASS
  1
ACMCENTERLINESTANDARDISO
  2
AmdtCenterLineStdISO
  3
"Amdt_StdImp|Product Description: AutoCAD Mechanical|Company: Autodesk, Inc."
 90
     1024
 91
        0
280
     0
281
     0
  0
CLASS
  1
ACMNOTESTANDARDISO
  2
AmdtNoteStdISO
  3
"Amdt_StdImp|Product Description: AutoCAD Mechanical|Company: Autodesk, Inc."
 90
     1024
 91
        0
280
     0
281
     0
  0
CLASS
  1
ACAMGHOLECHARTSTDISO
  2
AcAmgHoleChartStdISO
  3
AmgDim|Product Description: AutoCAD Mechanical|Company: Autodesk, Inc.
 90
     1024
 91
        0
280
     0
281
     0
  0
CLASS
  1
TABLESTYLE
  2
AcDbTableStyle
  3
ObjectDBX Classes
 90
     4095
 91
        1
280
     0
281
     0
  0
CLASS
  1
AM_DRAWING_MGR
  2
AcDmDwgMgr
  3
AcMechDwgViewMgmt
 90
     1024
 91
        1
280
     0
281
     0
  0
CLASS
  1
AM_DWG_DOCUMENT
  2
AcDmDwgDocument
  3
AcMechDwgViewMgmt
 90
     1024
 91
        1
280
     0
281
     0
  0
CLASS
  1
AM_DWG_SHEET
  2
AcDmSheet
  3
AcMechDwgViewMgmt
 90
     1024
 91
        2
280
     0
281
     0
  0
CLASS
  1
AM_VIEWDIMPARMAP
  2
AcDmViewDimParMap
  3
AcMechDwgViewMgmt
 90
     1024
 91
        2
280
     0
281
     0
  0
CLASS
  1
AM_DWGMGR_NAME
  2
AcDmDwgMgrName
  3
AcMechDwgViewMgmt
 90
     1024
 91
        1
280
     0
281
     0
  0
CLASS
  1
AMDTMENUSTATEMGR
  2
AmdtMenuStateMgr
  3
McadcomServices
 90
     1024
 91
        1
280
     0
281
     0
  0
CLASS
  1
AMDTMCOMMENUSTATE
  2
AmdtMcomMenuState
  3
McadcomServices
 90
     1024
 91
        1
280
     0
281
     0
  0
CLASS
  1
MAPIAMMOUDLE
  2
MApiAmModule
  3
MApiAmServices
 90
     1024
 91
        1
280
     0
281
     0
  0
CLASS
  1
AMDTADMENUSTATE
  2
AmdtAdMenuState
  3
DesignerServices
 90
     1024
 91
        1
280
     0
281
     0
  0
CLASS
  1
ADAPPL
  2
AcAdAppl
  3
DesignerServices
 90
     1024
 91
        1
280
     0
281
     0
  0
CLASS
  1
DEPMGR
  2
AcAdDepMgr
  3
DesignerServices
 90
     1024
 91
        1
280
     0
281
     0
  0
CLASS
  1
PARAMMGR
  2
AcAdParamMgr
  3
DesignerServices
 90
     1024
 91
        1
280
     0
281
     0
  0
CLASS
  1
PARAMSCOPE
  2
AcAdParamScope
  3
DesignerServices
 90
     1024
 91
        1
280
     0
281
     0
  0
CLASS
  1
NAMEDAPPL
  2
AcAdNamedAppl
  3
DesignerServices
 90
     1024
 91
        1
280
     0
281
     0
  0
CLASS
  1
AMDTDMMENUSTATE
  2
AmdtDmMenuState
  3
AcMechDwgViewMgmt
 90
     1024
 91
        1
280
     0
281
     0
  0
CLASS
  1
AMDTAMMENUSTATE
  2
AmdtAmMenuState
  3
DesignerAssemblies
 90
     1024
 91
        1
280
     0
281
     0
  0
CLASS
  1
ACAMPROJECT
  2
AcAmProject
  3
DesignerAssemblies
 90
     1024
 91
        1
280
     0
281
     0
  0
CLASS
  1
ACAMGRCOMPDEF
  2
AcAmGrCompDef
  3
DesignerAssemblies
 90
     1024
 91
        1
280
     0
281
     0
  0
CLASS
  1
ACCMCONTEXT
  2
AcCmContext
  3
DesignerAssemblies
 90
     1024
 91
        1
280
     0
281
     0
  0
CLASS
  1
ACAMCOMPDEF
  2
AcAmCompDef
  3
DesignerAssemblies
 90
     1024
 91
        1
280
     0
281
     0
  0
CLASS
  1
ACAMCOMPDEFMGR
  2
AcAmCompDefMgr
  3
DesignerAssemblies
 90
     1024
 91
        1
280
     0
281
     0
  0
CLASS
  1
AMCONTEXTMGR
  2
AcAmContextMgr
  3
DesignerAssemblies
 90
     1024
 91
        1
280
     0
281
     0
  0
CLASS
  1
ACAMCONTEXTMODELER
  2
AcAmContextModeler
  3
DesignerAssemblies
 90
     1024
 91
        1
280
     0
281
     0
  0
CLASS
  1
ACMTHREADLINESTANDARDDIN
  2
AmdtThreadLineStdDIN
  3
"Amdt_StdImp|Product Description: AutoCAD Mechanical|Company: Autodesk, Inc."
 90
     1024
 91
        1
280
     0
281
     0
  0
CLASS
  1
ACMTHREADLINESTANDARDANSI
  2
AmdtThreadLineStdANSI
  3
"Amdt_StdImp|Product Description: AutoCAD Mechanical|Company: Autodesk, Inc."
 90
     1024
 91
        0
280
     0
281
     0
  0
CLASS
  1
ACMTHREADLINESTANDARDISO
  2
AmdtThreadLineStdISO
  3
"Amdt_StdImp|Product Description: AutoCAD Mechanical|Company: Autodesk, Inc."
 90
     1024
 91
        0
280
     0
281
     0
  0
CLASS
  1
CATALOGSTATE
  2
AcAmCatalogState
  3
DesignerAssemblies
 90
     1024
 91
        1
280
     0
281
     0
  0
CLASS
  1
ACAMGRCOMPDEFSET
  2
AcAmGrCompDefSet
  3
DesignerAssemblies
 90
     1024
 91
        1
280
     0
281
     0
  0
CLASS
  1
AMDTBROWSERDBTAB
  2
AmdtBrowserDbTab
  3
McadcomServices
 90
     1024
 91
        1
280
     0
281
     0
  0
CLASS
  1
CBROWSERAPPOBJECT
  2
CBrowserAppObject
  3
McadcomServices
 90
     1024
 91
        3
280
     0
281
     0
  0
CLASS
  1
DM_PLACEHOLDER
  2
AcDmSelsetPlaceholder
  3
AcMechDwgViewMgmt
 90
     1024
 91
        1
280
     0
281
     0
  0
CLASS
  1
MATERIAL
  2
AcDbMaterial
  3
ObjectDBX Classes
 90
     1153
 91
        3
280
     0
281
     0
  0
CLASS
  1
VISUALSTYLE
  2
AcDbVisualStyle
  3
ObjectDBX Classes
 90
     4095
 91
       16
280
     0
281
     0
  0
CLASS
  1
SCALE
  2
AcDbScale
  3
ObjectDBX Classes
 90
     1153
 91
       17
280
     0
281
     0
  0
CLASS
  1
MLEADERSTYLE
  2
AcDbMLeaderStyle
  3
ACDB_MLEADERSTYLE_CLASS
 90
     4095
 91
        1
280
     0
281
     0
  0
CLASS
  1
ACRFATTGENMGR
  2
AcRfAttGeneralMgr
  3
AcAttribServices
 90
     1024
 91
        0
280
     0
281
     0
  0
CLASS
  1
ACRFOBJATTMGR
  2
AcRfObjAttGroupMgr
  3
AcAttribServices
 90
     1024
 91
        0
280
     0
281
     0
  0
CLASS
  1
ACRFMCADAPIATTHOLDER
  2
AcRfMCADAPIAttHolder
  3
AcAttribServices
 90
     1024
 91
        0
280
     0
281
     0
  0
CLASS
  1
AMDTSYSATTR
  2
AmdtSystemAttribute
  3
AcAttribServices
 90
     1024
 91
        0
280
     0
281
     0
  0
CLASS
  1
ACMTAPERSTANDARDDIN
  2
AcmTaperStdDIN
  3
"Amdt_StdImp|Product Description: AutoCAD Mechanical|Company: Autodesk, Inc."
 90
     1024
 91
        1
280
     0
281
     0
  0
CLASS
  1
ACMANOOTATIONVIEWSTANDARDDIN
  2
AmdtAnViewStdDIN
  3
"Amdt_StdImp|Product Description: AutoCAD Mechanical|Company: Autodesk, Inc."
 90
     1024
 91
        1
280
     0
281
     0
  0
CLASS
  1
ACMTAPERSTANDARDANSI
  2
AcmTaperStdANSI
  3
"Amdt_StdImp|Product Description: AutoCAD Mechanical|Company: Autodesk, Inc."
 90
     1024
 91
        0
280
     0
281
     0
  0
CLASS
  1
ACMANOOTATIONVIEWSTANDARDANSI
  2
AmdtAnViewStdANSI
  3
"Amdt_StdImp|Product Description: AutoCAD Mechanical|Company: Autodesk, Inc."
 90
     1024
 91
        0
280
     0
281
     0
  0
CLASS
  1
ACMTAPERSTANDARDISO
  2
AcmTaperStdISO
  3
"Amdt_StdImp|Product Description: AutoCAD Mechanical|Company: Autodesk, Inc."
 90
     1024
 91
        0
280
     0
281
     0
  0
CLASS
  1
ACMANOOTATIONVIEWSTANDARDISO
  2
AmdtAnViewStdISO
  3
"Amdt_StdImp|Product Description: AutoCAD Mechanical|Company: Autodesk, Inc."
 90
     1024
 91
        0
280
     0
281
     0
  0
CLASS
  1
CAMSSTRUCTBTNSTATE
  2
StructBtnState
  3
DesignerAssemblies
 90
     1024
 91
        1
280
     0
281
     0
  0
CLASS
  1
CELLSTYLEMAP
  2
AcDbCellStyleMap
  3
ObjectDBX Classes
 90
     1152
 91
        3
280
     0
281
     0
  0
CLASS
  1
SORTENTSTABLE
  2
AcDbSortentsTable
  3
ObjectDBX Classes
 90
        0
 91
        1
280
     0
281
     0
  0
CLASS
  1
AMDTEDGESTANDARDDIN13715
  2
AmdtEdgeStdDIN13715
  3
"Amdt_StdImp|Product Description: AutoCAD Mechanical|Company: Autodesk, Inc."
 90
     1024
 91
        1
280
     0
281
     0
  0
CLASS
  1
ACMSURFSTANDARDDIN2002
  2
AcmSurfTextStdDIN2002
  3
"Amdt_StdImp|Product Description: AutoCAD Mechanical|Company: Autodesk, Inc."
 90
     1024
 91
        1
280
     0
281
     0
  0
CLASS
  1
AMDTNOTETEMPLATEDB
  2
AmdtNoteTemplateDB
  3
AcmSymBB|Product Description: AutoCAD Mechanical|Company: Autodesk, Inc.
 90
     1024
 91
        6
280
     0
281
     0
  0
ENDSEC
  0
SECTION
  2
TABLES
  0
TABLE
  2
VPORT
  5
8
102
{ACAD_XDICTIONARY
360
E03C
102
}
330
0
100
AcDbSymbolTable
 70
     1
  0
VPORT
  5
2F0A
330
8
100
AcDbSymbolTableRecord
100
AcDbViewportTableRecord
  2
*Active
 70
     0
 10
0.0
 20
0.0
 11
1.0
 21
1.0
 12
194.1816588672633
 22
123.1998813959378
 13
0.0
 23
0.0
 14
2.5
 24
2.5
 15
10.0
 25
10.0
 16
0.0
 26
0.0
 36
1.0
 17
0.0
 27
0.0
 37
0.0
 40
351.7219791513038
 41
1.784158415841584
 42
50.0
 43
0.0
 44
0.0
 50
0.0
 51
0.0
 71
     0
 72
 10000
 73
     1
 74
     3
 75
     0
 76
     0
 77
     0
 78
     0
281
     0
 65
     1
110
0.0
120
0.0
130
0.0
111
1.0
121
0.0
131
0.0
112
0.0
122
1.0
132
0.0
 79
     0
146
0.0
  0
ENDTAB
  0
TABLE
  2
LTYPE
  5
5
330
0
100
AcDbSymbolTable
 70
    25
  0
LTYPE
  5
14
330
5
100
AcDbSymbolTableRecord
100
AcDbLinetypeTableRecord
  2
ByBlock
 70
     0
  3

 72
    65
 73
     0
 40
0.0
  0
LTYPE
  5
15
330
5
100
AcDbSymbolTableRecord
100
AcDbLinetypeTableRecord
  2
ByLayer
 70
     0
  3

 72
    65
 73
     0
 40
0.0
  0
LTYPE
  5
16
330
5
100
AcDbSymbolTableRecord
100
AcDbLinetypeTableRecord
  2
Continuous
 70
     0
  3
Solid line
 72
    65
 73
     0
 40
0.0
  0
LTYPE
  5
50
330
5
100
AcDbSymbolTableRecord
100
AcDbLinetypeTableRecord
  2
Amconstr
 70
     0
  3
_______________________
 72
    65
 73
     2
 40
9999.0
 49
9999.0
 74
     0
 49
0.0
 74
     0
  0
LTYPE
  5
55
330
5
100
AcDbSymbolTableRecord
100
AcDbLinetypeTableRecord
  2
Amzigzag
 70
     0
  3
/\/-/\/-/\/-/\/-/\/-/\/
 72
    65
 73
     2
 40
11.0001
 49
0.0001
 74
     4
 75
   135
340
54
 46
0.04
 50
0.0
 44
0.0
 45
0.0
 49
-11.0
 74
     0
  0
LTYPE
  5
56
330
5
100
AcDbSymbolTableRecord
100
AcDbLinetypeTableRecord
  2
AM_DIN_F_W050
 70
     0
  3
__ __ __ __ __ __ __ __ __ __ __ __ __ __ __
 72
    65
 73
     2
 40
6.25
 49
4.75
 74
     0
 49
-1.5
 74
     0
  0
LTYPE
  5
57
330
5
100
AcDbSymbolTableRecord
100
AcDbLinetypeTableRecord
  2
AM_DIN_G_W050
 70
     0
  3
____ . ____ . ____ . ____ . ____ . ____ . ____
 72
    65
 73
     4
 40
13.75
 49
9.75
 74
     0
 49
-1.5
 74
     0
 49
1.0
 74
     0
 49
-1.5
 74
     0
  0
LTYPE
  5
58
330
5
100
AcDbSymbolTableRecord
100
AcDbLinetypeTableRecord
  2
AM_DIN_K_W050
 70
     0
  3
_____ . . _____ . . _____ . . ____ .. ____
 72
    65
 73
     6
 40
16.25
 49
9.75
 74
     0
 49
-1.5
 74
     0
 49
1.0
 74
     0
 49
-1.5
 74
     0
 49
1.0
 74
     0
 49
-1.5
 74
     0
  0
LTYPE
  5
59
330
5
100
AcDbSymbolTableRecord
100
AcDbLinetypeTableRecord
  2
AM_DIN_G_W050x2
 70
     0
  3
__ . __ . __ . __ . __ . __
 72
    65
 73
     4
 40
6.875
 49
4.75
 74
     0
 49
-0.875
 74
     0
 49
0.375
 74
     0
 49
-0.875
 74
     0
  0
LTYPE
  5
5A
330
5
100
AcDbSymbolTableRecord
100
AcDbLinetypeTableRecord
  2
AM_DIN_F_W050x2
 70
     0
  3
 _ _ _ _ _ _ _ _ _ _ _ _
 72
    65
 73
     2
 40
3.125
 49
2.25
 74
     0
 49
-0.875
 74
     0
  0
LTYPE
  5
68
330
5
100
AcDbSymbolTableRecord
100
AcDbLinetypeTableRecord
  2
ACDINWELD
 70
     0
  3
_ _ _ _ _
 72
    65
 73
     2
 40
2.0
 49
2.0
 74
     0
 49
-1.0
 74
     0
  0
LTYPE
  5
69
330
5
100
AcDbSymbolTableRecord
100
AcDbLinetypeTableRecord
  2
ACDINTGB
 70
     0
  3
__ . . __ . .
 72
    65
 73
     6
 40
9.0
 49
4.0
 74
     0
 49
-1.0
 74
     0
 49
1.0
 74
     0
 49
-1.0
 74
     0
 49
1.0
 74
     0
 49
-1.0
 74
     0
  0
LTYPE
  5
6A
330
5
100
AcDbSymbolTableRecord
100
AcDbLinetypeTableRecord
  2
ACDINTGL
 70
     0
  3
_ _ _ _ _
 72
    65
 73
     2
 40
3.0
 49
2.0
 74
     0
 49
-1.0
 74
     0
  0
LTYPE
  5
6C
330
5
100
AcDbSymbolTableRecord
100
AcDbLinetypeTableRecord
  2
CENTER
 70
     0
  3
__ . __
 72
    65
 73
     4
 40
7.0
 49
4.0
 74
     0
 49
-1.0
 74
     0
 49
1.0
 74
     0
 49
-1.0
 74
     0
  0
LTYPE
  5
AFA
330
5
100
AcDbSymbolTableRecord
100
AcDbLinetypeTableRecord
  2
PHANTOM2
 70
     0
  3
Phantom (.5x) ___ _ _ ___ _ _ ___ _ _ ___ _ _
 72
    65
 73
     6
 40
1.25
 49
0.625
 74
     0
 49
-0.125
 74
     0
 49
0.125
 74
     0
 49
-0.125
 74
     0
 49
0.125
 74
     0
 49
-0.125
 74
     0
  0
LTYPE
  5
AFD
330
5
100
AcDbSymbolTableRecord
100
AcDbLinetypeTableRecord
  2
DASHED
 70
     0
  3
__ __ __ __ __ __ __ __ __ __ __ __ __ __ __ __
 72
    65
 73
     2
 40
19.05
 49
12.7
 74
     0
 49
-6.349999999999998
 74
     0
  0
LTYPE
  5
2E96
330
5
100
AcDbSymbolTableRecord
100
AcDbLinetypeTableRecord
  2
HIDDEN
 70
     0
  3
Verdeckt
 72
    65
 73
     2
 40
9.525
 49
6.349999999999999
 74
     0
 49
-3.174999999999999
 74
     0
  0
ENDTAB
  0
TABLE
  2
LAYER
  5
2
330
0
100
AcDbSymbolTable
 70
    11
  0
LAYER
  5
10
102
{ACAD_XDICTIONARY
360
2F6F
102
}
330
2
100
AcDbSymbolTableRecord
100
AcDbLayerTableRecord
  2
0
 70
     0
 62
     7
  6
Continuous
370
    -3
390
F
  0
LAYER
  5
263
330
2
100
AcDbSymbolTableRecord
100
AcDbLayerTableRecord
  2
Defpoints
 70
     0
 62
     7
  6
Continuous
290
     0
370
    -3
390
F
  0
LAYER
  5
AFE
102
{ACAD_XDICTIONARY
360
2F71
102
}
330
2
100
AcDbSymbolTableRecord
100
AcDbLayerTableRecord
  2
1
 70
     0
 62
     4
  6
Continuous
370
    -3
390
F
  0
LAYER
  5
AFF
102
{ACAD_XDICTIONARY
360
2F73
102
}
330
2
100
AcDbSymbolTableRecord
100
AcDbLayerTableRecord
  2
2
 70
     0
 62
     7
  6
Continuous
370
    -3
390
F
  0
LAYER
  5
B00
102
{ACAD_XDICTIONARY
360
2F75
102
}
330
2
100
AcDbSymbolTableRecord
100
AcDbLayerTableRecord
  2
4
 70
     0
 62
     2
  6
CENTER
370
    -3
390
F
  0
LAYER
  5
B01
102
{ACAD_XDICTIONARY
360
2F77
102
}
330
2
100
AcDbSymbolTableRecord
100
AcDbLayerTableRecord
  2
6
 70
     0
 62
     5
  6
Continuous
370
    -3
390
F
  0
LAYER
  5
B02
102
{ACAD_XDICTIONARY
360
2F79
102
}
330
2
100
AcDbSymbolTableRecord
100
AcDbLayerTableRecord
  2
SK1
 70
     0
 62
     4
  6
Continuous
370
    -3
390
F
  0
LAYER
  5
B03
102
{ACAD_XDICTIONARY
360
2F7B
102
}
330
2
100
AcDbSymbolTableRecord
100
AcDbLayerTableRecord
  2
SK2
 70
     0
 62
     7
  6
Continuous
370
    -3
390
F
  0
LAYER
  5
B04
102
{ACAD_XDICTIONARY
360
2F7D
102
}
330
2
100
AcDbSymbolTableRecord
100
AcDbLayerTableRecord
  2
SK3
 70
     0
 62
     1
  6
DASHED
370
    -3
390
F
  0
LAYER
  5
B06
102
{ACAD_XDICTIONARY
360
2F7F
102
}
330
2
100
AcDbSymbolTableRecord
100
AcDbLayerTableRecord
  2
CUT
 70
     0
 62
     1
  6
Continuous
370
    -3
390
F
  0
LAYER
  5
B07
102
{ACAD_XDICTIONARY
360
2F81
102
}
330
2
100
AcDbSymbolTableRecord
100
AcDbLayerTableRecord
  2
NOCUT
 70
     0
 62
     7
  6
Continuous
370
    -3
390
F
  0
ENDTAB
  0
TABLE
  2
STYLE
  5
3
330
0
100
AcDbSymbolTable
 70
     8
  0
STYLE
  5
11
330
3
100
AcDbSymbolTableRecord
100
AcDbTextStyleTableRecord
  2
STANDARD
 70
     0
 40
0.0
 41
1.0
 50
0.0
 71
     0
 42
3.5
  3
ISOCP.SHX
  4

  0
STYLE
  5
54
330
3
100
AcDbSymbolTableRecord
100
AcDbTextStyleTableRecord
  2

 70
     1
 40
0.0
 41
1.0
 50
0.0
 71
     0
 42
2.5
  3
ltypeshp.shx
  4

  0
STYLE
  5
67
330
3
100
AcDbSymbolTableRecord
100
AcDbTextStyleTableRecord
  2
ACDINGDT
 70
     0
 40
0.0
 41
1.0
 50
0.0
 71
     0
 42
2.5
  3
amgdt.shx
  4

  0
ENDTAB
  0
TABLE
  2
VIEW
  5
6
330
0
100
AcDbSymbolTable
 70
     0
  0
ENDTAB
  0
TABLE
  2
UCS
  5
7
330
0
100
AcDbSymbolTable
 70
     0
  0
ENDTAB
  0
TABLE
  2
APPID
  5
9
330
0
100
AcDbSymbolTable
 70
    64
  0
APPID
  5
12
330
9
100
AcDbSymbolTableRecord
100
AcDbRegAppTableRecord
  2
ACAD
 70
     0
  0
APPID
  5
2C
330
9
100
AcDbSymbolTableRecord
100
AcDbRegAppTableRecord
  2
MCAD_NO_VIS
 70
     0
  0
APPID
  5
2D
330
9
100
AcDbSymbolTableRecord
100
AcDbRegAppTableRecord
  2
ACAD_TEMP_GRAPHIC
 70
     0
  0
APPID
  5
3E
330
9
100
AcDbSymbolTableRecord
100
AcDbRegAppTableRecord
  2
ACATTRIBSERVICES
 70
     0
  0
APPID
  5
29A
330
9
100
AcDbSymbolTableRecord
100
AcDbRegAppTableRecord
  2
GENIUS_GENDIMSH_14
 70
     0
  0
APPID
  5
551
330
9
100
AcDbSymbolTableRecord
100
AcDbRegAppTableRecord
  2
GENIUS12
 70
     0
  0
APPID
  5
552
330
9
100
AcDbSymbolTableRecord
100
AcDbRegAppTableRecord
  2
GENIUS_GENOENT_13
 70
     0
  0
APPID
  5
553
330
9
100
AcDbSymbolTableRecord
100
AcDbRegAppTableRecord
  2
GENIUS_GENODEF_13
 70
     0
  0
APPID
  5
554
330
9
100
AcDbSymbolTableRecord
100
AcDbRegAppTableRecord
  2
GENIUS_GENOBJ-N-RSBK_13
 70
     0
  0
APPID
  5
555
330
9
100
AcDbSymbolTableRecord
100
AcDbRegAppTableRecord
  2
GENIUS_GENOBJ-N-DIM12_13
 70
     0
  0
APPID
  5
556
330
9
100
AcDbSymbolTableRecord
100
AcDbRegAppTableRecord
  2
GENIUS_GENSCALE_13
 70
     0
  0
APPID
  5
557
330
9
100
AcDbSymbolTableRecord
100
AcDbRegAppTableRecord
  2
GENIUS_GENCFG_13
 70
     0
  0
APPID
  5
558
330
9
100
AcDbSymbolTableRecord
100
AcDbRegAppTableRecord
  2
GENIUS_GENCFG0_13
 70
     0
  0
APPID
  5
559
330
9
100
AcDbSymbolTableRecord
100
AcDbRegAppTableRecord
  2
GENIUS_GENCFG1_13
 70
     0
  0
APPID
  5
55A
330
9
100
AcDbSymbolTableRecord
100
AcDbRegAppTableRecord
  2
GENIUS_GENCFG2_13
 70
     0
  0
APPID
  5
55B
330
9
100
AcDbSymbolTableRecord
100
AcDbRegAppTableRecord
  2
GENIUS_GENCFG3_13
 70
     0
  0
APPID
  5
55C
330
9
100
AcDbSymbolTableRecord
100
AcDbRegAppTableRecord
  2
GENIUS_GENCFG4_13
 70
     0
  0
APPID
  5
55D
330
9
100
AcDbSymbolTableRecord
100
AcDbRegAppTableRecord
  2
GENIUS_GEVCFG0_13
 70
     0
  0
APPID
  5
55E
330
9
100
AcDbSymbolTableRecord
100
AcDbRegAppTableRecord
  2
GENIUS_GENOBJ-F-SUF_13
 70
     0
  0
APPID
  5
55F
330
9
100
AcDbSymbolTableRecord
100
AcDbRegAppTableRecord
  2
GENIUS_GEFCFG0_13
 70
     0
  0
APPID
  5
560
330
9
100
AcDbSymbolTableRecord
100
AcDbRegAppTableRecord
  2
GEV_VCCNULL_SWITCH_OFF
 70
     0
  0
APPID
  5
561
330
9
100
AcDbSymbolTableRecord
100
AcDbRegAppTableRecord
  2
GENIUS_GENDTOL_13
 70
     0
  0
APPID
  5
562
330
9
100
AcDbSymbolTableRecord
100
AcDbRegAppTableRecord
  2
GENIUS_GENDIM_13
 70
     0
  0
APPID
  5
563
330
9
100
AcDbSymbolTableRecord
100
AcDbRegAppTableRecord
  2
GENIUS_GE3DTOL_13
 70
     0
  0
APPID
  5
564
330
9
100
AcDbSymbolTableRecord
100
AcDbRegAppTableRecord
  2
AD_DRAW
 70
     0
  0
APPID
  5
565
330
9
100
AcDbSymbolTableRecord
100
AcDbRegAppTableRecord
  2
ASURF_PCURVE_APPNAME
 70
     0
  0
APPID
  5
566
330
9
100
AcDbSymbolTableRecord
100
AcDbRegAppTableRecord
  2
AMG_3D2D_5.0
 70
     0
  0
APPID
  5
567
330
9
100
AcDbSymbolTableRecord
100
AcDbRegAppTableRecord
  2
DESIGNERASSEMBLIES
 70
     0
  0
APPID
  5
568
330
9
100
AcDbSymbolTableRecord
100
AcDbRegAppTableRecord
  2
ACADM_DIM_EDIT
 70
     0
  0
APPID
  5
569
330
9
100
AcDbSymbolTableRecord
100
AcDbRegAppTableRecord
  2
AMDT_DM_ADJ
 70
     0
  0
APPID
  5
56A
330
9
100
AcDbSymbolTableRecord
100
AcDbRegAppTableRecord
  2
GENIUS_GENSCREG_15
 70
     0
  0
APPID
  5
56B
330
9
100
AcDbSymbolTableRecord
100
AcDbRegAppTableRecord
  2
GENIUS_GENOBJ-N-SDF_13
 70
     0
  0
APPID
  5
56C
330
9
100
AcDbSymbolTableRecord
100
AcDbRegAppTableRecord
  2
GENIUS_GENOBJ-N-FIL_13
 70
     0
  0
APPID
  5
56D
330
9
100
AcDbSymbolTableRecord
100
AcDbRegAppTableRecord
  2
GENIUS_GENHINW_13
 70
     0
  0
APPID
  5
56E
330
9
100
AcDbSymbolTableRecord
100
AcDbRegAppTableRecord
  2
GENIUS_GENOBJ-F-TOLL_13
 70
     0
  0
APPID
  5
56F
330
9
100
AcDbSymbolTableRecord
100
AcDbRegAppTableRecord
  2
GENIUS_GENOREF_13
 70
     0
  0
APPID
  5
570
330
9
100
AcDbSymbolTableRecord
100
AcDbRegAppTableRecord
  2
GENIUS_GENOLIS_13
 70
     0
  0
APPID
  5
571
330
9
100
AcDbSymbolTableRecord
100
AcDbRegAppTableRecord
  2
GENIUS_GEFTOLC_13
 70
     0
  0
APPID
  5
572
330
9
100
AcDbSymbolTableRecord
100
AcDbRegAppTableRecord
  2
GENIUS_GENOBJ-F-TOL_13
 70
     0
  0
APPID
  5
573
330
9
100
AcDbSymbolTableRecord
100
AcDbRegAppTableRecord
  2
GENIUS_GENOBJ-N-RSSYM_13
 70
     0
  0
APPID
  5
574
330
9
100
AcDbSymbolTableRecord
100
AcDbRegAppTableRecord
  2
GENIUS_GENSYMENT_13
 70
     0
  0
APPID
  5
575
330
9
100
AcDbSymbolTableRecord
100
AcDbRegAppTableRecord
  2
GENIUS_GENSCSYM_13
 70
     0
  0
APPID
  5
B11
330
9
100
AcDbSymbolTableRecord
100
AcDbRegAppTableRecord
  2
GENIUS_GENBLLY_14
 70
     0
  0
APPID
  5
B12
330
9
100
AcDbSymbolTableRecord
100
AcDbRegAppTableRecord
  2
GENIUS_GENTRA_14
 70
     0
  0
APPID
  5
B13
330
9
100
AcDbSymbolTableRecord
100
AcDbRegAppTableRecord
  2
GENIUS_GENOBJ-N-TIT_13
 70
     0
  0
APPID
  5
B14
330
9
100
AcDbSymbolTableRecord
100
AcDbRegAppTableRecord
  2
GENIUS_GENTITLE_13
 70
     0
  0
APPID
  5
B15
330
9
100
AcDbSymbolTableRecord
100
AcDbRegAppTableRecord
  2
ACADIGES
 70
     0
  0
APPID
  5
B16
330
9
100
AcDbSymbolTableRecord
100
AcDbRegAppTableRecord
  2
GENIUS_GENOBJ-N-HTC_13
 70
     0
  0
APPID
  5
B17
330
9
100
AcDbSymbolTableRecord
100
AcDbRegAppTableRecord
  2
GENIUS_GENHATCH_13
 70
     0
  0
APPID
  5
B18
330
9
100
AcDbSymbolTableRecord
100
AcDbRegAppTableRecord
  2
GENIUS_GENOBJ-N-CRS_13
 70
     0
  0
APPID
  5
B19
330
9
100
AcDbSymbolTableRecord
100
AcDbRegAppTableRecord
  2
GENIUS_GENFIL_13
 70
     0
  0
APPID
  5
B1A
330
9
100
AcDbSymbolTableRecord
100
AcDbRegAppTableRecord
  2
GENIUS_GENOBJ-N-CHA_13
 70
     0
  0
APPID
  5
B1B
330
9
100
AcDbSymbolTableRecord
100
AcDbRegAppTableRecord
  2
GENIUS_GENOBJ-N-CEN_13
 70
     0
  0
APPID
  5
1455
330
9
100
AcDbSymbolTableRecord
100
AcDbRegAppTableRecord
  2
AD_SKETCHDIM
 70
     0
  0
APPID
  5
2AA9
330
9
100
AcDbSymbolTableRecord
100
AcDbRegAppTableRecord
  2
AMG_3D2D_5_0
 70
     0
  0
APPID
  5
2EB7
330
9
100
AcDbSymbolTableRecord
100
AcDbRegAppTableRecord
  2
ACAD_DSTYLE_DIMARC_LENGTH_SYMBOL
 70
     0
  0
APPID
  5
2EB8
330
9
100
AcDbSymbolTableRecord
100
AcDbRegAppTableRecord
  2
ACAD_DSTYLE_DIMJOGGED_JOGANGLE_SYMBOL
 70
     0
  0
APPID
  5
2F49
330
9
100
AcDbSymbolTableRecord
100
AcDbRegAppTableRecord
  2
ACAD_MLEADERVER
 70
     0
  0
APPID
  5
35F0
330
9
100
AcDbSymbolTableRecord
100
AcDbRegAppTableRecord
  2
AcadAnnotative
 70
     0
  0
APPID
  5
8CBA
330
9
100
AcDbSymbolTableRecord
100
AcDbRegAppTableRecord
  2
AcAecLayerStandard
 70
     0
  0
APPID
  5
8CBB
330
9
100
AcDbSymbolTableRecord
100
AcDbRegAppTableRecord
  2
ACAD_EXEMPT_FROM_CAD_STANDARDS
 70
     0
  0
APPID
  5
8CBC
330
9
100
AcDbSymbolTableRecord
100
AcDbRegAppTableRecord
  2
ACAD_DSTYLE_DIMINSPECT
 70
     0
  0
APPID
  5
9072
330
9
100
AcDbSymbolTableRecord
100
AcDbRegAppTableRecord
  2
ACAD_DSTYLE_DIMANGULAR_EXTENSION
 70
     0
  0
APPID
  5
DD86
330
9
100
AcDbSymbolTableRecord
100
AcDbRegAppTableRecord
  2
ACAD_PSEXT
 70
     0
  0
ENDTAB
  0
TABLE
  2
DIMSTYLE
  5
A
330
0
100
AcDbSymbolTable
 70
    23
100
AcDbDimStyleTable
 71
     1
340
6F
  0
DIMSTYLE
105
6F
102
{ACAD_REACTORS
330
8A76
330
E0AD
102
}
330
A
100
AcDbSymbolTableRecord
100
AcDbDimStyleTableRecord
  2
AM_DIN
 70
     0
  4
"
 41
2.5
 42
0.0
 43
10.0
 44
1.0
 47
0.1
 48
0.1
 73
     0
 74
     0
 77
     1
 78
     8
 79
     2
140
3.5
141
0.0
143
0.0393701
146
0.71
147
1.5
172
     1
176
   256
177
   256
178
     2
271
     2
272
     2
283
     0
284
     8
340
11
371
    -1
372
    -1
1001
ACAD_DSTYLE_DIMJOGGED_JOGANGLE_SYMBOL
1070
   384
1040
1.570796326794896
  0
DIMSTYLE
105
70
330
A
100
AcDbSymbolTableRecord
100
AcDbDimStyleTableRecord
  2
AM_DIN$3
 70
     0
  4
"
 41
3.5
 42
0.0
 43
10.0
 44
1.0
 47
0.1
 48
0.1
 73
     0
 77
     1
 78
     8
 79
     2
140
3.5
141
0.0
143
0.0393701
146
0.71
147
1.5
176
   256
177
   256
178
     2
271
     2
272
     2
283
     0
284
     8
288
     1
289
     0
340
11
371
    -1
372
    -1
1001
ACAD_DSTYLE_DIMJOGGED_JOGANGLE_SYMBOL
1070
   384
1040
1.570796326794896
  0
DIMSTYLE
105
71
330
A
100
AcDbSymbolTableRecord
100
AcDbDimStyleTableRecord
  2
AM_DIN$4
 70
     0
  4
"
 41
3.5
 42
0.0
 43
10.0
 44
1.0
 47
0.1
 48
0.1
 73
     0
 77
     1
 78
     8
 79
     2
140
3.5
141
0.0
143
0.0393701
146
0.71
147
1.5
176
   256
177
   256
178
     2
271
     2
272
     2
283
     0
284
     8
288
     1
289
     0
340
11
371
    -1
372
    -1
1001
ACAD_DSTYLE_DIMJOGGED_JOGANGLE_SYMBOL
1070
   384
1040
1.570796326794896
  0
DIMSTYLE
105
72
330
A
100
AcDbSymbolTableRecord
100
AcDbDimStyleTableRecord
  2
AM_DIN$6
 70
     0
  4
"
 41
3.5
 42
0.0
 43
0.0
 44
1.0
 47
0.1
 48
0.1
 73
     0
 74
     0
 78
     8
 79
     2
140
3.5
141
0.0
143
0.0393701
146
0.71
147
1.5
172
     1
176
   256
177
   256
178
     2
271
     2
272
     2
283
     0
284
     8
340
11
371
    -1
372
    -1
1001
ACAD_DSTYLE_DIMJOGGED_JOGANGLE_SYMBOL
1070
   384
1040
1.570796326794896
  0
DIMSTYLE
105
73
330
A
100
AcDbSymbolTableRecord
100
AcDbDimStyleTableRecord
  2
AM_DIN$7
 70
     0
  4
"
 41
3.5
 42
0.0
 43
10.0
 44
1.0
 47
0.1
 48
0.1
 73
     0
 74
     0
 77
     1
 78
     8
 79
     2
140
3.5
141
0.0
143
0.0393701
146
0.71
147
1.5
172
     1
176
   256
177
   256
178
     2
271
     2
272
     2
283
     0
284
     8
340
11
371
    -1
372
    -1
1001
ACAD_DSTYLE_DIMJOGGED_JOGANGLE_SYMBOL
1070
   384
1040
1.570796326794896
  0
DIMSTYLE
105
74
330
A
100
AcDbSymbolTableRecord
100
AcDbDimStyleTableRecord
  2
AM_DIN$SF
 70
     0
  4
"
 41
2.5
 42
1.0
 43
10.0
 44
1.0
 47
0.1
 48
0.1
 73
     0
 74
     0
 75
     1
 76
     1
 77
     1
 78
     8
 79
     2
140
3.5
141
0.0
143
0.0393701
146
0.71
147
1.5
172
     1
176
   256
177
   256
178
     2
271
     2
272
     3
274
     4
283
     0
284
     8
340
11
371
    -1
372
    -1
1001
ACAD_DSTYLE_DIMJOGGED_JOGANGLE_SYMBOL
1070
   384
1040
1.570796326794896
  0
DIMSTYLE
105
79
330
A
100
AcDbSymbolTableRecord
100
AcDbDimStyleTableRecord
  2
AM_DIN$SH
 70
     0
  4
"
 41
2.5
 42
1.0
 43
10.0
 44
1.0
 47
0.1
 48
0.1
 73
     0
 74
     0
 75
     1
 76
     1
 77
     1
 78
     8
 79
     2
140
3.5
141
0.0
143
0.0393701
144
2.0
146
0.71
147
1.5
172
     1
173
     1
176
   256
177
   256
178
     2
271
     2
272
     3
274
     4
283
     0
284
     8
340
11
343
75
371
    -1
372
    -1
1001
ACAD_DSTYLE_DIMJOGGED_JOGANGLE_SYMBOL
1070
   384
1040
1.570796326794896
  0
DIMSTYLE
105
B0A
330
A
100
AcDbSymbolTableRecord
100
AcDbDimStyleTableRecord
  2
STANDARD
 70
     0
271
     2
272
     2
279
     2
284
     8
285
     8
286
     8
340
11
  0
DIMSTYLE
105
8CB9
102
{ACAD_REACTORS
330
8EF5
330
8F78
330
8FDA
330
DF4C
330
DFBC
102
}
330
A
100
AcDbSymbolTableRecord
100
AcDbDimStyleTableRecord
  2
AM_DIN$0
 70
     0
  4
"
 41
2.5
 42
0.0
 43
10.0
 44
1.0
 47
0.1
 48
0.1
 73
     0
 74
     0
 77
     1
 78
     8
140
3.5
141
0.0
143
0.0393701
146
0.71
147
1.5
172
     1
176
   256
177
   256
178
     2
271
     2
272
     2
279
     2
284
     8
285
     8
286
     8
340
11
  0
DIMSTYLE
105
9040
102
{ACAD_REACTORS
330
8A76
330
DF75
102
}
330
A
100
AcDbSymbolTableRecord
100
AcDbDimStyleTableRecord
  2
AM_DIN$2
 70
     0
  4
"
 41
2.5
 42
0.0
 43
10.0
 44
1.0
 47
0.1
 48
0.1
 73
     0
 74
     0
 77
     1
 78
     8
 79
     2
140
3.5
141
0.0
143
0.0393701
146
0.71
147
1.5
172
     1
176
   256
177
   256
178
     2
271
     2
272
     2
283
     0
284
     8
340
11
371
    -1
372
    -1
1001
ACAD_DSTYLE_DIMJOGGED_JOGANGLE_SYMBOL
1070
   384
1040
1.570796326794896
  0
ENDTAB
  0
TABLE
  2
BLOCK_RECORD
  5
1
330
0
100
AcDbSymbolTable
 70
    10
  0
BLOCK_RECORD
  5
1F
102
{ACAD_XDICTIONARY
360
1F1
102
}
330
1
100
AcDbSymbolTableRecord
100
AcDbBlockTableRecord
  2
*Model_Space
340
22
  0
BLOCK_RECORD
  5
1B
330
1
100
AcDbSymbolTableRecord
100
AcDbBlockTableRecord
  2
*Paper_Space
340
1E
  0
BLOCK_RECORD
  5
23
330
1
100
AcDbSymbolTableRecord
100
AcDbBlockTableRecord
  2
*Paper_Space0
340
26
  0
BLOCK_RECORD
  5
75
330
1
100
AcDbSymbolTableRecord
100
AcDbBlockTableRecord
  2
GENAXEH
340
0
  0
BLOCK_RECORD
  5
8A77
330
1
100
AcDbSymbolTableRecord
100
AcDbBlockTableRecord
  2
*D2
340
0
  0
BLOCK_RECORD
  5
8EF6
330
1
100
AcDbSymbolTableRecord
100
AcDbBlockTableRecord
  2
*D3
340
0
  0
BLOCK_RECORD
  5
8F79
330
1
100
AcDbSymbolTableRecord
100
AcDbBlockTableRecord
  2
*D4
340
0
  0
BLOCK_RECORD
  5
8FDB
330
1
100
AcDbSymbolTableRecord
100
AcDbBlockTableRecord
  2
*D5
340
0
  0
BLOCK_RECORD
  5
DF4D
330
1
100
AcDbSymbolTableRecord
100
AcDbBlockTableRecord
  2
*D6
340
0
  0
BLOCK_RECORD
  5
DF76
330
1
100
AcDbSymbolTableRecord
100
AcDbBlockTableRecord
  2
*D7
340
0
  0
BLOCK_RECORD
  5
DFBD
330
1
100
AcDbSymbolTableRecord
100
AcDbBlockTableRecord
  2
*D8
340
0
  0
ENDTAB
  0
ENDSEC
  0
SECTION
  2
BLOCKS
  0
BLOCK
  5
20
330
1F
100
AcDbEntity
  8
0
100
AcDbBlockBegin
  2
*Model_Space
 70
     0
 10
0.0
 20
0.0
 30
0.0
  3
*Model_Space
  1

  0
ENDBLK
  5
21
330
1F
100
AcDbEntity
  8
0
100
AcDbBlockEnd
  0
BLOCK
  5
1C
330
1B
100
AcDbEntity
 67
     1
  8
0
100
AcDbBlockBegin
  2
*Paper_Space
 70
     0
 10
0.0
 20
0.0
 30
0.0
  3
*Paper_Space
  1

  0
ENDBLK
  5
1D
330
1B
100
AcDbEntity
 67
     1
  8
0
100
AcDbBlockEnd
  0
BLOCK
  5
24
330
23
100
AcDbEntity
 67
     1
  8
0
100
AcDbBlockBegin
  2
*Paper_Space0
 70
     0
 10
0.0
 20
0.0
 30
0.0
  3
*Paper_Space0
  1

  0
ENDBLK
  5
25
330
23
100
AcDbEntity
 67
     1
  8
0
100
AcDbBlockEnd
  0
BLOCK
  5
77
330
75
100
AcDbEntity
  8
0
100
AcDbBlockBegin
  2
GENAXEH
 70
     0
 10
0.0
 20
0.0
 30
0.0
  3
GENAXEH
  1

  0
LINE
  5
76
330
75
100
AcDbEntity
  8
0
100
AcDbLine
 10
-1.0
 20
0.0
 30
0.0
 11
1.0
 21
0.0
 31
0.0
  0
ENDBLK
  5
78
330
75
100
AcDbEntity
  8
0
100
AcDbBlockEnd
  0
BLOCK
  5
8A78
330
8A77
100
AcDbEntity
  8
0
100
AcDbBlockBegin
  2
*D2
 70
     1
 10
0.0
 20
0.0
 30
0.0
  3
*D2
  1

  0
LINE
  5
E0CE
330
8A77
100
AcDbEntity
  8
SK2
100
AcDbLine
 10
-0.0000000000001705
 20
-13.49999999999986
 30
0.0
 11
-14.38609939715872
 21
-13.49999999999985
 31
0.0
  0
LINE
  5
E0CF
330
8A77
100
AcDbEntity
  8
SK2
100
AcDbLine
 10
-0.0000000000001705
 20
13.50000000000014
 30
0.0
 11
-14.38609939715871
 21
13.50000000000014
 31
0.0
  0
LINE
  5
E0D0
330
8A77
100
AcDbEntity
  8
SK2
100
AcDbLine
 10
-13.38609939715872
 20
-10.99999999999985
 30
0.0
 11
-13.38609939715872
 21
11.00000000000014
 31
0.0
  0
SOLID
  5
E0D1
330
8A77
100
AcDbEntity
  8
SK2
100
AcDbTrace
 10
-13.80276606382539
 20
-10.99999999999985
 30
0.0
 11
-12.96943273049205
 21
-10.99999999999985
 31
0.0
 12
-13.38609939715872
 22
-13.49999999999985
 32
0.0
 13
-13.38609939715872
 23
-13.49999999999985
 33
0.0
  0
SOLID
  5
E0D2
330
8A77
100
AcDbEntity
  8
SK2
100
AcDbTrace
 10
-13.80276606382538
 20
11.00000000000014
 30
0.0
 11
-12.96943273049205
 21
11.00000000000014
 31
0.0
 12
-13.38609939715871
 22
13.50000000000014
 32
0.0
 13
-13.38609939715871
 23
13.50000000000014
 33
0.0
  0
MTEXT
  5
E0D3
330
8A77
100
AcDbEntity
  8
SK2
 62
     2
100
AcDbMText
 10
-16.63644388534769
 20
0.0000000000001433
 30
0.0
 40
3.5
 41
0.0
 71
     5
 72
     1
  1
%%c27
 11
0.0000000000000001
 21
1.0
 31
0.0
 73
     1
 44
1.0
  0
POINT
  5
E0D4
330
8A77
100
AcDbEntity
  8
Defpoints
 62
     0
100
AcDbPoint
 10
-0.0000000000001705
 20
-13.49999999999986
 30
0.0
  0
POINT
  5
E0D5
330
8A77
100
AcDbEntity
  8
Defpoints
 62
     0
100
AcDbPoint
 10
-0.0000000000001705
 20
13.50000000000014
 30
0.0
  0
POINT
  5
E0D6
330
8A77
100
AcDbEntity
  8
Defpoints
 62
     0
100
AcDbPoint
 10
-13.38609939715871
 20
13.50000000000014
 30
0.0
  0
ENDBLK
  5
8A79
330
8A77
100
AcDbEntity
  8
0
100
AcDbBlockEnd
  0
BLOCK
  5
8EF7
330
8EF6
100
AcDbEntity
  8
0
100
AcDbBlockBegin
  2
*D3
 70
     1
 10
0.0
 20
0.0
 30
0.0
  3
*D3
  1

  0
LINE
  5
E0D7
330
8EF6
100
AcDbEntity
  8
2
370
    -2
100
AcDbLine
 10
49.99999999999977
 20
17.4999999999998
 30
0.0
 11
67.09601900593765
 21
17.4999999999998
 31
0.0
  0
LINE
  5
E0D8
330
8EF6
100
AcDbEntity
  8
2
370
    -2
100
AcDbLine
 10
49.9999999999996
 20
-17.5000000000002
 30
0.0
 11
67.09601900593765
 21
-17.5000000000002
 31
0.0
  0
LINE
  5
E0D9
330
8EF6
100
AcDbEntity
  8
2
370
    -2
100
AcDbLine
 10
66.09601900593765
 20
14.9999999999998
 30
0.0
 11
66.09601900593765
 21
-15.0000000000002
 31
0.0
  0
SOLID
  5
E0DA
330
8EF6
100
AcDbEntity
  8
2
100
AcDbTrace
 10
65.67935233927098
 20
14.9999999999998
 30
0.0
 11
66.51268567260432
 21
14.9999999999998
 31
0.0
 12
66.09601900593765
 22
17.4999999999998
 32
0.0
 13
66.09601900593765
 23
17.4999999999998
 33
0.0
  0
SOLID
  5
E0DB
330
8EF6
100
AcDbEntity
  8
2
100
AcDbTrace
 10
65.67935233927098
 20
-15.0000000000002
 30
0.0
 11
66.51268567260432
 21
-15.0000000000002
 31
0.0
 12
66.09601900593765
 22
-17.5000000000002
 32
0.0
 13
66.09601900593765
 23
-17.5000000000002
 33
0.0
  0
MTEXT
  5
E0DC
330
8EF6
100
AcDbEntity
  8
2
 62
     2
100
AcDbMText
 10
62.84601900593765
 20
-0.0000000000001919
 30
0.0
 40
3.5
 41
0.0
 71
     5
 72
     1
  1
\A1;%%c35
 11
0.0000000000000001
 21
1.0
 31
0.0
 73
     1
 44
1.0
  0
POINT
  5
E0DD
330
8EF6
100
AcDbEntity
  8
Defpoints
 62
     0
100
AcDbPoint
 10
49.99999999999977
 20
17.4999999999998
 30
0.0
  0
POINT
  5
E0DE
330
8EF6
100
AcDbEntity
  8
Defpoints
 62
     0
100
AcDbPoint
 10
49.9999999999996
 20
-17.5000000000002
 30
0.0
  0
POINT
  5
E0DF
330
8EF6
100
AcDbEntity
  8
Defpoints
 62
     0
100
AcDbPoint
 10
66.09601900593765
 20
-17.5000000000002
 30
0.0
  0
ENDBLK
  5
8EF8
330
8EF6
100
AcDbEntity
  8
0
100
AcDbBlockEnd
  0
BLOCK
  5
8F7A
330
8F79
100
AcDbEntity
  8
0
100
AcDbBlockBegin
  2
*D4
 70
     1
 10
0.0
 20
0.0
 30
0.0
  3
*D4
  1

  0
LINE
  5
E0E0
330
8F79
100
AcDbEntity
  8
SK2
370
    -2
100
AcDbLine
 10
2.999999999999772
 20
34.99999999999989
 30
0.0
 11
-27.80483419381254
 21
34.99999999999989
 31
0.0
  0
LINE
  5
E0E1
330
8F79
100
AcDbEntity
  8
SK2
370
    -2
100
AcDbLine
 10
2.999999999999772
 20
-35.00000000000017
 30
0.0
 11
-27.80483419381255
 21
-35.00000000000016
 31
0.0
  0
LINE
  5
E0E2
330
8F79
100
AcDbEntity
  8
SK2
370
    -2
100
AcDbLine
 10
-26.80483419381254
 20
32.49999999999989
 30
0.0
 11
-26.80483419381256
 21
-32.50000000000016
 31
0.0
  0
SOLID
  5
E0E3
330
8F79
100
AcDbEntity
  8
SK2
100
AcDbTrace
 10
-27.22150086047921
 20
32.49999999999989
 30
0.0
 11
-26.38816752714587
 21
32.49999999999989
 31
0.0
 12
-26.80483419381254
 22
34.99999999999989
 32
0.0
 13
-26.80483419381254
 23
34.99999999999989
 33
0.0
  0
SOLID
  5
E0E4
330
8F79
100
AcDbEntity
  8
SK2
100
AcDbTrace
 10
-27.22150086047922
 20
-32.50000000000016
 30
0.0
 11
-26.38816752714589
 21
-32.50000000000016
 31
0.0
 12
-26.80483419381256
 22
-35.00000000000016
 32
0.0
 13
-26.80483419381256
 23
-35.00000000000016
 33
0.0
  0
MTEXT
  5
E0E5
330
8F79
100
AcDbEntity
  8
SK2
 62
     2
100
AcDbMText
 10
-30.05483419381255
 20
-0.0000000000001401
 30
0.0
 40
3.5
 41
0.0
 71
     5
 72
     1
  1
\A1;%%c70
 11
0.0000000000000001
 21
1.0
 31
0.0
 73
     1
 44
1.0
  0
POINT
  5
E0E6
330
8F79
100
AcDbEntity
  8
Defpoints
 62
     0
100
AcDbPoint
 10
2.999999999999772
 20
34.99999999999989
 30
0.0
  0
POINT
  5
E0E7
330
8F79
100
AcDbEntity
  8
Defpoints
 62
     0
100
AcDbPoint
 10
2.999999999999772
 20
-35.00000000000017
 30
0.0
  0
POINT
  5
E0E8
330
8F79
100
AcDbEntity
  8
Defpoints
 62
     0
100
AcDbPoint
 10
-26.80483419381256
 20
-35.00000000000016
 30
0.0
  0
ENDBLK
  5
8F7B
330
8F79
100
AcDbEntity
  8
0
100
AcDbBlockEnd
  0
BLOCK
  5
8FDC
330
8FDB
100
AcDbEntity
  8
0
100
AcDbBlockBegin
  2
*D5
 70
     1
 10
0.0
 20
0.0
 30
0.0
  3
*D5
  1

  0
LINE
  5
E0E9
330
8FDB
100
AcDbEntity
  8
2
370
    -2
100
AcDbLine
 10
49.99999999999977
 20
17.4999999999998
 30
0.0
 11
49.99999999999978
 21
90.99999999999988
 31
0.0
  0
LINE
  5
E0EA
330
8FDB
100
AcDbEntity
  8
2
370
    -2
100
AcDbLine
 10
-0.0000000000002274
 20
31.99999999999989
 30
0.0
 11
-0.0000000000002238
 21
90.99999999999988
 31
0.0
  0
LINE
  5
E0EB
330
8FDB
100
AcDbEntity
  8
2
370
    -2
100
AcDbLine
 10
47.49999999999977
 20
89.99999999999989
 30
0.0
 11
2.499999999999776
 21
89.99999999999989
 31
0.0
  0
SOLID
  5
E0EC
330
8FDB
100
AcDbEntity
  8
2
100
AcDbTrace
 10
47.49999999999977
 20
90.41666666666655
 30
0.0
 11
47.49999999999977
 21
89.58333333333321
 31
0.0
 12
49.99999999999978
 22
89.99999999999989
 32
0.0
 13
49.99999999999978
 23
89.99999999999989
 33
0.0
  0
SOLID
  5
E0ED
330
8FDB
100
AcDbEntity
  8
2
100
AcDbTrace
 10
2.499999999999776
 20
90.41666666666655
 30
0.0
 11
2.499999999999776
 21
89.58333333333321
 31
0.0
 12
-0.0000000000002238
 22
89.99999999999989
 32
0.0
 13
-0.0000000000002238
 23
89.99999999999989
 33
0.0
  0
MTEXT
  5
E0EE
330
8FDB
100
AcDbEntity
  8
2
 62
     2
100
AcDbMText
 10
24.99999999999978
 20
93.24999999999988
 30
0.0
 40
3.5
 41
0.0
 71
     5
 72
     1
  1
\A1;50
 73
     1
 44
1.0
  0
POINT
  5
E0EF
330
8FDB
100
AcDbEntity
  8
Defpoints
 62
     0
100
AcDbPoint
 10
49.99999999999977
 20
17.4999999999998
 30
0.0
  0
POINT
  5
E0F0
330
8FDB
100
AcDbEntity
  8
Defpoints
 62
     0
100
AcDbPoint
 10
-0.0000000000002274
 20
31.99999999999989
 30
0.0
  0
POINT
  5
E0F1
330
8FDB
100
AcDbEntity
  8
Defpoints
 62
     0
100
AcDbPoint
 10
-0.0000000000002238
 20
89.99999999999989
 30
0.0
  0
ENDBLK
  5
8FDD
330
8FDB
100
AcDbEntity
  8
0
100
AcDbBlockEnd
  0
BLOCK
  5
DF4E
330
DF4D
100
AcDbEntity
  8
0
100
AcDbBlockBegin
  2
*D6
 70
     1
 10
0.0
 20
0.0
 30
0.0
  3
*D6
  1

  0
LINE
  5
E0F2
330
DF4D
100
AcDbEntity
  8
2
370
    -2
100
AcDbLine
 10
25.39999999999978
 20
42.24999999999991
 30
0.0
 11
25.39999999999978
 21
63.00000099999977
 31
0.0
  0
LINE
  5
E0F3
330
DF4D
100
AcDbEntity
  8
2
370
    -2
100
AcDbLine
 10
49.99999999999977
 20
17.4999999999998
 30
0.0
 11
49.99999999999977
 21
63.00000099999977
 31
0.0
  0
LINE
  5
E0F4
330
DF4D
100
AcDbEntity
  8
2
370
    -2
100
AcDbLine
 10
27.89999999999978
 20
62.00000099999978
 30
0.0
 11
47.49999999999977
 21
62.00000099999978
 31
0.0
  0
SOLID
  5
E0F5
330
DF4D
100
AcDbEntity
  8
2
100
AcDbTrace
 10
27.89999999999978
 20
62.41666766666644
 30
0.0
 11
27.89999999999978
 21
61.58333433333311
 31
0.0
 12
25.39999999999978
 22
62.00000099999978
 32
0.0
 13
25.39999999999978
 23
62.00000099999978
 33
0.0
  0
SOLID
  5
E0F6
330
DF4D
100
AcDbEntity
  8
2
100
AcDbTrace
 10
47.49999999999977
 20
62.41666766666644
 30
0.0
 11
47.49999999999977
 21
61.58333433333311
 31
0.0
 12
49.99999999999977
 22
62.00000099999978
 32
0.0
 13
49.99999999999977
 23
62.00000099999978
 33
0.0
  0
MTEXT
  5
E0F7
330
DF4D
100
AcDbEntity
  8
2
 62
     2
100
AcDbMText
 10
37.69999999999978
 20
65.25034548818876
 30
0.0
 40
3.5
 41
0.0
 71
     5
 72
     1
  1
\A1;24.6
 73
     1
 44
1.0
  0
POINT
  5
E0F8
330
DF4D
100
AcDbEntity
  8
Defpoints
 62
     0
100
AcDbPoint
 10
25.39999999999978
 20
42.24999999999991
 30
0.0
  0
POINT
  5
E0F9
330
DF4D
100
AcDbEntity
  8
Defpoints
 62
     0
100
AcDbPoint
 10
49.99999999999977
 20
17.4999999999998
 30
0.0
  0
POINT
  5
E0FA
330
DF4D
100
AcDbEntity
  8
Defpoints
 62
     0
100
AcDbPoint
 10
49.99999999999977
 20
62.00000099999978
 30
0.0
  0
ENDBLK
  5
DF4F
330
DF4D
100
AcDbEntity
  8
0
100
AcDbBlockEnd
  0
BLOCK
  5
DF77
330
DF76
100
AcDbEntity
  8
0
100
AcDbBlockBegin
  2
*D7
 70
     1
 10
0.0
 20
0.0
 30
0.0
  3
*D7
  1

  0
LINE
  5
E0FB
330
DF76
100
AcDbEntity
  8
2
100
AcDbLine
 10
49.99999999999978
 20
58.50365032588434
 30
0.0
 11
49.9999999999998
 21
80.01844150622615
 31
0.0
  0
LINE
  5
E0FC
330
DF76
100
AcDbEntity
  8
2
100
AcDbLine
 10
25.49400316910217
 20
41.88655092919709
 30
0.0
 11
5.684919571951322
 21
61.59908523669772
 31
0.0
  0
ARC
  5
E0FD
330
DF76
100
AcDbEntity
  8
2
100
AcDbCircle
 10
49.99999999999969
 20
17.49999609946988
 30
0.0
 40
61.51844540675625
100
AcDbArc
 50
92.32855863183017
 51
132.811411746422
  0
SOLID
  5
E0FE
330
DF76
100
AcDbEntity
  8
2
100
AcDbTrace
 10
47.49204984058711
 20
79.38422437763069
 30
0.0
 11
47.50898243145118
 21
78.55106308963712
 31
0.0
 12
49.9999999999998
 22
79.01844150622614
 32
0.0
 13
49.9999999999998
 23
79.01844150622614
 33
0.0
  0
SOLID
  5
E0FF
330
DF76
100
AcDbEntity
  8
2
100
AcDbTrace
 10
8.482151608185727
 20
62.32974307710803
 30
0.0
 11
7.903524014076964
 21
62.92943845959847
 31
0.0
 12
6.393751663660044
 22
60.89370798602696
 32
0.0
 13
6.393751663660044
 23
60.89370798602696
 33
0.0
  0
MTEXT
  5
E100
330
DF76
100
AcDbEntity
  8
2
 62
     2
100
AcDbMText
 10
25.14111677643696
 20
77.30791735815632
 30
0.0
 40
3.5
 41
0.0
 71
     5
 72
     1
  1
45\U+00B0
 11
0.9234114063273107
 21
0.3838116395637555
 31
0.0
 73
     1
 44
1.0
  0
POINT
  5
E101
330
DF76
100
AcDbEntity
  8
Defpoints
 62
     0
100
AcDbPoint
 10
34.02947157496382
 20
76.90926597454216
 30
0.0
  0
POINT
  5
E102
330
DF76
100
AcDbEntity
  8
Defpoints
 62
     0
100
AcDbPoint
 10
25.49400316910217
 20
41.88655092919709
 30
0.0
  0
POINT
  5
E103
330
DF76
100
AcDbEntity
  8
Defpoints
 62
     0
100
AcDbPoint
 10
49.99999999999978
 20
58.50365032588434
 30
0.0
  0
POINT
  5
E104
330
DF76
100
AcDbEntity
  8
Defpoints
 62
     0
100
AcDbPoint
 10
49.99999999999976
 20
54.24999999999984
 30
0.0
  0
POINT
  5
E105
330
DF76
100
AcDbEntity
  8
Defpoints
 62
     0
100
AcDbPoint
 10
49.88284271247437
 20
17.61658236346288
 30
0.0
  0
ENDBLK
  5
DF78
330
DF76
100
AcDbEntity
  8
0
100
AcDbBlockEnd
  0
BLOCK
  5
DFBE
330
DFBD
100
AcDbEntity
  8
0
100
AcDbBlockBegin
  2
*D8
 70
     1
 10
0.0
 20
0.0
 30
0.0
  3
*D8
  1

  0
LINE
  5
E106
330
DFBD
100
AcDbEntity
  8
2
370
    -2
100
AcDbLine
 10
25.39999999999978
 20
42.24999999999991
 30
0.0
 11
84.6845402477693
 21
42.24999999999989
 31
0.0
  0
LINE
  5
E107
330
DFBD
100
AcDbEntity
  8
2
370
    -2
100
AcDbLine
 10
25.39999999999946
 20
-42.25000000000011
 30
0.0
 11
84.68454024776928
 21
-42.25000000000012
 31
0.0
  0
LINE
  5
E108
330
DFBD
100
AcDbEntity
  8
2
370
    -2
100
AcDbLine
 10
83.6845402477693
 20
39.74999999999989
 30
0.0
 11
83.68454024776928
 21
-39.75000000000013
 31
0.0
  0
SOLID
  5
E109
330
DFBD
100
AcDbEntity
  8
2
100
AcDbTrace
 10
83.26787358110264
 20
39.74999999999989
 30
0.0
 11
84.10120691443598
 21
39.74999999999989
 31
0.0
 12
83.6845402477693
 22
42.24999999999989
 32
0.0
 13
83.6845402477693
 23
42.24999999999989
 33
0.0
  0
SOLID
  5
E10A
330
DFBD
100
AcDbEntity
  8
2
100
AcDbTrace
 10
83.2678735811026
 20
-39.75000000000013
 30
0.0
 11
84.10120691443594
 21
-39.75000000000013
 31
0.0
 12
83.68454024776928
 22
-42.25000000000012
 32
0.0
 13
83.68454024776928
 23
-42.25000000000012
 33
0.0
  0
MTEXT
  5
E10B
330
DFBD
100
AcDbEntity
  8
2
 62
     2
100
AcDbMText
 10
80.43454024776929
 20
-0.0000000000001006
 30
0.0
 40
3.5
 41
0.0
 71
     5
 72
     1
  1
\A1;%%c84.5
 11
0.0000000000000001
 21
1.0
 31
0.0
 73
     1
 44
1.0
  0
POINT
  5
E10C
330
DFBD
100
AcDbEntity
  8
Defpoints
 62
     0
100
AcDbPoint
 10
25.39999999999978
 20
42.24999999999991
 30
0.0
  0
POINT
  5
E10D
330
DFBD
100
AcDbEntity
  8
Defpoints
 62
     0
100
AcDbPoint
 10
25.39999999999946
 20
-42.25000000000011
 30
0.0
  0
POINT
  5
E10E
330
DFBD
100
AcDbEntity
  8
Defpoints
 62
     0
100
AcDbPoint
 10
83.68454024776928
 20
-42.25000000000012
 30
0.0
  0
ENDBLK
  5
DFBF
330
DFBD
100
AcDbEntity
  8
0
100
AcDbBlockEnd
  0
ENDSEC
  0
SECTION
  2
ENTITIES
  0
LINE
  5
891A
330
1F
100
AcDbEntity
  8
NOCUT
100
AcDbLine
 10
-0.0000000000001705
 20
-0.0000000000001421
 30
0.0
 11
48.99999999999983
 21
-0.0000000000001421
 31
0.0
  0
TEXT
  5
894B
330
1F
100
AcDbEntity
  8
6
100
AcDbText
 10
52.3820319550698
 20
22.96515548672437
 30
0.0
 40
2.5
  1
BOMT130404
100
AcDbText
  0
LINE
  5
8A68
330
1F
100
AcDbEntity
  8
SK3
 48
0.5
100
AcDbLine
 10
21.99999999999972
 20
-13.49999999999986
 30
0.0
 11
21.99999999999972
 21
13.50000000000014
 31
0.0
  0
LINE
  5
8A69
330
1F
100
AcDbEntity
  8
SK3
 48
0.5
100
AcDbLine
 10
-0.0000000000001705
 20
-13.49999999999986
 30
0.0
 11
21.99999999999972
 21
-13.49999999999986
 31
0.0
  0
LINE
  5
8A6A
330
1F
100
AcDbEntity
  8
SK3
 48
0.5
100
AcDbLine
 10
48.79999999999995
 20
-10.00000000000306
 30
0.0
 11
32.99999999999972
 21
-10.00000000000293
 31
0.0
  0
LINE
  5
8A6B
330
1F
100
AcDbEntity
  8
SK3
 48
0.5
100
AcDbLine
 10
32.99999999999972
 20
-10.00000000000293
 30
0.0
 11
32.99999999999972
 21
10.00000000000327
 31
0.0
  0
LINE
  5
8A6C
330
1F
100
AcDbEntity
  8
SK3
 48
0.5
100
AcDbLine
 10
21.99999999999972
 20
-6.499999999999857
 30
0.0
 11
32.99999999999972
 21
-6.499999999999857
 31
0.0
  0
LINE
  5
8A6D
330
1F
100
AcDbEntity
  8
SK3
 48
0.5
100
AcDbLine
 10
32.99999999999972
 20
10.00000000000327
 30
0.0
 11
48.79999999999995
 21
10.00000000000321
 31
0.0
  0
LINE
  5
8A6E
330
1F
100
AcDbEntity
  8
SK3
 48
0.5
100
AcDbLine
 10
21.99999999999972
 20
6.500000000000142
 30
0.0
 11
32.9999999999996
 21
6.500000000000085
 31
0.0
  0
LINE
  5
8A6F
330
1F
100
AcDbEntity
  8
SK3
 48
0.5
100
AcDbLine
 10
21.99999999999972
 20
13.50000000000014
 30
0.0
 11
-0.0000000000002274
 21
13.50000000000011
 31
0.0
  0
LINE
  5
8A70
330
1F
100
AcDbEntity
  8
SK1
100
AcDbLine
 10
-2.262823140784234
 20
-2.262823140784178
 30
0.0
 11
2.262823140784178
 21
2.262823140784206
 31
0.0
  0
CIRCLE
  5
8A71
330
1F
100
AcDbEntity
  8
SK1
100
AcDbCircle
 10
0.0
 20
0.0
 30
0.0
 40
3.200115174948665
  0
LINE
  5
8A72
330
1F
100
AcDbEntity
  8
1
100
AcDbLine
 10
6.999999999999829
 20
6.200000000000159
 30
0.0
 11
-0.0000000000001705
 21
6.200000000000159
 31
0.0
  0
LINE
  5
8A73
330
1F
100
AcDbEntity
  8
1
100
AcDbLine
 10
-0.0000000000001705
 20
-6.199999999999846
 30
0.0
 11
6.999999999999829
 21
-6.199999999999903
 31
0.0
  0
LINE
  5
8A74
330
1F
100
AcDbEntity
  8
SK1
100
AcDbLine
 10
-2.262823140784234
 20
2.262823140784178
 30
0.0
 11
2.262823140784121
 21
-2.262823140784178
 31
0.0
  0
LINE
  5
8A75
330
1F
100
AcDbEntity
  8
1
100
AcDbLine
 10
6.999999999999829
 20
-6.199999999999903
 30
0.0
 11
6.999999999999829
 21
6.200000000000159
 31
0.0
  0
DIMENSION
  5
8A76
330
1F
100
AcDbEntity
  8
SK2
100
AcDbDimension
  2
*D2
 10
-13.38609939715871
 20
13.50000000000014
 30
0.0
 11
-16.63644388534769
 21
0.0000000000001433
 31
0.0
 70
    32
  1
%%c<>
 71
     5
 42
27.0
  3
AM_DIN
100
AcDbAlignedDimension
 13
-0.0000000000001705
 23
-13.49999999999986
 33
0.0
 14
-0.0000000000001705
 24
13.50000000000014
 34
0.0
 50
270.0
100
AcDbRotatedDimension
  0
LINE
  5
8E52
330
1F
100
AcDbEntity
  8
4
100
AcDbLine
 10
52.51703724361641
 20
-0.000000000000199
 30
0.0
 11
0.0
 21
0.0
 31
0.0
  0
CIRCLE
  5
8E56
330
1F
100
AcDbEntity
  8
SK1
100
AcDbCircle
 10
49.99999999999977
 20
17.4999999999998
 30
0.0
 40
0.4637693698488208
  0
LINE
  5
8E58
330
1F
100
AcDbEntity
  8
1
100
AcDbLine
 10
49.88284271247437
 20
17.05089693851373
 30
0.0
 11
48.75147186257594
 21
15.91952608861524
 31
0.0
  0
LINE
  5
8E59
330
1F
100
AcDbEntity
  8
1
100
AcDbLine
 10
48.75147186257594
 20
15.91952608861524
 30
0.0
 11
47.5148197546736
 21
15.74196463414453
 31
0.0
  0
LINE
  5
8E5A
330
1F
100
AcDbEntity
  8
1
100
AcDbLine
 10
47.51481975467353
 20
15.74196463414442
 30
0.0
 11
43.61721490196855
 21
12.98230657115956
 31
0.0
  0
ARC
  5
8E5B
330
1F
100
AcDbEntity
  8
1
100
AcDbCircle
 10
49.59999999999977
 20
17.33373965098827
 30
0.0
 40
0.4
100
AcDbArc
 50
314.9999999999979
 51
45.00000000000158
1001
GENIUS_GENOBJ-N-FIL_13
1002
{
1000
OWNER
1000
GEN
1002
}
1001
GENIUS_GENODEF_13
1002
{
1000
HIER
1070
     0
1002
}
1002
{
1000
MANEDIT
1070
     0
1002
}
1002
{
1000
NOSEL
1070
     0
1002
}
1002
{
1000
BEHIND
1070
     0
1002
}
1002
{
1000
OTHER
1070
     0
1002
}
1002
{
1000
REACTOR
1002
}
  0
ARC
  5
8E5C
330
1F
100
AcDbEntity
  8
1
100
AcDbCircle
 10
43.38607185221508
 20
13.30876160719171
 30
0.0
 40
0.4
100
AcDbArc
 50
225.0000000000015
 51
305.3000000000003
1001
GENIUS_GENODEF_13
1002
{
1000
HIER
1070
     0
1002
}
1002
{
1000
MANEDIT
1070
     0
1002
}
1002
{
1000
NOSEL
1070
     0
1002
}
1002
{
1000
BEHIND
1070
     0
1002
}
1002
{
1000
OTHER
1070
     0
1002
}
1002
{
1000
REACTOR
1002
}
1001
GENIUS_GENOBJ-N-FIL_13
1002
{
1000
OWNER
1000
GEN
1002
}
  0
CIRCLE
  5
8E5D
330
1F
100
AcDbEntity
  8
1
100
AcDbCircle
 10
42.02688637349187
 20
19.78740018170568
 30
0.0
 40
2.749999999999976
  0
LINE
  5
8E5E
330
1F
100
AcDbEntity
  8
1
100
AcDbLine
 10
34.17093003450929
 20
22.52390342489759
 30
0.0
 11
35.30230088440777
 21
23.65527427479609
 31
0.0
  0
LINE
  5
8E5F
330
1F
100
AcDbEntity
  8
1
100
AcDbLine
 10
35.30230088440777
 20
23.65527427479609
 30
0.0
 11
36.53895299231018
 21
23.83283572926678
 31
0.0
  0
LINE
  5
8E60
330
1F
100
AcDbEntity
  8
1
100
AcDbLine
 10
36.53895299231023
 20
23.83283572926681
 30
0.0
 11
40.43655784501521
 21
26.59249379225168
 31
0.0
  0
LINE
  5
8E66
330
1F
100
AcDbEntity
  8
CUT
100
AcDbLine
 10
36.53895299231023
 20
23.83283572926681
 30
0.0
 11
40.43655784501521
 21
26.59249379225168
 31
0.0
  0
LINE
  5
8E67
330
1F
100
AcDbEntity
  8
CUT
100
AcDbLine
 10
34.17093003450929
 20
22.52390342489759
 30
0.0
 11
35.30230088440777
 21
23.65527427479609
 31
0.0
  0
LINE
  5
8E69
330
1F
100
AcDbEntity
  8
CUT
100
AcDbLine
 10
35.30230088440777
 20
23.65527427479609
 30
0.0
 11
36.53895299231018
 21
23.83283572926678
 31
0.0
  0
LINE
  5
8E6B
330
1F
100
AcDbEntity
  8
CUT
100
AcDbLine
 10
49.88284271247437
 20
17.05089693851373
 30
0.0
 11
48.75147186257594
 21
15.91952608861524
 31
0.0
  0
LINE
  5
8E6C
330
1F
100
AcDbEntity
  8
CUT
100
AcDbLine
 10
47.51481975467353
 20
15.74196463414442
 30
0.0
 11
43.61721490196855
 21
12.98230657115956
 31
0.0
  0
ARC
  5
8E6D
330
1F
100
AcDbEntity
  8
CUT
100
AcDbCircle
 10
43.38607185221508
 20
13.30876160719171
 30
0.0
 40
0.4
100
AcDbArc
 50
225.0000000000015
 51
305.3000000000003
1001
GENIUS_GENODEF_13
1002
{
1000
HIER
1070
     0
1002
}
1002
{
1000
MANEDIT
1070
     0
1002
}
1002
{
1000
NOSEL
1070
     0
1002
}
1002
{
1000
BEHIND
1070
     0
1002
}
1002
{
1000
OTHER
1070
     0
1002
}
1002
{
1000
REACTOR
1002
}
1001
GENIUS_GENOBJ-N-FIL_13
1002
{
1000
OWNER
1000
GEN
1002
}
  0
LINE
  5
8E6E
330
1F
100
AcDbEntity
  8
CUT
100
AcDbLine
 10
48.75147186257594
 20
15.91952608861524
 30
0.0
 11
47.5148197546736
 21
15.74196463414453
 31
0.0
  0
ARC
  5
8E6F
330
1F
100
AcDbEntity
  8
CUT
100
AcDbCircle
 10
49.59999999999977
 20
17.33373965098827
 30
0.0
 40
0.4
100
AcDbArc
 50
314.9999999999979
 51
45.00000000000158
1001
GENIUS_GENOBJ-N-FIL_13
1002
{
1000
OWNER
1000
GEN
1002
}
1001
GENIUS_GENODEF_13
1002
{
1000
HIER
1070
     0
1002
}
1002
{
1000
MANEDIT
1070
     0
1002
}
1002
{
1000
NOSEL
1070
     0
1002
}
1002
{
1000
BEHIND
1070
     0
1002
}
1002
{
1000
OTHER
1070
     0
1002
}
1002
{
1000
REACTOR
1002
}
  0
LINE
  5
8E70
330
1F
100
AcDbEntity
  8
SK1
100
AcDbLine
 10
50.46376936984865
 20
17.49999999999977
 30
0.0
 11
49.53623063015095
 21
17.4999999999998
 31
0.0
  0
LINE
  5
8E71
330
1F
100
AcDbEntity
  8
SK1
100
AcDbLine
 10
49.99999999999983
 20
17.96376936984862
 30
0.0
 11
49.99999999999983
 21
17.03623063015098
 31
0.0
  0
CIRCLE
  5
8E7F
330
1F
100
AcDbEntity
  8
1
100
AcDbCircle
 10
25.39999999999978
 20
42.24999999999991
 30
0.0
 40
0.0959690010191452
  0
CIRCLE
  5
8E87
330
1F
100
AcDbEntity
  8
1
100
AcDbCircle
 10
26.54052120525831
 20
35.15489437230117
 30
0.0
 40
2.749999999999976
  0
LINE
  5
8E88
330
1F
100
AcDbEntity
  8
1
100
AcDbLine
 10
18.68456486627572
 20
37.89139761549308
 30
0.0
 11
19.8159357161742
 21
39.02276846539158
 31
0.0
  0
LINE
  5
8E89
330
1F
100
AcDbEntity
  8
1
100
AcDbLine
 10
19.8159357161742
 20
39.02276846539158
 30
0.0
 11
21.05258782407662
 21
39.20032991986227
 31
0.0
  0
LINE
  5
8E8A
330
1F
100
AcDbEntity
  8
1
100
AcDbLine
 10
21.05258782407667
 20
39.2003299198623
 30
0.0
 11
24.95019267678165
 21
41.95998798284716
 31
0.0
  0
ARC
  5
8E8C
330
1F
100
AcDbEntity
  8
1
100
AcDbCircle
 10
18.96740757875032
 20
37.60855490301853
 30
0.0
 40
0.4
100
AcDbArc
 50
134.999999999998
 51
225.0000000000015
1001
GENIUS_GENOBJ-N-FIL_13
1002
{
1000
OWNER
1000
GEN
1002
}
1001
GENIUS_GENODEF_13
1002
{
1000
HIER
1070
     0
1002
}
1002
{
1000
MANEDIT
1070
     0
1002
}
1002
{
1000
NOSEL
1070
     0
1002
}
1002
{
1000
BEHIND
1070
     0
1002
}
1002
{
1000
OTHER
1070
     0
1002
}
1002
{
1000
REACTOR
1002
}
  0
ARC
  5
8E8D
330
1F
100
AcDbEntity
  8
1
100
AcDbCircle
 10
25.18133572653498
 20
41.63353294681513
 30
0.0
 40
0.4
100
AcDbArc
 50
45.00000000000158
 51
125.3000000000002
1001
GENIUS_GENODEF_13
1002
{
1000
HIER
1070
     0
1002
}
1002
{
1000
MANEDIT
1070
     0
1002
}
1002
{
1000
NOSEL
1070
     0
1002
}
1002
{
1000
BEHIND
1070
     0
1002
}
1002
{
1000
OTHER
1070
     0
1002
}
1002
{
1000
REACTOR
1002
}
1001
GENIUS_GENOBJ-N-FIL_13
1002
{
1000
OWNER
1000
GEN
1002
}
  0
LINE
  5
8E90
330
1F
100
AcDbEntity
  8
CUT
100
AcDbLine
 10
21.05258782407667
 20
39.2003299198623
 30
0.0
 11
24.95019267678165
 21
41.95998798284716
 31
0.0
  0
LINE
  5
8E91
330
1F
100
AcDbEntity
  8
CUT
100
AcDbLine
 10
18.68456486627572
 20
37.89139761549308
 30
0.0
 11
19.8159357161742
 21
39.02276846539158
 31
0.0
  0
ARC
  5
8E92
330
1F
100
AcDbEntity
  8
CUT
100
AcDbCircle
 10
18.96740757875032
 20
37.60855490301853
 30
0.0
 40
0.4
100
AcDbArc
 50
134.999999999998
 51
225.0000000000015
1001
GENIUS_GENOBJ-N-FIL_13
1002
{
1000
OWNER
1000
GEN
1002
}
1001
GENIUS_GENODEF_13
1002
{
1000
HIER
1070
     0
1002
}
1002
{
1000
MANEDIT
1070
     0
1002
}
1002
{
1000
NOSEL
1070
     0
1002
}
1002
{
1000
BEHIND
1070
     0
1002
}
1002
{
1000
OTHER
1070
     0
1002
}
1002
{
1000
REACTOR
1002
}
  0
LINE
  5
8E93
330
1F
100
AcDbEntity
  8
CUT
100
AcDbLine
 10
19.8159357161742
 20
39.02276846539158
 30
0.0
 11
21.05258782407662
 21
39.20032991986227
 31
0.0
  0
ARC
  5
8E94
330
1F
100
AcDbEntity
  8
CUT
100
AcDbCircle
 10
25.18133572653498
 20
41.63353294681513
 30
0.0
 40
0.4
100
AcDbArc
 50
45.00000000000158
 51
125.3000000000002
1001
GENIUS_GENODEF_13
1002
{
1000
HIER
1070
     0
1002
}
1002
{
1000
MANEDIT
1070
     0
1002
}
1002
{
1000
NOSEL
1070
     0
1002
}
1002
{
1000
BEHIND
1070
     0
1002
}
1002
{
1000
OTHER
1070
     0
1002
}
1002
{
1000
REACTOR
1002
}
1001
GENIUS_GENOBJ-N-FIL_13
1002
{
1000
OWNER
1000
GEN
1002
}
  0
CIRCLE
  5
8EA0
330
1F
100
AcDbEntity
  8
1
100
AcDbCircle
 10
34.28370378937507
 20
27.47114727700342
 30
0.0
 40
2.749999999999976
  0
LINE
  5
8EA1
330
1F
100
AcDbEntity
  8
1
100
AcDbLine
 10
26.42774745039248
 20
30.20765052019532
 30
0.0
 11
27.55911830029097
 21
31.33902137009382
 31
0.0
  0
LINE
  5
8EA2
330
1F
100
AcDbEntity
  8
1
100
AcDbLine
 10
27.55911830029097
 20
31.33902137009382
 30
0.0
 11
28.79577040819338
 21
31.51658282456451
 31
0.0
  0
LINE
  5
8EA3
330
1F
100
AcDbEntity
  8
1
100
AcDbLine
 10
28.79577040819342
 20
31.51658282456454
 30
0.0
 11
32.69337526089841
 21
34.27624088754941
 31
0.0
  0
LINE
  5
8EA8
330
1F
100
AcDbEntity
  8
CUT
100
AcDbLine
 10
28.79577040819342
 20
31.51658282456454
 30
0.0
 11
32.69337526089841
 21
34.27624088754941
 31
0.0
  0
LINE
  5
8EA9
330
1F
100
AcDbEntity
  8
CUT
100
AcDbLine
 10
26.42774745039248
 20
30.20765052019532
 30
0.0
 11
27.55911830029097
 21
31.33902137009382
 31
0.0
  0
LINE
  5
8EAB
330
1F
100
AcDbEntity
  8
CUT
100
AcDbLine
 10
27.55911830029097
 20
31.33902137009382
 30
0.0
 11
28.79577040819338
 21
31.51658282456451
 31
0.0
  0
LINE
  5
8EB2
330
1F
100
AcDbEntity
  8
1
100
AcDbLine
 10
25.49400316910217
 20
41.88655092919709
 30
0.0
 11
49.88284271247437
 21
17.61658236346288
 31
0.0
  0
LINE
  5
8EB5
330
1F
100
AcDbEntity
  8
1
100
AcDbLine
 10
43.1032291397405
 20
13.02591889471708
 30
0.0
 11
18.68456486627573
 21
37.32571219054391
 31
0.0
  0
ARC
  5
8EB7
330
1F
100
AcDbEntity
  8
1
100
AcDbCircle
 10
26.71059016286708
 20
29.92480780772077
 30
0.0
 40
0.4
100
AcDbArc
 50
134.999999999998
 51
225.0000000000015
1001
GENIUS_GENOBJ-N-FIL_13
1002
{
1000
OWNER
1000
GEN
1002
}
1001
GENIUS_GENODEF_13
1002
{
1000
HIER
1070
     0
1002
}
1002
{
1000
MANEDIT
1070
     0
1002
}
1002
{
1000
NOSEL
1070
     0
1002
}
1002
{
1000
BEHIND
1070
     0
1002
}
1002
{
1000
OTHER
1070
     0
1002
}
1002
{
1000
REACTOR
1002
}
  0
ARC
  5
8EB8
330
1F
100
AcDbEntity
  8
1
100
AcDbCircle
 10
32.9056955404222
 20
33.93645858731418
 30
0.0
 40
0.4
100
AcDbArc
 50
45.00000000000158
 51
125.3000000000002
1001
GENIUS_GENODEF_13
1002
{
1000
HIER
1070
     0
1002
}
1002
{
1000
MANEDIT
1070
     0
1002
}
1002
{
1000
NOSEL
1070
     0
1002
}
1002
{
1000
BEHIND
1070
     0
1002
}
1002
{
1000
OTHER
1070
     0
1002
}
1002
{
1000
REACTOR
1002
}
1001
GENIUS_GENOBJ-N-FIL_13
1002
{
1000
OWNER
1000
GEN
1002
}
  0
ARC
  5
8EB9
330
1F
100
AcDbEntity
  8
CUT
100
AcDbCircle
 10
26.71059016286708
 20
29.92480780772077
 30
0.0
 40
0.4
100
AcDbArc
 50
134.999999999998
 51
225.0000000000015
1001
GENIUS_GENOBJ-N-FIL_13
1002
{
1000
OWNER
1000
GEN
1002
}
1001
GENIUS_GENODEF_13
1002
{
1000
HIER
1070
     0
1002
}
1002
{
1000
MANEDIT
1070
     0
1002
}
1002
{
1000
NOSEL
1070
     0
1002
}
1002
{
1000
BEHIND
1070
     0
1002
}
1002
{
1000
OTHER
1070
     0
1002
}
1002
{
1000
REACTOR
1002
}
  0
ARC
  5
8EBA
330
1F
100
AcDbEntity
  8
CUT
100
AcDbCircle
 10
32.9056955404222
 20
33.93645858731418
 30
0.0
 40
0.4
100
AcDbArc
 50
45.00000000000158
 51
125.3000000000002
1001
GENIUS_GENODEF_13
1002
{
1000
HIER
1070
     0
1002
}
1002
{
1000
MANEDIT
1070
     0
1002
}
1002
{
1000
NOSEL
1070
     0
1002
}
1002
{
1000
BEHIND
1070
     0
1002
}
1002
{
1000
OTHER
1070
     0
1002
}
1002
{
1000
REACTOR
1002
}
1001
GENIUS_GENOBJ-N-FIL_13
1002
{
1000
OWNER
1000
GEN
1002
}
  0
ARC
  5
8EBB
330
1F
100
AcDbEntity
  8
1
100
AcDbCircle
 10
34.45377274698388
 20
22.24106071242304
 30
0.0
 40
0.4
100
AcDbArc
 50
134.999999999998
 51
225.0000000000015
1001
GENIUS_GENOBJ-N-FIL_13
1002
{
1000
OWNER
1000
GEN
1002
}
1001
GENIUS_GENODEF_13
1002
{
1000
HIER
1070
     0
1002
}
1002
{
1000
MANEDIT
1070
     0
1002
}
1002
{
1000
NOSEL
1070
     0
1002
}
1002
{
1000
BEHIND
1070
     0
1002
}
1002
{
1000
OTHER
1070
     0
1002
}
1002
{
1000
REACTOR
1002
}
  0
ARC
  5
8EBC
330
1F
100
AcDbEntity
  8
1
100
AcDbCircle
 10
40.63452642820416
 20
26.24254992459106
 30
0.0
 40
0.4
100
AcDbArc
 50
45.00000000000158
 51
125.3000000000002
1001
GENIUS_GENODEF_13
1002
{
1000
HIER
1070
     0
1002
}
1002
{
1000
MANEDIT
1070
     0
1002
}
1002
{
1000
NOSEL
1070
     0
1002
}
1002
{
1000
BEHIND
1070
     0
1002
}
1002
{
1000
OTHER
1070
     0
1002
}
1002
{
1000
REACTOR
1002
}
1001
GENIUS_GENOBJ-N-FIL_13
1002
{
1000
OWNER
1000
GEN
1002
}
  0
ARC
  5
8EBD
330
1F
100
AcDbEntity
  8
CUT
100
AcDbCircle
 10
34.45377274698388
 20
22.24106071242304
 30
0.0
 40
0.4
100
AcDbArc
 50
134.999999999998
 51
225.0000000000015
1001
GENIUS_GENOBJ-N-FIL_13
1002
{
1000
OWNER
1000
GEN
1002
}
1001
GENIUS_GENODEF_13
1002
{
1000
HIER
1070
     0
1002
}
1002
{
1000
MANEDIT
1070
     0
1002
}
1002
{
1000
NOSEL
1070
     0
1002
}
1002
{
1000
BEHIND
1070
     0
1002
}
1002
{
1000
OTHER
1070
     0
1002
}
1002
{
1000
REACTOR
1002
}
  0
ARC
  5
8EBE
330
1F
100
AcDbEntity
  8
CUT
100
AcDbCircle
 10
40.63452642820416
 20
26.24254992459106
 30
0.0
 40
0.4
100
AcDbArc
 50
45.00000000000158
 51
125.3000000000002
1001
GENIUS_GENODEF_13
1002
{
1000
HIER
1070
     0
1002
}
1002
{
1000
MANEDIT
1070
     0
1002
}
1002
{
1000
NOSEL
1070
     0
1002
}
1002
{
1000
BEHIND
1070
     0
1002
}
1002
{
1000
OTHER
1070
     0
1002
}
1002
{
1000
REACTOR
1002
}
1001
GENIUS_GENOBJ-N-FIL_13
1002
{
1000
OWNER
1000
GEN
1002
}
  0
LINE
  5
8EC0
330
1F
100
AcDbEntity
  8
CUT
100
AcDbLine
 10
43.1032291397405
 20
13.02591889471708
 30
0.0
 11
18.68456486627573
 21
37.32571219054391
 31
0.0
  0
CIRCLE
  5
8ED6
330
1F
100
AcDbEntity
  8
SK1
100
AcDbCircle
 10
49.9999999999996
 20
-17.5000000000002
 30
0.0
 40
0.4637693698488208
  0
LINE
  5
8ED7
330
1F
100
AcDbEntity
  8
1
100
AcDbLine
 10
49.88284271247426
 20
-17.0509008390441
 30
0.0
 11
48.79999999999995
 21
-15.96805812656968
 31
0.0
  0
LINE
  5
8ED8
330
1F
100
AcDbEntity
  8
SK3
100
AcDbLine
 10
48.75147186257584
 20
-15.9195299891456
 30
0.0
 11
47.5148197546735
 21
-15.74196853467488
 31
0.0
  0
LINE
  5
8ED9
330
1F
100
AcDbEntity
  8
SK3
100
AcDbLine
 10
47.51481975467343
 20
-15.74196853467478
 30
0.0
 11
43.61721490196848
 21
-12.98231047168987
 31
0.0
  0
ARC
  5
8EDA
330
1F
100
AcDbEntity
  8
1
100
AcDbCircle
 10
49.59999999999966
 20
-17.33374355151864
 30
0.0
 40
0.4
100
AcDbArc
 50
314.9999999999984
 51
45.00000000000187
1001
GENIUS_GENOBJ-N-FIL_13
1002
{
1000
OWNER
1000
GEN
1002
}
1001
GENIUS_GENODEF_13
1002
{
1000
HIER
1070
     0
1002
}
1002
{
1000
MANEDIT
1070
     0
1002
}
1002
{
1000
NOSEL
1070
     0
1002
}
1002
{
1000
BEHIND
1070
     0
1002
}
1002
{
1000
OTHER
1070
     0
1002
}
1002
{
1000
REACTOR
1002
}
  0
ARC
  5
8EDB
330
1F
100
AcDbEntity
  8
SK3
100
AcDbCircle
 10
43.38607185221501
 20
-13.30876550772201
 30
0.0
 40
0.4
100
AcDbArc
 50
54.69999999999958
 51
134.9999999999984
1001
GENIUS_GENODEF_13
1002
{
1000
HIER
1070
     0
1002
}
1002
{
1000
MANEDIT
1070
     0
1002
}
1002
{
1000
NOSEL
1070
     0
1002
}
1002
{
1000
BEHIND
1070
     0
1002
}
1002
{
1000
OTHER
1070
     0
1002
}
1002
{
1000
REACTOR
1002
}
1001
GENIUS_GENOBJ-N-FIL_13
1002
{
1000
OWNER
1000
GEN
1002
}
  0
CIRCLE
  5
8EDC
330
1F
100
AcDbEntity
  8
SK3
 48
0.3
100
AcDbCircle
 10
42.02688637349174
 20
-19.78740408223598
 30
0.0
 40
2.749999999999976
  0
LINE
  5
8EDD
330
1F
100
AcDbEntity
  8
SK3
100
AcDbLine
 10
34.17093003450913
 20
-22.5239073254278
 30
0.0
 11
35.30230088440755
 21
-23.6552781753263
 31
0.0
  0
LINE
  5
8EDE
330
1F
100
AcDbEntity
  8
SK3
100
AcDbLine
 10
35.30230088440755
 20
-23.6552781753263
 30
0.0
 11
36.53895299231001
 21
-23.83283962979702
 31
0.0
  0
LINE
  5
8EDF
330
1F
100
AcDbEntity
  8
SK3
100
AcDbLine
 10
36.53895299231006
 20
-23.83283962979705
 30
0.0
 11
40.09725035310802
 21
-26.35225459701958
 31
0.0
  0
LINE
  5
8EE0
330
1F
100
AcDbEntity
  8
SK1
100
AcDbLine
 10
50.46376936984848
 20
-17.50000000000017
 30
0.0
 11
49.53623063015078
 21
-17.5000000000002
 31
0.0
  0
LINE
  5
8EE1
330
1F
100
AcDbEntity
  8
SK1
100
AcDbLine
 10
49.99999999999966
 20
-17.96376936984902
 30
0.0
 11
49.99999999999966
 21
-17.03623063015138
 31
0.0
  0
CIRCLE
  5
8EE3
330
1F
100
AcDbEntity
  8
SK3
 48
0.3
100
AcDbCircle
 10
26.540521205258
 20
-35.1548982728313
 30
0.0
 40
2.749999999999976
  0
LINE
  5
8EE4
330
1F
100
AcDbEntity
  8
1
100
AcDbLine
 10
18.68456486627538
 20
-37.89140151602312
 30
0.0
 11
19.81593571617385
 21
-39.02277236592165
 31
0.0
  0
LINE
  5
8EE5
330
1F
100
AcDbEntity
  8
1
100
AcDbLine
 10
19.81593571617385
 20
-39.02277236592165
 30
0.0
 11
21.05258782407627
 21
-39.20033382039235
 31
0.0
  0
LINE
  5
8EE6
330
1F
100
AcDbEntity
  8
1
100
AcDbLine
 10
21.05258782407632
 20
-39.20033382039238
 30
0.0
 11
24.95019267678127
 21
-41.95999188337729
 31
0.0
  0
ARC
  5
8EE7
330
1F
100
AcDbEntity
  8
1
100
AcDbCircle
 10
18.96740757874998
 20
-37.60855880354858
 30
0.0
 40
0.4
100
AcDbArc
 50
134.9999999999984
 51
225.0000000000019
1001
GENIUS_GENOBJ-N-FIL_13
1002
{
1000
OWNER
1000
GEN
1002
}
1001
GENIUS_GENODEF_13
1002
{
1000
HIER
1070
     0
1002
}
1002
{
1000
MANEDIT
1070
     0
1002
}
1002
{
1000
NOSEL
1070
     0
1002
}
1002
{
1000
BEHIND
1070
     0
1002
}
1002
{
1000
OTHER
1070
     0
1002
}
1002
{
1000
REACTOR
1002
}
  0
ARC
  5
8EE8
330
1F
100
AcDbEntity
  8
1
100
AcDbCircle
 10
25.1813357265346
 20
-41.63353684734525
 30
0.0
 40
0.4
100
AcDbArc
 50
234.6999999999996
 51
314.9999999999984
1001
GENIUS_GENODEF_13
1002
{
1000
HIER
1070
     0
1002
}
1002
{
1000
MANEDIT
1070
     0
1002
}
1002
{
1000
NOSEL
1070
     0
1002
}
1002
{
1000
BEHIND
1070
     0
1002
}
1002
{
1000
OTHER
1070
     0
1002
}
1002
{
1000
REACTOR
1002
}
1001
GENIUS_GENOBJ-N-FIL_13
1002
{
1000
OWNER
1000
GEN
1002
}
  0
CIRCLE
  5
8EE9
330
1F
100
AcDbEntity
  8
SK3
 48
0.3
100
AcDbCircle
 10
34.28370378937485
 20
-27.47115117753363
 30
0.0
 40
2.749999999999976
  0
LINE
  5
8EEA
330
1F
100
AcDbEntity
  8
SK3
100
AcDbLine
 10
26.42774745039223
 20
-30.20765442072544
 30
0.0
 11
27.5591183002907
 21
-31.33902527062398
 31
0.0
  0
LINE
  5
8EEB
330
1F
100
AcDbEntity
  8
SK3
100
AcDbLine
 10
27.5591183002907
 20
-31.33902527062398
 30
0.0
 11
28.79577040819311
 21
-31.51658672509467
 31
0.0
  0
LINE
  5
8EEC
330
1F
100
AcDbEntity
  8
SK3
100
AcDbLine
 10
28.79577040819316
 20
-31.5165867250947
 30
0.0
 11
32.35733962623347
 21
-34.03831829637562
 31
0.0
  0
LINE
  5
8EED
330
1F
100
AcDbEntity
  8
1
100
AcDbLine
 10
25.4940031691018
 20
-41.88655482972722
 30
0.0
 11
49.88284271247425
 21
-17.61658626399327
 31
0.0
  0
LINE
  5
8EEE
330
1F
100
AcDbEntity
  8
SK3
 48
0.3
100
AcDbLine
 10
43.10322913974043
 20
-13.02592279524738
 30
0.0
 11
19.39661756024768
 21
-36.61712969644202
 31
0.0
  0
ARC
  5
8EEF
330
1F
100
AcDbEntity
  8
SK3
100
AcDbCircle
 10
26.71059016286683
 20
-29.9248117082509
 30
0.0
 40
0.4
100
AcDbArc
 50
134.9999999999984
 51
225.0000000000019
1001
GENIUS_GENOBJ-N-FIL_13
1002
{
1000
OWNER
1000
GEN
1002
}
1001
GENIUS_GENODEF_13
1002
{
1000
HIER
1070
     0
1002
}
1002
{
1000
MANEDIT
1070
     0
1002
}
1002
{
1000
NOSEL
1070
     0
1002
}
1002
{
1000
BEHIND
1070
     0
1002
}
1002
{
1000
OTHER
1070
     0
1002
}
1002
{
1000
REACTOR
1002
}
  0
ARC
  5
8EF0
330
1F
100
AcDbEntity
  8
1
100
AcDbCircle
 10
32.91359811389147
 20
-33.93881606966148
 30
0.0
 40
0.4
100
AcDbArc
 50
234.6999999999996
 51
314.9999999999984
1001
GENIUS_GENODEF_13
1002
{
1000
HIER
1070
     0
1002
}
1002
{
1000
MANEDIT
1070
     0
1002
}
1002
{
1000
NOSEL
1070
     0
1002
}
1002
{
1000
BEHIND
1070
     0
1002
}
1002
{
1000
OTHER
1070
     0
1002
}
1002
{
1000
REACTOR
1002
}
1001
GENIUS_GENOBJ-N-FIL_13
1002
{
1000
OWNER
1000
GEN
1002
}
  0
ARC
  5
8EF1
330
1F
100
AcDbEntity
  8
SK3
100
AcDbCircle
 10
34.45377274698373
 20
-22.24106461295325
 30
0.0
 40
0.4
100
AcDbArc
 50
134.9999999999984
 51
225.0000000000019
1001
GENIUS_GENOBJ-N-FIL_13
1002
{
1000
OWNER
1000
GEN
1002
}
1001
GENIUS_GENODEF_13
1002
{
1000
HIER
1070
     0
1002
}
1002
{
1000
MANEDIT
1070
     0
1002
}
1002
{
1000
NOSEL
1070
     0
1002
}
1002
{
1000
BEHIND
1070
     0
1002
}
1002
{
1000
OTHER
1070
     0
1002
}
1002
{
1000
REACTOR
1002
}
  0
ARC
  5
8EF2
330
1F
100
AcDbEntity
  8
1
100
AcDbCircle
 10
40.64593318310971
 20
-26.24416832982485
 30
0.0
 40
0.4
100
AcDbArc
 50
234.6999999999996
 51
314.9999999999984
1001
GENIUS_GENODEF_13
1002
{
1000
HIER
1070
     0
1002
}
1002
{
1000
MANEDIT
1070
     0
1002
}
1002
{
1000
NOSEL
1070
     0
1002
}
1002
{
1000
BEHIND
1070
     0
1002
}
1002
{
1000
OTHER
1070
     0
1002
}
1002
{
1000
REACTOR
1002
}
1001
GENIUS_GENOBJ-N-FIL_13
1002
{
1000
OWNER
1000
GEN
1002
}
  0
DIMENSION
  5
8EF5
330
1F
100
AcDbEntity
  8
2
100
AcDbDimension
  2
*D3
 10
66.09601900593765
 20
-17.5000000000002
 30
0.0
 11
62.84601900593765
 21
-0.0000000000001919
 31
0.0
 70
    32
  1
%%c<>
 71
     5
 42
35.0
  3
AM_DIN$0
100
AcDbAlignedDimension
 13
49.99999999999977
 23
17.4999999999998
 33
0.0
 14
49.9999999999996
 24
-17.5000000000002
 34
0.0
 50
90.0
100
AcDbRotatedDimension
1001
ACAD
1000
DSTYLE
1002
{
1070
    50
1040
0.7853981633974483
1070
    90
1070
     1
1070
   271
1070
     1
1002
}
1001
ACAD_DSTYLE_DIMINSPECT
1070
   396
1000
100%
1070
   395
1000

1070
   394
1070
    33
1070
   393
1070
     0
  0
TEXT
  5
8F75
330
1F
100
AcDbEntity
  8
6
100
AcDbText
 10
72.90313308816871
 20
-17.13328041475458
 30
0.0
 40
3.5
  1
Z=9
 50
90.0
100
AcDbText
  0
TEXT
  5
8F77
330
1F
100
AcDbEntity
  8
6
100
AcDbText
 10
72.35330513203121
 20
-3.289705765278966
 30
0.0
 40
3.5
  1
Zeff.=3
 50
90.0
100
AcDbText
  0
DIMENSION
  5
8F78
330
1F
100
AcDbEntity
  8
SK2
100
AcDbDimension
  2
*D4
 10
-26.80483419381256
 20
-35.00000000000016
 30
0.0
 11
-30.05483419381255
 21
-0.0000000000001401
 31
0.0
 70
    32
  1
%%c<>
 71
     5
 42
70.00000000000006
  3
AM_DIN$0
100
AcDbAlignedDimension
 13
2.999999999999772
 23
34.99999999999989
 33
0.0
 14
2.999999999999772
 24
-35.00000000000017
 34
0.0
 50
90.0
100
AcDbRotatedDimension
1001
ACAD
1000
DSTYLE
1002
{
1070
    50
1040
0.7853981633974483
1070
    90
1070
     1
1070
   271
1070
     1
1002
}
1001
ACAD_DSTYLE_DIMINSPECT
1070
   396
1000
100%
1070
   395
1000

1070
   394
1070
    33
1070
   393
1070
     0
  0
DIMENSION
  5
8FDA
330
1F
100
AcDbEntity
  8
2
100
AcDbDimension
  2
*D5
 10
-0.0000000000002238
 20
89.99999999999989
 30
0.0
 11
24.99999999999978
 21
93.24999999999988
 31
0.0
 70
    32
 71
     5
 42
50.0
  3
AM_DIN$0
100
AcDbAlignedDimension
 13
49.99999999999977
 23
17.4999999999998
 33
0.0
 14
-0.0000000000002274
 24
31.99999999999989
 34
0.0
100
AcDbRotatedDimension
1001
ACAD
1000
DSTYLE
1002
{
1070
    50
1040
0.7853981633974483
1070
    90
1070
     1
1070
   271
1070
     1
1002
}
1001
ACAD_DSTYLE_DIMINSPECT
1070
   396
1000
100%
1070
   395
1000

1070
   394
1070
    33
1070
   393
1070
     0
  0
LINE
  5
9087
330
1F
100
AcDbEntity
  8
1
100
AcDbLine
 10
19.22243703727909
 20
-36.79046230206257
 30
0.0
 11
18.68456486627537
 21
-37.32571609107395
 31
0.0
  0
LINE
  5
908B
330
1F
100
AcDbEntity
  8
SK3
100
AcDbLine
 10
48.79999999999996
 20
-15.96805812656972
 30
0.0
 11
48.75147186257584
 21
-15.9195299891456
 31
0.0
  0
TEXT
  5
915C
330
1F
100
AcDbEntity
  8
6
100
AcDbText
 10
15.571528126771
 20
-50.75122735666173
 30
0.0
 40
3.5
  1
22N3R035050F2R00
100
AcDbText
  0
LINE
  5
DD8F
330
1F
100
AcDbEntity
  8
NOCUT
100
AcDbLine
 10
-0.0000000000000568
 20
-32.0
 30
0.0
 11
0.0
 21
0.0
 31
0.0
  0
LINE
  5
DD90
330
1F
100
AcDbEntity
  8
NOCUT
100
AcDbLine
 10
48.79999999999995
 20
0.0
 30
0.0
 11
0.0
 21
0.0
 31
0.0
  0
LINE
  5
DD91
330
1F
100
AcDbEntity
  8
NOCUT
100
AcDbLine
 10
48.79999999999995
 20
0.0
 30
0.0
 11
48.79999999999995
 21
-17.71005050630518
 31
0.0
  0
LINE
  5
DD92
330
1F
100
AcDbEntity
  8
NOCUT
100
AcDbLine
 10
48.79999999999995
 20
-17.71005050630518
 30
0.0
 11
26.04398557211505
 21
-40.30774996411483
 31
0.0
  0
LINE
  5
DD93
330
1F
100
AcDbEntity
  8
NOCUT
100
AcDbLine
 10
16.73577412173773
 20
-35.16323568654197
 30
0.0
 11
24.79178813865758
 21
-40.43494354103625
 31
0.0
  0
LINE
  5
DD94
330
1F
100
AcDbEntity
  8
NOCUT
100
AcDbLine
 10
16.18821089824377
 20
-35.0
 30
0.0
 11
2.999999999999943
 21
-35.0
 31
0.0
  0
ARC
  5
DD95
330
1F
100
AcDbEntity
  8
NOCUT
100
AcDbCircle
 10
16.18821089824377
 20
-36.0
 30
0.0
 40
1.0
100
AcDbArc
 50
56.79999999990304
 51
90.0
1001
GENIUS_GENODEF_13
1002
{
1000
HIER
1070
     0
1002
}
1002
{
1000
MANEDIT
1070
     0
1002
}
1002
{
1000
NOSEL
1070
     0
1002
}
1002
{
1000
BEHIND
1070
     0
1002
}
1002
{
1000
OTHER
1070
     0
1002
}
1002
{
1000
REACTOR
1002
}
1001
GENIUS_GENOBJ-N-FIL_13
1002
{
1000
OWNER
1000
GEN
1002
}
  0
ARC
  5
DD96
330
1F
100
AcDbEntity
  8
NOCUT
100
AcDbCircle
 10
2.999999999999943
 20
-32.0
 30
0.0
 40
3.0
100
AcDbArc
 50
180.0
 51
270.0
1001
GENIUS_GENODEF_13
1002
{
1000
HIER
1070
     0
1002
}
1002
{
1000
MANEDIT
1070
     0
1002
}
1002
{
1000
NOSEL
1070
     0
1002
}
1002
{
1000
BEHIND
1070
     0
1002
}
1002
{
1000
OTHER
1070
     0
1002
}
1002
{
1000
REACTOR
1002
}
1001
GENIUS_GENOBJ-N-FIL_13
1002
{
1000
OWNER
1000
GEN
1002
}
  0
ARC
  5
DD97
330
1F
100
AcDbEntity
  8
NOCUT
100
AcDbCircle
 10
25.33935136215155
 20
-39.59817922757822
 30
0.0
 40
1.0
100
AcDbArc
 50
236.799999999903
 51
314.7999999999926
1001
GENIUS_GENOBJ-N-FIL_13
1002
{
1000
OWNER
1000
GEN
1002
}
1001
GENIUS_GENODEF_13
1002
{
1000
HIER
1070
     0
1002
}
1002
{
1000
MANEDIT
1070
     0
1002
}
1002
{
1000
NOSEL
1070
     0
1002
}
1002
{
1000
BEHIND
1070
     0
1002
}
1002
{
1000
OTHER
1070
     0
1002
}
1002
{
1000
REACTOR
1002
}
  0
LINE
  5
DDE8
330
1F
100
AcDbEntity
  8
1
100
AcDbLine
 10
-0.0000000000000568
 20
-32.0
 30
0.0
 11
-0.000000000000011
 21
-6.199999999999846
 31
0.0
  0
ARC
  5
DDE9
330
1F
100
AcDbEntity
  8
1
100
AcDbCircle
 10
2.999999999999943
 20
-32.0
 30
0.0
 40
3.0
100
AcDbArc
 50
180.0
 51
270.0
1001
GENIUS_GENODEF_13
1002
{
1000
HIER
1070
     0
1002
}
1002
{
1000
MANEDIT
1070
     0
1002
}
1002
{
1000
NOSEL
1070
     0
1002
}
1002
{
1000
BEHIND
1070
     0
1002
}
1002
{
1000
OTHER
1070
     0
1002
}
1002
{
1000
REACTOR
1002
}
1001
GENIUS_GENOBJ-N-FIL_13
1002
{
1000
OWNER
1000
GEN
1002
}
  0
LINE
  5
DDEB
330
1F
100
AcDbEntity
  8
1
100
AcDbLine
 10
48.79999999999995
 20
0.0
 30
0.0
 11
48.79999999999995
 21
-17.71005050630518
 31
0.0
  0
LINE
  5
DDEC
330
1F
100
AcDbEntity
  8
1
100
AcDbLine
 10
48.79999999999995
 20
-17.71005050630518
 30
0.0
 11
40.09725035310802
 21
-26.35225459701958
 31
0.0
  0
ARC
  5
DDED
330
1F
100
AcDbEntity
  8
1
100
AcDbCircle
 10
25.33935136215155
 20
-39.59817922757822
 30
0.0
 40
1.0
100
AcDbArc
 50
236.799999999903
 51
314.7999999999925
1001
GENIUS_GENOBJ-N-FIL_13
1002
{
1000
OWNER
1000
GEN
1002
}
1001
GENIUS_GENODEF_13
1002
{
1000
HIER
1070
     0
1002
}
1002
{
1000
MANEDIT
1070
     0
1002
}
1002
{
1000
NOSEL
1070
     0
1002
}
1002
{
1000
BEHIND
1070
     0
1002
}
1002
{
1000
OTHER
1070
     0
1002
}
1002
{
1000
REACTOR
1002
}
  0
LINE
  5
DDEE
330
1F
100
AcDbEntity
  8
1
100
AcDbLine
 10
16.73577412173773
 20
-35.16323568654197
 30
0.0
 11
24.79178813865758
 21
-40.43494354103625
 31
0.0
  0
ARC
  5
DDEF
330
1F
100
AcDbEntity
  8
1
100
AcDbCircle
 10
16.18821089824377
 20
-36.0
 30
0.0
 40
1.0
100
AcDbArc
 50
56.79999999990304
 51
90.0
1001
GENIUS_GENODEF_13
1002
{
1000
HIER
1070
     0
1002
}
1002
{
1000
MANEDIT
1070
     0
1002
}
1002
{
1000
NOSEL
1070
     0
1002
}
1002
{
1000
BEHIND
1070
     0
1002
}
1002
{
1000
OTHER
1070
     0
1002
}
1002
{
1000
REACTOR
1002
}
1001
GENIUS_GENOBJ-N-FIL_13
1002
{
1000
OWNER
1000
GEN
1002
}
  0
LINE
  5
DDF0
330
1F
100
AcDbEntity
  8
1
100
AcDbLine
 10
16.18821089824377
 20
-35.0
 30
0.0
 11
2.999999999999943
 21
-35.0
 31
0.0
  0
LINE
  5
DDF1
330
1F
100
AcDbEntity
  8
1
100
AcDbLine
 10
-0.0000000000000568
 20
32.0
 30
0.0
 11
-0.000000000000011
 21
6.200000000000159
 31
0.0
  0
ARC
  5
DDF2
330
1F
100
AcDbEntity
  8
1
100
AcDbCircle
 10
2.999999999999943
 20
32.0
 30
0.0
 40
3.0
100
AcDbArc
 50
90.0
 51
180.0
1001
GENIUS_GENODEF_13
1002
{
1000
HIER
1070
     0
1002
}
1002
{
1000
MANEDIT
1070
     0
1002
}
1002
{
1000
NOSEL
1070
     0
1002
}
1002
{
1000
BEHIND
1070
     0
1002
}
1002
{
1000
OTHER
1070
     0
1002
}
1002
{
1000
REACTOR
1002
}
1001
GENIUS_GENOBJ-N-FIL_13
1002
{
1000
OWNER
1000
GEN
1002
}
  0
LINE
  5
DDF3
330
1F
100
AcDbEntity
  8
1
100
AcDbLine
 10
48.79999999999995
 20
0.0
 30
0.0
 11
48.79999999999995
 21
15.96805422603926
 31
0.0
  0
LINE
  5
DDF6
330
1F
100
AcDbEntity
  8
1
100
AcDbLine
 10
16.73577412173773
 20
35.16323568654197
 30
0.0
 11
19.2224346726247
 21
36.79046075467609
 31
0.0
  0
ARC
  5
DDF7
330
1F
100
AcDbEntity
  8
1
100
AcDbCircle
 10
16.18821089824377
 20
36.0
 30
0.0
 40
1.0
100
AcDbArc
 50
270.0
 51
303.200000000097
1001
GENIUS_GENODEF_13
1002
{
1000
HIER
1070
     0
1002
}
1002
{
1000
MANEDIT
1070
     0
1002
}
1002
{
1000
NOSEL
1070
     0
1002
}
1002
{
1000
BEHIND
1070
     0
1002
}
1002
{
1000
OTHER
1070
     0
1002
}
1002
{
1000
REACTOR
1002
}
1001
GENIUS_GENOBJ-N-FIL_13
1002
{
1000
OWNER
1000
GEN
1002
}
  0
LINE
  5
DDF8
330
1F
100
AcDbEntity
  8
1
100
AcDbLine
 10
16.18821089824377
 20
35.0
 30
0.0
 11
2.999999999999943
 21
35.0
 31
0.0
  0
LINE
  5
DDFC
330
1F
100
AcDbEntity
  8
1
100
AcDbLine
 10
40.09725035310802
 20
-26.35225459701958
 30
0.0
 11
32.35733962623347
 21
-34.03831829637562
 31
0.0
  0
LINE
  5
DDFD
330
1F
100
AcDbEntity
  8
1
100
AcDbLine
 10
40.09725035310802
 20
-26.35225459701958
 30
0.0
 11
40.43655784501501
 21
-26.59249769278196
 31
0.0
  0
LINE
  5
DDFF
330
1F
100
AcDbEntity
  8
1
100
AcDbLine
 10
32.35733962623347
 20
-34.03831829637562
 30
0.0
 11
26.04398557211505
 21
-40.30774996411483
 31
0.0
  0
LINE
  5
DE00
330
1F
100
AcDbEntity
  8
1
100
AcDbLine
 10
32.35733962623347
 20
-34.03831829637562
 30
0.0
 11
32.69337526089812
 21
-34.27624478807961
 31
0.0
  0
CIRCLE
  5
DF4B
330
1F
100
AcDbEntity
  8
1
100
AcDbCircle
 10
25.39999999999946
 20
-42.25000000000011
 30
0.0
 40
0.0959690010191452
  0
DIMENSION
  5
DF4C
330
1F
100
AcDbEntity
  8
2
100
AcDbDimension
  2
*D6
 10
49.99999999999977
 20
62.00000099999978
 30
0.0
 11
37.69999999999978
 21
65.25034548818876
 31
0.0
 70
    32
 71
     5
 42
24.6
  3
AM_DIN$0
100
AcDbAlignedDimension
 13
25.39999999999978
 23
42.24999999999991
 33
0.0
 14
49.99999999999977
 24
17.4999999999998
 34
0.0
100
AcDbRotatedDimension
1001
ACAD
1000
DSTYLE
1002
{
1070
    50
1040
0.7853981633974483
1070
    90
1070
     1
1070
   271
1070
     1
1002
}
1001
ACAD_DSTYLE_DIMINSPECT
1070
   396
1000
100%
1070
   395
1000

1070
   394
1070
    33
1070
   393
1070
     0
  0
DIMENSION
  5
DF75
330
1F
100
AcDbEntity
  8
2
100
AcDbDimension
  2
*D7
 10
49.88284271247437
 20
17.61658236346288
 30
0.0
 11
25.14111677643696
 21
77.30791735815632
 31
0.0
 70
    34
 71
     5
 42
0.7878411073532149
  3
AM_DIN$2
100
AcDb2LineAngularDimension
 13
49.99999999999978
 23
58.50365032588434
 33
0.0
 14
49.99999999999977
 24
54.24999999999984
 34
0.0
 15
25.49400316910217
 25
41.88655092919709
 35
0.0
 16
34.02947157496382
 26
76.90926597454216
 36
0.0
1001
ACAD
1000
DSTYLE
1002
{
1070
    50
1040
0.7853981633974483
1070
    90
1070
     1
1070
   271
1070
     1
1002
}
1001
ACAD_DSTYLE_DIMINSPECT
1070
   396
1000
100%
1070
   395
1000

1070
   394
1070
    33
1070
   393
1070
     0
  0
DIMENSION
  5
DFBC
330
1F
100
AcDbEntity
  8
2
100
AcDbDimension
  2
*D8
 10
83.68454024776928
 20
-42.25000000000012
 30
0.0
 11
80.43454024776929
 21
-0.0000000000001006
 31
0.0
 70
    32
  1
%%c<>
 71
     5
 42
84.50000000000002
  3
AM_DIN$0
100
AcDbAlignedDimension
 13
25.39999999999978
 23
42.24999999999991
 33
0.0
 14
25.39999999999946
 24
-42.25000000000011
 34
0.0
 50
90.00000000000003
100
AcDbRotatedDimension
1001
ACAD
1000
DSTYLE
1002
{
1070
    50
1040
0.7853981633974483
1070
    90
1070
     1
1070
   271
1070
     1
1002
}
1001
ACAD_DSTYLE_DIMINSPECT
1070
   396
1000
100%
1070
   395
1000

1070
   394
1070
    33
1070
   393
1070
     0
  0
LINE
  5
E028
330
1F
100
AcDbEntity
  8
1
100
AcDbLine
 10
17.68801520365826
 20
35.78636478989126
 30
0.0
 11
43.47437999354629
 21
10.00000000000323
 31
0.0
  0
LINE
  5
E02A
330
1F
100
AcDbEntity
  8
SK3
 48
0.3
100
AcDbLine
 10
17.68801520365868
 20
-35.78636478989152
 30
0.0
 11
43.47437999354641
 21
-10.00000000000319
 31
0.0
  0
ARC
  5
E02D
330
1F
100
AcDbEntity
  8
1
100
AcDbCircle
 10
48.67798371598001
 20
15.70405911557954
 30
0.0
 40
7.72099618534521
100
AcDbArc
 50
227.6269501889324
 51
270.9054931463645
  0
ARC
  5
E02F
330
1F
100
AcDbEntity
  8
SK3
100
AcDbCircle
 10
48.67798371598001
 20
-15.70405911557954
 30
0.0
 40
7.72099618534521
100
AcDbArc
 50
89.0945068536355
 51
132.3730498110676
  0
LINE
  5
E032
330
1F
100
AcDbEntity
  8
1
100
AcDbLine
 10
16.54842476461999
 20
-34.77960245729582
 30
0.0
 11
16.54842476461999
 21
33.6227236799009
 31
0.0
  0
LINE
  5
E035
330
1F
100
AcDbEntity
  8
1
100
AcDbLine
 10
25.39645305512931
 20
-39.94610340324334
 30
0.0
 11
25.39645305512931
 21
26.99804784769458
 31
0.0
  0
LINE
  5
E0CC
330
1F
100
AcDbEntity
  8
CUT
100
AcDbLine
 10
49.88284271247438
 20
17.61658236346289
 30
0.0
 11
25.49400316910217
 21
41.88655092919709
 31
0.0
  0
ENDSEC
  0
SECTION
  2
OBJECTS
  0
DICTIONARY
  5
C
330
0
100
AcDbDictionary
281
     1
  3
ACAD_2007HEADERVARS_RT
350
E112
  3
ACAD_COLOR
350
2E66
  3
ACAD_GROUP
350
D
  3
ACAD_LAYOUT
350
1A
  3
ACAD_MATERIAL
350
2E65
  3
ACAD_MLEADERSTYLE
350
2F47
  3
ACAD_MLINESTYLE
350
17
  3
ACAD_PLOTSETTINGS
350
19
  3
ACAD_PLOTSTYLENAME
350
E
  3
ACAD_SCALELIST
350
2F35
  3
ACAD_TABLESTYLE
350
2E67
  3
ACAD_VISUALSTYLE
350
2F24
  3
ACDB_RECOMPOSE_DATA
350
9139
  3
AcDbVariableDictionary
350
216
  3
AcmDictionary
350
45
  3
AcmSystemVariableManager
350
E115
  3
AMG
350
41
  3
AMGSNAPSETTINGS
350
23D
  0
DICTIONARY
  5
E03C
330
8
100
AcDbDictionary
280
     1
281
     1
  0
DICTIONARY
  5
2F6F
330
10
100
AcDbDictionary
280
     1
281
     1
  3
ADSK_XREC_LAYER_RECONCILED
360
2F70
  0
DICTIONARY
  5
2F71
330
AFE
100
AcDbDictionary
280
     1
281
     1
  3
ADSK_XREC_LAYER_RECONCILED
360
2F72
  0
DICTIONARY
  5
2F73
330
AFF
100
AcDbDictionary
280
     1
281
     1
  3
ADSK_XREC_LAYER_RECONCILED
360
2F74
  0
DICTIONARY
  5
2F75
330
B00
100
AcDbDictionary
280
     1
281
     1
  3
ADSK_XREC_LAYER_RECONCILED
360
2F76
  0
DICTIONARY
  5
2F77
330
B01
100
AcDbDictionary
280
     1
281
     1
  3
ADSK_XREC_LAYER_RECONCILED
360
2F78
  0
DICTIONARY
  5
2F79
330
B02
100
AcDbDictionary
280
     1
281
     1
  3
ADSK_XREC_LAYER_RECONCILED
360
2F7A
  0
DICTIONARY
  5
2F7B
330
B03
100
AcDbDictionary
280
     1
281
     1
  3
ADSK_XREC_LAYER_RECONCILED
360
2F7C
  0
DICTIONARY
  5
2F7D
330
B04
100
AcDbDictionary
280
     1
281
     1
  3
ADSK_XREC_LAYER_RECONCILED
360
2F7E
  0
DICTIONARY
  5
2F7F
330
B06
100
AcDbDictionary
280
     1
281
     1
  3
ADSK_XREC_LAYER_RECONCILED
360
2F80
  0
DICTIONARY
  5
2F81
330
B07
100
AcDbDictionary
280
     1
281
     1
  3
ADSK_XREC_LAYER_RECONCILED
360
2F82
  0
DICTIONARY
  5
1F1
330
1F
100
AcDbDictionary
280
     1
281
     1
  3
ACAD_SORTENTS
360
8923
  0
DICTIONARY
  5
E112
102
{ACAD_REACTORS
330
C
102
}
330
C
100
AcDbDictionary
281
     1
  3
DIMARCSYM
350
E113
  3
DIMJOGANG
350
E114
  0
DICTIONARY
  5
2E66
102
{ACAD_REACTORS
330
C
102
}
330
C
100
AcDbDictionary
281
     1
  0
DICTIONARY
  5
D
102
{ACAD_REACTORS
330
C
102
}
330
C
100
AcDbDictionary
281
     1
  0
DICTIONARY
  5
1A
102
{ACAD_REACTORS
330
C
102
}
330
C
100
AcDbDictionary
281
     1
  3
Layout1
350
1E
  3
Layout2
350
26
  3
Model
350
22
  0
DICTIONARY
  5
2E65
102
{ACAD_REACTORS
330
C
102
}
330
C
100
AcDbDictionary
281
     1
  3
ByBlock
350
2F14
  3
ByLayer
350
2F0C
  3
Global
350
2F1C
  0
DICTIONARY
  5
2F47
102
{ACAD_REACTORS
330
C
102
}
330
C
100
AcDbDictionary
281
     1
  3
Standard
350
2F48
  0
DICTIONARY
  5
17
102
{ACAD_REACTORS
330
C
102
}
330
C
100
AcDbDictionary
281
     1
  3
Standard
350
18
  0
DICTIONARY
  5
19
102
{ACAD_REACTORS
330
C
102
}
330
C
100
AcDbDictionary
281
     1
  0
ACDBDICTIONARYWDFLT
  5
E
102
{ACAD_REACTORS
330
C
102
}
330
C
100
AcDbDictionary
281
     1
  3
Normal
350
F
100
AcDbDictionaryWithDefault
340
F
  0
DICTIONARY
  5
2F35
102
{ACAD_REACTORS
330
C
102
}
330
C
100
AcDbDictionary
281
     1
  3
A0
350
2F36
  3
A1
350
2F37
  3
A2
350
2F38
  3
A3
350
2F39
  3
A4
350
2F3A
  3
A5
350
2F3B
  3
A6
350
2F3C
  3
A7
350
2F3D
  3
A8
350
2F3E
  3
A9
350
2F3F
  3
B0
350
2F40
  3
B1
350
2F41
  3
B2
350
2F42
  3
B3
350
2F43
  3
B4
350
2F44
  3
B5
350
2F45
  3
B6
350
2F46
  0
DICTIONARY
  5
2E67
102
{ACAD_REACTORS
330
C
102
}
330
C
100
AcDbDictionary
281
     1
  3
Standard
350
2E68
  0
DICTIONARY
  5
2F24
102
{ACAD_REACTORS
330
C
102
}
330
C
100
AcDbDictionary
281
     1
  3
2dWireframe
350
2F2A
  3
3D Hidden
350
2F2C
  3
3dWireframe
350
2F2B
  3
Basic
350
2F29
  3
Brighten
350
2F30
  3
ColorChange
350
2F34
  3
Conceptual
350
2F2D
  3
Dim
350
2F2F
  3
Facepattern
350
2F33
  3
Flat
350
2F25
  3
FlatWithEdges
350
2F26
  3
Gouraud
350
2F27
  3
GouraudWithEdges
350
2F28
  3
Linepattern
350
2F32
  3
Realistic
350
2F2E
  3
Thicken
350
2F31
  0
XRECORD
  5
9139
102
{ACAD_REACTORS
330
C
102
}
330
C
100
AcDbXrecord
280
     1
 90
        1
330
2E68
  0
DICTIONARY
  5
216
102
{ACAD_REACTORS
330
C
102
}
330
C
100
AcDbDictionary
281
     1
  3
CANNOSCALE
350
913C
  3
CMLEADERSTYLE
350
913A
  3
CTABLESTYLE
350
2EEA
  3
DIMASSOC
350
219
  3
HIDETEXT
350
218
  3
INDEXCTL
350
217
  3
LAYEREVAL
350
913E
  3
LAYERNOTIFY
350
913F
  3
LIGHTINGUNITS
350
913D
  3
MSLTSCALE
350
913B
  3
SORTENTS
350
E048
  0
DICTIONARY
  5
45
102
{ACAD_REACTORS
330
C
102
}
330
C
100
AcDbDictionary
281
     1
  3
AcmStdDictionary
350
4A
  3
AMDTSECTSYM_ARROWCOLOR
350
2EB6
  0
DICTIONARY
  5
41
102
{ACAD_REACTORS
330
C
102
}
330
C
100
AcDbDictionary
281
     1
  0
DICTIONARY
  5
23D
102
{ACAD_REACTORS
330
C
102
}
330
C
100
AcDbDictionary
281
     1
  0
XRECORD
  5
2F70
102
{ACAD_REACTORS
330
2F6F
102
}
330
2F6F
100
AcDbXrecord
280
     1
290
     1
  0
XRECORD
  5
2F72
102
{ACAD_REACTORS
330
2F71
102
}
330
2F71
100
AcDbXrecord
280
     1
290
     1
  0
XRECORD
  5
2F74
102
{ACAD_REACTORS
330
2F73
102
}
330
2F73
100
AcDbXrecord
280
     1
290
     1
  0
XRECORD
  5
2F76
102
{ACAD_REACTORS
330
2F75
102
}
330
2F75
100
AcDbXrecord
280
     1
290
     1
  0
XRECORD
  5
2F78
102
{ACAD_REACTORS
330
2F77
102
}
330
2F77
100
AcDbXrecord
280
     1
290
     1
  0
XRECORD
  5
2F7A
102
{ACAD_REACTORS
330
2F79
102
}
330
2F79
100
AcDbXrecord
280
     1
290
     1
  0
XRECORD
  5
2F7C
102
{ACAD_REACTORS
330
2F7B
102
}
330
2F7B
100
AcDbXrecord
280
     1
290
     1
  0
XRECORD
  5
2F7E
102
{ACAD_REACTORS
330
2F7D
102
}
330
2F7D
100
AcDbXrecord
280
     1
290
     1
  0
XRECORD
  5
2F80
102
{ACAD_REACTORS
330
2F7F
102
}
330
2F7F
100
AcDbXrecord
280
     1
290
     1
  0
XRECORD
  5
2F82
102
{ACAD_REACTORS
330
2F81
102
}
330
2F81
100
AcDbXrecord
280
     1
290
     1
  0
SORTENTSTABLE
  5
8923
102
{ACAD_REACTORS
330
1F1
102
}
330
1F1
100
AcDbSortentsTable
330
1F
331
8E8A
  5
8EA3
331
8E92
  5
8EB5
331
8EA2
  5
8EBB
331
8E5B
  5
8E6E
331
915C
  5
DD92
331
8ED7
  5
8EE2
331
8EDF
  5
8EEC
331
DD94
  5
DDEC
331
8EE7
  5
8F26
331
8EB2
  5
8EC0
331
8A6C
  5
8A72
331
8E6B
  5
8E8A
331
8A74
  5
8D50
331
8EBA
  5
8EDA
331
8EEF
  5
9002
331
DDEC
  5
DDF0
331
8F77
  5
DD8F
331
8E93
  5
8EB7
331
8EA3
  5
8EBC
331
8E5C
  5
8E6F
331
8EC0
  5
8EE0
331
DDFC
  5
DDF1
331
8ED8
  5
8EE5
331
8EE0
  5
8EEE
331
DD95
  5
DDEB
331
8EAB
  5
8EBF
331
8A6D
  5
8A73
331
8E6C
  5
8E8C
331
8EBB
  5
8EDB
331
8A75
  5
8D51
331
8EE8
  5
8F27
331
9087
  5
8FDA
331
8EF0
  5
900C
331
DDED
  5
DDF3
331
8E8C
  5
8EA8
331
8E94
  5
8EB8
331
8E5D
  5
8E70
331
8F78
  5
DD90
331
DDFD
  5
8EED
331
8ED9
  5
8EE6
331
8EE1
  5
8EEF
331
DD96
  5
DD94
331
8A6E
  5
8A74
331
8E6D
  5
8E8D
331
8EBC
  5
8EDC
331
8A76
  5
8D52
331
8EE9
  5
8F28
331
8EF1
  5
9041
331
DDEE
  5
DDF4
331
DDF6
  5
DE00
331
8E8D
  5
8EA9
331
8E56
  5
8E68
331
8E5E
  5
8E71
331
8EDA
  5
8EE7
331
DD8F
  5
DD93
331
DD97
  5
DDE8
331
8E66
  5
8E87
331
8EB5
  5
8ED6
331
8A6F
  5
8A75
331
8E6E
  5
8E90
331
8EBD
  5
8EDD
331
8EEA
  5
8F29
331
8EF2
  5
9087
331
DDEF
  5
DDF5
331
DDF7
  5
DE04
331
8E5F
  5
8E7D
331
DDFF
  5
DDF2
331
8FDA
  5
DD91
331
8EDB
  5
8EE8
331
DD90
  5
DD95
331
8EE3
  5
8EF0
331
8A68
  5
8A6E
331
8E67
  5
8E88
331
8A70
  5
8A76
331
8E6F
  5
8E91
331
8EBE
  5
8EDE
331
8E7F
  5
8E94
331
8EEB
  5
8F75
331
DDE8
  5
DDED
331
DDF0
  5
DDF6
331
8E87
  5
8EA0
331
8E58
  5
8E6A
331
DDF8
  5
DE05
331
DE00
  5
8F78
331
8EDC
  5
8EE9
331
DD91
  5
DD96
331
8EE4
  5
8EF1
331
8E60
  5
8E7F
331
8A69
  5
8A6F
331
8E70
  5
8E92
331
8EB7
  5
8ED7
331
8A71
  5
8D4D
331
8EEC
  5
8F77
331
DDE9
  5
DDEE
331
908B
  5
8EE3
331
DDF1
  5
DDF7
331
8E88
  5
8EA1
331
8E90
  5
8EAB
331
891A
  5
891A
331
8EA0
  5
8EB9
331
8E59
  5
8E6C
331
8EDD
  5
8EEA
331
DD92
  5
DD97
331
8EE5
  5
8EF2
331
8EA8
  5
8EBD
331
8A6A
  5
8A70
331
8E69
  5
8E89
331
8E71
  5
8E93
331
8EB8
  5
8ED8
331
8A72
  5
8D4E
331
8EED
  5
8FD7
331
8EF5
  5
9088
331
DDF2
  5
DDFD
331
8F75
  5
915C
331
8E89
  5
8EA2
331
8E91
  5
8EB2
331
8E52
  5
8E60
331
8EA1
  5
8EBA
331
8E5A
  5
8E6D
331
8ED6
  5
8EE1
331
8EDE
  5
8EEB
331
DD93
  5
DDE9
331
8EE6
  5
8EF5
331
8EA9
  5
8EBE
331
894B
  5
894D
331
8A6B
  5
8A71
331
8EB9
  5
8ED9
331
8A73
  5
8D4F
331
8EEE
  5
8FD9
331
DDEB
  5
DDEF
331
DDF3
  5
DDFF
  0
XRECORD
  5
E113
102
{ACAD_REACTORS
330
E112
102
}
330
E112
100
AcDbXrecord
280
     1
 70
     1
  0
XRECORD
  5
E114
102
{ACAD_REACTORS
330
E112
102
}
330
E112
100
AcDbXrecord
280
     1
 40
1.570796326794896
  0
LAYOUT
  5
1E
102
{ACAD_REACTORS
330
1A
102
}
330
1A
100
AcDbPlotSettings
  1

  2
HP DesignJet 220 (D/A1) by HP
  4

  6

 40
0.0
 41
0.0
 42
0.0
 43
0.0
 44
0.0
 45
0.0
 46
0.0
 47
0.0
 48
0.0
 49
0.0
140
0.0
141
0.0
142
1.0
143
1.0
 70
   688
 72
     0
 73
     0
 74
     5
  7
monochrome-Neu.ctb
 75
    16
147
1.0
 76
     0
 77
     2
 78
   300
148
0.0
149
0.0
100
AcDbLayout
  1
Layout1
 70
     1
 71
     1
 10
0.0
 20
0.0
 11
420.0
 21
297.0
 12
0.0
 22
0.0
 32
0.0
 14
1.000000000000000E+20
 24
1.000000000000000E+20
 34
1.000000000000000E+20
 15
-1.000000000000000E+20
 25
-1.000000000000000E+20
 35
-1.000000000000000E+20
146
0.0
 13
0.0
 23
0.0
 33
0.0
 16
1.0
 26
0.0
 36
0.0
 17
0.0
 27
1.0
 37
0.0
 76
     0
330
1B
  0
LAYOUT
  5
26
102
{ACAD_REACTORS
330
1A
102
}
330
1A
100
AcDbPlotSettings
  1

  2
HP DesignJet 220 (D/A1) by HP
  4

  6

 40
0.0
 41
0.0
 42
0.0
 43
0.0
 44
0.0
 45
0.0
 46
0.0
 47
0.0
 48
0.0
 49
0.0
140
0.0
141
0.0
142
1.0
143
1.0
 70
   688
 72
     0
 73
     0
 74
     5
  7
monochrome-Neu.ctb
 75
    16
147
1.0
 76
     0
 77
     2
 78
   300
148
0.0
149
0.0
100
AcDbLayout
  1
Layout2
 70
     1
 71
     2
 10
0.0
 20
0.0
 11
12.0
 21
9.0
 12
0.0
 22
0.0
 32
0.0
 14
0.0
 24
0.0
 34
0.0
 15
0.0
 25
0.0
 35
0.0
146
0.0
 13
0.0
 23
0.0
 33
0.0
 16
1.0
 26
0.0
 36
0.0
 17
0.0
 27
1.0
 37
0.0
 76
     0
330
23
  0
LAYOUT
  5
22
102
{ACAD_REACTORS
330
1A
102
}
330
1A
100
AcDbPlotSettings
  1

  2
none_device
  4
ISO_A4_(210.00_x_297.00_MM)
  6

 40
7.5
 41
20.0
 42
7.5
 43
20.0
 44
210.0
 45
297.0
 46
0.0
 47
0.0
 48
0.0
 49
0.0
140
0.0
141
0.0
142
1.0
143
3.630314627664945
 70
 11952
 72
     1
 73
     1
 74
     0
  7
monochrome-Neu.ctb
 75
     0
147
0.2754582185189855
 76
     0
 77
     2
 78
   300
148
36.8391946640536
149
68.40275869679089
100
AcDbLayout
  1
Model
 70
     1
 71
     0
 10
0.0
 20
0.0
 11
12.0
 21
9.0
 12
0.0
 22
0.0
 32
0.0
 14
0.0
 24
0.0
 34
0.0
 15
0.0
 25
0.0
 35
0.0
146
0.0
 13
0.0
 23
0.0
 33
0.0
 16
1.0
 26
0.0
 36
0.0
 17
0.0
 27
1.0
 37
0.0
 76
     0
330
1F
331
2F0A
1001
ACAD_PSEXT
1000
Kein
1000
Kein
1000
Nicht anwendbar
1000
Das Layout wird erst geplottet, wenn ein neuer Plotter-Konfigurationsname ausgewählt wird.
1070
     0
  0
MATERIAL
  5
2F14
102
{ACAD_XDICTIONARY
360
2F15
102
}
102
{ACAD_REACTORS
330
2E65
102
}
330
2E65
100
AcDbMaterial
  1
ByBlock
 72
     0
 43
0.0008202099737533
 43
0.0
 43
0.0
 43
0.0
 43
0.0
 43
0.0008202099737533
 43
0.0
 43
0.0
 43
0.0
 43
0.0
 43
1.0
 43
0.0
 43
0.0
 43
0.0
 43
0.0
 43
1.0
 77
     0
 47
0.0008202099737533
 47
0.0
 47
0.0
 47
0.0
 47
0.0
 47
0.0008202099737533
 47
0.0
 47
0.0
 47
0.0
 47
0.0
 47
1.0
 47
0.0
 47
0.0
 47
0.0
 47
0.0
 47
1.0
171
     0
 49
0.0008202099737533
 49
0.0
 49
0.0
 49
0.0
 49
0.0
 49
0.0008202099737533
 49
0.0
 49
0.0
 49
0.0
 49
0.0
 49
1.0
 49
0.0
 49
0.0
 49
0.0
 49
0.0
 49
1.0
175
     0
142
0.0008202099737533
142
0.0
142
0.0
142
0.0
142
0.0
142
0.0008202099737533
142
0.0
142
0.0
142
0.0
142
0.0
142
1.0
142
0.0
142
0.0
142
0.0
142
0.0
142
1.0
179
     0
144
0.0008202099737533
144
0.0
144
0.0
144
0.0
144
0.0
144
0.0008202099737533
144
0.0
144
0.0
144
0.0
144
0.0
144
1.0
144
0.0
144
0.0
144
0.0
144
0.0
144
1.0
147
0.0008202099737533
147
0.0
147
0.0
147
0.0
147
0.0
147
0.0008202099737533
147
0.0
147
0.0
147
0.0
147
0.0
147
1.0
147
0.0
147
0.0
147
0.0
147
0.0
147
1.0
  0
MATERIAL
  5
2F0C
102
{ACAD_XDICTIONARY
360
2F0D
102
}
102
{ACAD_REACTORS
330
2E65
102
}
330
2E65
100
AcDbMaterial
  1
ByLayer
 72
     0
 43
0.0008202099737533
 43
0.0
 43
0.0
 43
0.0
 43
0.0
 43
0.0008202099737533
 43
0.0
 43
0.0
 43
0.0
 43
0.0
 43
1.0
 43
0.0
 43
0.0
 43
0.0
 43
0.0
 43
1.0
 77
     0
 47
0.0008202099737533
 47
0.0
 47
0.0
 47
0.0
 47
0.0
 47
0.0008202099737533
 47
0.0
 47
0.0
 47
0.0
 47
0.0
 47
1.0
 47
0.0
 47
0.0
 47
0.0
 47
0.0
 47
1.0
171
     0
 49
0.0008202099737533
 49
0.0
 49
0.0
 49
0.0
 49
0.0
 49
0.0008202099737533
 49
0.0
 49
0.0
 49
0.0
 49
0.0
 49
1.0
 49
0.0
 49
0.0
 49
0.0
 49
0.0
 49
1.0
175
     0
142
0.0008202099737533
142
0.0
142
0.0
142
0.0
142
0.0
142
0.0008202099737533
142
0.0
142
0.0
142
0.0
142
0.0
142
1.0
142
0.0
142
0.0
142
0.0
142
0.0
142
1.0
179
     0
144
0.0008202099737533
144
0.0
144
0.0
144
0.0
144
0.0
144
0.0008202099737533
144
0.0
144
0.0
144
0.0
144
0.0
144
1.0
144
0.0
144
0.0
144
0.0
144
0.0
144
1.0
147
0.0008202099737533
147
0.0
147
0.0
147
0.0
147
0.0
147
0.0008202099737533
147
0.0
147
0.0
147
0.0
147
0.0
147
1.0
147
0.0
147
0.0
147
0.0
147
0.0
147
1.0
  0
MATERIAL
  5
2F1C
102
{ACAD_XDICTIONARY
360
2F1D
102
}
102
{ACAD_REACTORS
330
2E65
102
}
330
2E65
100
AcDbMaterial
  1
Global
 72
     0
 43
0.0008202099737533
 43
0.0
 43
0.0
 43
0.0
 43
0.0
 43
0.0008202099737533
 43
0.0
 43
0.0
 43
0.0
 43
0.0
 43
1.0
 43
0.0
 43
0.0
 43
0.0
 43
0.0
 43
1.0
 77
     0
 47
0.0008202099737533
 47
0.0
 47
0.0
 47
0.0
 47
0.0
 47
0.0008202099737533
 47
0.0
 47
0.0
 47
0.0
 47
0.0
 47
1.0
 47
0.0
 47
0.0
 47
0.0
 47
0.0
 47
1.0
171
     0
 49
0.0008202099737533
 49
0.0
 49
0.0
 49
0.0
 49
0.0
 49
0.0008202099737533
 49
0.0
 49
0.0
 49
0.0
 49
0.0
 49
1.0
 49
0.0
 49
0.0
 49
0.0
 49
0.0
 49
1.0
175
     0
142
0.0008202099737533
142
0.0
142
0.0
142
0.0
142
0.0
142
0.0008202099737533
142
0.0
142
0.0
142
0.0
142
0.0
142
1.0
142
0.0
142
0.0
142
0.0
142
0.0
142
1.0
179
     0
144
0.0008202099737533
144
0.0
144
0.0
144
0.0
144
0.0
144
0.0008202099737533
144
0.0
144
0.0
144
0.0
144
0.0
144
1.0
144
0.0
144
0.0
144
0.0
144
0.0
144
1.0
147
0.0008202099737533
147
0.0
147
0.0
147
0.0
147
0.0
147
0.0008202099737533
147
0.0
147
0.0
147
0.0
147
0.0
147
1.0
147
0.0
147
0.0
147
0.0
147
0.0
147
1.0
  0
MLEADERSTYLE
  5
2F48
102
{ACAD_REACTORS
330
2F47
102
}
330
2F47
100
AcDbMLeaderStyle
170
     2
171
     1
172
     0
 90
        2
 40
0.0
 41
0.0
173
     1
 91
-1056964608
340
14
 92
       -2
290
     1
 42
2.0
291
     1
 43
0.36
  3
Standard
 44
4.0
300

342
11
174
     1
178
     6
175
     1
176
     0
 93
-1056964608
 45
4.0
292
     0
297
     0
 46
4.0
 94
-1056964608
 47
1.0
 49
1.0
140
1.0
293
     1
141
0.0
294
     1
177
     0
142
1.0
295
     0
296
     0
143
0.125
1001
ACAD_MLEADERVER
1070
     2
  0
MLINESTYLE
  5
18
102
{ACAD_REACTORS
330
17
102
}
330
17
100
AcDbMlineStyle
  2
STANDARD
 70
     0
  3

 62
   256
 51
90.0
 52
90.0
 71
     2
 49
0.5
 62
   256
  6
BYLAYER
 49
-0.5
 62
   256
  6
BYLAYER
  0
ACDBPLACEHOLDER
  5
F
102
{ACAD_REACTORS
330
E
102
}
330
E
  0
SCALE
  5
2F36
102
{ACAD_REACTORS
330
2F35
102
}
330
2F35
100
AcDbScale
 70
     0
300
1:1
140
1.0
141
1.0
290
     1
  0
SCALE
  5
2F37
102
{ACAD_REACTORS
330
2F35
102
}
330
2F35
100
AcDbScale
 70
     0
300
1:2
140
1.0
141
2.0
290
     0
  0
SCALE
  5
2F38
102
{ACAD_REACTORS
330
2F35
102
}
330
2F35
100
AcDbScale
 70
     0
300
1:4
140
1.0
141
4.0
290
     0
  0
SCALE
  5
2F39
102
{ACAD_REACTORS
330
2F35
102
}
330
2F35
100
AcDbScale
 70
     0
300
1:5
140
1.0
141
5.0
290
     0
  0
SCALE
  5
2F3A
102
{ACAD_REACTORS
330
2F35
102
}
330
2F35
100
AcDbScale
 70
     0
300
1:8
140
1.0
141
8.0
290
     0
  0
SCALE
  5
2F3B
102
{ACAD_REACTORS
330
2F35
102
}
330
2F35
100
AcDbScale
 70
     0
300
1:10
140
1.0
141
10.0
290
     0
  0
SCALE
  5
2F3C
102
{ACAD_REACTORS
330
2F35
102
}
330
2F35
100
AcDbScale
 70
     0
300
1:16
140
1.0
141
16.0
290
     0
  0
SCALE
  5
2F3D
102
{ACAD_REACTORS
330
2F35
102
}
330
2F35
100
AcDbScale
 70
     0
300
1:20
140
1.0
141
20.0
290
     0
  0
SCALE
  5
2F3E
102
{ACAD_REACTORS
330
2F35
102
}
330
2F35
100
AcDbScale
 70
     0
300
1:30
140
1.0
141
30.0
290
     0
  0
SCALE
  5
2F3F
102
{ACAD_REACTORS
330
2F35
102
}
330
2F35
100
AcDbScale
 70
     0
300
1:40
140
1.0
141
40.0
290
     0
  0
SCALE
  5
2F40
102
{ACAD_REACTORS
330
2F35
102
}
330
2F35
100
AcDbScale
 70
     0
300
1:50
140
1.0
141
50.0
290
     0
  0
SCALE
  5
2F41
102
{ACAD_REACTORS
330
2F35
102
}
330
2F35
100
AcDbScale
 70
     0
300
1:100
140
1.0
141
100.0
290
     0
  0
SCALE
  5
2F42
102
{ACAD_REACTORS
330
2F35
102
}
330
2F35
100
AcDbScale
 70
     0
300
2:1
140
2.0
141
1.0
290
     0
  0
SCALE
  5
2F43
102
{ACAD_REACTORS
330
2F35
102
}
330
2F35
100
AcDbScale
 70
     0
300
4:1
140
4.0
141
1.0
290
     0
  0
SCALE
  5
2F44
102
{ACAD_REACTORS
330
2F35
102
}
330
2F35
100
AcDbScale
 70
     0
300
8:1
140
8.0
141
1.0
290
     0
  0
SCALE
  5
2F45
102
{ACAD_REACTORS
330
2F35
102
}
330
2F35
100
AcDbScale
 70
     0
300
10:1
140
10.0
141
1.0
290
     0
  0
SCALE
  5
2F46
102
{ACAD_REACTORS
330
2F35
102
}
330
2F35
100
AcDbScale
 70
     0
300
100:1
140
100.0
141
1.0
290
     0
  0
TABLESTYLE
  5
2E68
102
{ACAD_XDICTIONARY
360
9137
102
}
102
{ACAD_REACTORS
330
2E67
102
}
330
2E67
100
AcDbTableStyle
  3
Standard
 70
     0
 71
     0
 40
1.5
 41
1.5
280
     0
281
     0
  7
STANDARD
140
4.5
170
     2
 62
     0
 63
     7
283
     0
274
    -2
284
     1
 64
     0
275
    -2
285
     1
 65
     0
276
    -2
286
     1
 66
     0
277
    -2
287
     1
 67
     0
278
    -2
288
     1
 68
     0
279
    -2
289
     1
 69
     0
  7
STANDARD
140
6.0
170
     5
 62
     0
 63
     7
283
     0
274
    -2
284
     1
 64
     0
275
    -2
285
     1
 65
     0
276
    -2
286
     1
 66
     0
277
    -2
287
     1
 67
     0
278
    -2
288
     1
 68
     0
279
    -2
289
     1
 69
     0
  7
STANDARD
140
4.5
170
     5
 62
     0
 63
     7
283
     0
274
    -2
284
     1
 64
     0
275
    -2
285
     1
 65
     0
276
    -2
286
     1
 66
     0
277
    -2
287
     1
 67
     0
278
    -2
288
     1
 68
     0
279
    -2
289
     1
 69
     0
  0
VISUALSTYLE
  5
2F2A
102
{ACAD_REACTORS
330
2F24
102
}
330
2F24
100
AcDbVisualStyle
  2
2dWireframe
 70
     4
 71
     0
 72
     2
 73
     0
 90
        0
 40
-0.6
 41
-30.0
 62
     5
 63
     7
 74
     1
 91
        4
 64
     7
 65
   257
 75
     1
175
     1
 42
1.0
 92
        0
 66
   257
 43
1.0
 76
     1
 77
     6
 78
     2
 67
     7
 79
     5
170
     0
171
     0
290
     0
174
     0
 93
        1
 44
0.0
173
     0
291
     0
 45
0.0
1001
ACAD
1000
AcDbSavedByObjectVersion
1070
     0
  0
VISUALSTYLE
  5
2F2C
102
{ACAD_REACTORS
330
2F24
102
}
330
2F24
100
AcDbVisualStyle
  2
3D Hidden
 70
     6
 71
     1
 72
     2
 73
     2
 90
        0
 40
-0.6
 41
-30.0
 62
     5
 63
     7
 74
     2
 91
        2
 64
     7
 65
   257
 75
     2
175
     1
 42
40.0
 92
        0
 66
   257
 43
1.0
 76
     1
 77
     6
 78
     2
 67
     7
 79
     3
170
     0
171
     0
290
     0
174
     0
 93
        1
 44
0.0
173
     0
291
     0
 45
0.0
1001
ACAD
1000
AcDbSavedByObjectVersion
1070
     0
  0
VISUALSTYLE
  5
2F2B
102
{ACAD_REACTORS
330
2F24
102
}
330
2F24
100
AcDbVisualStyle
  2
3dWireframe
 70
     5
 71
     0
 72
     2
 73
     0
 90
        0
 40
-0.6
 41
-30.0
 62
     5
 63
     7
 74
     1
 91
        4
 64
     7
 65
   257
 75
     1
175
     1
 42
1.0
 92
        0
 66
   257
 43
1.0
 76
     1
 77
     6
 78
     2
 67
     7
 79
     5
170
     0
171
     0
290
     0
174
     0
 93
        1
 44
0.0
173
     0
291
     0
 45
0.0
1001
ACAD
1000
AcDbSavedByObjectVersion
1070
     0
  0
VISUALSTYLE
  5
2F29
102
{ACAD_REACTORS
330
2F24
102
}
330
2F24
100
AcDbVisualStyle
  2
Basic
 70
     7
 71
     1
 72
     0
 73
     1
 90
        0
 40
-0.6
 41
-30.0
 62
     5
 63
     7
 74
     0
 91
        4
 64
     7
 65
   257
 75
     1
175
     1
 42
1.0
 92
        8
 66
     7
 43
1.0
 76
     1
 77
     6
 78
     2
 67
     7
 79
     5
170
     0
171
     0
290
     0
174
     0
 93
        1
 44
0.0
173
     0
291
     1
 45
0.0
1001
ACAD
1000
AcDbSavedByObjectVersion
1070
     0
  0
VISUALSTYLE
  5
2F30
102
{ACAD_REACTORS
330
2F24
102
}
330
2F24
100
AcDbVisualStyle
  2
Brighten
 70
    12
 71
     2
 72
     2
 73
     0
 90
        0
 40
-0.6
 41
-30.0
 62
     5
 63
     7
 74
     1
 91
        4
 64
     7
 65
   257
 75
     1
175
     1
 42
1.0
 92
        8
 66
     7
 43
1.0
 76
     1
 77
     6
 78
     2
 67
     7
 79
     5
170
     0
171
     0
290
     0
174
     0
 93
        1
 44
50.0
173
     0
291
     1
 45
0.0
1001
ACAD
1000
AcDbSavedByObjectVersion
1070
     0
  0
VISUALSTYLE
  5
2F34
102
{ACAD_REACTORS
330
2F24
102
}
330
2F24
100
AcDbVisualStyle
  2
ColorChange
 70
    16
 71
     2
 72
     2
 73
     3
 90
        0
 40
-0.6
 41
-30.0
 62
     5
 63
     8
 74
     1
 91
        4
 64
     7
 65
   257
 75
     1
175
     1
 42
1.0
 92
        8
 66
     8
 43
1.0
 76
     1
 77
     6
 78
     2
 67
     7
 79
     5
170
     0
171
     0
290
     0
174
     0
 93
        1
 44
0.0
173
     0
291
     1
 45
0.0
1001
ACAD
1000
AcDbSavedByObjectVersion
1070
     0
  0
VISUALSTYLE
  5
2F2D
102
{ACAD_REACTORS
330
2F24
102
}
330
2F24
100
AcDbVisualStyle
  2
Conceptual
 70
     9
 71
     3
 72
     2
 73
     0
 90
        0
 40
-0.6
 41
-30.0
 62
     5
 63
     7
 74
     2
 91
        2
 64
     7
 65
   257
 75
     1
175
     1
 42
40.0
 92
        8
 66
     7
 43
1.0
 76
     1
 77
     6
 78
     2
 67
     7
 79
     3
170
     0
171
     0
290
     0
174
     0
 93
        1
 44
0.0
173
     0
291
     0
 45
0.0
1001
ACAD
1000
AcDbSavedByObjectVersion
1070
     0
  0
VISUALSTYLE
  5
2F2F
102
{ACAD_REACTORS
330
2F24
102
}
330
2F24
100
AcDbVisualStyle
  2
Dim
 70
    11
 71
     2
 72
     2
 73
     0
 90
        0
 40
-0.6
 41
-30.0
 62
     5
 63
     7
 74
     1
 91
        4
 64
     7
 65
   257
 75
     1
175
     1
 42
1.0
 92
        8
 66
     7
 43
1.0
 76
     1
 77
     6
 78
     2
 67
     7
 79
     5
170
     0
171
     0
290
     0
174
     0
 93
        1
 44
-50.0
173
     0
291
     1
 45
0.0
1001
ACAD
1000
AcDbSavedByObjectVersion
1070
     0
  0
VISUALSTYLE
  5
2F33
102
{ACAD_REACTORS
330
2F24
102
}
330
2F24
100
AcDbVisualStyle
  2
Facepattern
 70
    15
 71
     2
 72
     2
 73
     0
 90
        0
 40
-0.6
 41
-30.0
 62
     5
 63
     7
 74
     1
 91
        4
 64
     7
 65
   257
 75
     1
175
     1
 42
1.0
 92
        8
 66
     7
 43
1.0
 76
     1
 77
     6
 78
     2
 67
     7
 79
     5
170
     0
171
     0
290
     0
174
     0
 93
        1
 44
0.0
173
     0
291
     1
 45
0.0
1001
ACAD
1000
AcDbSavedByObjectVersion
1070
     0
  0
VISUALSTYLE
  5
2F25
102
{ACAD_REACTORS
330
2F24
102
}
330
2F24
100
AcDbVisualStyle
  2
Flat
 70
     0
 71
     2
 72
     1
 73
     1
 90
        2
 40
-0.6
 41
30.0
 62
     5
 63
     7
 74
     0
 91
        4
 64
     7
 65
   257
 75
     1
175
     1
 42
1.0
 92
        8
 66
     7
 43
1.0
 76
     1
 77
     6
 78
     2
 67
     7
 79
     5
170
     0
171
     0
290
     0
174
     0
 93
       13
 44
0.0
173
     0
291
     1
 45
0.0
1001
ACAD
1000
AcDbSavedByObjectVersion
1070
     0
  0
VISUALSTYLE
  5
2F26
102
{ACAD_REACTORS
330
2F24
102
}
330
2F24
100
AcDbVisualStyle
  2
FlatWithEdges
 70
     1
 71
     2
 72
     1
 73
     1
 90
        2
 40
-0.6
 41
30.0
 62
     5
 63
     7
 74
     1
 91
        4
 64
     7
 65
   257
 75
     1
175
     1
 42
1.0
 92
        0
 66
   257
 43
1.0
 76
     1
 77
     6
 78
     2
 67
     7
 79
     5
170
     0
171
     0
290
     0
174
     0
 93
       13
 44
0.0
173
     0
291
     1
 45
0.0
1001
ACAD
1000
AcDbSavedByObjectVersion
1070
     0
  0
VISUALSTYLE
  5
2F27
102
{ACAD_REACTORS
330
2F24
102
}
330
2F24
100
AcDbVisualStyle
  2
Gouraud
 70
     2
 71
     2
 72
     2
 73
     1
 90
        2
 40
-0.6
 41
30.0
 62
     5
 63
     7
 74
     0
 91
        4
 64
     7
 65
   257
 75
     1
175
     1
 42
1.0
 92
        0
 66
     7
 43
1.0
 76
     1
 77
     6
 78
     2
 67
     7
 79
     5
170
     0
171
     0
290
     0
174
     0
 93
       13
 44
0.0
173
     0
291
     1
 45
0.0
1001
ACAD
1000
AcDbSavedByObjectVersion
1070
     0
  0
VISUALSTYLE
  5
2F28
102
{ACAD_REACTORS
330
2F24
102
}
330
2F24
100
AcDbVisualStyle
  2
GouraudWithEdges
 70
     3
 71
     2
 72
     2
 73
     1
 90
        2
 40
-0.6
 41
30.0
 62
     5
 63
     7
 74
     1
 91
        4
 64
     7
 65
   257
 75
     1
175
     1
 42
1.0
 92
        0
 66
   257
 43
1.0
 76
     1
 77
     6
 78
     2
 67
     7
 79
     5
170
     0
171
     0
290
     0
174
     0
 93
       13
 44
0.0
173
     0
291
     1
 45
0.0
1001
ACAD
1000
AcDbSavedByObjectVersion
1070
     0
  0
VISUALSTYLE
  5
2F32
102
{ACAD_REACTORS
330
2F24
102
}
330
2F24
100
AcDbVisualStyle
  2
Linepattern
 70
    14
 71
     2
 72
     2
 73
     0
 90
        0
 40
-0.6
 41
-30.0
 62
     5
 63
     7
 74
     1
 91
        4
 64
     7
 65
   257
 75
     7
175
     7
 42
1.0
 92
        8
 66
     7
 43
1.0
 76
     1
 77
     6
 78
     2
 67
     7
 79
     5
170
     0
171
     0
290
     0
174
     0
 93
        1
 44
0.0
173
     0
291
     1
 45
0.0
1001
ACAD
1000
AcDbSavedByObjectVersion
1070
     0
  0
VISUALSTYLE
  5
2F2E
102
{ACAD_REACTORS
330
2F24
102
}
330
2F24
100
AcDbVisualStyle
  2
Realistic
 70
     8
 71
     2
 72
     2
 73
     0
 90
        0
 40
-0.6
 41
-30.0
 62
     5
 63
     7
 74
     1
 91
        0
 64
     7
 65
   257
 75
     1
175
     1
 42
1.0
 92
        8
 66
     8
 43
1.0
 76
     1
 77
     6
 78
     2
 67
     7
 79
     5
170
     0
171
     0
290
     0
174
     0
 93
       13
 44
0.0
173
     0
291
     0
 45
0.0
1001
ACAD
1000
AcDbSavedByObjectVersion
1070
     0
  0
VISUALSTYLE
  5
2F31
102
{ACAD_REACTORS
330
2F24
102
}
330
2F24
100
AcDbVisualStyle
  2
Thicken
 70
    13
 71
     2
 72
     2
 73
     0
 90
        0
 40
-0.6
 41
-30.0
 62
     5
 63
     7
 74
     1
 91
        4
 64
     7
 65
   257
 75
     1
175
     1
 42
1.0
 92
       12
 66
     7
 43
1.0
 76
     1
 77
     6
 78
     2
 67
     7
 79
     5
170
     0
171
     0
290
     0
174
     0
 93
        1
 44
0.0
173
     0
291
     1
 45
0.0
1001
ACAD
1000
AcDbSavedByObjectVersion
1070
     0
  0
DICTIONARYVAR
  5
913C
102
{ACAD_REACTORS
330
216
102
}
330
216
100
DictionaryVariables
280
     0
  1
1:1
  0
DICTIONARYVAR
  5
913A
102
{ACAD_REACTORS
330
216
102
}
330
216
100
DictionaryVariables
280
     0
  1
STANDARD
  0
DICTIONARYVAR
  5
2EEA
102
{ACAD_REACTORS
330
216
102
}
330
216
100
DictionaryVariables
280
     0
  1
STANDARD
  0
DICTIONARYVAR
  5
219
102
{ACAD_REACTORS
330
216
102
}
330
216
100
DictionaryVariables
280
     0
  1
1
  0
DICTIONARYVAR
  5
218
102
{ACAD_REACTORS
330
216
102
}
330
216
100
DictionaryVariables
280
     0
  1
1
  0
DICTIONARYVAR
  5
217
102
{ACAD_REACTORS
330
216
102
}
330
216
100
DictionaryVariables
280
     0
  1
0
  0
DICTIONARYVAR
  5
913E
102
{ACAD_REACTORS
330
216
102
}
330
216
100
DictionaryVariables
280
     0
  1
1
  0
DICTIONARYVAR
  5
913F
102
{ACAD_REACTORS
330
216
102
}
330
216
100
DictionaryVariables
280
     0
  1
15
  0
DICTIONARYVAR
  5
913D
102
{ACAD_REACTORS
330
216
102
}
330
216
100
DictionaryVariables
280
     0
  1
0
  0
DICTIONARYVAR
  5
913B
102
{ACAD_REACTORS
330
216
102
}
330
216
100
DictionaryVariables
280
     0
  1
0
  0
DICTIONARYVAR
  5
E048
102
{ACAD_REACTORS
330
216
102
}
330
216
100
DictionaryVariables
280
     0
  1
127
  0
DICTIONARY
  5
4A
102
{ACAD_REACTORS
330
45
102
}
330
45
100
AcDbDictionary
281
     1
  0
XRECORD
  5
2EB6
102
{ACAD_REACTORS
330
45
102
}
330
45
100
AcDbXrecord
280
     1
 90
-1023410169
  0
DICTIONARY
  5
2F15
330
2F14
100
AcDbDictionary
280
     1
281
     1
  3
ACAD_XREC_ROUNDTRIP
360
E119
  3
BUMPTILE
360
2F17
  3
DIFFUSETILE
360
2F16
  3
OPACITYTILE
360
2F1A
  3
REFLECTIONTILE
360
2F19
  3
REFRACTIONTILE
360
2F1B
  3
SPECULARTILE
360
2F18
  0
DICTIONARY
  5
2F0D
330
2F0C
100
AcDbDictionary
280
     1
281
     1
  3
ACAD_XREC_ROUNDTRIP
360
E118
  3
BUMPTILE
360
2F0F
  3
DIFFUSETILE
360
2F0E
  3
OPACITYTILE
360
2F12
  3
REFLECTIONTILE
360
2F11
  3
REFRACTIONTILE
360
2F13
  3
SPECULARTILE
360
2F10
  0
DICTIONARY
  5
2F1D
330
2F1C
100
AcDbDictionary
280
     1
281
     1
  3
ACAD_XREC_ROUNDTRIP
360
E11A
  3
BUMPTILE
360
2F1F
  3
DIFFUSETILE
360
2F1E
  3
OPACITYTILE
360
2F22
  3
REFLECTIONTILE
360
2F21
  3
REFRACTIONTILE
360
2F23
  3
SPECULARTILE
360
2F20
  0
DICTIONARY
  5
9137
330
2E68
100
AcDbDictionary
280
     1
281
     1
  3
ACAD_ROUNDTRIP_2008_TABLESTYLE_CELLSTYLEMAP
360
E111
  3
ACAD_XREC_ROUNDTRIP
360
E117
  0
XRECORD
  5
E119
102
{ACAD_REACTORS
330
2F15
102
}
330
2F15
100
AcDbXrecord
280
     1
102
MATERIAL
148
0.0
149
0.0
149
0.0
 93
        0
 94
      127
282
     0
 72
     0
 77
     0
171
     0
175
     0
179
     0
273
     0
  0
XRECORD
  5
2F17
102
{ACAD_REACTORS
330
2F15
102
}
330
2F15
100
AcDbXrecord
280
     1
270
     1
271
     1
  0
XRECORD
  5
2F16
102
{ACAD_REACTORS
330
2F15
102
}
330
2F15
100
AcDbXrecord
280
     1
270
     1
271
     1
  0
XRECORD
  5
2F1A
102
{ACAD_REACTORS
330
2F15
102
}
330
2F15
100
AcDbXrecord
280
     1
270
     1
271
     1
  0
XRECORD
  5
2F19
102
{ACAD_REACTORS
330
2F15
102
}
330
2F15
100
AcDbXrecord
280
     1
270
     1
271
     1
  0
XRECORD
  5
2F1B
102
{ACAD_REACTORS
330
2F15
102
}
330
2F15
100
AcDbXrecord
280
     1
270
     1
271
     1
  0
XRECORD
  5
2F18
102
{ACAD_REACTORS
330
2F15
102
}
330
2F15
100
AcDbXrecord
280
     1
270
     1
271
     1
  0
XRECORD
  5
E118
102
{ACAD_REACTORS
330
2F0D
102
}
330
2F0D
100
AcDbXrecord
280
     1
102
MATERIAL
148
0.0
149
0.0
149
0.0
 93
        0
 94
      127
282
     0
 72
     0
 77
     0
171
     0
175
     0
179
     0
273
     0
  0
XRECORD
  5
2F0F
102
{ACAD_REACTORS
330
2F0D
102
}
330
2F0D
100
AcDbXrecord
280
     1
270
     1
271
     1
  0
XRECORD
  5
2F0E
102
{ACAD_REACTORS
330
2F0D
102
}
330
2F0D
100
AcDbXrecord
280
     1
270
     1
271
     1
  0
XRECORD
  5
2F12
102
{ACAD_REACTORS
330
2F0D
102
}
330
2F0D
100
AcDbXrecord
280
     1
270
     1
271
     1
  0
XRECORD
  5
2F11
102
{ACAD_REACTORS
330
2F0D
102
}
330
2F0D
100
AcDbXrecord
280
     1
270
     1
271
     1
  0
XRECORD
  5
2F13
102
{ACAD_REACTORS
330
2F0D
102
}
330
2F0D
100
AcDbXrecord
280
     1
270
     1
271
     1
  0
XRECORD
  5
2F10
102
{ACAD_REACTORS
330
2F0D
102
}
330
2F0D
100
AcDbXrecord
280
     1
270
     1
271
     1
  0
XRECORD
  5
E11A
102
{ACAD_REACTORS
330
2F1D
102
}
330
2F1D
100
AcDbXrecord
280
     1
102
MATERIAL
148
0.0
149
0.0
149
0.0
 93
        0
 94
      127
282
     0
 72
     0
 77
     0
171
     0
175
     0
179
     0
273
     0
  0
XRECORD
  5
2F1F
102
{ACAD_REACTORS
330
2F1D
102
}
330
2F1D
100
AcDbXrecord
280
     1
270
     1
271
     1
  0
XRECORD
  5
2F1E
102
{ACAD_REACTORS
330
2F1D
102
}
330
2F1D
100
AcDbXrecord
280
     1
270
     1
271
     1
  0
XRECORD
  5
2F22
102
{ACAD_REACTORS
330
2F1D
102
}
330
2F1D
100
AcDbXrecord
280
     1
270
     1
271
     1
  0
XRECORD
  5
2F21
102
{ACAD_REACTORS
330
2F1D
102
}
330
2F1D
100
AcDbXrecord
280
     1
270
     1
271
     1
  0
XRECORD
  5
2F23
102
{ACAD_REACTORS
330
2F1D
102
}
330
2F1D
100
AcDbXrecord
280
     1
270
     1
271
     1
  0
XRECORD
  5
2F20
102
{ACAD_REACTORS
330
2F1D
102
}
330
2F1D
100
AcDbXrecord
280
     1
270
     1
271
     1
  0
CELLSTYLEMAP
  5
E111
102
{ACAD_REACTORS
330
9137
102
}
330
9137
100
AcDbCellStyleMap
 90
        3
300
CELLSTYLE
  1
TABLEFORMAT_BEGIN
 90
        5
170
     1
 91
        0
 92
    32768
 62
   257
 93
        1
300
CONTENTFORMAT
  1
CONTENTFORMAT_BEGIN
 90
        0
 91
        0
 92
        4
 93
        0
300

 40
0.0
140
1.0
 94
        5
 62
     0
340
11
144
6.0
309
CONTENTFORMAT_END
171
     1
301
MARGIN
  1
CELLMARGIN_BEGIN
 40
1.5
 40
1.5
 40
1.5
 40
1.5
 40
0.18
 40
0.18
309
CELLMARGIN_END
 94
        6
 95
        1
302
GRIDFORMAT
  1
GRIDFORMAT_BEGIN
 90
        0
 91
        1
 62
     0
 92
       -2
340
0
 93
        0
 40
0.045
309
GRIDFORMAT_END
 95
        2
302
GRIDFORMAT
  1
GRIDFORMAT_BEGIN
 90
        0
 91
        1
 62
     0
 92
       -2
340
0
 93
        0
 40
0.045
309
GRIDFORMAT_END
 95
        4
302
GRIDFORMAT
  1
GRIDFORMAT_BEGIN
 90
        0
 91
        1
 62
     0
 92
       -2
340
0
 93
        0
 40
0.045
309
GRIDFORMAT_END
 95
        8
302
GRIDFORMAT
  1
GRIDFORMAT_BEGIN
 90
        0
 91
        1
 62
     0
 92
       -2
340
0
 93
        0
 40
0.045
309
GRIDFORMAT_END
 95
       16
302
GRIDFORMAT
  1
GRIDFORMAT_BEGIN
 90
        0
 91
        1
 62
     0
 92
       -2
340
0
 93
        0
 40
0.045
309
GRIDFORMAT_END
 95
       32
302
GRIDFORMAT
  1
GRIDFORMAT_BEGIN
 90
        0
 91
        1
 62
     0
 92
       -2
340
0
 93
        0
 40
0.045
309
GRIDFORMAT_END
309
TABLEFORMAT_END
  1
CELLSTYLE_BEGIN
 90
        1
 91
        1
300
_TITLE
309
CELLSTYLE_END
300
CELLSTYLE
  1
TABLEFORMAT_BEGIN
 90
        5
170
     1
 91
        0
 92
        0
 62
   257
 93
        1
300
CONTENTFORMAT
  1
CONTENTFORMAT_BEGIN
 90
        0
 91
        0
 92
        4
 93
        0
300

 40
0.0
140
1.0
 94
        5
 62
     0
340
11
144
4.5
309
CONTENTFORMAT_END
171
     1
301
MARGIN
  1
CELLMARGIN_BEGIN
 40
1.5
 40
1.5
 40
1.5
 40
1.5
 40
0.18
 40
0.18
309
CELLMARGIN_END
 94
        6
 95
        1
302
GRIDFORMAT
  1
GRIDFORMAT_BEGIN
 90
        0
 91
        1
 62
     0
 92
       -2
340
0
 93
        0
 40
0.045
309
GRIDFORMAT_END
 95
        2
302
GRIDFORMAT
  1
GRIDFORMAT_BEGIN
 90
        0
 91
        1
 62
     0
 92
       -2
340
0
 93
        0
 40
0.045
309
GRIDFORMAT_END
 95
        4
302
GRIDFORMAT
  1
GRIDFORMAT_BEGIN
 90
        0
 91
        1
 62
     0
 92
       -2
340
0
 93
        0
 40
0.045
309
GRIDFORMAT_END
 95
        8
302
GRIDFORMAT
  1
GRIDFORMAT_BEGIN
 90
        0
 91
        1
 62
     0
 92
       -2
340
0
 93
        0
 40
0.045
309
GRIDFORMAT_END
 95
       16
302
GRIDFORMAT
  1
GRIDFORMAT_BEGIN
 90
        0
 91
        1
 62
     0
 92
       -2
340
0
 93
        0
 40
0.045
309
GRIDFORMAT_END
 95
       32
302
GRIDFORMAT
  1
GRIDFORMAT_BEGIN
 90
        0
 91
        1
 62
     0
 92
       -2
340
0
 93
        0
 40
0.045
309
GRIDFORMAT_END
309
TABLEFORMAT_END
  1
CELLSTYLE_BEGIN
 90
        2
 91
        1
300
_HEADER
309
CELLSTYLE_END
300
CELLSTYLE
  1
TABLEFORMAT_BEGIN
 90
        5
170
     1
 91
        0
 92
        0
 62
   257
 93
        1
300
CONTENTFORMAT
  1
CONTENTFORMAT_BEGIN
 90
        0
 91
        0
 92
        4
 93
        0
300

 40
0.0
140
1.0
 94
        2
 62
     0
340
11
144
4.5
309
CONTENTFORMAT_END
171
     1
301
MARGIN
  1
CELLMARGIN_BEGIN
 40
1.5
 40
1.5
 40
1.5
 40
1.5
 40
0.18
 40
0.18
309
CELLMARGIN_END
 94
        6
 95
        1
302
GRIDFORMAT
  1
GRIDFORMAT_BEGIN
 90
        0
 91
        1
 62
     0
 92
       -2
340
0
 93
        0
 40
0.045
309
GRIDFORMAT_END
 95
        2
302
GRIDFORMAT
  1
GRIDFORMAT_BEGIN
 90
        0
 91
        1
 62
     0
 92
       -2
340
0
 93
        0
 40
0.045
309
GRIDFORMAT_END
 95
        4
302
GRIDFORMAT
  1
GRIDFORMAT_BEGIN
 90
        0
 91
        1
 62
     0
 92
       -2
340
0
 93
        0
 40
0.045
309
GRIDFORMAT_END
 95
        8
302
GRIDFORMAT
  1
GRIDFORMAT_BEGIN
 90
        0
 91
        1
 62
     0
 92
       -2
340
0
 93
        0
 40
0.045
309
GRIDFORMAT_END
 95
       16
302
GRIDFORMAT
  1
GRIDFORMAT_BEGIN
 90
        0
 91
        1
 62
     0
 92
       -2
340
0
 93
        0
 40
0.045
309
GRIDFORMAT_END
 95
       32
302
GRIDFORMAT
  1
GRIDFORMAT_BEGIN
 90
        0
 91
        1
 62
     0
 92
       -2
340
0
 93
        0
 40
0.045
309
GRIDFORMAT_END
309
TABLEFORMAT_END
  1
CELLSTYLE_BEGIN
 90
        3
 91
        2
300
_DATA
309
CELLSTYLE_END
  0
XRECORD
  5
E117
102
{ACAD_REACTORS
330
9137
102
}
330
9137
100
AcDbXrecord
280
     1
102
ACAD_ROUNDTRIP_PRE2007_TABLESTYLE
 90
        4
 91
        0
  1

 92
        4
 93
        0
  2

 94
        4
 95
        0
  3

  0
ENDSEC
  0
EOF
