  0
SECTION
  2
HEADER
  9
$ACADVER
  1
AC1018
  9
$ACADMAINTVER
 70
   104
  9
$DWGCODEPAGE
  3
ANSI_1252
  9
$LASTSAVEDBY
  1
Bernd Dutschke
  9
$CUSTOMPROPERTYTAG
  1
AmdtFileType
  9
$CUSTOMPROPERTY
  1
84
  9
$INSBASE
 10
0.0
 20
0.0
 30
0.0
  9
$EXTMIN
 10
-31.64416671991251
 20
-44.07761743342621
 30
-0.0000000000000022
  9
$EXTMAX
 10
84.44919052774707
 20
94.85043961990561
 30
0.0000000000000131
  9
$LIMMIN
 10
0.0
 20
0.0
  9
$LIMMAX
 10
420.0
 20
297.0
  9
$ORTHOMODE
 70
     0
  9
$REGENMODE
 70
     1
  9
$FILLMODE
 70
     1
  9
$QTEXTMODE
 70
     0
  9
$MIRRTEXT
 70
     1
  9
$LTSCALE
 40
1.0
  9
$ATTMODE
 70
     1
  9
$TEXTSIZE
 40
3.5
  9
$TRACEWID
 40
1.0
  9
$TEXTSTYLE
  7
STANDARD
  9
$CLAYER
  8
0
  9
$CELTYPE
  6
ByLayer
  9
$CECOLOR
 62
   256
  9
$CELTSCALE
 40
1.0
  9
$DISPSILH
 70
     0
  9
$DIMSCALE
 40
1.0
  9
$DIMASZ
 40
2.5
  9
$DIMEXO
 40
0.0
  9
$DIMDLI
 40
10.0
  9
$DIMRND
 40
0.0
  9
$DIMDLE
 40
0.0
  9
$DIMEXE
 40
1.0
  9
$DIMTP
 40
0.1
  9
$DIMTM
 40
0.1
  9
$DIMTXT
 40
3.5
  9
$DIMCEN
 40
0.0
  9
$DIMTSZ
 40
0.0
  9
$DIMTOL
 70
     0
  9
$DIMLIM
 70
     0
  9
$DIMTIH
 70
     0
  9
$DIMTOH
 70
     0
  9
$DIMSE1
 70
     0
  9
$DIMSE2
 70
     0
  9
$DIMTAD
 70
     1
  9
$DIMZIN
 70
     8
  9
$DIMBLK
  1

  9
$DIMASO
 70
     1
  9
$DIMSHO
 70
     1
  9
$DIMPOST
  1

  9
$DIMAPOST
  1
"
  9
$DIMALT
 70
     0
  9
$DIMALTD
 70
     2
  9
$DIMALTF
 40
0.0393701
  9
$DIMLFAC
 40
1.0
  9
$DIMTOFL
 70
     1
  9
$DIMTVP
 40
0.0
  9
$DIMTIX
 70
     0
  9
$DIMSOXD
 70
     0
  9
$DIMSAH
 70
     0
  9
$DIMBLK1
  1

  9
$DIMBLK2
  1

  9
$DIMSTYLE
  2
AM_DIN
  9
$DIMCLRD
 70
   256
  9
$DIMCLRE
 70
   256
  9
$DIMCLRT
 70
     2
  9
$DIMTFAC
 40
0.71
  9
$DIMGAP
 40
1.5
  9
$DIMJUST
 70
     0
  9
$DIMSD1
 70
     0
  9
$DIMSD2
 70
     0
  9
$DIMTOLJ
 70
     0
  9
$DIMTZIN
 70
     8
  9
$DIMALTZ
 70
     0
  9
$DIMALTTZ
 70
     0
  9
$DIMUPT
 70
     0
  9
$DIMDEC
 70
     1
  9
$DIMTDEC
 70
     2
  9
$DIMALTU
 70
     2
  9
$DIMALTTD
 70
     2
  9
$DIMTXSTY
  7
STANDARD
  9
$DIMAUNIT
 70
     0
  9
$DIMADEC
 70
     0
  9
$DIMALTRND
 40
0.0
  9
$DIMAZIN
 70
     2
  9
$DIMDSEP
 70
    46
  9
$DIMATFIT
 70
     3
  9
$DIMFRAC
 70
     0
  9
$DIMLDRBLK
  1

  9
$DIMLUNIT
 70
     2
  9
$DIMLWD
 70
    -1
  9
$DIMLWE
 70
    -1
  9
$DIMTMOVE
 70
     0
  9
$LUNITS
 70
     2
  9
$LUPREC
 70
     2
  9
$SKETCHINC
 40
1.0
  9
$FILLETRAD
 40
0.5
  9
$AUNITS
 70
     0
  9
$AUPREC
 70
     0
  9
$MENU
  1
.
  9
$ELEVATION
 40
0.0
  9
$PELEVATION
 40
0.0
  9
$THICKNESS
 40
0.0
  9
$LIMCHECK
 70
     0
  9
$CHAMFERA
 40
2.5
  9
$CHAMFERB
 40
2.5
  9
$CHAMFERC
 40
20.0
  9
$CHAMFERD
 40
0.0
  9
$SKPOLY
 70
     0
  9
$TDCREATE
 40
2453599.656190694
  9
$TDUCREATE
 40
2453599.614524028
  9
$TDUPDATE
 40
2454798.611296111
  9
$TDUUPDATE
 40
2454798.569629444
  9
$TDINDWG
 40
0.1796907870
  9
$TDUSRTIMER
 40
0.1795040625
  9
$USRTIMER
 70
     1
  9
$ANGBASE
 50
0.0
  9
$ANGDIR
 70
     0
  9
$PDMODE
 70
     0
  9
$PDSIZE
 40
0.0
  9
$PLINEWID
 40
0.0
  9
$SPLFRAME
 70
     0
  9
$SPLINETYPE
 70
     6
  9
$SPLINESEGS
 70
     8
  9
$HANDSEED
  5
EE04
  9
$SURFTAB1
 70
     6
  9
$SURFTAB2
 70
     6
  9
$SURFTYPE
 70
     6
  9
$SURFU
 70
     6
  9
$SURFV
 70
     6
  9
$UCSBASE
  2

  9
$UCSNAME
  2

  9
$UCSORG
 10
0.0
 20
0.0
 30
0.0
  9
$UCSXDIR
 10
1.0
 20
0.0
 30
0.0
  9
$UCSYDIR
 10
0.0
 20
1.0
 30
0.0
  9
$UCSORTHOREF
  2

  9
$UCSORTHOVIEW
 70
     0
  9
$UCSORGTOP
 10
0.0
 20
0.0
 30
0.0
  9
$UCSORGBOTTOM
 10
0.0
 20
0.0
 30
0.0
  9
$UCSORGLEFT
 10
0.0
 20
0.0
 30
0.0
  9
$UCSORGRIGHT
 10
0.0
 20
0.0
 30
0.0
  9
$UCSORGFRONT
 10
0.0
 20
0.0
 30
0.0
  9
$UCSORGBACK
 10
0.0
 20
0.0
 30
0.0
  9
$PUCSBASE
  2

  9
$PUCSNAME
  2

  9
$PUCSORG
 10
0.0
 20
0.0
 30
0.0
  9
$PUCSXDIR
 10
1.0
 20
0.0
 30
0.0
  9
$PUCSYDIR
 10
0.0
 20
1.0
 30
0.0
  9
$PUCSORTHOREF
  2

  9
$PUCSORTHOVIEW
 70
     0
  9
$PUCSORGTOP
 10
0.0
 20
0.0
 30
0.0
  9
$PUCSORGBOTTOM
 10
0.0
 20
0.0
 30
0.0
  9
$PUCSORGLEFT
 10
0.0
 20
0.0
 30
0.0
  9
$PUCSORGRIGHT
 10
0.0
 20
0.0
 30
0.0
  9
$PUCSORGFRONT
 10
0.0
 20
0.0
 30
0.0
  9
$PUCSORGBACK
 10
0.0
 20
0.0
 30
0.0
  9
$USERI1
 70
     0
  9
$USERI2
 70
     0
  9
$USERI3
 70
     0
  9
$USERI4
 70
     0
  9
$USERI5
 70
     0
  9
$USERR1
 40
0.0
  9
$USERR2
 40
0.0
  9
$USERR3
 40
0.0
  9
$USERR4
 40
0.0
  9
$USERR5
 40
0.0
  9
$WORLDVIEW
 70
     1
  9
$SHADEDGE
 70
     3
  9
$SHADEDIF
 70
    70
  9
$TILEMODE
 70
     1
  9
$MAXACTVP
 70
    64
  9
$PINSBASE
 10
0.0
 20
0.0
 30
0.0
  9
$PLIMCHECK
 70
     0
  9
$PEXTMIN
 10
1.000000000000000E+20
 20
1.000000000000000E+20
 30
1.000000000000000E+20
  9
$PEXTMAX
 10
-1.000000000000000E+20
 20
-1.000000000000000E+20
 30
-1.000000000000000E+20
  9
$PLIMMIN
 10
0.0
 20
0.0
  9
$PLIMMAX
 10
420.0
 20
297.0
  9
$UNITMODE
 70
     0
  9
$VISRETAIN
 70
     1
  9
$PLINEGEN
 70
     0
  9
$PSLTSCALE
 70
     1
  9
$TREEDEPTH
 70
  3020
  9
$CMLSTYLE
  2
Standard
  9
$CMLJUST
 70
     0
  9
$CMLSCALE
 40
20.0
  9
$PROXYGRAPHICS
 70
     1
  9
$MEASUREMENT
 70
     1
  9
$CELWEIGHT
370
    -1
  9
$ENDCAPS
280
     0
  9
$JOINSTYLE
280
     0
  9
$LWDISPLAY
290
     0
  9
$INSUNITS
 70
     4
  9
$HYPERLINKBASE
  1

  9
$STYLESHEET
  1

  9
$XEDIT
290
     1
  9
$CEPSNTYPE
380
     0
  9
$PSTYLEMODE
290
     1
  9
$FINGERPRINTGUID
  2
{03052709-208C-44F1-88CB-F8F0E550BC5D}
  9
$VERSIONGUID
  2
{5C4670B5-4D80-4B8F-9C73-03B5B1204D2D}
  9
$EXTNAMES
290
     1
  9
$PSVPSCALE
 40
0.0
  9
$OLESTARTUP
290
     0
  9
$SORTENTS
280
   127
  9
$INDEXCTL
280
     0
  9
$HIDETEXT
280
     1
  9
$XCLIPFRAME
290
     0
  9
$HALOGAP
280
     0
  9
$OBSCOLOR
 70
   257
  9
$OBSLTYPE
280
     0
  9
$INTERSECTIONDISPLAY
280
     0
  9
$INTERSECTIONCOLOR
 70
   257
  9
$DIMASSOC
280
     1
  9
$PROJECTNAME
  1

  0
ENDSEC
  0
SECTION
  2
CLASSES
  0
CLASS
  1
ACDBDICTIONARYWDFLT
  2
AcDbDictionaryWithDefault
  3
ObjectDBX Classes
 90
        0
 91
        1
280
     0
281
     0
  0
CLASS
  1
ACME_DOCUMENT
  2
AcMeDbDoc
  3
AcMeServices
 90
     1024
 91
        2
280
     0
281
     0
  0
CLASS
  1
ACMESCOPE
  2
AcMeScope
  3
AcMeServices
 90
     1024
 91
        1
280
     0
281
     0
  0
CLASS
  1
ACMECOMMANDHISTORY
  2
AcMeCommandHistory
  3
AcMeServices
 90
     1024
 91
        1
280
     0
281
     0
  0
CLASS
  1
ACIMSYSVARMAN
  2
AcImSysVarManager
  3
AcMeServices
 90
     1024
 91
        6
280
     0
281
     0
  0
CLASS
  1
ACIMREALSYSVAR
  2
AcImRealSysVar
  3
AcMeServices
 90
     1024
 91
        1
280
     0
281
     0
  0
CLASS
  1
ACIMINTSYSVAR
  2
AcImIntSysVar
  3
AcMeServices
 90
     1024
 91
       28
280
     0
281
     0
  0
CLASS
  1
ACMEDRAWINGMAN
  2
AcMeDrawingMan
  3
AcMeServices
 90
     1024
 91
        1
280
     0
281
     0
  0
CLASS
  1
ACMEVIEW
  2
AcMeView
  3
AcMeServices
 90
     1024
 91
        1
280
     0
281
     0
  0
CLASS
  1
ACDBENTITYCACHE
  2
AcMeEntityCache
  3
AcMeServices
 90
     1024
 91
        1
280
     0
281
     0
  0
CLASS
  1
GSMANAGER
  2
AcMeGSManager
  3
AcMeServices
 90
     1024
 91
        1
280
     0
281
     0
  0
CLASS
  1
AMDTINTERNALREACTOR
  2
AmdtInternalReactor
  3
AcMeServices
 90
     1024
 91
        2
280
     0
281
     0
  0
CLASS
  1
ACMESTATEMGR
  2
AcMeStateMgr
  3
AcMeServices
 90
     1024
 91
        1
280
     0
281
     0
  0
CLASS
  1
ACGREFMASTER
  2
AcGrefMaster
  3
AcAttribServices
 90
     1024
 91
        1
280
     0
281
     0
  0
CLASS
  1
ACME_DATABASE
  2
AcMeDbDatabase
  3
AcMeServices
 90
     1024
 91
        1
280
     0
281
     0
  0
CLASS
  1
ACRFINSADJUSTERMGR
  2
AcRfInsAdjusterMgr
  3
AcMeServices
 90
     1024
 91
        1
280
     0
281
     0
  0
CLASS
  1
ACGREFACADMASTER
  2
AcGrefacadMaster
  3
AcGrefServices
 90
     1024
 91
        1
280
     0
281
     0
  0
CLASS
  1
AMIMASTER
  2
AmiMaster
  3
AmiServices
 90
     1024
 91
        1
280
     0
281
     0
  0
CLASS
  1
AMGSETTINGSOBJ
  2
AmgSettingsObj
  3
"AcadM|Product Description: AutoCAD Mechanical|Company: Autodesk, Inc."
 90
     1024
 91
        2
280
     0
281
     0
  0
CLASS
  1
ACMDATADICTIONARY
  2
AcmDataDictionary
  3
"AcmSymBB|Product Description: AutoCAD Mechanical|Company: Autodesk, Inc."
 90
     1024
 91
        1
280
     0
281
     0
  0
CLASS
  1
ACMDATAENTRYBLOCK
  2
AcmDataEntryBlock
  3
AcmSymBB|Product Description: AutoCAD Mechanical|Company: Autodesk, Inc.
 90
     1024
 91
        0
280
     0
281
     0
  0
CLASS
  1
ACIMSTRSYSVAR
  2
AcImStrSysVar
  3
AcMeServices
 90
     1024
 91
        6
280
     0
281
     0
  0
CLASS
  1
ACMSTANDARDDIN
  2
AcmStandardDIN
  3
"Amdt_StdImp|Product Description: AutoCAD Mechanical|Company: Autodesk, Inc."
 90
     1024
 91
        1
280
     0
281
     0
  0
CLASS
  1
AMGOBJPROPCFG
  2
AmgObjPropCfg
  3
"AmgLay|Product Description: AutoCAD Mechanical|Company: Autodesk, Inc."
 90
     1025
 91
        1
280
     0
281
     0
  0
CLASS
  1
AMDTEDGESTANDARDDIN
  2
AmdtEdgeStdDIN
  3
"Amdt_StdImp|Product Description: AutoCAD Mechanical|Company: Autodesk, Inc."
 90
     1024
 91
        0
280
     0
281
     0
  0
CLASS
  1
ACMSURFSTANDARDDIN
  2
AcmSurfTextStdDIN
  3
"Amdt_StdImp|Product Description: AutoCAD Mechanical|Company: Autodesk, Inc."
 90
     1024
 91
        0
280
     0
281
     0
  0
CLASS
  1
ACMFCFSTANDARDDIN
  2
AcmFCFStdDIN
  3
"Amdt_StdImp|Product Description: AutoCAD Mechanical|Company: Autodesk, Inc."
 90
     1024
 91
        1
280
     0
281
     0
  0
CLASS
  1
ACMWELDSTANDARDDIN
  2
AcmWeldingStdDIN
  3
"Amdt_StdImp|Product Description: AutoCAD Mechanical|Company: Autodesk, Inc."
 90
     1024
 91
        1
280
     0
281
     0
  0
CLASS
  1
ACMIDSTANDARDDIN
  2
AcmIdStdDIN
  3
"Amdt_StdImp|Product Description: AutoCAD Mechanical|Company: Autodesk, Inc."
 90
     1024
 91
        1
280
     0
281
     0
  0
CLASS
  1
ACMDATUMSTANDARDDIN
  2
AcmDatumStdDIN
  3
"Amdt_StdImp|Product Description: AutoCAD Mechanical|Company: Autodesk, Inc."
 90
     1024
 91
        1
280
     0
281
     0
  0
CLASS
  1
ACMBOMSTANDARDDIN
  2
AcmBOMStdDIN
  3
"Amdt_StdImp|Product Description: AutoCAD Mechanical|Company: Autodesk, Inc."
 90
     1024
 91
        1
280
     0
281
     0
  0
CLASS
  1
ACMDETAILSTANDARDDIN
  2
AmdtDetailSymStdDIN
  3
"Amdt_StdImp|Product Description: AutoCAD Mechanical|Company: Autodesk, Inc."
 90
     1024
 91
        1
280
     0
281
     0
  0
CLASS
  1
ACMSECTIONSTANDARDDIN
  2
AmdtSectionSymStdDIN
  3
"Amdt_StdImp|Product Description: AutoCAD Mechanical|Company: Autodesk, Inc."
 90
     1024
 91
        1
280
     0
281
     0
  0
CLASS
  1
ACMCENTERLINESTANDARDDIN
  2
AmdtCenterLineStdDIN
  3
"Amdt_StdImp|Product Description: AutoCAD Mechanical|Company: Autodesk, Inc."
 90
     1024
 91
        1
280
     0
281
     0
  0
CLASS
  1
ACMNOTESTANDARDDIN
  2
AmdtNoteStdDIN
  3
"Amdt_StdImp|Product Description: AutoCAD Mechanical|Company: Autodesk, Inc."
 90
     1024
 91
        1
280
     0
281
     0
  0
CLASS
  1
ACAMGLAYSTD
  2
AcAmgLayStd
  3
"AmgLay|Product Description: AutoCAD Mechanical|Company: Autodesk, Inc."
 90
     1024
 91
        1
280
     0
281
     0
  0
CLASS
  1
ACAMGDIMSTD
  2
AcAmgDimStd
  3
"AmgDim|Product Description: AutoCAD Mechanical|Company: Autodesk, Inc."
 90
     1024
 91
        1
280
     0
281
     0
  0
CLASS
  1
ACAMGHOLECHARTSTDDIN
  2
AcAmgHoleChartStdDIN
  3
AmgDim|Product Description: AutoCAD Mechanical|Company: Autodesk, Inc.
 90
     1024
 91
        1
280
     0
281
     0
  0
CLASS
  1
ACAMGTITLESTD
  2
AcAmgTitleStd
  3
"AmgTitle|Product Description: AutoCAD Mechanical|Company: Autodesk, Inc."
 90
     4095
 91
        1
280
     0
281
     0
  0
CLASS
  1
ACMSTANDARDANSI
  2
AcmStandardANSI
  3
"Amdt_StdImp|Product Description: AutoCAD Mechanical|Company: Autodesk, Inc."
 90
     1024
 91
        0
280
     0
281
     0
  0
CLASS
  1
ACMSURFSTANDARDANSI
  2
AcmSurfTextStdANSI
  3
"Amdt_StdImp|Product Description: AutoCAD Mechanical|Company: Autodesk, Inc."
 90
     1024
 91
        0
280
     0
281
     0
  0
CLASS
  1
ACMFCFSTANDARDANSI
  2
AcmFCFStdANSI
  3
"Amdt_StdImp|Product Description: AutoCAD Mechanical|Company: Autodesk, Inc."
 90
     1024
 91
        0
280
     0
281
     0
  0
CLASS
  1
ACMWELDSTANDARDANSI
  2
AcmWeldingStdANSI
  3
"Amdt_StdImp|Product Description: AutoCAD Mechanical|Company: Autodesk, Inc."
 90
     1024
 91
        0
280
     0
281
     0
  0
CLASS
  1
ACMIDSTANDARDANSI
  2
AcmIdStdANSI
  3
"Amdt_StdImp|Product Description: AutoCAD Mechanical|Company: Autodesk, Inc."
 90
     1024
 91
        0
280
     0
281
     0
  0
CLASS
  1
ACMDATUMSTANDARDANSI
  2
AcmDatumStdANSI
  3
"Amdt_StdImp|Product Description: AutoCAD Mechanical|Company: Autodesk, Inc."
 90
     1024
 91
        0
280
     0
281
     0
  0
CLASS
  1
ACMBOMSTANDARDANSI
  2
AcmBOMStdANSI
  3
"Amdt_StdImp|Product Description: AutoCAD Mechanical|Company: Autodesk, Inc."
 90
     1024
 91
        0
280
     0
281
     0
  0
CLASS
  1
ACMDETAILSTANDARDANSI
  2
AmdtDetailSymStdANSI
  3
"Amdt_StdImp|Product Description: AutoCAD Mechanical|Company: Autodesk, Inc."
 90
     1024
 91
        0
280
     0
281
     0
  0
CLASS
  1
ACMSECTIONSTANDARDANSI
  2
AmdtSectionSymStdANSI
  3
"Amdt_StdImp|Product Description: AutoCAD Mechanical|Company: Autodesk, Inc."
 90
     1024
 91
        0
280
     0
281
     0
  0
CLASS
  1
ACMCENTERLINESTANDARDANSI
  2
AmdtCenterLineStdANSI
  3
"Amdt_StdImp|Product Description: AutoCAD Mechanical|Company: Autodesk, Inc."
 90
     1024
 91
        0
280
     0
281
     0
  0
CLASS
  1
ACMNOTESTANDARDANSI
  2
AmdtNoteStdANSI
  3
"Amdt_StdImp|Product Description: AutoCAD Mechanical|Company: Autodesk, Inc."
 90
     1024
 91
        0
280
     0
281
     0
  0
CLASS
  1
ACAMGHOLECHARTSTDANSI
  2
AcAmgHoleChartStdANSI
  3
AmgDim|Product Description: AutoCAD Mechanical|Company: Autodesk, Inc.
 90
     1024
 91
        0
280
     0
281
     0
  0
CLASS
  1
ACAMGFILTERDAT
  2
AcAmgFilterDat
  3
"AcadM|Product Description: AutoCAD Mechanical|Company: Autodesk, Inc."
 90
     1024
 91
        0
280
     0
281
     0
  0
CLASS
  1
AMDTFORMULAUPDATEDISPATCHER
  2
AmdtFormulaUpdateDispatcher
  3
AcMeServices
 90
     1024
 91
        0
280
     0
281
     0
  0
CLASS
  1
LAYER_INDEX
  2
AcDbLayerIndex
  3
ObjectDBX Classes
 90
        0
 91
        0
280
     0
281
     0
  0
CLASS
  1
IDBUFFER
  2
AcDbIdBuffer
  3
ObjectDBX Classes
 90
        0
 91
        0
280
     0
281
     0
  0
CLASS
  1
DICTIONARYVAR
  2
AcDbDictionaryVar
  3
ObjectDBX Classes
 90
        0
 91
       11
280
     0
281
     0
  0
CLASS
  1
DIMASSOC
  2
AcDbDimAssoc
  3
"AcDbDimAssoc|Product Desc:     AcDim ARX App For Dimension|Company:          Autodesk, Inc.|WEB Address:      www.autodesk.com"
 90
        0
 91
        0
280
     0
281
     0
  0
CLASS
  1
ACMSTANDARDISO
  2
AcmStandardISO
  3
"Amdt_StdImp|Product Description: AutoCAD Mechanical|Company: Autodesk, Inc."
 90
     1024
 91
        0
280
     0
281
     0
  0
CLASS
  1
AMDTEDGESTANDARDISO
  2
AmdtEdgeStdISO
  3
"Amdt_StdImp|Product Description: AutoCAD Mechanical|Company: Autodesk, Inc."
 90
     1024
 91
        0
280
     0
281
     0
  0
CLASS
  1
ACMSURFSTANDARDISO
  2
AcmSurfTextStdISO
  3
"Amdt_StdImp|Product Description: AutoCAD Mechanical|Company: Autodesk, Inc."
 90
     1024
 91
        0
280
     0
281
     0
  0
CLASS
  1
ACMFCFSTANDARDISO
  2
AcmFCFStdISO
  3
"Amdt_StdImp|Product Description: AutoCAD Mechanical|Company: Autodesk, Inc."
 90
     1024
 91
        0
280
     0
281
     0
  0
CLASS
  1
ACMWELDSTANDARDISO
  2
AcmWeldingStdISO
  3
"Amdt_StdImp|Product Description: AutoCAD Mechanical|Company: Autodesk, Inc."
 90
     1024
 91
        0
280
     0
281
     0
  0
CLASS
  1
ACMIDSTANDARDISO
  2
AcmIdStdISO
  3
"Amdt_StdImp|Product Description: AutoCAD Mechanical|Company: Autodesk, Inc."
 90
     1024
 91
        0
280
     0
281
     0
  0
CLASS
  1
ACMDATUMSTANDARDISO
  2
AcmDatumStdISO
  3
"Amdt_StdImp|Product Description: AutoCAD Mechanical|Company: Autodesk, Inc."
 90
     1024
 91
        0
280
     0
281
     0
  0
CLASS
  1
ACMBOMSTANDARDISO
  2
AcmBOMStdISO
  3
"Amdt_StdImp|Product Description: AutoCAD Mechanical|Company: Autodesk, Inc."
 90
     1024
 91
        0
280
     0
281
     0
  0
CLASS
  1
ACMDETAILSTANDARDISO
  2
AmdtDetailSymStdISO
  3
"Amdt_StdImp|Product Description: AutoCAD Mechanical|Company: Autodesk, Inc."
 90
     1024
 91
        0
280
     0
281
     0
  0
CLASS
  1
ACMSECTIONSTANDARDISO
  2
AmdtSectionSymStdISO
  3
"Amdt_StdImp|Product Description: AutoCAD Mechanical|Company: Autodesk, Inc."
 90
     1024
 91
        0
280
     0
281
     0
  0
CLASS
  1
ACMCENTERLINESTANDARDISO
  2
AmdtCenterLineStdISO
  3
"Amdt_StdImp|Product Description: AutoCAD Mechanical|Company: Autodesk, Inc."
 90
     1024
 91
        0
280
     0
281
     0
  0
CLASS
  1
ACMNOTESTANDARDISO
  2
AmdtNoteStdISO
  3
"Amdt_StdImp|Product Description: AutoCAD Mechanical|Company: Autodesk, Inc."
 90
     1024
 91
        0
280
     0
281
     0
  0
CLASS
  1
ACAMGHOLECHARTSTDISO
  2
AcAmgHoleChartStdISO
  3
AmgDim|Product Description: AutoCAD Mechanical|Company: Autodesk, Inc.
 90
     1024
 91
        0
280
     0
281
     0
  0
CLASS
  1
TABLESTYLE
  2
AcDbTableStyle
  3
ObjectDBX Classes
 90
     4095
 91
        1
280
     0
281
     0
  0
CLASS
  1
AM_DRAWING_MGR
  2
AcDmDwgMgr
  3
AcMechDwgViewMgmt
 90
     1024
 91
        1
280
     0
281
     0
  0
CLASS
  1
AM_DWG_DOCUMENT
  2
AcDmDwgDocument
  3
AcMechDwgViewMgmt
 90
     1024
 91
        1
280
     0
281
     0
  0
CLASS
  1
AM_DWG_SHEET
  2
AcDmSheet
  3
AcMechDwgViewMgmt
 90
     1024
 91
        2
280
     0
281
     0
  0
CLASS
  1
AM_VIEWDIMPARMAP
  2
AcDmViewDimParMap
  3
AcMechDwgViewMgmt
 90
     1024
 91
        2
280
     0
281
     0
  0
CLASS
  1
AM_DWGMGR_NAME
  2
AcDmDwgMgrName
  3
AcMechDwgViewMgmt
 90
     1024
 91
        1
280
     0
281
     0
  0
CLASS
  1
AMDTMENUSTATEMGR
  2
AmdtMenuStateMgr
  3
McadcomServices
 90
     1024
 91
        1
280
     0
281
     0
  0
CLASS
  1
AMDTMCOMMENUSTATE
  2
AmdtMcomMenuState
  3
McadcomServices
 90
     1024
 91
        1
280
     0
281
     0
  0
CLASS
  1
MAPIAMMOUDLE
  2
MApiAmModule
  3
MApiAmServices
 90
     1024
 91
        1
280
     0
281
     0
  0
CLASS
  1
AMDTADMENUSTATE
  2
AmdtAdMenuState
  3
DesignerServices
 90
     1024
 91
        1
280
     0
281
     0
  0
CLASS
  1
ADAPPL
  2
AcAdAppl
  3
DesignerServices
 90
     1024
 91
        1
280
     0
281
     0
  0
CLASS
  1
DEPMGR
  2
AcAdDepMgr
  3
DesignerServices
 90
     1024
 91
        1
280
     0
281
     0
  0
CLASS
  1
PARAMMGR
  2
AcAdParamMgr
  3
DesignerServices
 90
     1024
 91
        1
280
     0
281
     0
  0
CLASS
  1
PARAMSCOPE
  2
AcAdParamScope
  3
DesignerServices
 90
     1024
 91
        1
280
     0
281
     0
  0
CLASS
  1
NAMEDAPPL
  2
AcAdNamedAppl
  3
DesignerServices
 90
     1024
 91
        1
280
     0
281
     0
  0
CLASS
  1
AMDTDMMENUSTATE
  2
AmdtDmMenuState
  3
AcMechDwgViewMgmt
 90
     1024
 91
        1
280
     0
281
     0
  0
CLASS
  1
AMDTAMMENUSTATE
  2
AmdtAmMenuState
  3
DesignerAssemblies
 90
     1024
 91
        1
280
     0
281
     0
  0
CLASS
  1
ACAMPROJECT
  2
AcAmProject
  3
DesignerAssemblies
 90
     1024
 91
        1
280
     0
281
     0
  0
CLASS
  1
ACAMGRCOMPDEF
  2
AcAmGrCompDef
  3
DesignerAssemblies
 90
     1024
 91
        1
280
     0
281
     0
  0
CLASS
  1
ACCMCONTEXT
  2
AcCmContext
  3
DesignerAssemblies
 90
     1024
 91
        1
280
     0
281
     0
  0
CLASS
  1
ACAMCOMPDEF
  2
AcAmCompDef
  3
DesignerAssemblies
 90
     1024
 91
        1
280
     0
281
     0
  0
CLASS
  1
ACAMCOMPDEFMGR
  2
AcAmCompDefMgr
  3
DesignerAssemblies
 90
     1024
 91
        1
280
     0
281
     0
  0
CLASS
  1
AMCONTEXTMGR
  2
AcAmContextMgr
  3
DesignerAssemblies
 90
     1024
 91
        1
280
     0
281
     0
  0
CLASS
  1
ACAMCONTEXTMODELER
  2
AcAmContextModeler
  3
DesignerAssemblies
 90
     1024
 91
        1
280
     0
281
     0
  0
CLASS
  1
ACMTHREADLINESTANDARDDIN
  2
AmdtThreadLineStdDIN
  3
"Amdt_StdImp|Product Description: AutoCAD Mechanical|Company: Autodesk, Inc."
 90
     1024
 91
        1
280
     0
281
     0
  0
CLASS
  1
ACMTHREADLINESTANDARDANSI
  2
AmdtThreadLineStdANSI
  3
"Amdt_StdImp|Product Description: AutoCAD Mechanical|Company: Autodesk, Inc."
 90
     1024
 91
        0
280
     0
281
     0
  0
CLASS
  1
ACMTHREADLINESTANDARDISO
  2
AmdtThreadLineStdISO
  3
"Amdt_StdImp|Product Description: AutoCAD Mechanical|Company: Autodesk, Inc."
 90
     1024
 91
        0
280
     0
281
     0
  0
CLASS
  1
CATALOGSTATE
  2
AcAmCatalogState
  3
DesignerAssemblies
 90
     1024
 91
        1
280
     0
281
     0
  0
CLASS
  1
ACAMGRCOMPDEFSET
  2
AcAmGrCompDefSet
  3
DesignerAssemblies
 90
     1024
 91
        1
280
     0
281
     0
  0
CLASS
  1
AMDTBROWSERDBTAB
  2
AmdtBrowserDbTab
  3
McadcomServices
 90
     1024
 91
        1
280
     0
281
     0
  0
CLASS
  1
CBROWSERAPPOBJECT
  2
CBrowserAppObject
  3
McadcomServices
 90
     1024
 91
        3
280
     0
281
     0
  0
CLASS
  1
DM_PLACEHOLDER
  2
AcDmSelsetPlaceholder
  3
AcMechDwgViewMgmt
 90
     1024
 91
        1
280
     0
281
     0
  0
CLASS
  1
MATERIAL
  2
AcDbMaterial
  3
ObjectDBX Classes
 90
     1153
 91
        3
280
     0
281
     0
  0
CLASS
  1
VISUALSTYLE
  2
AcDbVisualStyle
  3
ObjectDBX Classes
 90
     4095
 91
       16
280
     0
281
     0
  0
CLASS
  1
SCALE
  2
AcDbScale
  3
ObjectDBX Classes
 90
     1153
 91
       17
280
     0
281
     0
  0
CLASS
  1
MLEADERSTYLE
  2
AcDbMLeaderStyle
  3
ACDB_MLEADERSTYLE_CLASS
 90
     4095
 91
        1
280
     0
281
     0
  0
CLASS
  1
ACRFATTGENMGR
  2
AcRfAttGeneralMgr
  3
AcAttribServices
 90
     1024
 91
        0
280
     0
281
     0
  0
CLASS
  1
ACRFOBJATTMGR
  2
AcRfObjAttGroupMgr
  3
AcAttribServices
 90
     1024
 91
        0
280
     0
281
     0
  0
CLASS
  1
ACRFMCADAPIATTHOLDER
  2
AcRfMCADAPIAttHolder
  3
AcAttribServices
 90
     1024
 91
        0
280
     0
281
     0
  0
CLASS
  1
AMDTSYSATTR
  2
AmdtSystemAttribute
  3
AcAttribServices
 90
     1024
 91
        0
280
     0
281
     0
  0
CLASS
  1
ACMTAPERSTANDARDDIN
  2
AcmTaperStdDIN
  3
"Amdt_StdImp|Product Description: AutoCAD Mechanical|Company: Autodesk, Inc."
 90
     1024
 91
        1
280
     0
281
     0
  0
CLASS
  1
ACMANOOTATIONVIEWSTANDARDDIN
  2
AmdtAnViewStdDIN
  3
"Amdt_StdImp|Product Description: AutoCAD Mechanical|Company: Autodesk, Inc."
 90
     1024
 91
        1
280
     0
281
     0
  0
CLASS
  1
ACMTAPERSTANDARDANSI
  2
AcmTaperStdANSI
  3
"Amdt_StdImp|Product Description: AutoCAD Mechanical|Company: Autodesk, Inc."
 90
     1024
 91
        0
280
     0
281
     0
  0
CLASS
  1
ACMANOOTATIONVIEWSTANDARDANSI
  2
AmdtAnViewStdANSI
  3
"Amdt_StdImp|Product Description: AutoCAD Mechanical|Company: Autodesk, Inc."
 90
     1024
 91
        0
280
     0
281
     0
  0
CLASS
  1
ACMTAPERSTANDARDISO
  2
AcmTaperStdISO
  3
"Amdt_StdImp|Product Description: AutoCAD Mechanical|Company: Autodesk, Inc."
 90
     1024
 91
        0
280
     0
281
     0
  0
CLASS
  1
ACMANOOTATIONVIEWSTANDARDISO
  2
AmdtAnViewStdISO
  3
"Amdt_StdImp|Product Description: AutoCAD Mechanical|Company: Autodesk, Inc."
 90
     1024
 91
        0
280
     0
281
     0
  0
CLASS
  1
CAMSSTRUCTBTNSTATE
  2
StructBtnState
  3
DesignerAssemblies
 90
     1024
 91
        1
280
     0
281
     0
  0
CLASS
  1
CELLSTYLEMAP
  2
AcDbCellStyleMap
  3
ObjectDBX Classes
 90
     1152
 91
        3
280
     0
281
     0
  0
CLASS
  1
SORTENTSTABLE
  2
AcDbSortentsTable
  3
ObjectDBX Classes
 90
        0
 91
        1
280
     0
281
     0
  0
CLASS
  1
AMDTEDGESTANDARDDIN13715
  2
AmdtEdgeStdDIN13715
  3
"Amdt_StdImp|Product Description: AutoCAD Mechanical|Company: Autodesk, Inc."
 90
     1024
 91
        1
280
     0
281
     0
  0
CLASS
  1
ACMSURFSTANDARDDIN2002
  2
AcmSurfTextStdDIN2002
  3
"Amdt_StdImp|Product Description: AutoCAD Mechanical|Company: Autodesk, Inc."
 90
     1024
 91
        1
280
     0
281
     0
  0
CLASS
  1
AMDTNOTETEMPLATEDB
  2
AmdtNoteTemplateDB
  3
AcmSymBB|Product Description: AutoCAD Mechanical|Company: Autodesk, Inc.
 90
     1024
 91
        6
280
     0
281
     0
  0
ENDSEC
  0
SECTION
  2
TABLES
  0
TABLE
  2
VPORT
  5
8
102
{ACAD_XDICTIONARY
360
EA25
102
}
330
0
100
AcDbSymbolTable
 70
     1
  0
VPORT
  5
2F0A
330
8
100
AcDbSymbolTableRecord
100
AcDbViewportTableRecord
  2
*Active
 70
     0
 10
0.0
 20
0.0
 11
1.0
 21
1.0
 12
194.1779166400437
 22
126.4611912832869
 13
0.0
 23
0.0
 14
2.5
 24
2.5
 15
10.0
 25
10.0
 16
0.0
 26
0.0
 36
1.0
 17
0.0
 27
0.0
 37
0.0
 40
345.122016059119
 41
1.784158415841584
 42
50.0
 43
0.0
 44
0.0
 50
0.0
 51
0.0
 71
     0
 72
 10000
 73
     1
 74
     3
 75
     0
 76
     0
 77
     0
 78
     0
281
     0
 65
     1
110
0.0
120
0.0
130
0.0
111
1.0
121
0.0
131
0.0
112
0.0
122
1.0
132
0.0
 79
     0
146
0.0
  0
ENDTAB
  0
TABLE
  2
LTYPE
  5
5
330
0
100
AcDbSymbolTable
 70
    15
  0
LTYPE
  5
14
330
5
100
AcDbSymbolTableRecord
100
AcDbLinetypeTableRecord
  2
ByBlock
 70
     0
  3

 72
    65
 73
     0
 40
0.0
  0
LTYPE
  5
15
330
5
100
AcDbSymbolTableRecord
100
AcDbLinetypeTableRecord
  2
ByLayer
 70
     0
  3

 72
    65
 73
     0
 40
0.0
  0
LTYPE
  5
16
330
5
100
AcDbSymbolTableRecord
100
AcDbLinetypeTableRecord
  2
Continuous
 70
     0
  3
Solid line
 72
    65
 73
     0
 40
0.0
  0
LTYPE
  5
50
330
5
100
AcDbSymbolTableRecord
100
AcDbLinetypeTableRecord
  2
Amconstr
 70
     0
  3
_______________________
 72
    65
 73
     2
 40
9999.0
 49
9999.0
 74
     0
 49
0.0
 74
     0
  0
LTYPE
  5
55
330
5
100
AcDbSymbolTableRecord
100
AcDbLinetypeTableRecord
  2
Amzigzag
 70
     0
  3
/\/-/\/-/\/-/\/-/\/-/\/
 72
    65
 73
     2
 40
11.0001
 49
0.0001
 74
     4
 75
   135
340
54
 46
0.04
 50
0.0
 44
0.0
 45
0.0
 49
-11.0
 74
     0
  0
LTYPE
  5
56
330
5
100
AcDbSymbolTableRecord
100
AcDbLinetypeTableRecord
  2
AM_DIN_F_W050
 70
     0
  3
__ __ __ __ __ __ __ __ __ __ __ __ __ __ __
 72
    65
 73
     2
 40
6.25
 49
4.75
 74
     0
 49
-1.5
 74
     0
  0
LTYPE
  5
57
330
5
100
AcDbSymbolTableRecord
100
AcDbLinetypeTableRecord
  2
AM_DIN_G_W050
 70
     0
  3
____ . ____ . ____ . ____ . ____ . ____ . ____
 72
    65
 73
     4
 40
13.75
 49
9.75
 74
     0
 49
-1.5
 74
     0
 49
1.0
 74
     0
 49
-1.5
 74
     0
  0
LTYPE
  5
58
330
5
100
AcDbSymbolTableRecord
100
AcDbLinetypeTableRecord
  2
AM_DIN_K_W050
 70
     0
  3
_____ . . _____ . . _____ . . ____ .. ____
 72
    65
 73
     6
 40
16.25
 49
9.75
 74
     0
 49
-1.5
 74
     0
 49
1.0
 74
     0
 49
-1.5
 74
     0
 49
1.0
 74
     0
 49
-1.5
 74
     0
  0
LTYPE
  5
59
330
5
100
AcDbSymbolTableRecord
100
AcDbLinetypeTableRecord
  2
AM_DIN_G_W050x2
 70
     0
  3
__ . __ . __ . __ . __ . __
 72
    65
 73
     4
 40
6.875
 49
4.75
 74
     0
 49
-0.875
 74
     0
 49
0.375
 74
     0
 49
-0.875
 74
     0
  0
LTYPE
  5
5A
330
5
100
AcDbSymbolTableRecord
100
AcDbLinetypeTableRecord
  2
AM_DIN_F_W050x2
 70
     0
  3
 _ _ _ _ _ _ _ _ _ _ _ _
 72
    65
 73
     2
 40
3.125
 49
2.25
 74
     0
 49
-0.875
 74
     0
  0
LTYPE
  5
68
330
5
100
AcDbSymbolTableRecord
100
AcDbLinetypeTableRecord
  2
ACDINWELD
 70
     0
  3
_ _ _ _ _
 72
    65
 73
     2
 40
2.0
 49
2.0
 74
     0
 49
-1.0
 74
     0
  0
LTYPE
  5
69
330
5
100
AcDbSymbolTableRecord
100
AcDbLinetypeTableRecord
  2
ACDINTGB
 70
     0
  3
__ . . __ . .
 72
    65
 73
     6
 40
9.0
 49
4.0
 74
     0
 49
-1.0
 74
     0
 49
1.0
 74
     0
 49
-1.0
 74
     0
 49
1.0
 74
     0
 49
-1.0
 74
     0
  0
LTYPE
  5
6A
330
5
100
AcDbSymbolTableRecord
100
AcDbLinetypeTableRecord
  2
ACDINTGL
 70
     0
  3
_ _ _ _ _
 72
    65
 73
     2
 40
3.0
 49
2.0
 74
     0
 49
-1.0
 74
     0
  0
LTYPE
  5
6C
330
5
100
AcDbSymbolTableRecord
100
AcDbLinetypeTableRecord
  2
CENTER
 70
     0
  3
__ . __
 72
    65
 73
     4
 40
7.0
 49
4.0
 74
     0
 49
-1.0
 74
     0
 49
1.0
 74
     0
 49
-1.0
 74
     0
  0
LTYPE
  5
AFA
330
5
100
AcDbSymbolTableRecord
100
AcDbLinetypeTableRecord
  2
PHANTOM2
 70
     0
  3
Phantom (.5x) ___ _ _ ___ _ _ ___ _ _ ___ _ _
 72
    65
 73
     6
 40
1.25
 49
0.625
 74
     0
 49
-0.125
 74
     0
 49
0.125
 74
     0
 49
-0.125
 74
     0
 49
0.125
 74
     0
 49
-0.125
 74
     0
  0
LTYPE
  5
AFD
330
5
100
AcDbSymbolTableRecord
100
AcDbLinetypeTableRecord
  2
DASHED
 70
     0
  3
__ __ __ __ __ __ __ __ __ __ __ __ __ __ __ __
 72
    65
 73
     2
 40
19.05
 49
12.7
 74
     0
 49
-6.349999999999998
 74
     0
  0
LTYPE
  5
2E96
330
5
100
AcDbSymbolTableRecord
100
AcDbLinetypeTableRecord
  2
HIDDEN
 70
     0
  3
Verdeckt
 72
    65
 73
     2
 40
9.525
 49
6.349999999999999
 74
     0
 49
-3.174999999999999
 74
     0
  0
ENDTAB
  0
TABLE
  2
LAYER
  5
2
330
0
100
AcDbSymbolTable
 70
    11
  0
LAYER
  5
10
102
{ACAD_XDICTIONARY
360
2F6F
102
}
330
2
100
AcDbSymbolTableRecord
100
AcDbLayerTableRecord
  2
0
 70
     0
 62
     7
  6
Continuous
370
    -3
390
F
  0
LAYER
  5
263
330
2
100
AcDbSymbolTableRecord
100
AcDbLayerTableRecord
  2
Defpoints
 70
     0
 62
     7
  6
Continuous
290
     0
370
    -3
390
F
  0
LAYER
  5
AFE
102
{ACAD_XDICTIONARY
360
2F71
102
}
330
2
100
AcDbSymbolTableRecord
100
AcDbLayerTableRecord
  2
1
 70
     0
 62
     4
  6
Continuous
370
    -3
390
F
  0
LAYER
  5
AFF
102
{ACAD_XDICTIONARY
360
2F73
102
}
330
2
100
AcDbSymbolTableRecord
100
AcDbLayerTableRecord
  2
2
 70
     0
 62
     7
  6
Continuous
370
    -3
390
F
  0
LAYER
  5
B00
102
{ACAD_XDICTIONARY
360
2F75
102
}
330
2
100
AcDbSymbolTableRecord
100
AcDbLayerTableRecord
  2
4
 70
     0
 62
     2
  6
CENTER
370
    -3
390
F
  0
LAYER
  5
B01
102
{ACAD_XDICTIONARY
360
2F77
102
}
330
2
100
AcDbSymbolTableRecord
100
AcDbLayerTableRecord
  2
6
 70
     0
 62
     5
  6
Continuous
370
    -3
390
F
  0
LAYER
  5
B02
102
{ACAD_XDICTIONARY
360
2F79
102
}
330
2
100
AcDbSymbolTableRecord
100
AcDbLayerTableRecord
  2
SK1
 70
     0
 62
     4
  6
Continuous
370
    -3
390
F
  0
LAYER
  5
B03
102
{ACAD_XDICTIONARY
360
2F7B
102
}
330
2
100
AcDbSymbolTableRecord
100
AcDbLayerTableRecord
  2
SK2
 70
     0
 62
     7
  6
Continuous
370
    -3
390
F
  0
LAYER
  5
B04
102
{ACAD_XDICTIONARY
360
2F7D
102
}
330
2
100
AcDbSymbolTableRecord
100
AcDbLayerTableRecord
  2
SK3
 70
     0
 62
     1
  6
DASHED
370
    -3
390
F
  0
LAYER
  5
B06
102
{ACAD_XDICTIONARY
360
2F7F
102
}
330
2
100
AcDbSymbolTableRecord
100
AcDbLayerTableRecord
  2
CUT
 70
     0
 62
     1
  6
Continuous
370
    -3
390
F
  0
LAYER
  5
B07
102
{ACAD_XDICTIONARY
360
2F81
102
}
330
2
100
AcDbSymbolTableRecord
100
AcDbLayerTableRecord
  2
NOCUT
 70
     0
 62
     7
  6
Continuous
370
    -3
390
F
  0
ENDTAB
  0
TABLE
  2
STYLE
  5
3
330
0
100
AcDbSymbolTable
 70
     3
  0
STYLE
  5
11
330
3
100
AcDbSymbolTableRecord
100
AcDbTextStyleTableRecord
  2
STANDARD
 70
     0
 40
0.0
 41
1.0
 50
0.0
 71
     0
 42
3.5
  3
ISOCP.SHX
  4

  0
STYLE
  5
54
330
3
100
AcDbSymbolTableRecord
100
AcDbTextStyleTableRecord
  2

 70
     1
 40
0.0
 41
1.0
 50
0.0
 71
     0
 42
2.5
  3
ltypeshp.shx
  4

  0
STYLE
  5
67
330
3
100
AcDbSymbolTableRecord
100
AcDbTextStyleTableRecord
  2
ACDINGDT
 70
     0
 40
0.0
 41
1.0
 50
0.0
 71
     0
 42
2.5
  3
amgdt.shx
  4

  0
ENDTAB
  0
TABLE
  2
VIEW
  5
6
330
0
100
AcDbSymbolTable
 70
     0
  0
ENDTAB
  0
TABLE
  2
UCS
  5
7
330
0
100
AcDbSymbolTable
 70
     0
  0
ENDTAB
  0
TABLE
  2
APPID
  5
9
330
0
100
AcDbSymbolTable
 70
    63
  0
APPID
  5
12
330
9
100
AcDbSymbolTableRecord
100
AcDbRegAppTableRecord
  2
ACAD
 70
     0
  0
APPID
  5
2C
330
9
100
AcDbSymbolTableRecord
100
AcDbRegAppTableRecord
  2
MCAD_NO_VIS
 70
     0
  0
APPID
  5
2D
330
9
100
AcDbSymbolTableRecord
100
AcDbRegAppTableRecord
  2
ACAD_TEMP_GRAPHIC
 70
     0
  0
APPID
  5
3E
330
9
100
AcDbSymbolTableRecord
100
AcDbRegAppTableRecord
  2
ACATTRIBSERVICES
 70
     0
  0
APPID
  5
29A
330
9
100
AcDbSymbolTableRecord
100
AcDbRegAppTableRecord
  2
GENIUS_GENDIMSH_14
 70
     0
  0
APPID
  5
551
330
9
100
AcDbSymbolTableRecord
100
AcDbRegAppTableRecord
  2
GENIUS12
 70
     0
  0
APPID
  5
552
330
9
100
AcDbSymbolTableRecord
100
AcDbRegAppTableRecord
  2
GENIUS_GENOENT_13
 70
     0
  0
APPID
  5
553
330
9
100
AcDbSymbolTableRecord
100
AcDbRegAppTableRecord
  2
GENIUS_GENODEF_13
 70
     0
  0
APPID
  5
554
330
9
100
AcDbSymbolTableRecord
100
AcDbRegAppTableRecord
  2
GENIUS_GENOBJ-N-RSBK_13
 70
     0
  0
APPID
  5
555
330
9
100
AcDbSymbolTableRecord
100
AcDbRegAppTableRecord
  2
GENIUS_GENOBJ-N-DIM12_13
 70
     0
  0
APPID
  5
556
330
9
100
AcDbSymbolTableRecord
100
AcDbRegAppTableRecord
  2
GENIUS_GENSCALE_13
 70
     0
  0
APPID
  5
557
330
9
100
AcDbSymbolTableRecord
100
AcDbRegAppTableRecord
  2
GENIUS_GENCFG_13
 70
     0
  0
APPID
  5
558
330
9
100
AcDbSymbolTableRecord
100
AcDbRegAppTableRecord
  2
GENIUS_GENCFG0_13
 70
     0
  0
APPID
  5
559
330
9
100
AcDbSymbolTableRecord
100
AcDbRegAppTableRecord
  2
GENIUS_GENCFG1_13
 70
     0
  0
APPID
  5
55A
330
9
100
AcDbSymbolTableRecord
100
AcDbRegAppTableRecord
  2
GENIUS_GENCFG2_13
 70
     0
  0
APPID
  5
55B
330
9
100
AcDbSymbolTableRecord
100
AcDbRegAppTableRecord
  2
GENIUS_GENCFG3_13
 70
     0
  0
APPID
  5
55C
330
9
100
AcDbSymbolTableRecord
100
AcDbRegAppTableRecord
  2
GENIUS_GENCFG4_13
 70
     0
  0
APPID
  5
55D
330
9
100
AcDbSymbolTableRecord
100
AcDbRegAppTableRecord
  2
GENIUS_GEVCFG0_13
 70
     0
  0
APPID
  5
55E
330
9
100
AcDbSymbolTableRecord
100
AcDbRegAppTableRecord
  2
GENIUS_GENOBJ-F-SUF_13
 70
     0
  0
APPID
  5
55F
330
9
100
AcDbSymbolTableRecord
100
AcDbRegAppTableRecord
  2
GENIUS_GEFCFG0_13
 70
     0
  0
APPID
  5
560
330
9
100
AcDbSymbolTableRecord
100
AcDbRegAppTableRecord
  2
GEV_VCCNULL_SWITCH_OFF
 70
     0
  0
APPID
  5
561
330
9
100
AcDbSymbolTableRecord
100
AcDbRegAppTableRecord
  2
GENIUS_GENDTOL_13
 70
     0
  0
APPID
  5
562
330
9
100
AcDbSymbolTableRecord
100
AcDbRegAppTableRecord
  2
GENIUS_GENDIM_13
 70
     0
  0
APPID
  5
563
330
9
100
AcDbSymbolTableRecord
100
AcDbRegAppTableRecord
  2
GENIUS_GE3DTOL_13
 70
     0
  0
APPID
  5
564
330
9
100
AcDbSymbolTableRecord
100
AcDbRegAppTableRecord
  2
AD_DRAW
 70
     0
  0
APPID
  5
565
330
9
100
AcDbSymbolTableRecord
100
AcDbRegAppTableRecord
  2
ASURF_PCURVE_APPNAME
 70
     0
  0
APPID
  5
566
330
9
100
AcDbSymbolTableRecord
100
AcDbRegAppTableRecord
  2
AMG_3D2D_5.0
 70
     0
  0
APPID
  5
567
330
9
100
AcDbSymbolTableRecord
100
AcDbRegAppTableRecord
  2
DESIGNERASSEMBLIES
 70
     0
  0
APPID
  5
568
330
9
100
AcDbSymbolTableRecord
100
AcDbRegAppTableRecord
  2
ACADM_DIM_EDIT
 70
     0
  0
APPID
  5
569
330
9
100
AcDbSymbolTableRecord
100
AcDbRegAppTableRecord
  2
AMDT_DM_ADJ
 70
     0
  0
APPID
  5
56A
330
9
100
AcDbSymbolTableRecord
100
AcDbRegAppTableRecord
  2
GENIUS_GENSCREG_15
 70
     0
  0
APPID
  5
56B
330
9
100
AcDbSymbolTableRecord
100
AcDbRegAppTableRecord
  2
GENIUS_GENOBJ-N-SDF_13
 70
     0
  0
APPID
  5
56C
330
9
100
AcDbSymbolTableRecord
100
AcDbRegAppTableRecord
  2
GENIUS_GENOBJ-N-FIL_13
 70
     0
  0
APPID
  5
56D
330
9
100
AcDbSymbolTableRecord
100
AcDbRegAppTableRecord
  2
GENIUS_GENHINW_13
 70
     0
  0
APPID
  5
56E
330
9
100
AcDbSymbolTableRecord
100
AcDbRegAppTableRecord
  2
GENIUS_GENOBJ-F-TOLL_13
 70
     0
  0
APPID
  5
56F
330
9
100
AcDbSymbolTableRecord
100
AcDbRegAppTableRecord
  2
GENIUS_GENOREF_13
 70
     0
  0
APPID
  5
570
330
9
100
AcDbSymbolTableRecord
100
AcDbRegAppTableRecord
  2
GENIUS_GENOLIS_13
 70
     0
  0
APPID
  5
571
330
9
100
AcDbSymbolTableRecord
100
AcDbRegAppTableRecord
  2
GENIUS_GEFTOLC_13
 70
     0
  0
APPID
  5
572
330
9
100
AcDbSymbolTableRecord
100
AcDbRegAppTableRecord
  2
GENIUS_GENOBJ-F-TOL_13
 70
     0
  0
APPID
  5
573
330
9
100
AcDbSymbolTableRecord
100
AcDbRegAppTableRecord
  2
GENIUS_GENOBJ-N-RSSYM_13
 70
     0
  0
APPID
  5
574
330
9
100
AcDbSymbolTableRecord
100
AcDbRegAppTableRecord
  2
GENIUS_GENSYMENT_13
 70
     0
  0
APPID
  5
575
330
9
100
AcDbSymbolTableRecord
100
AcDbRegAppTableRecord
  2
GENIUS_GENSCSYM_13
 70
     0
  0
APPID
  5
B11
330
9
100
AcDbSymbolTableRecord
100
AcDbRegAppTableRecord
  2
GENIUS_GENBLLY_14
 70
     0
  0
APPID
  5
B12
330
9
100
AcDbSymbolTableRecord
100
AcDbRegAppTableRecord
  2
GENIUS_GENTRA_14
 70
     0
  0
APPID
  5
B13
330
9
100
AcDbSymbolTableRecord
100
AcDbRegAppTableRecord
  2
GENIUS_GENOBJ-N-TIT_13
 70
     0
  0
APPID
  5
B14
330
9
100
AcDbSymbolTableRecord
100
AcDbRegAppTableRecord
  2
GENIUS_GENTITLE_13
 70
     0
  0
APPID
  5
B15
330
9
100
AcDbSymbolTableRecord
100
AcDbRegAppTableRecord
  2
ACADIGES
 70
     0
  0
APPID
  5
B16
330
9
100
AcDbSymbolTableRecord
100
AcDbRegAppTableRecord
  2
GENIUS_GENOBJ-N-HTC_13
 70
     0
  0
APPID
  5
B17
330
9
100
AcDbSymbolTableRecord
100
AcDbRegAppTableRecord
  2
GENIUS_GENHATCH_13
 70
     0
  0
APPID
  5
B18
330
9
100
AcDbSymbolTableRecord
100
AcDbRegAppTableRecord
  2
GENIUS_GENOBJ-N-CRS_13
 70
     0
  0
APPID
  5
B19
330
9
100
AcDbSymbolTableRecord
100
AcDbRegAppTableRecord
  2
GENIUS_GENFIL_13
 70
     0
  0
APPID
  5
B1A
330
9
100
AcDbSymbolTableRecord
100
AcDbRegAppTableRecord
  2
GENIUS_GENOBJ-N-CHA_13
 70
     0
  0
APPID
  5
B1B
330
9
100
AcDbSymbolTableRecord
100
AcDbRegAppTableRecord
  2
GENIUS_GENOBJ-N-CEN_13
 70
     0
  0
APPID
  5
1455
330
9
100
AcDbSymbolTableRecord
100
AcDbRegAppTableRecord
  2
AD_SKETCHDIM
 70
     0
  0
APPID
  5
2AA9
330
9
100
AcDbSymbolTableRecord
100
AcDbRegAppTableRecord
  2
AMG_3D2D_5_0
 70
     0
  0
APPID
  5
2EB7
330
9
100
AcDbSymbolTableRecord
100
AcDbRegAppTableRecord
  2
ACAD_DSTYLE_DIMARC_LENGTH_SYMBOL
 70
     0
  0
APPID
  5
2EB8
330
9
100
AcDbSymbolTableRecord
100
AcDbRegAppTableRecord
  2
ACAD_DSTYLE_DIMJOGGED_JOGANGLE_SYMBOL
 70
     0
  0
APPID
  5
2F49
330
9
100
AcDbSymbolTableRecord
100
AcDbRegAppTableRecord
  2
ACAD_MLEADERVER
 70
     0
  0
APPID
  5
35F0
330
9
100
AcDbSymbolTableRecord
100
AcDbRegAppTableRecord
  2
AcadAnnotative
 70
     0
  0
APPID
  5
8CBA
330
9
100
AcDbSymbolTableRecord
100
AcDbRegAppTableRecord
  2
AcAecLayerStandard
 70
     0
  0
APPID
  5
8CBB
330
9
100
AcDbSymbolTableRecord
100
AcDbRegAppTableRecord
  2
ACAD_EXEMPT_FROM_CAD_STANDARDS
 70
     0
  0
APPID
  5
8CBC
330
9
100
AcDbSymbolTableRecord
100
AcDbRegAppTableRecord
  2
ACAD_DSTYLE_DIMINSPECT
 70
     0
  0
APPID
  5
9072
330
9
100
AcDbSymbolTableRecord
100
AcDbRegAppTableRecord
  2
ACAD_DSTYLE_DIMANGULAR_EXTENSION
 70
     0
  0
ENDTAB
  0
TABLE
  2
DIMSTYLE
  5
A
330
0
100
AcDbSymbolTable
 70
    10
100
AcDbDimStyleTable
 71
     1
340
6F
  0
DIMSTYLE
105
6F
102
{ACAD_REACTORS
330
EA96
330
EB91
102
}
330
A
100
AcDbSymbolTableRecord
100
AcDbDimStyleTableRecord
  2
AM_DIN
 70
     0
  4
"
 41
2.5
 42
0.0
 43
10.0
 44
1.0
 47
0.1
 48
0.1
 73
     0
 74
     0
 77
     1
 78
     8
 79
     2
140
3.5
141
0.0
143
0.0393701
146
0.71
147
1.5
172
     1
176
   256
177
   256
178
     2
271
     2
272
     2
283
     0
284
     8
340
11
371
    -1
372
    -1
1001
ACAD_DSTYLE_DIMJOGGED_JOGANGLE_SYMBOL
1070
   384
1040
1.570796326794896
  0
DIMSTYLE
105
70
330
A
100
AcDbSymbolTableRecord
100
AcDbDimStyleTableRecord
  2
AM_DIN$3
 70
     0
  4
"
 41
3.5
 42
0.0
 43
10.0
 44
1.0
 47
0.1
 48
0.1
 73
     0
 77
     1
 78
     8
 79
     2
140
3.5
141
0.0
143
0.0393701
146
0.71
147
1.5
176
   256
177
   256
178
     2
271
     2
272
     2
283
     0
284
     8
288
     1
289
     0
340
11
371
    -1
372
    -1
1001
ACAD_DSTYLE_DIMJOGGED_JOGANGLE_SYMBOL
1070
   384
1040
1.570796326794896
  0
DIMSTYLE
105
71
330
A
100
AcDbSymbolTableRecord
100
AcDbDimStyleTableRecord
  2
AM_DIN$4
 70
     0
  4
"
 41
3.5
 42
0.0
 43
10.0
 44
1.0
 47
0.1
 48
0.1
 73
     0
 77
     1
 78
     8
 79
     2
140
3.5
141
0.0
143
0.0393701
146
0.71
147
1.5
176
   256
177
   256
178
     2
271
     2
272
     2
283
     0
284
     8
288
     1
289
     0
340
11
371
    -1
372
    -1
1001
ACAD_DSTYLE_DIMJOGGED_JOGANGLE_SYMBOL
1070
   384
1040
1.570796326794896
  0
DIMSTYLE
105
72
330
A
100
AcDbSymbolTableRecord
100
AcDbDimStyleTableRecord
  2
AM_DIN$6
 70
     0
  4
"
 41
3.5
 42
0.0
 43
0.0
 44
1.0
 47
0.1
 48
0.1
 73
     0
 74
     0
 78
     8
 79
     2
140
3.5
141
0.0
143
0.0393701
146
0.71
147
1.5
172
     1
176
   256
177
   256
178
     2
271
     2
272
     2
283
     0
284
     8
340
11
371
    -1
372
    -1
1001
ACAD_DSTYLE_DIMJOGGED_JOGANGLE_SYMBOL
1070
   384
1040
1.570796326794896
  0
DIMSTYLE
105
73
330
A
100
AcDbSymbolTableRecord
100
AcDbDimStyleTableRecord
  2
AM_DIN$7
 70
     0
  4
"
 41
3.5
 42
0.0
 43
10.0
 44
1.0
 47
0.1
 48
0.1
 73
     0
 74
     0
 77
     1
 78
     8
 79
     2
140
3.5
141
0.0
143
0.0393701
146
0.71
147
1.5
172
     1
176
   256
177
   256
178
     2
271
     2
272
     2
283
     0
284
     8
340
11
371
    -1
372
    -1
1001
ACAD_DSTYLE_DIMJOGGED_JOGANGLE_SYMBOL
1070
   384
1040
1.570796326794896
  0
DIMSTYLE
105
74
330
A
100
AcDbSymbolTableRecord
100
AcDbDimStyleTableRecord
  2
AM_DIN$SF
 70
     0
  4
"
 41
2.5
 42
1.0
 43
10.0
 44
1.0
 47
0.1
 48
0.1
 73
     0
 74
     0
 75
     1
 76
     1
 77
     1
 78
     8
 79
     2
140
3.5
141
0.0
143
0.0393701
146
0.71
147
1.5
172
     1
176
   256
177
   256
178
     2
271
     2
272
     3
274
     4
283
     0
284
     8
340
11
371
    -1
372
    -1
1001
ACAD_DSTYLE_DIMJOGGED_JOGANGLE_SYMBOL
1070
   384
1040
1.570796326794896
  0
DIMSTYLE
105
79
330
A
100
AcDbSymbolTableRecord
100
AcDbDimStyleTableRecord
  2
AM_DIN$SH
 70
     0
  4
"
 41
2.5
 42
1.0
 43
10.0
 44
1.0
 47
0.1
 48
0.1
 73
     0
 74
     0
 75
     1
 76
     1
 77
     1
 78
     8
 79
     2
140
3.5
141
0.0
143
0.0393701
144
2.0
146
0.71
147
1.5
172
     1
173
     1
176
   256
177
   256
178
     2
271
     2
272
     3
274
     4
283
     0
284
     8
340
11
343
75
371
    -1
372
    -1
1001
ACAD_DSTYLE_DIMJOGGED_JOGANGLE_SYMBOL
1070
   384
1040
1.570796326794896
  0
DIMSTYLE
105
B0A
330
A
100
AcDbSymbolTableRecord
100
AcDbDimStyleTableRecord
  2
STANDARD
 70
     0
271
     2
272
     2
279
     2
284
     8
285
     8
286
     8
340
11
  0
DIMSTYLE
105
8CB9
102
{ACAD_REACTORS
330
EBE7
330
EBEA
330
EBEB
330
ECB6
330
ED2F
102
}
330
A
100
AcDbSymbolTableRecord
100
AcDbDimStyleTableRecord
  2
AM_DIN$0
 70
     0
  4
"
 41
2.5
 42
0.0
 43
10.0
 44
1.0
 47
0.1
 48
0.1
 73
     0
 74
     0
 77
     1
 78
     8
140
3.5
141
0.0
143
0.0393701
146
0.71
147
1.5
172
     1
176
   256
177
   256
178
     2
271
     2
272
     2
279
     2
284
     8
285
     8
286
     8
340
11
  0
DIMSTYLE
105
9040
102
{ACAD_REACTORS
330
ECDF
102
}
330
A
100
AcDbSymbolTableRecord
100
AcDbDimStyleTableRecord
  2
AM_DIN$2
 70
     0
  4
"
 41
2.5
 42
0.0
 43
10.0
 44
1.0
 47
0.1
 48
0.1
 73
     0
 74
     0
 77
     1
 78
     8
 79
     2
140
3.5
141
0.0
143
0.0393701
146
0.71
147
1.5
172
     1
176
   256
177
   256
178
     2
271
     2
272
     2
283
     0
284
     8
340
11
371
    -1
372
    -1
1001
ACAD_DSTYLE_DIMJOGGED_JOGANGLE_SYMBOL
1070
   384
1040
1.570796326794896
  0
ENDTAB
  0
TABLE
  2
BLOCK_RECORD
  5
1
330
0
100
AcDbSymbolTable
 70
    10
  0
BLOCK_RECORD
  5
1F
102
{ACAD_XDICTIONARY
360
1F1
102
}
330
1
100
AcDbSymbolTableRecord
100
AcDbBlockTableRecord
  2
*Model_Space
340
22
  0
BLOCK_RECORD
  5
1B
330
1
100
AcDbSymbolTableRecord
100
AcDbBlockTableRecord
  2
*Paper_Space
340
1E
  0
BLOCK_RECORD
  5
23
330
1
100
AcDbSymbolTableRecord
100
AcDbBlockTableRecord
  2
*Paper_Space0
340
26
  0
BLOCK_RECORD
  5
75
330
1
100
AcDbSymbolTableRecord
100
AcDbBlockTableRecord
  2
GENAXEH
340
0
  0
BLOCK_RECORD
  5
EC11
330
1
100
AcDbSymbolTableRecord
100
AcDbBlockTableRecord
  2
*D3
340
0
  0
BLOCK_RECORD
  5
EC1D
330
1
100
AcDbSymbolTableRecord
100
AcDbBlockTableRecord
  2
*D4
340
0
  0
BLOCK_RECORD
  5
EC29
330
1
100
AcDbSymbolTableRecord
100
AcDbBlockTableRecord
  2
*D5
340
0
  0
BLOCK_RECORD
  5
EC35
330
1
100
AcDbSymbolTableRecord
100
AcDbBlockTableRecord
  2
*D6
340
0
  0
BLOCK_RECORD
  5
ECB7
330
1
100
AcDbSymbolTableRecord
100
AcDbBlockTableRecord
  2
*D7
340
0
  0
BLOCK_RECORD
  5
ECE0
330
1
100
AcDbSymbolTableRecord
100
AcDbBlockTableRecord
  2
*D8
340
0
  0
BLOCK_RECORD
  5
ED30
330
1
100
AcDbSymbolTableRecord
100
AcDbBlockTableRecord
  2
*D9
340
0
  0
ENDTAB
  0
ENDSEC
  0
SECTION
  2
BLOCKS
  0
BLOCK
  5
20
330
1F
100
AcDbEntity
  8
0
100
AcDbBlockBegin
  2
*Model_Space
 70
     0
 10
0.0
 20
0.0
 30
0.0
  3
*Model_Space
  1

  0
ENDBLK
  5
21
330
1F
100
AcDbEntity
  8
0
100
AcDbBlockEnd
  0
BLOCK
  5
1C
330
1B
100
AcDbEntity
 67
     1
  8
0
100
AcDbBlockBegin
  2
*Paper_Space
 70
     0
 10
0.0
 20
0.0
 30
0.0
  3
*Paper_Space
  1

  0
ENDBLK
  5
1D
330
1B
100
AcDbEntity
 67
     1
  8
0
100
AcDbBlockEnd
  0
BLOCK
  5
24
330
23
100
AcDbEntity
 67
     1
  8
0
100
AcDbBlockBegin
  2
*Paper_Space0
 70
     0
 10
0.0
 20
0.0
 30
0.0
  3
*Paper_Space0
  1

  0
ENDBLK
  5
25
330
23
100
AcDbEntity
 67
     1
  8
0
100
AcDbBlockEnd
  0
BLOCK
  5
77
330
75
100
AcDbEntity
  8
0
100
AcDbBlockBegin
  2
GENAXEH
 70
     0
 10
0.0
 20
0.0
 30
0.0
  3
GENAXEH
  1

  0
LINE
  5
76
330
75
100
AcDbEntity
  8
0
100
AcDbLine
 10
-1.0
 20
0.0
 30
0.0
 11
1.0
 21
0.0
 31
0.0
  0
ENDBLK
  5
78
330
75
100
AcDbEntity
  8
0
100
AcDbBlockEnd
  0
BLOCK
  5
EC12
330
EC11
100
AcDbEntity
  8
0
100
AcDbBlockBegin
  2
*D3
 70
     1
 10
0.0
 20
0.0
 30
0.0
  3
*D3
  1

  0
LINE
  5
EDB8
330
EC11
100
AcDbEntity
  8
SK2
100
AcDbLine
 10
-0.0000000000001705
 20
-13.49999999999986
 30
0.0
 11
-14.38609939715872
 21
-13.49999999999985
 31
0.0
  0
LINE
  5
EDB9
330
EC11
100
AcDbEntity
  8
SK2
100
AcDbLine
 10
-0.0000000000001705
 20
13.50000000000014
 30
0.0
 11
-14.38609939715871
 21
13.50000000000014
 31
0.0
  0
LINE
  5
EDBA
330
EC11
100
AcDbEntity
  8
SK2
100
AcDbLine
 10
-13.38609939715872
 20
-10.99999999999985
 30
0.0
 11
-13.38609939715872
 21
11.00000000000014
 31
0.0
  0
SOLID
  5
EDBB
330
EC11
100
AcDbEntity
  8
SK2
100
AcDbTrace
 10
-13.80276606382539
 20
-10.99999999999985
 30
0.0
 11
-12.96943273049205
 21
-10.99999999999985
 31
0.0
 12
-13.38609939715872
 22
-13.49999999999985
 32
0.0
 13
-13.38609939715872
 23
-13.49999999999985
 33
0.0
  0
SOLID
  5
EDBC
330
EC11
100
AcDbEntity
  8
SK2
100
AcDbTrace
 10
-13.80276606382538
 20
11.00000000000014
 30
0.0
 11
-12.96943273049205
 21
11.00000000000014
 31
0.0
 12
-13.38609939715871
 22
13.50000000000014
 32
0.0
 13
-13.38609939715871
 23
13.50000000000014
 33
0.0
  0
MTEXT
  5
EDBD
330
EC11
100
AcDbEntity
  8
SK2
 62
     2
100
AcDbMText
 10
-16.63644388534769
 20
0.0000000000001433
 30
0.0
 40
3.5
 41
0.0
 71
     5
 72
     1
  1
%%c27
 11
0.0000000000000001
 21
1.0
 31
0.0
 73
     1
 44
1.0
  0
POINT
  5
EDBE
330
EC11
100
AcDbEntity
  8
Defpoints
 62
     0
100
AcDbPoint
 10
-0.0000000000001705
 20
-13.49999999999986
 30
0.0
  0
POINT
  5
EDBF
330
EC11
100
AcDbEntity
  8
Defpoints
 62
     0
100
AcDbPoint
 10
-0.0000000000001705
 20
13.50000000000014
 30
0.0
  0
POINT
  5
EDC0
330
EC11
100
AcDbEntity
  8
Defpoints
 62
     0
100
AcDbPoint
 10
-13.38609939715871
 20
13.50000000000014
 30
0.0
  0
ENDBLK
  5
EC13
330
EC11
100
AcDbEntity
  8
0
100
AcDbBlockEnd
  0
BLOCK
  5
EC1E
330
EC1D
100
AcDbEntity
  8
0
100
AcDbBlockBegin
  2
*D4
 70
     1
 10
0.0
 20
0.0
 30
0.0
  3
*D4
  1

  0
LINE
  5
EDC1
330
EC1D
100
AcDbEntity
  8
2
370
    -2
100
AcDbLine
 10
49.99999999999977
 20
17.4999999999998
 30
0.0
 11
67.09601900593765
 21
17.4999999999998
 31
0.0
  0
LINE
  5
EDC2
330
EC1D
100
AcDbEntity
  8
2
370
    -2
100
AcDbLine
 10
49.9999999999996
 20
-17.5000000000002
 30
0.0
 11
67.09601900593765
 21
-17.5000000000002
 31
0.0
  0
LINE
  5
EDC3
330
EC1D
100
AcDbEntity
  8
2
370
    -2
100
AcDbLine
 10
66.09601900593765
 20
14.9999999999998
 30
0.0
 11
66.09601900593765
 21
-15.0000000000002
 31
0.0
  0
SOLID
  5
EDC4
330
EC1D
100
AcDbEntity
  8
2
100
AcDbTrace
 10
65.67935233927098
 20
14.9999999999998
 30
0.0
 11
66.51268567260432
 21
14.9999999999998
 31
0.0
 12
66.09601900593765
 22
17.4999999999998
 32
0.0
 13
66.09601900593765
 23
17.4999999999998
 33
0.0
  0
SOLID
  5
EDC5
330
EC1D
100
AcDbEntity
  8
2
100
AcDbTrace
 10
65.67935233927098
 20
-15.0000000000002
 30
0.0
 11
66.51268567260432
 21
-15.0000000000002
 31
0.0
 12
66.09601900593765
 22
-17.5000000000002
 32
0.0
 13
66.09601900593765
 23
-17.5000000000002
 33
0.0
  0
MTEXT
  5
EDC6
330
EC1D
100
AcDbEntity
  8
2
 62
     2
100
AcDbMText
 10
62.84601900593765
 20
-0.0000000000001919
 30
0.0
 40
3.5
 41
0.0
 71
     5
 72
     1
  1
\A1;%%c35
 11
0.0000000000000001
 21
1.0
 31
0.0
 73
     1
 44
1.0
  0
POINT
  5
EDC7
330
EC1D
100
AcDbEntity
  8
Defpoints
 62
     0
100
AcDbPoint
 10
49.99999999999977
 20
17.4999999999998
 30
0.0
  0
POINT
  5
EDC8
330
EC1D
100
AcDbEntity
  8
Defpoints
 62
     0
100
AcDbPoint
 10
49.9999999999996
 20
-17.5000000000002
 30
0.0
  0
POINT
  5
EDC9
330
EC1D
100
AcDbEntity
  8
Defpoints
 62
     0
100
AcDbPoint
 10
66.09601900593765
 20
-17.5000000000002
 30
0.0
  0
ENDBLK
  5
EC1F
330
EC1D
100
AcDbEntity
  8
0
100
AcDbBlockEnd
  0
BLOCK
  5
EC2A
330
EC29
100
AcDbEntity
  8
0
100
AcDbBlockBegin
  2
*D5
 70
     1
 10
0.0
 20
0.0
 30
0.0
  3
*D5
  1

  0
LINE
  5
EDCA
330
EC29
100
AcDbEntity
  8
SK2
370
    -2
100
AcDbLine
 10
2.999999999999772
 20
34.99999999999989
 30
0.0
 11
-27.80483419381254
 21
34.99999999999989
 31
0.0
  0
LINE
  5
EDCB
330
EC29
100
AcDbEntity
  8
SK2
370
    -2
100
AcDbLine
 10
2.999999999999772
 20
-35.00000000000017
 30
0.0
 11
-27.80483419381255
 21
-35.00000000000016
 31
0.0
  0
LINE
  5
EDCC
330
EC29
100
AcDbEntity
  8
SK2
370
    -2
100
AcDbLine
 10
-26.80483419381254
 20
32.49999999999989
 30
0.0
 11
-26.80483419381256
 21
-32.50000000000016
 31
0.0
  0
SOLID
  5
EDCD
330
EC29
100
AcDbEntity
  8
SK2
100
AcDbTrace
 10
-27.22150086047921
 20
32.49999999999989
 30
0.0
 11
-26.38816752714587
 21
32.49999999999989
 31
0.0
 12
-26.80483419381254
 22
34.99999999999989
 32
0.0
 13
-26.80483419381254
 23
34.99999999999989
 33
0.0
  0
SOLID
  5
EDCE
330
EC29
100
AcDbEntity
  8
SK2
100
AcDbTrace
 10
-27.22150086047922
 20
-32.50000000000016
 30
0.0
 11
-26.38816752714589
 21
-32.50000000000016
 31
0.0
 12
-26.80483419381256
 22
-35.00000000000016
 32
0.0
 13
-26.80483419381256
 23
-35.00000000000016
 33
0.0
  0
MTEXT
  5
EDCF
330
EC29
100
AcDbEntity
  8
SK2
 62
     2
100
AcDbMText
 10
-30.05483419381255
 20
-0.0000000000001401
 30
0.0
 40
3.5
 41
0.0
 71
     5
 72
     1
  1
\A1;%%c70
 11
0.0000000000000001
 21
1.0
 31
0.0
 73
     1
 44
1.0
  0
POINT
  5
EDD0
330
EC29
100
AcDbEntity
  8
Defpoints
 62
     0
100
AcDbPoint
 10
2.999999999999772
 20
34.99999999999989
 30
0.0
  0
POINT
  5
EDD1
330
EC29
100
AcDbEntity
  8
Defpoints
 62
     0
100
AcDbPoint
 10
2.999999999999772
 20
-35.00000000000017
 30
0.0
  0
POINT
  5
EDD2
330
EC29
100
AcDbEntity
  8
Defpoints
 62
     0
100
AcDbPoint
 10
-26.80483419381256
 20
-35.00000000000016
 30
0.0
  0
ENDBLK
  5
EC2B
330
EC29
100
AcDbEntity
  8
0
100
AcDbBlockEnd
  0
BLOCK
  5
EC36
330
EC35
100
AcDbEntity
  8
0
100
AcDbBlockBegin
  2
*D6
 70
     1
 10
0.0
 20
0.0
 30
0.0
  3
*D6
  1

  0
LINE
  5
EDD3
330
EC35
100
AcDbEntity
  8
2
370
    -2
100
AcDbLine
 10
49.99999999999977
 20
17.4999999999998
 30
0.0
 11
49.99999999999978
 21
90.99999999999988
 31
0.0
  0
LINE
  5
EDD4
330
EC35
100
AcDbEntity
  8
2
370
    -2
100
AcDbLine
 10
-0.0000000000002274
 20
31.99999999999989
 30
0.0
 11
-0.0000000000002238
 21
90.99999999999988
 31
0.0
  0
LINE
  5
EDD5
330
EC35
100
AcDbEntity
  8
2
370
    -2
100
AcDbLine
 10
47.49999999999977
 20
89.99999999999989
 30
0.0
 11
2.499999999999776
 21
89.99999999999989
 31
0.0
  0
SOLID
  5
EDD6
330
EC35
100
AcDbEntity
  8
2
100
AcDbTrace
 10
47.49999999999977
 20
90.41666666666655
 30
0.0
 11
47.49999999999977
 21
89.58333333333321
 31
0.0
 12
49.99999999999978
 22
89.99999999999989
 32
0.0
 13
49.99999999999978
 23
89.99999999999989
 33
0.0
  0
SOLID
  5
EDD7
330
EC35
100
AcDbEntity
  8
2
100
AcDbTrace
 10
2.499999999999776
 20
90.41666666666655
 30
0.0
 11
2.499999999999776
 21
89.58333333333321
 31
0.0
 12
-0.0000000000002238
 22
89.99999999999989
 32
0.0
 13
-0.0000000000002238
 23
89.99999999999989
 33
0.0
  0
MTEXT
  5
EDD8
330
EC35
100
AcDbEntity
  8
2
 62
     2
100
AcDbMText
 10
24.99999999999978
 20
93.24999999999988
 30
0.0
 40
3.5
 41
0.0
 71
     5
 72
     1
  1
\A1;50
 73
     1
 44
1.0
  0
POINT
  5
EDD9
330
EC35
100
AcDbEntity
  8
Defpoints
 62
     0
100
AcDbPoint
 10
49.99999999999977
 20
17.4999999999998
 30
0.0
  0
POINT
  5
EDDA
330
EC35
100
AcDbEntity
  8
Defpoints
 62
     0
100
AcDbPoint
 10
-0.0000000000002274
 20
31.99999999999989
 30
0.0
  0
POINT
  5
EDDB
330
EC35
100
AcDbEntity
  8
Defpoints
 62
     0
100
AcDbPoint
 10
-0.0000000000002238
 20
89.99999999999989
 30
0.0
  0
ENDBLK
  5
EC37
330
EC35
100
AcDbEntity
  8
0
100
AcDbBlockEnd
  0
BLOCK
  5
ECB8
330
ECB7
100
AcDbEntity
  8
0
100
AcDbBlockBegin
  2
*D7
 70
     1
 10
0.0
 20
0.0
 30
0.0
  3
*D7
  1

  0
LINE
  5
EDDC
330
ECB7
100
AcDbEntity
  8
2
370
    -2
100
AcDbLine
 10
49.99999999999977
 20
17.4999999999998
 30
0.0
 11
49.99999999999977
 21
53.03155336595921
 31
0.0
  0
LINE
  5
EDDD
330
ECB7
100
AcDbEntity
  8
2
370
    -2
100
AcDbLine
 10
19.69999999999976
 20
34.99999999999993
 30
0.0
 11
19.69999999999976
 21
53.03155336595921
 31
0.0
  0
LINE
  5
EDDE
330
ECB7
100
AcDbEntity
  8
2
370
    -2
100
AcDbLine
 10
47.49999999999977
 20
52.03155336595921
 30
0.0
 11
22.19999999999976
 21
52.03155336595921
 31
0.0
  0
SOLID
  5
EDDF
330
ECB7
100
AcDbEntity
  8
2
100
AcDbTrace
 10
47.49999999999977
 20
52.44822003262587
 30
0.0
 11
47.49999999999977
 21
51.61488669929255
 31
0.0
 12
49.99999999999977
 22
52.03155336595921
 32
0.0
 13
49.99999999999977
 23
52.03155336595921
 33
0.0
  0
SOLID
  5
EDE0
330
ECB7
100
AcDbEntity
  8
2
100
AcDbTrace
 10
22.19999999999976
 20
52.44822003262587
 30
0.0
 11
22.19999999999976
 21
51.61488669929255
 31
0.0
 12
19.69999999999976
 22
52.03155336595921
 32
0.0
 13
19.69999999999976
 23
52.03155336595921
 33
0.0
  0
MTEXT
  5
EDE1
330
ECB7
100
AcDbEntity
  8
2
 62
     2
100
AcDbMText
 10
34.84999999999977
 20
55.28155336595921
 30
0.0
 40
3.5
 41
0.0
 71
     5
 72
     1
  1
\A1;30.3
 73
     1
 44
1.0
  0
POINT
  5
EDE2
330
ECB7
100
AcDbEntity
  8
Defpoints
 62
     0
100
AcDbPoint
 10
49.99999999999977
 20
17.4999999999998
 30
0.0
  0
POINT
  5
EDE3
330
ECB7
100
AcDbEntity
  8
Defpoints
 62
     0
100
AcDbPoint
 10
19.69999999999976
 20
34.99999999999993
 30
0.0
  0
POINT
  5
EDE4
330
ECB7
100
AcDbEntity
  8
Defpoints
 62
     0
100
AcDbPoint
 10
19.69999999999976
 20
52.03155336595921
 30
0.0
  0
ENDBLK
  5
ECB9
330
ECB7
100
AcDbEntity
  8
0
100
AcDbBlockEnd
  0
BLOCK
  5
ECE1
330
ECE0
100
AcDbEntity
  8
0
100
AcDbBlockBegin
  2
*D8
 70
     1
 10
0.0
 20
0.0
 30
0.0
  3
*D8
  1

  0
LINE
  5
EDE5
330
ECE0
100
AcDbEntity
  8
2
100
AcDbLine
 10
49.99999999999977
 20
49.35376862768101
 30
0.0
 11
49.99999999999977
 21
73.33929706137566
 31
0.0
  0
LINE
  5
EDE6
330
ECE0
100
AcDbEntity
  8
2
100
AcDbLine
 10
19.92413223776335
 20
34.7666020663476
 30
0.0
 11
1.573770913050228
 21
45.30157328871744
 31
0.0
  0
ARC
  5
EDE7
330
ECE0
100
AcDbEntity
  8
2
100
AcDbCircle
 10
49.99999999999976
 20
17.49999920462357
 30
0.0
 40
54.83929785675208
100
AcDbArc
 50
92.6122116963411
 51
147.5275873069382
  0
SOLID
  5
EDE8
330
ECE0
100
AcDbEntity
  8
2
100
AcDbTrace
 10
47.49115208804293
 20
72.69887078925478
 30
0.0
 11
47.51014698235006
 21
71.86575396765369
 31
0.0
 12
49.99999999999977
 22
72.33929706137566
 32
0.0
 13
49.99999999999977
 23
72.33929706137566
 33
0.0
  0
SOLID
  5
EDE9
330
ECE0
100
AcDbEntity
  8
2
100
AcDbTrace
 10
4.091352149752076
 20
46.72722472408368
 30
0.0
 11
3.378294865258808
 21
47.15849465518894
 31
0.0
 12
2.441013714189672
 22
44.80368783615651
 32
0.0
 13
2.441013714189672
 23
44.80368783615651
 33
0.0
  0
MTEXT
  5
EDEA
330
ECE0
100
AcDbEntity
  8
2
 62
     2
100
AcDbMText
 10
20.89399958049715
 20
67.7713356208198
 30
0.0
 40
3.5
 41
0.0
 71
     5
 72
     1
  1
60\U+00B0
 11
0.8654147712400497
 21
0.501056158249285
 31
0.0
 73
     1
 44
1.0
  0
POINT
  5
EDEB
330
ECE0
100
AcDbEntity
  8
Defpoints
 62
     0
100
AcDbPoint
 10
31.20194974305127
 20
69.01681098445727
 30
0.0
  0
POINT
  5
EDEC
330
ECE0
100
AcDbEntity
  8
Defpoints
 62
     0
100
AcDbPoint
 10
19.92413223776335
 20
34.7666020663476
 30
0.0
  0
POINT
  5
EDED
330
ECE0
100
AcDbEntity
  8
Defpoints
 62
     0
100
AcDbPoint
 10
49.99999999999977
 20
41.33755030092572
 30
0.0
  0
POINT
  5
EDEE
330
ECE0
100
AcDbEntity
  8
Defpoints
 62
     0
100
AcDbPoint
 10
49.99999999999977
 20
49.35376862768101
 30
0.0
  0
POINT
  5
EDEF
330
ECE0
100
AcDbEntity
  8
Defpoints
 62
     0
100
AcDbPoint
 10
49.79999999999975
 20
17.61481951835967
 30
0.0
  0
ENDBLK
  5
ECE2
330
ECE0
100
AcDbEntity
  8
0
100
AcDbBlockEnd
  0
BLOCK
  5
ED31
330
ED30
100
AcDbEntity
  8
0
100
AcDbBlockBegin
  2
*D9
 70
     1
 10
0.0
 20
0.0
 30
0.0
  3
*D9
  1

  0
LINE
  5
EDF0
330
ED30
100
AcDbEntity
  8
2
370
    -2
100
AcDbLine
 10
19.69999999999976
 20
34.99999999999993
 30
0.0
 11
84.42827762574895
 21
34.99999999999991
 31
0.0
  0
LINE
  5
EDF1
330
ED30
100
AcDbEntity
  8
2
370
    -2
100
AcDbLine
 10
19.69999999999976
 20
-34.99999999999993
 30
0.0
 11
84.42827762574891
 21
-34.99999999999995
 31
0.0
  0
LINE
  5
EDF2
330
ED30
100
AcDbEntity
  8
2
370
    -2
100
AcDbLine
 10
83.42827762574895
 20
32.49999999999991
 30
0.0
 11
83.42827762574891
 21
-32.49999999999995
 31
0.0
  0
SOLID
  5
EDF3
330
ED30
100
AcDbEntity
  8
2
100
AcDbTrace
 10
83.01161095908227
 20
32.49999999999991
 30
0.0
 11
83.84494429241561
 21
32.49999999999991
 31
0.0
 12
83.42827762574895
 22
34.99999999999991
 32
0.0
 13
83.42827762574895
 23
34.99999999999991
 33
0.0
  0
SOLID
  5
EDF4
330
ED30
100
AcDbEntity
  8
2
100
AcDbTrace
 10
83.01161095908225
 20
-32.49999999999995
 30
0.0
 11
83.84494429241559
 21
-32.49999999999995
 31
0.0
 12
83.42827762574891
 22
-34.99999999999995
 32
0.0
 13
83.42827762574891
 23
-34.99999999999995
 33
0.0
  0
MTEXT
  5
EDF5
330
ED30
100
AcDbEntity
  8
2
 62
     2
100
AcDbMText
 10
80.17827762574894
 20
-0.0000000000000047
 30
0.0
 40
3.5
 41
0.0
 71
     5
 72
     1
  1
\A1;%%c70
 11
0.0000000000000001
 21
1.0
 31
0.0
 73
     1
 44
1.0
  0
POINT
  5
EDF6
330
ED30
100
AcDbEntity
  8
Defpoints
 62
     0
100
AcDbPoint
 10
19.69999999999976
 20
34.99999999999993
 30
0.0
  0
POINT
  5
EDF7
330
ED30
100
AcDbEntity
  8
Defpoints
 62
     0
100
AcDbPoint
 10
19.69999999999976
 20
-34.99999999999993
 30
0.0
  0
POINT
  5
EDF8
330
ED30
100
AcDbEntity
  8
Defpoints
 62
     0
100
AcDbPoint
 10
83.42827762574891
 20
-34.99999999999995
 30
0.0
  0
ENDBLK
  5
ED32
330
ED30
100
AcDbEntity
  8
0
100
AcDbBlockEnd
  0
ENDSEC
  0
SECTION
  2
ENTITIES
  0
TEXT
  5
EB82
330
1F
100
AcDbEntity
  8
6
100
AcDbText
 10
52.3820319550698
 20
22.96515548672437
 30
0.0
 40
2.5
  1
BOMT130404
100
AcDbText
  0
LINE
  5
EB83
330
1F
100
AcDbEntity
  8
SK3
 48
0.5
100
AcDbLine
 10
21.99999999999972
 20
-13.49999999999986
 30
0.0
 11
21.99999999999972
 21
13.50000000000014
 31
0.0
  0
LINE
  5
EB84
330
1F
100
AcDbEntity
  8
SK3
 48
0.5
100
AcDbLine
 10
-0.0000000000001705
 20
-13.49999999999986
 30
0.0
 11
21.99999999999972
 21
-13.49999999999986
 31
0.0
  0
LINE
  5
EB85
330
1F
100
AcDbEntity
  8
SK3
 48
0.5
100
AcDbLine
 10
48.79999999999995
 20
-10.00000000000307
 30
0.0
 11
32.99999999999972
 21
-10.00000000000293
 31
0.0
  0
LINE
  5
EB86
330
1F
100
AcDbEntity
  8
SK3
 48
0.5
100
AcDbLine
 10
32.99999999999972
 20
-10.00000000000293
 30
0.0
 11
32.99999999999972
 21
10.00000000000327
 31
0.0
  0
LINE
  5
EB87
330
1F
100
AcDbEntity
  8
SK3
 48
0.5
100
AcDbLine
 10
21.99999999999972
 20
-6.499999999999857
 30
0.0
 11
32.99999999999972
 21
-6.499999999999857
 31
0.0
  0
LINE
  5
EB88
330
1F
100
AcDbEntity
  8
SK3
 48
0.5
100
AcDbLine
 10
32.99999999999972
 20
10.00000000000327
 30
0.0
 11
48.79999999999995
 21
10.00000000000321
 31
0.0
  0
LINE
  5
EB89
330
1F
100
AcDbEntity
  8
SK3
 48
0.5
100
AcDbLine
 10
21.99999999999972
 20
6.500000000000142
 30
0.0
 11
32.9999999999996
 21
6.500000000000085
 31
0.0
  0
LINE
  5
EB8A
330
1F
100
AcDbEntity
  8
SK3
 48
0.5
100
AcDbLine
 10
21.99999999999972
 20
13.50000000000014
 30
0.0
 11
-0.0000000000002274
 21
13.50000000000011
 31
0.0
  0
LINE
  5
EB8B
330
1F
100
AcDbEntity
  8
SK1
100
AcDbLine
 10
-2.262823140784234
 20
-2.262823140784178
 30
0.0
 11
2.262823140784178
 21
2.262823140784206
 31
0.0
  0
CIRCLE
  5
EB8C
330
1F
100
AcDbEntity
  8
SK1
100
AcDbCircle
 10
0.0
 20
0.0
 30
0.0
 40
3.200115174948665
  0
LINE
  5
EB8D
330
1F
100
AcDbEntity
  8
1
100
AcDbLine
 10
6.999999999999829
 20
6.200000000000159
 30
0.0
 11
-0.0000000000001705
 21
6.200000000000159
 31
0.0
  0
LINE
  5
EB8E
330
1F
100
AcDbEntity
  8
1
100
AcDbLine
 10
-0.0000000000001705
 20
-6.199999999999846
 30
0.0
 11
6.999999999999829
 21
-6.199999999999903
 31
0.0
  0
LINE
  5
EB8F
330
1F
100
AcDbEntity
  8
SK1
100
AcDbLine
 10
-2.262823140784234
 20
2.262823140784178
 30
0.0
 11
2.262823140784121
 21
-2.262823140784178
 31
0.0
  0
LINE
  5
EB90
330
1F
100
AcDbEntity
  8
1
100
AcDbLine
 10
6.999999999999829
 20
-6.199999999999903
 30
0.0
 11
6.999999999999829
 21
6.200000000000159
 31
0.0
  0
DIMENSION
  5
EB91
330
1F
100
AcDbEntity
  8
SK2
100
AcDbDimension
  2
*D3
 10
-13.38609939715871
 20
13.50000000000014
 30
0.0
 11
-16.63644388534769
 21
0.0000000000001433
 31
0.0
 70
    32
  1
%%c<>
 71
     5
 42
27.0
  3
AM_DIN
100
AcDbAlignedDimension
 13
-0.0000000000001705
 23
-13.49999999999986
 33
0.0
 14
-0.0000000000001705
 24
13.50000000000014
 34
0.0
 50
270.0
100
AcDbRotatedDimension
  0
LINE
  5
EB92
330
1F
100
AcDbEntity
  8
4
100
AcDbLine
 10
52.51703724361641
 20
-0.000000000000199
 30
0.0
 11
0.0
 21
0.0
 31
0.0
  0
CIRCLE
  5
EB93
330
1F
100
AcDbEntity
  8
SK1
100
AcDbCircle
 10
49.99999999999977
 20
17.4999999999998
 30
0.0
 40
0.4637693698488208
  0
LINE
  5
EB94
330
1F
100
AcDbEntity
  8
1
100
AcDbLine
 10
49.94641016151351
 20
17.06840935684596
 30
0.0
 11
49.14641016151356
 21
15.68276871079087
 31
0.0
  0
LINE
  5
EB95
330
1F
100
AcDbEntity
  8
1
100
AcDbLine
 10
49.14641016151356
 20
15.68276871079087
 30
0.0
 11
47.99785223844901
 21
15.19118839847284
 31
0.0
  0
LINE
  5
EB96
330
1F
100
AcDbEntity
  8
1
100
AcDbLine
 10
47.99785223844895
 20
15.19118839847273
 30
0.0
 11
44.94730711522282
 21
11.51678903754472
 31
0.0
  0
ARC
  5
EB97
330
1F
100
AcDbEntity
  8
1
100
AcDbCircle
 10
49.59999999999976
 20
17.26840935684589
 30
0.0
 40
0.4
100
AcDbArc
 50
329.9999999999981
 51
60.00000000000169
1001
GENIUS_GENOBJ-N-FIL_13
1002
{
1000
OWNER
1000
GEN
1002
}
1001
GENIUS_GENODEF_13
1002
{
1000
HIER
1070
     0
1002
}
1002
{
1000
MANEDIT
1070
     0
1002
}
1002
{
1000
NOSEL
1070
     0
1002
}
1002
{
1000
BEHIND
1070
     0
1002
}
1002
{
1000
OTHER
1070
     0
1002
}
1002
{
1000
REACTOR
1002
}
  0
ARC
  5
EB98
330
1F
100
AcDbEntity
  8
1
100
AcDbCircle
 10
44.639547293204
 20
11.77229616455103
 30
0.0
 40
0.4
100
AcDbArc
 50
240.0000000000016
 51
320.3000000000002
1001
GENIUS_GENODEF_13
1002
{
1000
HIER
1070
     0
1002
}
1002
{
1000
MANEDIT
1070
     0
1002
}
1002
{
1000
NOSEL
1070
     0
1002
}
1002
{
1000
BEHIND
1070
     0
1002
}
1002
{
1000
OTHER
1070
     0
1002
}
1002
{
1000
REACTOR
1002
}
1001
GENIUS_GENOBJ-N-FIL_13
1002
{
1000
OWNER
1000
GEN
1002
}
  0
CIRCLE
  5
EB99
330
1F
100
AcDbEntity
  8
1
100
AcDbCircle
 10
41.64987988716811
 20
17.67839739514632
 30
0.0
 40
2.749999999999976
  0
LINE
  5
EB9A
330
1F
100
AcDbEntity
  8
1
100
AcDbLine
 10
33.35334961282263
 20
18.28838543344661
 30
0.0
 11
34.15334961282264
 21
19.67402607950174
 31
0.0
  0
LINE
  5
EB9B
330
1F
100
AcDbEntity
  8
1
100
AcDbLine
 10
34.15334961282264
 20
19.67402607950174
 30
0.0
 11
35.30190753588727
 21
20.16560639181975
 31
0.0
  0
LINE
  5
EB9C
330
1F
100
AcDbEntity
  8
1
100
AcDbLine
 10
35.3019075358873
 20
20.16560639181979
 30
0.0
 11
38.35245265911345
 21
23.8400057527478
 31
0.0
  0
LINE
  5
EB9D
330
1F
100
AcDbEntity
  8
CUT
100
AcDbLine
 10
35.3019075358873
 20
20.16560639181979
 30
0.0
 11
38.35245265911345
 21
23.8400057527478
 31
0.0
  0
LINE
  5
EB9E
330
1F
100
AcDbEntity
  8
CUT
100
AcDbLine
 10
33.35334961282263
 20
18.28838543344661
 30
0.0
 11
34.15334961282264
 21
19.67402607950174
 31
0.0
  0
LINE
  5
EB9F
330
1F
100
AcDbEntity
  8
CUT
100
AcDbLine
 10
34.15334961282264
 20
19.67402607950174
 30
0.0
 11
35.30190753588727
 21
20.16560639181975
 31
0.0
  0
LINE
  5
EBA0
330
1F
100
AcDbEntity
  8
CUT
100
AcDbLine
 10
49.94641016151351
 20
17.06840935684596
 30
0.0
 11
49.14641016151356
 21
15.68276871079087
 31
0.0
  0
LINE
  5
EBA1
330
1F
100
AcDbEntity
  8
CUT
100
AcDbLine
 10
47.99785223844895
 20
15.19118839847273
 30
0.0
 11
44.94730711522282
 21
11.51678903754472
 31
0.0
  0
ARC
  5
EBA2
330
1F
100
AcDbEntity
  8
CUT
100
AcDbCircle
 10
44.639547293204
 20
11.77229616455103
 30
0.0
 40
0.4
100
AcDbArc
 50
240.0000000000016
 51
320.3000000000002
1001
GENIUS_GENODEF_13
1002
{
1000
HIER
1070
     0
1002
}
1002
{
1000
MANEDIT
1070
     0
1002
}
1002
{
1000
NOSEL
1070
     0
1002
}
1002
{
1000
BEHIND
1070
     0
1002
}
1002
{
1000
OTHER
1070
     0
1002
}
1002
{
1000
REACTOR
1002
}
1001
GENIUS_GENOBJ-N-FIL_13
1002
{
1000
OWNER
1000
GEN
1002
}
  0
LINE
  5
EBA3
330
1F
100
AcDbEntity
  8
CUT
100
AcDbLine
 10
49.14641016151356
 20
15.68276871079087
 30
0.0
 11
47.99785223844901
 21
15.19118839847284
 31
0.0
  0
ARC
  5
EBA4
330
1F
100
AcDbEntity
  8
CUT
100
AcDbCircle
 10
49.59999999999976
 20
17.26840935684589
 30
0.0
 40
0.4
100
AcDbArc
 50
329.9999999999981
 51
60.00000000000169
1001
GENIUS_GENOBJ-N-FIL_13
1002
{
1000
OWNER
1000
GEN
1002
}
1001
GENIUS_GENODEF_13
1002
{
1000
HIER
1070
     0
1002
}
1002
{
1000
MANEDIT
1070
     0
1002
}
1002
{
1000
NOSEL
1070
     0
1002
}
1002
{
1000
BEHIND
1070
     0
1002
}
1002
{
1000
OTHER
1070
     0
1002
}
1002
{
1000
REACTOR
1002
}
  0
LINE
  5
EBA5
330
1F
100
AcDbEntity
  8
SK1
100
AcDbLine
 10
50.46376936984865
 20
17.49999999999977
 30
0.0
 11
49.53623063015095
 21
17.4999999999998
 31
0.0
  0
LINE
  5
EBA6
330
1F
100
AcDbEntity
  8
SK1
100
AcDbLine
 10
49.99999999999983
 20
17.96376936984862
 30
0.0
 11
49.99999999999983
 21
17.03623063015098
 31
0.0
  0
CIRCLE
  5
EBA7
330
1F
100
AcDbEntity
  8
1
100
AcDbCircle
 10
19.69999999999976
 20
34.99999999999993
 30
0.0
 40
0.0959690010191452
  0
CIRCLE
  5
EBA8
330
1F
100
AcDbEntity
  8
1
100
AcDbCircle
 10
22.7137996437994
 20
28.51409067423859
 30
0.0
 40
2.749999999999976
  0
LINE
  5
EBA9
330
1F
100
AcDbEntity
  8
1
100
AcDbLine
 10
14.41726936945392
 20
29.12407871253886
 30
0.0
 11
15.2172693694539
 21
30.509719358594
 31
0.0
  0
LINE
  5
EBAA
330
1F
100
AcDbEntity
  8
1
100
AcDbLine
 10
15.2172693694539
 20
30.509719358594
 30
0.0
 11
16.36582729251856
 21
31.00129967091202
 31
0.0
  0
LINE
  5
EBAB
330
1F
100
AcDbEntity
  8
1
100
AcDbLine
 10
16.36582729251859
 20
31.00129967091206
 30
0.0
 11
19.41637241574472
 21
34.67569903184005
 31
0.0
  0
ARC
  5
EBAC
330
1F
100
AcDbEntity
  8
1
100
AcDbCircle
 10
14.76367953096763
 20
28.92407871253894
 30
0.0
 40
0.4
100
AcDbArc
 50
149.999999999998
 51
240.0000000000016
1001
GENIUS_GENOBJ-N-FIL_13
1002
{
1000
OWNER
1000
GEN
1002
}
1001
GENIUS_GENODEF_13
1002
{
1000
HIER
1070
     0
1002
}
1002
{
1000
MANEDIT
1070
     0
1002
}
1002
{
1000
NOSEL
1070
     0
1002
}
1002
{
1000
BEHIND
1070
     0
1002
}
1002
{
1000
OTHER
1070
     0
1002
}
1002
{
1000
REACTOR
1002
}
  0
ARC
  5
EBAD
330
1F
100
AcDbEntity
  8
1
100
AcDbCircle
 10
19.7241322377634
 20
34.42019190483383
 30
0.0
 40
0.4
100
AcDbArc
 50
60.00000000000169
 51
140.3000000000002
1001
GENIUS_GENODEF_13
1002
{
1000
HIER
1070
     0
1002
}
1002
{
1000
MANEDIT
1070
     0
1002
}
1002
{
1000
NOSEL
1070
     0
1002
}
1002
{
1000
BEHIND
1070
     0
1002
}
1002
{
1000
OTHER
1070
     0
1002
}
1002
{
1000
REACTOR
1002
}
1001
GENIUS_GENOBJ-N-FIL_13
1002
{
1000
OWNER
1000
GEN
1002
}
  0
LINE
  5
EBAE
330
1F
100
AcDbEntity
  8
CUT
100
AcDbLine
 10
16.36582729251859
 20
31.00129967091206
 30
0.0
 11
19.41637241574472
 21
34.67569903184005
 31
0.0
  0
LINE
  5
EBAF
330
1F
100
AcDbEntity
  8
CUT
100
AcDbLine
 10
14.41726936945392
 20
29.12407871253886
 30
0.0
 11
15.2172693694539
 21
30.509719358594
 31
0.0
  0
ARC
  5
EBB0
330
1F
100
AcDbEntity
  8
CUT
100
AcDbCircle
 10
14.76367953096763
 20
28.92407871253894
 30
0.0
 40
0.4
100
AcDbArc
 50
149.999999999998
 51
240.0000000000016
1001
GENIUS_GENOBJ-N-FIL_13
1002
{
1000
OWNER
1000
GEN
1002
}
1001
GENIUS_GENODEF_13
1002
{
1000
HIER
1070
     0
1002
}
1002
{
1000
MANEDIT
1070
     0
1002
}
1002
{
1000
NOSEL
1070
     0
1002
}
1002
{
1000
BEHIND
1070
     0
1002
}
1002
{
1000
OTHER
1070
     0
1002
}
1002
{
1000
REACTOR
1002
}
  0
LINE
  5
EBB1
330
1F
100
AcDbEntity
  8
CUT
100
AcDbLine
 10
15.2172693694539
 20
30.509719358594
 30
0.0
 11
16.36582729251856
 21
31.00129967091202
 31
0.0
  0
ARC
  5
EBB2
330
1F
100
AcDbEntity
  8
CUT
100
AcDbCircle
 10
19.7241322377634
 20
34.42019190483383
 30
0.0
 40
0.4
100
AcDbArc
 50
60.00000000000169
 51
140.3000000000002
1001
GENIUS_GENODEF_13
1002
{
1000
HIER
1070
     0
1002
}
1002
{
1000
MANEDIT
1070
     0
1002
}
1002
{
1000
NOSEL
1070
     0
1002
}
1002
{
1000
BEHIND
1070
     0
1002
}
1002
{
1000
OTHER
1070
     0
1002
}
1002
{
1000
REACTOR
1002
}
1001
GENIUS_GENOBJ-N-FIL_13
1002
{
1000
OWNER
1000
GEN
1002
}
  0
CIRCLE
  5
EBB3
330
1F
100
AcDbEntity
  8
1
100
AcDbCircle
 10
32.18183976548374
 20
23.09624403469243
 30
0.0
 40
2.749999999999976
  0
LINE
  5
EBB4
330
1F
100
AcDbEntity
  8
1
100
AcDbLine
 10
23.88530949113826
 20
23.70623207299272
 30
0.0
 11
24.68530949113824
 21
25.09187271904784
 31
0.0
  0
LINE
  5
EBB5
330
1F
100
AcDbEntity
  8
1
100
AcDbLine
 10
24.68530949113824
 20
25.09187271904784
 30
0.0
 11
25.8338674142029
 21
25.58345303136587
 31
0.0
  0
LINE
  5
EBB6
330
1F
100
AcDbEntity
  8
1
100
AcDbLine
 10
25.83386741420293
 20
25.58345303136591
 30
0.0
 11
28.88441253742906
 21
29.2578523922939
 31
0.0
  0
LINE
  5
EBB7
330
1F
100
AcDbEntity
  8
CUT
100
AcDbLine
 10
25.83386741420293
 20
25.58345303136591
 30
0.0
 11
28.88441253742906
 21
29.2578523922939
 31
0.0
  0
LINE
  5
EBB8
330
1F
100
AcDbEntity
  8
CUT
100
AcDbLine
 10
23.88530949113826
 20
23.70623207299272
 30
0.0
 11
24.68530949113824
 21
25.09187271904784
 31
0.0
  0
LINE
  5
EBB9
330
1F
100
AcDbEntity
  8
CUT
100
AcDbLine
 10
24.68530949113824
 20
25.09187271904784
 30
0.0
 11
25.8338674142029
 21
25.58345303136587
 31
0.0
  0
LINE
  5
EBBA
330
1F
100
AcDbEntity
  8
1
100
AcDbLine
 10
19.96065992298494
 20
34.74551279745201
 30
0.0
 11
49.79999999999975
 21
17.61481951835967
 31
0.0
  0
LINE
  5
EBBB
330
1F
100
AcDbEntity
  8
1
100
AcDbLine
 10
44.43954729320402
 20
11.42588600303726
 30
0.0
 11
14.56367953096767
 21
28.57766855102517
 31
0.0
  0
ARC
  5
EBBC
330
1F
100
AcDbEntity
  8
1
100
AcDbCircle
 10
24.23171965265197
 20
23.50623207299279
 30
0.0
 40
0.4
100
AcDbArc
 50
149.999999999998
 51
240.0000000000016
1001
GENIUS_GENOBJ-N-FIL_13
1002
{
1000
OWNER
1000
GEN
1002
}
1001
GENIUS_GENODEF_13
1002
{
1000
HIER
1070
     0
1002
}
1002
{
1000
MANEDIT
1070
     0
1002
}
1002
{
1000
NOSEL
1070
     0
1002
}
1002
{
1000
BEHIND
1070
     0
1002
}
1002
{
1000
OTHER
1070
     0
1002
}
1002
{
1000
REACTOR
1002
}
  0
ARC
  5
EBBD
330
1F
100
AcDbEntity
  8
1
100
AcDbCircle
 10
29.09229680033817
 20
29.00234526528769
 30
0.0
 40
0.4
100
AcDbArc
 50
60.00000000000169
 51
140.3000000000002
1001
GENIUS_GENODEF_13
1002
{
1000
HIER
1070
     0
1002
}
1002
{
1000
MANEDIT
1070
     0
1002
}
1002
{
1000
NOSEL
1070
     0
1002
}
1002
{
1000
BEHIND
1070
     0
1002
}
1002
{
1000
OTHER
1070
     0
1002
}
1002
{
1000
REACTOR
1002
}
1001
GENIUS_GENOBJ-N-FIL_13
1002
{
1000
OWNER
1000
GEN
1002
}
  0
ARC
  5
EBBE
330
1F
100
AcDbEntity
  8
CUT
100
AcDbCircle
 10
24.23171965265197
 20
23.50623207299279
 30
0.0
 40
0.4
100
AcDbArc
 50
149.999999999998
 51
240.0000000000016
1001
GENIUS_GENOBJ-N-FIL_13
1002
{
1000
OWNER
1000
GEN
1002
}
1001
GENIUS_GENODEF_13
1002
{
1000
HIER
1070
     0
1002
}
1002
{
1000
MANEDIT
1070
     0
1002
}
1002
{
1000
NOSEL
1070
     0
1002
}
1002
{
1000
BEHIND
1070
     0
1002
}
1002
{
1000
OTHER
1070
     0
1002
}
1002
{
1000
REACTOR
1002
}
  0
ARC
  5
EBBF
330
1F
100
AcDbEntity
  8
CUT
100
AcDbCircle
 10
29.09229680033817
 20
29.00234526528769
 30
0.0
 40
0.4
100
AcDbArc
 50
60.00000000000169
 51
140.3000000000002
1001
GENIUS_GENODEF_13
1002
{
1000
HIER
1070
     0
1002
}
1002
{
1000
MANEDIT
1070
     0
1002
}
1002
{
1000
NOSEL
1070
     0
1002
}
1002
{
1000
BEHIND
1070
     0
1002
}
1002
{
1000
OTHER
1070
     0
1002
}
1002
{
1000
REACTOR
1002
}
1001
GENIUS_GENOBJ-N-FIL_13
1002
{
1000
OWNER
1000
GEN
1002
}
  0
ARC
  5
EBC0
330
1F
100
AcDbEntity
  8
1
100
AcDbCircle
 10
33.69975977433637
 20
18.08838543344667
 30
0.0
 40
0.4
100
AcDbArc
 50
149.999999999998
 51
240.0000000000016
1001
GENIUS_GENOBJ-N-FIL_13
1002
{
1000
OWNER
1000
GEN
1002
}
1001
GENIUS_GENODEF_13
1002
{
1000
HIER
1070
     0
1002
}
1002
{
1000
MANEDIT
1070
     0
1002
}
1002
{
1000
NOSEL
1070
     0
1002
}
1002
{
1000
BEHIND
1070
     0
1002
}
1002
{
1000
OTHER
1070
     0
1002
}
1002
{
1000
REACTOR
1002
}
  0
ARC
  5
EBC1
330
1F
100
AcDbEntity
  8
1
100
AcDbCircle
 10
38.56033692202255
 20
23.58449862574158
 30
0.0
 40
0.4
100
AcDbArc
 50
60.00000000000169
 51
140.3000000000002
1001
GENIUS_GENODEF_13
1002
{
1000
HIER
1070
     0
1002
}
1002
{
1000
MANEDIT
1070
     0
1002
}
1002
{
1000
NOSEL
1070
     0
1002
}
1002
{
1000
BEHIND
1070
     0
1002
}
1002
{
1000
OTHER
1070
     0
1002
}
1002
{
1000
REACTOR
1002
}
1001
GENIUS_GENOBJ-N-FIL_13
1002
{
1000
OWNER
1000
GEN
1002
}
  0
ARC
  5
EBC2
330
1F
100
AcDbEntity
  8
CUT
100
AcDbCircle
 10
33.69975977433637
 20
18.08838543344667
 30
0.0
 40
0.4
100
AcDbArc
 50
149.999999999998
 51
240.0000000000016
1001
GENIUS_GENOBJ-N-FIL_13
1002
{
1000
OWNER
1000
GEN
1002
}
1001
GENIUS_GENODEF_13
1002
{
1000
HIER
1070
     0
1002
}
1002
{
1000
MANEDIT
1070
     0
1002
}
1002
{
1000
NOSEL
1070
     0
1002
}
1002
{
1000
BEHIND
1070
     0
1002
}
1002
{
1000
OTHER
1070
     0
1002
}
1002
{
1000
REACTOR
1002
}
  0
ARC
  5
EBC3
330
1F
100
AcDbEntity
  8
CUT
100
AcDbCircle
 10
38.56033692202255
 20
23.58449862574158
 30
0.0
 40
0.4
100
AcDbArc
 50
60.00000000000169
 51
140.3000000000002
1001
GENIUS_GENODEF_13
1002
{
1000
HIER
1070
     0
1002
}
1002
{
1000
MANEDIT
1070
     0
1002
}
1002
{
1000
NOSEL
1070
     0
1002
}
1002
{
1000
BEHIND
1070
     0
1002
}
1002
{
1000
OTHER
1070
     0
1002
}
1002
{
1000
REACTOR
1002
}
1001
GENIUS_GENOBJ-N-FIL_13
1002
{
1000
OWNER
1000
GEN
1002
}
  0
LINE
  5
EBC4
330
1F
100
AcDbEntity
  8
CUT
100
AcDbLine
 10
19.92413223776336
 20
34.7666020663476
 30
0.0
 11
49.79999999999975
 21
17.61481951835967
 31
0.0
  0
LINE
  5
EBC5
330
1F
100
AcDbEntity
  8
CUT
100
AcDbLine
 10
44.43954729320402
 20
11.42588600303726
 30
0.0
 11
14.56367953096767
 21
28.57766855102517
 31
0.0
  0
CIRCLE
  5
EBC6
330
1F
100
AcDbEntity
  8
SK1
100
AcDbCircle
 10
49.9999999999996
 20
-17.5000000000002
 30
0.0
 40
0.4637693698488208
  0
LINE
  5
EBC7
330
1F
100
AcDbEntity
  8
1
100
AcDbLine
 10
49.9464101615134
 20
-17.06840935684636
 30
0.0
 11
49.14641016151347
 21
-15.68276871079126
 31
0.0
  0
LINE
  5
EBC8
330
1F
100
AcDbEntity
  8
1
100
AcDbLine
 10
49.14641016151347
 20
-15.68276871079126
 30
0.0
 11
48.79999999999995
 21
-15.53450590926656
 31
0.0
  0
LINE
  5
EBC9
330
1F
100
AcDbEntity
  8
SK3
100
AcDbLine
 10
48.79999999999995
 20
-15.53450590926656
 30
0.0
 11
47.9978522384489
 21
-15.19118839847323
 31
0.0
  0
LINE
  5
EBCA
330
1F
100
AcDbEntity
  8
SK3
100
AcDbLine
 10
47.99785223844884
 20
-15.1911883984731
 30
0.0
 11
44.94730711522277
 21
-11.51678903754506
 31
0.0
  0
ARC
  5
EBCB
330
1F
100
AcDbEntity
  8
1
100
AcDbCircle
 10
49.59999999999965
 20
-17.26840935684629
 30
0.0
 40
0.4
100
AcDbArc
 50
299.9999999999984
 51
30.00000000000196
1001
GENIUS_GENOBJ-N-FIL_13
1002
{
1000
OWNER
1000
GEN
1002
}
1001
GENIUS_GENODEF_13
1002
{
1000
HIER
1070
     0
1002
}
1002
{
1000
MANEDIT
1070
     0
1002
}
1002
{
1000
NOSEL
1070
     0
1002
}
1002
{
1000
BEHIND
1070
     0
1002
}
1002
{
1000
OTHER
1070
     0
1002
}
1002
{
1000
REACTOR
1002
}
  0
ARC
  5
EBCC
330
1F
100
AcDbEntity
  8
SK3
100
AcDbCircle
 10
44.63954729320391
 20
-11.77229616455136
 30
0.0
 40
0.4
100
AcDbArc
 50
39.69999999999981
 51
119.9999999999983
1001
GENIUS_GENODEF_13
1002
{
1000
HIER
1070
     0
1002
}
1002
{
1000
MANEDIT
1070
     0
1002
}
1002
{
1000
NOSEL
1070
     0
1002
}
1002
{
1000
BEHIND
1070
     0
1002
}
1002
{
1000
OTHER
1070
     0
1002
}
1002
{
1000
REACTOR
1002
}
1001
GENIUS_GENOBJ-N-FIL_13
1002
{
1000
OWNER
1000
GEN
1002
}
  0
CIRCLE
  5
EBCD
330
1F
100
AcDbEntity
  8
SK3
 48
0.3
100
AcDbCircle
 10
41.64987988716799
 20
-17.67839739514663
 30
0.0
 40
2.749999999999976
  0
LINE
  5
EBCE
330
1F
100
AcDbEntity
  8
SK3
100
AcDbLine
 10
33.35334961282252
 20
-18.28838543344683
 30
0.0
 11
34.15334961282244
 21
-19.67402607950194
 31
0.0
  0
LINE
  5
EBCF
330
1F
100
AcDbEntity
  8
SK3
100
AcDbLine
 10
34.15334961282244
 20
-19.67402607950194
 30
0.0
 11
35.30190753588712
 21
-20.16560639182001
 31
0.0
  0
LINE
  5
EBD0
330
1F
100
AcDbEntity
  8
SK3
100
AcDbLine
 10
35.30190753588716
 20
-20.16560639182005
 30
0.0
 11
38.08680667256851
 21
-23.52003361538766
 31
0.0
  0
LINE
  5
EBD1
330
1F
100
AcDbEntity
  8
1
100
AcDbLine
 10
38.08680667256851
 20
-23.52003361538766
 30
0.0
 11
38.35245265911325
 21
-23.84000575274809
 31
0.0
  0
LINE
  5
EBD2
330
1F
100
AcDbEntity
  8
SK1
100
AcDbLine
 10
50.46376936984848
 20
-17.50000000000017
 30
0.0
 11
49.53623063015078
 21
-17.5000000000002
 31
0.0
  0
LINE
  5
EBD3
330
1F
100
AcDbEntity
  8
SK1
100
AcDbLine
 10
49.99999999999966
 20
-17.96376936984902
 30
0.0
 11
49.99999999999966
 21
-17.03623063015138
 31
0.0
  0
CIRCLE
  5
EBD4
330
1F
100
AcDbEntity
  8
SK3
 48
0.3
100
AcDbCircle
 10
22.71379964379915
 20
-28.51409067423869
 30
0.0
 40
2.749999999999976
  0
LINE
  5
EBD5
330
1F
100
AcDbEntity
  8
SK3
100
AcDbLine
 10
14.41726936945366
 20
-29.12407871253889
 30
0.0
 11
15.21726936945364
 21
-30.50971935859404
 31
0.0
  0
LINE
  5
EBD6
330
1F
100
AcDbEntity
  8
SK3
100
AcDbLine
 10
15.21726936945364
 20
-30.50971935859404
 30
0.0
 11
16.36582729251827
 21
-31.00129967091206
 31
0.0
  0
LINE
  5
EBD7
330
1F
100
AcDbEntity
  8
SK3
100
AcDbLine
 10
16.36582729251833
 20
-31.00129967091211
 30
0.0
 11
19.13353507236343
 21
-34.3350198050839
 31
0.0
  0
LINE
  5
EBD8
330
1F
100
AcDbEntity
  8
1
100
AcDbLine
 10
19.13353507236343
 20
-34.33501980508391
 30
0.0
 11
19.4163724157444
 21
-34.67569903184013
 31
0.0
  0
ARC
  5
EBD9
330
1F
100
AcDbEntity
  8
SK3
100
AcDbCircle
 10
14.76367953096741
 20
-28.92407871253896
 30
0.0
 40
0.4
100
AcDbArc
 50
119.9999999999983
 51
210.000000000002
1001
GENIUS_GENOBJ-N-FIL_13
1002
{
1000
OWNER
1000
GEN
1002
}
1001
GENIUS_GENODEF_13
1002
{
1000
HIER
1070
     0
1002
}
1002
{
1000
MANEDIT
1070
     0
1002
}
1002
{
1000
NOSEL
1070
     0
1002
}
1002
{
1000
BEHIND
1070
     0
1002
}
1002
{
1000
OTHER
1070
     0
1002
}
1002
{
1000
REACTOR
1002
}
  0
ARC
  5
EBDA
330
1F
100
AcDbEntity
  8
1
100
AcDbCircle
 10
19.72413223776309
 20
-34.42019190483391
 30
0.0
 40
0.4
100
AcDbArc
 50
219.6999999999998
 51
299.9999999999984
1001
GENIUS_GENODEF_13
1002
{
1000
HIER
1070
     0
1002
}
1002
{
1000
MANEDIT
1070
     0
1002
}
1002
{
1000
NOSEL
1070
     0
1002
}
1002
{
1000
BEHIND
1070
     0
1002
}
1002
{
1000
OTHER
1070
     0
1002
}
1002
{
1000
REACTOR
1002
}
1001
GENIUS_GENOBJ-N-FIL_13
1002
{
1000
OWNER
1000
GEN
1002
}
  0
CIRCLE
  5
EBDB
330
1F
100
AcDbEntity
  8
SK3
 48
0.3
100
AcDbCircle
 10
32.18183976548355
 20
-23.09624403469265
 30
0.0
 40
2.749999999999976
  0
LINE
  5
EBDC
330
1F
100
AcDbEntity
  8
SK3
100
AcDbLine
 10
23.88530949113806
 20
-23.70623207299285
 30
0.0
 11
24.68530949113804
 21
-25.091872719048
 31
0.0
  0
LINE
  5
EBDD
330
1F
100
AcDbEntity
  8
SK3
100
AcDbLine
 10
24.68530949113804
 20
-25.091872719048
 30
0.0
 11
25.83386741420267
 21
-25.58345303136601
 31
0.0
  0
LINE
  5
EBDE
330
1F
100
AcDbEntity
  8
SK3
100
AcDbLine
 10
25.83386741420273
 20
-25.58345303136605
 30
0.0
 11
28.62132734104395
 21
-28.94096474158992
 31
0.0
  0
LINE
  5
EBDF
330
1F
100
AcDbEntity
  8
1
100
AcDbLine
 10
28.62132734104395
 20
-28.94096474158992
 30
0.0
 11
28.8844125374288
 21
-29.25785239229409
 31
0.0
  0
LINE
  5
EBE0
330
1F
100
AcDbEntity
  8
1
100
AcDbLine
 10
19.96065992298463
 20
-34.7455127974521
 30
0.0
 11
49.79999999999961
 21
-17.61481951836006
 31
0.0
  0
LINE
  5
EBE1
330
1F
100
AcDbEntity
  8
SK3
 48
0.3
100
AcDbLine
 10
44.43954729320395
 20
-11.4258860030376
 30
0.0
 11
15.43486527178524
 21
-28.07751945060973
 31
0.0
  0
LINE
  5
EBE2
330
1F
100
AcDbEntity
  8
SK3
100
AcDbLine
 10
15.43486527178521
 20
-28.07751945060969
 30
0.0
 11
14.56367953096742
 21
-28.57766855102518
 31
0.0
  0
ARC
  5
EBE3
330
1F
100
AcDbEntity
  8
SK3
100
AcDbCircle
 10
24.23171965265181
 20
-23.50623207299292
 30
0.0
 40
0.4
100
AcDbArc
 50
119.9999999999983
 51
210.000000000002
1001
GENIUS_GENOBJ-N-FIL_13
1002
{
1000
OWNER
1000
GEN
1002
}
1001
GENIUS_GENODEF_13
1002
{
1000
HIER
1070
     0
1002
}
1002
{
1000
MANEDIT
1070
     0
1002
}
1002
{
1000
NOSEL
1070
     0
1002
}
1002
{
1000
BEHIND
1070
     0
1002
}
1002
{
1000
OTHER
1070
     0
1002
}
1002
{
1000
REACTOR
1002
}
  0
ARC
  5
EBE4
330
1F
100
AcDbEntity
  8
1
100
AcDbCircle
 10
29.1844644573653
 20
-28.98891914716389
 30
0.0
 40
0.4
100
AcDbArc
 50
219.6999999999998
 51
299.9999999999984
1001
GENIUS_GENODEF_13
1002
{
1000
HIER
1070
     0
1002
}
1002
{
1000
MANEDIT
1070
     0
1002
}
1002
{
1000
NOSEL
1070
     0
1002
}
1002
{
1000
BEHIND
1070
     0
1002
}
1002
{
1000
OTHER
1070
     0
1002
}
1002
{
1000
REACTOR
1002
}
1001
GENIUS_GENOBJ-N-FIL_13
1002
{
1000
OWNER
1000
GEN
1002
}
  0
ARC
  5
EBE5
330
1F
100
AcDbEntity
  8
SK3
100
AcDbCircle
 10
33.69975977433626
 20
-18.0883854334469
 30
0.0
 40
0.4
100
AcDbArc
 50
119.9999999999983
 51
210.000000000002
1001
GENIUS_GENOBJ-N-FIL_13
1002
{
1000
OWNER
1000
GEN
1002
}
1001
GENIUS_GENODEF_13
1002
{
1000
HIER
1070
     0
1002
}
1002
{
1000
MANEDIT
1070
     0
1002
}
1002
{
1000
NOSEL
1070
     0
1002
}
1002
{
1000
BEHIND
1070
     0
1002
}
1002
{
1000
OTHER
1070
     0
1002
}
1002
{
1000
REACTOR
1002
}
  0
ARC
  5
EBE6
330
1F
100
AcDbEntity
  8
1
100
AcDbCircle
 10
38.64484797866865
 20
-23.55773575008667
 30
0.0
 40
0.4
100
AcDbArc
 50
219.6999999999998
 51
299.9999999999984
1001
GENIUS_GENODEF_13
1002
{
1000
HIER
1070
     0
1002
}
1002
{
1000
MANEDIT
1070
     0
1002
}
1002
{
1000
NOSEL
1070
     0
1002
}
1002
{
1000
BEHIND
1070
     0
1002
}
1002
{
1000
OTHER
1070
     0
1002
}
1002
{
1000
REACTOR
1002
}
1001
GENIUS_GENOBJ-N-FIL_13
1002
{
1000
OWNER
1000
GEN
1002
}
  0
DIMENSION
  5
EBE7
330
1F
100
AcDbEntity
  8
2
100
AcDbDimension
  2
*D4
 10
66.09601900593765
 20
-17.5000000000002
 30
0.0
 11
62.84601900593765
 21
-0.0000000000001919
 31
0.0
 70
    32
  1
%%c<>
 71
     5
 42
35.0
  3
AM_DIN$0
100
AcDbAlignedDimension
 13
49.99999999999977
 23
17.4999999999998
 33
0.0
 14
49.9999999999996
 24
-17.5000000000002
 34
0.0
 50
90.0
100
AcDbRotatedDimension
1001
ACAD
1000
DSTYLE
1002
{
1070
    50
1040
0.7853981633974483
1070
    90
1070
     1
1070
   271
1070
     1
1002
}
1001
ACAD_DSTYLE_DIMINSPECT
1070
   396
1000
100%
1070
   395
1000

1070
   394
1070
    33
1070
   393
1070
     0
  0
TEXT
  5
EBE8
330
1F
100
AcDbEntity
  8
6
100
AcDbText
 10
72.90313308816871
 20
-17.13328041475458
 30
0.0
 40
3.5
  1
Z=9
 50
90.0
100
AcDbText
  0
TEXT
  5
EBE9
330
1F
100
AcDbEntity
  8
6
100
AcDbText
 10
72.35330513203121
 20
-3.289705765278966
 30
0.0
 40
3.5
  1
Zeff.=3
 50
90.0
100
AcDbText
  0
DIMENSION
  5
EBEA
330
1F
100
AcDbEntity
  8
SK2
100
AcDbDimension
  2
*D5
 10
-26.80483419381256
 20
-35.00000000000016
 30
0.0
 11
-30.05483419381255
 21
-0.0000000000001401
 31
0.0
 70
    32
  1
%%c<>
 71
     5
 42
70.00000000000006
  3
AM_DIN$0
100
AcDbAlignedDimension
 13
2.999999999999772
 23
34.99999999999989
 33
0.0
 14
2.999999999999772
 24
-35.00000000000017
 34
0.0
 50
90.0
100
AcDbRotatedDimension
1001
ACAD
1000
DSTYLE
1002
{
1070
    50
1040
0.7853981633974483
1070
    90
1070
     1
1070
   271
1070
     1
1002
}
1001
ACAD_DSTYLE_DIMINSPECT
1070
   396
1000
100%
1070
   395
1000

1070
   394
1070
    33
1070
   393
1070
     0
  0
DIMENSION
  5
EBEB
330
1F
100
AcDbEntity
  8
2
100
AcDbDimension
  2
*D6
 10
-0.0000000000002238
 20
89.99999999999989
 30
0.0
 11
24.99999999999978
 21
93.24999999999988
 31
0.0
 70
    32
 71
     5
 42
50.0
  3
AM_DIN$0
100
AcDbAlignedDimension
 13
49.99999999999977
 23
17.4999999999998
 33
0.0
 14
-0.0000000000002274
 24
31.99999999999989
 34
0.0
100
AcDbRotatedDimension
1001
ACAD
1000
DSTYLE
1002
{
1070
    50
1040
0.7853981633974483
1070
    90
1070
     1
1070
   271
1070
     1
1002
}
1001
ACAD_DSTYLE_DIMINSPECT
1070
   396
1000
100%
1070
   395
1000

1070
   394
1070
    33
1070
   393
1070
     0
  0
TEXT
  5
EBEC
330
1F
100
AcDbEntity
  8
6
100
AcDbText
 10
26.8975037008845
 20
-44.24017701757816
 30
0.0
 40
3.5
  1
22M3R035050F2R00
100
AcDbText
  0
LINE
  5
EBED
330
1F
100
AcDbEntity
  8
1
100
AcDbLine
 10
0.0
 20
-32.0
 30
0.0
 11
0.0
 21
-6.199999999999846
 31
0.0
  0
LINE
  5
EBEE
330
1F
100
AcDbEntity
  8
1
100
AcDbLine
 10
48.79999999999995
 20
0.0
 30
0.0
 11
48.79999999999995
 21
-15.53450590926654
 31
0.0
  0
LINE
  5
EBEF
330
1F
100
AcDbEntity
  8
1
100
AcDbLine
 10
48.79999999999995
 20
-15.53450590926654
 30
0.0
 11
48.79999999999995
 21
-17.09469008387747
 31
0.0
  0
ARC
  5
EBF0
330
1F
100
AcDbEntity
  8
1
100
AcDbCircle
 10
48.29999999999995
 20
-17.09469008387747
 30
0.0
 40
0.5
100
AcDbArc
 50
299.7999999999919
 51
0.0
1001
GENIUS_GENOBJ-N-FIL_13
1002
{
1000
OWNER
1000
GEN
1002
}
1001
GENIUS_GENODEF_13
1002
{
1000
HIER
1070
     0
1002
}
1002
{
1000
MANEDIT
1070
     0
1002
}
1002
{
1000
NOSEL
1070
     0
1002
}
1002
{
1000
BEHIND
1070
     0
1002
}
1002
{
1000
OTHER
1070
     0
1002
}
1002
{
1000
REACTOR
1002
}
  0
LINE
  5
EBF1
330
1F
100
AcDbEntity
  8
1
100
AcDbLine
 10
19.77336439326672
 20
-34.00824090026751
 30
0.0
 11
28.62132734104395
 21
-28.94096474158991
 31
0.0
  0
LINE
  5
EBF2
330
1F
100
AcDbEntity
  8
1
100
AcDbLine
 10
28.62132734104395
 20
-28.94096474158991
 30
0.0
 11
38.08680667256851
 21
-23.52003361538764
 31
0.0
  0
LINE
  5
EBF3
330
1F
100
AcDbEntity
  8
1
100
AcDbLine
 10
38.08680667256851
 20
-23.52003361538764
 30
0.0
 11
48.54848698051364
 21
-17.52857281056197
 31
0.0
  0
ARC
  5
EBF4
330
1F
100
AcDbEntity
  8
1
100
AcDbCircle
 10
16.046059685561
 20
-27.5
 30
0.0
 40
7.5
100
AcDbArc
 50
270.0
 51
294.3093689518266
1001
GENIUS_GENOBJ-N-FIL_13
1002
{
1000
OWNER
1000
GEN
1002
}
1001
GENIUS_GENODEF_13
1002
{
1000
HIER
1070
     0
1002
}
1002
{
1000
MANEDIT
1070
     0
1002
}
1002
{
1000
NOSEL
1070
     0
1002
}
1002
{
1000
BEHIND
1070
     0
1002
}
1002
{
1000
OTHER
1070
     0
1002
}
1002
{
1000
REACTOR
1002
}
  0
ARC
  5
EBF5
330
1F
100
AcDbEntity
  8
1
100
AcDbCircle
 10
16.046059685561
 20
-27.5
 30
0.0
 40
7.5
100
AcDbArc
 50
294.3093689518266
 51
299.7999999999919
1001
GENIUS_GENOBJ-N-FIL_13
1002
{
1000
OWNER
1000
GEN
1002
}
1001
GENIUS_GENODEF_13
1002
{
1000
HIER
1070
     0
1002
}
1002
{
1000
MANEDIT
1070
     0
1002
}
1002
{
1000
NOSEL
1070
     0
1002
}
1002
{
1000
BEHIND
1070
     0
1002
}
1002
{
1000
OTHER
1070
     0
1002
}
1002
{
1000
REACTOR
1002
}
  0
LINE
  5
EBF6
330
1F
100
AcDbEntity
  8
1
100
AcDbLine
 10
3.0
 20
-35.0
 30
0.0
 11
16.046059685561
 21
-35.0
 31
0.0
  0
ARC
  5
EBF7
330
1F
100
AcDbEntity
  8
1
100
AcDbCircle
 10
3.0
 20
-32.0
 30
0.0
 40
3.0
100
AcDbArc
 50
180.0
 51
270.0
1001
GENIUS_GENOBJ-N-FIL_13
1002
{
1000
OWNER
1000
GEN
1002
}
1001
GENIUS_GENODEF_13
1002
{
1000
HIER
1070
     0
1002
}
1002
{
1000
MANEDIT
1070
     0
1002
}
1002
{
1000
NOSEL
1070
     0
1002
}
1002
{
1000
BEHIND
1070
     0
1002
}
1002
{
1000
OTHER
1070
     0
1002
}
1002
{
1000
REACTOR
1002
}
  0
LINE
  5
EBF8
330
1F
100
AcDbEntity
  8
NOCUT
100
AcDbLine
 10
0.0
 20
-32.0
 30
0.0
 11
0.0
 21
0.0
 31
0.0
  0
LINE
  5
EBF9
330
1F
100
AcDbEntity
  8
NOCUT
100
AcDbLine
 10
0.0
 20
0.0
 30
0.0
 11
48.79999999999995
 21
0.0
 31
0.0
  0
LINE
  5
EBFA
330
1F
100
AcDbEntity
  8
NOCUT
100
AcDbLine
 10
48.79999999999995
 20
0.0
 30
0.0
 11
48.79999999999995
 21
-15.53450590926654
 31
0.0
  0
LINE
  5
EBFB
330
1F
100
AcDbEntity
  8
NOCUT
100
AcDbLine
 10
48.79999999999995
 20
-15.53450590926654
 30
0.0
 11
48.79999999999995
 21
-17.09469008387747
 31
0.0
  0
ARC
  5
EBFC
330
1F
100
AcDbEntity
  8
NOCUT
100
AcDbCircle
 10
48.29999999999995
 20
-17.09469008387747
 30
0.0
 40
0.5
100
AcDbArc
 50
299.7999999999919
 51
0.0
1001
GENIUS_GENOBJ-N-FIL_13
1002
{
1000
OWNER
1000
GEN
1002
}
1001
GENIUS_GENODEF_13
1002
{
1000
HIER
1070
     0
1002
}
1002
{
1000
MANEDIT
1070
     0
1002
}
1002
{
1000
NOSEL
1070
     0
1002
}
1002
{
1000
BEHIND
1070
     0
1002
}
1002
{
1000
OTHER
1070
     0
1002
}
1002
{
1000
REACTOR
1002
}
  0
LINE
  5
EBFD
330
1F
100
AcDbEntity
  8
NOCUT
100
AcDbLine
 10
19.77336439326672
 20
-34.00824090026751
 30
0.0
 11
28.62132734104395
 21
-28.94096474158991
 31
0.0
  0
LINE
  5
EBFE
330
1F
100
AcDbEntity
  8
NOCUT
100
AcDbLine
 10
28.62132734104395
 20
-28.94096474158991
 30
0.0
 11
38.08680667256851
 21
-23.52003361538764
 31
0.0
  0
LINE
  5
EBFF
330
1F
100
AcDbEntity
  8
NOCUT
100
AcDbLine
 10
38.08680667256851
 20
-23.52003361538764
 30
0.0
 11
48.54848698051364
 21
-17.52857281056197
 31
0.0
  0
ARC
  5
EC00
330
1F
100
AcDbEntity
  8
NOCUT
100
AcDbCircle
 10
16.046059685561
 20
-27.5
 30
0.0
 40
7.5
100
AcDbArc
 50
270.0
 51
294.3093689518266
1001
GENIUS_GENOBJ-N-FIL_13
1002
{
1000
OWNER
1000
GEN
1002
}
1001
GENIUS_GENODEF_13
1002
{
1000
HIER
1070
     0
1002
}
1002
{
1000
MANEDIT
1070
     0
1002
}
1002
{
1000
NOSEL
1070
     0
1002
}
1002
{
1000
BEHIND
1070
     0
1002
}
1002
{
1000
OTHER
1070
     0
1002
}
1002
{
1000
REACTOR
1002
}
  0
ARC
  5
EC01
330
1F
100
AcDbEntity
  8
NOCUT
100
AcDbCircle
 10
16.046059685561
 20
-27.5
 30
0.0
 40
7.5
100
AcDbArc
 50
294.3093689518266
 51
299.7999999999919
1001
GENIUS_GENOBJ-N-FIL_13
1002
{
1000
OWNER
1000
GEN
1002
}
1001
GENIUS_GENODEF_13
1002
{
1000
HIER
1070
     0
1002
}
1002
{
1000
MANEDIT
1070
     0
1002
}
1002
{
1000
NOSEL
1070
     0
1002
}
1002
{
1000
BEHIND
1070
     0
1002
}
1002
{
1000
OTHER
1070
     0
1002
}
1002
{
1000
REACTOR
1002
}
  0
LINE
  5
EC02
330
1F
100
AcDbEntity
  8
NOCUT
100
AcDbLine
 10
3.0
 20
-35.0
 30
0.0
 11
16.046059685561
 21
-35.0
 31
0.0
  0
ARC
  5
EC03
330
1F
100
AcDbEntity
  8
NOCUT
100
AcDbCircle
 10
3.0
 20
-32.0
 30
0.0
 40
3.0
100
AcDbArc
 50
180.0
 51
270.0
1001
GENIUS_GENOBJ-N-FIL_13
1002
{
1000
OWNER
1000
GEN
1002
}
1001
GENIUS_GENODEF_13
1002
{
1000
HIER
1070
     0
1002
}
1002
{
1000
MANEDIT
1070
     0
1002
}
1002
{
1000
NOSEL
1070
     0
1002
}
1002
{
1000
BEHIND
1070
     0
1002
}
1002
{
1000
OTHER
1070
     0
1002
}
1002
{
1000
REACTOR
1002
}
  0
LINE
  5
EC04
330
1F
100
AcDbEntity
  8
1
100
AcDbLine
 10
0.0
 20
32.0
 30
0.0
 11
0.0
 21
6.200000000000159
 31
0.0
  0
LINE
  5
EC05
330
1F
100
AcDbEntity
  8
1
100
AcDbLine
 10
48.79999999999995
 20
0.0
 30
0.0
 11
48.79999999999995
 21
15.53450590926611
 31
0.0
  0
ARC
  5
EC06
330
1F
100
AcDbEntity
  8
1
100
AcDbCircle
 10
16.046059685561
 20
27.5
 30
0.0
 40
7.5
100
AcDbArc
 50
65.69063104817157
 51
90.0
1001
GENIUS_GENOBJ-N-FIL_13
1002
{
1000
OWNER
1000
GEN
1002
}
1001
GENIUS_GENODEF_13
1002
{
1000
HIER
1070
     0
1002
}
1002
{
1000
MANEDIT
1070
     0
1002
}
1002
{
1000
NOSEL
1070
     0
1002
}
1002
{
1000
BEHIND
1070
     0
1002
}
1002
{
1000
OTHER
1070
     0
1002
}
1002
{
1000
REACTOR
1002
}
  0
LINE
  5
EC07
330
1F
100
AcDbEntity
  8
1
100
AcDbLine
 10
3.0
 20
35.0
 30
0.0
 11
16.046059685561
 21
35.0
 31
0.0
  0
ARC
  5
EC08
330
1F
100
AcDbEntity
  8
1
100
AcDbCircle
 10
3.0
 20
32.0
 30
0.0
 40
3.0
100
AcDbArc
 50
90.0
 51
180.0
1001
GENIUS_GENOBJ-N-FIL_13
1002
{
1000
OWNER
1000
GEN
1002
}
1001
GENIUS_GENODEF_13
1002
{
1000
HIER
1070
     0
1002
}
1002
{
1000
MANEDIT
1070
     0
1002
}
1002
{
1000
NOSEL
1070
     0
1002
}
1002
{
1000
BEHIND
1070
     0
1002
}
1002
{
1000
OTHER
1070
     0
1002
}
1002
{
1000
REACTOR
1002
}
  0
LINE
  5
EC09
330
1F
100
AcDbEntity
  8
1
100
AcDbLine
 10
13.36551932007873
 20
26.48360538146807
 30
0.0
 11
38.3989073983251
 21
12.14684885021599
 31
0.0
  0
ARC
  5
EC0A
330
1F
100
AcDbEntity
  8
1
100
AcDbCircle
 10
17.64213477078579
 20
33.53819877453503
 30
0.0
 40
8.249650153475018
100
AcDbArc
 50
169.7935495549441
 51
238.7750381681655
  0
ARC
  5
EC0B
330
1F
100
AcDbEntity
  8
1
100
AcDbCircle
 10
49.47181246373697
 20
33.02368129701355
 30
0.0
 40
23.63157547856858
100
AcDbArc
 50
242.0588783035805
 51
268.3709420687469
  0
LINE
  5
EC0C
330
1F
100
AcDbEntity
  8
SK3
 48
0.3
100
AcDbLine
 10
13.36551932007873
 20
-26.48360538146806
 30
0.0
 11
38.3989073983251
 21
-12.14684885021599
 31
0.0
  0
ARC
  5
EC0D
330
1F
100
AcDbEntity
  8
SK3
 48
0.3
100
AcDbCircle
 10
17.64213477078579
 20
-33.53819877453504
 30
0.0
 40
8.249650153475018
100
AcDbArc
 50
121.2249618318345
 51
190.2064504450558
  0
ARC
  5
EC0E
330
1F
100
AcDbEntity
  8
SK3
 48
0.3
100
AcDbCircle
 10
49.47181246373697
 20
-33.02368129701355
 30
0.0
 40
23.63157547856858
100
AcDbArc
 50
91.62905793125307
 51
117.9411216964195
  0
CIRCLE
  5
EC10
330
1F
100
AcDbEntity
  8
1
100
AcDbCircle
 10
19.69999999999976
 20
-34.99999999999993
 30
0.0
 40
0.0959690010191452
  0
DIMENSION
  5
ECB6
330
1F
100
AcDbEntity
  8
2
100
AcDbDimension
  2
*D7
 10
19.69999999999976
 20
52.03155336595921
 30
0.0
 11
34.84999999999977
 21
55.28155336595921
 31
0.0
 70
    32
 71
     5
 42
30.30000000000001
  3
AM_DIN$0
100
AcDbAlignedDimension
 13
49.99999999999977
 23
17.4999999999998
 33
0.0
 14
19.69999999999976
 24
34.99999999999993
 34
0.0
100
AcDbRotatedDimension
1001
ACAD
1000
DSTYLE
1002
{
1070
    90
1070
     1
1070
   271
1070
     1
1002
}
1001
ACAD_DSTYLE_DIMINSPECT
1070
   396
1000
100%
1070
   395
1000

1070
   394
1070
    33
1070
   393
1070
     0
  0
DIMENSION
  5
ECDF
330
1F
100
AcDbEntity
  8
2
100
AcDbDimension
  2
*D8
 10
49.79999999999975
 20
17.61481951835967
 30
0.0
 11
20.89399958049716
 21
67.7713356208198
 31
0.0
 70
    34
 71
     5
 42
1.049637504094828
  3
AM_DIN$2
100
AcDb2LineAngularDimension
 13
49.99999999999977
 23
41.33755030092572
 33
0.0
 14
49.99999999999977
 24
49.35376862768101
 34
0.0
 15
19.92413223776336
 25
34.7666020663476
 35
0.0
 16
31.20194974305127
 26
69.01681098445727
 36
0.0
1001
ACAD
1000
DSTYLE
1002
{
1070
    90
1070
     1
1070
   271
1070
     1
1002
}
1001
ACAD_DSTYLE_DIMINSPECT
1070
   396
1000
100%
1070
   395
1000

1070
   394
1070
    33
1070
   393
1070
     0
  0
DIMENSION
  5
ED2F
330
1F
100
AcDbEntity
  8
2
100
AcDbDimension
  2
*D9
 10
83.42827762574891
 20
-34.99999999999995
 30
0.0
 11
80.17827762574894
 21
-0.0000000000000047
 31
0.0
 70
    32
  1
%%c<>
 71
     5
 42
69.99999999999985
  3
AM_DIN$0
100
AcDbAlignedDimension
 13
19.69999999999976
 23
34.99999999999993
 33
0.0
 14
19.69999999999976
 24
-34.99999999999993
 34
0.0
 50
90.00000000000003
100
AcDbRotatedDimension
1001
ACAD
1000
DSTYLE
1002
{
1070
    90
1070
     1
1070
   271
1070
     1
1002
}
1001
ACAD_DSTYLE_DIMINSPECT
1070
   396
1000
100%
1070
   395
1000

1070
   394
1070
    33
1070
   393
1070
     0
  0
LINE
  5
EDB6
330
1F
100
AcDbEntity
  8
1
100
AcDbLine
 10
16.85502815355903
 20
-34.13444326938884
 30
0.0
 11
16.85502815355903
 21
23.58978923864413
 31
0.0
  0
ENDSEC
  0
SECTION
  2
OBJECTS
  0
DICTIONARY
  5
C
330
0
100
AcDbDictionary
281
     1
  3
ACAD_2007HEADERVARS_RT
350
EDFB
  3
ACAD_COLOR
350
2E66
  3
ACAD_GROUP
350
D
  3
ACAD_LAYOUT
350
1A
  3
ACAD_MATERIAL
350
2E65
  3
ACAD_MLEADERSTYLE
350
2F47
  3
ACAD_MLINESTYLE
350
17
  3
ACAD_PLOTSETTINGS
350
19
  3
ACAD_PLOTSTYLENAME
350
E
  3
ACAD_SCALELIST
350
2F35
  3
ACAD_TABLESTYLE
350
2E67
  3
ACAD_VISUALSTYLE
350
2F24
  3
ACDB_RECOMPOSE_DATA
350
E9FF
  3
AcDbVariableDictionary
350
216
  3
AcmDictionary
350
45
  3
AcmSystemVariableManager
350
EDFE
  3
AMG
350
41
  3
AMGSNAPSETTINGS
350
23D
  0
DICTIONARY
  5
EA25
330
8
100
AcDbDictionary
280
     1
281
     1
  0
DICTIONARY
  5
2F6F
330
10
100
AcDbDictionary
280
     1
281
     1
  3
ADSK_XREC_LAYER_RECONCILED
360
2F70
  0
DICTIONARY
  5
2F71
330
AFE
100
AcDbDictionary
280
     1
281
     1
  3
ADSK_XREC_LAYER_RECONCILED
360
2F72
  0
DICTIONARY
  5
2F73
330
AFF
100
AcDbDictionary
280
     1
281
     1
  3
ADSK_XREC_LAYER_RECONCILED
360
2F74
  0
DICTIONARY
  5
2F75
330
B00
100
AcDbDictionary
280
     1
281
     1
  3
ADSK_XREC_LAYER_RECONCILED
360
2F76
  0
DICTIONARY
  5
2F77
330
B01
100
AcDbDictionary
280
     1
281
     1
  3
ADSK_XREC_LAYER_RECONCILED
360
2F78
  0
DICTIONARY
  5
2F79
330
B02
100
AcDbDictionary
280
     1
281
     1
  3
ADSK_XREC_LAYER_RECONCILED
360
2F7A
  0
DICTIONARY
  5
2F7B
330
B03
100
AcDbDictionary
280
     1
281
     1
  3
ADSK_XREC_LAYER_RECONCILED
360
2F7C
  0
DICTIONARY
  5
2F7D
330
B04
100
AcDbDictionary
280
     1
281
     1
  3
ADSK_XREC_LAYER_RECONCILED
360
2F7E
  0
DICTIONARY
  5
2F7F
330
B06
100
AcDbDictionary
280
     1
281
     1
  3
ADSK_XREC_LAYER_RECONCILED
360
2F80
  0
DICTIONARY
  5
2F81
330
B07
100
AcDbDictionary
280
     1
281
     1
  3
ADSK_XREC_LAYER_RECONCILED
360
2F82
  0
DICTIONARY
  5
1F1
330
1F
100
AcDbDictionary
280
     1
281
     1
  3
ACAD_SORTENTS
360
8923
  0
DICTIONARY
  5
EDFB
102
{ACAD_REACTORS
330
C
102
}
330
C
100
AcDbDictionary
281
     1
  3
DIMARCSYM
350
EDFC
  3
DIMJOGANG
350
EDFD
  0
DICTIONARY
  5
2E66
102
{ACAD_REACTORS
330
C
102
}
330
C
100
AcDbDictionary
281
     1
  0
DICTIONARY
  5
D
102
{ACAD_REACTORS
330
C
102
}
330
C
100
AcDbDictionary
281
     1
  0
DICTIONARY
  5
1A
102
{ACAD_REACTORS
330
C
102
}
330
C
100
AcDbDictionary
281
     1
  3
Layout1
350
1E
  3
Layout2
350
26
  3
Model
350
22
  0
DICTIONARY
  5
2E65
102
{ACAD_REACTORS
330
C
102
}
330
C
100
AcDbDictionary
281
     1
  3
ByBlock
350
2F14
  3
ByLayer
350
2F0C
  3
Global
350
2F1C
  0
DICTIONARY
  5
2F47
102
{ACAD_REACTORS
330
C
102
}
330
C
100
AcDbDictionary
281
     1
  3
Standard
350
2F48
  0
DICTIONARY
  5
17
102
{ACAD_REACTORS
330
C
102
}
330
C
100
AcDbDictionary
281
     1
  3
Standard
350
18
  0
DICTIONARY
  5
19
102
{ACAD_REACTORS
330
C
102
}
330
C
100
AcDbDictionary
281
     1
  0
ACDBDICTIONARYWDFLT
  5
E
102
{ACAD_REACTORS
330
C
102
}
330
C
100
AcDbDictionary
281
     1
  3
Normal
350
F
100
AcDbDictionaryWithDefault
340
F
  0
DICTIONARY
  5
2F35
102
{ACAD_REACTORS
330
C
102
}
330
C
100
AcDbDictionary
281
     1
  3
A0
350
2F36
  3
A1
350
2F37
  3
A2
350
2F38
  3
A3
350
2F39
  3
A4
350
2F3A
  3
A5
350
2F3B
  3
A6
350
2F3C
  3
A7
350
2F3D
  3
A8
350
2F3E
  3
A9
350
2F3F
  3
B0
350
2F40
  3
B1
350
2F41
  3
B2
350
2F42
  3
B3
350
2F43
  3
B4
350
2F44
  3
B5
350
2F45
  3
B6
350
2F46
  0
DICTIONARY
  5
2E67
102
{ACAD_REACTORS
330
C
102
}
330
C
100
AcDbDictionary
281
     1
  3
Standard
350
2E68
  0
DICTIONARY
  5
2F24
102
{ACAD_REACTORS
330
C
102
}
330
C
100
AcDbDictionary
281
     1
  3
2dWireframe
350
2F2A
  3
3D Hidden
350
2F2C
  3
3dWireframe
350
2F2B
  3
Basic
350
2F29
  3
Brighten
350
2F30
  3
ColorChange
350
2F34
  3
Conceptual
350
2F2D
  3
Dim
350
2F2F
  3
Facepattern
350
2F33
  3
Flat
350
2F25
  3
FlatWithEdges
350
2F26
  3
Gouraud
350
2F27
  3
GouraudWithEdges
350
2F28
  3
Linepattern
350
2F32
  3
Realistic
350
2F2E
  3
Thicken
350
2F31
  0
XRECORD
  5
E9FF
102
{ACAD_REACTORS
330
C
102
}
330
C
100
AcDbXrecord
280
     1
 90
        1
330
2E68
  0
DICTIONARY
  5
216
102
{ACAD_REACTORS
330
C
102
}
330
C
100
AcDbDictionary
281
     1
  3
CANNOSCALE
350
EA02
  3
CMLEADERSTYLE
350
EA00
  3
CTABLESTYLE
350
2EEA
  3
DIMASSOC
350
219
  3
HIDETEXT
350
218
  3
INDEXCTL
350
217
  3
LAYEREVAL
350
EA04
  3
LAYERNOTIFY
350
EA05
  3
LIGHTINGUNITS
350
EA03
  3
MSLTSCALE
350
EA01
  3
SORTENTS
350
EA31
  0
DICTIONARY
  5
45
102
{ACAD_REACTORS
330
C
102
}
330
C
100
AcDbDictionary
281
     1
  3
AcmStdDictionary
350
4A
  3
AMDTSECTSYM_ARROWCOLOR
350
2EB6
  0
DICTIONARY
  5
41
102
{ACAD_REACTORS
330
C
102
}
330
C
100
AcDbDictionary
281
     1
  0
DICTIONARY
  5
23D
102
{ACAD_REACTORS
330
C
102
}
330
C
100
AcDbDictionary
281
     1
  0
XRECORD
  5
2F70
102
{ACAD_REACTORS
330
2F6F
102
}
330
2F6F
100
AcDbXrecord
280
     1
290
     1
  0
XRECORD
  5
2F72
102
{ACAD_REACTORS
330
2F71
102
}
330
2F71
100
AcDbXrecord
280
     1
290
     1
  0
XRECORD
  5
2F74
102
{ACAD_REACTORS
330
2F73
102
}
330
2F73
100
AcDbXrecord
280
     1
290
     1
  0
XRECORD
  5
2F76
102
{ACAD_REACTORS
330
2F75
102
}
330
2F75
100
AcDbXrecord
280
     1
290
     1
  0
XRECORD
  5
2F78
102
{ACAD_REACTORS
330
2F77
102
}
330
2F77
100
AcDbXrecord
280
     1
290
     1
  0
XRECORD
  5
2F7A
102
{ACAD_REACTORS
330
2F79
102
}
330
2F79
100
AcDbXrecord
280
     1
290
     1
  0
XRECORD
  5
2F7C
102
{ACAD_REACTORS
330
2F7B
102
}
330
2F7B
100
AcDbXrecord
280
     1
290
     1
  0
XRECORD
  5
2F7E
102
{ACAD_REACTORS
330
2F7D
102
}
330
2F7D
100
AcDbXrecord
280
     1
290
     1
  0
XRECORD
  5
2F80
102
{ACAD_REACTORS
330
2F7F
102
}
330
2F7F
100
AcDbXrecord
280
     1
290
     1
  0
XRECORD
  5
2F82
102
{ACAD_REACTORS
330
2F81
102
}
330
2F81
100
AcDbXrecord
280
     1
290
     1
  0
SORTENTSTABLE
  5
8923
102
{ACAD_REACTORS
330
1F1
102
}
330
1F1
100
AcDbSortentsTable
330
1F
331
EBB2
  5
EBB2
331
EBE9
  5
EBE9
331
EBBA
  5
EBBA
331
EBF1
  5
EBF1
331
EBC2
  5
EBC2
331
EB83
  5
EB83
331
EBF9
  5
EBF9
331
EBCA
  5
EBCA
331
EB8B
  5
EB8B
331
EC01
  5
EC01
331
EBD2
  5
EBD2
331
EB93
  5
EB93
331
EC09
  5
EC09
331
EBDA
  5
EBDA
331
EB9B
  5
EB9B
331
EBE2
  5
EBE2
331
EBA3
  5
EBA3
331
EBAB
  5
EBAB
331
EBB3
  5
EBB3
331
EBEA
  5
EBEA
331
EBBB
  5
EBBB
331
EBF2
  5
EBF2
331
EBC3
  5
EBC3
331
EB84
  5
EB84
331
EBFA
  5
EBFA
331
EBCB
  5
EBCB
331
EB8C
  5
EB8C
331
EC02
  5
EC02
331
EBD3
  5
EBD3
331
EB94
  5
EB94
331
EC0A
  5
EC0A
331
EBDB
  5
EBDB
331
EB9C
  5
EB9C
331
EBE3
  5
EBE3
331
EBA4
  5
EBA4
331
EBAC
  5
EBAC
331
EBB4
  5
EBB4
331
EBEB
  5
EBEB
331
EBBC
  5
EBBC
331
EBF3
  5
EBF3
331
EBC4
  5
EBC4
331
EB85
  5
EB85
331
EBFB
  5
EBFB
331
EBCC
  5
EBCC
331
EB8D
  5
EB8D
331
EC03
  5
EC03
331
EBD4
  5
EBD4
331
EB95
  5
EB95
331
EC0B
  5
EC0B
331
EBDC
  5
EBDC
331
EB9D
  5
EB9D
331
EBE4
  5
EBE4
331
EBA5
  5
EBA5
331
EBAD
  5
EBAD
331
EBB5
  5
EBB5
331
EBEC
  5
EBEC
331
EBBD
  5
EBBD
331
EBF4
  5
EBF4
331
EBC5
  5
EBC5
331
EB86
  5
EB86
331
EBFC
  5
EBFC
331
EBCD
  5
EBCD
331
EB8E
  5
EB8E
331
EC04
  5
EC04
331
EBD5
  5
EBD5
331
EB96
  5
EB96
331
EC0C
  5
EC0C
331
EBDD
  5
EBDD
331
EB9E
  5
EB9E
331
EBE5
  5
EBE5
331
EBA6
  5
EBA6
331
EBAE
  5
EBAE
331
EBB6
  5
EBB6
331
EBED
  5
EBED
331
EBBE
  5
EBBE
331
EBF5
  5
EBF5
331
EBC6
  5
EBC6
331
EB87
  5
EB87
331
EBFD
  5
EBFD
331
EBCE
  5
EBCE
331
EB8F
  5
EB8F
331
EC05
  5
EC05
331
EBD6
  5
EBD6
331
EB97
  5
EB97
331
EC0D
  5
EC0D
331
EBDE
  5
EBDE
331
EB9F
  5
EB9F
331
EBE6
  5
EBE6
331
EBA7
  5
EBA7
331
EBAF
  5
EBAF
331
EBB7
  5
EBB7
331
EBEE
  5
EBEE
331
EBBF
  5
EBBF
331
EBF6
  5
EBF6
331
EBFE
  5
EBFE
331
EBC7
  5
EBC7
331
EB88
  5
EB88
331
EBCF
  5
EBCF
331
EC06
  5
EC06
331
EB90
  5
EB90
331
EBD7
  5
EBD7
331
EB98
  5
EB98
331
EC0E
  5
EC0E
331
EBDF
  5
EBDF
331
EBA0
  5
EBA0
331
EBE7
  5
EBE7
331
EBA8
  5
EBA8
331
EBB0
  5
EBB0
331
EBB8
  5
EBB8
331
EBEF
  5
EBEF
331
EBC0
  5
EBC0
331
EBF7
  5
EBF7
331
EBC8
  5
EBC8
331
EB89
  5
EB89
331
EBFF
  5
EBFF
331
EC07
  5
EC07
331
EBD0
  5
EBD0
331
EB91
  5
EB91
331
EBD8
  5
EBD8
331
EB99
  5
EB99
331
EBE0
  5
EBE0
331
EBA1
  5
EBA1
331
EBA9
  5
EBA9
331
EBB1
  5
EBB1
331
EBE8
  5
EBE8
331
EBB9
  5
EBB9
331
EBF0
  5
EBF0
331
EBC1
  5
EBC1
331
EB82
  5
EB82
331
EBF8
  5
EBF8
331
EBC9
  5
EBC9
331
EB8A
  5
EB8A
331
EC00
  5
EC00
331
EBD1
  5
EBD1
331
EB92
  5
EB92
331
EC08
  5
EC08
331
EBD9
  5
EBD9
331
EB9A
  5
EB9A
331
EC10
  5
EC10
331
EBE1
  5
EBE1
331
EBA2
  5
EBA2
331
EBAA
  5
EBAA
  0
XRECORD
  5
EDFC
102
{ACAD_REACTORS
330
EDFB
102
}
330
EDFB
100
AcDbXrecord
280
     1
 70
     1
  0
XRECORD
  5
EDFD
102
{ACAD_REACTORS
330
EDFB
102
}
330
EDFB
100
AcDbXrecord
280
     1
 40
1.570796326794896
  0
LAYOUT
  5
1E
102
{ACAD_REACTORS
330
1A
102
}
330
1A
100
AcDbPlotSettings
  1

  2
HP DesignJet 220 (D/A1) by HP
  4

  6

 40
0.0
 41
0.0
 42
0.0
 43
0.0
 44
0.0
 45
0.0
 46
0.0
 47
0.0
 48
0.0
 49
0.0
140
0.0
141
0.0
142
1.0
143
1.0
 70
   688
 72
     0
 73
     0
 74
     5
  7
monochrome2.ctb
 75
    16
147
1.0
 76
     0
 77
     2
 78
   300
148
0.0
149
0.0
100
AcDbLayout
  1
Layout1
 70
     1
 71
     1
 10
0.0
 20
0.0
 11
420.0
 21
297.0
 12
0.0
 22
0.0
 32
0.0
 14
1.000000000000000E+20
 24
1.000000000000000E+20
 34
1.000000000000000E+20
 15
-1.000000000000000E+20
 25
-1.000000000000000E+20
 35
-1.000000000000000E+20
146
0.0
 13
0.0
 23
0.0
 33
0.0
 16
1.0
 26
0.0
 36
0.0
 17
0.0
 27
1.0
 37
0.0
 76
     0
330
1B
  0
LAYOUT
  5
26
102
{ACAD_REACTORS
330
1A
102
}
330
1A
100
AcDbPlotSettings
  1

  2
HP DesignJet 220 (D/A1) by HP
  4

  6

 40
0.0
 41
0.0
 42
0.0
 43
0.0
 44
0.0
 45
0.0
 46
0.0
 47
0.0
 48
0.0
 49
0.0
140
0.0
141
0.0
142
1.0
143
1.0
 70
   688
 72
     0
 73
     0
 74
     5
  7
monochrome2.ctb
 75
    16
147
1.0
 76
     0
 77
     2
 78
   300
148
0.0
149
0.0
100
AcDbLayout
  1
Layout2
 70
     1
 71
     2
 10
0.0
 20
0.0
 11
12.0
 21
9.0
 12
0.0
 22
0.0
 32
0.0
 14
0.0
 24
0.0
 34
0.0
 15
0.0
 25
0.0
 35
0.0
146
0.0
 13
0.0
 23
0.0
 33
0.0
 16
1.0
 26
0.0
 36
0.0
 17
0.0
 27
1.0
 37
0.0
 76
     0
330
23
  0
LAYOUT
  5
22
102
{ACAD_REACTORS
330
1A
102
}
330
1A
100
AcDbPlotSettings
  1

  2
HP DesignJet 220 (D/A1) by HP
  4

  6

 40
0.0
 41
0.0
 42
0.0
 43
0.0
 44
0.0
 45
0.0
 46
0.0
 47
0.0
 48
0.0
 49
0.0
140
0.0
141
0.0
142
1.0
143
1.0
 70
  1712
 72
     0
 73
     0
 74
     0
  7
monochrome2.ctb
 75
     0
147
1.0
 76
     0
 77
     2
 78
   300
148
0.0
149
0.0
100
AcDbLayout
  1
Model
 70
     1
 71
     0
 10
0.0
 20
0.0
 11
12.0
 21
9.0
 12
0.0
 22
0.0
 32
0.0
 14
0.0
 24
0.0
 34
0.0
 15
0.0
 25
0.0
 35
0.0
146
0.0
 13
0.0
 23
0.0
 33
0.0
 16
1.0
 26
0.0
 36
0.0
 17
0.0
 27
1.0
 37
0.0
 76
     0
330
1F
331
2F0A
  0
MATERIAL
  5
2F14
102
{ACAD_XDICTIONARY
360
2F15
102
}
102
{ACAD_REACTORS
330
2E65
102
}
330
2E65
100
AcDbMaterial
  1
ByBlock
 72
     0
 43
0.0008202099737533
 43
0.0
 43
0.0
 43
0.0
 43
0.0
 43
0.0008202099737533
 43
0.0
 43
0.0
 43
0.0
 43
0.0
 43
1.0
 43
0.0
 43
0.0
 43
0.0
 43
0.0
 43
1.0
 77
     0
 47
0.0008202099737533
 47
0.0
 47
0.0
 47
0.0
 47
0.0
 47
0.0008202099737533
 47
0.0
 47
0.0
 47
0.0
 47
0.0
 47
1.0
 47
0.0
 47
0.0
 47
0.0
 47
0.0
 47
1.0
171
     0
 49
0.0008202099737533
 49
0.0
 49
0.0
 49
0.0
 49
0.0
 49
0.0008202099737533
 49
0.0
 49
0.0
 49
0.0
 49
0.0
 49
1.0
 49
0.0
 49
0.0
 49
0.0
 49
0.0
 49
1.0
175
     0
142
0.0008202099737533
142
0.0
142
0.0
142
0.0
142
0.0
142
0.0008202099737533
142
0.0
142
0.0
142
0.0
142
0.0
142
1.0
142
0.0
142
0.0
142
0.0
142
0.0
142
1.0
179
     0
144
0.0008202099737533
144
0.0
144
0.0
144
0.0
144
0.0
144
0.0008202099737533
144
0.0
144
0.0
144
0.0
144
0.0
144
1.0
144
0.0
144
0.0
144
0.0
144
0.0
144
1.0
147
0.0008202099737533
147
0.0
147
0.0
147
0.0
147
0.0
147
0.0008202099737533
147
0.0
147
0.0
147
0.0
147
0.0
147
1.0
147
0.0
147
0.0
147
0.0
147
0.0
147
1.0
  0
MATERIAL
  5
2F0C
102
{ACAD_XDICTIONARY
360
2F0D
102
}
102
{ACAD_REACTORS
330
2E65
102
}
330
2E65
100
AcDbMaterial
  1
ByLayer
 72
     0
 43
0.0008202099737533
 43
0.0
 43
0.0
 43
0.0
 43
0.0
 43
0.0008202099737533
 43
0.0
 43
0.0
 43
0.0
 43
0.0
 43
1.0
 43
0.0
 43
0.0
 43
0.0
 43
0.0
 43
1.0
 77
     0
 47
0.0008202099737533
 47
0.0
 47
0.0
 47
0.0
 47
0.0
 47
0.0008202099737533
 47
0.0
 47
0.0
 47
0.0
 47
0.0
 47
1.0
 47
0.0
 47
0.0
 47
0.0
 47
0.0
 47
1.0
171
     0
 49
0.0008202099737533
 49
0.0
 49
0.0
 49
0.0
 49
0.0
 49
0.0008202099737533
 49
0.0
 49
0.0
 49
0.0
 49
0.0
 49
1.0
 49
0.0
 49
0.0
 49
0.0
 49
0.0
 49
1.0
175
     0
142
0.0008202099737533
142
0.0
142
0.0
142
0.0
142
0.0
142
0.0008202099737533
142
0.0
142
0.0
142
0.0
142
0.0
142
1.0
142
0.0
142
0.0
142
0.0
142
0.0
142
1.0
179
     0
144
0.0008202099737533
144
0.0
144
0.0
144
0.0
144
0.0
144
0.0008202099737533
144
0.0
144
0.0
144
0.0
144
0.0
144
1.0
144
0.0
144
0.0
144
0.0
144
0.0
144
1.0
147
0.0008202099737533
147
0.0
147
0.0
147
0.0
147
0.0
147
0.0008202099737533
147
0.0
147
0.0
147
0.0
147
0.0
147
1.0
147
0.0
147
0.0
147
0.0
147
0.0
147
1.0
  0
MATERIAL
  5
2F1C
102
{ACAD_XDICTIONARY
360
2F1D
102
}
102
{ACAD_REACTORS
330
2E65
102
}
330
2E65
100
AcDbMaterial
  1
Global
 72
     0
 43
0.0008202099737533
 43
0.0
 43
0.0
 43
0.0
 43
0.0
 43
0.0008202099737533
 43
0.0
 43
0.0
 43
0.0
 43
0.0
 43
1.0
 43
0.0
 43
0.0
 43
0.0
 43
0.0
 43
1.0
 77
     0
 47
0.0008202099737533
 47
0.0
 47
0.0
 47
0.0
 47
0.0
 47
0.0008202099737533
 47
0.0
 47
0.0
 47
0.0
 47
0.0
 47
1.0
 47
0.0
 47
0.0
 47
0.0
 47
0.0
 47
1.0
171
     0
 49
0.0008202099737533
 49
0.0
 49
0.0
 49
0.0
 49
0.0
 49
0.0008202099737533
 49
0.0
 49
0.0
 49
0.0
 49
0.0
 49
1.0
 49
0.0
 49
0.0
 49
0.0
 49
0.0
 49
1.0
175
     0
142
0.0008202099737533
142
0.0
142
0.0
142
0.0
142
0.0
142
0.0008202099737533
142
0.0
142
0.0
142
0.0
142
0.0
142
1.0
142
0.0
142
0.0
142
0.0
142
0.0
142
1.0
179
     0
144
0.0008202099737533
144
0.0
144
0.0
144
0.0
144
0.0
144
0.0008202099737533
144
0.0
144
0.0
144
0.0
144
0.0
144
1.0
144
0.0
144
0.0
144
0.0
144
0.0
144
1.0
147
0.0008202099737533
147
0.0
147
0.0
147
0.0
147
0.0
147
0.0008202099737533
147
0.0
147
0.0
147
0.0
147
0.0
147
1.0
147
0.0
147
0.0
147
0.0
147
0.0
147
1.0
  0
MLEADERSTYLE
  5
2F48
102
{ACAD_REACTORS
330
2F47
102
}
330
2F47
100
AcDbMLeaderStyle
170
     2
171
     1
172
     0
 90
        2
 40
0.0
 41
0.0
173
     1
 91
-1056964608
340
14
 92
       -2
290
     1
 42
2.0
291
     1
 43
0.36
  3
Standard
 44
4.0
300

342
11
174
     1
178
     6
175
     1
176
     0
 93
-1056964608
 45
4.0
292
     0
297
     0
 46
4.0
 94
-1056964608
 47
1.0
 49
1.0
140
1.0
293
     1
141
0.0
294
     1
177
     0
142
1.0
295
     0
296
     0
143
0.125
1001
ACAD_MLEADERVER
1070
     2
  0
MLINESTYLE
  5
18
102
{ACAD_REACTORS
330
17
102
}
330
17
100
AcDbMlineStyle
  2
STANDARD
 70
     0
  3

 62
   256
 51
90.0
 52
90.0
 71
     2
 49
0.5
 62
   256
  6
BYLAYER
 49
-0.5
 62
   256
  6
BYLAYER
  0
ACDBPLACEHOLDER
  5
F
102
{ACAD_REACTORS
330
E
102
}
330
E
  0
SCALE
  5
2F36
102
{ACAD_REACTORS
330
2F35
102
}
330
2F35
100
AcDbScale
 70
     0
300
1:1
140
1.0
141
1.0
290
     1
  0
SCALE
  5
2F37
102
{ACAD_REACTORS
330
2F35
102
}
330
2F35
100
AcDbScale
 70
     0
300
1:2
140
1.0
141
2.0
290
     0
  0
SCALE
  5
2F38
102
{ACAD_REACTORS
330
2F35
102
}
330
2F35
100
AcDbScale
 70
     0
300
1:4
140
1.0
141
4.0
290
     0
  0
SCALE
  5
2F39
102
{ACAD_REACTORS
330
2F35
102
}
330
2F35
100
AcDbScale
 70
     0
300
1:5
140
1.0
141
5.0
290
     0
  0
SCALE
  5
2F3A
102
{ACAD_REACTORS
330
2F35
102
}
330
2F35
100
AcDbScale
 70
     0
300
1:8
140
1.0
141
8.0
290
     0
  0
SCALE
  5
2F3B
102
{ACAD_REACTORS
330
2F35
102
}
330
2F35
100
AcDbScale
 70
     0
300
1:10
140
1.0
141
10.0
290
     0
  0
SCALE
  5
2F3C
102
{ACAD_REACTORS
330
2F35
102
}
330
2F35
100
AcDbScale
 70
     0
300
1:16
140
1.0
141
16.0
290
     0
  0
SCALE
  5
2F3D
102
{ACAD_REACTORS
330
2F35
102
}
330
2F35
100
AcDbScale
 70
     0
300
1:20
140
1.0
141
20.0
290
     0
  0
SCALE
  5
2F3E
102
{ACAD_REACTORS
330
2F35
102
}
330
2F35
100
AcDbScale
 70
     0
300
1:30
140
1.0
141
30.0
290
     0
  0
SCALE
  5
2F3F
102
{ACAD_REACTORS
330
2F35
102
}
330
2F35
100
AcDbScale
 70
     0
300
1:40
140
1.0
141
40.0
290
     0
  0
SCALE
  5
2F40
102
{ACAD_REACTORS
330
2F35
102
}
330
2F35
100
AcDbScale
 70
     0
300
1:50
140
1.0
141
50.0
290
     0
  0
SCALE
  5
2F41
102
{ACAD_REACTORS
330
2F35
102
}
330
2F35
100
AcDbScale
 70
     0
300
1:100
140
1.0
141
100.0
290
     0
  0
SCALE
  5
2F42
102
{ACAD_REACTORS
330
2F35
102
}
330
2F35
100
AcDbScale
 70
     0
300
2:1
140
2.0
141
1.0
290
     0
  0
SCALE
  5
2F43
102
{ACAD_REACTORS
330
2F35
102
}
330
2F35
100
AcDbScale
 70
     0
300
4:1
140
4.0
141
1.0
290
     0
  0
SCALE
  5
2F44
102
{ACAD_REACTORS
330
2F35
102
}
330
2F35
100
AcDbScale
 70
     0
300
8:1
140
8.0
141
1.0
290
     0
  0
SCALE
  5
2F45
102
{ACAD_REACTORS
330
2F35
102
}
330
2F35
100
AcDbScale
 70
     0
300
10:1
140
10.0
141
1.0
290
     0
  0
SCALE
  5
2F46
102
{ACAD_REACTORS
330
2F35
102
}
330
2F35
100
AcDbScale
 70
     0
300
100:1
140
100.0
141
1.0
290
     0
  0
TABLESTYLE
  5
2E68
102
{ACAD_XDICTIONARY
360
E9FD
102
}
102
{ACAD_REACTORS
330
2E67
102
}
330
2E67
100
AcDbTableStyle
  3
Standard
 70
     0
 71
     0
 40
1.5
 41
1.5
280
     0
281
     0
  7
STANDARD
140
4.5
170
     2
 62
     0
 63
     7
283
     0
274
    -2
284
     1
 64
     0
275
    -2
285
     1
 65
     0
276
    -2
286
     1
 66
     0
277
    -2
287
     1
 67
     0
278
    -2
288
     1
 68
     0
279
    -2
289
     1
 69
     0
  7
STANDARD
140
6.0
170
     5
 62
     0
 63
     7
283
     0
274
    -2
284
     1
 64
     0
275
    -2
285
     1
 65
     0
276
    -2
286
     1
 66
     0
277
    -2
287
     1
 67
     0
278
    -2
288
     1
 68
     0
279
    -2
289
     1
 69
     0
  7
STANDARD
140
4.5
170
     5
 62
     0
 63
     7
283
     0
274
    -2
284
     1
 64
     0
275
    -2
285
     1
 65
     0
276
    -2
286
     1
 66
     0
277
    -2
287
     1
 67
     0
278
    -2
288
     1
 68
     0
279
    -2
289
     1
 69
     0
  0
VISUALSTYLE
  5
2F2A
102
{ACAD_REACTORS
330
2F24
102
}
330
2F24
100
AcDbVisualStyle
  2
2dWireframe
 70
     4
 71
     0
 72
     2
 73
     0
 90
        0
 40
-0.6
 41
-30.0
 62
     5
 63
     7
 74
     1
 91
        4
 64
     7
 65
   257
 75
     1
175
     1
 42
1.0
 92
        0
 66
   257
 43
1.0
 76
     1
 77
     6
 78
     2
 67
     7
 79
     5
170
     0
171
     0
290
     0
174
     0
 93
        1
 44
0.0
173
     0
291
     0
 45
0.0
1001
ACAD
1000
AcDbSavedByObjectVersion
1070
     0
  0
VISUALSTYLE
  5
2F2C
102
{ACAD_REACTORS
330
2F24
102
}
330
2F24
100
AcDbVisualStyle
  2
3D Hidden
 70
     6
 71
     1
 72
     2
 73
     2
 90
        0
 40
-0.6
 41
-30.0
 62
     5
 63
     7
 74
     2
 91
        2
 64
     7
 65
   257
 75
     2
175
     1
 42
40.0
 92
        0
 66
   257
 43
1.0
 76
     1
 77
     6
 78
     2
 67
     7
 79
     3
170
     0
171
     0
290
     0
174
     0
 93
        1
 44
0.0
173
     0
291
     0
 45
0.0
1001
ACAD
1000
AcDbSavedByObjectVersion
1070
     0
  0
VISUALSTYLE
  5
2F2B
102
{ACAD_REACTORS
330
2F24
102
}
330
2F24
100
AcDbVisualStyle
  2
3dWireframe
 70
     5
 71
     0
 72
     2
 73
     0
 90
        0
 40
-0.6
 41
-30.0
 62
     5
 63
     7
 74
     1
 91
        4
 64
     7
 65
   257
 75
     1
175
     1
 42
1.0
 92
        0
 66
   257
 43
1.0
 76
     1
 77
     6
 78
     2
 67
     7
 79
     5
170
     0
171
     0
290
     0
174
     0
 93
        1
 44
0.0
173
     0
291
     0
 45
0.0
1001
ACAD
1000
AcDbSavedByObjectVersion
1070
     0
  0
VISUALSTYLE
  5
2F29
102
{ACAD_REACTORS
330
2F24
102
}
330
2F24
100
AcDbVisualStyle
  2
Basic
 70
     7
 71
     1
 72
     0
 73
     1
 90
        0
 40
-0.6
 41
-30.0
 62
     5
 63
     7
 74
     0
 91
        4
 64
     7
 65
   257
 75
     1
175
     1
 42
1.0
 92
        8
 66
     7
 43
1.0
 76
     1
 77
     6
 78
     2
 67
     7
 79
     5
170
     0
171
     0
290
     0
174
     0
 93
        1
 44
0.0
173
     0
291
     1
 45
0.0
1001
ACAD
1000
AcDbSavedByObjectVersion
1070
     0
  0
VISUALSTYLE
  5
2F30
102
{ACAD_REACTORS
330
2F24
102
}
330
2F24
100
AcDbVisualStyle
  2
Brighten
 70
    12
 71
     2
 72
     2
 73
     0
 90
        0
 40
-0.6
 41
-30.0
 62
     5
 63
     7
 74
     1
 91
        4
 64
     7
 65
   257
 75
     1
175
     1
 42
1.0
 92
        8
 66
     7
 43
1.0
 76
     1
 77
     6
 78
     2
 67
     7
 79
     5
170
     0
171
     0
290
     0
174
     0
 93
        1
 44
50.0
173
     0
291
     1
 45
0.0
1001
ACAD
1000
AcDbSavedByObjectVersion
1070
     0
  0
VISUALSTYLE
  5
2F34
102
{ACAD_REACTORS
330
2F24
102
}
330
2F24
100
AcDbVisualStyle
  2
ColorChange
 70
    16
 71
     2
 72
     2
 73
     3
 90
        0
 40
-0.6
 41
-30.0
 62
     5
 63
     8
 74
     1
 91
        4
 64
     7
 65
   257
 75
     1
175
     1
 42
1.0
 92
        8
 66
     8
 43
1.0
 76
     1
 77
     6
 78
     2
 67
     7
 79
     5
170
     0
171
     0
290
     0
174
     0
 93
        1
 44
0.0
173
     0
291
     1
 45
0.0
1001
ACAD
1000
AcDbSavedByObjectVersion
1070
     0
  0
VISUALSTYLE
  5
2F2D
102
{ACAD_REACTORS
330
2F24
102
}
330
2F24
100
AcDbVisualStyle
  2
Conceptual
 70
     9
 71
     3
 72
     2
 73
     0
 90
        0
 40
-0.6
 41
-30.0
 62
     5
 63
     7
 74
     2
 91
        2
 64
     7
 65
   257
 75
     1
175
     1
 42
40.0
 92
        8
 66
     7
 43
1.0
 76
     1
 77
     6
 78
     2
 67
     7
 79
     3
170
     0
171
     0
290
     0
174
     0
 93
        1
 44
0.0
173
     0
291
     0
 45
0.0
1001
ACAD
1000
AcDbSavedByObjectVersion
1070
     0
  0
VISUALSTYLE
  5
2F2F
102
{ACAD_REACTORS
330
2F24
102
}
330
2F24
100
AcDbVisualStyle
  2
Dim
 70
    11
 71
     2
 72
     2
 73
     0
 90
        0
 40
-0.6
 41
-30.0
 62
     5
 63
     7
 74
     1
 91
        4
 64
     7
 65
   257
 75
     1
175
     1
 42
1.0
 92
        8
 66
     7
 43
1.0
 76
     1
 77
     6
 78
     2
 67
     7
 79
     5
170
     0
171
     0
290
     0
174
     0
 93
        1
 44
-50.0
173
     0
291
     1
 45
0.0
1001
ACAD
1000
AcDbSavedByObjectVersion
1070
     0
  0
VISUALSTYLE
  5
2F33
102
{ACAD_REACTORS
330
2F24
102
}
330
2F24
100
AcDbVisualStyle
  2
Facepattern
 70
    15
 71
     2
 72
     2
 73
     0
 90
        0
 40
-0.6
 41
-30.0
 62
     5
 63
     7
 74
     1
 91
        4
 64
     7
 65
   257
 75
     1
175
     1
 42
1.0
 92
        8
 66
     7
 43
1.0
 76
     1
 77
     6
 78
     2
 67
     7
 79
     5
170
     0
171
     0
290
     0
174
     0
 93
        1
 44
0.0
173
     0
291
     1
 45
0.0
1001
ACAD
1000
AcDbSavedByObjectVersion
1070
     0
  0
VISUALSTYLE
  5
2F25
102
{ACAD_REACTORS
330
2F24
102
}
330
2F24
100
AcDbVisualStyle
  2
Flat
 70
     0
 71
     2
 72
     1
 73
     1
 90
        2
 40
-0.6
 41
30.0
 62
     5
 63
     7
 74
     0
 91
        4
 64
     7
 65
   257
 75
     1
175
     1
 42
1.0
 92
        8
 66
     7
 43
1.0
 76
     1
 77
     6
 78
     2
 67
     7
 79
     5
170
     0
171
     0
290
     0
174
     0
 93
       13
 44
0.0
173
     0
291
     1
 45
0.0
1001
ACAD
1000
AcDbSavedByObjectVersion
1070
     0
  0
VISUALSTYLE
  5
2F26
102
{ACAD_REACTORS
330
2F24
102
}
330
2F24
100
AcDbVisualStyle
  2
FlatWithEdges
 70
     1
 71
     2
 72
     1
 73
     1
 90
        2
 40
-0.6
 41
30.0
 62
     5
 63
     7
 74
     1
 91
        4
 64
     7
 65
   257
 75
     1
175
     1
 42
1.0
 92
        0
 66
   257
 43
1.0
 76
     1
 77
     6
 78
     2
 67
     7
 79
     5
170
     0
171
     0
290
     0
174
     0
 93
       13
 44
0.0
173
     0
291
     1
 45
0.0
1001
ACAD
1000
AcDbSavedByObjectVersion
1070
     0
  0
VISUALSTYLE
  5
2F27
102
{ACAD_REACTORS
330
2F24
102
}
330
2F24
100
AcDbVisualStyle
  2
Gouraud
 70
     2
 71
     2
 72
     2
 73
     1
 90
        2
 40
-0.6
 41
30.0
 62
     5
 63
     7
 74
     0
 91
        4
 64
     7
 65
   257
 75
     1
175
     1
 42
1.0
 92
        0
 66
     7
 43
1.0
 76
     1
 77
     6
 78
     2
 67
     7
 79
     5
170
     0
171
     0
290
     0
174
     0
 93
       13
 44
0.0
173
     0
291
     1
 45
0.0
1001
ACAD
1000
AcDbSavedByObjectVersion
1070
     0
  0
VISUALSTYLE
  5
2F28
102
{ACAD_REACTORS
330
2F24
102
}
330
2F24
100
AcDbVisualStyle
  2
GouraudWithEdges
 70
     3
 71
     2
 72
     2
 73
     1
 90
        2
 40
-0.6
 41
30.0
 62
     5
 63
     7
 74
     1
 91
        4
 64
     7
 65
   257
 75
     1
175
     1
 42
1.0
 92
        0
 66
   257
 43
1.0
 76
     1
 77
     6
 78
     2
 67
     7
 79
     5
170
     0
171
     0
290
     0
174
     0
 93
       13
 44
0.0
173
     0
291
     1
 45
0.0
1001
ACAD
1000
AcDbSavedByObjectVersion
1070
     0
  0
VISUALSTYLE
  5
2F32
102
{ACAD_REACTORS
330
2F24
102
}
330
2F24
100
AcDbVisualStyle
  2
Linepattern
 70
    14
 71
     2
 72
     2
 73
     0
 90
        0
 40
-0.6
 41
-30.0
 62
     5
 63
     7
 74
     1
 91
        4
 64
     7
 65
   257
 75
     7
175
     7
 42
1.0
 92
        8
 66
     7
 43
1.0
 76
     1
 77
     6
 78
     2
 67
     7
 79
     5
170
     0
171
     0
290
     0
174
     0
 93
        1
 44
0.0
173
     0
291
     1
 45
0.0
1001
ACAD
1000
AcDbSavedByObjectVersion
1070
     0
  0
VISUALSTYLE
  5
2F2E
102
{ACAD_REACTORS
330
2F24
102
}
330
2F24
100
AcDbVisualStyle
  2
Realistic
 70
     8
 71
     2
 72
     2
 73
     0
 90
        0
 40
-0.6
 41
-30.0
 62
     5
 63
     7
 74
     1
 91
        0
 64
     7
 65
   257
 75
     1
175
     1
 42
1.0
 92
        8
 66
     8
 43
1.0
 76
     1
 77
     6
 78
     2
 67
     7
 79
     5
170
     0
171
     0
290
     0
174
     0
 93
       13
 44
0.0
173
     0
291
     0
 45
0.0
1001
ACAD
1000
AcDbSavedByObjectVersion
1070
     0
  0
VISUALSTYLE
  5
2F31
102
{ACAD_REACTORS
330
2F24
102
}
330
2F24
100
AcDbVisualStyle
  2
Thicken
 70
    13
 71
     2
 72
     2
 73
     0
 90
        0
 40
-0.6
 41
-30.0
 62
     5
 63
     7
 74
     1
 91
        4
 64
     7
 65
   257
 75
     1
175
     1
 42
1.0
 92
       12
 66
     7
 43
1.0
 76
     1
 77
     6
 78
     2
 67
     7
 79
     5
170
     0
171
     0
290
     0
174
     0
 93
        1
 44
0.0
173
     0
291
     1
 45
0.0
1001
ACAD
1000
AcDbSavedByObjectVersion
1070
     0
  0
DICTIONARYVAR
  5
EA02
102
{ACAD_REACTORS
330
216
102
}
330
216
100
DictionaryVariables
280
     0
  1
1:1
  0
DICTIONARYVAR
  5
EA00
102
{ACAD_REACTORS
330
216
102
}
330
216
100
DictionaryVariables
280
     0
  1
STANDARD
  0
DICTIONARYVAR
  5
2EEA
102
{ACAD_REACTORS
330
216
102
}
330
216
100
DictionaryVariables
280
     0
  1
STANDARD
  0
DICTIONARYVAR
  5
219
102
{ACAD_REACTORS
330
216
102
}
330
216
100
DictionaryVariables
280
     0
  1
1
  0
DICTIONARYVAR
  5
218
102
{ACAD_REACTORS
330
216
102
}
330
216
100
DictionaryVariables
280
     0
  1
1
  0
DICTIONARYVAR
  5
217
102
{ACAD_REACTORS
330
216
102
}
330
216
100
DictionaryVariables
280
     0
  1
0
  0
DICTIONARYVAR
  5
EA04
102
{ACAD_REACTORS
330
216
102
}
330
216
100
DictionaryVariables
280
     0
  1
1
  0
DICTIONARYVAR
  5
EA05
102
{ACAD_REACTORS
330
216
102
}
330
216
100
DictionaryVariables
280
     0
  1
15
  0
DICTIONARYVAR
  5
EA03
102
{ACAD_REACTORS
330
216
102
}
330
216
100
DictionaryVariables
280
     0
  1
0
  0
DICTIONARYVAR
  5
EA01
102
{ACAD_REACTORS
330
216
102
}
330
216
100
DictionaryVariables
280
     0
  1
0
  0
DICTIONARYVAR
  5
EA31
102
{ACAD_REACTORS
330
216
102
}
330
216
100
DictionaryVariables
280
     0
  1
127
  0
DICTIONARY
  5
4A
102
{ACAD_REACTORS
330
45
102
}
330
45
100
AcDbDictionary
281
     1
  0
XRECORD
  5
2EB6
102
{ACAD_REACTORS
330
45
102
}
330
45
100
AcDbXrecord
280
     1
 90
-1023410169
  0
DICTIONARY
  5
2F15
330
2F14
100
AcDbDictionary
280
     1
281
     1
  3
ACAD_XREC_ROUNDTRIP
360
EE02
  3
BUMPTILE
360
2F17
  3
DIFFUSETILE
360
2F16
  3
OPACITYTILE
360
2F1A
  3
REFLECTIONTILE
360
2F19
  3
REFRACTIONTILE
360
2F1B
  3
SPECULARTILE
360
2F18
  0
DICTIONARY
  5
2F0D
330
2F0C
100
AcDbDictionary
280
     1
281
     1
  3
ACAD_XREC_ROUNDTRIP
360
EE01
  3
BUMPTILE
360
2F0F
  3
DIFFUSETILE
360
2F0E
  3
OPACITYTILE
360
2F12
  3
REFLECTIONTILE
360
2F11
  3
REFRACTIONTILE
360
2F13
  3
SPECULARTILE
360
2F10
  0
DICTIONARY
  5
2F1D
330
2F1C
100
AcDbDictionary
280
     1
281
     1
  3
ACAD_XREC_ROUNDTRIP
360
EE03
  3
BUMPTILE
360
2F1F
  3
DIFFUSETILE
360
2F1E
  3
OPACITYTILE
360
2F22
  3
REFLECTIONTILE
360
2F21
  3
REFRACTIONTILE
360
2F23
  3
SPECULARTILE
360
2F20
  0
DICTIONARY
  5
E9FD
330
2E68
100
AcDbDictionary
280
     1
281
     1
  3
ACAD_ROUNDTRIP_2008_TABLESTYLE_CELLSTYLEMAP
360
EDFA
  3
ACAD_XREC_ROUNDTRIP
360
EE00
  0
XRECORD
  5
EE02
102
{ACAD_REACTORS
330
2F15
102
}
330
2F15
100
AcDbXrecord
280
     1
102
MATERIAL
148
0.0
149
0.0
149
0.0
 93
        0
 94
      127
282
     0
 72
     0
 77
     0
171
     0
175
     0
179
     0
273
     0
  0
XRECORD
  5
2F17
102
{ACAD_REACTORS
330
2F15
102
}
330
2F15
100
AcDbXrecord
280
     1
270
     1
271
     1
  0
XRECORD
  5
2F16
102
{ACAD_REACTORS
330
2F15
102
}
330
2F15
100
AcDbXrecord
280
     1
270
     1
271
     1
  0
XRECORD
  5
2F1A
102
{ACAD_REACTORS
330
2F15
102
}
330
2F15
100
AcDbXrecord
280
     1
270
     1
271
     1
  0
XRECORD
  5
2F19
102
{ACAD_REACTORS
330
2F15
102
}
330
2F15
100
AcDbXrecord
280
     1
270
     1
271
     1
  0
XRECORD
  5
2F1B
102
{ACAD_REACTORS
330
2F15
102
}
330
2F15
100
AcDbXrecord
280
     1
270
     1
271
     1
  0
XRECORD
  5
2F18
102
{ACAD_REACTORS
330
2F15
102
}
330
2F15
100
AcDbXrecord
280
     1
270
     1
271
     1
  0
XRECORD
  5
EE01
102
{ACAD_REACTORS
330
2F0D
102
}
330
2F0D
100
AcDbXrecord
280
     1
102
MATERIAL
148
0.0
149
0.0
149
0.0
 93
        0
 94
      127
282
     0
 72
     0
 77
     0
171
     0
175
     0
179
     0
273
     0
  0
XRECORD
  5
2F0F
102
{ACAD_REACTORS
330
2F0D
102
}
330
2F0D
100
AcDbXrecord
280
     1
270
     1
271
     1
  0
XRECORD
  5
2F0E
102
{ACAD_REACTORS
330
2F0D
102
}
330
2F0D
100
AcDbXrecord
280
     1
270
     1
271
     1
  0
XRECORD
  5
2F12
102
{ACAD_REACTORS
330
2F0D
102
}
330
2F0D
100
AcDbXrecord
280
     1
270
     1
271
     1
  0
XRECORD
  5
2F11
102
{ACAD_REACTORS
330
2F0D
102
}
330
2F0D
100
AcDbXrecord
280
     1
270
     1
271
     1
  0
XRECORD
  5
2F13
102
{ACAD_REACTORS
330
2F0D
102
}
330
2F0D
100
AcDbXrecord
280
     1
270
     1
271
     1
  0
XRECORD
  5
2F10
102
{ACAD_REACTORS
330
2F0D
102
}
330
2F0D
100
AcDbXrecord
280
     1
270
     1
271
     1
  0
XRECORD
  5
EE03
102
{ACAD_REACTORS
330
2F1D
102
}
330
2F1D
100
AcDbXrecord
280
     1
102
MATERIAL
148
0.0
149
0.0
149
0.0
 93
        0
 94
      127
282
     0
 72
     0
 77
     0
171
     0
175
     0
179
     0
273
     0
  0
XRECORD
  5
2F1F
102
{ACAD_REACTORS
330
2F1D
102
}
330
2F1D
100
AcDbXrecord
280
     1
270
     1
271
     1
  0
XRECORD
  5
2F1E
102
{ACAD_REACTORS
330
2F1D
102
}
330
2F1D
100
AcDbXrecord
280
     1
270
     1
271
     1
  0
XRECORD
  5
2F22
102
{ACAD_REACTORS
330
2F1D
102
}
330
2F1D
100
AcDbXrecord
280
     1
270
     1
271
     1
  0
XRECORD
  5
2F21
102
{ACAD_REACTORS
330
2F1D
102
}
330
2F1D
100
AcDbXrecord
280
     1
270
     1
271
     1
  0
XRECORD
  5
2F23
102
{ACAD_REACTORS
330
2F1D
102
}
330
2F1D
100
AcDbXrecord
280
     1
270
     1
271
     1
  0
XRECORD
  5
2F20
102
{ACAD_REACTORS
330
2F1D
102
}
330
2F1D
100
AcDbXrecord
280
     1
270
     1
271
     1
  0
CELLSTYLEMAP
  5
EDFA
102
{ACAD_REACTORS
330
E9FD
102
}
330
E9FD
100
AcDbCellStyleMap
 90
        3
300
CELLSTYLE
  1
TABLEFORMAT_BEGIN
 90
        5
170
     1
 91
        0
 92
    32768
 62
   257
 93
        1
300
CONTENTFORMAT
  1
CONTENTFORMAT_BEGIN
 90
        0
 91
        0
 92
        4
 93
        0
300

 40
0.0
140
1.0
 94
        5
 62
     0
340
11
144
6.0
309
CONTENTFORMAT_END
171
     1
301
MARGIN
  1
CELLMARGIN_BEGIN
 40
1.5
 40
1.5
 40
1.5
 40
1.5
 40
0.18
 40
0.18
309
CELLMARGIN_END
 94
        6
 95
        1
302
GRIDFORMAT
  1
GRIDFORMAT_BEGIN
 90
        0
 91
        1
 62
     0
 92
       -2
340
0
 93
        0
 40
0.045
309
GRIDFORMAT_END
 95
        2
302
GRIDFORMAT
  1
GRIDFORMAT_BEGIN
 90
        0
 91
        1
 62
     0
 92
       -2
340
0
 93
        0
 40
0.045
309
GRIDFORMAT_END
 95
        4
302
GRIDFORMAT
  1
GRIDFORMAT_BEGIN
 90
        0
 91
        1
 62
     0
 92
       -2
340
0
 93
        0
 40
0.045
309
GRIDFORMAT_END
 95
        8
302
GRIDFORMAT
  1
GRIDFORMAT_BEGIN
 90
        0
 91
        1
 62
     0
 92
       -2
340
0
 93
        0
 40
0.045
309
GRIDFORMAT_END
 95
       16
302
GRIDFORMAT
  1
GRIDFORMAT_BEGIN
 90
        0
 91
        1
 62
     0
 92
       -2
340
0
 93
        0
 40
0.045
309
GRIDFORMAT_END
 95
       32
302
GRIDFORMAT
  1
GRIDFORMAT_BEGIN
 90
        0
 91
        1
 62
     0
 92
       -2
340
0
 93
        0
 40
0.045
309
GRIDFORMAT_END
309
TABLEFORMAT_END
  1
CELLSTYLE_BEGIN
 90
        1
 91
        1
300
_TITLE
309
CELLSTYLE_END
300
CELLSTYLE
  1
TABLEFORMAT_BEGIN
 90
        5
170
     1
 91
        0
 92
        0
 62
   257
 93
        1
300
CONTENTFORMAT
  1
CONTENTFORMAT_BEGIN
 90
        0
 91
        0
 92
        4
 93
        0
300

 40
0.0
140
1.0
 94
        5
 62
     0
340
11
144
4.5
309
CONTENTFORMAT_END
171
     1
301
MARGIN
  1
CELLMARGIN_BEGIN
 40
1.5
 40
1.5
 40
1.5
 40
1.5
 40
0.18
 40
0.18
309
CELLMARGIN_END
 94
        6
 95
        1
302
GRIDFORMAT
  1
GRIDFORMAT_BEGIN
 90
        0
 91
        1
 62
     0
 92
       -2
340
0
 93
        0
 40
0.045
309
GRIDFORMAT_END
 95
        2
302
GRIDFORMAT
  1
GRIDFORMAT_BEGIN
 90
        0
 91
        1
 62
     0
 92
       -2
340
0
 93
        0
 40
0.045
309
GRIDFORMAT_END
 95
        4
302
GRIDFORMAT
  1
GRIDFORMAT_BEGIN
 90
        0
 91
        1
 62
     0
 92
       -2
340
0
 93
        0
 40
0.045
309
GRIDFORMAT_END
 95
        8
302
GRIDFORMAT
  1
GRIDFORMAT_BEGIN
 90
        0
 91
        1
 62
     0
 92
       -2
340
0
 93
        0
 40
0.045
309
GRIDFORMAT_END
 95
       16
302
GRIDFORMAT
  1
GRIDFORMAT_BEGIN
 90
        0
 91
        1
 62
     0
 92
       -2
340
0
 93
        0
 40
0.045
309
GRIDFORMAT_END
 95
       32
302
GRIDFORMAT
  1
GRIDFORMAT_BEGIN
 90
        0
 91
        1
 62
     0
 92
       -2
340
0
 93
        0
 40
0.045
309
GRIDFORMAT_END
309
TABLEFORMAT_END
  1
CELLSTYLE_BEGIN
 90
        2
 91
        1
300
_HEADER
309
CELLSTYLE_END
300
CELLSTYLE
  1
TABLEFORMAT_BEGIN
 90
        5
170
     1
 91
        0
 92
        0
 62
   257
 93
        1
300
CONTENTFORMAT
  1
CONTENTFORMAT_BEGIN
 90
        0
 91
        0
 92
        4
 93
        0
300

 40
0.0
140
1.0
 94
        2
 62
     0
340
11
144
4.5
309
CONTENTFORMAT_END
171
     1
301
MARGIN
  1
CELLMARGIN_BEGIN
 40
1.5
 40
1.5
 40
1.5
 40
1.5
 40
0.18
 40
0.18
309
CELLMARGIN_END
 94
        6
 95
        1
302
GRIDFORMAT
  1
GRIDFORMAT_BEGIN
 90
        0
 91
        1
 62
     0
 92
       -2
340
0
 93
        0
 40
0.045
309
GRIDFORMAT_END
 95
        2
302
GRIDFORMAT
  1
GRIDFORMAT_BEGIN
 90
        0
 91
        1
 62
     0
 92
       -2
340
0
 93
        0
 40
0.045
309
GRIDFORMAT_END
 95
        4
302
GRIDFORMAT
  1
GRIDFORMAT_BEGIN
 90
        0
 91
        1
 62
     0
 92
       -2
340
0
 93
        0
 40
0.045
309
GRIDFORMAT_END
 95
        8
302
GRIDFORMAT
  1
GRIDFORMAT_BEGIN
 90
        0
 91
        1
 62
     0
 92
       -2
340
0
 93
        0
 40
0.045
309
GRIDFORMAT_END
 95
       16
302
GRIDFORMAT
  1
GRIDFORMAT_BEGIN
 90
        0
 91
        1
 62
     0
 92
       -2
340
0
 93
        0
 40
0.045
309
GRIDFORMAT_END
 95
       32
302
GRIDFORMAT
  1
GRIDFORMAT_BEGIN
 90
        0
 91
        1
 62
     0
 92
       -2
340
0
 93
        0
 40
0.045
309
GRIDFORMAT_END
309
TABLEFORMAT_END
  1
CELLSTYLE_BEGIN
 90
        3
 91
        2
300
_DATA
309
CELLSTYLE_END
  0
XRECORD
  5
EE00
102
{ACAD_REACTORS
330
E9FD
102
}
330
E9FD
100
AcDbXrecord
280
     1
102
ACAD_ROUNDTRIP_PRE2007_TABLESTYLE
 90
        4
 91
        0
  1

 92
        4
 93
        0
  2

 94
        4
 95
        0
  3

  0
ENDSEC
  0
EOF
