  0
SECTION
  2
HEADER
  9
$ACADVER
  1
AC1018
  9
$ACADMAINTVER
 70
   104
  9
$DWGCODEPAGE
  3
ANSI_1252
  9
$LASTSAVEDBY
  1
Bernd Dutschke
  9
$CUSTOMPROPERTYTAG
  1
AmdtFileType
  9
$CUSTOMPROPERTY
  1
84
  9
$INSBASE
 10
0.0
 20
0.0
 30
0.0
  9
$EXTMIN
 10
-28.99080116676419
 20
-33.91449625126859
 30
-0.0000000000000022
  9
$EXTMAX
 10
88.56973074867211
 20
79.82742047536544
 30
0.0000000000000131
  9
$LIMMIN
 10
0.0
 20
0.0
  9
$LIMMAX
 10
420.0
 20
297.0
  9
$ORTHOMODE
 70
     0
  9
$REGENMODE
 70
     1
  9
$FILLMODE
 70
     1
  9
$QTEXTMODE
 70
     0
  9
$MIRRTEXT
 70
     1
  9
$LTSCALE
 40
1.0
  9
$ATTMODE
 70
     1
  9
$TEXTSIZE
 40
3.5
  9
$TRACEWID
 40
1.0
  9
$TEXTSTYLE
  7
STANDARD
  9
$CLAYER
  8
AM_0
  9
$CELTYPE
  6
ByLayer
  9
$CECOLOR
 62
   256
  9
$CELTSCALE
 40
1.0
  9
$DISPSILH
 70
     0
  9
$DIMSCALE
 40
1.0
  9
$DIMASZ
 40
2.5
  9
$DIMEXO
 40
0.0
  9
$DIMDLI
 40
10.0
  9
$DIMRND
 40
0.0
  9
$DIMDLE
 40
0.0
  9
$DIMEXE
 40
1.0
  9
$DIMTP
 40
0.1
  9
$DIMTM
 40
0.1
  9
$DIMTXT
 40
3.5
  9
$DIMCEN
 40
0.0
  9
$DIMTSZ
 40
0.0
  9
$DIMTOL
 70
     0
  9
$DIMLIM
 70
     0
  9
$DIMTIH
 70
     0
  9
$DIMTOH
 70
     0
  9
$DIMSE1
 70
     0
  9
$DIMSE2
 70
     0
  9
$DIMTAD
 70
     1
  9
$DIMZIN
 70
     8
  9
$DIMBLK
  1

  9
$DIMASO
 70
     1
  9
$DIMSHO
 70
     1
  9
$DIMPOST
  1

  9
$DIMAPOST
  1
"
  9
$DIMALT
 70
     0
  9
$DIMALTD
 70
     2
  9
$DIMALTF
 40
0.0393701
  9
$DIMLFAC
 40
1.0
  9
$DIMTOFL
 70
     1
  9
$DIMTVP
 40
0.0
  9
$DIMTIX
 70
     0
  9
$DIMSOXD
 70
     0
  9
$DIMSAH
 70
     0
  9
$DIMBLK1
  1

  9
$DIMBLK2
  1

  9
$DIMSTYLE
  2
AM_DIN
  9
$DIMCLRD
 70
   256
  9
$DIMCLRE
 70
   256
  9
$DIMCLRT
 70
     2
  9
$DIMTFAC
 40
0.71
  9
$DIMGAP
 40
1.5
  9
$DIMJUST
 70
     0
  9
$DIMSD1
 70
     0
  9
$DIMSD2
 70
     0
  9
$DIMTOLJ
 70
     0
  9
$DIMTZIN
 70
     8
  9
$DIMALTZ
 70
     0
  9
$DIMALTTZ
 70
     0
  9
$DIMUPT
 70
     0
  9
$DIMDEC
 70
     1
  9
$DIMTDEC
 70
     2
  9
$DIMALTU
 70
     2
  9
$DIMALTTD
 70
     2
  9
$DIMTXSTY
  7
STANDARD
  9
$DIMAUNIT
 70
     0
  9
$DIMADEC
 70
     0
  9
$DIMALTRND
 40
0.0
  9
$DIMAZIN
 70
     2
  9
$DIMDSEP
 70
    46
  9
$DIMATFIT
 70
     3
  9
$DIMFRAC
 70
     0
  9
$DIMLDRBLK
  1

  9
$DIMLUNIT
 70
     2
  9
$DIMLWD
 70
    -1
  9
$DIMLWE
 70
    -1
  9
$DIMTMOVE
 70
     0
  9
$LUNITS
 70
     2
  9
$LUPREC
 70
     2
  9
$SKETCHINC
 40
1.0
  9
$FILLETRAD
 40
1.0
  9
$AUNITS
 70
     0
  9
$AUPREC
 70
     0
  9
$MENU
  1
.
  9
$ELEVATION
 40
0.0
  9
$PELEVATION
 40
0.0
  9
$THICKNESS
 40
0.0
  9
$LIMCHECK
 70
     0
  9
$CHAMFERA
 40
2.5
  9
$CHAMFERB
 40
2.5
  9
$CHAMFERC
 40
20.0
  9
$CHAMFERD
 40
0.0
  9
$SKPOLY
 70
     0
  9
$TDCREATE
 40
2453599.656190694
  9
$TDUCREATE
 40
2453599.614524028
  9
$TDUPDATE
 40
2454798.612395649
  9
$TDUUPDATE
 40
2454798.570728982
  9
$TDINDWG
 40
0.2222045139
  9
$TDUSRTIMER
 40
0.2220177894
  9
$USRTIMER
 70
     1
  9
$ANGBASE
 50
0.0
  9
$ANGDIR
 70
     0
  9
$PDMODE
 70
     0
  9
$PDSIZE
 40
0.0
  9
$PLINEWID
 40
0.0
  9
$SPLFRAME
 70
     0
  9
$SPLINETYPE
 70
     6
  9
$SPLINESEGS
 70
     8
  9
$HANDSEED
  5
13CA4
  9
$SURFTAB1
 70
     6
  9
$SURFTAB2
 70
     6
  9
$SURFTYPE
 70
     6
  9
$SURFU
 70
     6
  9
$SURFV
 70
     6
  9
$UCSBASE
  2

  9
$UCSNAME
  2

  9
$UCSORG
 10
0.0
 20
0.0
 30
0.0
  9
$UCSXDIR
 10
1.0
 20
0.0
 30
0.0
  9
$UCSYDIR
 10
0.0
 20
1.0
 30
0.0
  9
$UCSORTHOREF
  2

  9
$UCSORTHOVIEW
 70
     0
  9
$UCSORGTOP
 10
0.0
 20
0.0
 30
0.0
  9
$UCSORGBOTTOM
 10
0.0
 20
0.0
 30
0.0
  9
$UCSORGLEFT
 10
0.0
 20
0.0
 30
0.0
  9
$UCSORGRIGHT
 10
0.0
 20
0.0
 30
0.0
  9
$UCSORGFRONT
 10
0.0
 20
0.0
 30
0.0
  9
$UCSORGBACK
 10
0.0
 20
0.0
 30
0.0
  9
$PUCSBASE
  2

  9
$PUCSNAME
  2

  9
$PUCSORG
 10
0.0
 20
0.0
 30
0.0
  9
$PUCSXDIR
 10
1.0
 20
0.0
 30
0.0
  9
$PUCSYDIR
 10
0.0
 20
1.0
 30
0.0
  9
$PUCSORTHOREF
  2

  9
$PUCSORTHOVIEW
 70
     0
  9
$PUCSORGTOP
 10
0.0
 20
0.0
 30
0.0
  9
$PUCSORGBOTTOM
 10
0.0
 20
0.0
 30
0.0
  9
$PUCSORGLEFT
 10
0.0
 20
0.0
 30
0.0
  9
$PUCSORGRIGHT
 10
0.0
 20
0.0
 30
0.0
  9
$PUCSORGFRONT
 10
0.0
 20
0.0
 30
0.0
  9
$PUCSORGBACK
 10
0.0
 20
0.0
 30
0.0
  9
$USERI1
 70
     0
  9
$USERI2
 70
     0
  9
$USERI3
 70
     0
  9
$USERI4
 70
     0
  9
$USERI5
 70
     0
  9
$USERR1
 40
0.0
  9
$USERR2
 40
0.0
  9
$USERR3
 40
0.0
  9
$USERR4
 40
0.0
  9
$USERR5
 40
0.0
  9
$WORLDVIEW
 70
     1
  9
$SHADEDGE
 70
     3
  9
$SHADEDIF
 70
    70
  9
$TILEMODE
 70
     1
  9
$MAXACTVP
 70
    64
  9
$PINSBASE
 10
0.0
 20
0.0
 30
0.0
  9
$PLIMCHECK
 70
     0
  9
$PEXTMIN
 10
1.000000000000000E+20
 20
1.000000000000000E+20
 30
1.000000000000000E+20
  9
$PEXTMAX
 10
-1.000000000000000E+20
 20
-1.000000000000000E+20
 30
-1.000000000000000E+20
  9
$PLIMMIN
 10
0.0
 20
0.0
  9
$PLIMMAX
 10
420.0
 20
297.0
  9
$UNITMODE
 70
     0
  9
$VISRETAIN
 70
     1
  9
$PLINEGEN
 70
     0
  9
$PSLTSCALE
 70
     1
  9
$TREEDEPTH
 70
  3020
  9
$CMLSTYLE
  2
Standard
  9
$CMLJUST
 70
     0
  9
$CMLSCALE
 40
20.0
  9
$PROXYGRAPHICS
 70
     1
  9
$MEASUREMENT
 70
     1
  9
$CELWEIGHT
370
    -1
  9
$ENDCAPS
280
     0
  9
$JOINSTYLE
280
     0
  9
$LWDISPLAY
290
     0
  9
$INSUNITS
 70
     4
  9
$HYPERLINKBASE
  1

  9
$STYLESHEET
  1

  9
$XEDIT
290
     1
  9
$CEPSNTYPE
380
     0
  9
$PSTYLEMODE
290
     1
  9
$FINGERPRINTGUID
  2
{03052709-208C-44F1-88CB-F8F0E550BC5D}
  9
$VERSIONGUID
  2
{14E541D4-B3FA-428D-AE0E-26658DBC3A2F}
  9
$EXTNAMES
290
     1
  9
$PSVPSCALE
 40
0.0
  9
$OLESTARTUP
290
     0
  9
$SORTENTS
280
   127
  9
$INDEXCTL
280
     0
  9
$HIDETEXT
280
     1
  9
$XCLIPFRAME
290
     0
  9
$HALOGAP
280
     0
  9
$OBSCOLOR
 70
   257
  9
$OBSLTYPE
280
     0
  9
$INTERSECTIONDISPLAY
280
     0
  9
$INTERSECTIONCOLOR
 70
   257
  9
$DIMASSOC
280
     1
  9
$PROJECTNAME
  1

  0
ENDSEC
  0
SECTION
  2
CLASSES
  0
CLASS
  1
ACDBDICTIONARYWDFLT
  2
AcDbDictionaryWithDefault
  3
ObjectDBX Classes
 90
        0
 91
        1
280
     0
281
     0
  0
CLASS
  1
ACME_DOCUMENT
  2
AcMeDbDoc
  3
AcMeServices
 90
     1024
 91
        2
280
     0
281
     0
  0
CLASS
  1
ACMESCOPE
  2
AcMeScope
  3
AcMeServices
 90
     1024
 91
        1
280
     0
281
     0
  0
CLASS
  1
ACMECOMMANDHISTORY
  2
AcMeCommandHistory
  3
AcMeServices
 90
     1024
 91
        1
280
     0
281
     0
  0
CLASS
  1
ACIMSYSVARMAN
  2
AcImSysVarManager
  3
AcMeServices
 90
     1024
 91
        6
280
     0
281
     0
  0
CLASS
  1
ACIMREALSYSVAR
  2
AcImRealSysVar
  3
AcMeServices
 90
     1024
 91
        1
280
     0
281
     0
  0
CLASS
  1
ACIMINTSYSVAR
  2
AcImIntSysVar
  3
AcMeServices
 90
     1024
 91
       28
280
     0
281
     0
  0
CLASS
  1
ACMEDRAWINGMAN
  2
AcMeDrawingMan
  3
AcMeServices
 90
     1024
 91
        1
280
     0
281
     0
  0
CLASS
  1
ACMEVIEW
  2
AcMeView
  3
AcMeServices
 90
     1024
 91
        1
280
     0
281
     0
  0
CLASS
  1
ACDBENTITYCACHE
  2
AcMeEntityCache
  3
AcMeServices
 90
     1024
 91
        1
280
     0
281
     0
  0
CLASS
  1
GSMANAGER
  2
AcMeGSManager
  3
AcMeServices
 90
     1024
 91
        1
280
     0
281
     0
  0
CLASS
  1
AMDTINTERNALREACTOR
  2
AmdtInternalReactor
  3
AcMeServices
 90
     1024
 91
        2
280
     0
281
     0
  0
CLASS
  1
ACMESTATEMGR
  2
AcMeStateMgr
  3
AcMeServices
 90
     1024
 91
        1
280
     0
281
     0
  0
CLASS
  1
ACGREFMASTER
  2
AcGrefMaster
  3
AcAttribServices
 90
     1024
 91
        1
280
     0
281
     0
  0
CLASS
  1
ACME_DATABASE
  2
AcMeDbDatabase
  3
AcMeServices
 90
     1024
 91
        1
280
     0
281
     0
  0
CLASS
  1
ACRFINSADJUSTERMGR
  2
AcRfInsAdjusterMgr
  3
AcMeServices
 90
     1024
 91
        1
280
     0
281
     0
  0
CLASS
  1
ACGREFACADMASTER
  2
AcGrefacadMaster
  3
AcGrefServices
 90
     1024
 91
        1
280
     0
281
     0
  0
CLASS
  1
AMIMASTER
  2
AmiMaster
  3
AmiServices
 90
     1024
 91
        1
280
     0
281
     0
  0
CLASS
  1
AMGSETTINGSOBJ
  2
AmgSettingsObj
  3
"AcadM|Product Description: AutoCAD Mechanical|Company: Autodesk, Inc."
 90
     1024
 91
        2
280
     0
281
     0
  0
CLASS
  1
ACMDATADICTIONARY
  2
AcmDataDictionary
  3
"AcmSymBB|Product Description: AutoCAD Mechanical|Company: Autodesk, Inc."
 90
     1024
 91
        1
280
     0
281
     0
  0
CLASS
  1
ACMDATAENTRYBLOCK
  2
AcmDataEntryBlock
  3
AcmSymBB|Product Description: AutoCAD Mechanical|Company: Autodesk, Inc.
 90
     1024
 91
        0
280
     0
281
     0
  0
CLASS
  1
ACIMSTRSYSVAR
  2
AcImStrSysVar
  3
AcMeServices
 90
     1024
 91
        6
280
     0
281
     0
  0
CLASS
  1
ACMSTANDARDDIN
  2
AcmStandardDIN
  3
"Amdt_StdImp|Product Description: AutoCAD Mechanical|Company: Autodesk, Inc."
 90
     1024
 91
        1
280
     0
281
     0
  0
CLASS
  1
AMGOBJPROPCFG
  2
AmgObjPropCfg
  3
"AmgLay|Product Description: AutoCAD Mechanical|Company: Autodesk, Inc."
 90
     1025
 91
        1
280
     0
281
     0
  0
CLASS
  1
AMDTEDGESTANDARDDIN
  2
AmdtEdgeStdDIN
  3
"Amdt_StdImp|Product Description: AutoCAD Mechanical|Company: Autodesk, Inc."
 90
     1024
 91
        0
280
     0
281
     0
  0
CLASS
  1
ACMSURFSTANDARDDIN
  2
AcmSurfTextStdDIN
  3
"Amdt_StdImp|Product Description: AutoCAD Mechanical|Company: Autodesk, Inc."
 90
     1024
 91
        0
280
     0
281
     0
  0
CLASS
  1
ACMFCFSTANDARDDIN
  2
AcmFCFStdDIN
  3
"Amdt_StdImp|Product Description: AutoCAD Mechanical|Company: Autodesk, Inc."
 90
     1024
 91
        1
280
     0
281
     0
  0
CLASS
  1
ACMWELDSTANDARDDIN
  2
AcmWeldingStdDIN
  3
"Amdt_StdImp|Product Description: AutoCAD Mechanical|Company: Autodesk, Inc."
 90
     1024
 91
        1
280
     0
281
     0
  0
CLASS
  1
ACMIDSTANDARDDIN
  2
AcmIdStdDIN
  3
"Amdt_StdImp|Product Description: AutoCAD Mechanical|Company: Autodesk, Inc."
 90
     1024
 91
        1
280
     0
281
     0
  0
CLASS
  1
ACMDATUMSTANDARDDIN
  2
AcmDatumStdDIN
  3
"Amdt_StdImp|Product Description: AutoCAD Mechanical|Company: Autodesk, Inc."
 90
     1024
 91
        1
280
     0
281
     0
  0
CLASS
  1
ACMBOMSTANDARDDIN
  2
AcmBOMStdDIN
  3
"Amdt_StdImp|Product Description: AutoCAD Mechanical|Company: Autodesk, Inc."
 90
     1024
 91
        1
280
     0
281
     0
  0
CLASS
  1
ACMDETAILSTANDARDDIN
  2
AmdtDetailSymStdDIN
  3
"Amdt_StdImp|Product Description: AutoCAD Mechanical|Company: Autodesk, Inc."
 90
     1024
 91
        1
280
     0
281
     0
  0
CLASS
  1
ACMSECTIONSTANDARDDIN
  2
AmdtSectionSymStdDIN
  3
"Amdt_StdImp|Product Description: AutoCAD Mechanical|Company: Autodesk, Inc."
 90
     1024
 91
        1
280
     0
281
     0
  0
CLASS
  1
ACMCENTERLINESTANDARDDIN
  2
AmdtCenterLineStdDIN
  3
"Amdt_StdImp|Product Description: AutoCAD Mechanical|Company: Autodesk, Inc."
 90
     1024
 91
        1
280
     0
281
     0
  0
CLASS
  1
ACMNOTESTANDARDDIN
  2
AmdtNoteStdDIN
  3
"Amdt_StdImp|Product Description: AutoCAD Mechanical|Company: Autodesk, Inc."
 90
     1024
 91
        1
280
     0
281
     0
  0
CLASS
  1
ACAMGLAYSTD
  2
AcAmgLayStd
  3
"AmgLay|Product Description: AutoCAD Mechanical|Company: Autodesk, Inc."
 90
     1024
 91
        1
280
     0
281
     0
  0
CLASS
  1
ACAMGDIMSTD
  2
AcAmgDimStd
  3
"AmgDim|Product Description: AutoCAD Mechanical|Company: Autodesk, Inc."
 90
     1024
 91
        1
280
     0
281
     0
  0
CLASS
  1
ACAMGHOLECHARTSTDDIN
  2
AcAmgHoleChartStdDIN
  3
AmgDim|Product Description: AutoCAD Mechanical|Company: Autodesk, Inc.
 90
     1024
 91
        1
280
     0
281
     0
  0
CLASS
  1
ACAMGTITLESTD
  2
AcAmgTitleStd
  3
"AmgTitle|Product Description: AutoCAD Mechanical|Company: Autodesk, Inc."
 90
     4095
 91
        1
280
     0
281
     0
  0
CLASS
  1
ACMSTANDARDANSI
  2
AcmStandardANSI
  3
"Amdt_StdImp|Product Description: AutoCAD Mechanical|Company: Autodesk, Inc."
 90
     1024
 91
        0
280
     0
281
     0
  0
CLASS
  1
ACMSURFSTANDARDANSI
  2
AcmSurfTextStdANSI
  3
"Amdt_StdImp|Product Description: AutoCAD Mechanical|Company: Autodesk, Inc."
 90
     1024
 91
        0
280
     0
281
     0
  0
CLASS
  1
ACMFCFSTANDARDANSI
  2
AcmFCFStdANSI
  3
"Amdt_StdImp|Product Description: AutoCAD Mechanical|Company: Autodesk, Inc."
 90
     1024
 91
        0
280
     0
281
     0
  0
CLASS
  1
ACMWELDSTANDARDANSI
  2
AcmWeldingStdANSI
  3
"Amdt_StdImp|Product Description: AutoCAD Mechanical|Company: Autodesk, Inc."
 90
     1024
 91
        0
280
     0
281
     0
  0
CLASS
  1
ACMIDSTANDARDANSI
  2
AcmIdStdANSI
  3
"Amdt_StdImp|Product Description: AutoCAD Mechanical|Company: Autodesk, Inc."
 90
     1024
 91
        0
280
     0
281
     0
  0
CLASS
  1
ACMDATUMSTANDARDANSI
  2
AcmDatumStdANSI
  3
"Amdt_StdImp|Product Description: AutoCAD Mechanical|Company: Autodesk, Inc."
 90
     1024
 91
        0
280
     0
281
     0
  0
CLASS
  1
ACMBOMSTANDARDANSI
  2
AcmBOMStdANSI
  3
"Amdt_StdImp|Product Description: AutoCAD Mechanical|Company: Autodesk, Inc."
 90
     1024
 91
        0
280
     0
281
     0
  0
CLASS
  1
ACMDETAILSTANDARDANSI
  2
AmdtDetailSymStdANSI
  3
"Amdt_StdImp|Product Description: AutoCAD Mechanical|Company: Autodesk, Inc."
 90
     1024
 91
        0
280
     0
281
     0
  0
CLASS
  1
ACMSECTIONSTANDARDANSI
  2
AmdtSectionSymStdANSI
  3
"Amdt_StdImp|Product Description: AutoCAD Mechanical|Company: Autodesk, Inc."
 90
     1024
 91
        0
280
     0
281
     0
  0
CLASS
  1
ACMCENTERLINESTANDARDANSI
  2
AmdtCenterLineStdANSI
  3
"Amdt_StdImp|Product Description: AutoCAD Mechanical|Company: Autodesk, Inc."
 90
     1024
 91
        0
280
     0
281
     0
  0
CLASS
  1
ACMNOTESTANDARDANSI
  2
AmdtNoteStdANSI
  3
"Amdt_StdImp|Product Description: AutoCAD Mechanical|Company: Autodesk, Inc."
 90
     1024
 91
        0
280
     0
281
     0
  0
CLASS
  1
ACAMGHOLECHARTSTDANSI
  2
AcAmgHoleChartStdANSI
  3
AmgDim|Product Description: AutoCAD Mechanical|Company: Autodesk, Inc.
 90
     1024
 91
        0
280
     0
281
     0
  0
CLASS
  1
ACAMGFILTERDAT
  2
AcAmgFilterDat
  3
"AcadM|Product Description: AutoCAD Mechanical|Company: Autodesk, Inc."
 90
     1024
 91
        0
280
     0
281
     0
  0
CLASS
  1
AMDTFORMULAUPDATEDISPATCHER
  2
AmdtFormulaUpdateDispatcher
  3
AcMeServices
 90
     1024
 91
        0
280
     0
281
     0
  0
CLASS
  1
LAYER_INDEX
  2
AcDbLayerIndex
  3
ObjectDBX Classes
 90
        0
 91
        0
280
     0
281
     0
  0
CLASS
  1
IDBUFFER
  2
AcDbIdBuffer
  3
ObjectDBX Classes
 90
        0
 91
        0
280
     0
281
     0
  0
CLASS
  1
DICTIONARYVAR
  2
AcDbDictionaryVar
  3
ObjectDBX Classes
 90
        0
 91
       11
280
     0
281
     0
  0
CLASS
  1
DIMASSOC
  2
AcDbDimAssoc
  3
"AcDbDimAssoc|Product Desc:     AcDim ARX App For Dimension|Company:          Autodesk, Inc.|WEB Address:      www.autodesk.com"
 90
        0
 91
        0
280
     0
281
     0
  0
CLASS
  1
ACMSTANDARDISO
  2
AcmStandardISO
  3
"Amdt_StdImp|Product Description: AutoCAD Mechanical|Company: Autodesk, Inc."
 90
     1024
 91
        0
280
     0
281
     0
  0
CLASS
  1
AMDTEDGESTANDARDISO
  2
AmdtEdgeStdISO
  3
"Amdt_StdImp|Product Description: AutoCAD Mechanical|Company: Autodesk, Inc."
 90
     1024
 91
        0
280
     0
281
     0
  0
CLASS
  1
ACMSURFSTANDARDISO
  2
AcmSurfTextStdISO
  3
"Amdt_StdImp|Product Description: AutoCAD Mechanical|Company: Autodesk, Inc."
 90
     1024
 91
        0
280
     0
281
     0
  0
CLASS
  1
ACMFCFSTANDARDISO
  2
AcmFCFStdISO
  3
"Amdt_StdImp|Product Description: AutoCAD Mechanical|Company: Autodesk, Inc."
 90
     1024
 91
        0
280
     0
281
     0
  0
CLASS
  1
ACMWELDSTANDARDISO
  2
AcmWeldingStdISO
  3
"Amdt_StdImp|Product Description: AutoCAD Mechanical|Company: Autodesk, Inc."
 90
     1024
 91
        0
280
     0
281
     0
  0
CLASS
  1
ACMIDSTANDARDISO
  2
AcmIdStdISO
  3
"Amdt_StdImp|Product Description: AutoCAD Mechanical|Company: Autodesk, Inc."
 90
     1024
 91
        0
280
     0
281
     0
  0
CLASS
  1
ACMDATUMSTANDARDISO
  2
AcmDatumStdISO
  3
"Amdt_StdImp|Product Description: AutoCAD Mechanical|Company: Autodesk, Inc."
 90
     1024
 91
        0
280
     0
281
     0
  0
CLASS
  1
ACMBOMSTANDARDISO
  2
AcmBOMStdISO
  3
"Amdt_StdImp|Product Description: AutoCAD Mechanical|Company: Autodesk, Inc."
 90
     1024
 91
        0
280
     0
281
     0
  0
CLASS
  1
ACMDETAILSTANDARDISO
  2
AmdtDetailSymStdISO
  3
"Amdt_StdImp|Product Description: AutoCAD Mechanical|Company: Autodesk, Inc."
 90
     1024
 91
        0
280
     0
281
     0
  0
CLASS
  1
ACMSECTIONSTANDARDISO
  2
AmdtSectionSymStdISO
  3
"Amdt_StdImp|Product Description: AutoCAD Mechanical|Company: Autodesk, Inc."
 90
     1024
 91
        0
280
     0
281
     0
  0
CLASS
  1
ACMCENTERLINESTANDARDISO
  2
AmdtCenterLineStdISO
  3
"Amdt_StdImp|Product Description: AutoCAD Mechanical|Company: Autodesk, Inc."
 90
     1024
 91
        0
280
     0
281
     0
  0
CLASS
  1
ACMNOTESTANDARDISO
  2
AmdtNoteStdISO
  3
"Amdt_StdImp|Product Description: AutoCAD Mechanical|Company: Autodesk, Inc."
 90
     1024
 91
        0
280
     0
281
     0
  0
CLASS
  1
ACAMGHOLECHARTSTDISO
  2
AcAmgHoleChartStdISO
  3
AmgDim|Product Description: AutoCAD Mechanical|Company: Autodesk, Inc.
 90
     1024
 91
        0
280
     0
281
     0
  0
CLASS
  1
TABLESTYLE
  2
AcDbTableStyle
  3
ObjectDBX Classes
 90
     4095
 91
        1
280
     0
281
     0
  0
CLASS
  1
AM_DRAWING_MGR
  2
AcDmDwgMgr
  3
AcMechDwgViewMgmt
 90
     1024
 91
        1
280
     0
281
     0
  0
CLASS
  1
AM_DWG_DOCUMENT
  2
AcDmDwgDocument
  3
AcMechDwgViewMgmt
 90
     1024
 91
        1
280
     0
281
     0
  0
CLASS
  1
AM_DWG_SHEET
  2
AcDmSheet
  3
AcMechDwgViewMgmt
 90
     1024
 91
        2
280
     0
281
     0
  0
CLASS
  1
AM_VIEWDIMPARMAP
  2
AcDmViewDimParMap
  3
AcMechDwgViewMgmt
 90
     1024
 91
        2
280
     0
281
     0
  0
CLASS
  1
AM_DWGMGR_NAME
  2
AcDmDwgMgrName
  3
AcMechDwgViewMgmt
 90
     1024
 91
        1
280
     0
281
     0
  0
CLASS
  1
AMDTMENUSTATEMGR
  2
AmdtMenuStateMgr
  3
McadcomServices
 90
     1024
 91
        1
280
     0
281
     0
  0
CLASS
  1
AMDTMCOMMENUSTATE
  2
AmdtMcomMenuState
  3
McadcomServices
 90
     1024
 91
        1
280
     0
281
     0
  0
CLASS
  1
MAPIAMMOUDLE
  2
MApiAmModule
  3
MApiAmServices
 90
     1024
 91
        1
280
     0
281
     0
  0
CLASS
  1
AMDTADMENUSTATE
  2
AmdtAdMenuState
  3
DesignerServices
 90
     1024
 91
        1
280
     0
281
     0
  0
CLASS
  1
ADAPPL
  2
AcAdAppl
  3
DesignerServices
 90
     1024
 91
        1
280
     0
281
     0
  0
CLASS
  1
DEPMGR
  2
AcAdDepMgr
  3
DesignerServices
 90
     1024
 91
        1
280
     0
281
     0
  0
CLASS
  1
PARAMMGR
  2
AcAdParamMgr
  3
DesignerServices
 90
     1024
 91
        1
280
     0
281
     0
  0
CLASS
  1
PARAMSCOPE
  2
AcAdParamScope
  3
DesignerServices
 90
     1024
 91
        1
280
     0
281
     0
  0
CLASS
  1
NAMEDAPPL
  2
AcAdNamedAppl
  3
DesignerServices
 90
     1024
 91
        1
280
     0
281
     0
  0
CLASS
  1
AMDTDMMENUSTATE
  2
AmdtDmMenuState
  3
AcMechDwgViewMgmt
 90
     1024
 91
        1
280
     0
281
     0
  0
CLASS
  1
AMDTAMMENUSTATE
  2
AmdtAmMenuState
  3
DesignerAssemblies
 90
     1024
 91
        1
280
     0
281
     0
  0
CLASS
  1
ACAMPROJECT
  2
AcAmProject
  3
DesignerAssemblies
 90
     1024
 91
        1
280
     0
281
     0
  0
CLASS
  1
ACAMGRCOMPDEF
  2
AcAmGrCompDef
  3
DesignerAssemblies
 90
     1024
 91
        1
280
     0
281
     0
  0
CLASS
  1
ACCMCONTEXT
  2
AcCmContext
  3
DesignerAssemblies
 90
     1024
 91
        1
280
     0
281
     0
  0
CLASS
  1
ACAMCOMPDEF
  2
AcAmCompDef
  3
DesignerAssemblies
 90
     1024
 91
        1
280
     0
281
     0
  0
CLASS
  1
ACAMCOMPDEFMGR
  2
AcAmCompDefMgr
  3
DesignerAssemblies
 90
     1024
 91
        1
280
     0
281
     0
  0
CLASS
  1
AMCONTEXTMGR
  2
AcAmContextMgr
  3
DesignerAssemblies
 90
     1024
 91
        1
280
     0
281
     0
  0
CLASS
  1
ACAMCONTEXTMODELER
  2
AcAmContextModeler
  3
DesignerAssemblies
 90
     1024
 91
        1
280
     0
281
     0
  0
CLASS
  1
ACMTHREADLINESTANDARDDIN
  2
AmdtThreadLineStdDIN
  3
"Amdt_StdImp|Product Description: AutoCAD Mechanical|Company: Autodesk, Inc."
 90
     1024
 91
        1
280
     0
281
     0
  0
CLASS
  1
ACMTHREADLINESTANDARDANSI
  2
AmdtThreadLineStdANSI
  3
"Amdt_StdImp|Product Description: AutoCAD Mechanical|Company: Autodesk, Inc."
 90
     1024
 91
        0
280
     0
281
     0
  0
CLASS
  1
ACMTHREADLINESTANDARDISO
  2
AmdtThreadLineStdISO
  3
"Amdt_StdImp|Product Description: AutoCAD Mechanical|Company: Autodesk, Inc."
 90
     1024
 91
        0
280
     0
281
     0
  0
CLASS
  1
CATALOGSTATE
  2
AcAmCatalogState
  3
DesignerAssemblies
 90
     1024
 91
        1
280
     0
281
     0
  0
CLASS
  1
ACAMGRCOMPDEFSET
  2
AcAmGrCompDefSet
  3
DesignerAssemblies
 90
     1024
 91
        1
280
     0
281
     0
  0
CLASS
  1
AMDTBROWSERDBTAB
  2
AmdtBrowserDbTab
  3
McadcomServices
 90
     1024
 91
        1
280
     0
281
     0
  0
CLASS
  1
CBROWSERAPPOBJECT
  2
CBrowserAppObject
  3
McadcomServices
 90
     1024
 91
        3
280
     0
281
     0
  0
CLASS
  1
DM_PLACEHOLDER
  2
AcDmSelsetPlaceholder
  3
AcMechDwgViewMgmt
 90
     1024
 91
        1
280
     0
281
     0
  0
CLASS
  1
MATERIAL
  2
AcDbMaterial
  3
ObjectDBX Classes
 90
     1153
 91
        3
280
     0
281
     0
  0
CLASS
  1
VISUALSTYLE
  2
AcDbVisualStyle
  3
ObjectDBX Classes
 90
     4095
 91
       16
280
     0
281
     0
  0
CLASS
  1
SCALE
  2
AcDbScale
  3
ObjectDBX Classes
 90
     1153
 91
       17
280
     0
281
     0
  0
CLASS
  1
MLEADERSTYLE
  2
AcDbMLeaderStyle
  3
ACDB_MLEADERSTYLE_CLASS
 90
     4095
 91
        1
280
     0
281
     0
  0
CLASS
  1
ACRFATTGENMGR
  2
AcRfAttGeneralMgr
  3
AcAttribServices
 90
     1024
 91
        0
280
     0
281
     0
  0
CLASS
  1
ACRFOBJATTMGR
  2
AcRfObjAttGroupMgr
  3
AcAttribServices
 90
     1024
 91
        0
280
     0
281
     0
  0
CLASS
  1
ACRFMCADAPIATTHOLDER
  2
AcRfMCADAPIAttHolder
  3
AcAttribServices
 90
     1024
 91
        0
280
     0
281
     0
  0
CLASS
  1
AMDTSYSATTR
  2
AmdtSystemAttribute
  3
AcAttribServices
 90
     1024
 91
        0
280
     0
281
     0
  0
CLASS
  1
ACMTAPERSTANDARDDIN
  2
AcmTaperStdDIN
  3
"Amdt_StdImp|Product Description: AutoCAD Mechanical|Company: Autodesk, Inc."
 90
     1024
 91
        1
280
     0
281
     0
  0
CLASS
  1
ACMANOOTATIONVIEWSTANDARDDIN
  2
AmdtAnViewStdDIN
  3
"Amdt_StdImp|Product Description: AutoCAD Mechanical|Company: Autodesk, Inc."
 90
     1024
 91
        1
280
     0
281
     0
  0
CLASS
  1
ACMTAPERSTANDARDANSI
  2
AcmTaperStdANSI
  3
"Amdt_StdImp|Product Description: AutoCAD Mechanical|Company: Autodesk, Inc."
 90
     1024
 91
        0
280
     0
281
     0
  0
CLASS
  1
ACMANOOTATIONVIEWSTANDARDANSI
  2
AmdtAnViewStdANSI
  3
"Amdt_StdImp|Product Description: AutoCAD Mechanical|Company: Autodesk, Inc."
 90
     1024
 91
        0
280
     0
281
     0
  0
CLASS
  1
ACMTAPERSTANDARDISO
  2
AcmTaperStdISO
  3
"Amdt_StdImp|Product Description: AutoCAD Mechanical|Company: Autodesk, Inc."
 90
     1024
 91
        0
280
     0
281
     0
  0
CLASS
  1
ACMANOOTATIONVIEWSTANDARDISO
  2
AmdtAnViewStdISO
  3
"Amdt_StdImp|Product Description: AutoCAD Mechanical|Company: Autodesk, Inc."
 90
     1024
 91
        0
280
     0
281
     0
  0
CLASS
  1
CAMSSTRUCTBTNSTATE
  2
StructBtnState
  3
DesignerAssemblies
 90
     1024
 91
        1
280
     0
281
     0
  0
CLASS
  1
CELLSTYLEMAP
  2
AcDbCellStyleMap
  3
ObjectDBX Classes
 90
     1152
 91
        3
280
     0
281
     0
  0
CLASS
  1
SORTENTSTABLE
  2
AcDbSortentsTable
  3
ObjectDBX Classes
 90
        0
 91
        1
280
     0
281
     0
  0
CLASS
  1
AMDTEDGESTANDARDDIN13715
  2
AmdtEdgeStdDIN13715
  3
"Amdt_StdImp|Product Description: AutoCAD Mechanical|Company: Autodesk, Inc."
 90
     1024
 91
        1
280
     0
281
     0
  0
CLASS
  1
ACMSURFSTANDARDDIN2002
  2
AcmSurfTextStdDIN2002
  3
"Amdt_StdImp|Product Description: AutoCAD Mechanical|Company: Autodesk, Inc."
 90
     1024
 91
        1
280
     0
281
     0
  0
CLASS
  1
AMDTNOTETEMPLATEDB
  2
AmdtNoteTemplateDB
  3
AcmSymBB|Product Description: AutoCAD Mechanical|Company: Autodesk, Inc.
 90
     1024
 91
        6
280
     0
281
     0
  0
ENDSEC
  0
SECTION
  2
TABLES
  0
TABLE
  2
VPORT
  5
8
102
{ACAD_XDICTIONARY
360
EA25
102
}
330
0
100
AcDbSymbolTable
 70
     1
  0
VPORT
  5
2F0A
330
8
100
AcDbSymbolTableRecord
100
AcDbViewportTableRecord
  2
*Active
 70
     0
 10
0.0
 20
0.0
 11
1.0
 21
1.0
 12
195.5045994166179
 22
131.5427518743657
 13
0.0
 23
0.0
 14
2.5
 24
2.5
 15
10.0
 25
10.0
 16
0.0
 26
0.0
 36
1.0
 17
0.0
 27
0.0
 37
0.0
 40
334.8383835585959
 41
1.784158415841584
 42
50.0
 43
0.0
 44
0.0
 50
0.0
 51
0.0
 71
     0
 72
 10000
 73
     1
 74
     3
 75
     0
 76
     0
 77
     0
 78
     0
281
     0
 65
     1
110
0.0
120
0.0
130
0.0
111
1.0
121
0.0
131
0.0
112
0.0
122
1.0
132
0.0
 79
     0
146
0.0
  0
ENDTAB
  0
TABLE
  2
LTYPE
  5
5
330
0
100
AcDbSymbolTable
 70
    15
  0
LTYPE
  5
14
330
5
100
AcDbSymbolTableRecord
100
AcDbLinetypeTableRecord
  2
ByBlock
 70
     0
  3

 72
    65
 73
     0
 40
0.0
  0
LTYPE
  5
15
330
5
100
AcDbSymbolTableRecord
100
AcDbLinetypeTableRecord
  2
ByLayer
 70
     0
  3

 72
    65
 73
     0
 40
0.0
  0
LTYPE
  5
16
330
5
100
AcDbSymbolTableRecord
100
AcDbLinetypeTableRecord
  2
Continuous
 70
     0
  3
Solid line
 72
    65
 73
     0
 40
0.0
  0
LTYPE
  5
50
330
5
100
AcDbSymbolTableRecord
100
AcDbLinetypeTableRecord
  2
Amconstr
 70
     0
  3
_______________________
 72
    65
 73
     2
 40
9999.0
 49
9999.0
 74
     0
 49
0.0
 74
     0
  0
LTYPE
  5
55
330
5
100
AcDbSymbolTableRecord
100
AcDbLinetypeTableRecord
  2
Amzigzag
 70
     0
  3
/\/-/\/-/\/-/\/-/\/-/\/
 72
    65
 73
     2
 40
11.0001
 49
0.0001
 74
     4
 75
   135
340
54
 46
0.04
 50
0.0
 44
0.0
 45
0.0
 49
-11.0
 74
     0
  0
LTYPE
  5
56
330
5
100
AcDbSymbolTableRecord
100
AcDbLinetypeTableRecord
  2
AM_DIN_F_W050
 70
     0
  3
__ __ __ __ __ __ __ __ __ __ __ __ __ __ __
 72
    65
 73
     2
 40
6.25
 49
4.75
 74
     0
 49
-1.5
 74
     0
  0
LTYPE
  5
57
330
5
100
AcDbSymbolTableRecord
100
AcDbLinetypeTableRecord
  2
AM_DIN_G_W050
 70
     0
  3
____ . ____ . ____ . ____ . ____ . ____ . ____
 72
    65
 73
     4
 40
13.75
 49
9.75
 74
     0
 49
-1.5
 74
     0
 49
1.0
 74
     0
 49
-1.5
 74
     0
  0
LTYPE
  5
58
330
5
100
AcDbSymbolTableRecord
100
AcDbLinetypeTableRecord
  2
AM_DIN_K_W050
 70
     0
  3
_____ . . _____ . . _____ . . ____ .. ____
 72
    65
 73
     6
 40
16.25
 49
9.75
 74
     0
 49
-1.5
 74
     0
 49
1.0
 74
     0
 49
-1.5
 74
     0
 49
1.0
 74
     0
 49
-1.5
 74
     0
  0
LTYPE
  5
59
330
5
100
AcDbSymbolTableRecord
100
AcDbLinetypeTableRecord
  2
AM_DIN_G_W050x2
 70
     0
  3
__ . __ . __ . __ . __ . __
 72
    65
 73
     4
 40
6.875
 49
4.75
 74
     0
 49
-0.875
 74
     0
 49
0.375
 74
     0
 49
-0.875
 74
     0
  0
LTYPE
  5
5A
330
5
100
AcDbSymbolTableRecord
100
AcDbLinetypeTableRecord
  2
AM_DIN_F_W050x2
 70
     0
  3
 _ _ _ _ _ _ _ _ _ _ _ _
 72
    65
 73
     2
 40
3.125
 49
2.25
 74
     0
 49
-0.875
 74
     0
  0
LTYPE
  5
68
330
5
100
AcDbSymbolTableRecord
100
AcDbLinetypeTableRecord
  2
ACDINWELD
 70
     0
  3
_ _ _ _ _
 72
    65
 73
     2
 40
2.0
 49
2.0
 74
     0
 49
-1.0
 74
     0
  0
LTYPE
  5
69
330
5
100
AcDbSymbolTableRecord
100
AcDbLinetypeTableRecord
  2
ACDINTGB
 70
     0
  3
__ . . __ . .
 72
    65
 73
     6
 40
9.0
 49
4.0
 74
     0
 49
-1.0
 74
     0
 49
1.0
 74
     0
 49
-1.0
 74
     0
 49
1.0
 74
     0
 49
-1.0
 74
     0
  0
LTYPE
  5
6A
330
5
100
AcDbSymbolTableRecord
100
AcDbLinetypeTableRecord
  2
ACDINTGL
 70
     0
  3
_ _ _ _ _
 72
    65
 73
     2
 40
3.0
 49
2.0
 74
     0
 49
-1.0
 74
     0
  0
LTYPE
  5
6C
330
5
100
AcDbSymbolTableRecord
100
AcDbLinetypeTableRecord
  2
CENTER
 70
     0
  3
__ . __
 72
    65
 73
     4
 40
7.0
 49
4.0
 74
     0
 49
-1.0
 74
     0
 49
1.0
 74
     0
 49
-1.0
 74
     0
  0
LTYPE
  5
AFA
330
5
100
AcDbSymbolTableRecord
100
AcDbLinetypeTableRecord
  2
PHANTOM2
 70
     0
  3
Phantom (.5x) ___ _ _ ___ _ _ ___ _ _ ___ _ _
 72
    65
 73
     6
 40
1.25
 49
0.625
 74
     0
 49
-0.125
 74
     0
 49
0.125
 74
     0
 49
-0.125
 74
     0
 49
0.125
 74
     0
 49
-0.125
 74
     0
  0
LTYPE
  5
AFD
330
5
100
AcDbSymbolTableRecord
100
AcDbLinetypeTableRecord
  2
DASHED
 70
     0
  3
__ __ __ __ __ __ __ __ __ __ __ __ __ __ __ __
 72
    65
 73
     2
 40
19.05
 49
12.7
 74
     0
 49
-6.349999999999998
 74
     0
  0
LTYPE
  5
2E96
330
5
100
AcDbSymbolTableRecord
100
AcDbLinetypeTableRecord
  2
HIDDEN
 70
     0
  3
Verdeckt
 72
    65
 73
     2
 40
9.525
 49
6.349999999999999
 74
     0
 49
-3.174999999999999
 74
     0
  0
ENDTAB
  0
TABLE
  2
LAYER
  5
2
102
{ACAD_XDICTIONARY
360
13C10
102
}
330
0
100
AcDbSymbolTable
 70
    12
  0
LAYER
  5
10
102
{ACAD_XDICTIONARY
360
2F6F
102
}
330
2
100
AcDbSymbolTableRecord
100
AcDbLayerTableRecord
  2
0
 70
     0
 62
     7
  6
Continuous
370
    -3
390
F
  0
LAYER
  5
263
330
2
100
AcDbSymbolTableRecord
100
AcDbLayerTableRecord
  2
Defpoints
 70
     0
 62
     7
  6
Continuous
290
     0
370
    -3
390
F
  0
LAYER
  5
AFE
102
{ACAD_XDICTIONARY
360
2F71
102
}
330
2
100
AcDbSymbolTableRecord
100
AcDbLayerTableRecord
  2
1
 70
     0
 62
     4
  6
Continuous
370
    -3
390
F
  0
LAYER
  5
AFF
102
{ACAD_XDICTIONARY
360
2F73
102
}
330
2
100
AcDbSymbolTableRecord
100
AcDbLayerTableRecord
  2
2
 70
     0
 62
     7
  6
Continuous
370
    -3
390
F
  0
LAYER
  5
B00
102
{ACAD_XDICTIONARY
360
2F75
102
}
330
2
100
AcDbSymbolTableRecord
100
AcDbLayerTableRecord
  2
4
 70
     0
 62
     2
  6
CENTER
370
    -3
390
F
  0
LAYER
  5
B01
102
{ACAD_XDICTIONARY
360
2F77
102
}
330
2
100
AcDbSymbolTableRecord
100
AcDbLayerTableRecord
  2
6
 70
     0
 62
     5
  6
Continuous
370
    -3
390
F
  0
LAYER
  5
B02
102
{ACAD_XDICTIONARY
360
2F79
102
}
330
2
100
AcDbSymbolTableRecord
100
AcDbLayerTableRecord
  2
SK1
 70
     0
 62
     4
  6
Continuous
370
    -3
390
F
  0
LAYER
  5
B03
102
{ACAD_XDICTIONARY
360
2F7B
102
}
330
2
100
AcDbSymbolTableRecord
100
AcDbLayerTableRecord
  2
SK2
 70
     0
 62
     7
  6
Continuous
370
    -3
390
F
  0
LAYER
  5
B04
102
{ACAD_XDICTIONARY
360
2F7D
102
}
330
2
100
AcDbSymbolTableRecord
100
AcDbLayerTableRecord
  2
SK3
 70
     0
 62
     1
  6
DASHED
370
    -3
390
F
  0
LAYER
  5
B06
102
{ACAD_XDICTIONARY
360
2F7F
102
}
330
2
100
AcDbSymbolTableRecord
100
AcDbLayerTableRecord
  2
CUT
 70
     0
 62
     1
  6
Continuous
370
    -3
390
F
  0
LAYER
  5
B07
102
{ACAD_XDICTIONARY
360
2F81
102
}
330
2
100
AcDbSymbolTableRecord
100
AcDbLayerTableRecord
  2
NOCUT
 70
     0
 62
     7
  6
Continuous
370
    -3
390
F
  0
LAYER
  5
13C0F
330
2
100
AcDbSymbolTableRecord
100
AcDbLayerTableRecord
  2
AM_0
 70
     0
 62
     7
  6
Continuous
370
    50
390
F
1001
AcAecLayerStandard
1000

1000

  0
ENDTAB
  0
TABLE
  2
STYLE
  5
3
330
0
100
AcDbSymbolTable
 70
     3
  0
STYLE
  5
11
330
3
100
AcDbSymbolTableRecord
100
AcDbTextStyleTableRecord
  2
STANDARD
 70
     0
 40
0.0
 41
1.0
 50
0.0
 71
     0
 42
3.5
  3
ISOCP.SHX
  4

  0
STYLE
  5
54
330
3
100
AcDbSymbolTableRecord
100
AcDbTextStyleTableRecord
  2

 70
     1
 40
0.0
 41
1.0
 50
0.0
 71
     0
 42
2.5
  3
ltypeshp.shx
  4

  0
STYLE
  5
67
330
3
100
AcDbSymbolTableRecord
100
AcDbTextStyleTableRecord
  2
ACDINGDT
 70
     0
 40
0.0
 41
1.0
 50
0.0
 71
     0
 42
2.5
  3
amgdt.shx
  4

  0
ENDTAB
  0
TABLE
  2
VIEW
  5
6
330
0
100
AcDbSymbolTable
 70
     0
  0
ENDTAB
  0
TABLE
  2
UCS
  5
7
330
0
100
AcDbSymbolTable
 70
     0
  0
ENDTAB
  0
TABLE
  2
APPID
  5
9
330
0
100
AcDbSymbolTable
 70
    63
  0
APPID
  5
12
330
9
100
AcDbSymbolTableRecord
100
AcDbRegAppTableRecord
  2
ACAD
 70
     0
  0
APPID
  5
2C
330
9
100
AcDbSymbolTableRecord
100
AcDbRegAppTableRecord
  2
MCAD_NO_VIS
 70
     0
  0
APPID
  5
2D
330
9
100
AcDbSymbolTableRecord
100
AcDbRegAppTableRecord
  2
ACAD_TEMP_GRAPHIC
 70
     0
  0
APPID
  5
3E
330
9
100
AcDbSymbolTableRecord
100
AcDbRegAppTableRecord
  2
ACATTRIBSERVICES
 70
     0
  0
APPID
  5
29A
330
9
100
AcDbSymbolTableRecord
100
AcDbRegAppTableRecord
  2
GENIUS_GENDIMSH_14
 70
     0
  0
APPID
  5
551
330
9
100
AcDbSymbolTableRecord
100
AcDbRegAppTableRecord
  2
GENIUS12
 70
     0
  0
APPID
  5
552
330
9
100
AcDbSymbolTableRecord
100
AcDbRegAppTableRecord
  2
GENIUS_GENOENT_13
 70
     0
  0
APPID
  5
553
330
9
100
AcDbSymbolTableRecord
100
AcDbRegAppTableRecord
  2
GENIUS_GENODEF_13
 70
     0
  0
APPID
  5
554
330
9
100
AcDbSymbolTableRecord
100
AcDbRegAppTableRecord
  2
GENIUS_GENOBJ-N-RSBK_13
 70
     0
  0
APPID
  5
555
330
9
100
AcDbSymbolTableRecord
100
AcDbRegAppTableRecord
  2
GENIUS_GENOBJ-N-DIM12_13
 70
     0
  0
APPID
  5
556
330
9
100
AcDbSymbolTableRecord
100
AcDbRegAppTableRecord
  2
GENIUS_GENSCALE_13
 70
     0
  0
APPID
  5
557
330
9
100
AcDbSymbolTableRecord
100
AcDbRegAppTableRecord
  2
GENIUS_GENCFG_13
 70
     0
  0
APPID
  5
558
330
9
100
AcDbSymbolTableRecord
100
AcDbRegAppTableRecord
  2
GENIUS_GENCFG0_13
 70
     0
  0
APPID
  5
559
330
9
100
AcDbSymbolTableRecord
100
AcDbRegAppTableRecord
  2
GENIUS_GENCFG1_13
 70
     0
  0
APPID
  5
55A
330
9
100
AcDbSymbolTableRecord
100
AcDbRegAppTableRecord
  2
GENIUS_GENCFG2_13
 70
     0
  0
APPID
  5
55B
330
9
100
AcDbSymbolTableRecord
100
AcDbRegAppTableRecord
  2
GENIUS_GENCFG3_13
 70
     0
  0
APPID
  5
55C
330
9
100
AcDbSymbolTableRecord
100
AcDbRegAppTableRecord
  2
GENIUS_GENCFG4_13
 70
     0
  0
APPID
  5
55D
330
9
100
AcDbSymbolTableRecord
100
AcDbRegAppTableRecord
  2
GENIUS_GEVCFG0_13
 70
     0
  0
APPID
  5
55E
330
9
100
AcDbSymbolTableRecord
100
AcDbRegAppTableRecord
  2
GENIUS_GENOBJ-F-SUF_13
 70
     0
  0
APPID
  5
55F
330
9
100
AcDbSymbolTableRecord
100
AcDbRegAppTableRecord
  2
GENIUS_GEFCFG0_13
 70
     0
  0
APPID
  5
560
330
9
100
AcDbSymbolTableRecord
100
AcDbRegAppTableRecord
  2
GEV_VCCNULL_SWITCH_OFF
 70
     0
  0
APPID
  5
561
330
9
100
AcDbSymbolTableRecord
100
AcDbRegAppTableRecord
  2
GENIUS_GENDTOL_13
 70
     0
  0
APPID
  5
562
330
9
100
AcDbSymbolTableRecord
100
AcDbRegAppTableRecord
  2
GENIUS_GENDIM_13
 70
     0
  0
APPID
  5
563
330
9
100
AcDbSymbolTableRecord
100
AcDbRegAppTableRecord
  2
GENIUS_GE3DTOL_13
 70
     0
  0
APPID
  5
564
330
9
100
AcDbSymbolTableRecord
100
AcDbRegAppTableRecord
  2
AD_DRAW
 70
     0
  0
APPID
  5
565
330
9
100
AcDbSymbolTableRecord
100
AcDbRegAppTableRecord
  2
ASURF_PCURVE_APPNAME
 70
     0
  0
APPID
  5
566
330
9
100
AcDbSymbolTableRecord
100
AcDbRegAppTableRecord
  2
AMG_3D2D_5.0
 70
     0
  0
APPID
  5
567
330
9
100
AcDbSymbolTableRecord
100
AcDbRegAppTableRecord
  2
DESIGNERASSEMBLIES
 70
     0
  0
APPID
  5
568
330
9
100
AcDbSymbolTableRecord
100
AcDbRegAppTableRecord
  2
ACADM_DIM_EDIT
 70
     0
  0
APPID
  5
569
330
9
100
AcDbSymbolTableRecord
100
AcDbRegAppTableRecord
  2
AMDT_DM_ADJ
 70
     0
  0
APPID
  5
56A
330
9
100
AcDbSymbolTableRecord
100
AcDbRegAppTableRecord
  2
GENIUS_GENSCREG_15
 70
     0
  0
APPID
  5
56B
330
9
100
AcDbSymbolTableRecord
100
AcDbRegAppTableRecord
  2
GENIUS_GENOBJ-N-SDF_13
 70
     0
  0
APPID
  5
56C
330
9
100
AcDbSymbolTableRecord
100
AcDbRegAppTableRecord
  2
GENIUS_GENOBJ-N-FIL_13
 70
     0
  0
APPID
  5
56D
330
9
100
AcDbSymbolTableRecord
100
AcDbRegAppTableRecord
  2
GENIUS_GENHINW_13
 70
     0
  0
APPID
  5
56E
330
9
100
AcDbSymbolTableRecord
100
AcDbRegAppTableRecord
  2
GENIUS_GENOBJ-F-TOLL_13
 70
     0
  0
APPID
  5
56F
330
9
100
AcDbSymbolTableRecord
100
AcDbRegAppTableRecord
  2
GENIUS_GENOREF_13
 70
     0
  0
APPID
  5
570
330
9
100
AcDbSymbolTableRecord
100
AcDbRegAppTableRecord
  2
GENIUS_GENOLIS_13
 70
     0
  0
APPID
  5
571
330
9
100
AcDbSymbolTableRecord
100
AcDbRegAppTableRecord
  2
GENIUS_GEFTOLC_13
 70
     0
  0
APPID
  5
572
330
9
100
AcDbSymbolTableRecord
100
AcDbRegAppTableRecord
  2
GENIUS_GENOBJ-F-TOL_13
 70
     0
  0
APPID
  5
573
330
9
100
AcDbSymbolTableRecord
100
AcDbRegAppTableRecord
  2
GENIUS_GENOBJ-N-RSSYM_13
 70
     0
  0
APPID
  5
574
330
9
100
AcDbSymbolTableRecord
100
AcDbRegAppTableRecord
  2
GENIUS_GENSYMENT_13
 70
     0
  0
APPID
  5
575
330
9
100
AcDbSymbolTableRecord
100
AcDbRegAppTableRecord
  2
GENIUS_GENSCSYM_13
 70
     0
  0
APPID
  5
B11
330
9
100
AcDbSymbolTableRecord
100
AcDbRegAppTableRecord
  2
GENIUS_GENBLLY_14
 70
     0
  0
APPID
  5
B12
330
9
100
AcDbSymbolTableRecord
100
AcDbRegAppTableRecord
  2
GENIUS_GENTRA_14
 70
     0
  0
APPID
  5
B13
330
9
100
AcDbSymbolTableRecord
100
AcDbRegAppTableRecord
  2
GENIUS_GENOBJ-N-TIT_13
 70
     0
  0
APPID
  5
B14
330
9
100
AcDbSymbolTableRecord
100
AcDbRegAppTableRecord
  2
GENIUS_GENTITLE_13
 70
     0
  0
APPID
  5
B15
330
9
100
AcDbSymbolTableRecord
100
AcDbRegAppTableRecord
  2
ACADIGES
 70
     0
  0
APPID
  5
B16
330
9
100
AcDbSymbolTableRecord
100
AcDbRegAppTableRecord
  2
GENIUS_GENOBJ-N-HTC_13
 70
     0
  0
APPID
  5
B17
330
9
100
AcDbSymbolTableRecord
100
AcDbRegAppTableRecord
  2
GENIUS_GENHATCH_13
 70
     0
  0
APPID
  5
B18
330
9
100
AcDbSymbolTableRecord
100
AcDbRegAppTableRecord
  2
GENIUS_GENOBJ-N-CRS_13
 70
     0
  0
APPID
  5
B19
330
9
100
AcDbSymbolTableRecord
100
AcDbRegAppTableRecord
  2
GENIUS_GENFIL_13
 70
     0
  0
APPID
  5
B1A
330
9
100
AcDbSymbolTableRecord
100
AcDbRegAppTableRecord
  2
GENIUS_GENOBJ-N-CHA_13
 70
     0
  0
APPID
  5
B1B
330
9
100
AcDbSymbolTableRecord
100
AcDbRegAppTableRecord
  2
GENIUS_GENOBJ-N-CEN_13
 70
     0
  0
APPID
  5
1455
330
9
100
AcDbSymbolTableRecord
100
AcDbRegAppTableRecord
  2
AD_SKETCHDIM
 70
     0
  0
APPID
  5
2AA9
330
9
100
AcDbSymbolTableRecord
100
AcDbRegAppTableRecord
  2
AMG_3D2D_5_0
 70
     0
  0
APPID
  5
2EB7
330
9
100
AcDbSymbolTableRecord
100
AcDbRegAppTableRecord
  2
ACAD_DSTYLE_DIMARC_LENGTH_SYMBOL
 70
     0
  0
APPID
  5
2EB8
330
9
100
AcDbSymbolTableRecord
100
AcDbRegAppTableRecord
  2
ACAD_DSTYLE_DIMJOGGED_JOGANGLE_SYMBOL
 70
     0
  0
APPID
  5
2F49
330
9
100
AcDbSymbolTableRecord
100
AcDbRegAppTableRecord
  2
ACAD_MLEADERVER
 70
     0
  0
APPID
  5
35F0
330
9
100
AcDbSymbolTableRecord
100
AcDbRegAppTableRecord
  2
AcadAnnotative
 70
     0
  0
APPID
  5
8CBA
330
9
100
AcDbSymbolTableRecord
100
AcDbRegAppTableRecord
  2
AcAecLayerStandard
 70
     0
  0
APPID
  5
8CBB
330
9
100
AcDbSymbolTableRecord
100
AcDbRegAppTableRecord
  2
ACAD_EXEMPT_FROM_CAD_STANDARDS
 70
     0
  0
APPID
  5
8CBC
330
9
100
AcDbSymbolTableRecord
100
AcDbRegAppTableRecord
  2
ACAD_DSTYLE_DIMINSPECT
 70
     0
  0
APPID
  5
9072
330
9
100
AcDbSymbolTableRecord
100
AcDbRegAppTableRecord
  2
ACAD_DSTYLE_DIMANGULAR_EXTENSION
 70
     0
  0
ENDTAB
  0
TABLE
  2
DIMSTYLE
  5
A
330
0
100
AcDbSymbolTable
 70
    10
100
AcDbDimStyleTable
 71
     1
340
6F
  0
DIMSTYLE
105
6F
102
{ACAD_REACTORS
330
EA96
102
}
330
A
100
AcDbSymbolTableRecord
100
AcDbDimStyleTableRecord
  2
AM_DIN
 70
     0
  4
"
 41
2.5
 42
0.0
 43
10.0
 44
1.0
 47
0.1
 48
0.1
 73
     0
 74
     0
 77
     1
 78
     8
 79
     2
140
3.5
141
0.0
143
0.0393701
146
0.71
147
1.5
172
     1
176
   256
177
   256
178
     2
271
     2
272
     2
283
     0
284
     8
340
11
371
    -1
372
    -1
1001
ACAD_DSTYLE_DIMJOGGED_JOGANGLE_SYMBOL
1070
   384
1040
1.570796326794896
  0
DIMSTYLE
105
70
330
A
100
AcDbSymbolTableRecord
100
AcDbDimStyleTableRecord
  2
AM_DIN$3
 70
     0
  4
"
 41
3.5
 42
0.0
 43
10.0
 44
1.0
 47
0.1
 48
0.1
 73
     0
 77
     1
 78
     8
 79
     2
140
3.5
141
0.0
143
0.0393701
146
0.71
147
1.5
176
   256
177
   256
178
     2
271
     2
272
     2
283
     0
284
     8
288
     1
289
     0
340
11
371
    -1
372
    -1
1001
ACAD_DSTYLE_DIMJOGGED_JOGANGLE_SYMBOL
1070
   384
1040
1.570796326794896
  0
DIMSTYLE
105
71
330
A
100
AcDbSymbolTableRecord
100
AcDbDimStyleTableRecord
  2
AM_DIN$4
 70
     0
  4
"
 41
3.5
 42
0.0
 43
10.0
 44
1.0
 47
0.1
 48
0.1
 73
     0
 77
     1
 78
     8
 79
     2
140
3.5
141
0.0
143
0.0393701
146
0.71
147
1.5
176
   256
177
   256
178
     2
271
     2
272
     2
283
     0
284
     8
288
     1
289
     0
340
11
371
    -1
372
    -1
1001
ACAD_DSTYLE_DIMJOGGED_JOGANGLE_SYMBOL
1070
   384
1040
1.570796326794896
  0
DIMSTYLE
105
72
330
A
100
AcDbSymbolTableRecord
100
AcDbDimStyleTableRecord
  2
AM_DIN$6
 70
     0
  4
"
 41
3.5
 42
0.0
 43
0.0
 44
1.0
 47
0.1
 48
0.1
 73
     0
 74
     0
 78
     8
 79
     2
140
3.5
141
0.0
143
0.0393701
146
0.71
147
1.5
172
     1
176
   256
177
   256
178
     2
271
     2
272
     2
283
     0
284
     8
340
11
371
    -1
372
    -1
1001
ACAD_DSTYLE_DIMJOGGED_JOGANGLE_SYMBOL
1070
   384
1040
1.570796326794896
  0
DIMSTYLE
105
73
330
A
100
AcDbSymbolTableRecord
100
AcDbDimStyleTableRecord
  2
AM_DIN$7
 70
     0
  4
"
 41
3.5
 42
0.0
 43
10.0
 44
1.0
 47
0.1
 48
0.1
 73
     0
 74
     0
 77
     1
 78
     8
 79
     2
140
3.5
141
0.0
143
0.0393701
146
0.71
147
1.5
172
     1
176
   256
177
   256
178
     2
271
     2
272
     2
283
     0
284
     8
340
11
371
    -1
372
    -1
1001
ACAD_DSTYLE_DIMJOGGED_JOGANGLE_SYMBOL
1070
   384
1040
1.570796326794896
  0
DIMSTYLE
105
74
330
A
100
AcDbSymbolTableRecord
100
AcDbDimStyleTableRecord
  2
AM_DIN$SF
 70
     0
  4
"
 41
2.5
 42
1.0
 43
10.0
 44
1.0
 47
0.1
 48
0.1
 73
     0
 74
     0
 75
     1
 76
     1
 77
     1
 78
     8
 79
     2
140
3.5
141
0.0
143
0.0393701
146
0.71
147
1.5
172
     1
176
   256
177
   256
178
     2
271
     2
272
     3
274
     4
283
     0
284
     8
340
11
371
    -1
372
    -1
1001
ACAD_DSTYLE_DIMJOGGED_JOGANGLE_SYMBOL
1070
   384
1040
1.570796326794896
  0
DIMSTYLE
105
79
330
A
100
AcDbSymbolTableRecord
100
AcDbDimStyleTableRecord
  2
AM_DIN$SH
 70
     0
  4
"
 41
2.5
 42
1.0
 43
10.0
 44
1.0
 47
0.1
 48
0.1
 73
     0
 74
     0
 75
     1
 76
     1
 77
     1
 78
     8
 79
     2
140
3.5
141
0.0
143
0.0393701
144
2.0
146
0.71
147
1.5
172
     1
173
     1
176
   256
177
   256
178
     2
271
     2
272
     3
274
     4
283
     0
284
     8
340
11
343
75
371
    -1
372
    -1
1001
ACAD_DSTYLE_DIMJOGGED_JOGANGLE_SYMBOL
1070
   384
1040
1.570796326794896
  0
DIMSTYLE
105
B0A
330
A
100
AcDbSymbolTableRecord
100
AcDbDimStyleTableRecord
  2
STANDARD
 70
     0
271
     2
272
     2
279
     2
284
     8
285
     8
286
     8
340
11
  0
DIMSTYLE
105
8CB9
102
{ACAD_REACTORS
330
EC23
330
EC2A
330
13A58
330
13A89
330
13B14
330
13B8E
102
}
330
A
100
AcDbSymbolTableRecord
100
AcDbDimStyleTableRecord
  2
AM_DIN$0
 70
     0
  4
"
 41
2.5
 42
0.0
 43
10.0
 44
1.0
 47
0.1
 48
0.1
 73
     0
 74
     0
 77
     1
 78
     8
140
3.5
141
0.0
143
0.0393701
146
0.71
147
1.5
172
     1
176
   256
177
   256
178
     2
271
     2
272
     2
279
     2
284
     8
285
     8
286
     8
340
11
  0
DIMSTYLE
105
9040
330
A
100
AcDbSymbolTableRecord
100
AcDbDimStyleTableRecord
  2
AM_DIN$2
 70
     0
  4
"
 41
2.5
 42
0.0
 43
10.0
 44
1.0
 47
0.1
 48
0.1
 73
     0
 74
     0
 77
     1
 78
     8
 79
     2
140
3.5
141
0.0
143
0.0393701
146
0.71
147
1.5
172
     1
176
   256
177
   256
178
     2
271
     2
272
     2
283
     0
284
     8
340
11
371
    -1
372
    -1
1001
ACAD_DSTYLE_DIMJOGGED_JOGANGLE_SYMBOL
1070
   384
1040
1.570796326794896
  0
ENDTAB
  0
TABLE
  2
BLOCK_RECORD
  5
1
330
0
100
AcDbSymbolTable
 70
    10
  0
BLOCK_RECORD
  5
1F
102
{ACAD_XDICTIONARY
360
1F1
102
}
330
1
100
AcDbSymbolTableRecord
100
AcDbBlockTableRecord
  2
*Model_Space
340
22
  0
BLOCK_RECORD
  5
1B
330
1
100
AcDbSymbolTableRecord
100
AcDbBlockTableRecord
  2
*Paper_Space
340
1E
  0
BLOCK_RECORD
  5
23
330
1
100
AcDbSymbolTableRecord
100
AcDbBlockTableRecord
  2
*Paper_Space0
340
26
  0
BLOCK_RECORD
  5
75
330
1
100
AcDbSymbolTableRecord
100
AcDbBlockTableRecord
  2
GENAXEH
340
0
  0
BLOCK_RECORD
  5
EC3A
330
1
100
AcDbSymbolTableRecord
100
AcDbBlockTableRecord
  2
*D3
340
0
  0
BLOCK_RECORD
  5
EC5E
330
1
100
AcDbSymbolTableRecord
100
AcDbBlockTableRecord
  2
*D4
340
0
  0
BLOCK_RECORD
  5
13A59
330
1
100
AcDbSymbolTableRecord
100
AcDbBlockTableRecord
  2
*D5
340
0
  0
BLOCK_RECORD
  5
13A8A
330
1
100
AcDbSymbolTableRecord
100
AcDbBlockTableRecord
  2
*D6
340
0
  0
BLOCK_RECORD
  5
13B15
330
1
100
AcDbSymbolTableRecord
100
AcDbBlockTableRecord
  2
*D7
340
0
  0
BLOCK_RECORD
  5
13B8F
330
1
100
AcDbSymbolTableRecord
100
AcDbBlockTableRecord
  2
*D9
340
0
  0
ENDTAB
  0
ENDSEC
  0
SECTION
  2
BLOCKS
  0
BLOCK
  5
20
330
1F
100
AcDbEntity
  8
0
100
AcDbBlockBegin
  2
*Model_Space
 70
     0
 10
0.0
 20
0.0
 30
0.0
  3
*Model_Space
  1

  0
ENDBLK
  5
21
330
1F
100
AcDbEntity
  8
0
100
AcDbBlockEnd
  0
BLOCK
  5
1C
330
1B
100
AcDbEntity
 67
     1
  8
0
100
AcDbBlockBegin
  2
*Paper_Space
 70
     0
 10
0.0
 20
0.0
 30
0.0
  3
*Paper_Space
  1

  0
ENDBLK
  5
1D
330
1B
100
AcDbEntity
 67
     1
  8
0
100
AcDbBlockEnd
  0
BLOCK
  5
24
330
23
100
AcDbEntity
 67
     1
  8
0
100
AcDbBlockBegin
  2
*Paper_Space0
 70
     0
 10
0.0
 20
0.0
 30
0.0
  3
*Paper_Space0
  1

  0
ENDBLK
  5
25
330
23
100
AcDbEntity
 67
     1
  8
0
100
AcDbBlockEnd
  0
BLOCK
  5
77
330
75
100
AcDbEntity
  8
0
100
AcDbBlockBegin
  2
GENAXEH
 70
     0
 10
0.0
 20
0.0
 30
0.0
  3
GENAXEH
  1

  0
LINE
  5
76
330
75
100
AcDbEntity
  8
0
100
AcDbLine
 10
-1.0
 20
0.0
 30
0.0
 11
1.0
 21
0.0
 31
0.0
  0
ENDBLK
  5
78
330
75
100
AcDbEntity
  8
0
100
AcDbBlockEnd
  0
BLOCK
  5
EC3B
330
EC3A
100
AcDbEntity
  8
0
100
AcDbBlockBegin
  2
*D3
 70
     1
 10
0.0
 20
0.0
 30
0.0
  3
*D3
  1

  0
LINE
  5
13C63
330
EC3A
100
AcDbEntity
  8
2
370
    -2
100
AcDbLine
 10
49.99999999999977
 20
17.4999999999998
 30
0.0
 11
67.09601900593765
 21
17.4999999999998
 31
0.0
  0
LINE
  5
13C64
330
EC3A
100
AcDbEntity
  8
2
370
    -2
100
AcDbLine
 10
49.9999999999996
 20
-17.5000000000002
 30
0.0
 11
67.09601900593765
 21
-17.5000000000002
 31
0.0
  0
LINE
  5
13C65
330
EC3A
100
AcDbEntity
  8
2
370
    -2
100
AcDbLine
 10
66.09601900593765
 20
14.9999999999998
 30
0.0
 11
66.09601900593765
 21
-15.0000000000002
 31
0.0
  0
SOLID
  5
13C66
330
EC3A
100
AcDbEntity
  8
2
100
AcDbTrace
 10
65.67935233927098
 20
14.9999999999998
 30
0.0
 11
66.51268567260432
 21
14.9999999999998
 31
0.0
 12
66.09601900593765
 22
17.4999999999998
 32
0.0
 13
66.09601900593765
 23
17.4999999999998
 33
0.0
  0
SOLID
  5
13C67
330
EC3A
100
AcDbEntity
  8
2
100
AcDbTrace
 10
65.67935233927098
 20
-15.0000000000002
 30
0.0
 11
66.51268567260432
 21
-15.0000000000002
 31
0.0
 12
66.09601900593765
 22
-17.5000000000002
 32
0.0
 13
66.09601900593765
 23
-17.5000000000002
 33
0.0
  0
MTEXT
  5
13C68
330
EC3A
100
AcDbEntity
  8
2
 62
     2
100
AcDbMText
 10
62.84601900593765
 20
-0.0000000000001919
 30
0.0
 40
3.5
 41
0.0
 71
     5
 72
     1
  1
\A1;%%c35
 11
0.0000000000000001
 21
1.0
 31
0.0
 73
     1
 44
1.0
  0
POINT
  5
13C69
330
EC3A
100
AcDbEntity
  8
Defpoints
 62
     0
100
AcDbPoint
 10
49.99999999999977
 20
17.4999999999998
 30
0.0
  0
POINT
  5
13C6A
330
EC3A
100
AcDbEntity
  8
Defpoints
 62
     0
100
AcDbPoint
 10
49.9999999999996
 20
-17.5000000000002
 30
0.0
  0
POINT
  5
13C6B
330
EC3A
100
AcDbEntity
  8
Defpoints
 62
     0
100
AcDbPoint
 10
66.09601900593765
 20
-17.5000000000002
 30
0.0
  0
ENDBLK
  5
EC3C
330
EC3A
100
AcDbEntity
  8
0
100
AcDbBlockEnd
  0
BLOCK
  5
EC5F
330
EC5E
100
AcDbEntity
  8
0
100
AcDbBlockBegin
  2
*D4
 70
     1
 10
0.0
 20
0.0
 30
0.0
  3
*D4
  1

  0
LINE
  5
13C6C
330
EC5E
100
AcDbEntity
  8
2
370
    -2
100
AcDbLine
 10
49.99999999999977
 20
17.4999999999998
 30
0.0
 11
49.99999999999978
 21
75.99999999999997
 31
0.0
  0
LINE
  5
13C6D
330
EC5E
100
AcDbEntity
  8
2
370
    -2
100
AcDbLine
 10
0.0000000000001137
 20
20.5
 30
0.0
 11
0.0000000000001171
 21
75.99999999999997
 31
0.0
  0
LINE
  5
13C6E
330
EC5E
100
AcDbEntity
  8
2
370
    -2
100
AcDbLine
 10
47.49999999999977
 20
74.99999999999997
 30
0.0
 11
2.500000000000117
 21
74.99999999999997
 31
0.0
  0
SOLID
  5
13C6F
330
EC5E
100
AcDbEntity
  8
2
100
AcDbTrace
 10
47.49999999999977
 20
75.41666666666664
 30
0.0
 11
47.49999999999977
 21
74.5833333333333
 31
0.0
 12
49.99999999999977
 22
74.99999999999997
 32
0.0
 13
49.99999999999977
 23
74.99999999999997
 33
0.0
  0
SOLID
  5
13C70
330
EC5E
100
AcDbEntity
  8
2
100
AcDbTrace
 10
2.500000000000117
 20
75.41666666666664
 30
0.0
 11
2.500000000000117
 21
74.5833333333333
 31
0.0
 12
0.000000000000117
 22
74.99999999999997
 32
0.0
 13
0.000000000000117
 23
74.99999999999997
 33
0.0
  0
MTEXT
  5
13C71
330
EC5E
100
AcDbEntity
  8
2
 62
     2
100
AcDbMText
 10
24.99999999999995
 20
78.24999999999997
 30
0.0
 40
3.5
 41
0.0
 71
     5
 72
     1
  1
\A1;50
 73
     1
 44
1.0
  0
POINT
  5
13C72
330
EC5E
100
AcDbEntity
  8
Defpoints
 62
     0
100
AcDbPoint
 10
49.99999999999977
 20
17.4999999999998
 30
0.0
  0
POINT
  5
13C73
330
EC5E
100
AcDbEntity
  8
Defpoints
 62
     0
100
AcDbPoint
 10
0.0000000000001137
 20
20.5
 30
0.0
  0
POINT
  5
13C74
330
EC5E
100
AcDbEntity
  8
Defpoints
 62
     0
100
AcDbPoint
 10
0.000000000000117
 20
74.99999999999997
 30
0.0
  0
ENDBLK
  5
EC60
330
EC5E
100
AcDbEntity
  8
0
100
AcDbBlockEnd
  0
BLOCK
  5
13A5A
330
13A59
100
AcDbEntity
  8
0
100
AcDbBlockBegin
  2
*D5
 70
     1
 10
0.0
 20
0.0
 30
0.0
  3
*D5
  1

  0
LINE
  5
13C75
330
13A59
100
AcDbEntity
  8
SK2
370
    -2
100
AcDbLine
 10
0.0000000000000568
 20
11.0
 30
0.0
 11
-12.99999999999994
 21
11.0
 31
0.0
  0
LINE
  5
13C76
330
13A59
100
AcDbEntity
  8
SK2
370
    -2
100
AcDbLine
 10
0.000000000000061
 20
-11.0
 30
0.0
 11
-12.99999999999994
 21
-10.99999999999999
 31
0.0
  0
LINE
  5
13C77
330
13A59
100
AcDbEntity
  8
SK2
370
    -2
100
AcDbLine
 10
-11.99999999999994
 20
8.500000000000001
 30
0.0
 11
-11.99999999999994
 21
-8.499999999999998
 31
0.0
  0
SOLID
  5
13C78
330
13A59
100
AcDbEntity
  8
SK2
100
AcDbTrace
 10
-12.41666666666661
 20
8.500000000000003
 30
0.0
 11
-11.58333333333327
 21
8.500000000000001
 31
0.0
 12
-11.99999999999994
 22
11.0
 32
0.0
 13
-11.99999999999994
 23
11.0
 33
0.0
  0
SOLID
  5
13C79
330
13A59
100
AcDbEntity
  8
SK2
100
AcDbTrace
 10
-12.41666666666661
 20
-8.499999999999996
 30
0.0
 11
-11.58333333333328
 21
-8.499999999999998
 31
0.0
 12
-11.99999999999994
 22
-11.0
 32
0.0
 13
-11.99999999999994
 23
-11.0
 33
0.0
  0
MTEXT
  5
13C7A
330
13A59
100
AcDbEntity
  8
SK2
 62
     2
100
AcDbMText
 10
-15.25034448818892
 20
0.0000000000000011
 30
0.0
 40
3.5
 41
0.0
 71
     5
 72
     1
  1
\A1;%%c22
 11
0.0000000000000001
 21
1.0
 31
0.0
 73
     1
 44
1.0
  0
POINT
  5
13C7B
330
13A59
100
AcDbEntity
  8
Defpoints
 62
     0
100
AcDbPoint
 10
0.0000000000000568
 20
11.0
 30
0.0
  0
POINT
  5
13C7C
330
13A59
100
AcDbEntity
  8
Defpoints
 62
     0
100
AcDbPoint
 10
0.000000000000061
 20
-11.0
 30
0.0
  0
POINT
  5
13C7D
330
13A59
100
AcDbEntity
  8
Defpoints
 62
     0
100
AcDbPoint
 10
-11.99999999999994
 20
-11.0
 30
0.0
  0
ENDBLK
  5
13A5B
330
13A59
100
AcDbEntity
  8
0
100
AcDbBlockEnd
  0
BLOCK
  5
13A8B
330
13A8A
100
AcDbEntity
  8
0
100
AcDbBlockBegin
  2
*D6
 70
     1
 10
0.0
 20
0.0
 30
0.0
  3
*D6
  1

  0
LINE
  5
13C7E
330
13A8A
100
AcDbEntity
  8
SK2
370
    -2
100
AcDbLine
 10
2.000000000000125
 20
-22.5
 30
0.0
 11
-25.13886991021994
 21
-22.5
 31
0.0
  0
LINE
  5
13C7F
330
13A8A
100
AcDbEntity
  8
SK2
370
    -2
100
AcDbLine
 10
2.000000000000125
 20
22.5
 30
0.0
 11
-25.13886991021994
 21
22.50000000000001
 31
0.0
  0
LINE
  5
13C80
330
13A8A
100
AcDbEntity
  8
SK2
370
    -2
100
AcDbLine
 10
-24.13886991021994
 20
-19.99999999999999
 30
0.0
 11
-24.13886991021993
 21
20.00000000000001
 31
0.0
  0
SOLID
  5
13C81
330
13A8A
100
AcDbEntity
  8
SK2
100
AcDbTrace
 10
-24.55553657688661
 20
-19.99999999999999
 30
0.0
 11
-23.72220324355327
 21
-20.0
 31
0.0
 12
-24.13886991021994
 22
-22.5
 32
0.0
 13
-24.13886991021994
 23
-22.5
 33
0.0
  0
SOLID
  5
13C82
330
13A8A
100
AcDbEntity
  8
SK2
100
AcDbTrace
 10
-24.5555365768866
 20
20.00000000000001
 30
0.0
 11
-23.72220324355327
 21
20.0
 31
0.0
 12
-24.13886991021993
 22
22.50000000000001
 32
0.0
 13
-24.13886991021993
 23
22.50000000000001
 33
0.0
  0
MTEXT
  5
13C83
330
13A8A
100
AcDbEntity
  8
SK2
 62
     2
100
AcDbMText
 10
-27.38886991021994
 20
0.0000000000000019
 30
0.0
 40
3.5
 41
0.0
 71
     5
 72
     1
  1
\A1;%%c45
 11
0.0000000000000001
 21
1.0
 31
0.0
 73
     1
 44
1.0
  0
POINT
  5
13C84
330
13A8A
100
AcDbEntity
  8
Defpoints
 62
     0
100
AcDbPoint
 10
2.000000000000125
 20
-22.5
 30
0.0
  0
POINT
  5
13C85
330
13A8A
100
AcDbEntity
  8
Defpoints
 62
     0
100
AcDbPoint
 10
2.000000000000125
 20
22.5
 30
0.0
  0
POINT
  5
13C86
330
13A8A
100
AcDbEntity
  8
Defpoints
 62
     0
100
AcDbPoint
 10
-24.13886991021993
 20
22.50000000000001
 30
0.0
  0
ENDBLK
  5
13A8C
330
13A8A
100
AcDbEntity
  8
0
100
AcDbBlockEnd
  0
BLOCK
  5
13B16
330
13B15
100
AcDbEntity
  8
0
100
AcDbBlockBegin
  2
*D7
 70
     1
 10
0.0
 20
0.0
 30
0.0
  3
*D7
  1

  0
LINE
  5
13C87
330
13B15
100
AcDbEntity
  8
2
370
    -2
100
AcDbLine
 10
16.09999999999977
 20
26.59999999999994
 30
0.0
 11
16.09999999999978
 21
60.99999999999997
 31
0.0
  0
LINE
  5
13C88
330
13B15
100
AcDbEntity
  8
2
370
    -2
100
AcDbLine
 10
49.99999999999977
 20
17.4999999999998
 30
0.0
 11
49.99999999999977
 21
60.99999999999997
 31
0.0
  0
LINE
  5
13C89
330
13B15
100
AcDbEntity
  8
2
370
    -2
100
AcDbLine
 10
18.59999999999978
 20
59.99999999999997
 30
0.0
 11
47.49999999999977
 21
59.99999999999997
 31
0.0
  0
SOLID
  5
13C8A
330
13B15
100
AcDbEntity
  8
2
100
AcDbTrace
 10
18.59999999999978
 20
60.41666666666664
 30
0.0
 11
18.59999999999978
 21
59.58333333333331
 31
0.0
 12
16.09999999999978
 22
59.99999999999997
 32
0.0
 13
16.09999999999978
 23
59.99999999999997
 33
0.0
  0
SOLID
  5
13C8B
330
13B15
100
AcDbEntity
  8
2
100
AcDbTrace
 10
47.49999999999977
 20
60.41666666666664
 30
0.0
 11
47.49999999999977
 21
59.58333333333331
 31
0.0
 12
49.99999999999977
 22
59.99999999999997
 32
0.0
 13
49.99999999999977
 23
59.99999999999997
 33
0.0
  0
MTEXT
  5
13C8C
330
13B15
100
AcDbEntity
  8
2
 62
     2
100
AcDbMText
 10
33.04999999999978
 20
63.24999999999997
 30
0.0
 40
3.5
 41
0.0
 71
     5
 72
     1
  1
\A1;33.9
 73
     1
 44
1.0
  0
POINT
  5
13C8D
330
13B15
100
AcDbEntity
  8
Defpoints
 62
     0
100
AcDbPoint
 10
16.09999999999977
 20
26.59999999999994
 30
0.0
  0
POINT
  5
13C8E
330
13B15
100
AcDbEntity
  8
Defpoints
 62
     0
100
AcDbPoint
 10
49.99999999999977
 20
17.4999999999998
 30
0.0
  0
POINT
  5
13C8F
330
13B15
100
AcDbEntity
  8
Defpoints
 62
     0
100
AcDbPoint
 10
49.99999999999977
 20
59.99999999999997
 30
0.0
  0
ENDBLK
  5
13B17
330
13B15
100
AcDbEntity
  8
0
100
AcDbBlockEnd
  0
BLOCK
  5
13B90
330
13B8F
100
AcDbEntity
  8
0
100
AcDbBlockBegin
  2
*D9
 70
     1
 10
0.0
 20
0.0
 30
0.0
  3
*D9
  1

  0
LINE
  5
13C90
330
13B8F
100
AcDbEntity
  8
2
370
    -2
100
AcDbLine
 10
16.09999999999977
 20
26.59999999999994
 30
0.0
 11
88.56860020071326
 21
26.59999999999992
 31
0.0
  0
LINE
  5
13C91
330
13B8F
100
AcDbEntity
  8
2
370
    -2
100
AcDbLine
 10
16.09999999999943
 20
-26.59999999999994
 30
0.0
 11
88.56860020071326
 21
-26.59999999999997
 31
0.0
  0
LINE
  5
13C92
330
13B8F
100
AcDbEntity
  8
2
370
    -2
100
AcDbLine
 10
87.56860020071327
 20
24.09999999999993
 30
0.0
 11
87.56860020071327
 21
-24.09999999999996
 31
0.0
  0
SOLID
  5
13C93
330
13B8F
100
AcDbEntity
  8
2
100
AcDbTrace
 10
87.15193353404659
 20
24.09999999999993
 30
0.0
 11
87.98526686737993
 21
24.09999999999993
 31
0.0
 12
87.56860020071327
 22
26.59999999999993
 32
0.0
 13
87.56860020071327
 23
26.59999999999993
 33
0.0
  0
SOLID
  5
13C94
330
13B8F
100
AcDbEntity
  8
2
100
AcDbTrace
 10
87.15193353404659
 20
-24.09999999999996
 30
0.0
 11
87.98526686737993
 21
-24.09999999999996
 31
0.0
 12
87.56860020071327
 22
-26.59999999999996
 32
0.0
 13
87.56860020071327
 23
-26.59999999999996
 33
0.0
  0
MTEXT
  5
13C95
330
13B8F
100
AcDbEntity
  8
2
 62
     2
100
AcDbMText
 10
84.3182557125243
 20
-0.000000000000005
 30
0.0
 40
3.5
 41
0.0
 71
     5
 72
     1
  1
\A1;%%c53.2
 11
0.0000000000000001
 21
1.0
 31
0.0
 73
     1
 44
1.0
  0
POINT
  5
13C96
330
13B8F
100
AcDbEntity
  8
Defpoints
 62
     0
100
AcDbPoint
 10
16.09999999999977
 20
26.59999999999994
 30
0.0
  0
POINT
  5
13C97
330
13B8F
100
AcDbEntity
  8
Defpoints
 62
     0
100
AcDbPoint
 10
16.09999999999943
 20
-26.59999999999994
 30
0.0
  0
POINT
  5
13C98
330
13B8F
100
AcDbEntity
  8
Defpoints
 62
     0
100
AcDbPoint
 10
87.56860020071327
 20
-26.59999999999996
 30
0.0
  0
ENDBLK
  5
13B91
330
13B8F
100
AcDbEntity
  8
0
100
AcDbBlockEnd
  0
ENDSEC
  0
SECTION
  2
ENTITIES
  0
TEXT
  5
EBAD
330
1F
100
AcDbEntity
  8
6
100
AcDbText
 10
52.3820319550698
 20
22.96515548672437
 30
0.0
 40
2.5
  1
BOMT130404
100
AcDbText
  0
LINE
  5
EBCA
330
1F
100
AcDbEntity
  8
SK1
100
AcDbLine
 10
-2.262823140784234
 20
-2.262823140784178
 30
0.0
 11
2.262823140784178
 21
2.262823140784206
 31
0.0
  0
CIRCLE
  5
EBCB
330
1F
100
AcDbEntity
  8
SK1
100
AcDbCircle
 10
0.0
 20
0.0
 30
0.0
 40
3.200115174948665
  0
LINE
  5
EBCE
330
1F
100
AcDbEntity
  8
SK1
100
AcDbLine
 10
-2.262823140784234
 20
2.262823140784178
 30
0.0
 11
2.262823140784121
 21
-2.262823140784178
 31
0.0
  0
LINE
  5
EBD1
330
1F
100
AcDbEntity
  8
4
100
AcDbLine
 10
52.51703724361641
 20
-0.000000000000199
 30
0.0
 11
0.0
 21
0.0
 31
0.0
  0
CIRCLE
  5
EBD2
330
1F
100
AcDbEntity
  8
SK1
100
AcDbCircle
 10
49.99999999999977
 20
17.4999999999998
 30
0.0
 40
0.4637693698488208
  0
LINE
  5
EBD3
330
1F
100
AcDbEntity
  8
1
100
AcDbLine
 10
49.98637033051539
 20
17.08876582769352
 30
0.0
 11
49.57225985835139
 21
15.54328450563103
 31
0.0
  0
LINE
  5
EBD4
330
1F
100
AcDbEntity
  8
1
100
AcDbLine
 10
49.57225985835139
 20
15.54328450563103
 30
0.0
 11
48.59006844449975
 21
14.77118572137531
 31
0.0
  0
LINE
  5
EBD5
330
1F
100
AcDbEntity
  8
1
100
AcDbLine
 10
48.59006844449975
 20
14.77118572137518
 30
0.0
 11
46.59447265963615
 21
10.43244930671924
 31
0.0
  0
ARC
  5
EBD6
330
1F
100
AcDbEntity
  8
1
100
AcDbCircle
 10
49.59999999999983
 20
17.19229344573447
 30
0.0
 40
0.4
100
AcDbArc
 50
344.999999999998
 51
75.00000000000131
1001
GENIUS_GENOBJ-N-FIL_13
1002
{
1000
OWNER
1000
GEN
1002
}
1001
GENIUS_GENODEF_13
1002
{
1000
HIER
1070
     0
1002
}
1002
{
1000
MANEDIT
1070
     0
1002
}
1002
{
1000
NOSEL
1070
     0
1002
}
1002
{
1000
BEHIND
1070
     0
1002
}
1002
{
1000
OTHER
1070
     0
1002
}
1002
{
1000
REACTOR
1002
}
  0
ARC
  5
EBD7
330
1F
100
AcDbEntity
  8
1
100
AcDbCircle
 10
46.23106938862536
 20
10.59959613623971
 30
0.0
 40
0.4
100
AcDbArc
 50
255.0000000000013
 51
335.3000000000005
1001
GENIUS_GENODEF_13
1002
{
1000
HIER
1070
     0
1002
}
1002
{
1000
MANEDIT
1070
     0
1002
}
1002
{
1000
NOSEL
1070
     0
1002
}
1002
{
1000
BEHIND
1070
     0
1002
}
1002
{
1000
OTHER
1070
     0
1002
}
1002
{
1000
REACTOR
1002
}
1001
GENIUS_GENOBJ-N-FIL_13
1002
{
1000
OWNER
1000
GEN
1002
}
  0
CIRCLE
  5
EBD8
330
1F
100
AcDbEntity
  8
1
100
AcDbCircle
 10
41.81466094833917
 20
15.53066898434502
 30
0.0
 40
2.749999999999976
  0
LINE
  5
EBD9
330
1F
100
AcDbEntity
  8
1
100
AcDbLine
 10
33.64295156616291
 20
13.97257214099641
 30
0.0
 11
34.05706203832693
 21
15.51805346305895
 31
0.0
  0
LINE
  5
EBDA
330
1F
100
AcDbEntity
  8
1
100
AcDbLine
 10
34.05706203832693
 20
15.51805346305895
 30
0.0
 11
35.03925345217865
 21
16.29015224731469
 31
0.0
  0
LINE
  5
EBDB
330
1F
100
AcDbEntity
  8
1
100
AcDbLine
 10
35.03925345217868
 20
16.29015224731474
 30
0.0
 11
37.03484923704227
 21
20.62888866197068
 31
0.0
  0
LINE
  5
EBDC
330
1F
100
AcDbEntity
  8
CUT
100
AcDbLine
 10
35.03925345217868
 20
16.29015224731474
 30
0.0
 11
37.03484923704227
 21
20.62888866197068
 31
0.0
  0
LINE
  5
EBDD
330
1F
100
AcDbEntity
  8
CUT
100
AcDbLine
 10
33.64295156616291
 20
13.97257214099641
 30
0.0
 11
34.05706203832693
 21
15.51805346305895
 31
0.0
  0
LINE
  5
EBDE
330
1F
100
AcDbEntity
  8
CUT
100
AcDbLine
 10
34.05706203832693
 20
15.51805346305895
 30
0.0
 11
35.03925345217865
 21
16.29015224731469
 31
0.0
  0
LINE
  5
EBDF
330
1F
100
AcDbEntity
  8
CUT
100
AcDbLine
 10
49.98637033051539
 20
17.08876582769352
 30
0.0
 11
49.57225985835139
 21
15.54328450563103
 31
0.0
  0
LINE
  5
EBE0
330
1F
100
AcDbEntity
  8
CUT
100
AcDbLine
 10
48.59006844449975
 20
14.77118572137518
 30
0.0
 11
46.59447265963615
 21
10.43244930671924
 31
0.0
  0
ARC
  5
EBE1
330
1F
100
AcDbEntity
  8
CUT
100
AcDbCircle
 10
46.23106938862536
 20
10.59959613623971
 30
0.0
 40
0.4
100
AcDbArc
 50
255.0000000000013
 51
335.3000000000005
1001
GENIUS_GENODEF_13
1002
{
1000
HIER
1070
     0
1002
}
1002
{
1000
MANEDIT
1070
     0
1002
}
1002
{
1000
NOSEL
1070
     0
1002
}
1002
{
1000
BEHIND
1070
     0
1002
}
1002
{
1000
OTHER
1070
     0
1002
}
1002
{
1000
REACTOR
1002
}
1001
GENIUS_GENOBJ-N-FIL_13
1002
{
1000
OWNER
1000
GEN
1002
}
  0
LINE
  5
EBE2
330
1F
100
AcDbEntity
  8
CUT
100
AcDbLine
 10
49.57225985835139
 20
15.54328450563103
 30
0.0
 11
48.59006844449975
 21
14.77118572137531
 31
0.0
  0
ARC
  5
EBE3
330
1F
100
AcDbEntity
  8
CUT
100
AcDbCircle
 10
49.59999999999983
 20
17.19229344573447
 30
0.0
 40
0.4
100
AcDbArc
 50
344.999999999998
 51
75.00000000000131
1001
GENIUS_GENOBJ-N-FIL_13
1002
{
1000
OWNER
1000
GEN
1002
}
1001
GENIUS_GENODEF_13
1002
{
1000
HIER
1070
     0
1002
}
1002
{
1000
MANEDIT
1070
     0
1002
}
1002
{
1000
NOSEL
1070
     0
1002
}
1002
{
1000
BEHIND
1070
     0
1002
}
1002
{
1000
OTHER
1070
     0
1002
}
1002
{
1000
REACTOR
1002
}
  0
LINE
  5
EBE4
330
1F
100
AcDbEntity
  8
SK1
100
AcDbLine
 10
50.46376936984865
 20
17.49999999999977
 30
0.0
 11
49.53623063015095
 21
17.4999999999998
 31
0.0
  0
LINE
  5
EBE5
330
1F
100
AcDbEntity
  8
SK1
100
AcDbLine
 10
49.99999999999983
 20
17.96376936984862
 30
0.0
 11
49.99999999999983
 21
17.03623063015098
 31
0.0
  0
CIRCLE
  5
EBE6
330
1F
100
AcDbEntity
  8
1
100
AcDbCircle
 10
16.09999999999977
 20
26.59999999999994
 30
0.0
 40
0.0959690010191452
  0
CIRCLE
  5
EBE7
330
1F
100
AcDbEntity
  8
1
100
AcDbCircle
 10
20.71932820506869
 20
21.09612676179372
 30
0.0
 40
2.749999999999976
  0
LINE
  5
EBE8
330
1F
100
AcDbEntity
  8
1
100
AcDbLine
 10
12.54761882289242
 20
19.53802991844511
 30
0.0
 11
12.96172929505645
 21
21.08351124050765
 31
0.0
  0
LINE
  5
EBE9
330
1F
100
AcDbEntity
  8
1
100
AcDbLine
 10
12.96172929505645
 20
21.08351124050765
 30
0.0
 11
13.94392070890816
 21
21.85561002476339
 31
0.0
  0
LINE
  5
EBEA
330
1F
100
AcDbEntity
  8
1
100
AcDbLine
 10
13.94392070890819
 20
21.85561002476344
 30
0.0
 11
15.93951649377178
 21
26.19434643941938
 31
0.0
  0
ARC
  5
EBEB
330
1F
100
AcDbEntity
  8
1
100
AcDbCircle
 10
12.93398915340799
 20
19.43450230040416
 30
0.0
 40
0.4
100
AcDbArc
 50
164.9999999999979
 51
255.0000000000013
1001
GENIUS_GENOBJ-N-FIL_13
1002
{
1000
OWNER
1000
GEN
1002
}
1001
GENIUS_GENODEF_13
1002
{
1000
HIER
1070
     0
1002
}
1002
{
1000
MANEDIT
1070
     0
1002
}
1002
{
1000
NOSEL
1070
     0
1002
}
1002
{
1000
BEHIND
1070
     0
1002
}
1002
{
1000
OTHER
1070
     0
1002
}
1002
{
1000
REACTOR
1002
}
  0
ARC
  5
EBEC
330
1F
100
AcDbEntity
  8
1
100
AcDbCircle
 10
16.30291976478238
 20
26.02719960989894
 30
0.0
 40
0.4
100
AcDbArc
 50
75.00000000000131
 51
155.3000000000001
1001
GENIUS_GENODEF_13
1002
{
1000
HIER
1070
     0
1002
}
1002
{
1000
MANEDIT
1070
     0
1002
}
1002
{
1000
NOSEL
1070
     0
1002
}
1002
{
1000
BEHIND
1070
     0
1002
}
1002
{
1000
OTHER
1070
     0
1002
}
1002
{
1000
REACTOR
1002
}
1001
GENIUS_GENOBJ-N-FIL_13
1002
{
1000
OWNER
1000
GEN
1002
}
  0
LINE
  5
EBED
330
1F
100
AcDbEntity
  8
CUT
100
AcDbLine
 10
13.94392070890819
 20
21.85561002476344
 30
0.0
 11
15.93951649377178
 21
26.19434643941938
 31
0.0
  0
LINE
  5
EBEE
330
1F
100
AcDbEntity
  8
CUT
100
AcDbLine
 10
12.54761882289242
 20
19.53802991844511
 30
0.0
 11
12.96172929505645
 21
21.08351124050765
 31
0.0
  0
ARC
  5
EBEF
330
1F
100
AcDbEntity
  8
CUT
100
AcDbCircle
 10
12.93398915340799
 20
19.43450230040416
 30
0.0
 40
0.4
100
AcDbArc
 50
164.9999999999979
 51
255.0000000000013
1001
GENIUS_GENOBJ-N-FIL_13
1002
{
1000
OWNER
1000
GEN
1002
}
1001
GENIUS_GENODEF_13
1002
{
1000
HIER
1070
     0
1002
}
1002
{
1000
MANEDIT
1070
     0
1002
}
1002
{
1000
NOSEL
1070
     0
1002
}
1002
{
1000
BEHIND
1070
     0
1002
}
1002
{
1000
OTHER
1070
     0
1002
}
1002
{
1000
REACTOR
1002
}
  0
LINE
  5
EBF0
330
1F
100
AcDbEntity
  8
CUT
100
AcDbLine
 10
12.96172929505645
 20
21.08351124050765
 30
0.0
 11
13.94392070890816
 21
21.85561002476339
 31
0.0
  0
ARC
  5
EBF1
330
1F
100
AcDbEntity
  8
CUT
100
AcDbCircle
 10
16.30291976478238
 20
26.02719960989894
 30
0.0
 40
0.4
100
AcDbArc
 50
75.00000000000131
 51
155.3000000000001
1001
GENIUS_GENODEF_13
1002
{
1000
HIER
1070
     0
1002
}
1002
{
1000
MANEDIT
1070
     0
1002
}
1002
{
1000
NOSEL
1070
     0
1002
}
1002
{
1000
BEHIND
1070
     0
1002
}
1002
{
1000
OTHER
1070
     0
1002
}
1002
{
1000
REACTOR
1002
}
1001
GENIUS_GENOBJ-N-FIL_13
1002
{
1000
OWNER
1000
GEN
1002
}
  0
CIRCLE
  5
EBF2
330
1F
100
AcDbEntity
  8
1
100
AcDbCircle
 10
31.26699457670392
 20
18.31339787306934
 30
0.0
 40
2.749999999999976
  0
LINE
  5
EBF3
330
1F
100
AcDbEntity
  8
1
100
AcDbLine
 10
23.09528519452765
 20
16.75530102972073
 30
0.0
 11
23.50939566669167
 21
18.30078235178327
 31
0.0
  0
LINE
  5
EBF4
330
1F
100
AcDbEntity
  8
1
100
AcDbLine
 10
23.50939566669167
 20
18.30078235178327
 30
0.0
 11
24.49158708054339
 21
19.07288113603902
 31
0.0
  0
LINE
  5
EBF5
330
1F
100
AcDbEntity
  8
1
100
AcDbLine
 10
24.49158708054342
 20
19.07288113603906
 30
0.0
 11
26.48718286540701
 21
23.411617550695
 31
0.0
  0
LINE
  5
EBF6
330
1F
100
AcDbEntity
  8
CUT
100
AcDbLine
 10
24.49158708054342
 20
19.07288113603906
 30
0.0
 11
26.48718286540701
 21
23.411617550695
 31
0.0
  0
LINE
  5
EBF7
330
1F
100
AcDbEntity
  8
CUT
100
AcDbLine
 10
23.09528519452765
 20
16.75530102972073
 30
0.0
 11
23.50939566669167
 21
18.30078235178327
 31
0.0
  0
LINE
  5
EBF8
330
1F
100
AcDbEntity
  8
CUT
100
AcDbLine
 10
23.50939566669167
 20
18.30078235178327
 30
0.0
 11
24.49158708054339
 21
19.07288113603902
 31
0.0
  0
LINE
  5
EBF9
330
1F
100
AcDbEntity
  8
1
100
AcDbLine
 10
16.4471887217909
 20
26.4026533315396
 30
0.0
 11
49.7035276180408
 21
17.57866377625008
 31
0.0
  0
LINE
  5
EBFA
330
1F
100
AcDbEntity
  8
1
100
AcDbLine
 10
46.12754177058439
 20
10.21322580572409
 30
0.0
 11
12.83046153536701
 21
19.04813196988854
 31
0.0
  0
ARC
  5
EBFB
330
1F
100
AcDbEntity
  8
1
100
AcDbCircle
 10
23.48165552504322
 20
16.65177341167979
 30
0.0
 40
0.4
100
AcDbArc
 50
164.9999999999979
 51
255.0000000000013
1001
GENIUS_GENOBJ-N-FIL_13
1002
{
1000
OWNER
1000
GEN
1002
}
1001
GENIUS_GENODEF_13
1002
{
1000
HIER
1070
     0
1002
}
1002
{
1000
MANEDIT
1070
     0
1002
}
1002
{
1000
NOSEL
1070
     0
1002
}
1002
{
1000
BEHIND
1070
     0
1002
}
1002
{
1000
OTHER
1070
     0
1002
}
1002
{
1000
REACTOR
1002
}
  0
ARC
  5
EBFC
330
1F
100
AcDbEntity
  8
1
100
AcDbCircle
 10
26.85058613641762
 20
23.24447072117457
 30
0.0
 40
0.4
100
AcDbArc
 50
75.00000000000131
 51
155.3000000000001
1001
GENIUS_GENODEF_13
1002
{
1000
HIER
1070
     0
1002
}
1002
{
1000
MANEDIT
1070
     0
1002
}
1002
{
1000
NOSEL
1070
     0
1002
}
1002
{
1000
BEHIND
1070
     0
1002
}
1002
{
1000
OTHER
1070
     0
1002
}
1002
{
1000
REACTOR
1002
}
1001
GENIUS_GENOBJ-N-FIL_13
1002
{
1000
OWNER
1000
GEN
1002
}
  0
ARC
  5
EBFD
330
1F
100
AcDbEntity
  8
CUT
100
AcDbCircle
 10
23.48165552504322
 20
16.65177341167979
 30
0.0
 40
0.4
100
AcDbArc
 50
164.9999999999979
 51
255.0000000000013
1001
GENIUS_GENOBJ-N-FIL_13
1002
{
1000
OWNER
1000
GEN
1002
}
1001
GENIUS_GENODEF_13
1002
{
1000
HIER
1070
     0
1002
}
1002
{
1000
MANEDIT
1070
     0
1002
}
1002
{
1000
NOSEL
1070
     0
1002
}
1002
{
1000
BEHIND
1070
     0
1002
}
1002
{
1000
OTHER
1070
     0
1002
}
1002
{
1000
REACTOR
1002
}
  0
ARC
  5
EBFE
330
1F
100
AcDbEntity
  8
CUT
100
AcDbCircle
 10
26.85058613641762
 20
23.24447072117457
 30
0.0
 40
0.4
100
AcDbArc
 50
75.00000000000131
 51
155.3000000000001
1001
GENIUS_GENODEF_13
1002
{
1000
HIER
1070
     0
1002
}
1002
{
1000
MANEDIT
1070
     0
1002
}
1002
{
1000
NOSEL
1070
     0
1002
}
1002
{
1000
BEHIND
1070
     0
1002
}
1002
{
1000
OTHER
1070
     0
1002
}
1002
{
1000
REACTOR
1002
}
1001
GENIUS_GENOBJ-N-FIL_13
1002
{
1000
OWNER
1000
GEN
1002
}
  0
ARC
  5
EBFF
330
1F
100
AcDbEntity
  8
1
100
AcDbCircle
 10
34.02932189667847
 20
13.86904452295546
 30
0.0
 40
0.4
100
AcDbArc
 50
164.9999999999979
 51
255.0000000000013
1001
GENIUS_GENOBJ-N-FIL_13
1002
{
1000
OWNER
1000
GEN
1002
}
1001
GENIUS_GENODEF_13
1002
{
1000
HIER
1070
     0
1002
}
1002
{
1000
MANEDIT
1070
     0
1002
}
1002
{
1000
NOSEL
1070
     0
1002
}
1002
{
1000
BEHIND
1070
     0
1002
}
1002
{
1000
OTHER
1070
     0
1002
}
1002
{
1000
REACTOR
1002
}
  0
ARC
  5
EC00
330
1F
100
AcDbEntity
  8
1
100
AcDbCircle
 10
37.39825250805288
 20
20.46174183245025
 30
0.0
 40
0.4
100
AcDbArc
 50
75.00000000000131
 51
155.3000000000001
1001
GENIUS_GENODEF_13
1002
{
1000
HIER
1070
     0
1002
}
1002
{
1000
MANEDIT
1070
     0
1002
}
1002
{
1000
NOSEL
1070
     0
1002
}
1002
{
1000
BEHIND
1070
     0
1002
}
1002
{
1000
OTHER
1070
     0
1002
}
1002
{
1000
REACTOR
1002
}
1001
GENIUS_GENOBJ-N-FIL_13
1002
{
1000
OWNER
1000
GEN
1002
}
  0
ARC
  5
EC01
330
1F
100
AcDbEntity
  8
CUT
100
AcDbCircle
 10
34.02932189667847
 20
13.86904452295546
 30
0.0
 40
0.4
100
AcDbArc
 50
164.9999999999979
 51
255.0000000000013
1001
GENIUS_GENOBJ-N-FIL_13
1002
{
1000
OWNER
1000
GEN
1002
}
1001
GENIUS_GENODEF_13
1002
{
1000
HIER
1070
     0
1002
}
1002
{
1000
MANEDIT
1070
     0
1002
}
1002
{
1000
NOSEL
1070
     0
1002
}
1002
{
1000
BEHIND
1070
     0
1002
}
1002
{
1000
OTHER
1070
     0
1002
}
1002
{
1000
REACTOR
1002
}
  0
ARC
  5
EC02
330
1F
100
AcDbEntity
  8
CUT
100
AcDbCircle
 10
37.39825250805288
 20
20.46174183245025
 30
0.0
 40
0.4
100
AcDbArc
 50
75.00000000000131
 51
155.3000000000001
1001
GENIUS_GENODEF_13
1002
{
1000
HIER
1070
     0
1002
}
1002
{
1000
MANEDIT
1070
     0
1002
}
1002
{
1000
NOSEL
1070
     0
1002
}
1002
{
1000
BEHIND
1070
     0
1002
}
1002
{
1000
OTHER
1070
     0
1002
}
1002
{
1000
REACTOR
1002
}
1001
GENIUS_GENOBJ-N-FIL_13
1002
{
1000
OWNER
1000
GEN
1002
}
  0
LINE
  5
EC04
330
1F
100
AcDbEntity
  8
CUT
100
AcDbLine
 10
46.12754177058439
 20
10.21322580572409
 30
0.0
 11
12.83046153536701
 21
19.04813196988854
 31
0.0
  0
CIRCLE
  5
EC05
330
1F
100
AcDbEntity
  8
SK1
100
AcDbCircle
 10
49.9999999999996
 20
-17.5000000000002
 30
0.0
 40
0.4637693698488208
  0
LINE
  5
EC06
330
1F
100
AcDbEntity
  8
1
100
AcDbLine
 10
49.98637033051522
 20
-17.0887658276939
 30
0.0
 11
49.57225985835128
 21
-15.54328450563142
 31
0.0
  0
LINE
  5
EC08
330
1F
100
AcDbEntity
  8
1
100
AcDbLine
 10
49.57225985835128
 20
-15.54328450563142
 30
0.0
 11
48.89999999999997
 21
-15.01482232197058
 31
0.0
  0
LINE
  5
EC09
330
1F
100
AcDbEntity
  8
SK3
100
AcDbLine
 10
48.59006844449961
 20
-14.77118572137555
 30
0.0
 11
46.59447265963605
 21
-10.43244930671958
 31
0.0
  0
ARC
  5
EC0A
330
1F
100
AcDbEntity
  8
1
100
AcDbCircle
 10
49.59999999999965
 20
-17.19229344573485
 30
0.0
 40
0.4
100
AcDbArc
 50
284.9999999999987
 51
15.00000000000206
1001
GENIUS_GENOBJ-N-FIL_13
1002
{
1000
OWNER
1000
GEN
1002
}
1001
GENIUS_GENODEF_13
1002
{
1000
HIER
1070
     0
1002
}
1002
{
1000
MANEDIT
1070
     0
1002
}
1002
{
1000
NOSEL
1070
     0
1002
}
1002
{
1000
BEHIND
1070
     0
1002
}
1002
{
1000
OTHER
1070
     0
1002
}
1002
{
1000
REACTOR
1002
}
  0
ARC
  5
EC0B
330
1F
100
AcDbEntity
  8
SK3
100
AcDbCircle
 10
46.23106938862528
 20
-10.59959613624005
 30
0.0
 40
0.4
100
AcDbArc
 50
24.6999999999995
 51
104.9999999999987
1001
GENIUS_GENODEF_13
1002
{
1000
HIER
1070
     0
1002
}
1002
{
1000
MANEDIT
1070
     0
1002
}
1002
{
1000
NOSEL
1070
     0
1002
}
1002
{
1000
BEHIND
1070
     0
1002
}
1002
{
1000
OTHER
1070
     0
1002
}
1002
{
1000
REACTOR
1002
}
1001
GENIUS_GENOBJ-N-FIL_13
1002
{
1000
OWNER
1000
GEN
1002
}
  0
CIRCLE
  5
EC0C
330
1F
100
AcDbEntity
  8
SK3
 48
0.3
100
AcDbCircle
 10
41.81466094833902
 20
-15.53066898434532
 30
0.0
 40
2.749999999999976
  0
LINE
  5
EC0D
330
1F
100
AcDbEntity
  8
SK3
100
AcDbLine
 10
33.64295156616278
 20
-13.97257214099664
 30
0.0
 11
34.05706203832675
 21
-15.51805346305914
 31
0.0
  0
LINE
  5
EC0E
330
1F
100
AcDbEntity
  8
SK3
100
AcDbLine
 10
34.05706203832675
 20
-15.51805346305914
 30
0.0
 11
35.0392534521785
 21
-16.29015224731493
 31
0.0
  0
LINE
  5
EC0F
330
1F
100
AcDbEntity
  8
SK3
100
AcDbLine
 10
35.03925345217853
 20
-16.29015224731498
 30
0.0
 11
36.86099117410587
 21
-20.25089412301455
 31
0.0
  0
LINE
  5
EC10
330
1F
100
AcDbEntity
  8
SK1
100
AcDbLine
 10
50.46376936984848
 20
-17.50000000000017
 30
0.0
 11
49.53623063015078
 21
-17.5000000000002
 31
0.0
  0
LINE
  5
EC11
330
1F
100
AcDbEntity
  8
SK1
100
AcDbLine
 10
49.99999999999966
 20
-17.96376936984902
 30
0.0
 11
49.99999999999966
 21
-17.03623063015138
 31
0.0
  0
CIRCLE
  5
EC12
330
1F
100
AcDbEntity
  8
SK3
 48
0.3
100
AcDbCircle
 10
20.71932820506848
 20
-21.09612676179379
 30
0.0
 40
2.749999999999976
  0
LINE
  5
EC13
330
1F
100
AcDbEntity
  8
SK3
100
AcDbLine
 10
12.54761882289223
 20
-19.53802991844511
 30
0.0
 11
12.96172929505623
 21
-21.08351124050765
 31
0.0
  0
LINE
  5
EC14
330
1F
100
AcDbEntity
  8
SK3
100
AcDbLine
 10
12.96172929505623
 20
-21.08351124050765
 30
0.0
 11
13.94392070890795
 21
-21.8556100247634
 31
0.0
  0
LINE
  5
EC15
330
1F
100
AcDbEntity
  8
SK3
100
AcDbLine
 10
13.94392070890798
 20
-21.85561002476346
 30
0.0
 11
15.38773501622813
 21
-24.99468746654087
 31
0.0
  0
ARC
  5
EC16
330
1F
100
AcDbEntity
  8
SK3
100
AcDbCircle
 10
12.9339891534078
 20
-19.43450230040415
 30
0.0
 40
0.4
100
AcDbArc
 50
104.9999999999987
 51
195.000000000002
1001
GENIUS_GENOBJ-N-FIL_13
1002
{
1000
OWNER
1000
GEN
1002
}
1001
GENIUS_GENODEF_13
1002
{
1000
HIER
1070
     0
1002
}
1002
{
1000
MANEDIT
1070
     0
1002
}
1002
{
1000
NOSEL
1070
     0
1002
}
1002
{
1000
BEHIND
1070
     0
1002
}
1002
{
1000
OTHER
1070
     0
1002
}
1002
{
1000
REACTOR
1002
}
  0
ARC
  5
EC17
330
1F
100
AcDbEntity
  8
1
100
AcDbCircle
 10
16.30291976478212
 20
-26.02719960989899
 30
0.0
 40
0.4
100
AcDbArc
 50
204.6999999999999
 51
284.9999999999987
1001
GENIUS_GENODEF_13
1002
{
1000
HIER
1070
     0
1002
}
1002
{
1000
MANEDIT
1070
     0
1002
}
1002
{
1000
NOSEL
1070
     0
1002
}
1002
{
1000
BEHIND
1070
     0
1002
}
1002
{
1000
OTHER
1070
     0
1002
}
1002
{
1000
REACTOR
1002
}
1001
GENIUS_GENOBJ-N-FIL_13
1002
{
1000
OWNER
1000
GEN
1002
}
  0
CIRCLE
  5
EC18
330
1F
100
AcDbEntity
  8
SK3
 48
0.3
100
AcDbCircle
 10
31.26699457670374
 20
-18.31339787306952
 30
0.0
 40
2.749999999999976
  0
LINE
  5
EC19
330
1F
100
AcDbEntity
  8
SK3
100
AcDbLine
 10
23.09528519452749
 20
-16.75530102972085
 30
0.0
 11
23.50939566669149
 21
-18.3007823517834
 31
0.0
  0
LINE
  5
EC1A
330
1F
100
AcDbEntity
  8
SK3
100
AcDbLine
 10
23.50939566669149
 20
-18.3007823517834
 30
0.0
 11
24.49158708054321
 21
-19.07288113603913
 31
0.0
  0
LINE
  5
EC1B
330
1F
100
AcDbEntity
  8
SK3
100
AcDbLine
 10
24.49158708054324
 20
-19.07288113603919
 30
0.0
 11
26.3150000119395
 21
-23.03726517834391
 31
0.0
  0
LINE
  5
EC1C
330
1F
100
AcDbEntity
  8
1
100
AcDbLine
 10
16.44718872179064
 20
-26.40265333153965
 30
0.0
 11
49.70352761804064
 21
-17.57866377625047
 31
0.0
  0
LINE
  5
EC1D
330
1F
100
AcDbEntity
  8
SK3
 48
0.3
100
AcDbLine
 10
46.12754177058429
 20
-10.21322580572443
 30
0.0
 11
13.80141045449593
 21
-18.7905044983474
 31
0.0
  0
LINE
  5
EC1E
330
1F
100
AcDbEntity
  8
SK3
100
AcDbLine
 10
13.8014104544959
 20
-18.79050449834735
 30
0.0
 11
12.83046153536682
 21
-19.04813196988854
 31
0.0
  0
ARC
  5
EC1F
330
1F
100
AcDbEntity
  8
SK3
100
AcDbCircle
 10
23.48165552504306
 20
-16.65177341167989
 30
0.0
 40
0.4
100
AcDbArc
 50
104.9999999999987
 51
195.000000000002
1001
GENIUS_GENOBJ-N-FIL_13
1002
{
1000
OWNER
1000
GEN
1002
}
1001
GENIUS_GENODEF_13
1002
{
1000
HIER
1070
     0
1002
}
1002
{
1000
MANEDIT
1070
     0
1002
}
1002
{
1000
NOSEL
1070
     0
1002
}
1002
{
1000
BEHIND
1070
     0
1002
}
1002
{
1000
OTHER
1070
     0
1002
}
1002
{
1000
REACTOR
1002
}
  0
ARC
  5
EC20
330
1F
100
AcDbEntity
  8
1
100
AcDbCircle
 10
26.85058613641736
 20
-23.24447072117469
 30
0.0
 40
0.4
100
AcDbArc
 50
204.6999999999999
 51
284.9999999999987
1001
GENIUS_GENODEF_13
1002
{
1000
HIER
1070
     0
1002
}
1002
{
1000
MANEDIT
1070
     0
1002
}
1002
{
1000
NOSEL
1070
     0
1002
}
1002
{
1000
BEHIND
1070
     0
1002
}
1002
{
1000
OTHER
1070
     0
1002
}
1002
{
1000
REACTOR
1002
}
1001
GENIUS_GENOBJ-N-FIL_13
1002
{
1000
OWNER
1000
GEN
1002
}
  0
ARC
  5
EC21
330
1F
100
AcDbEntity
  8
SK3
100
AcDbCircle
 10
34.02932189667835
 20
-13.86904452295568
 30
0.0
 40
0.4
100
AcDbArc
 50
104.9999999999987
 51
195.000000000002
1001
GENIUS_GENOBJ-N-FIL_13
1002
{
1000
OWNER
1000
GEN
1002
}
1001
GENIUS_GENODEF_13
1002
{
1000
HIER
1070
     0
1002
}
1002
{
1000
MANEDIT
1070
     0
1002
}
1002
{
1000
NOSEL
1070
     0
1002
}
1002
{
1000
BEHIND
1070
     0
1002
}
1002
{
1000
OTHER
1070
     0
1002
}
1002
{
1000
REACTOR
1002
}
  0
ARC
  5
EC22
330
1F
100
AcDbEntity
  8
1
100
AcDbCircle
 10
37.38133598071577
 20
-20.42496266418263
 30
0.0
 40
0.4
100
AcDbArc
 50
204.6999999999999
 51
284.9999999999987
1001
GENIUS_GENODEF_13
1002
{
1000
HIER
1070
     0
1002
}
1002
{
1000
MANEDIT
1070
     0
1002
}
1002
{
1000
NOSEL
1070
     0
1002
}
1002
{
1000
BEHIND
1070
     0
1002
}
1002
{
1000
OTHER
1070
     0
1002
}
1002
{
1000
REACTOR
1002
}
1001
GENIUS_GENOBJ-N-FIL_13
1002
{
1000
OWNER
1000
GEN
1002
}
  0
DIMENSION
  5
EC23
330
1F
100
AcDbEntity
  8
2
100
AcDbDimension
  2
*D3
 10
66.09601900593765
 20
-17.5000000000002
 30
0.0
 11
62.84601900593765
 21
-0.0000000000001919
 31
0.0
 70
    32
  1
%%c<>
 71
     5
 42
35.0
  3
AM_DIN$0
100
AcDbAlignedDimension
 13
49.99999999999977
 23
17.4999999999998
 33
0.0
 14
49.9999999999996
 24
-17.5000000000002
 34
0.0
 50
90.0
100
AcDbRotatedDimension
1001
ACAD
1000
DSTYLE
1002
{
1070
    50
1040
0.7853981633974483
1070
    90
1070
     1
1070
   271
1070
     1
1002
}
1001
ACAD_DSTYLE_DIMINSPECT
1070
   396
1000
100%
1070
   395
1000

1070
   394
1070
    33
1070
   393
1070
     0
  0
TEXT
  5
EC26
330
1F
100
AcDbEntity
  8
6
100
AcDbText
 10
72.90313308816871
 20
-17.13328041475458
 30
0.0
 40
3.5
  1
Z=9
 50
90.0
100
AcDbText
  0
TEXT
  5
EC27
330
1F
100
AcDbEntity
  8
6
100
AcDbText
 10
72.35330513203121
 20
-3.289705765278966
 30
0.0
 40
3.5
  1
Zeff.=3
 50
90.0
100
AcDbText
  0
DIMENSION
  5
EC2A
330
1F
100
AcDbEntity
  8
2
100
AcDbDimension
  2
*D4
 10
0.000000000000117
 20
74.99999999999997
 30
0.0
 11
24.99999999999995
 21
78.24999999999997
 31
0.0
 70
    32
 71
     5
 42
49.99999999999966
  3
AM_DIN$0
100
AcDbAlignedDimension
 13
49.99999999999977
 23
17.4999999999998
 33
0.0
 14
0.0000000000001137
 24
20.5
 34
0.0
100
AcDbRotatedDimension
1001
ACAD
1000
DSTYLE
1002
{
1070
    50
1040
0.7853981633974483
1070
    90
1070
     1
1070
   271
1070
     1
1002
}
1001
ACAD_DSTYLE_DIMINSPECT
1070
   396
1000
100%
1070
   395
1000

1070
   394
1070
    33
1070
   393
1070
     0
  0
TEXT
  5
EC2D
330
1F
100
AcDbEntity
  8
6
100
AcDbText
 10
5.33111330839165
 20
-34.0866864761233
 30
0.0
 40
3.5
  1
22L3R035050F1R00
100
AcDbText
  0
LINE
  5
13A1B
330
1F
100
AcDbEntity
  8
1
100
AcDbLine
 10
0.0000000000001137
 20
-20.5
 30
0.0
 11
0.0000000000000288
 21
-5.199999999999846
 31
0.0
  0
LINE
  5
13A1D
330
1F
100
AcDbEntity
  8
1
100
AcDbLine
 10
48.89999999999997
 20
0.0
 30
0.0
 11
48.89999999999997
 21
-15.01482232197058
 31
0.0
  0
LINE
  5
13A1E
330
1F
100
AcDbEntity
  8
1
100
AcDbLine
 10
2.000000000000113
 20
-22.5
 30
0.0
 11
11.67153111051493
 21
-22.49999999999994
 31
0.0
  0
LINE
  5
13A1F
330
1F
100
AcDbEntity
  8
1
100
AcDbLine
 10
12.2644931417999
 20
-22.69476957989997
 30
0.0
 11
15.38773501622813
 21
-24.99468746654086
 31
0.0
  0
LINE
  5
13A20
330
1F
100
AcDbEntity
  8
1
100
AcDbLine
 10
48.89999999999997
 20
-17.07005078534243
 30
0.0
 11
36.86099117410588
 21
-20.25089412301455
 31
0.0
  0
LINE
  5
13A21
330
1F
100
AcDbEntity
  8
1
100
AcDbLine
 10
16.16423444477965
 20
-25.44555206310003
 30
0.0
 11
17.13506133813956
 21
-25.44555206310003
 31
0.0
  0
ARC
  5
13A22
330
1F
100
AcDbEntity
  8
1
100
AcDbCircle
 10
16.16423444477965
 20
-24.94555206310002
 30
0.0
 40
0.5
100
AcDbArc
 50
233.6325141136613
 51
270.0
1001
GENIUS_GENODEF_13
1002
{
1000
HIER
1070
     0
1002
}
1002
{
1000
MANEDIT
1070
     0
1002
}
1002
{
1000
NOSEL
1070
     0
1002
}
1002
{
1000
BEHIND
1070
     0
1002
}
1002
{
1000
OTHER
1070
     0
1002
}
1002
{
1000
REACTOR
1002
}
1001
GENIUS_GENOBJ-N-FIL_13
1002
{
1000
OWNER
1000
GEN
1002
}
  0
ARC
  5
13A23
330
1F
100
AcDbEntity
  8
1
100
AcDbCircle
 10
17.13506133813956
 20
-24.94555206310002
 30
0.0
 40
0.5
100
AcDbArc
 50
270.0000000000017
 51
284.8000000001001
1001
GENIUS_GENOBJ-N-FIL_13
1002
{
1000
OWNER
1000
GEN
1002
}
1001
GENIUS_GENODEF_13
1002
{
1000
HIER
1070
     0
1002
}
1002
{
1000
MANEDIT
1070
     0
1002
}
1002
{
1000
NOSEL
1070
     0
1002
}
1002
{
1000
BEHIND
1070
     0
1002
}
1002
{
1000
OTHER
1070
     0
1002
}
1002
{
1000
REACTOR
1002
}
  0
ARC
  5
13A24
330
1F
100
AcDbEntity
  8
1
100
AcDbCircle
 10
2.000000000000113
 20
-20.5
 30
0.0
 40
2.0
100
AcDbArc
 50
180.0
 51
270.0
1001
GENIUS_GENOBJ-N-FIL_13
1002
{
1000
OWNER
1000
GEN
1002
}
1001
GENIUS_GENODEF_13
1002
{
1000
HIER
1070
     0
1002
}
1002
{
1000
MANEDIT
1070
     0
1002
}
1002
{
1000
NOSEL
1070
     0
1002
}
1002
{
1000
BEHIND
1070
     0
1002
}
1002
{
1000
OTHER
1070
     0
1002
}
1002
{
1000
REACTOR
1002
}
  0
ARC
  5
13A25
330
1F
100
AcDbEntity
  8
1
100
AcDbCircle
 10
11.67153111051493
 20
-23.49999999999994
 30
0.0
 40
1.0
100
AcDbArc
 50
53.63251411366128
 51
90.0
1001
GENIUS_GENOBJ-N-FIL_13
1002
{
1000
OWNER
1000
GEN
1002
}
1001
GENIUS_GENODEF_13
1002
{
1000
HIER
1070
     0
1002
}
1002
{
1000
MANEDIT
1070
     0
1002
}
1002
{
1000
NOSEL
1070
     0
1002
}
1002
{
1000
BEHIND
1070
     0
1002
}
1002
{
1000
OTHER
1070
     0
1002
}
1002
{
1000
REACTOR
1002
}
  0
LINE
  5
13A26
330
1F
100
AcDbEntity
  8
SK3
 48
0.3
100
AcDbLine
 10
0.0000000000000568
 20
-11.0
 30
0.0
 11
21.0
 21
-11.0
 31
0.0
  0
LINE
  5
13A27
330
1F
100
AcDbEntity
  8
SK3
 48
0.3
100
AcDbLine
 10
21.00000000000012
 20
0.0
 30
0.0
 11
21.0
 21
-11.0
 31
0.0
  0
LINE
  5
13A28
330
1F
100
AcDbEntity
  8
SK3
 48
0.3
100
AcDbLine
 10
21.00000000000006
 20
-5.5
 30
0.0
 11
34.89999999999992
 21
-5.500000000000056
 31
0.0
  0
LINE
  5
13A29
330
1F
100
AcDbEntity
  8
SK3
 48
0.3
100
AcDbLine
 10
34.89999999999992
 20
-0.0000000000000284
 30
0.0
 11
34.89999999999998
 21
-8.5
 31
0.0
  0
LINE
  5
13A2A
330
1F
100
AcDbEntity
  8
SK3
 48
0.3
100
AcDbLine
 10
34.89999999999998
 20
-8.5
 30
0.0
 11
48.89999999999997
 21
-8.500000000000142
 31
0.0
  0
LINE
  5
13A2B
330
1F
100
AcDbEntity
  8
NOCUT
100
AcDbLine
 10
0.0000000000001137
 20
-20.5
 30
0.0
 11
0.0
 21
0.0
 31
0.0
  0
LINE
  5
13A2C
330
1F
100
AcDbEntity
  8
NOCUT
100
AcDbLine
 10
0.0
 20
0.0
 30
0.0
 11
48.89999999999997
 21
0.0
 31
0.0
  0
LINE
  5
13A2D
330
1F
100
AcDbEntity
  8
NOCUT
100
AcDbLine
 10
48.89999999999997
 20
0.0
 30
0.0
 11
48.89999999999997
 21
-15.01482232197058
 31
0.0
  0
LINE
  5
13A2E
330
1F
100
AcDbEntity
  8
NOCUT
100
AcDbLine
 10
2.000000000000113
 20
-22.5
 30
0.0
 11
11.67153111051493
 21
-22.49999999999994
 31
0.0
  0
ARC
  5
13A2F
330
1F
100
AcDbEntity
  8
NOCUT
100
AcDbCircle
 10
11.67153111051493
 20
-23.49999999999994
 30
0.0
 40
1.0
100
AcDbArc
 50
53.63251411366103
 51
90.0
1001
GENIUS_GENOBJ-N-FIL_13
1002
{
1000
OWNER
1000
GEN
1002
}
1001
GENIUS_GENODEF_13
1002
{
1000
HIER
1070
     0
1002
}
1002
{
1000
MANEDIT
1070
     0
1002
}
1002
{
1000
NOSEL
1070
     0
1002
}
1002
{
1000
BEHIND
1070
     0
1002
}
1002
{
1000
OTHER
1070
     0
1002
}
1002
{
1000
REACTOR
1002
}
  0
ARC
  5
13A30
330
1F
100
AcDbEntity
  8
NOCUT
100
AcDbCircle
 10
2.000000000000113
 20
-20.5
 30
0.0
 40
2.0
100
AcDbArc
 50
180.0
 51
270.0
1001
GENIUS_GENOBJ-N-FIL_13
1002
{
1000
OWNER
1000
GEN
1002
}
1001
GENIUS_GENODEF_13
1002
{
1000
HIER
1070
     0
1002
}
1002
{
1000
MANEDIT
1070
     0
1002
}
1002
{
1000
NOSEL
1070
     0
1002
}
1002
{
1000
BEHIND
1070
     0
1002
}
1002
{
1000
OTHER
1070
     0
1002
}
1002
{
1000
REACTOR
1002
}
  0
LINE
  5
13A31
330
1F
100
AcDbEntity
  8
NOCUT
100
AcDbLine
 10
12.2644931417999
 20
-22.69476957989997
 30
0.0
 11
15.38773501622813
 21
-24.99468746654086
 31
0.0
  0
ARC
  5
13A32
330
1F
100
AcDbEntity
  8
NOCUT
100
AcDbCircle
 10
16.16423444477965
 20
-24.94555206310002
 30
0.0
 40
0.5
100
AcDbArc
 50
233.6325141136613
 51
270.0
1001
GENIUS_GENODEF_13
1002
{
1000
HIER
1070
     0
1002
}
1002
{
1000
MANEDIT
1070
     0
1002
}
1002
{
1000
NOSEL
1070
     0
1002
}
1002
{
1000
BEHIND
1070
     0
1002
}
1002
{
1000
OTHER
1070
     0
1002
}
1002
{
1000
REACTOR
1002
}
1001
GENIUS_GENOBJ-N-FIL_13
1002
{
1000
OWNER
1000
GEN
1002
}
  0
LINE
  5
13A33
330
1F
100
AcDbEntity
  8
NOCUT
100
AcDbLine
 10
48.89999999999997
 20
-17.07005078534243
 30
0.0
 11
36.86099117410588
 21
-20.25089412301455
 31
0.0
  0
ARC
  5
13A34
330
1F
100
AcDbEntity
  8
NOCUT
100
AcDbCircle
 10
17.13506133813956
 20
-24.94555206310002
 30
0.0
 40
0.5
100
AcDbArc
 50
270.0000000000017
 51
284.8000000001001
1001
GENIUS_GENOBJ-N-FIL_13
1002
{
1000
OWNER
1000
GEN
1002
}
1001
GENIUS_GENODEF_13
1002
{
1000
HIER
1070
     0
1002
}
1002
{
1000
MANEDIT
1070
     0
1002
}
1002
{
1000
NOSEL
1070
     0
1002
}
1002
{
1000
BEHIND
1070
     0
1002
}
1002
{
1000
OTHER
1070
     0
1002
}
1002
{
1000
REACTOR
1002
}
  0
LINE
  5
13A35
330
1F
100
AcDbEntity
  8
NOCUT
100
AcDbLine
 10
16.16423444477965
 20
-25.44555206310003
 30
0.0
 11
17.13506133813956
 21
-25.44555206310003
 31
0.0
  0
LINE
  5
13A36
330
1F
100
AcDbEntity
  8
1
100
AcDbLine
 10
0.0000000000001137
 20
20.5
 30
0.0
 11
0.0000000000000288
 21
5.200000000000159
 31
0.0
  0
LINE
  5
13A37
330
1F
100
AcDbEntity
  8
1
100
AcDbLine
 10
48.89999999999997
 20
0.0
 30
0.0
 11
48.89999999999997
 21
15.0148223219701
 31
0.0
  0
LINE
  5
13A38
330
1F
100
AcDbEntity
  8
1
100
AcDbLine
 10
2.000000000000113
 20
22.5
 30
0.0
 11
11.67153111051493
 21
22.49999999999994
 31
0.0
  0
ARC
  5
13A39
330
1F
100
AcDbEntity
  8
1
100
AcDbCircle
 10
11.67153111051493
 20
23.49999999999994
 30
0.0
 40
1.0
100
AcDbArc
 50
270.0
 51
306.3674858863387
1001
GENIUS_GENOBJ-N-FIL_13
1002
{
1000
OWNER
1000
GEN
1002
}
1001
GENIUS_GENODEF_13
1002
{
1000
HIER
1070
     0
1002
}
1002
{
1000
MANEDIT
1070
     0
1002
}
1002
{
1000
NOSEL
1070
     0
1002
}
1002
{
1000
BEHIND
1070
     0
1002
}
1002
{
1000
OTHER
1070
     0
1002
}
1002
{
1000
REACTOR
1002
}
  0
ARC
  5
13A3A
330
1F
100
AcDbEntity
  8
1
100
AcDbCircle
 10
2.000000000000113
 20
20.5
 30
0.0
 40
2.0
100
AcDbArc
 50
90.0
 51
180.0
1001
GENIUS_GENOBJ-N-FIL_13
1002
{
1000
OWNER
1000
GEN
1002
}
1001
GENIUS_GENODEF_13
1002
{
1000
HIER
1070
     0
1002
}
1002
{
1000
MANEDIT
1070
     0
1002
}
1002
{
1000
NOSEL
1070
     0
1002
}
1002
{
1000
BEHIND
1070
     0
1002
}
1002
{
1000
OTHER
1070
     0
1002
}
1002
{
1000
REACTOR
1002
}
  0
LINE
  5
13A3B
330
1F
100
AcDbEntity
  8
1
100
AcDbLine
 10
12.2644931417999
 20
22.69476957989997
 30
0.0
 11
15.38773501622853
 21
24.99468746654117
 31
0.0
  0
LINE
  5
13A40
330
1F
100
AcDbEntity
  8
SK3
 48
0.3
100
AcDbLine
 10
0.0000000000000568
 20
11.0
 30
0.0
 11
21.0
 21
11.0
 31
0.0
  0
LINE
  5
13A41
330
1F
100
AcDbEntity
  8
SK3
 48
0.3
100
AcDbLine
 10
21.00000000000012
 20
0.0
 30
0.0
 11
21.0
 21
11.0
 31
0.0
  0
LINE
  5
13A42
330
1F
100
AcDbEntity
  8
SK3
 48
0.3
100
AcDbLine
 10
34.89999999999992
 20
0.0000000000000284
 30
0.0
 11
34.89999999999998
 21
8.5
 31
0.0
  0
LINE
  5
13A43
330
1F
100
AcDbEntity
  8
SK3
 48
0.3
100
AcDbLine
 10
34.89999999999998
 20
8.5
 30
0.0
 11
48.89999999999997
 21
8.500000000000142
 31
0.0
  0
LINE
  5
13A46
330
1F
100
AcDbEntity
  8
SK3
 48
0.3
100
AcDbLine
 10
21.00000000000008
 20
5.500000000000014
 30
0.0
 11
34.89999999999995
 21
5.500000000000014
 31
0.0
  0
LINE
  5
13A4A
330
1F
100
AcDbEntity
  8
1
100
AcDbLine
 10
0.0000000000000288
 20
-5.199999999999846
 30
0.0
 11
6.299999999999971
 21
-5.199999999999898
 31
0.0
  0
LINE
  5
13A4B
330
1F
100
AcDbEntity
  8
1
100
AcDbLine
 10
6.300000000000029
 20
5.200000000000159
 30
0.0
 11
0.0000000000000284
 21
5.200000000000159
 31
0.0
  0
LINE
  5
13A4C
330
1F
100
AcDbEntity
  8
1
100
AcDbLine
 10
6.300000000000029
 20
5.200000000000159
 30
0.0
 11
6.299999999999971
 21
-5.199999999999896
 31
0.0
  0
DIMENSION
  5
13A58
330
1F
100
AcDbEntity
  8
SK2
100
AcDbDimension
  2
*D5
 10
-11.99999999999994
 20
-11.0
 30
0.0
 11
-15.25034448818892
 21
0.0000000000000011
 31
0.0
 70
    32
  1
%%c<>
 71
     5
 42
22.0
  3
AM_DIN$0
100
AcDbAlignedDimension
 13
0.0000000000000568
 23
11.0
 33
0.0
 14
0.000000000000061
 24
-11.0
 34
0.0
 50
90.00000000000003
100
AcDbRotatedDimension
1001
ACAD
1000
DSTYLE
1002
{
1070
    90
1070
     1
1070
   271
1070
     1
1002
}
1001
ACAD_DSTYLE_DIMINSPECT
1070
   396
1000
100%
1070
   395
1000

1070
   394
1070
    33
1070
   393
1070
     0
  0
DIMENSION
  5
13A89
330
1F
100
AcDbEntity
  8
SK2
100
AcDbDimension
  2
*D6
 10
-24.13886991021993
 20
22.50000000000001
 30
0.0
 11
-27.38886991021994
 21
0.0000000000000019
 31
0.0
 70
    32
  1
%%c<>
 71
     5
 42
45.0
  3
AM_DIN$0
100
AcDbAlignedDimension
 13
2.000000000000125
 23
-22.5
 33
0.0
 14
2.000000000000125
 24
22.5
 34
0.0
 50
90.00000000000033
100
AcDbRotatedDimension
1001
ACAD
1000
DSTYLE
1002
{
1070
    90
1070
     1
1070
   271
1070
     1
1002
}
1001
ACAD_DSTYLE_DIMINSPECT
1070
   396
1000
100%
1070
   395
1000

1070
   394
1070
    33
1070
   393
1070
     0
  0
LINE
  5
13AF4
330
1F
100
AcDbEntity
  8
NOCUT
100
AcDbLine
 10
48.89999999999997
 20
-15.01482232197058
 30
0.0
 11
48.89999999999997
 21
-17.07005078534243
 31
0.0
  0
LINE
  5
13AF5
330
1F
100
AcDbEntity
  8
1
100
AcDbLine
 10
48.89999999999997
 20
-15.01482232197058
 30
0.0
 11
48.89999999999997
 21
-17.07005078534243
 31
0.0
  0
LINE
  5
13AF6
330
1F
100
AcDbEntity
  8
SK3
100
AcDbLine
 10
48.89999999999997
 20
-15.01482232197058
 30
0.0
 11
48.59006844449961
 21
-14.77118572137567
 31
0.0
  0
LINE
  5
13AF8
330
1F
100
AcDbEntity
  8
NOCUT
100
AcDbLine
 10
36.86099117410588
 20
-20.25089412301455
 30
0.0
 11
26.31500001193951
 21
-23.0372651783439
 31
0.0
  0
LINE
  5
13AF9
330
1F
100
AcDbEntity
  8
1
100
AcDbLine
 10
36.86099117410588
 20
-20.25089412301455
 30
0.0
 11
26.31500001193951
 21
-23.0372651783439
 31
0.0
  0
LINE
  5
13AFA
330
1F
100
AcDbEntity
  8
1
100
AcDbLine
 10
36.86099117410587
 20
-20.25089412301455
 30
0.0
 11
37.03484923704207
 21
-20.62888866197095
 31
0.0
  0
LINE
  5
13AFC
330
1F
100
AcDbEntity
  8
NOCUT
100
AcDbLine
 10
26.31500001193951
 20
-23.0372651783439
 30
0.0
 11
17.26278421710833
 21
-25.42896375740202
 31
0.0
  0
LINE
  5
13AFD
330
1F
100
AcDbEntity
  8
1
100
AcDbLine
 10
26.31500001193951
 20
-23.0372651783439
 30
0.0
 11
17.26278421710833
 21
-25.42896375740202
 31
0.0
  0
LINE
  5
13AFE
330
1F
100
AcDbEntity
  8
1
100
AcDbLine
 10
26.3150000119395
 20
-23.03726517834391
 30
0.0
 11
26.48718286540678
 21
-23.41161755069516
 31
0.0
  0
LINE
  5
13B00
330
1F
100
AcDbEntity
  8
NOCUT
100
AcDbLine
 10
15.38773501622813
 20
-24.99468746654086
 30
0.0
 11
15.86775342913717
 21
-25.34816727315001
 31
0.0
  0
LINE
  5
13B01
330
1F
100
AcDbEntity
  8
1
100
AcDbLine
 10
15.38773501622813
 20
-24.99468746654086
 30
0.0
 11
15.86775342913717
 21
-25.34816727315001
 31
0.0
  0
LINE
  5
13B02
330
1F
100
AcDbEntity
  8
1
100
AcDbLine
 10
15.38773501622813
 20
-24.99468746654087
 30
0.0
 11
15.93951649377151
 21
-26.19434643941942
 31
0.0
  0
LINE
  5
13B07
330
1F
100
AcDbEntity
  8
1
100
AcDbLine
 10
13.09634345123387
 20
16.77950127450648
 30
0.0
 11
48.89999999999997
 21
7.279625403831173
 31
0.0
  0
ARC
  5
13B08
330
1F
100
AcDbEntity
  8
1
100
AcDbCircle
 10
14.61859182497143
 20
22.51663496942741
 30
0.0
 40
5.935650187194636
100
AcDbArc
 50
180.1605746225166
 51
255.1399703782522
  0
LINE
  5
13B0A
330
1F
100
AcDbEntity
  8
SK3
 48
0.3
100
AcDbLine
 10
13.09634345123387
 20
-16.77950127450648
 30
0.0
 11
48.89999999999997
 21
-7.279625403831173
 31
0.0
  0
ARC
  5
13B0B
330
1F
100
AcDbEntity
  8
SK3
 48
0.3
100
AcDbCircle
 10
14.61859182497143
 20
-22.51663496942741
 30
0.0
 40
5.935650187194636
100
AcDbArc
 50
104.8600296217477
 51
179.8394253774833
  0
LINE
  5
13B12
330
1F
100
AcDbEntity
  8
CUT
100
AcDbLine
 10
16.40644738282338
 20
26.41356994041457
 30
0.0
 11
49.70352761804083
 21
17.5786637762501
 31
0.0
  0
DIMENSION
  5
13B14
330
1F
100
AcDbEntity
  8
2
100
AcDbDimension
  2
*D7
 10
49.99999999999977
 20
59.99999999999997
 30
0.0
 11
33.04999999999978
 21
63.24999999999997
 31
0.0
 70
    32
 71
     5
 42
33.9
  3
AM_DIN$0
100
AcDbAlignedDimension
 13
16.09999999999977
 23
26.59999999999994
 33
0.0
 14
49.99999999999977
 24
17.4999999999998
 34
0.0
100
AcDbRotatedDimension
1001
ACAD
1000
DSTYLE
1002
{
1070
    90
1070
     1
1070
   271
1070
     1
1002
}
1001
ACAD_DSTYLE_DIMINSPECT
1070
   396
1000
100%
1070
   395
1000

1070
   394
1070
    33
1070
   393
1070
     0
  0
CIRCLE
  5
13B8D
330
1F
100
AcDbEntity
  8
1
100
AcDbCircle
 10
16.09999999999943
 20
-26.59999999999994
 30
0.0
 40
0.0959690010191452
  0
DIMENSION
  5
13B8E
330
1F
100
AcDbEntity
  8
2
100
AcDbDimension
  2
*D9
 10
87.56860020071327
 20
-26.59999999999996
 30
0.0
 11
84.3182557125243
 21
-0.000000000000005
 31
0.0
 70
    32
  1
%%c<>
 71
     5
 42
53.19999999999988
  3
AM_DIN$0
100
AcDbAlignedDimension
 13
16.09999999999977
 23
26.59999999999994
 33
0.0
 14
16.09999999999943
 24
-26.59999999999994
 34
0.0
 50
90.00000000000003
100
AcDbRotatedDimension
1001
ACAD
1000
DSTYLE
1002
{
1070
    90
1070
     1
1070
   271
1070
     1
1002
}
1001
ACAD_DSTYLE_DIMINSPECT
1070
   396
1000
100%
1070
   395
1000

1070
   394
1070
    33
1070
   393
1070
     0
  0
LINE
  5
13C0C
330
1F
100
AcDbEntity
  8
1
100
AcDbLine
 10
11.89881900952741
 20
-22.32100817124433
 30
0.0
 11
11.89881900952741
 21
15.81478646588687
 31
0.0
  0
LINE
  5
13C0D
330
1F
100
AcDbEntity
  8
1
100
AcDbLine
 10
16.5540535457626
 20
-24.97624452746084
 30
0.0
 11
16.5540535457626
 21
14.21366979190134
 31
0.0
  0
ENDSEC
  0
SECTION
  2
OBJECTS
  0
DICTIONARY
  5
C
330
0
100
AcDbDictionary
281
     1
  3
ACAD_2007HEADERVARS_RT
350
13C9B
  3
ACAD_COLOR
350
2E66
  3
ACAD_GROUP
350
D
  3
ACAD_LAYOUT
350
1A
  3
ACAD_MATERIAL
350
2E65
  3
ACAD_MLEADERSTYLE
350
2F47
  3
ACAD_MLINESTYLE
350
17
  3
ACAD_PLOTSETTINGS
350
19
  3
ACAD_PLOTSTYLENAME
350
E
  3
ACAD_SCALELIST
350
2F35
  3
ACAD_TABLESTYLE
350
2E67
  3
ACAD_VISUALSTYLE
350
2F24
  3
ACDB_RECOMPOSE_DATA
350
E9FF
  3
AcDbVariableDictionary
350
216
  3
AcmDictionary
350
45
  3
AcmSystemVariableManager
350
13C9E
  3
AMG
350
41
  3
AMGSNAPSETTINGS
350
23D
  0
DICTIONARY
  5
EA25
330
8
100
AcDbDictionary
280
     1
281
     1
  0
DICTIONARY
  5
13C10
330
2
100
AcDbDictionary
280
     1
281
     1
  3
AMLAYER_GROUPCOLORS
360
13C11
  0
DICTIONARY
  5
2F6F
330
10
100
AcDbDictionary
280
     1
281
     1
  3
ADSK_XREC_LAYER_RECONCILED
360
2F70
  0
DICTIONARY
  5
2F71
330
AFE
100
AcDbDictionary
280
     1
281
     1
  3
ADSK_XREC_LAYER_RECONCILED
360
2F72
  0
DICTIONARY
  5
2F73
330
AFF
100
AcDbDictionary
280
     1
281
     1
  3
ADSK_XREC_LAYER_RECONCILED
360
2F74
  0
DICTIONARY
  5
2F75
330
B00
100
AcDbDictionary
280
     1
281
     1
  3
ADSK_XREC_LAYER_RECONCILED
360
2F76
  0
DICTIONARY
  5
2F77
330
B01
100
AcDbDictionary
280
     1
281
     1
  3
ADSK_XREC_LAYER_RECONCILED
360
2F78
  0
DICTIONARY
  5
2F79
330
B02
100
AcDbDictionary
280
     1
281
     1
  3
ADSK_XREC_LAYER_RECONCILED
360
2F7A
  0
DICTIONARY
  5
2F7B
330
B03
100
AcDbDictionary
280
     1
281
     1
  3
ADSK_XREC_LAYER_RECONCILED
360
2F7C
  0
DICTIONARY
  5
2F7D
330
B04
100
AcDbDictionary
280
     1
281
     1
  3
ADSK_XREC_LAYER_RECONCILED
360
2F7E
  0
DICTIONARY
  5
2F7F
330
B06
100
AcDbDictionary
280
     1
281
     1
  3
ADSK_XREC_LAYER_RECONCILED
360
2F80
  0
DICTIONARY
  5
2F81
330
B07
100
AcDbDictionary
280
     1
281
     1
  3
ADSK_XREC_LAYER_RECONCILED
360
2F82
  0
DICTIONARY
  5
1F1
330
1F
100
AcDbDictionary
280
     1
281
     1
  3
ACAD_SORTENTS
360
8923
  0
DICTIONARY
  5
13C9B
102
{ACAD_REACTORS
330
C
102
}
330
C
100
AcDbDictionary
281
     1
  3
DIMARCSYM
350
13C9C
  3
DIMJOGANG
350
13C9D
  0
DICTIONARY
  5
2E66
102
{ACAD_REACTORS
330
C
102
}
330
C
100
AcDbDictionary
281
     1
  0
DICTIONARY
  5
D
102
{ACAD_REACTORS
330
C
102
}
330
C
100
AcDbDictionary
281
     1
  0
DICTIONARY
  5
1A
102
{ACAD_REACTORS
330
C
102
}
330
C
100
AcDbDictionary
281
     1
  3
Layout1
350
1E
  3
Layout2
350
26
  3
Model
350
22
  0
DICTIONARY
  5
2E65
102
{ACAD_REACTORS
330
C
102
}
330
C
100
AcDbDictionary
281
     1
  3
ByBlock
350
2F14
  3
ByLayer
350
2F0C
  3
Global
350
2F1C
  0
DICTIONARY
  5
2F47
102
{ACAD_REACTORS
330
C
102
}
330
C
100
AcDbDictionary
281
     1
  3
Standard
350
2F48
  0
DICTIONARY
  5
17
102
{ACAD_REACTORS
330
C
102
}
330
C
100
AcDbDictionary
281
     1
  3
Standard
350
18
  0
DICTIONARY
  5
19
102
{ACAD_REACTORS
330
C
102
}
330
C
100
AcDbDictionary
281
     1
  0
ACDBDICTIONARYWDFLT
  5
E
102
{ACAD_REACTORS
330
C
102
}
330
C
100
AcDbDictionary
281
     1
  3
Normal
350
F
100
AcDbDictionaryWithDefault
340
F
  0
DICTIONARY
  5
2F35
102
{ACAD_REACTORS
330
C
102
}
330
C
100
AcDbDictionary
281
     1
  3
A0
350
2F36
  3
A1
350
2F37
  3
A2
350
2F38
  3
A3
350
2F39
  3
A4
350
2F3A
  3
A5
350
2F3B
  3
A6
350
2F3C
  3
A7
350
2F3D
  3
A8
350
2F3E
  3
A9
350
2F3F
  3
B0
350
2F40
  3
B1
350
2F41
  3
B2
350
2F42
  3
B3
350
2F43
  3
B4
350
2F44
  3
B5
350
2F45
  3
B6
350
2F46
  0
DICTIONARY
  5
2E67
102
{ACAD_REACTORS
330
C
102
}
330
C
100
AcDbDictionary
281
     1
  3
Standard
350
2E68
  0
DICTIONARY
  5
2F24
102
{ACAD_REACTORS
330
C
102
}
330
C
100
AcDbDictionary
281
     1
  3
2dWireframe
350
2F2A
  3
3D Hidden
350
2F2C
  3
3dWireframe
350
2F2B
  3
Basic
350
2F29
  3
Brighten
350
2F30
  3
ColorChange
350
2F34
  3
Conceptual
350
2F2D
  3
Dim
350
2F2F
  3
Facepattern
350
2F33
  3
Flat
350
2F25
  3
FlatWithEdges
350
2F26
  3
Gouraud
350
2F27
  3
GouraudWithEdges
350
2F28
  3
Linepattern
350
2F32
  3
Realistic
350
2F2E
  3
Thicken
350
2F31
  0
XRECORD
  5
E9FF
102
{ACAD_REACTORS
330
C
102
}
330
C
100
AcDbXrecord
280
     1
 90
        1
330
2E68
  0
DICTIONARY
  5
216
102
{ACAD_REACTORS
330
C
102
}
330
C
100
AcDbDictionary
281
     1
  3
CANNOSCALE
350
EA02
  3
CMLEADERSTYLE
350
EA00
  3
CTABLESTYLE
350
2EEA
  3
DIMASSOC
350
219
  3
HIDETEXT
350
218
  3
INDEXCTL
350
217
  3
LAYEREVAL
350
EA04
  3
LAYERNOTIFY
350
EA05
  3
LIGHTINGUNITS
350
EA03
  3
MSLTSCALE
350
EA01
  3
SORTENTS
350
EA31
  0
DICTIONARY
  5
45
102
{ACAD_REACTORS
330
C
102
}
330
C
100
AcDbDictionary
281
     1
  3
AcmStdDictionary
350
4A
  3
AMDTSECTSYM_ARROWCOLOR
350
2EB6
  0
DICTIONARY
  5
41
102
{ACAD_REACTORS
330
C
102
}
330
C
100
AcDbDictionary
281
     1
  0
DICTIONARY
  5
23D
102
{ACAD_REACTORS
330
C
102
}
330
C
100
AcDbDictionary
281
     1
  0
DICTIONARY
  5
13C11
102
{ACAD_REACTORS
330
13C10
102
}
330
13C10
100
AcDbDictionary
280
     1
281
     1
  0
XRECORD
  5
2F70
102
{ACAD_REACTORS
330
2F6F
102
}
330
2F6F
100
AcDbXrecord
280
     1
290
     1
  0
XRECORD
  5
2F72
102
{ACAD_REACTORS
330
2F71
102
}
330
2F71
100
AcDbXrecord
280
     1
290
     1
  0
XRECORD
  5
2F74
102
{ACAD_REACTORS
330
2F73
102
}
330
2F73
100
AcDbXrecord
280
     1
290
     1
  0
XRECORD
  5
2F76
102
{ACAD_REACTORS
330
2F75
102
}
330
2F75
100
AcDbXrecord
280
     1
290
     1
  0
XRECORD
  5
2F78
102
{ACAD_REACTORS
330
2F77
102
}
330
2F77
100
AcDbXrecord
280
     1
290
     1
  0
XRECORD
  5
2F7A
102
{ACAD_REACTORS
330
2F79
102
}
330
2F79
100
AcDbXrecord
280
     1
290
     1
  0
XRECORD
  5
2F7C
102
{ACAD_REACTORS
330
2F7B
102
}
330
2F7B
100
AcDbXrecord
280
     1
290
     1
  0
XRECORD
  5
2F7E
102
{ACAD_REACTORS
330
2F7D
102
}
330
2F7D
100
AcDbXrecord
280
     1
290
     1
  0
XRECORD
  5
2F80
102
{ACAD_REACTORS
330
2F7F
102
}
330
2F7F
100
AcDbXrecord
280
     1
290
     1
  0
XRECORD
  5
2F82
102
{ACAD_REACTORS
330
2F81
102
}
330
2F81
100
AcDbXrecord
280
     1
290
     1
  0
SORTENTSTABLE
  5
8923
102
{ACAD_REACTORS
330
1F1
102
}
330
1F1
100
AcDbSortentsTable
330
1F
331
EBE8
  5
EBEE
331
13A36
  5
13A4C
331
EBF0
  5
EBF6
331
EC27
  5
13A23
331
EBF8
  5
EBFE
331
13A46
  5
13B07
331
EC00
  5
EC07
331
13B0B
  5
13B12
331
EC08
  5
EC0E
331
EBD1
  5
EBD4
331
EC10
  5
EC18
331
EBD9
  5
EBDF
331
EC18
  5
EC21
331
13A1F
  5
13A2C
331
EBE1
  5
EBE7
331
13A27
  5
13A35
331
13A2F
  5
13A3E
331
EBE9
  5
EBEF
331
EC20
  5
13A1D
331
13AF4
  5
13A3C
331
EBF1
  5
EBF7
331
13A37
  5
13A89
331
EBF9
  5
EBFF
331
13AFC
  5
13A49
331
EC01
  5
EC08
331
EBCA
  5
EBCA
331
EC09
  5
EC10
331
EBD2
  5
EBD8
331
EC11
  5
EC19
331
13B14
  5
13B48
331
EBDA
  5
EBE0
331
EC19
  5
EC22
331
13A20
  5
13A2F
331
EBE2
  5
EBE8
331
13A28
  5
13A36
331
EBEA
  5
EBF0
331
EC21
  5
13A1E
331
13A30
  5
13A3F
331
13AF5
  5
13A28
331
EBF2
  5
EBF8
331
13A38
  5
13AF4
331
13AFD
  5
13A31
331
EBFA
  5
EC00
331
13A40
  5
13AFE
331
EC02
  5
EC09
331
EBCB
  5
EBCB
331
EC0A
  5
EC11
331
13A58
  5
13B08
331
EBD3
  5
EBD9
331
EC12
  5
EC1A
331
13A21
  5
13A33
331
EBDB
  5
EBE1
331
EC1A
  5
EC23
331
13A29
  5
13A37
331
EBE3
  5
EBE9
331
13B8D
  5
13B8E
331
13A31
  5
13A40
331
EBEB
  5
EBF1
331
EC22
  5
13A1F
331
13AF6
  5
EC0F
331
13A39
  5
13AFA
331
EBF3
  5
EBF9
331
EC2A
  5
13A24
331
13AFE
  5
EC26
331
13A41
  5
13B00
331
EBFB
  5
EC01
331
EC0B
  5
EC12
331
EBD4
  5
EBDA
331
EC13
  5
EC1B
331
13A89
  5
13B0A
331
13A22
  5
13A2E
331
EBDC
  5
EBE2
331
EC1B
  5
EC24
331
13A2A
  5
13A38
331
EBE4
  5
EBEA
331
13B8E
  5
13BF9
331
13A32
  5
13A42
331
EBEC
  5
EBF2
331
EC23
  5
13A21
331
13A3A
  5
13AFC
331
EBF4
  5
EBFA
331
13A42
  5
13B01
331
EBFC
  5
EC02
331
13A4A
  5
EBCF
331
EC04
  5
EC0B
331
EBAD
  5
EBAD
331
13B07
  5
13B0B
331
EC0C
  5
EC13
331
13A1B
  5
13A26
331
EBD5
  5
EBDB
331
EC14
  5
EC1C
331
13A23
  5
13A32
331
EBDD
  5
EBE3
331
EC1C
  5
EC27
331
13A2B
  5
13A39
331
EBE5
  5
EBEB
331
13A33
  5
13A43
331
EBED
  5
EBF3
331
13A3B
  5
13AFD
331
EBF5
  5
EBFB
331
13AF8
  5
13A46
331
13A43
  5
13B02
331
EBFD
  5
EC03
331
13B00
  5
13A41
331
13A4B
  5
EBCD
331
EC05
  5
EC0C
331
13B08
  5
13B0E
331
EBCE
  5
EBD1
331
EC0D
  5
EC14
331
EBD6
  5
EBDC
331
EC15
  5
EC1D
331
13A24
  5
13A2B
331
EBDE
  5
EBE4
331
EC1D
  5
EC2A
331
13A2C
  5
13A3A
331
EBE6
  5
EBEC
331
13A34
  5
13A4A
331
EBEE
  5
EBF4
331
EBF6
  5
EBFC
331
EC2D
  5
13A25
331
13AF9
  5
13A30
331
EBFE
  5
EC04
331
13B01
  5
13A2D
331
13A4C
  5
13A58
331
EC06
  5
EC0D
331
EC0E
  5
EC15
331
13A1D
  5
13A27
331
EBD7
  5
EBDD
331
EC16
  5
EC1F
331
13A25
  5
13A2A
331
EBDF
  5
EBE5
331
EC1E
  5
EC2D
331
13A2D
  5
13A3B
331
EBE7
  5
EBED
331
13A35
  5
13A4B
331
EBEF
  5
EBF5
331
EC26
  5
13A22
331
EBF7
  5
EBFD
331
13AFA
  5
EC17
331
EBFF
  5
EC05
331
13B02
  5
EC1E
331
13B0A
  5
13B0F
331
EC0F
  5
EC16
331
13B12
  5
13B14
331
13A1E
  5
13A29
331
EBD8
  5
EBDE
331
EC17
  5
EC20
331
13A26
  5
13A34
331
EBE0
  5
EBE6
331
EC1F
  5
13A1B
331
13A2E
  5
13A3D
  0
XRECORD
  5
13C9C
102
{ACAD_REACTORS
330
13C9B
102
}
330
13C9B
100
AcDbXrecord
280
     1
 70
     1
  0
XRECORD
  5
13C9D
102
{ACAD_REACTORS
330
13C9B
102
}
330
13C9B
100
AcDbXrecord
280
     1
 40
1.570796326794896
  0
LAYOUT
  5
1E
102
{ACAD_REACTORS
330
1A
102
}
330
1A
100
AcDbPlotSettings
  1

  2
HP DesignJet 220 (D/A1) by HP
  4

  6

 40
0.0
 41
0.0
 42
0.0
 43
0.0
 44
0.0
 45
0.0
 46
0.0
 47
0.0
 48
0.0
 49
0.0
140
0.0
141
0.0
142
1.0
143
1.0
 70
   688
 72
     0
 73
     0
 74
     5
  7
monochrome2.ctb
 75
    16
147
1.0
 76
     0
 77
     2
 78
   300
148
0.0
149
0.0
100
AcDbLayout
  1
Layout1
 70
     1
 71
     1
 10
0.0
 20
0.0
 11
420.0
 21
297.0
 12
0.0
 22
0.0
 32
0.0
 14
1.000000000000000E+20
 24
1.000000000000000E+20
 34
1.000000000000000E+20
 15
-1.000000000000000E+20
 25
-1.000000000000000E+20
 35
-1.000000000000000E+20
146
0.0
 13
0.0
 23
0.0
 33
0.0
 16
1.0
 26
0.0
 36
0.0
 17
0.0
 27
1.0
 37
0.0
 76
     0
330
1B
  0
LAYOUT
  5
26
102
{ACAD_REACTORS
330
1A
102
}
330
1A
100
AcDbPlotSettings
  1

  2
HP DesignJet 220 (D/A1) by HP
  4

  6

 40
0.0
 41
0.0
 42
0.0
 43
0.0
 44
0.0
 45
0.0
 46
0.0
 47
0.0
 48
0.0
 49
0.0
140
0.0
141
0.0
142
1.0
143
1.0
 70
   688
 72
     0
 73
     0
 74
     5
  7
monochrome2.ctb
 75
    16
147
1.0
 76
     0
 77
     2
 78
   300
148
0.0
149
0.0
100
AcDbLayout
  1
Layout2
 70
     1
 71
     2
 10
0.0
 20
0.0
 11
12.0
 21
9.0
 12
0.0
 22
0.0
 32
0.0
 14
0.0
 24
0.0
 34
0.0
 15
0.0
 25
0.0
 35
0.0
146
0.0
 13
0.0
 23
0.0
 33
0.0
 16
1.0
 26
0.0
 36
0.0
 17
0.0
 27
1.0
 37
0.0
 76
     0
330
23
  0
LAYOUT
  5
22
102
{ACAD_REACTORS
330
1A
102
}
330
1A
100
AcDbPlotSettings
  1

  2
HP DesignJet 220 (D/A1) by HP
  4

  6

 40
0.0
 41
0.0
 42
0.0
 43
0.0
 44
0.0
 45
0.0
 46
0.0
 47
0.0
 48
0.0
 49
0.0
140
0.0
141
0.0
142
1.0
143
1.0
 70
  1712
 72
     0
 73
     0
 74
     0
  7
monochrome2.ctb
 75
     0
147
1.0
 76
     0
 77
     2
 78
   300
148
0.0
149
0.0
100
AcDbLayout
  1
Model
 70
     1
 71
     0
 10
0.0
 20
0.0
 11
12.0
 21
9.0
 12
0.0
 22
0.0
 32
0.0
 14
0.0
 24
0.0
 34
0.0
 15
0.0
 25
0.0
 35
0.0
146
0.0
 13
0.0
 23
0.0
 33
0.0
 16
1.0
 26
0.0
 36
0.0
 17
0.0
 27
1.0
 37
0.0
 76
     0
330
1F
331
2F0A
  0
MATERIAL
  5
2F14
102
{ACAD_XDICTIONARY
360
2F15
102
}
102
{ACAD_REACTORS
330
2E65
102
}
330
2E65
100
AcDbMaterial
  1
ByBlock
 72
     0
 43
0.0008202099737533
 43
0.0
 43
0.0
 43
0.0
 43
0.0
 43
0.0008202099737533
 43
0.0
 43
0.0
 43
0.0
 43
0.0
 43
1.0
 43
0.0
 43
0.0
 43
0.0
 43
0.0
 43
1.0
 77
     0
 47
0.0008202099737533
 47
0.0
 47
0.0
 47
0.0
 47
0.0
 47
0.0008202099737533
 47
0.0
 47
0.0
 47
0.0
 47
0.0
 47
1.0
 47
0.0
 47
0.0
 47
0.0
 47
0.0
 47
1.0
171
     0
 49
0.0008202099737533
 49
0.0
 49
0.0
 49
0.0
 49
0.0
 49
0.0008202099737533
 49
0.0
 49
0.0
 49
0.0
 49
0.0
 49
1.0
 49
0.0
 49
0.0
 49
0.0
 49
0.0
 49
1.0
175
     0
142
0.0008202099737533
142
0.0
142
0.0
142
0.0
142
0.0
142
0.0008202099737533
142
0.0
142
0.0
142
0.0
142
0.0
142
1.0
142
0.0
142
0.0
142
0.0
142
0.0
142
1.0
179
     0
144
0.0008202099737533
144
0.0
144
0.0
144
0.0
144
0.0
144
0.0008202099737533
144
0.0
144
0.0
144
0.0
144
0.0
144
1.0
144
0.0
144
0.0
144
0.0
144
0.0
144
1.0
147
0.0008202099737533
147
0.0
147
0.0
147
0.0
147
0.0
147
0.0008202099737533
147
0.0
147
0.0
147
0.0
147
0.0
147
1.0
147
0.0
147
0.0
147
0.0
147
0.0
147
1.0
  0
MATERIAL
  5
2F0C
102
{ACAD_XDICTIONARY
360
2F0D
102
}
102
{ACAD_REACTORS
330
2E65
102
}
330
2E65
100
AcDbMaterial
  1
ByLayer
 72
     0
 43
0.0008202099737533
 43
0.0
 43
0.0
 43
0.0
 43
0.0
 43
0.0008202099737533
 43
0.0
 43
0.0
 43
0.0
 43
0.0
 43
1.0
 43
0.0
 43
0.0
 43
0.0
 43
0.0
 43
1.0
 77
     0
 47
0.0008202099737533
 47
0.0
 47
0.0
 47
0.0
 47
0.0
 47
0.0008202099737533
 47
0.0
 47
0.0
 47
0.0
 47
0.0
 47
1.0
 47
0.0
 47
0.0
 47
0.0
 47
0.0
 47
1.0
171
     0
 49
0.0008202099737533
 49
0.0
 49
0.0
 49
0.0
 49
0.0
 49
0.0008202099737533
 49
0.0
 49
0.0
 49
0.0
 49
0.0
 49
1.0
 49
0.0
 49
0.0
 49
0.0
 49
0.0
 49
1.0
175
     0
142
0.0008202099737533
142
0.0
142
0.0
142
0.0
142
0.0
142
0.0008202099737533
142
0.0
142
0.0
142
0.0
142
0.0
142
1.0
142
0.0
142
0.0
142
0.0
142
0.0
142
1.0
179
     0
144
0.0008202099737533
144
0.0
144
0.0
144
0.0
144
0.0
144
0.0008202099737533
144
0.0
144
0.0
144
0.0
144
0.0
144
1.0
144
0.0
144
0.0
144
0.0
144
0.0
144
1.0
147
0.0008202099737533
147
0.0
147
0.0
147
0.0
147
0.0
147
0.0008202099737533
147
0.0
147
0.0
147
0.0
147
0.0
147
1.0
147
0.0
147
0.0
147
0.0
147
0.0
147
1.0
  0
MATERIAL
  5
2F1C
102
{ACAD_XDICTIONARY
360
2F1D
102
}
102
{ACAD_REACTORS
330
2E65
102
}
330
2E65
100
AcDbMaterial
  1
Global
 72
     0
 43
0.0008202099737533
 43
0.0
 43
0.0
 43
0.0
 43
0.0
 43
0.0008202099737533
 43
0.0
 43
0.0
 43
0.0
 43
0.0
 43
1.0
 43
0.0
 43
0.0
 43
0.0
 43
0.0
 43
1.0
 77
     0
 47
0.0008202099737533
 47
0.0
 47
0.0
 47
0.0
 47
0.0
 47
0.0008202099737533
 47
0.0
 47
0.0
 47
0.0
 47
0.0
 47
1.0
 47
0.0
 47
0.0
 47
0.0
 47
0.0
 47
1.0
171
     0
 49
0.0008202099737533
 49
0.0
 49
0.0
 49
0.0
 49
0.0
 49
0.0008202099737533
 49
0.0
 49
0.0
 49
0.0
 49
0.0
 49
1.0
 49
0.0
 49
0.0
 49
0.0
 49
0.0
 49
1.0
175
     0
142
0.0008202099737533
142
0.0
142
0.0
142
0.0
142
0.0
142
0.0008202099737533
142
0.0
142
0.0
142
0.0
142
0.0
142
1.0
142
0.0
142
0.0
142
0.0
142
0.0
142
1.0
179
     0
144
0.0008202099737533
144
0.0
144
0.0
144
0.0
144
0.0
144
0.0008202099737533
144
0.0
144
0.0
144
0.0
144
0.0
144
1.0
144
0.0
144
0.0
144
0.0
144
0.0
144
1.0
147
0.0008202099737533
147
0.0
147
0.0
147
0.0
147
0.0
147
0.0008202099737533
147
0.0
147
0.0
147
0.0
147
0.0
147
1.0
147
0.0
147
0.0
147
0.0
147
0.0
147
1.0
  0
MLEADERSTYLE
  5
2F48
102
{ACAD_REACTORS
330
2F47
102
}
330
2F47
100
AcDbMLeaderStyle
170
     2
171
     1
172
     0
 90
        2
 40
0.0
 41
0.0
173
     1
 91
-1056964608
340
14
 92
       -2
290
     1
 42
2.0
291
     1
 43
0.36
  3
Standard
 44
4.0
300

342
11
174
     1
178
     6
175
     1
176
     0
 93
-1056964608
 45
4.0
292
     0
297
     0
 46
4.0
 94
-1056964608
 47
1.0
 49
1.0
140
1.0
293
     1
141
0.0
294
     1
177
     0
142
1.0
295
     0
296
     0
143
0.125
1001
ACAD_MLEADERVER
1070
     2
  0
MLINESTYLE
  5
18
102
{ACAD_REACTORS
330
17
102
}
330
17
100
AcDbMlineStyle
  2
STANDARD
 70
     0
  3

 62
   256
 51
90.0
 52
90.0
 71
     2
 49
0.5
 62
   256
  6
BYLAYER
 49
-0.5
 62
   256
  6
BYLAYER
  0
ACDBPLACEHOLDER
  5
F
102
{ACAD_REACTORS
330
E
102
}
330
E
  0
SCALE
  5
2F36
102
{ACAD_REACTORS
330
2F35
102
}
330
2F35
100
AcDbScale
 70
     0
300
1:1
140
1.0
141
1.0
290
     1
  0
SCALE
  5
2F37
102
{ACAD_REACTORS
330
2F35
102
}
330
2F35
100
AcDbScale
 70
     0
300
1:2
140
1.0
141
2.0
290
     0
  0
SCALE
  5
2F38
102
{ACAD_REACTORS
330
2F35
102
}
330
2F35
100
AcDbScale
 70
     0
300
1:4
140
1.0
141
4.0
290
     0
  0
SCALE
  5
2F39
102
{ACAD_REACTORS
330
2F35
102
}
330
2F35
100
AcDbScale
 70
     0
300
1:5
140
1.0
141
5.0
290
     0
  0
SCALE
  5
2F3A
102
{ACAD_REACTORS
330
2F35
102
}
330
2F35
100
AcDbScale
 70
     0
300
1:8
140
1.0
141
8.0
290
     0
  0
SCALE
  5
2F3B
102
{ACAD_REACTORS
330
2F35
102
}
330
2F35
100
AcDbScale
 70
     0
300
1:10
140
1.0
141
10.0
290
     0
  0
SCALE
  5
2F3C
102
{ACAD_REACTORS
330
2F35
102
}
330
2F35
100
AcDbScale
 70
     0
300
1:16
140
1.0
141
16.0
290
     0
  0
SCALE
  5
2F3D
102
{ACAD_REACTORS
330
2F35
102
}
330
2F35
100
AcDbScale
 70
     0
300
1:20
140
1.0
141
20.0
290
     0
  0
SCALE
  5
2F3E
102
{ACAD_REACTORS
330
2F35
102
}
330
2F35
100
AcDbScale
 70
     0
300
1:30
140
1.0
141
30.0
290
     0
  0
SCALE
  5
2F3F
102
{ACAD_REACTORS
330
2F35
102
}
330
2F35
100
AcDbScale
 70
     0
300
1:40
140
1.0
141
40.0
290
     0
  0
SCALE
  5
2F40
102
{ACAD_REACTORS
330
2F35
102
}
330
2F35
100
AcDbScale
 70
     0
300
1:50
140
1.0
141
50.0
290
     0
  0
SCALE
  5
2F41
102
{ACAD_REACTORS
330
2F35
102
}
330
2F35
100
AcDbScale
 70
     0
300
1:100
140
1.0
141
100.0
290
     0
  0
SCALE
  5
2F42
102
{ACAD_REACTORS
330
2F35
102
}
330
2F35
100
AcDbScale
 70
     0
300
2:1
140
2.0
141
1.0
290
     0
  0
SCALE
  5
2F43
102
{ACAD_REACTORS
330
2F35
102
}
330
2F35
100
AcDbScale
 70
     0
300
4:1
140
4.0
141
1.0
290
     0
  0
SCALE
  5
2F44
102
{ACAD_REACTORS
330
2F35
102
}
330
2F35
100
AcDbScale
 70
     0
300
8:1
140
8.0
141
1.0
290
     0
  0
SCALE
  5
2F45
102
{ACAD_REACTORS
330
2F35
102
}
330
2F35
100
AcDbScale
 70
     0
300
10:1
140
10.0
141
1.0
290
     0
  0
SCALE
  5
2F46
102
{ACAD_REACTORS
330
2F35
102
}
330
2F35
100
AcDbScale
 70
     0
300
100:1
140
100.0
141
1.0
290
     0
  0
TABLESTYLE
  5
2E68
102
{ACAD_XDICTIONARY
360
E9FD
102
}
102
{ACAD_REACTORS
330
2E67
102
}
330
2E67
100
AcDbTableStyle
  3
Standard
 70
     0
 71
     0
 40
1.5
 41
1.5
280
     0
281
     0
  7
STANDARD
140
4.5
170
     2
 62
     0
 63
     7
283
     0
274
    -2
284
     1
 64
     0
275
    -2
285
     1
 65
     0
276
    -2
286
     1
 66
     0
277
    -2
287
     1
 67
     0
278
    -2
288
     1
 68
     0
279
    -2
289
     1
 69
     0
  7
STANDARD
140
6.0
170
     5
 62
     0
 63
     7
283
     0
274
    -2
284
     1
 64
     0
275
    -2
285
     1
 65
     0
276
    -2
286
     1
 66
     0
277
    -2
287
     1
 67
     0
278
    -2
288
     1
 68
     0
279
    -2
289
     1
 69
     0
  7
STANDARD
140
4.5
170
     5
 62
     0
 63
     7
283
     0
274
    -2
284
     1
 64
     0
275
    -2
285
     1
 65
     0
276
    -2
286
     1
 66
     0
277
    -2
287
     1
 67
     0
278
    -2
288
     1
 68
     0
279
    -2
289
     1
 69
     0
  0
VISUALSTYLE
  5
2F2A
102
{ACAD_REACTORS
330
2F24
102
}
330
2F24
100
AcDbVisualStyle
  2
2dWireframe
 70
     4
 71
     0
 72
     2
 73
     0
 90
        0
 40
-0.6
 41
-30.0
 62
     5
 63
     7
 74
     1
 91
        4
 64
     7
 65
   257
 75
     1
175
     1
 42
1.0
 92
        0
 66
   257
 43
1.0
 76
     1
 77
     6
 78
     2
 67
     7
 79
     5
170
     0
171
     0
290
     0
174
     0
 93
        1
 44
0.0
173
     0
291
     0
 45
0.0
1001
ACAD
1000
AcDbSavedByObjectVersion
1070
     0
  0
VISUALSTYLE
  5
2F2C
102
{ACAD_REACTORS
330
2F24
102
}
330
2F24
100
AcDbVisualStyle
  2
3D Hidden
 70
     6
 71
     1
 72
     2
 73
     2
 90
        0
 40
-0.6
 41
-30.0
 62
     5
 63
     7
 74
     2
 91
        2
 64
     7
 65
   257
 75
     2
175
     1
 42
40.0
 92
        0
 66
   257
 43
1.0
 76
     1
 77
     6
 78
     2
 67
     7
 79
     3
170
     0
171
     0
290
     0
174
     0
 93
        1
 44
0.0
173
     0
291
     0
 45
0.0
1001
ACAD
1000
AcDbSavedByObjectVersion
1070
     0
  0
VISUALSTYLE
  5
2F2B
102
{ACAD_REACTORS
330
2F24
102
}
330
2F24
100
AcDbVisualStyle
  2
3dWireframe
 70
     5
 71
     0
 72
     2
 73
     0
 90
        0
 40
-0.6
 41
-30.0
 62
     5
 63
     7
 74
     1
 91
        4
 64
     7
 65
   257
 75
     1
175
     1
 42
1.0
 92
        0
 66
   257
 43
1.0
 76
     1
 77
     6
 78
     2
 67
     7
 79
     5
170
     0
171
     0
290
     0
174
     0
 93
        1
 44
0.0
173
     0
291
     0
 45
0.0
1001
ACAD
1000
AcDbSavedByObjectVersion
1070
     0
  0
VISUALSTYLE
  5
2F29
102
{ACAD_REACTORS
330
2F24
102
}
330
2F24
100
AcDbVisualStyle
  2
Basic
 70
     7
 71
     1
 72
     0
 73
     1
 90
        0
 40
-0.6
 41
-30.0
 62
     5
 63
     7
 74
     0
 91
        4
 64
     7
 65
   257
 75
     1
175
     1
 42
1.0
 92
        8
 66
     7
 43
1.0
 76
     1
 77
     6
 78
     2
 67
     7
 79
     5
170
     0
171
     0
290
     0
174
     0
 93
        1
 44
0.0
173
     0
291
     1
 45
0.0
1001
ACAD
1000
AcDbSavedByObjectVersion
1070
     0
  0
VISUALSTYLE
  5
2F30
102
{ACAD_REACTORS
330
2F24
102
}
330
2F24
100
AcDbVisualStyle
  2
Brighten
 70
    12
 71
     2
 72
     2
 73
     0
 90
        0
 40
-0.6
 41
-30.0
 62
     5
 63
     7
 74
     1
 91
        4
 64
     7
 65
   257
 75
     1
175
     1
 42
1.0
 92
        8
 66
     7
 43
1.0
 76
     1
 77
     6
 78
     2
 67
     7
 79
     5
170
     0
171
     0
290
     0
174
     0
 93
        1
 44
50.0
173
     0
291
     1
 45
0.0
1001
ACAD
1000
AcDbSavedByObjectVersion
1070
     0
  0
VISUALSTYLE
  5
2F34
102
{ACAD_REACTORS
330
2F24
102
}
330
2F24
100
AcDbVisualStyle
  2
ColorChange
 70
    16
 71
     2
 72
     2
 73
     3
 90
        0
 40
-0.6
 41
-30.0
 62
     5
 63
     8
 74
     1
 91
        4
 64
     7
 65
   257
 75
     1
175
     1
 42
1.0
 92
        8
 66
     8
 43
1.0
 76
     1
 77
     6
 78
     2
 67
     7
 79
     5
170
     0
171
     0
290
     0
174
     0
 93
        1
 44
0.0
173
     0
291
     1
 45
0.0
1001
ACAD
1000
AcDbSavedByObjectVersion
1070
     0
  0
VISUALSTYLE
  5
2F2D
102
{ACAD_REACTORS
330
2F24
102
}
330
2F24
100
AcDbVisualStyle
  2
Conceptual
 70
     9
 71
     3
 72
     2
 73
     0
 90
        0
 40
-0.6
 41
-30.0
 62
     5
 63
     7
 74
     2
 91
        2
 64
     7
 65
   257
 75
     1
175
     1
 42
40.0
 92
        8
 66
     7
 43
1.0
 76
     1
 77
     6
 78
     2
 67
     7
 79
     3
170
     0
171
     0
290
     0
174
     0
 93
        1
 44
0.0
173
     0
291
     0
 45
0.0
1001
ACAD
1000
AcDbSavedByObjectVersion
1070
     0
  0
VISUALSTYLE
  5
2F2F
102
{ACAD_REACTORS
330
2F24
102
}
330
2F24
100
AcDbVisualStyle
  2
Dim
 70
    11
 71
     2
 72
     2
 73
     0
 90
        0
 40
-0.6
 41
-30.0
 62
     5
 63
     7
 74
     1
 91
        4
 64
     7
 65
   257
 75
     1
175
     1
 42
1.0
 92
        8
 66
     7
 43
1.0
 76
     1
 77
     6
 78
     2
 67
     7
 79
     5
170
     0
171
     0
290
     0
174
     0
 93
        1
 44
-50.0
173
     0
291
     1
 45
0.0
1001
ACAD
1000
AcDbSavedByObjectVersion
1070
     0
  0
VISUALSTYLE
  5
2F33
102
{ACAD_REACTORS
330
2F24
102
}
330
2F24
100
AcDbVisualStyle
  2
Facepattern
 70
    15
 71
     2
 72
     2
 73
     0
 90
        0
 40
-0.6
 41
-30.0
 62
     5
 63
     7
 74
     1
 91
        4
 64
     7
 65
   257
 75
     1
175
     1
 42
1.0
 92
        8
 66
     7
 43
1.0
 76
     1
 77
     6
 78
     2
 67
     7
 79
     5
170
     0
171
     0
290
     0
174
     0
 93
        1
 44
0.0
173
     0
291
     1
 45
0.0
1001
ACAD
1000
AcDbSavedByObjectVersion
1070
     0
  0
VISUALSTYLE
  5
2F25
102
{ACAD_REACTORS
330
2F24
102
}
330
2F24
100
AcDbVisualStyle
  2
Flat
 70
     0
 71
     2
 72
     1
 73
     1
 90
        2
 40
-0.6
 41
30.0
 62
     5
 63
     7
 74
     0
 91
        4
 64
     7
 65
   257
 75
     1
175
     1
 42
1.0
 92
        8
 66
     7
 43
1.0
 76
     1
 77
     6
 78
     2
 67
     7
 79
     5
170
     0
171
     0
290
     0
174
     0
 93
       13
 44
0.0
173
     0
291
     1
 45
0.0
1001
ACAD
1000
AcDbSavedByObjectVersion
1070
     0
  0
VISUALSTYLE
  5
2F26
102
{ACAD_REACTORS
330
2F24
102
}
330
2F24
100
AcDbVisualStyle
  2
FlatWithEdges
 70
     1
 71
     2
 72
     1
 73
     1
 90
        2
 40
-0.6
 41
30.0
 62
     5
 63
     7
 74
     1
 91
        4
 64
     7
 65
   257
 75
     1
175
     1
 42
1.0
 92
        0
 66
   257
 43
1.0
 76
     1
 77
     6
 78
     2
 67
     7
 79
     5
170
     0
171
     0
290
     0
174
     0
 93
       13
 44
0.0
173
     0
291
     1
 45
0.0
1001
ACAD
1000
AcDbSavedByObjectVersion
1070
     0
  0
VISUALSTYLE
  5
2F27
102
{ACAD_REACTORS
330
2F24
102
}
330
2F24
100
AcDbVisualStyle
  2
Gouraud
 70
     2
 71
     2
 72
     2
 73
     1
 90
        2
 40
-0.6
 41
30.0
 62
     5
 63
     7
 74
     0
 91
        4
 64
     7
 65
   257
 75
     1
175
     1
 42
1.0
 92
        0
 66
     7
 43
1.0
 76
     1
 77
     6
 78
     2
 67
     7
 79
     5
170
     0
171
     0
290
     0
174
     0
 93
       13
 44
0.0
173
     0
291
     1
 45
0.0
1001
ACAD
1000
AcDbSavedByObjectVersion
1070
     0
  0
VISUALSTYLE
  5
2F28
102
{ACAD_REACTORS
330
2F24
102
}
330
2F24
100
AcDbVisualStyle
  2
GouraudWithEdges
 70
     3
 71
     2
 72
     2
 73
     1
 90
        2
 40
-0.6
 41
30.0
 62
     5
 63
     7
 74
     1
 91
        4
 64
     7
 65
   257
 75
     1
175
     1
 42
1.0
 92
        0
 66
   257
 43
1.0
 76
     1
 77
     6
 78
     2
 67
     7
 79
     5
170
     0
171
     0
290
     0
174
     0
 93
       13
 44
0.0
173
     0
291
     1
 45
0.0
1001
ACAD
1000
AcDbSavedByObjectVersion
1070
     0
  0
VISUALSTYLE
  5
2F32
102
{ACAD_REACTORS
330
2F24
102
}
330
2F24
100
AcDbVisualStyle
  2
Linepattern
 70
    14
 71
     2
 72
     2
 73
     0
 90
        0
 40
-0.6
 41
-30.0
 62
     5
 63
     7
 74
     1
 91
        4
 64
     7
 65
   257
 75
     7
175
     7
 42
1.0
 92
        8
 66
     7
 43
1.0
 76
     1
 77
     6
 78
     2
 67
     7
 79
     5
170
     0
171
     0
290
     0
174
     0
 93
        1
 44
0.0
173
     0
291
     1
 45
0.0
1001
ACAD
1000
AcDbSavedByObjectVersion
1070
     0
  0
VISUALSTYLE
  5
2F2E
102
{ACAD_REACTORS
330
2F24
102
}
330
2F24
100
AcDbVisualStyle
  2
Realistic
 70
     8
 71
     2
 72
     2
 73
     0
 90
        0
 40
-0.6
 41
-30.0
 62
     5
 63
     7
 74
     1
 91
        0
 64
     7
 65
   257
 75
     1
175
     1
 42
1.0
 92
        8
 66
     8
 43
1.0
 76
     1
 77
     6
 78
     2
 67
     7
 79
     5
170
     0
171
     0
290
     0
174
     0
 93
       13
 44
0.0
173
     0
291
     0
 45
0.0
1001
ACAD
1000
AcDbSavedByObjectVersion
1070
     0
  0
VISUALSTYLE
  5
2F31
102
{ACAD_REACTORS
330
2F24
102
}
330
2F24
100
AcDbVisualStyle
  2
Thicken
 70
    13
 71
     2
 72
     2
 73
     0
 90
        0
 40
-0.6
 41
-30.0
 62
     5
 63
     7
 74
     1
 91
        4
 64
     7
 65
   257
 75
     1
175
     1
 42
1.0
 92
       12
 66
     7
 43
1.0
 76
     1
 77
     6
 78
     2
 67
     7
 79
     5
170
     0
171
     0
290
     0
174
     0
 93
        1
 44
0.0
173
     0
291
     1
 45
0.0
1001
ACAD
1000
AcDbSavedByObjectVersion
1070
     0
  0
DICTIONARYVAR
  5
EA02
102
{ACAD_REACTORS
330
216
102
}
330
216
100
DictionaryVariables
280
     0
  1
1:1
  0
DICTIONARYVAR
  5
EA00
102
{ACAD_REACTORS
330
216
102
}
330
216
100
DictionaryVariables
280
     0
  1
STANDARD
  0
DICTIONARYVAR
  5
2EEA
102
{ACAD_REACTORS
330
216
102
}
330
216
100
DictionaryVariables
280
     0
  1
STANDARD
  0
DICTIONARYVAR
  5
219
102
{ACAD_REACTORS
330
216
102
}
330
216
100
DictionaryVariables
280
     0
  1
1
  0
DICTIONARYVAR
  5
218
102
{ACAD_REACTORS
330
216
102
}
330
216
100
DictionaryVariables
280
     0
  1
1
  0
DICTIONARYVAR
  5
217
102
{ACAD_REACTORS
330
216
102
}
330
216
100
DictionaryVariables
280
     0
  1
0
  0
DICTIONARYVAR
  5
EA04
102
{ACAD_REACTORS
330
216
102
}
330
216
100
DictionaryVariables
280
     0
  1
1
  0
DICTIONARYVAR
  5
EA05
102
{ACAD_REACTORS
330
216
102
}
330
216
100
DictionaryVariables
280
     0
  1
15
  0
DICTIONARYVAR
  5
EA03
102
{ACAD_REACTORS
330
216
102
}
330
216
100
DictionaryVariables
280
     0
  1
0
  0
DICTIONARYVAR
  5
EA01
102
{ACAD_REACTORS
330
216
102
}
330
216
100
DictionaryVariables
280
     0
  1
0
  0
DICTIONARYVAR
  5
EA31
102
{ACAD_REACTORS
330
216
102
}
330
216
100
DictionaryVariables
280
     0
  1
127
  0
DICTIONARY
  5
4A
102
{ACAD_REACTORS
330
45
102
}
330
45
100
AcDbDictionary
281
     1
  0
XRECORD
  5
2EB6
102
{ACAD_REACTORS
330
45
102
}
330
45
100
AcDbXrecord
280
     1
 90
-1023410169
  0
DICTIONARY
  5
2F15
330
2F14
100
AcDbDictionary
280
     1
281
     1
  3
ACAD_XREC_ROUNDTRIP
360
13CA2
  3
BUMPTILE
360
2F17
  3
DIFFUSETILE
360
2F16
  3
OPACITYTILE
360
2F1A
  3
REFLECTIONTILE
360
2F19
  3
REFRACTIONTILE
360
2F1B
  3
SPECULARTILE
360
2F18
  0
DICTIONARY
  5
2F0D
330
2F0C
100
AcDbDictionary
280
     1
281
     1
  3
ACAD_XREC_ROUNDTRIP
360
13CA1
  3
BUMPTILE
360
2F0F
  3
DIFFUSETILE
360
2F0E
  3
OPACITYTILE
360
2F12
  3
REFLECTIONTILE
360
2F11
  3
REFRACTIONTILE
360
2F13
  3
SPECULARTILE
360
2F10
  0
DICTIONARY
  5
2F1D
330
2F1C
100
AcDbDictionary
280
     1
281
     1
  3
ACAD_XREC_ROUNDTRIP
360
13CA3
  3
BUMPTILE
360
2F1F
  3
DIFFUSETILE
360
2F1E
  3
OPACITYTILE
360
2F22
  3
REFLECTIONTILE
360
2F21
  3
REFRACTIONTILE
360
2F23
  3
SPECULARTILE
360
2F20
  0
DICTIONARY
  5
E9FD
330
2E68
100
AcDbDictionary
280
     1
281
     1
  3
ACAD_ROUNDTRIP_2008_TABLESTYLE_CELLSTYLEMAP
360
13C9A
  3
ACAD_XREC_ROUNDTRIP
360
13CA0
  0
XRECORD
  5
13CA2
102
{ACAD_REACTORS
330
2F15
102
}
330
2F15
100
AcDbXrecord
280
     1
102
MATERIAL
148
0.0
149
0.0
149
0.0
 93
        0
 94
      127
282
     0
 72
     0
 77
     0
171
     0
175
     0
179
     0
273
     0
  0
XRECORD
  5
2F17
102
{ACAD_REACTORS
330
2F15
102
}
330
2F15
100
AcDbXrecord
280
     1
270
     1
271
     1
  0
XRECORD
  5
2F16
102
{ACAD_REACTORS
330
2F15
102
}
330
2F15
100
AcDbXrecord
280
     1
270
     1
271
     1
  0
XRECORD
  5
2F1A
102
{ACAD_REACTORS
330
2F15
102
}
330
2F15
100
AcDbXrecord
280
     1
270
     1
271
     1
  0
XRECORD
  5
2F19
102
{ACAD_REACTORS
330
2F15
102
}
330
2F15
100
AcDbXrecord
280
     1
270
     1
271
     1
  0
XRECORD
  5
2F1B
102
{ACAD_REACTORS
330
2F15
102
}
330
2F15
100
AcDbXrecord
280
     1
270
     1
271
     1
  0
XRECORD
  5
2F18
102
{ACAD_REACTORS
330
2F15
102
}
330
2F15
100
AcDbXrecord
280
     1
270
     1
271
     1
  0
XRECORD
  5
13CA1
102
{ACAD_REACTORS
330
2F0D
102
}
330
2F0D
100
AcDbXrecord
280
     1
102
MATERIAL
148
0.0
149
0.0
149
0.0
 93
        0
 94
      127
282
     0
 72
     0
 77
     0
171
     0
175
     0
179
     0
273
     0
  0
XRECORD
  5
2F0F
102
{ACAD_REACTORS
330
2F0D
102
}
330
2F0D
100
AcDbXrecord
280
     1
270
     1
271
     1
  0
XRECORD
  5
2F0E
102
{ACAD_REACTORS
330
2F0D
102
}
330
2F0D
100
AcDbXrecord
280
     1
270
     1
271
     1
  0
XRECORD
  5
2F12
102
{ACAD_REACTORS
330
2F0D
102
}
330
2F0D
100
AcDbXrecord
280
     1
270
     1
271
     1
  0
XRECORD
  5
2F11
102
{ACAD_REACTORS
330
2F0D
102
}
330
2F0D
100
AcDbXrecord
280
     1
270
     1
271
     1
  0
XRECORD
  5
2F13
102
{ACAD_REACTORS
330
2F0D
102
}
330
2F0D
100
AcDbXrecord
280
     1
270
     1
271
     1
  0
XRECORD
  5
2F10
102
{ACAD_REACTORS
330
2F0D
102
}
330
2F0D
100
AcDbXrecord
280
     1
270
     1
271
     1
  0
XRECORD
  5
13CA3
102
{ACAD_REACTORS
330
2F1D
102
}
330
2F1D
100
AcDbXrecord
280
     1
102
MATERIAL
148
0.0
149
0.0
149
0.0
 93
        0
 94
      127
282
     0
 72
     0
 77
     0
171
     0
175
     0
179
     0
273
     0
  0
XRECORD
  5
2F1F
102
{ACAD_REACTORS
330
2F1D
102
}
330
2F1D
100
AcDbXrecord
280
     1
270
     1
271
     1
  0
XRECORD
  5
2F1E
102
{ACAD_REACTORS
330
2F1D
102
}
330
2F1D
100
AcDbXrecord
280
     1
270
     1
271
     1
  0
XRECORD
  5
2F22
102
{ACAD_REACTORS
330
2F1D
102
}
330
2F1D
100
AcDbXrecord
280
     1
270
     1
271
     1
  0
XRECORD
  5
2F21
102
{ACAD_REACTORS
330
2F1D
102
}
330
2F1D
100
AcDbXrecord
280
     1
270
     1
271
     1
  0
XRECORD
  5
2F23
102
{ACAD_REACTORS
330
2F1D
102
}
330
2F1D
100
AcDbXrecord
280
     1
270
     1
271
     1
  0
XRECORD
  5
2F20
102
{ACAD_REACTORS
330
2F1D
102
}
330
2F1D
100
AcDbXrecord
280
     1
270
     1
271
     1
  0
CELLSTYLEMAP
  5
13C9A
102
{ACAD_REACTORS
330
E9FD
102
}
330
E9FD
100
AcDbCellStyleMap
 90
        3
300
CELLSTYLE
  1
TABLEFORMAT_BEGIN
 90
        5
170
     1
 91
        0
 92
    32768
 62
   257
 93
        1
300
CONTENTFORMAT
  1
CONTENTFORMAT_BEGIN
 90
        0
 91
        0
 92
        4
 93
        0
300

 40
0.0
140
1.0
 94
        5
 62
     0
340
11
144
6.0
309
CONTENTFORMAT_END
171
     1
301
MARGIN
  1
CELLMARGIN_BEGIN
 40
1.5
 40
1.5
 40
1.5
 40
1.5
 40
0.18
 40
0.18
309
CELLMARGIN_END
 94
        6
 95
        1
302
GRIDFORMAT
  1
GRIDFORMAT_BEGIN
 90
        0
 91
        1
 62
     0
 92
       -2
340
0
 93
        0
 40
0.045
309
GRIDFORMAT_END
 95
        2
302
GRIDFORMAT
  1
GRIDFORMAT_BEGIN
 90
        0
 91
        1
 62
     0
 92
       -2
340
0
 93
        0
 40
0.045
309
GRIDFORMAT_END
 95
        4
302
GRIDFORMAT
  1
GRIDFORMAT_BEGIN
 90
        0
 91
        1
 62
     0
 92
       -2
340
0
 93
        0
 40
0.045
309
GRIDFORMAT_END
 95
        8
302
GRIDFORMAT
  1
GRIDFORMAT_BEGIN
 90
        0
 91
        1
 62
     0
 92
       -2
340
0
 93
        0
 40
0.045
309
GRIDFORMAT_END
 95
       16
302
GRIDFORMAT
  1
GRIDFORMAT_BEGIN
 90
        0
 91
        1
 62
     0
 92
       -2
340
0
 93
        0
 40
0.045
309
GRIDFORMAT_END
 95
       32
302
GRIDFORMAT
  1
GRIDFORMAT_BEGIN
 90
        0
 91
        1
 62
     0
 92
       -2
340
0
 93
        0
 40
0.045
309
GRIDFORMAT_END
309
TABLEFORMAT_END
  1
CELLSTYLE_BEGIN
 90
        1
 91
        1
300
_TITLE
309
CELLSTYLE_END
300
CELLSTYLE
  1
TABLEFORMAT_BEGIN
 90
        5
170
     1
 91
        0
 92
        0
 62
   257
 93
        1
300
CONTENTFORMAT
  1
CONTENTFORMAT_BEGIN
 90
        0
 91
        0
 92
        4
 93
        0
300

 40
0.0
140
1.0
 94
        5
 62
     0
340
11
144
4.5
309
CONTENTFORMAT_END
171
     1
301
MARGIN
  1
CELLMARGIN_BEGIN
 40
1.5
 40
1.5
 40
1.5
 40
1.5
 40
0.18
 40
0.18
309
CELLMARGIN_END
 94
        6
 95
        1
302
GRIDFORMAT
  1
GRIDFORMAT_BEGIN
 90
        0
 91
        1
 62
     0
 92
       -2
340
0
 93
        0
 40
0.045
309
GRIDFORMAT_END
 95
        2
302
GRIDFORMAT
  1
GRIDFORMAT_BEGIN
 90
        0
 91
        1
 62
     0
 92
       -2
340
0
 93
        0
 40
0.045
309
GRIDFORMAT_END
 95
        4
302
GRIDFORMAT
  1
GRIDFORMAT_BEGIN
 90
        0
 91
        1
 62
     0
 92
       -2
340
0
 93
        0
 40
0.045
309
GRIDFORMAT_END
 95
        8
302
GRIDFORMAT
  1
GRIDFORMAT_BEGIN
 90
        0
 91
        1
 62
     0
 92
       -2
340
0
 93
        0
 40
0.045
309
GRIDFORMAT_END
 95
       16
302
GRIDFORMAT
  1
GRIDFORMAT_BEGIN
 90
        0
 91
        1
 62
     0
 92
       -2
340
0
 93
        0
 40
0.045
309
GRIDFORMAT_END
 95
       32
302
GRIDFORMAT
  1
GRIDFORMAT_BEGIN
 90
        0
 91
        1
 62
     0
 92
       -2
340
0
 93
        0
 40
0.045
309
GRIDFORMAT_END
309
TABLEFORMAT_END
  1
CELLSTYLE_BEGIN
 90
        2
 91
        1
300
_HEADER
309
CELLSTYLE_END
300
CELLSTYLE
  1
TABLEFORMAT_BEGIN
 90
        5
170
     1
 91
        0
 92
        0
 62
   257
 93
        1
300
CONTENTFORMAT
  1
CONTENTFORMAT_BEGIN
 90
        0
 91
        0
 92
        4
 93
        0
300

 40
0.0
140
1.0
 94
        2
 62
     0
340
11
144
4.5
309
CONTENTFORMAT_END
171
     1
301
MARGIN
  1
CELLMARGIN_BEGIN
 40
1.5
 40
1.5
 40
1.5
 40
1.5
 40
0.18
 40
0.18
309
CELLMARGIN_END
 94
        6
 95
        1
302
GRIDFORMAT
  1
GRIDFORMAT_BEGIN
 90
        0
 91
        1
 62
     0
 92
       -2
340
0
 93
        0
 40
0.045
309
GRIDFORMAT_END
 95
        2
302
GRIDFORMAT
  1
GRIDFORMAT_BEGIN
 90
        0
 91
        1
 62
     0
 92
       -2
340
0
 93
        0
 40
0.045
309
GRIDFORMAT_END
 95
        4
302
GRIDFORMAT
  1
GRIDFORMAT_BEGIN
 90
        0
 91
        1
 62
     0
 92
       -2
340
0
 93
        0
 40
0.045
309
GRIDFORMAT_END
 95
        8
302
GRIDFORMAT
  1
GRIDFORMAT_BEGIN
 90
        0
 91
        1
 62
     0
 92
       -2
340
0
 93
        0
 40
0.045
309
GRIDFORMAT_END
 95
       16
302
GRIDFORMAT
  1
GRIDFORMAT_BEGIN
 90
        0
 91
        1
 62
     0
 92
       -2
340
0
 93
        0
 40
0.045
309
GRIDFORMAT_END
 95
       32
302
GRIDFORMAT
  1
GRIDFORMAT_BEGIN
 90
        0
 91
        1
 62
     0
 92
       -2
340
0
 93
        0
 40
0.045
309
GRIDFORMAT_END
309
TABLEFORMAT_END
  1
CELLSTYLE_BEGIN
 90
        3
 91
        2
300
_DATA
309
CELLSTYLE_END
  0
XRECORD
  5
13CA0
102
{ACAD_REACTORS
330
E9FD
102
}
330
E9FD
100
AcDbXrecord
280
     1
102
ACAD_ROUNDTRIP_PRE2007_TABLESTYLE
 90
        4
 91
        0
  1

 92
        4
 93
        0
  2

 94
        4
 95
        0
  3

  0
ENDSEC
  0
EOF
