  0
SECTION
  2
HEADER
  9
$ACADVER
  1
AC1014
  9
$ACADMAINTVER
 70
     9
  9
$DWGCODEPAGE
  3
ANSI_1252
  9
$INSBASE
 10
0.0
 20
0.0
 30
0.0
  9
$EXTMIN
 10
-42.00316530976079
 20
-71.68853221015297
 30
-0.0000000000000053
  9
$EXTMAX
 10
140.7876138270994
 20
94.84101112537905
 30
0.0000000000000099
  9
$LIMMIN
 10
0.0
 20
0.0
  9
$LIMMAX
 10
420.0
 20
297.0
  9
$ORTHOMODE
 70
     0
  9
$REGENMODE
 70
     1
  9
$FILLMODE
 70
     1
  9
$QTEXTMODE
 70
     0
  9
$MIRRTEXT
 70
     1
  9
$DRAGMODE
 70
     2
  9
$LTSCALE
 40
1.0
  9
$OSMODE
 70
  2599
  9
$ATTMODE
 70
     1
  9
$TEXTSIZE
 40
2.5
  9
$TRACEWID
 40
1.0
  9
$TEXTSTYLE
  7
STANDARD
  9
$CLAYER
  8
0
  9
$CELTYPE
  6
BYLAYER
  9
$CECOLOR
 62
   256
  9
$CELTSCALE
 40
1.0
  9
$DELOBJ
 70
     1
  9
$DISPSILH
 70
     0
  9
$DIMSCALE
 40
1.0
  9
$DIMASZ
 40
2.5
  9
$DIMEXO
 40
0.0
  9
$DIMDLI
 40
10.0
  9
$DIMRND
 40
0.0
  9
$DIMDLE
 40
0.0
  9
$DIMEXE
 40
1.0
  9
$DIMTP
 40
0.1
  9
$DIMTM
 40
0.1
  9
$DIMTXT
 40
3.5
  9
$DIMCEN
 40
0.0
  9
$DIMTSZ
 40
0.0
  9
$DIMTOL
 70
     0
  9
$DIMLIM
 70
     0
  9
$DIMTIH
 70
     0
  9
$DIMTOH
 70
     0
  9
$DIMSE1
 70
     0
  9
$DIMSE2
 70
     0
  9
$DIMTAD
 70
     1
  9
$DIMZIN
 70
     8
  9
$DIMBLK
  1

  9
$DIMASO
 70
     1
  9
$DIMSHO
 70
     1
  9
$DIMPOST
  1

  9
$DIMAPOST
  1
"
  9
$DIMALT
 70
     0
  9
$DIMALTD
 70
     2
  9
$DIMALTF
 40
0.0393701
  9
$DIMLFAC
 40
1.0
  9
$DIMTOFL
 70
     1
  9
$DIMTVP
 40
0.0
  9
$DIMTIX
 70
     0
  9
$DIMSOXD
 70
     0
  9
$DIMSAH
 70
     0
  9
$DIMBLK1
  1

  9
$DIMBLK2
  1

  9
$DIMSTYLE
  2
AM_DIN
  9
$DIMCLRD
 70
   256
  9
$DIMCLRE
 70
   256
  9
$DIMCLRT
 70
     2
  9
$DIMTFAC
 40
0.71
  9
$DIMGAP
 40
1.5
  9
$DIMJUST
 70
     0
  9
$DIMSD1
 70
     0
  9
$DIMSD2
 70
     0
  9
$DIMTOLJ
 70
     0
  9
$DIMTZIN
 70
     8
  9
$DIMALTZ
 70
     0
  9
$DIMALTTZ
 70
     0
  9
$DIMFIT
 70
     3
  9
$DIMUPT
 70
     0
  9
$DIMUNIT
 70
     2
  9
$DIMDEC
 70
     2
  9
$DIMTDEC
 70
     2
  9
$DIMALTU
 70
     2
  9
$DIMALTTD
 70
     2
  9
$DIMTXSTY
  7
STANDARD
  9
$DIMAUNIT
 70
     0
  9
$LUNITS
 70
     2
  9
$LUPREC
 70
     2
  9
$SKETCHINC
 40
1.0
  9
$FILLETRAD
 40
5.0
  9
$AUNITS
 70
     0
  9
$AUPREC
 70
     0
  9
$MENU
  1
.
  9
$ELEVATION
 40
0.0
  9
$PELEVATION
 40
0.0
  9
$THICKNESS
 40
0.0
  9
$LIMCHECK
 70
     0
  9
$BLIPMODE
 70
     0
  9
$CHAMFERA
 40
2.5
  9
$CHAMFERB
 40
2.5
  9
$CHAMFERC
 40
20.0
  9
$CHAMFERD
 40
0.0
  9
$SKPOLY
 70
     0
  9
$TDCREATE
 40
2453599.324339374
  9
$TDUPDATE
 40
2453767.626046400
  9
$TDINDWG
 40
0.0671708796
  9
$TDUSRTIMER
 40
0.0671465394
  9
$USRTIMER
 70
     1
  9
$ANGBASE
 50
0.0
  9
$ANGDIR
 70
     0
  9
$PDMODE
 70
     0
  9
$PDSIZE
 40
0.0
  9
$PLINEWID
 40
0.0
  9
$COORDS
 70
     0
  9
$SPLFRAME
 70
     0
  9
$SPLINETYPE
 70
     6
  9
$SPLINESEGS
 70
     8
  9
$ATTDIA
 70
     1
  9
$ATTREQ
 70
     1
  9
$HANDLING
 70
 22529
  9
$HANDSEED
  5
2FCA
  9
$SURFTAB1
 70
     6
  9
$SURFTAB2
 70
     6
  9
$SURFTYPE
 70
     6
  9
$SURFU
 70
     6
  9
$SURFV
 70
     6
  9
$UCSNAME
  2

  9
$UCSORG
 10
0.0
 20
0.0
 30
0.0
  9
$UCSXDIR
 10
1.0
 20
0.0
 30
0.0
  9
$UCSYDIR
 10
0.0
 20
1.0
 30
0.0
  9
$PUCSNAME
  2

  9
$PUCSORG
 10
0.0
 20
0.0
 30
0.0
  9
$PUCSXDIR
 10
1.0
 20
0.0
 30
0.0
  9
$PUCSYDIR
 10
0.0
 20
1.0
 30
0.0
  9
$USERI1
 70
     0
  9
$USERI2
 70
     0
  9
$USERI3
 70
     0
  9
$USERI4
 70
     0
  9
$USERI5
 70
     0
  9
$USERR1
 40
0.0
  9
$USERR2
 40
0.0
  9
$USERR3
 40
0.0
  9
$USERR4
 40
0.0
  9
$USERR5
 40
0.0
  9
$WORLDVIEW
 70
     1
  9
$SHADEDGE
 70
     3
  9
$SHADEDIF
 70
    70
  9
$TILEMODE
 70
     1
  9
$MAXACTVP
 70
    64
  9
$PINSBASE
 10
0.0
 20
0.0
 30
0.0
  9
$PLIMCHECK
 70
     0
  9
$PEXTMIN
 10
1.000000000000000E+20
 20
1.000000000000000E+20
 30
1.000000000000000E+20
  9
$PEXTMAX
 10
-1.000000000000000E+20
 20
-1.000000000000000E+20
 30
-1.000000000000000E+20
  9
$PLIMMIN
 10
0.0
 20
0.0
  9
$PLIMMAX
 10
420.0
 20
297.0
  9
$UNITMODE
 70
     0
  9
$VISRETAIN
 70
     1
  9
$PLINEGEN
 70
     0
  9
$PSLTSCALE
 70
     1
  9
$TREEDEPTH
 70
  3020
  9
$PICKSTYLE
 70
     0
  9
$CMLSTYLE
  2
STANDARD
  9
$CMLJUST
 70
     0
  9
$CMLSCALE
 40
20.0
  9
$PROXYGRAPHICS
 70
     1
  9
$MEASUREMENT
 70
     1
  0
ENDSEC
  0
SECTION
  2
CLASSES
  0
CLASS
  1
ACDBDICTIONARYWDFLT
  2
AcDbDictionaryWithDefault
  3
AutoCAD 2000
 90
        0
280
     0
281
     0
  0
CLASS
  1
ACDBPLACEHOLDER
  2
AcDbPlaceHolder
  3
AutoCAD 2000
 90
        0
280
     0
281
     0
  0
CLASS
  1
LAYOUT
  2
AcDbLayout
  3
AutoCAD 2000
 90
        0
280
     0
281
     0
  0
CLASS
  1
ACME_DOCUMENT
  2
AcMeDbDoc
  3
AcMeServices
 90
        0
280
     0
281
     0
  0
CLASS
  1
ACMESCOPE
  2
AcMeScope
  3
AcMeServices
 90
        0
280
     0
281
     0
  0
CLASS
  1
ACMECOMMANDHISTORY
  2
AcMeCommandHistory
  3
AcMeServices
 90
        0
280
     0
281
     0
  0
CLASS
  1
ACIMSYSVARMAN
  2
AcImSysVarManager
  3
AcMeServices
 90
        0
280
     0
281
     0
  0
CLASS
  1
ACIMREALSYSVAR
  2
AcImRealSysVar
  3
AcMeServices
 90
        0
280
     0
281
     0
  0
CLASS
  1
ACIMINTSYSVAR
  2
AcImIntSysVar
  3
AcMeServices
 90
        0
280
     0
281
     0
  0
CLASS
  1
ACMEDRAWINGMAN
  2
AcMeDrawingMan
  3
AcMeServices
 90
        0
280
     0
281
     0
  0
CLASS
  1
ACMEVIEW
  2
AcMeView
  3
AcMeServices
 90
        0
280
     0
281
     0
  0
CLASS
  1
ACDBENTITYCACHE
  2
AcMeEntityCache
  3
AcMeServices
 90
        0
280
     0
281
     0
  0
CLASS
  1
GSMANAGER
  2
AcMeGSManager
  3
AcMeServices
 90
        0
280
     0
281
     0
  0
CLASS
  1
AMDTINTERNALREACTOR
  2
AmdtInternalReactor
  3
AcMeServices
 90
        0
280
     0
281
     0
  0
CLASS
  1
ACMESTATEMGR
  2
AcMeStateMgr
  3
AcMeServices
 90
        0
280
     0
281
     0
  0
CLASS
  1
ACGREFMASTER
  2
AcGrefMaster
  3
AcAttribServices
 90
        0
280
     0
281
     0
  0
CLASS
  1
ACME_DATABASE
  2
AcMeDbDatabase
  3
AcMeServices
 90
        0
280
     0
281
     0
  0
CLASS
  1
ACRFINSADJUSTERMGR
  2
AcRfInsAdjusterMgr
  3
AcMeServices
 90
        0
280
     0
281
     0
  0
CLASS
  1
ACGREFACADMASTER
  2
AcGrefacadMaster
  3
AcGrefServices
 90
        0
280
     0
281
     0
  0
CLASS
  1
AMIMASTER
  2
AmiMaster
  3
AmiServices
 90
        0
280
     0
281
     0
  0
CLASS
  1
AMGSETTINGSOBJ
  2
AmgSettingsObj
  3
"AcadM|Product Description: AutoCAD Mechanical 2000|Company: Autodesk"
 90
        0
280
     0
281
     0
  0
CLASS
  1
ACMDATADICTIONARY
  2
AcmDataDictionary
  3
"AcmSymBB|Product Description: AutoCAD Mechanical 2000|Company: Autodesk"
 90
        0
280
     0
281
     0
  0
CLASS
  1
ACMDATAENTRYBLOCK
  2
AcmDataEntryBlock
  3
"AcmSymBB|Product Description: AutoCAD Mechanical 2000|Company: Autodesk"
 90
        0
280
     0
281
     0
  0
CLASS
  1
ACIMSTRSYSVAR
  2
AcImStrSysVar
  3
AcMeServices
 90
        0
280
     0
281
     0
  0
CLASS
  1
ACMSTANDARDDIN
  2
AcmStandardDIN
  3
"Amdt_StdImp|Product Description: AutoCAD Mechanical 2000|Company: Autodesk"
 90
        0
280
     0
281
     0
  0
CLASS
  1
AMGOBJPROPCFG
  2
AmgObjPropCfg
  3
"AmgLay|Product Description: AutoCAD Mechanical 2000|Company: Autodesk"
 90
        1
280
     0
281
     0
  0
CLASS
  1
AMDTEDGESTANDARDDIN
  2
AmdtEdgeStdDIN
  3
"Amdt_StdImp|Product Description: AutoCAD Mechanical 2000|Company: Autodesk"
 90
        0
280
     0
281
     0
  0
CLASS
  1
ACMSURFSTANDARDDIN
  2
AcmSurfTextStdDIN
  3
"Amdt_StdImp|Product Description: AutoCAD Mechanical 2000|Company: Autodesk"
 90
        0
280
     0
281
     0
  0
CLASS
  1
ACMFCFSTANDARDDIN
  2
AcmFCFStdDIN
  3
"Amdt_StdImp|Product Description: AutoCAD Mechanical 2000|Company: Autodesk"
 90
        0
280
     0
281
     0
  0
CLASS
  1
ACMWELDSTANDARDDIN
  2
AcmWeldingStdDIN
  3
"Amdt_StdImp|Product Description: AutoCAD Mechanical 2000|Company: Autodesk"
 90
        0
280
     0
281
     0
  0
CLASS
  1
ACMIDSTANDARDDIN
  2
AcmIdStdDIN
  3
"Amdt_StdImp|Product Description: AutoCAD Mechanical 2000|Company: Autodesk"
 90
        0
280
     0
281
     0
  0
CLASS
  1
ACMDATUMSTANDARDDIN
  2
AcmDatumStdDIN
  3
"Amdt_StdImp|Product Description: AutoCAD Mechanical 2000|Company: Autodesk"
 90
        0
280
     0
281
     0
  0
CLASS
  1
ACMBOMSTANDARDDIN
  2
AcmBOMStdDIN
  3
"Amdt_StdImp|Product Description: AutoCAD Mechanical 2000|Company: Autodesk"
 90
        0
280
     0
281
     0
  0
CLASS
  1
ACMDETAILSTANDARDDIN
  2
AmdtDetailSymStdDIN
  3
"Amdt_StdImp|Product Description: AutoCAD Mechanical 2000|Company: Autodesk"
 90
        0
280
     0
281
     0
  0
CLASS
  1
ACMSECTIONSTANDARDDIN
  2
AmdtSectionSymStdDIN
  3
"Amdt_StdImp|Product Description: AutoCAD Mechanical 2000|Company: Autodesk"
 90
        0
280
     0
281
     0
  0
CLASS
  1
ACMCENTERLINESTANDARDDIN
  2
AmdtCenterLineStdDIN
  3
"Amdt_StdImp|Product Description: AutoCAD Mechanical 2000|Company: Autodesk"
 90
        0
280
     0
281
     0
  0
CLASS
  1
ACMNOTESTANDARDDIN
  2
AmdtNoteStdDIN
  3
"Amdt_StdImp|Product Description: AutoCAD Mechanical 2000|Company: Autodesk"
 90
        0
280
     0
281
     0
  0
CLASS
  1
ACAMGLAYSTD
  2
AcAmgLayStd
  3
"AcAmgLayStd|Product Description: AutoCAD Mechanical 2000|Company: Autodesk"
 90
        0
280
     0
281
     0
  0
CLASS
  1
ACAMGDIMSTD
  2
AcAmgDimStd
  3
"AcAmgDimStd|Product Description: AutoCAD Mechanical 2000|Company: Autodesk"
 90
        0
280
     0
281
     0
  0
CLASS
  1
ACAMGHOLECHARTSTDDIN
  2
AcAmgHoleChartStdDIN
  3
ACMSYMBB_MODULE_NAME
 90
        0
280
     0
281
     0
  0
CLASS
  1
ACAMGTITLESTD
  2
AcAmgTitleStd
  3
"TITLEAPP"
 90
        0
280
     0
281
     0
  0
CLASS
  1
ACMSTANDARDANSI
  2
AcmStandardANSI
  3
"Amdt_StdImp|Product Description: AutoCAD Mechanical 2000|Company: Autodesk"
 90
        0
280
     0
281
     0
  0
CLASS
  1
ACMSURFSTANDARDANSI
  2
AcmSurfTextStdANSI
  3
"Amdt_StdImp|Product Description: AutoCAD Mechanical 2000|Company: Autodesk"
 90
        0
280
     0
281
     0
  0
CLASS
  1
ACMFCFSTANDARDANSI
  2
AcmFCFStdANSI
  3
"Amdt_StdImp|Product Description: AutoCAD Mechanical 2000|Company: Autodesk"
 90
        0
280
     0
281
     0
  0
CLASS
  1
ACMWELDSTANDARDANSI
  2
AcmWeldingStdANSI
  3
"Amdt_StdImp|Product Description: AutoCAD Mechanical 2000|Company: Autodesk"
 90
        0
280
     0
281
     0
  0
CLASS
  1
ACMIDSTANDARDANSI
  2
AcmIdStdANSI
  3
"Amdt_StdImp|Product Description: AutoCAD Mechanical 2000|Company: Autodesk"
 90
        0
280
     0
281
     0
  0
CLASS
  1
ACMDATUMSTANDARDANSI
  2
AcmDatumStdANSI
  3
"Amdt_StdImp|Product Description: AutoCAD Mechanical 2000|Company: Autodesk"
 90
        0
280
     0
281
     0
  0
CLASS
  1
ACMBOMSTANDARDANSI
  2
AcmBOMStdANSI
  3
"Amdt_StdImp|Product Description: AutoCAD Mechanical 2000|Company: Autodesk"
 90
        0
280
     0
281
     0
  0
CLASS
  1
ACMDETAILSTANDARDANSI
  2
AmdtDetailSymStdANSI
  3
"Amdt_StdImp|Product Description: AutoCAD Mechanical 2000|Company: Autodesk"
 90
        0
280
     0
281
     0
  0
CLASS
  1
ACMSECTIONSTANDARDANSI
  2
AmdtSectionSymStdANSI
  3
"Amdt_StdImp|Product Description: AutoCAD Mechanical 2000|Company: Autodesk"
 90
        0
280
     0
281
     0
  0
CLASS
  1
ACMCENTERLINESTANDARDANSI
  2
AmdtCenterLineStdANSI
  3
"Amdt_StdImp|Product Description: AutoCAD Mechanical 2000|Company: Autodesk"
 90
        0
280
     0
281
     0
  0
CLASS
  1
ACMNOTESTANDARDANSI
  2
AmdtNoteStdANSI
  3
"Amdt_StdImp|Product Description: AutoCAD Mechanical 2000|Company: Autodesk"
 90
        0
280
     0
281
     0
  0
CLASS
  1
ACAMGHOLECHARTSTDANSI
  2
AcAmgHoleChartStdANSI
  3
ACMSYMBB_MODULE_NAME
 90
        0
280
     0
281
     0
  0
CLASS
  1
ACAMGFILTERDAT
  2
AcAmgFilterDat
  3
"AcadM|Product Description: AutoCAD Mechanical 2000|Company: Autodesk"
 90
        0
280
     0
281
     0
  0
CLASS
  1
AMDTFORMULAUPDATEDISPATCHER
  2
AmdtFormulaUpdateDispatcher
  3
AcMeServices
 90
        0
280
     0
281
     0
  0
CLASS
  1
LAYER_INDEX
  2
AcDbLayerIndex
  3
AutoCAD 2000
 90
        0
280
     0
281
     0
  0
CLASS
  1
IDBUFFER
  2
AcDbIdBuffer
  3
AutoCAD 2000
 90
        0
280
     0
281
     0
  0
CLASS
  1
DICTIONARYVAR
  2
AcDbDictionaryVar
  3
AutoCAD 2000
 90
        0
280
     0
281
     0
  0
CLASS
  1
DIMASSOC
  2
AcDbDimAssoc
  3
"AcDbDimAssoc|Product Desc:     AcDim ARX App For Dimension|Company:          Autodesk, Inc.|WEB Address:      www.autodesk.com"
 90
        0
280
     0
281
     0
  0
CLASS
  1
ACMDIMBREAKPERSREACTOR
  2
AcmDimBreakPersReactor
  3
amgDimApp().moduleName()
 90
     1023
280
     0
281
     0
  0
CLASS
  1
ACMSURFSYM
  2
AcmSurfaceTexture
  3
"AcmSymBB|Product Description: AutoCAD Mechanical 2000|Company: Autodesk"
 90
     1023
280
     0
281
     1
  0
CLASS
  1
ACMFCFRAME
  2
AcmFCF
  3
"AcmSymBB|Product Description: AutoCAD Mechanical 2000|Company: Autodesk"
 90
     1023
280
     0
281
     1
  0
CLASS
  1
ACMSTANDARDBSI
  2
AcmStandardBSI
  3
"Amdt_StdImp|Product Description: AutoCAD Mechanical 2000|Company: Autodesk"
 90
        0
280
     0
281
     0
  0
CLASS
  1
ACMSURFSTANDARDBSI
  2
AcmSurfTextStdBSI
  3
"Amdt_StdImp|Product Description: AutoCAD Mechanical 2000|Company: Autodesk"
 90
        0
280
     0
281
     0
  0
CLASS
  1
ACMFCFSTANDARDBSI
  2
AcmFCFStdBSI
  3
"Amdt_StdImp|Product Description: AutoCAD Mechanical 2000|Company: Autodesk"
 90
        0
280
     0
281
     0
  0
CLASS
  1
ACMWELDSTANDARDBSI
  2
AcmWeldingStdBSI
  3
"Amdt_StdImp|Product Description: AutoCAD Mechanical 2000|Company: Autodesk"
 90
        0
280
     0
281
     0
  0
CLASS
  1
ACMIDSTANDARDBSI
  2
AcmIdStdBSI
  3
"Amdt_StdImp|Product Description: AutoCAD Mechanical 2000|Company: Autodesk"
 90
        0
280
     0
281
     0
  0
CLASS
  1
ACMDATUMSTANDARDBSI
  2
AcmDatumStdBSI
  3
"Amdt_StdImp|Product Description: AutoCAD Mechanical 2000|Company: Autodesk"
 90
        0
280
     0
281
     0
  0
CLASS
  1
ACMBOMSTANDARDBSI
  2
AcmBOMStdBSI
  3
"Amdt_StdImp|Product Description: AutoCAD Mechanical 2000|Company: Autodesk"
 90
        0
280
     0
281
     0
  0
CLASS
  1
ACMDETAILSTANDARDBSI
  2
AmdtDetailSymStdBSI
  3
"Amdt_StdImp|Product Description: AutoCAD Mechanical 2000|Company: Autodesk"
 90
        0
280
     0
281
     0
  0
CLASS
  1
ACMSECTIONSTANDARDBSI
  2
AmdtSectionSymStdBSI
  3
"Amdt_StdImp|Product Description: AutoCAD Mechanical 2000|Company: Autodesk"
 90
        0
280
     0
281
     0
  0
CLASS
  1
ACMCENTERLINESTANDARDBSI
  2
AmdtCenterLineStdBSI
  3
"Amdt_StdImp|Product Description: AutoCAD Mechanical 2000|Company: Autodesk"
 90
        0
280
     0
281
     0
  0
CLASS
  1
ACMTHREADLINESTANDARDBSI
  2
AmdtThreadLineStdBSI
  3
"Amdt_StdImp|Product Description: AutoCAD Mechanical 2000|Company: Autodesk"
 90
        0
280
     0
281
     0
  0
CLASS
  1
ACMNOTESTANDARDBSI
  2
AmdtNoteStdBSI
  3
"Amdt_StdImp|Product Description: AutoCAD Mechanical 2000|Company: Autodesk"
 90
        0
280
     0
281
     0
  0
CLASS
  1
ACMSTANDARDISO
  2
AcmStandardISO
  3
"Amdt_StdImp|Product Description: AutoCAD Mechanical 2000|Company: Autodesk"
 90
        0
280
     0
281
     0
  0
CLASS
  1
AMDTEDGESTANDARDISO
  2
AmdtEdgeStdISO
  3
"Amdt_StdImp|Product Description: AutoCAD Mechanical 2000|Company: Autodesk"
 90
        0
280
     0
281
     0
  0
CLASS
  1
ACMSURFSTANDARDISO
  2
AcmSurfTextStdISO
  3
"Amdt_StdImp|Product Description: AutoCAD Mechanical 2000|Company: Autodesk"
 90
        0
280
     0
281
     0
  0
CLASS
  1
ACMFCFSTANDARDISO
  2
AcmFCFStdISO
  3
"Amdt_StdImp|Product Description: AutoCAD Mechanical 2000|Company: Autodesk"
 90
        0
280
     0
281
     0
  0
CLASS
  1
ACMWELDSTANDARDISO
  2
AcmWeldingStdISO
  3
"Amdt_StdImp|Product Description: AutoCAD Mechanical 2000|Company: Autodesk"
 90
        0
280
     0
281
     0
  0
CLASS
  1
ACMIDSTANDARDISO
  2
AcmIdStdISO
  3
"Amdt_StdImp|Product Description: AutoCAD Mechanical 2000|Company: Autodesk"
 90
        0
280
     0
281
     0
  0
CLASS
  1
ACMDATUMSTANDARDISO
  2
AcmDatumStdISO
  3
"Amdt_StdImp|Product Description: AutoCAD Mechanical 2000|Company: Autodesk"
 90
        0
280
     0
281
     0
  0
CLASS
  1
ACMBOMSTANDARDISO
  2
AcmBOMStdISO
  3
"Amdt_StdImp|Product Description: AutoCAD Mechanical 2000|Company: Autodesk"
 90
        0
280
     0
281
     0
  0
CLASS
  1
ACMDETAILSTANDARDISO
  2
AmdtDetailSymStdISO
  3
"Amdt_StdImp|Product Description: AutoCAD Mechanical 2000|Company: Autodesk"
 90
        0
280
     0
281
     0
  0
CLASS
  1
ACMSECTIONSTANDARDISO
  2
AmdtSectionSymStdISO
  3
"Amdt_StdImp|Product Description: AutoCAD Mechanical 2000|Company: Autodesk"
 90
        0
280
     0
281
     0
  0
CLASS
  1
ACMCENTERLINESTANDARDISO
  2
AmdtCenterLineStdISO
  3
"Amdt_StdImp|Product Description: AutoCAD Mechanical 2000|Company: Autodesk"
 90
        0
280
     0
281
     0
  0
CLASS
  1
ACMTHREADLINESTANDARDISO
  2
AmdtThreadLineStdISO
  3
"Amdt_StdImp|Product Description: AutoCAD Mechanical 2000|Company: Autodesk"
 90
        0
280
     0
281
     0
  0
CLASS
  1
ACMNOTESTANDARDISO
  2
AmdtNoteStdISO
  3
"Amdt_StdImp|Product Description: AutoCAD Mechanical 2000|Company: Autodesk"
 90
        0
280
     0
281
     0
  0
CLASS
  1
ACMSTANDARDJIS
  2
AcmStandardJIS
  3
"Amdt_StdImp|Product Description: AutoCAD Mechanical 2000|Company: Autodesk"
 90
        0
280
     0
281
     0
  0
CLASS
  1
ACMSURFSTANDARDJIS
  2
AcmSurfTextStdJIS
  3
"Amdt_StdImp|Product Description: AutoCAD Mechanical 2000|Company: Autodesk"
 90
        0
280
     0
281
     0
  0
CLASS
  1
ACMFCFSTANDARDJIS98
  2
AcmFCFStdJIS98
  3
"Amdt_StdImp|Product Description: AutoCAD Mechanical 2000|Company: Autodesk"
 90
        0
280
     0
281
     0
  0
CLASS
  1
ACMWELDSTANDARDJIS
  2
AcmWeldingStdJIS
  3
"Amdt_StdImp|Product Description: AutoCAD Mechanical 2000|Company: Autodesk"
 90
        0
280
     0
281
     0
  0
CLASS
  1
ACMIDSTANDARDJIS
  2
AcmIdStdJIS
  3
"Amdt_StdImp|Product Description: AutoCAD Mechanical 2000|Company: Autodesk"
 90
        0
280
     0
281
     0
  0
CLASS
  1
ACMDATUMSTANDARDJIS
  2
AcmDatumStdJIS
  3
"Amdt_StdImp|Product Description: AutoCAD Mechanical 2000|Company: Autodesk"
 90
        0
280
     0
281
     0
  0
CLASS
  1
ACMBOMSTANDARDJIS
  2
AcmBOMStdJIS
  3
"Amdt_StdImp|Product Description: AutoCAD Mechanical 2000|Company: Autodesk"
 90
        0
280
     0
281
     0
  0
CLASS
  1
ACMDETAILSTANDARDJIS
  2
AmdtDetailSymStdJIS
  3
"Amdt_StdImp|Product Description: AutoCAD Mechanical 2000|Company: Autodesk"
 90
        0
280
     0
281
     0
  0
CLASS
  1
ACMSECTIONSTANDARDJIS
  2
AmdtSectionSymStdJIS
  3
"Amdt_StdImp|Product Description: AutoCAD Mechanical 2000|Company: Autodesk"
 90
        0
280
     0
281
     0
  0
CLASS
  1
ACMCENTERLINESTANDARDJIS
  2
AmdtCenterLineStdJIS
  3
"Amdt_StdImp|Product Description: AutoCAD Mechanical 2000|Company: Autodesk"
 90
        0
280
     0
281
     0
  0
CLASS
  1
ACMTHREADLINESTANDARDJIS
  2
AmdtThreadLineStdJIS
  3
"Amdt_StdImp|Product Description: AutoCAD Mechanical 2000|Company: Autodesk"
 90
        0
280
     0
281
     0
  0
CLASS
  1
ACMNOTESTANDARDJIS
  2
AmdtNoteStdJIS
  3
"Amdt_StdImp|Product Description: AutoCAD Mechanical 2000|Company: Autodesk"
 90
        0
280
     0
281
     0
  0
CLASS
  1
LONG_TRANSACTION
  2
AcDbLongTransaction
  3
AutoCAD 2000
 90
        0
280
     0
281
     0
  0
CLASS
  1
LWPOLYLINE
  2
AcDbPolyline
  3
AutoCAD 2000
 90
        0
280
     0
281
     1
  0
CLASS
  1
HATCH
  2
AcDbHatch
  3
AutoCAD 2000
 90
        0
280
     0
281
     1
  0
CLASS
  1
XRECORD
  2
AcDbXrecord
  3
AutoCAD 2000
 90
        0
280
     0
281
     0
  0
ENDSEC
  0
SECTION
  2
TABLES
  0
TABLE
  2
VPORT
  5
8
330
0
100
AcDbSymbolTable
 70
    12
  0
VPORT
  5
2FA3
330
8
100
AcDbSymbolTableRecord
100
AcDbViewportTableRecord
  2
*ACTIVE
 70
     0
 10
0.0
 20
0.0
 11
1.0
 21
1.0
 12
188.9984173451196
 22
112.6557338949235
 13
0.0
 23
0.0
 14
2.5
 24
2.5
 15
10.0
 25
10.0
 16
0.0
 26
0.0
 36
1.0
 17
0.0
 27
0.0
 37
0.0
 40
372.8079571510485
 41
1.716417910447761
 42
50.0
 43
0.0
 44
0.0
 50
0.0
 51
0.0
 71
     0
 72
 10000
 73
     1
 74
     3
 75
     0
 76
     0
 77
     0
 78
     0
  0
ENDTAB
  0
TABLE
  2
LTYPE
  5
5
330
0
100
AcDbSymbolTable
 70
    24
  0
LTYPE
  5
14
330
5
100
AcDbSymbolTableRecord
100
AcDbLinetypeTableRecord
  2
BYBLOCK
 70
     0
  3

 72
    65
 73
     0
 40
0.0
  0
LTYPE
  5
15
330
5
100
AcDbSymbolTableRecord
100
AcDbLinetypeTableRecord
  2
BYLAYER
 70
     0
  3

 72
    65
 73
     0
 40
0.0
  0
LTYPE
  5
16
330
5
100
AcDbSymbolTableRecord
100
AcDbLinetypeTableRecord
  2
CONTINUOUS
 70
     0
  3
Solid line
 72
    65
 73
     0
 40
0.0
  0
LTYPE
  5
50
330
5
100
AcDbSymbolTableRecord
100
AcDbLinetypeTableRecord
  2
AMCONSTR
 70
     0
  3
_______________________
 72
    65
 73
     2
 40
9999.0
 49
9999.0
 74
     0
 49
0.0
 74
     0
  0
LTYPE
  5
55
330
5
100
AcDbSymbolTableRecord
100
AcDbLinetypeTableRecord
  2
AMZIGZAG
 70
     0
  3
/\/-/\/-/\/-/\/-/\/-/\/
 72
    65
 73
     2
 40
11.00009999999999
 49
0.0001
 74
     4
 75
   135
340
54
 46
0.04
 50
0.0
 44
0.0
 45
0.0
 49
-11.0
 74
     0
  0
LTYPE
  5
56
330
5
100
AcDbSymbolTableRecord
100
AcDbLinetypeTableRecord
  2
AM_DIN_F_W050
 70
     0
  3
__ __ __ __ __ __ __ __ __ __ __ __ __ __ __
 72
    65
 73
     2
 40
6.25
 49
4.75
 74
     0
 49
-1.5
 74
     0
  0
LTYPE
  5
57
330
5
100
AcDbSymbolTableRecord
100
AcDbLinetypeTableRecord
  2
AM_DIN_G_W050
 70
     0
  3
____ . ____ . ____ . ____ . ____ . ____ . ____
 72
    65
 73
     4
 40
13.75
 49
9.75
 74
     0
 49
-1.5
 74
     0
 49
1.0
 74
     0
 49
-1.5
 74
     0
  0
LTYPE
  5
58
330
5
100
AcDbSymbolTableRecord
100
AcDbLinetypeTableRecord
  2
AM_DIN_K_W050
 70
     0
  3
_____ . . _____ . . _____ . . ____ .. ____
 72
    65
 73
     6
 40
16.25
 49
9.75
 74
     0
 49
-1.5
 74
     0
 49
1.0
 74
     0
 49
-1.5
 74
     0
 49
1.0
 74
     0
 49
-1.5
 74
     0
  0
LTYPE
  5
59
330
5
100
AcDbSymbolTableRecord
100
AcDbLinetypeTableRecord
  2
AM_DIN_G_W050X2
 70
     0
  3
__ . __ . __ . __ . __ . __
 72
    65
 73
     4
 40
6.875
 49
4.75
 74
     0
 49
-0.875
 74
     0
 49
0.375
 74
     0
 49
-0.875
 74
     0
  0
LTYPE
  5
5A
330
5
100
AcDbSymbolTableRecord
100
AcDbLinetypeTableRecord
  2
AM_DIN_F_W050X2
 70
     0
  3
 _ _ _ _ _ _ _ _ _ _ _ _
 72
    65
 73
     2
 40
3.125
 49
2.25
 74
     0
 49
-0.875
 74
     0
  0
LTYPE
  5
68
330
5
100
AcDbSymbolTableRecord
100
AcDbLinetypeTableRecord
  2
ACDINWELD
 70
     0
  3
_ _ _ _ _
 72
    65
 73
     2
 40
2.0
 49
2.0
 74
     0
 49
-1.0
 74
     0
  0
LTYPE
  5
69
330
5
100
AcDbSymbolTableRecord
100
AcDbLinetypeTableRecord
  2
ACDINTGB
 70
     0
  3
__ . . __ . .
 72
    65
 73
     6
 40
9.0
 49
4.0
 74
     0
 49
-1.0
 74
     0
 49
1.0
 74
     0
 49
-1.0
 74
     0
 49
1.0
 74
     0
 49
-1.0
 74
     0
  0
LTYPE
  5
6A
330
5
100
AcDbSymbolTableRecord
100
AcDbLinetypeTableRecord
  2
ACDINTGL
 70
     0
  3
_ _ _ _ _
 72
    65
 73
     2
 40
3.0
 49
2.0
 74
     0
 49
-1.0
 74
     0
  0
LTYPE
  5
6C
330
5
100
AcDbSymbolTableRecord
100
AcDbLinetypeTableRecord
  2
CENTER
 70
     0
  3
__ . __
 72
    65
 73
     4
 40
7.0
 49
4.0
 74
     0
 49
-1.0
 74
     0
 49
1.0
 74
     0
 49
-1.0
 74
     0
  0
LTYPE
  5
2027
330
5
100
AcDbSymbolTableRecord
100
AcDbLinetypeTableRecord
  2
PHANTOM2
 70
     0
  3
Phantom (.5x) ___ _ _ ___ _ _ ___ _ _ ___ _ _
 72
    65
 73
     6
 40
1.25
 49
0.625
 74
     0
 49
-0.125
 74
     0
 49
0.125
 74
     0
 49
-0.125
 74
     0
 49
0.125
 74
     0
 49
-0.125
 74
     0
  0
LTYPE
  5
2028
330
5
100
AcDbSymbolTableRecord
100
AcDbLinetypeTableRecord
  2
ACANSTGB
 70
     0
  3
__ . . __ . .
 72
    65
 73
     6
 40
0.35433070866
 49
0.15748031496
 74
     0
 49
-0.03937007874
 74
     0
 49
0.03937007874
 74
     0
 49
-0.03937007874
 74
     0
 49
0.03937007874
 74
     0
 49
-0.03937007874
 74
     0
  0
LTYPE
  5
2029
330
5
100
AcDbSymbolTableRecord
100
AcDbLinetypeTableRecord
  2
ACANSTGL
 70
     0
  3
_ _ _ _ _
 72
    65
 73
     2
 40
0.11811023622
 49
0.07874015748
 74
     0
 49
-0.03937007874
 74
     0
  0
LTYPE
  5
202A
330
5
100
AcDbSymbolTableRecord
100
AcDbLinetypeTableRecord
  2
DASHED
 70
     0
  3
__ __ __ __ __ __ __ __ __ __ __ __ __ __ __ __
 72
    65
 73
     2
 40
19.05
 49
12.7
 74
     0
 49
-6.349999999999998
 74
     0
  0
LTYPE
  5
2556
330
5
100
AcDbSymbolTableRecord
100
AcDbLinetypeTableRecord
  2
ACJISTGB
 70
     0
  3
__ . . __ . .
 72
    65
 73
     6
 40
9.0
 49
4.0
 74
     0
 49
-1.0
 74
     0
 49
1.0
 74
     0
 49
-1.0
 74
     0
 49
1.0
 74
     0
 49
-1.0
 74
     0
  0
LTYPE
  5
2557
330
5
100
AcDbSymbolTableRecord
100
AcDbLinetypeTableRecord
  2
ACJISTGL
 70
     0
  3
_ _ _ _ _
 72
    65
 73
     2
 40
3.0
 49
2.0
 74
     0
 49
-1.0
 74
     0
  0
LTYPE
  5
2558
330
5
100
AcDbSymbolTableRecord
100
AcDbLinetypeTableRecord
  2
ACBSIWELD
 70
     0
  3
_ _ _ _ _
 72
    65
 73
     2
 40
2.0
 49
2.0
 74
     0
 49
-1.0
 74
     0
  0
LTYPE
  5
2559
330
5
100
AcDbSymbolTableRecord
100
AcDbLinetypeTableRecord
  2
ACBSITGB
 70
     0
  3
__ . . __ . .
 72
    65
 73
     6
 40
9.0
 49
4.0
 74
     0
 49
-1.0
 74
     0
 49
1.0
 74
     0
 49
-1.0
 74
     0
 49
1.0
 74
     0
 49
-1.0
 74
     0
  0
LTYPE
  5
255A
330
5
100
AcDbSymbolTableRecord
100
AcDbLinetypeTableRecord
  2
ACBSITGL
 70
     0
  3
_ _ _ _ _
 72
    65
 73
     2
 40
3.0
 49
2.0
 74
     0
 49
-1.0
 74
     0
  0
LTYPE
  5
255B
330
5
100
AcDbSymbolTableRecord
100
AcDbLinetypeTableRecord
  2
ACISOWELD
 70
     0
  3
_ _ _ _ _
 72
    65
 73
     2
 40
2.0
 49
2.0
 74
     0
 49
-1.0
 74
     0
  0
LTYPE
  5
255C
330
5
100
AcDbSymbolTableRecord
100
AcDbLinetypeTableRecord
  2
ACISOTGB
 70
     0
  3
__ . . __ . .
 72
    65
 73
     6
 40
9.0
 49
4.0
 74
     0
 49
-1.0
 74
     0
 49
1.0
 74
     0
 49
-1.0
 74
     0
 49
1.0
 74
     0
 49
-1.0
 74
     0
  0
LTYPE
  5
255D
330
5
100
AcDbSymbolTableRecord
100
AcDbLinetypeTableRecord
  2
ACISOTGL
 70
     0
  3
_ _ _ _ _
 72
    65
 73
     2
 40
3.0
 49
2.0
 74
     0
 49
-1.0
 74
     0
  0
ENDTAB
  0
TABLE
  2
LAYER
  5
2
330
0
100
AcDbSymbolTable
 70
    14
  0
LAYER
  5
10
330
2
100
AcDbSymbolTableRecord
100
AcDbLayerTableRecord
  2
0
 70
     0
 62
     7
  6
CONTINUOUS
  0
LAYER
  5
263
330
2
100
AcDbSymbolTableRecord
100
AcDbLayerTableRecord
  2
DEFPOINTS
 70
     0
 62
     7
  6
CONTINUOUS
  0
LAYER
  5
202B
330
2
100
AcDbSymbolTableRecord
100
AcDbLayerTableRecord
  2
1
 70
     0
 62
     4
  6
CONTINUOUS
  0
LAYER
  5
202C
330
2
100
AcDbSymbolTableRecord
100
AcDbLayerTableRecord
  2
2
 70
     0
 62
     7
  6
CONTINUOUS
  0
LAYER
  5
202D
330
2
100
AcDbSymbolTableRecord
100
AcDbLayerTableRecord
  2
4
 70
     0
 62
     2
  6
CENTER
  0
LAYER
  5
202E
330
2
100
AcDbSymbolTableRecord
100
AcDbLayerTableRecord
  2
6
 70
     0
 62
     5
  6
CONTINUOUS
  0
LAYER
  5
202F
330
2
100
AcDbSymbolTableRecord
100
AcDbLayerTableRecord
  2
SK1
 70
     0
 62
     4
  6
CONTINUOUS
  0
LAYER
  5
2030
330
2
100
AcDbSymbolTableRecord
100
AcDbLayerTableRecord
  2
SK2
 70
     0
 62
     7
  6
CONTINUOUS
  0
LAYER
  5
2031
330
2
100
AcDbSymbolTableRecord
100
AcDbLayerTableRecord
  2
SK3
 70
     0
 62
     1
  6
DASHED
  0
LAYER
  5
2032
330
2
100
AcDbSymbolTableRecord
100
AcDbLayerTableRecord
  2
CUT
 70
     0
 62
     1
  6
CONTINUOUS
  0
LAYER
  5
2DBA
330
2
100
AcDbSymbolTableRecord
100
AcDbLayerTableRecord
  2
NOCUT
 70
     0
 62
     7
  6
CONTINUOUS
  0
ENDTAB
  0
TABLE
  2
STYLE
  5
3
330
0
100
AcDbSymbolTable
 70
    12
  0
STYLE
  5
11
330
3
100
AcDbSymbolTableRecord
100
AcDbTextStyleTableRecord
  2
STANDARD
 70
     0
 40
0.0
 41
1.0
 50
0.0
 71
     0
 42
2.5
  3
ISOCP.SHX
  4

  0
STYLE
  5
54
330
3
100
AcDbSymbolTableRecord
100
AcDbTextStyleTableRecord
  2

 70
     1
 40
0.0
 41
1.0
 50
0.0
 71
     0
 42
2.5
  3
ltypeshp.shx
  4

  0
STYLE
  5
5B
330
3
100
AcDbSymbolTableRecord
100
AcDbTextStyleTableRecord
  2
ACDINTS
 70
     0
 40
1.0
 41
1.0
 50
0.0
 71
     0
 42
2.5
  3
isocp.shx
  4

  0
STYLE
  5
67
330
3
100
AcDbSymbolTableRecord
100
AcDbTextStyleTableRecord
  2
ACDINGDT
 70
     0
 40
0.0
 41
1.0
 50
0.0
 71
     0
 42
2.5
  3
amgdt.shx
  4

  0
STYLE
  5
2034
330
3
100
AcDbSymbolTableRecord
100
AcDbTextStyleTableRecord
  2
ACANSTS
 70
     0
 40
1.0
 41
1.0
 50
0.0
 71
     0
 42
0.2
  3
romans.shx
  4

  0
STYLE
  5
2035
330
3
100
AcDbSymbolTableRecord
100
AcDbTextStyleTableRecord
  2
ACANSGDT
 70
     0
 40
0.0
 41
1.0
 50
0.0
 71
     0
 42
0.2
  3
amgdtans.shx
  4

  0
STYLE
  5
255E
330
3
100
AcDbSymbolTableRecord
100
AcDbTextStyleTableRecord
  2
ACJISTS
 70
     0
 40
1.0
 41
1.0
 50
0.0
 71
     0
 42
3.5
  3
isocp.shx
  4
bigfont.shx
  0
STYLE
  5
255F
330
3
100
AcDbSymbolTableRecord
100
AcDbTextStyleTableRecord
  2
ACJISGDT
 70
     0
 40
0.0
 41
1.0
 50
0.0
 71
     0
 42
3.5
  3
amgdt.shx
  4

  0
STYLE
  5
2560
330
3
100
AcDbSymbolTableRecord
100
AcDbTextStyleTableRecord
  2
ACBSITS
 70
     0
 40
1.0
 41
1.0
 50
0.0
 71
     0
 42
3.5
  3
isocp.shx
  4

  0
STYLE
  5
2561
330
3
100
AcDbSymbolTableRecord
100
AcDbTextStyleTableRecord
  2
ACBSIGDT
 70
     0
 40
0.0
 41
1.0
 50
0.0
 71
     0
 42
3.5
  3
amgdt.shx
  4

  0
STYLE
  5
2562
330
3
100
AcDbSymbolTableRecord
100
AcDbTextStyleTableRecord
  2
ACISOTS
 70
     0
 40
1.0
 41
1.0
 50
0.0
 71
     0
 42
3.5
  3
isocp.shx
  4

  0
STYLE
  5
2563
330
3
100
AcDbSymbolTableRecord
100
AcDbTextStyleTableRecord
  2
ACISOGDT
 70
     0
 40
0.0
 41
1.0
 50
0.0
 71
     0
 42
3.5
  3
amgdt.shx
  4

  0
ENDTAB
  0
TABLE
  2
VIEW
  5
6
330
0
100
AcDbSymbolTable
 70
     0
  0
ENDTAB
  0
TABLE
  2
UCS
  5
7
330
0
100
AcDbSymbolTable
 70
     0
  0
ENDTAB
  0
TABLE
  2
APPID
  5
9
330
0
100
AcDbSymbolTable
 70
    59
  0
APPID
  5
12
330
9
100
AcDbSymbolTableRecord
100
AcDbRegAppTableRecord
  2
ACAD
 70
     0
  0
APPID
  5
2C
330
9
100
AcDbSymbolTableRecord
100
AcDbRegAppTableRecord
  2
MCAD_NO_VIS
 70
     0
  0
APPID
  5
2D
330
9
100
AcDbSymbolTableRecord
100
AcDbRegAppTableRecord
  2
ACAD_TEMP_GRAPHIC
 70
     0
  0
APPID
  5
3E
330
9
100
AcDbSymbolTableRecord
100
AcDbRegAppTableRecord
  2
ACATTRIBSERVICES
 70
     0
  0
APPID
  5
29A
330
9
100
AcDbSymbolTableRecord
100
AcDbRegAppTableRecord
  2
GENIUS_GENDIMSH_14
 70
     0
  0
APPID
  5
588
330
9
100
AcDbSymbolTableRecord
100
AcDbRegAppTableRecord
  2
GENIUS12
 70
     0
  0
APPID
  5
589
330
9
100
AcDbSymbolTableRecord
100
AcDbRegAppTableRecord
  2
GENIUS_GENOENT_13
 70
     0
  0
APPID
  5
58A
330
9
100
AcDbSymbolTableRecord
100
AcDbRegAppTableRecord
  2
GENIUS_GENODEF_13
 70
     0
  0
APPID
  5
58B
330
9
100
AcDbSymbolTableRecord
100
AcDbRegAppTableRecord
  2
GENIUS_GENOBJ-N-RSBK_13
 70
     0
  0
APPID
  5
58C
330
9
100
AcDbSymbolTableRecord
100
AcDbRegAppTableRecord
  2
GENIUS_GENOBJ-N-DIM12_13
 70
     0
  0
APPID
  5
58D
330
9
100
AcDbSymbolTableRecord
100
AcDbRegAppTableRecord
  2
GENIUS_GENSCALE_13
 70
     0
  0
APPID
  5
58E
330
9
100
AcDbSymbolTableRecord
100
AcDbRegAppTableRecord
  2
GENIUS_GENCFG_13
 70
     0
  0
APPID
  5
58F
330
9
100
AcDbSymbolTableRecord
100
AcDbRegAppTableRecord
  2
GENIUS_GENCFG0_13
 70
     0
  0
APPID
  5
590
330
9
100
AcDbSymbolTableRecord
100
AcDbRegAppTableRecord
  2
GENIUS_GENCFG1_13
 70
     0
  0
APPID
  5
591
330
9
100
AcDbSymbolTableRecord
100
AcDbRegAppTableRecord
  2
GENIUS_GENCFG2_13
 70
     0
  0
APPID
  5
592
330
9
100
AcDbSymbolTableRecord
100
AcDbRegAppTableRecord
  2
GENIUS_GENCFG3_13
 70
     0
  0
APPID
  5
593
330
9
100
AcDbSymbolTableRecord
100
AcDbRegAppTableRecord
  2
GENIUS_GENCFG4_13
 70
     0
  0
APPID
  5
594
330
9
100
AcDbSymbolTableRecord
100
AcDbRegAppTableRecord
  2
GENIUS_GEVCFG0_13
 70
     0
  0
APPID
  5
595
330
9
100
AcDbSymbolTableRecord
100
AcDbRegAppTableRecord
  2
GENIUS_GENOBJ-F-SUF_13
 70
     0
  0
APPID
  5
596
330
9
100
AcDbSymbolTableRecord
100
AcDbRegAppTableRecord
  2
GENIUS_GEFCFG0_13
 70
     0
  0
APPID
  5
597
330
9
100
AcDbSymbolTableRecord
100
AcDbRegAppTableRecord
  2
GEV_VCCNULL_SWITCH_OFF
 70
     0
  0
APPID
  5
598
330
9
100
AcDbSymbolTableRecord
100
AcDbRegAppTableRecord
  2
GENIUS_GENDTOL_13
 70
     0
  0
APPID
  5
599
330
9
100
AcDbSymbolTableRecord
100
AcDbRegAppTableRecord
  2
GENIUS_GENDIM_13
 70
     0
  0
APPID
  5
59A
330
9
100
AcDbSymbolTableRecord
100
AcDbRegAppTableRecord
  2
GENIUS_GE3DTOL_13
 70
     0
  0
APPID
  5
59B
330
9
100
AcDbSymbolTableRecord
100
AcDbRegAppTableRecord
  2
AD_DRAW
 70
     0
  0
APPID
  5
59C
330
9
100
AcDbSymbolTableRecord
100
AcDbRegAppTableRecord
  2
ASURF_PCURVE_APPNAME
 70
     0
  0
APPID
  5
59D
330
9
100
AcDbSymbolTableRecord
100
AcDbRegAppTableRecord
  2
AMG_3D2D_5_0
 70
     0
  0
APPID
  5
59E
330
9
100
AcDbSymbolTableRecord
100
AcDbRegAppTableRecord
  2
DESIGNERASSEMBLIES
 70
     0
  0
APPID
  5
59F
330
9
100
AcDbSymbolTableRecord
100
AcDbRegAppTableRecord
  2
ACADM_DIM_EDIT
 70
     0
  0
APPID
  5
5A0
330
9
100
AcDbSymbolTableRecord
100
AcDbRegAppTableRecord
  2
AMDT_DM_ADJ
 70
     0
  0
APPID
  5
5A1
330
9
100
AcDbSymbolTableRecord
100
AcDbRegAppTableRecord
  2
GENIUS_GENSCREG_15
 70
     0
  0
APPID
  5
5A2
330
9
100
AcDbSymbolTableRecord
100
AcDbRegAppTableRecord
  2
GENIUS_GENOBJ-N-SDF_13
 70
     0
  0
APPID
  5
6E4
330
9
100
AcDbSymbolTableRecord
100
AcDbRegAppTableRecord
  2
GENIUS_GENOBJ-N-FIL_13
 70
     0
  0
APPID
  5
C65
330
9
100
AcDbSymbolTableRecord
100
AcDbRegAppTableRecord
  2
GENIUS_GENHINW_13
 70
     0
  0
APPID
  5
C66
330
9
100
AcDbSymbolTableRecord
100
AcDbRegAppTableRecord
  2
GENIUS_GENOBJ-F-TOLL_13
 70
     0
  0
APPID
  5
C67
330
9
100
AcDbSymbolTableRecord
100
AcDbRegAppTableRecord
  2
GENIUS_GENOREF_13
 70
     0
  0
APPID
  5
C68
330
9
100
AcDbSymbolTableRecord
100
AcDbRegAppTableRecord
  2
GENIUS_GENOLIS_13
 70
     0
  0
APPID
  5
C69
330
9
100
AcDbSymbolTableRecord
100
AcDbRegAppTableRecord
  2
GENIUS_GEFTOLC_13
 70
     0
  0
APPID
  5
C6A
330
9
100
AcDbSymbolTableRecord
100
AcDbRegAppTableRecord
  2
GENIUS_GENOBJ-F-TOL_13
 70
     0
  0
APPID
  5
C6B
330
9
100
AcDbSymbolTableRecord
100
AcDbRegAppTableRecord
  2
GENIUS_GENOBJ-N-RSSYM_13
 70
     0
  0
APPID
  5
C6C
330
9
100
AcDbSymbolTableRecord
100
AcDbRegAppTableRecord
  2
GENIUS_GENSYMENT_13
 70
     0
  0
APPID
  5
C6D
330
9
100
AcDbSymbolTableRecord
100
AcDbRegAppTableRecord
  2
GENIUS_GENSCSYM_13
 70
     0
  0
APPID
  5
203D
330
9
100
AcDbSymbolTableRecord
100
AcDbRegAppTableRecord
  2
GENIUS_GENBLLY_14
 70
     0
  0
APPID
  5
203E
330
9
100
AcDbSymbolTableRecord
100
AcDbRegAppTableRecord
  2
GENIUS_GENTRA_14
 70
     0
  0
APPID
  5
203F
330
9
100
AcDbSymbolTableRecord
100
AcDbRegAppTableRecord
  2
GENIUS_GENOBJ-N-TIT_13
 70
     0
  0
APPID
  5
2040
330
9
100
AcDbSymbolTableRecord
100
AcDbRegAppTableRecord
  2
GENIUS_GENTITLE_13
 70
     0
  0
APPID
  5
2041
330
9
100
AcDbSymbolTableRecord
100
AcDbRegAppTableRecord
  2
ACADIGES
 70
     0
  0
APPID
  5
2042
330
9
100
AcDbSymbolTableRecord
100
AcDbRegAppTableRecord
  2
GENIUS_GENOBJ-N-HTC_13
 70
     0
  0
APPID
  5
2043
330
9
100
AcDbSymbolTableRecord
100
AcDbRegAppTableRecord
  2
GENIUS_GENHATCH_13
 70
     0
  0
APPID
  5
2044
330
9
100
AcDbSymbolTableRecord
100
AcDbRegAppTableRecord
  2
GENIUS_GENOBJ-N-CRS_13
 70
     0
  0
APPID
  5
2045
330
9
100
AcDbSymbolTableRecord
100
AcDbRegAppTableRecord
  2
GENIUS_GENFIL_13
 70
     0
  0
APPID
  5
2046
330
9
100
AcDbSymbolTableRecord
100
AcDbRegAppTableRecord
  2
GENIUS_GENOBJ-N-CHA_13
 70
     0
  0
APPID
  5
2047
330
9
100
AcDbSymbolTableRecord
100
AcDbRegAppTableRecord
  2
GENIUS_GENOBJ-N-CEN_13
 70
     0
  0
APPID
  5
2048
330
9
100
AcDbSymbolTableRecord
100
AcDbRegAppTableRecord
  2
AD_SKETCHDIM
 70
     0
  0
APPID
  5
2579
330
9
100
AcDbSymbolTableRecord
100
AcDbRegAppTableRecord
  2
DCO15
 70
     0
  0
APPID
  5
257A
330
9
100
AcDbSymbolTableRecord
100
AcDbRegAppTableRecord
  2
GENIUS_GE3CFG0_13
 70
     0
  0
APPID
  5
257B
330
9
100
AcDbSymbolTableRecord
100
AcDbRegAppTableRecord
  2
GENIUS_GENZVEED_13
 70
     0
  0
APPID
  5
257C
330
9
100
AcDbSymbolTableRecord
100
AcDbRegAppTableRecord
  2
GENIUS_GENSCREG_13
 70
     0
  0
APPID
  5
257D
330
9
100
AcDbSymbolTableRecord
100
AcDbRegAppTableRecord
  2
GENIUS_GENOBJ-F-TOLS_13
 70
     0
  0
ENDTAB
  0
TABLE
  2
DIMSTYLE
  5
A
330
0
100
AcDbSymbolTable
 70
    35
  0
DIMSTYLE
105
6F
102
{ACAD_REACTORS
330
1A04
330
2462
330
29E9
330
2A1A
330
2A42
102
}
330
A
100
AcDbSymbolTableRecord
100
AcDbDimStyleTableRecord
  2
AM_DIN
 70
     0
  3

  4
"
  5

  6

  7

 40
1.0
 41
2.5
 42
0.0
 43
10.0
 44
1.0
 45
0.0
 46
0.0
 47
0.1
 48
0.1
140
3.5
141
0.0
142
0.0
143
0.0393701
144
1.0
145
0.0
146
0.71
147
1.5
 71
     0
 72
     0
 73
     0
 74
     0
 75
     0
 76
     0
 77
     1
 78
     8
170
     0
171
     2
172
     1
173
     0
174
     0
175
     0
176
   256
177
   256
178
     2
270
     2
271
     2
272
     2
273
     2
274
     2
340
11
275
     0
280
     0
281
     0
282
     0
283
     0
284
     8
285
     0
286
     0
287
     3
288
     0
  0
DIMSTYLE
105
70
330
A
100
AcDbSymbolTableRecord
100
AcDbDimStyleTableRecord
  2
AM_DIN$3
 70
     0
  3

  4
"
  5

  6

  7

 40
1.0
 41
3.5
 42
0.0
 43
10.0
 44
1.0
 45
0.0
 46
0.0
 47
0.1
 48
0.1
140
3.5
141
0.0
142
0.0
143
0.0393701
144
1.0
145
0.0
146
0.71
147
1.5
 71
     0
 72
     0
 73
     0
 74
     1
 75
     0
 76
     0
 77
     1
 78
     8
170
     0
171
     2
172
     0
173
     0
174
     0
175
     0
176
   256
177
   256
178
     2
270
     2
271
     2
272
     2
273
     2
274
     2
340
11
275
     0
280
     0
281
     0
282
     0
283
     0
284
     8
285
     0
286
     0
287
     0
288
     1
  0
DIMSTYLE
105
71
330
A
100
AcDbSymbolTableRecord
100
AcDbDimStyleTableRecord
  2
AM_DIN$4
 70
     0
  3

  4
"
  5

  6

  7

 40
1.0
 41
3.5
 42
0.0
 43
10.0
 44
1.0
 45
0.0
 46
0.0
 47
0.1
 48
0.1
140
3.5
141
0.0
142
0.0
143
0.0393701
144
1.0
145
0.0
146
0.71
147
1.5
 71
     0
 72
     0
 73
     0
 74
     1
 75
     0
 76
     0
 77
     1
 78
     8
170
     0
171
     2
172
     0
173
     0
174
     0
175
     0
176
   256
177
   256
178
     2
270
     2
271
     2
272
     2
273
     2
274
     2
340
11
275
     0
280
     0
281
     0
282
     0
283
     0
284
     8
285
     0
286
     0
287
     0
288
     1
  0
DIMSTYLE
105
72
330
A
100
AcDbSymbolTableRecord
100
AcDbDimStyleTableRecord
  2
AM_DIN$6
 70
     0
  3

  4
"
  5

  6

  7

 40
1.0
 41
3.5
 42
0.0
 43
0.0
 44
1.0
 45
0.0
 46
0.0
 47
0.1
 48
0.1
140
3.5
141
0.0
142
0.0
143
0.0393701
144
1.0
145
0.0
146
0.71
147
1.5
 71
     0
 72
     0
 73
     0
 74
     0
 75
     0
 76
     0
 77
     0
 78
     8
170
     0
171
     2
172
     1
173
     0
174
     0
175
     0
176
   256
177
   256
178
     2
270
     2
271
     2
272
     2
273
     2
274
     2
340
11
275
     0
280
     0
281
     0
282
     0
283
     0
284
     8
285
     0
286
     0
287
     3
288
     0
  0
DIMSTYLE
105
73
330
A
100
AcDbSymbolTableRecord
100
AcDbDimStyleTableRecord
  2
AM_DIN$7
 70
     0
  3

  4
"
  5

  6

  7

 40
1.0
 41
3.5
 42
0.0
 43
10.0
 44
1.0
 45
0.0
 46
0.0
 47
0.1
 48
0.1
140
3.5
141
0.0
142
0.0
143
0.0393701
144
1.0
145
0.0
146
0.71
147
1.5
 71
     0
 72
     0
 73
     0
 74
     0
 75
     0
 76
     0
 77
     1
 78
     8
170
     0
171
     2
172
     1
173
     0
174
     0
175
     0
176
   256
177
   256
178
     2
270
     2
271
     2
272
     2
273
     2
274
     2
340
11
275
     0
280
     0
281
     0
282
     0
283
     0
284
     8
285
     0
286
     0
287
     3
288
     0
  0
DIMSTYLE
105
74
330
A
100
AcDbSymbolTableRecord
100
AcDbDimStyleTableRecord
  2
AM_DIN$SF
 70
     0
  3

  4
"
  5

  6

  7

 40
1.0
 41
2.5
 42
1.0
 43
10.0
 44
1.0
 45
0.0
 46
0.0
 47
0.1
 48
0.1
140
3.5
141
0.0
142
0.0
143
0.0393701
144
1.0
145
0.0
146
0.71
147
1.5
 71
     0
 72
     0
 73
     0
 74
     0
 75
     1
 76
     1
 77
     1
 78
     8
170
     0
171
     2
172
     1
173
     0
174
     0
175
     0
176
   256
177
   256
178
     2
270
     2
271
     2
272
     3
273
     2
274
     4
340
11
275
     0
280
     0
281
     0
282
     0
283
     0
284
     8
285
     0
286
     0
287
     3
288
     0
  0
DIMSTYLE
105
79
330
A
100
AcDbSymbolTableRecord
100
AcDbDimStyleTableRecord
  2
AM_DIN$SH
 70
     0
  3

  4
"
  5

  6
GENAXEH
  7

 40
1.0
 41
2.5
 42
1.0
 43
10.0
 44
1.0
 45
0.0
 46
0.0
 47
0.1
 48
0.1
140
3.5
141
0.0
142
0.0
143
0.0393701
144
2.0
145
0.0
146
0.71
147
1.5
 71
     0
 72
     0
 73
     0
 74
     0
 75
     1
 76
     1
 77
     1
 78
     8
170
     0
171
     2
172
     1
173
     1
174
     0
175
     0
176
   256
177
   256
178
     2
270
     2
271
     2
272
     3
273
     2
274
     4
340
11
275
     0
280
     0
281
     0
282
     0
283
     0
284
     8
285
     0
286
     0
287
     3
288
     0
  0
DIMSTYLE
105
2036
330
A
100
AcDbSymbolTableRecord
100
AcDbDimStyleTableRecord
  2
STANDARD
 70
     0
  3

  4

  5

  6

  7

 40
1.0
 41
0.18
 42
0.0625
 43
0.38
 44
0.18
 45
0.0
 46
0.0
 47
0.0
 48
0.0
140
0.18
141
0.09
142
0.0
143
25.4
144
1.0
145
0.0
146
1.0
147
0.09
 71
     0
 72
     0
 73
     1
 74
     1
 75
     0
 76
     0
 77
     0
 78
     0
170
     0
171
     2
172
     0
173
     0
174
     0
175
     0
176
     0
177
     0
178
     0
270
     2
271
     2
272
     2
273
     2
274
     2
340
11
275
     0
280
     0
281
     0
282
     0
283
     1
284
     8
285
     8
286
     8
287
     5
288
     0
  0
DIMSTYLE
105
2037
330
A
100
AcDbSymbolTableRecord
100
AcDbDimStyleTableRecord
  2
AM_ANSI
 70
     0
  3

  4
mm
  5

  6

  7

 40
1.0
 41
0.1
 42
0.0
 43
0.5
 44
0.1
 45
0.0
 46
0.0
 47
0.1
 48
0.1
140
0.12
141
0.0
142
0.0
143
25.4
144
1.0
145
0.0
146
0.71
147
0.06
 71
     0
 72
     0
 73
     1
 74
     1
 75
     0
 76
     0
 77
     0
 78
     7
170
     0
171
     2
172
     0
173
     0
174
     0
175
     0
176
   256
177
   256
178
     2
270
     2
271
     2
272
     2
273
     2
274
     2
340
11
275
     0
280
     0
281
     0
282
     0
283
     1
284
     8
285
     8
286
     8
287
     5
288
     0
  0
DIMSTYLE
105
2038
330
A
100
AcDbSymbolTableRecord
100
AcDbDimStyleTableRecord
  2
AM_ANSI$3
 70
     0
  3

  4
mm
  5

  6

  7

 40
1.0
 41
0.1
 42
0.0
 43
0.5
 44
0.1
 45
0.0
 46
0.0
 47
0.1
 48
0.1
140
0.12
141
0.0
142
0.0
143
25.4
144
1.0
145
0.0
146
0.71
147
0.06
 71
     0
 72
     0
 73
     1
 74
     1
 75
     0
 76
     0
 77
     0
 78
     7
170
     0
171
     2
172
     0
173
     0
174
     0
175
     0
176
   256
177
   256
178
     2
270
     2
271
     2
272
     2
273
     2
274
     2
340
11
275
     0
280
     0
281
     0
282
     0
283
     1
284
     8
285
     8
286
     8
287
     5
288
     0
  0
DIMSTYLE
105
2039
330
A
100
AcDbSymbolTableRecord
100
AcDbDimStyleTableRecord
  2
AM_ANSI$4
 70
     0
  3

  4
mm
  5

  6

  7

 40
1.0
 41
0.1
 42
0.0
 43
0.5
 44
0.1
 45
0.0
 46
0.0
 47
0.1
 48
0.1
140
0.12
141
0.0
142
0.0
143
25.4
144
1.0
145
0.0
146
0.71
147
0.06
 71
     0
 72
     0
 73
     1
 74
     1
 75
     0
 76
     0
 77
     0
 78
     7
170
     0
171
     2
172
     0
173
     0
174
     0
175
     0
176
   256
177
   256
178
     2
270
     2
271
     2
272
     2
273
     2
274
     2
340
11
275
     0
280
     0
281
     0
282
     0
283
     1
284
     8
285
     8
286
     8
287
     5
288
     0
  0
DIMSTYLE
105
203A
330
A
100
AcDbSymbolTableRecord
100
AcDbDimStyleTableRecord
  2
AM_ANSI$7
 70
     0
  3

  4
mm
  5

  6

  7

 40
1.0
 41
0.1
 42
0.0
 43
0.5
 44
0.1
 45
0.0
 46
0.0
 47
0.1
 48
0.1
140
0.24
141
0.0
142
0.0
143
25.4
144
1.0
145
0.0
146
0.71
147
0.06
 71
     0
 72
     0
 73
     1
 74
     1
 75
     0
 76
     0
 77
     0
 78
     7
170
     0
171
     2
172
     0
173
     0
174
     0
175
     0
176
   256
177
   256
178
     2
270
     2
271
     2
272
     2
273
     2
274
     2
340
11
275
     0
280
     0
281
     0
282
     0
283
     1
284
     8
285
     8
286
     8
287
     5
288
     0
  0
DIMSTYLE
105
203B
330
A
100
AcDbSymbolTableRecord
100
AcDbDimStyleTableRecord
  2
AM_ANSI$SF
 70
     0
  3

  4
mm
  5

  6

  7

 40
1.0
 41
0.1
 42
0.05
 43
0.5
 44
0.1
 45
0.0
 46
0.0
 47
0.1
 48
0.1
140
0.12
141
0.0
142
0.0
143
25.4
144
1.0
145
0.0
146
0.71
147
0.06
 71
     0
 72
     0
 73
     1
 74
     1
 75
     1
 76
     1
 77
     0
 78
     7
170
     0
171
     2
172
     0
173
     0
174
     0
175
     0
176
   256
177
   256
178
     2
270
     2
271
     2
272
     2
273
     2
274
     2
340
11
275
     0
280
     0
281
     0
282
     0
283
     1
284
     8
285
     8
286
     8
287
     5
288
     0
  0
DIMSTYLE
105
203C
330
A
100
AcDbSymbolTableRecord
100
AcDbDimStyleTableRecord
  2
AM_ANSI$SH
 70
     0
  3

  4
mm
  5

  6

  7

 40
1.0
 41
0.1
 42
0.05
 43
0.5
 44
0.1
 45
0.0
 46
0.0
 47
0.1
 48
0.1
140
0.12
141
0.0
142
0.0
143
25.4
144
1.0
145
0.0
146
0.71
147
0.06
 71
     0
 72
     0
 73
     1
 74
     1
 75
     1
 76
     1
 77
     0
 78
     7
170
     0
171
     2
172
     0
173
     1
174
     0
175
     0
176
   256
177
   256
178
     2
270
     2
271
     2
272
     2
273
     2
274
     2
340
11
275
     0
280
     0
281
     0
282
     0
283
     1
284
     8
285
     8
286
     8
287
     5
288
     0
  0
DIMSTYLE
105
2564
330
A
100
AcDbSymbolTableRecord
100
AcDbDimStyleTableRecord
  2
AM_BSI
 70
     0
  3

  4
"
  5

  6

  7

 40
1.0
 41
4.0
 42
1.0
 43
10.0
 44
1.0
 45
0.0
 46
0.0
 47
0.1
 48
0.1
140
3.5
141
0.0
142
0.0
143
0.0393701
144
1.0
145
0.0
146
0.71
147
1.5
 71
     0
 72
     0
 73
     0
 74
     0
 75
     0
 76
     0
 77
     1
 78
     8
170
     0
171
     2
172
     1
173
     0
174
     0
175
     0
176
   256
177
   256
178
     2
270
     2
271
     2
272
     3
273
     2
274
     4
340
11
275
     0
280
     0
281
     0
282
     0
283
     0
284
     8
285
     0
286
     0
287
     3
288
     0
  0
DIMSTYLE
105
2565
330
A
100
AcDbSymbolTableRecord
100
AcDbDimStyleTableRecord
  2
AM_BSI$3
 70
     0
  3

  4
"
  5

  6

  7

 40
1.0
 41
4.0
 42
1.0
 43
10.0
 44
1.0
 45
0.0
 46
0.0
 47
0.1
 48
0.1
140
3.5
141
0.0
142
0.0
143
0.0393701
144
1.0
145
0.0
146
0.71
147
1.5
 71
     0
 72
     0
 73
     0
 74
     1
 75
     0
 76
     0
 77
     1
 78
     8
170
     0
171
     2
172
     0
173
     0
174
     0
175
     0
176
   256
177
   256
178
     2
270
     2
271
     2
272
     3
273
     2
274
     4
340
11
275
     0
280
     0
281
     0
282
     0
283
     0
284
     8
285
     0
286
     0
287
     0
288
     1
  0
DIMSTYLE
105
2566
330
A
100
AcDbSymbolTableRecord
100
AcDbDimStyleTableRecord
  2
AM_BSI$4
 70
     0
  3

  4
"
  5

  6

  7

 40
1.0
 41
4.0
 42
1.0
 43
10.0
 44
1.0
 45
0.0
 46
0.0
 47
0.1
 48
0.1
140
3.5
141
0.0
142
0.0
143
0.0393701
144
1.0
145
0.0
146
0.71
147
1.5
 71
     0
 72
     0
 73
     0
 74
     1
 75
     0
 76
     0
 77
     1
 78
     8
170
     0
171
     2
172
     0
173
     0
174
     0
175
     0
176
   256
177
   256
178
     2
270
     2
271
     2
272
     3
273
     2
274
     4
340
11
275
     0
280
     0
281
     0
282
     0
283
     0
284
     8
285
     0
286
     0
287
     0
288
     1
  0
DIMSTYLE
105
2567
330
A
100
AcDbSymbolTableRecord
100
AcDbDimStyleTableRecord
  2
AM_BSI$6
 70
     0
  3

  4
"
  5

  6

  7

 40
1.0
 41
4.0
 42
1.0
 43
10.0
 44
1.0
 45
0.0
 46
0.0
 47
0.1
 48
0.1
140
3.5
141
0.0
142
0.0
143
0.0393701
144
1.0
145
0.0
146
0.71
147
1.5
 71
     0
 72
     0
 73
     0
 74
     0
 75
     0
 76
     0
 77
     0
 78
     8
170
     0
171
     2
172
     1
173
     0
174
     0
175
     0
176
   256
177
   256
178
     2
270
     2
271
     2
272
     3
273
     2
274
     4
340
11
275
     0
280
     0
281
     0
282
     0
283
     0
284
     8
285
     0
286
     0
287
     3
288
     0
  0
DIMSTYLE
105
2568
330
A
100
AcDbSymbolTableRecord
100
AcDbDimStyleTableRecord
  2
AM_BSI$7
 70
     0
  3

  4
"
  5

  6

  7

 40
1.0
 41
2.5
 42
1.0
 43
10.0
 44
1.0
 45
0.0
 46
0.0
 47
0.1
 48
0.1
140
5.0
141
0.0
142
0.0
143
0.0393701
144
1.0
145
0.0
146
0.71
147
1.5
 71
     0
 72
     0
 73
     0
 74
     0
 75
     0
 76
     0
 77
     1
 78
     8
170
     0
171
     2
172
     1
173
     0
174
     0
175
     0
176
   256
177
   256
178
     2
270
     2
271
     2
272
     3
273
     2
274
     4
340
11
275
     0
280
     0
281
     0
282
     0
283
     0
284
     8
285
     0
286
     0
287
     3
288
     0
  0
DIMSTYLE
105
2569
330
A
100
AcDbSymbolTableRecord
100
AcDbDimStyleTableRecord
  2
AM_BSI$SF
 70
     0
  3

  4
"
  5

  6

  7

 40
1.0
 41
4.0
 42
1.0
 43
10.0
 44
1.0
 45
0.0
 46
0.0
 47
0.1
 48
0.1
140
3.5
141
0.0
142
0.0
143
0.0393701
144
1.0
145
0.0
146
0.71
147
1.5
 71
     0
 72
     0
 73
     0
 74
     0
 75
     1
 76
     1
 77
     1
 78
     8
170
     0
171
     2
172
     1
173
     0
174
     0
175
     0
176
   256
177
   256
178
     2
270
     2
271
     2
272
     3
273
     2
274
     4
340
11
275
     0
280
     0
281
     0
282
     0
283
     0
284
     8
285
     0
286
     0
287
     3
288
     0
  0
DIMSTYLE
105
256A
330
A
100
AcDbSymbolTableRecord
100
AcDbDimStyleTableRecord
  2
AM_BSI$SH
 70
     0
  3

  4
"
  5

  6
GENAXEH
  7

 40
1.0
 41
4.0
 42
1.0
 43
10.0
 44
1.0
 45
0.0
 46
0.0
 47
0.1
 48
0.1
140
3.5
141
0.0
142
0.0
143
0.0393701
144
2.0
145
0.0
146
0.71
147
1.5
 71
     0
 72
     0
 73
     0
 74
     0
 75
     1
 76
     1
 77
     1
 78
     8
170
     0
171
     2
172
     1
173
     1
174
     0
175
     0
176
   256
177
   256
178
     2
270
     2
271
     2
272
     3
273
     2
274
     4
340
11
275
     0
280
     0
281
     0
282
     0
283
     0
284
     8
285
     0
286
     0
287
     3
288
     0
  0
DIMSTYLE
105
256B
330
A
100
AcDbSymbolTableRecord
100
AcDbDimStyleTableRecord
  2
AM_ISO
 70
     0
  3

  4
"
  5

  6

  7

 40
1.0
 41
2.5
 42
1.0
 43
10.0
 44
1.0
 45
0.0
 46
0.0
 47
0.1
 48
0.1
140
3.5
141
0.0
142
0.0
143
0.0393701
144
1.0
145
0.0
146
0.71
147
1.5
 71
     0
 72
     0
 73
     0
 74
     0
 75
     0
 76
     0
 77
     1
 78
     8
170
     0
171
     2
172
     1
173
     0
174
     0
175
     0
176
   256
177
   256
178
     2
270
     2
271
     2
272
     3
273
     2
274
     4
340
11
275
     0
280
     0
281
     0
282
     0
283
     0
284
     8
285
     0
286
     0
287
     3
288
     0
  0
DIMSTYLE
105
256C
330
A
100
AcDbSymbolTableRecord
100
AcDbDimStyleTableRecord
  2
AM_ISO$3
 70
     0
  3

  4
"
  5

  6

  7

 40
1.0
 41
2.5
 42
1.0
 43
10.0
 44
1.0
 45
0.0
 46
0.0
 47
0.1
 48
0.1
140
3.5
141
0.0
142
0.0
143
0.0393701
144
1.0
145
0.0
146
0.71
147
1.5
 71
     0
 72
     0
 73
     0
 74
     1
 75
     0
 76
     0
 77
     1
 78
     8
170
     0
171
     2
172
     0
173
     0
174
     0
175
     0
176
   256
177
   256
178
     2
270
     2
271
     2
272
     3
273
     2
274
     4
340
11
275
     0
280
     0
281
     0
282
     0
283
     0
284
     8
285
     0
286
     0
287
     0
288
     1
  0
DIMSTYLE
105
256D
330
A
100
AcDbSymbolTableRecord
100
AcDbDimStyleTableRecord
  2
AM_ISO$4
 70
     0
  3

  4
"
  5

  6

  7

 40
1.0
 41
2.5
 42
1.0
 43
10.0
 44
1.0
 45
0.0
 46
0.0
 47
0.1
 48
0.1
140
3.5
141
0.0
142
0.0
143
0.0393701
144
1.0
145
0.0
146
0.71
147
1.5
 71
     0
 72
     0
 73
     0
 74
     1
 75
     0
 76
     0
 77
     1
 78
     8
170
     0
171
     2
172
     0
173
     0
174
     0
175
     0
176
   256
177
   256
178
     2
270
     2
271
     2
272
     3
273
     2
274
     4
340
11
275
     0
280
     0
281
     0
282
     0
283
     0
284
     8
285
     0
286
     0
287
     0
288
     1
  0
DIMSTYLE
105
256E
330
A
100
AcDbSymbolTableRecord
100
AcDbDimStyleTableRecord
  2
AM_ISO$6
 70
     0
  3

  4
"
  5

  6

  7

 40
1.0
 41
2.5
 42
1.0
 43
10.0
 44
1.0
 45
0.0
 46
0.0
 47
0.1
 48
0.1
140
3.5
141
0.0
142
0.0
143
0.0393701
144
1.0
145
0.0
146
0.71
147
1.5
 71
     0
 72
     0
 73
     0
 74
     0
 75
     0
 76
     0
 77
     0
 78
     8
170
     0
171
     2
172
     1
173
     0
174
     0
175
     0
176
   256
177
   256
178
     2
270
     2
271
     2
272
     3
273
     2
274
     4
340
11
275
     0
280
     0
281
     0
282
     0
283
     0
284
     8
285
     0
286
     0
287
     3
288
     0
  0
DIMSTYLE
105
256F
330
A
100
AcDbSymbolTableRecord
100
AcDbDimStyleTableRecord
  2
AM_ISO$7
 70
     0
  3

  4
"
  5

  6

  7

 40
1.0
 41
2.5
 42
1.0
 43
10.0
 44
1.0
 45
0.0
 46
0.0
 47
0.1
 48
0.1
140
5.0
141
0.0
142
0.0
143
0.0393701
144
1.0
145
0.0
146
0.71
147
1.5
 71
     0
 72
     0
 73
     0
 74
     0
 75
     0
 76
     0
 77
     1
 78
     8
170
     0
171
     2
172
     1
173
     0
174
     0
175
     0
176
   256
177
   256
178
     2
270
     2
271
     2
272
     3
273
     2
274
     4
340
11
275
     0
280
     0
281
     0
282
     0
283
     0
284
     8
285
     0
286
     0
287
     3
288
     0
  0
DIMSTYLE
105
2570
330
A
100
AcDbSymbolTableRecord
100
AcDbDimStyleTableRecord
  2
AM_ISO$SF
 70
     0
  3

  4
"
  5

  6

  7

 40
1.0
 41
2.5
 42
1.0
 43
10.0
 44
1.0
 45
0.0
 46
0.0
 47
0.1
 48
0.1
140
3.5
141
0.0
142
0.0
143
0.0393701
144
1.0
145
0.0
146
0.71
147
1.5
 71
     0
 72
     0
 73
     0
 74
     0
 75
     1
 76
     1
 77
     1
 78
     8
170
     0
171
     2
172
     1
173
     0
174
     0
175
     0
176
   256
177
   256
178
     2
270
     2
271
     2
272
     3
273
     2
274
     4
340
11
275
     0
280
     0
281
     0
282
     0
283
     0
284
     8
285
     0
286
     0
287
     3
288
     0
  0
DIMSTYLE
105
2571
330
A
100
AcDbSymbolTableRecord
100
AcDbDimStyleTableRecord
  2
AM_ISO$SH
 70
     0
  3

  4
"
  5

  6
GENAXEH
  7

 40
1.0
 41
2.5
 42
1.0
 43
10.0
 44
1.0
 45
0.0
 46
0.0
 47
0.1
 48
0.1
140
3.5
141
0.0
142
0.0
143
0.0393701
144
2.0
145
0.0
146
0.71
147
1.5
 71
     0
 72
     0
 73
     0
 74
     0
 75
     1
 76
     1
 77
     1
 78
     8
170
     0
171
     2
172
     1
173
     1
174
     0
175
     0
176
   256
177
   256
178
     2
270
     2
271
     2
272
     3
273
     2
274
     4
340
11
275
     0
280
     0
281
     0
282
     0
283
     0
284
     8
285
     0
286
     0
287
     3
288
     0
  0
DIMSTYLE
105
2572
330
A
100
AcDbSymbolTableRecord
100
AcDbDimStyleTableRecord
  2
AM_JIS
 70
     0
  3

  4
"
  5
OPEN30
  6
OPEN30
  7
OPEN30
 40
1.0
 41
2.5
 42
1.0
 43
10.0
 44
1.0
 45
0.0
 46
0.0
 47
0.1
 48
0.1
140
3.5
141
0.0
142
0.0
143
0.0393701
144
1.0
145
0.0
146
0.71
147
1.5
 71
     0
 72
     0
 73
     0
 74
     0
 75
     0
 76
     0
 77
     3
 78
     8
170
     0
171
     2
172
     1
173
     0
174
     0
175
     0
176
   256
177
   256
178
     2
270
     2
271
     2
272
     3
273
     2
274
     4
340
11
275
     0
280
     0
281
     0
282
     0
283
     0
284
     8
285
     0
286
     0
287
     3
288
     0
  0
DIMSTYLE
105
2573
330
A
100
AcDbSymbolTableRecord
100
AcDbDimStyleTableRecord
  2
AM_JIS$3
 70
     0
  3

  4
"
  5
OPEN30
  6
OPEN30
  7
OPEN30
 40
1.0
 41
2.5
 42
1.0
 43
10.0
 44
1.0
 45
0.0
 46
0.0
 47
0.1
 48
0.1
140
3.5
141
0.0
142
0.0
143
0.0393701
144
1.0
145
0.0
146
0.71
147
1.5
 71
     0
 72
     0
 73
     0
 74
     1
 75
     0
 76
     0
 77
     3
 78
     8
170
     0
171
     2
172
     0
173
     0
174
     0
175
     0
176
   256
177
   256
178
     2
270
     2
271
     2
272
     3
273
     2
274
     4
340
11
275
     0
280
     0
281
     0
282
     0
283
     0
284
     8
285
     0
286
     0
287
     0
288
     1
  0
DIMSTYLE
105
2574
330
A
100
AcDbSymbolTableRecord
100
AcDbDimStyleTableRecord
  2
AM_JIS$4
 70
     0
  3

  4
"
  5
OPEN30
  6
OPEN30
  7
OPEN30
 40
1.0
 41
2.5
 42
1.0
 43
10.0
 44
1.0
 45
0.0
 46
0.0
 47
0.1
 48
0.1
140
3.5
141
0.0
142
0.0
143
0.0393701
144
1.0
145
0.0
146
0.71
147
1.5
 71
     0
 72
     0
 73
     0
 74
     1
 75
     0
 76
     0
 77
     3
 78
     8
170
     0
171
     2
172
     0
173
     0
174
     0
175
     0
176
   256
177
   256
178
     2
270
     2
271
     2
272
     3
273
     2
274
     4
340
11
275
     0
280
     0
281
     0
282
     0
283
     0
284
     8
285
     0
286
     0
287
     0
288
     1
  0
DIMSTYLE
105
2575
330
A
100
AcDbSymbolTableRecord
100
AcDbDimStyleTableRecord
  2
AM_JIS$6
 70
     0
  3

  4
"
  5
OPEN30
  6
OPEN30
  7
OPEN30
 40
1.0
 41
2.5
 42
1.0
 43
10.0
 44
1.0
 45
0.0
 46
0.0
 47
0.1
 48
0.1
140
3.5
141
0.0
142
0.0
143
0.0393701
144
1.0
145
0.0
146
0.71
147
1.5
 71
     0
 72
     0
 73
     0
 74
     0
 75
     0
 76
     0
 77
     0
 78
     8
170
     0
171
     2
172
     1
173
     0
174
     0
175
     0
176
   256
177
   256
178
     2
270
     2
271
     2
272
     3
273
     2
274
     4
340
11
275
     0
280
     0
281
     0
282
     0
283
     0
284
     8
285
     0
286
     0
287
     3
288
     0
  0
DIMSTYLE
105
2576
330
A
100
AcDbSymbolTableRecord
100
AcDbDimStyleTableRecord
  2
AM_JIS$7
 70
     0
  3

  4
"
  5
OPEN30
  6
OPEN30
  7
OPEN30
 40
1.0
 41
2.5
 42
1.0
 43
10.0
 44
1.0
 45
0.0
 46
0.0
 47
0.1
 48
0.1
140
5.0
141
0.0
142
0.0
143
0.0393701
144
1.0
145
0.0
146
0.71
147
1.5
 71
     0
 72
     0
 73
     0
 74
     0
 75
     0
 76
     0
 77
     3
 78
     8
170
     0
171
     2
172
     1
173
     0
174
     0
175
     0
176
   256
177
   256
178
     2
270
     2
271
     2
272
     3
273
     2
274
     4
340
11
275
     0
280
     0
281
     0
282
     0
283
     0
284
     8
285
     0
286
     0
287
     3
288
     0
  0
DIMSTYLE
105
2577
330
A
100
AcDbSymbolTableRecord
100
AcDbDimStyleTableRecord
  2
AM_JIS$SF
 70
     0
  3

  4
"
  5
OPEN30
  6
OPEN30
  7
OPEN30
 40
1.0
 41
2.5
 42
1.0
 43
10.0
 44
1.0
 45
0.0
 46
0.0
 47
0.1
 48
0.1
140
3.5
141
0.0
142
0.0
143
0.0393701
144
1.0
145
0.0
146
0.71
147
1.5
 71
     0
 72
     0
 73
     0
 74
     0
 75
     1
 76
     1
 77
     3
 78
     8
170
     0
171
     2
172
     1
173
     0
174
     0
175
     0
176
   256
177
   256
178
     2
270
     2
271
     2
272
     3
273
     2
274
     4
340
11
275
     0
280
     0
281
     0
282
     0
283
     0
284
     8
285
     0
286
     0
287
     3
288
     0
  0
DIMSTYLE
105
2578
330
A
100
AcDbSymbolTableRecord
100
AcDbDimStyleTableRecord
  2
AM_JIS$SH
 70
     0
  3

  4
"
  5
OPEN30
  6
GENAXEH
  7
OPEN30
 40
1.0
 41
2.5
 42
1.0
 43
10.0
 44
1.0
 45
0.0
 46
0.0
 47
0.1
 48
0.1
140
3.5
141
0.0
142
0.0
143
0.0393701
144
2.0
145
0.0
146
0.71
147
1.5
 71
     0
 72
     0
 73
     0
 74
     0
 75
     1
 76
     1
 77
     3
 78
     8
170
     0
171
     2
172
     1
173
     1
174
     0
175
     0
176
   256
177
   256
178
     2
270
     2
271
     2
272
     3
273
     2
274
     4
340
11
275
     0
280
     0
281
     0
282
     0
283
     0
284
     8
285
     0
286
     0
287
     3
288
     0
  0
ENDTAB
  0
TABLE
  2
BLOCK_RECORD
  5
1
330
0
100
AcDbSymbolTable
 70
    21
  0
BLOCK_RECORD
  5
1F
102
{ACAD_XDICTIONARY
360
1F1
102
}
330
1
100
AcDbSymbolTableRecord
100
AcDbBlockTableRecord
  2
*MODEL_SPACE
  0
BLOCK_RECORD
  5
1B
102
{ACAD_XDICTIONARY
360
2FC5
102
}
330
1
100
AcDbSymbolTableRecord
100
AcDbBlockTableRecord
  2
*PAPER_SPACE
  0
BLOCK_RECORD
  5
75
330
1
100
AcDbSymbolTableRecord
100
AcDbBlockTableRecord
  2
GENAXEH
  0
BLOCK_RECORD
  5
1A05
330
1
100
AcDbSymbolTableRecord
100
AcDbBlockTableRecord
  2
*D2
  0
BLOCK_RECORD
  5
2463
330
1
100
AcDbSymbolTableRecord
100
AcDbBlockTableRecord
  2
*D3
  0
BLOCK_RECORD
  5
252C
330
1
100
AcDbSymbolTableRecord
100
AcDbBlockTableRecord
  2
_OPEN30
  0
BLOCK_RECORD
  5
29EA
330
1
100
AcDbSymbolTableRecord
100
AcDbBlockTableRecord
  2
*D5
  0
BLOCK_RECORD
  5
2A1B
330
1
100
AcDbSymbolTableRecord
100
AcDbBlockTableRecord
  2
*D6
  0
BLOCK_RECORD
  5
2A43
330
1
100
AcDbSymbolTableRecord
100
AcDbBlockTableRecord
  2
*D7
  0
ENDTAB
  0
ENDSEC
  0
SECTION
  2
BLOCKS
  0
BLOCK
  5
20
330
1F
100
AcDbEntity
  8
0
100
AcDbBlockBegin
  2
*MODEL_SPACE
 70
     0
 10
0.0
 20
0.0
 30
0.0
  3
*MODEL_SPACE
  1

  0
ENDBLK
  5
21
330
1F
100
AcDbEntity
  8
0
100
AcDbBlockEnd
  0
BLOCK
  5
1C
330
1B
100
AcDbEntity
 67
     1
  8
0
100
AcDbBlockBegin
  2
*PAPER_SPACE
 70
     0
 10
0.0
 20
0.0
 30
0.0
  3
*PAPER_SPACE
  1

  0
ENDBLK
  5
1D
330
1B
100
AcDbEntity
 67
     1
  8
0
100
AcDbBlockEnd
  0
BLOCK
  5
77
330
75
100
AcDbEntity
  8
0
100
AcDbBlockBegin
  2
GENAXEH
 70
     0
 10
0.0
 20
0.0
 30
0.0
  3
GENAXEH
  1

  0
LINE
  5
76
330
75
100
AcDbEntity
  8
0
100
AcDbLine
 10
-1.0
 20
0.0
 30
0.0
 11
1.0
 21
0.0
 31
0.0
  0
ENDBLK
  5
78
330
75
100
AcDbEntity
  8
0
100
AcDbBlockEnd
  0
BLOCK
  5
1A0F
330
1A05
100
AcDbEntity
  8
0
100
AcDbBlockBegin
  2
*D2
 70
     1
 10
0.0
 20
0.0
 30
0.0
  3
*D2
  1

  0
LINE
  5
232A
330
1A05
100
AcDbEntity
  8
SK2
100
AcDbLine
 10
0.0
 20
-20.00000000000306
 30
0.0
 11
-19.81731907927395
 21
-20.00000000000306
 31
0.0
  0
LINE
  5
232B
330
1A05
100
AcDbEntity
  8
SK2
100
AcDbLine
 10
0.0000000000001137
 20
19.99999999999687
 30
0.0
 11
-19.81731907927394
 21
19.99999999999687
 31
0.0
  0
LINE
  5
232C
330
1A05
100
AcDbEntity
  8
SK2
100
AcDbLine
 10
-18.81731907927395
 20
-17.50000000000306
 30
0.0
 11
-18.81731907927394
 21
17.49999999999687
 31
0.0
  0
SOLID
  5
232D
330
1A05
100
AcDbEntity
  8
SK2
100
AcDbTrace
 10
-19.23398574594061
 20
-17.50000000000306
 30
0.0
 11
-18.40065241260728
 21
-17.50000000000306
 31
0.0
 12
-18.81731907927395
 22
-20.00000000000306
 32
0.0
 13
-18.81731907927395
 23
-20.00000000000306
 33
0.0
  0
SOLID
  5
232E
330
1A05
100
AcDbEntity
  8
SK2
100
AcDbTrace
 10
-19.23398574594061
 20
17.49999999999687
 30
0.0
 11
-18.40065241260727
 21
17.49999999999687
 31
0.0
 12
-18.81731907927394
 22
19.99999999999687
 32
0.0
 13
-18.81731907927394
 23
19.99999999999687
 33
0.0
  0
MTEXT
  5
232F
330
1A05
100
AcDbEntity
  8
SK2
 62
     2
100
AcDbMText
 10
-22.06731907927394
 20
-0.0000000000030964
 30
0.0
 40
3.5
 41
0.0
 71
     5
 72
     1
  1
%%c40
 11
0.0000000000000001
 21
1.0
 31
0.0
1001
ACAD
1000
MTEXTBEGIN
1070
    73
1070
     1
1070
    44
1040
1.0
1070
    74
1070
     0
1000
MTEXTEND
  0
POINT
  5
2330
330
1A05
100
AcDbEntity
  8
DEFPOINTS
 62
     0
100
AcDbPoint
 10
0.0
 20
-20.00000000000306
 30
0.0
  0
POINT
  5
2331
330
1A05
100
AcDbEntity
  8
DEFPOINTS
 62
     0
100
AcDbPoint
 10
0.0000000000001137
 20
19.99999999999687
 30
0.0
  0
POINT
  5
2332
330
1A05
100
AcDbEntity
  8
DEFPOINTS
 62
     0
100
AcDbPoint
 10
-18.81731907927394
 20
19.99999999999687
 30
0.0
  0
ENDBLK
  5
1A10
330
1A05
100
AcDbEntity
  8
0
100
AcDbBlockEnd
  0
BLOCK
  5
246D
330
2463
100
AcDbEntity
  8
0
100
AcDbBlockBegin
  2
*D3
 70
     1
 10
0.0
 20
0.0
 30
0.0
  3
*D3
  1

  0
LINE
  5
297B
330
2463
100
AcDbEntity
  8
SK2
100
AcDbLine
 10
3.000000000000157
 20
57.00000000000017
 30
0.0
 11
-38.15151073969124
 21
57.00000000000017
 31
0.0
  0
LINE
  5
297C
330
2463
100
AcDbEntity
  8
SK2
100
AcDbLine
 10
3.00000000000008
 20
-56.99999999999988
 30
0.0
 11
-38.15151073969127
 21
-56.99999999999987
 31
0.0
  0
LINE
  5
297D
330
2463
100
AcDbEntity
  8
SK2
100
AcDbLine
 10
-37.15151073969124
 20
54.50000000000017
 30
0.0
 11
-37.15151073969126
 21
-54.49999999999987
 31
0.0
  0
SOLID
  5
297E
330
2463
100
AcDbEntity
  8
SK2
100
AcDbTrace
 10
-37.5681774063579
 20
54.50000000000017
 30
0.0
 11
-36.73484407302457
 21
54.50000000000017
 31
0.0
 12
-37.15151073969124
 22
57.00000000000017
 32
0.0
 13
-37.15151073969124
 23
57.00000000000017
 33
0.0
  0
SOLID
  5
297F
330
2463
100
AcDbEntity
  8
SK2
100
AcDbTrace
 10
-37.56817740635793
 20
-54.49999999999987
 30
0.0
 11
-36.7348440730246
 21
-54.49999999999987
 31
0.0
 12
-37.15151073969126
 22
-56.99999999999987
 32
0.0
 13
-37.15151073969126
 23
-56.99999999999987
 33
0.0
  0
MTEXT
  5
2980
330
2463
100
AcDbEntity
  8
SK2
 62
     2
100
AcDbMText
 10
-40.40151073969125
 20
0.0000000000001483
 30
0.0
 40
3.5
 41
0.0
 71
     5
 72
     1
  1
%%c114
 11
0.0000000000000001
 21
1.0
 31
0.0
1001
ACAD
1000
MTEXTBEGIN
1070
    73
1070
     1
1070
    44
1040
1.0
1070
    74
1070
     0
1000
MTEXTEND
  0
POINT
  5
2981
330
2463
100
AcDbEntity
  8
DEFPOINTS
 62
     0
100
AcDbPoint
 10
3.000000000000157
 20
57.00000000000017
 30
0.0
  0
POINT
  5
2982
330
2463
100
AcDbEntity
  8
DEFPOINTS
 62
     0
100
AcDbPoint
 10
3.00000000000008
 20
-56.99999999999988
 30
0.0
  0
POINT
  5
2983
330
2463
100
AcDbEntity
  8
DEFPOINTS
 62
     0
100
AcDbPoint
 10
-37.15151073969126
 20
-56.99999999999987
 30
0.0
  0
ENDBLK
  5
246E
330
2463
100
AcDbEntity
  8
0
100
AcDbBlockEnd
  0
BLOCK
  5
2530
330
252C
100
AcDbEntity
  8
0
100
AcDbBlockBegin
  2
_OPEN30
 70
     0
 10
0.0
 20
0.0
 30
0.0
  3
_OPEN30
  1

  0
LINE
  5
252D
330
252C
100
AcDbEntity
  8
0
  6
BYBLOCK
 62
     0
100
AcDbLine
 10
-1.0
 20
0.26794919
 30
0.0
 11
0.0
 21
0.0
 31
0.0
  0
LINE
  5
252E
330
252C
100
AcDbEntity
  8
0
  6
BYBLOCK
 62
     0
100
AcDbLine
 10
0.0
 20
0.0
 30
0.0
 11
-1.0
 21
-0.26794919
 31
0.0
  0
LINE
  5
252F
330
252C
100
AcDbEntity
  8
0
  6
BYBLOCK
 62
     0
100
AcDbLine
 10
0.0
 20
0.0
 30
0.0
 11
-1.0
 21
0.0
 31
0.0
  0
ENDBLK
  5
2531
330
252C
100
AcDbEntity
  8
0
100
AcDbBlockEnd
  0
BLOCK
  5
29F4
330
29EA
100
AcDbEntity
  8
0
100
AcDbBlockBegin
  2
*D5
 70
     1
 10
0.0
 20
0.0
 30
0.0
  3
*D5
  1

  0
LINE
  5
2AA4
330
29EA
100
AcDbEntity
  8
2
100
AcDbLine
 10
85.00000000000007
 20
62.49999999999968
 30
0.0
 11
127.0669879362312
 21
62.49999999999968
 31
0.0
  0
LINE
  5
2AA5
330
29EA
100
AcDbEntity
  8
2
100
AcDbLine
 10
84.99999999999953
 20
-62.50000000000031
 30
0.0
 11
127.0669879362312
 21
-62.50000000000031
 31
0.0
  0
LINE
  5
2AA6
330
29EA
100
AcDbEntity
  8
2
100
AcDbLine
 10
126.0669879362312
 20
59.99999999999968
 30
0.0
 11
126.0669879362312
 21
-60.00000000000031
 31
0.0
  0
SOLID
  5
2AA7
330
29EA
100
AcDbEntity
  8
2
100
AcDbTrace
 10
125.6503212695646
 20
59.99999999999968
 30
0.0
 11
126.4836546028979
 21
59.99999999999968
 31
0.0
 12
126.0669879362312
 22
62.49999999999968
 32
0.0
 13
126.0669879362312
 23
62.49999999999968
 33
0.0
  0
SOLID
  5
2AA8
330
29EA
100
AcDbEntity
  8
2
100
AcDbTrace
 10
125.6503212695645
 20
-60.00000000000031
 30
0.0
 11
126.4836546028979
 21
-60.00000000000031
 31
0.0
 12
126.0669879362312
 22
-62.50000000000031
 32
0.0
 13
126.0669879362312
 23
-62.50000000000031
 33
0.0
  0
MTEXT
  5
2AA9
330
29EA
100
AcDbEntity
  8
2
 62
     2
100
AcDbMText
 10
122.8166434480423
 20
-0.0000000000003022
 30
0.0
 40
3.5
 41
0.0
 71
     5
 72
     1
  1
%%c125
 11
0.0000000000000001
 21
1.0
 31
0.0
1001
ACAD
1000
MTEXTBEGIN
1070
    73
1070
     1
1070
    44
1040
1.0
1070
    74
1070
     0
1000
MTEXTEND
  0
POINT
  5
2AAA
330
29EA
100
AcDbEntity
  8
DEFPOINTS
 62
     0
100
AcDbPoint
 10
85.00000000000007
 20
62.49999999999968
 30
0.0
  0
POINT
  5
2AAB
330
29EA
100
AcDbEntity
  8
DEFPOINTS
 62
     0
100
AcDbPoint
 10
84.99999999999953
 20
-62.50000000000031
 30
0.0
  0
POINT
  5
2AAC
330
29EA
100
AcDbEntity
  8
DEFPOINTS
 62
     0
100
AcDbPoint
 10
126.0669879362312
 20
-62.50000000000031
 30
0.0
  0
ENDBLK
  5
29F5
330
29EA
100
AcDbEntity
  8
0
100
AcDbBlockEnd
  0
BLOCK
  5
2A25
330
2A1B
100
AcDbEntity
  8
0
100
AcDbBlockBegin
  2
*D6
 70
     1
 10
0.0
 20
0.0
 30
0.0
  3
*D6
  1

  0
LINE
  5
2A92
330
2A1B
100
AcDbEntity
  8
2
100
AcDbLine
 10
85.00000000000007
 20
62.49999999999968
 30
0.0
 11
85.00000000000007
 21
75.87161897406668
 31
0.0
  0
LINE
  5
2A93
330
2A1B
100
AcDbEntity
  8
2
100
AcDbLine
 10
26.00000000000007
 20
62.49999999999969
 30
0.0
 11
26.00000000000007
 21
75.87161897406668
 31
0.0
  0
LINE
  5
2A94
330
2A1B
100
AcDbEntity
  8
2
100
AcDbLine
 10
82.50000000000007
 20
74.87161897406668
 30
0.0
 11
28.50000000000007
 21
74.87161897406668
 31
0.0
  0
SOLID
  5
2A95
330
2A1B
100
AcDbEntity
  8
2
100
AcDbTrace
 10
82.50000000000007
 20
75.28828564073335
 30
0.0
 11
82.50000000000007
 21
74.4549523074
 31
0.0
 12
85.00000000000007
 22
74.87161897406668
 32
0.0
 13
85.00000000000007
 23
74.87161897406668
 33
0.0
  0
SOLID
  5
2A96
330
2A1B
100
AcDbEntity
  8
2
100
AcDbTrace
 10
28.50000000000007
 20
75.28828564073335
 30
0.0
 11
28.50000000000007
 21
74.4549523074
 31
0.0
 12
26.00000000000007
 22
74.87161897406668
 32
0.0
 13
26.00000000000007
 23
74.87161897406668
 33
0.0
  0
MTEXT
  5
2A97
330
2A1B
100
AcDbEntity
  8
2
 62
     2
100
AcDbMText
 10
55.50000000000007
 20
78.12161897406667
 30
0.0
 40
3.5
 41
0.0
 71
     5
 72
     1
  1
59
1001
ACAD
1000
MTEXTBEGIN
1070
    73
1070
     1
1070
    44
1040
1.0
1070
    74
1070
     0
1000
MTEXTEND
  0
POINT
  5
2A98
330
2A1B
100
AcDbEntity
  8
DEFPOINTS
 62
     0
100
AcDbPoint
 10
85.00000000000007
 20
62.49999999999968
 30
0.0
  0
POINT
  5
2A99
330
2A1B
100
AcDbEntity
  8
DEFPOINTS
 62
     0
100
AcDbPoint
 10
26.00000000000007
 20
62.49999999999969
 30
0.0
  0
POINT
  5
2A9A
330
2A1B
100
AcDbEntity
  8
DEFPOINTS
 62
     0
100
AcDbPoint
 10
26.00000000000007
 20
74.87161897406668
 30
0.0
  0
ENDBLK
  5
2A26
330
2A1B
100
AcDbEntity
  8
0
100
AcDbBlockEnd
  0
BLOCK
  5
2A4D
330
2A43
100
AcDbEntity
  8
0
100
AcDbBlockBegin
  2
*D7
 70
     1
 10
0.0
 20
0.0
 30
0.0
  3
*D7
  1

  0
LINE
  5
2A9B
330
2A43
100
AcDbEntity
  8
2
100
AcDbLine
 10
85.00000000000007
 20
62.49999999999968
 30
0.0
 11
85.00000000000007
 21
90.99999999999988
 31
0.0
  0
LINE
  5
2A9C
330
2A43
100
AcDbEntity
  8
2
100
AcDbLine
 10
0.0000000000001359
 20
54.00000000000017
 30
0.0
 11
0.0000000000001382
 21
90.99999999999988
 31
0.0
  0
LINE
  5
2A9D
330
2A43
100
AcDbEntity
  8
2
100
AcDbLine
 10
82.50000000000007
 20
89.99999999999989
 30
0.0
 11
2.500000000000138
 21
89.99999999999989
 31
0.0
  0
SOLID
  5
2A9E
330
2A43
100
AcDbEntity
  8
2
100
AcDbTrace
 10
82.50000000000007
 20
90.41666666666655
 30
0.0
 11
82.50000000000007
 21
89.58333333333321
 31
0.0
 12
85.00000000000007
 22
89.99999999999989
 32
0.0
 13
85.00000000000007
 23
89.99999999999989
 33
0.0
  0
SOLID
  5
2A9F
330
2A43
100
AcDbEntity
  8
2
100
AcDbTrace
 10
2.500000000000138
 20
90.41666666666655
 30
0.0
 11
2.500000000000138
 21
89.58333333333321
 31
0.0
 12
0.0000000000001381
 22
89.99999999999989
 32
0.0
 13
0.0000000000001381
 23
89.99999999999989
 33
0.0
  0
MTEXT
  5
2AA0
330
2A43
100
AcDbEntity
  8
2
 62
     2
100
AcDbMText
 10
42.5000000000001
 20
93.24999999999988
 30
0.0
 40
3.5
 41
0.0
 71
     5
 72
     1
  1
85
1001
ACAD
1000
MTEXTBEGIN
1070
    73
1070
     1
1070
    44
1040
1.0
1070
    74
1070
     0
1000
MTEXTEND
  0
POINT
  5
2AA1
330
2A43
100
AcDbEntity
  8
DEFPOINTS
 62
     0
100
AcDbPoint
 10
85.00000000000007
 20
62.49999999999968
 30
0.0
  0
POINT
  5
2AA2
330
2A43
100
AcDbEntity
  8
DEFPOINTS
 62
     0
100
AcDbPoint
 10
0.0000000000001359
 20
54.00000000000017
 30
0.0
  0
POINT
  5
2AA3
330
2A43
100
AcDbEntity
  8
DEFPOINTS
 62
     0
100
AcDbPoint
 10
0.0000000000001381
 20
89.99999999999989
 30
0.0
  0
ENDBLK
  5
2A4E
330
2A43
100
AcDbEntity
  8
0
100
AcDbBlockEnd
  0
ENDSEC
  0
SECTION
  2
ENTITIES
  0
LINE
  5
19D1
330
1F
100
AcDbEntity
  8
1
100
AcDbLine
 10
14.6162074381596
 20
-56.99999999999981
 30
0.0
 11
3.000000000000063
 21
-56.99999999999988
 31
0.0
  0
LINE
  5
19D6
330
1F
100
AcDbEntity
  8
1
100
AcDbLine
 10
0.0000000000000666
 20
-53.99999999999987
 30
0.0
 11
0.0
 21
-8.199999999999988
 31
0.0
  0
LINE
  5
19D7
330
1F
100
AcDbEntity
  8
SK1
100
AcDbLine
 10
0.0
 20
-8.199999999999988
 30
0.0
 11
9.000000000000113
 21
-8.199999999999988
 31
0.0
  0
LINE
  5
19D8
330
1F
100
AcDbEntity
  8
SK1
100
AcDbLine
 10
9.000000000000113
 20
-8.199999999999988
 30
0.0
 11
9.000000000000113
 21
8.199999999999988
 31
0.0
  0
LINE
  5
19D9
330
1F
100
AcDbEntity
  8
SK1
100
AcDbLine
 10
9.000000000000113
 20
8.199999999999988
 30
0.0
 11
0.0000000000001137
 21
8.199999999999988
 31
0.0
  0
LINE
  5
19DC
330
1F
100
AcDbEntity
  8
SK3
100
AcDbLine
 10
0.0
 20
-20.00000000000306
 30
0.0
 11
29.50000000000011
 21
-20.00000000000312
 31
0.0
  0
LINE
  5
19DD
330
1F
100
AcDbEntity
  8
SK3
100
AcDbLine
 10
29.50000000000011
 20
-20.00000000000312
 30
0.0
 11
29.50000000000011
 21
19.99999999999687
 31
0.0
  0
LINE
  5
19DE
330
1F
100
AcDbEntity
  8
SK3
100
AcDbLine
 10
29.50000000000011
 20
19.99999999999687
 30
0.0
 11
0.0000000000001137
 21
19.99999999999687
 31
0.0
  0
LINE
  5
19DF
330
1F
100
AcDbEntity
  8
SK3
100
AcDbLine
 10
29.50000000000011
 20
-11.00000000000312
 30
0.0
 11
38.50000000000022
 21
-11.00000000000312
 31
0.0
  0
LINE
  5
19E0
330
1F
100
AcDbEntity
  8
SK3
100
AcDbLine
 10
29.50000000000011
 20
10.99999999999687
 30
0.0
 11
38.50000000000011
 21
10.99999999999687
 31
0.0
  0
LINE
  5
19E1
330
1F
100
AcDbEntity
  8
SK3
100
AcDbLine
 10
83.99679480008323
 20
16.49999999999669
 30
0.0
 11
38.50000000000011
 21
16.49999999999687
 31
0.0
  0
LINE
  5
19E2
330
1F
100
AcDbEntity
  8
SK3
100
AcDbLine
 10
38.50000000000011
 20
16.49999999999687
 30
0.0
 11
38.50000000000011
 21
-16.50000000000312
 31
0.0
  0
LINE
  5
19E3
330
1F
100
AcDbEntity
  8
SK3
100
AcDbLine
 10
38.50000000000011
 20
-16.50000000000312
 30
0.0
 11
83.99679480008316
 21
-16.50000000000312
 31
0.0
  0
DIMENSION
  5
1A04
330
1F
100
AcDbEntity
  8
SK2
100
AcDbDimension
  2
*D2
 10
-18.81731907927394
 20
19.99999999999687
 30
0.0
 11
-22.06731907927394
 21
-0.0000000000030964
 31
0.0
 70
    32
  1
%%c<>
  3
AM_DIN
100
AcDbAlignedDimension
 13
0.0
 23
-20.00000000000306
 33
0.0
 14
0.0000000000001137
 24
19.99999999999687
 34
0.0
 50
270.0
100
AcDbRotatedDimension
  0
ARC
  5
1DFC
330
1F
100
AcDbEntity
  8
1
100
AcDbCircle
 10
3.000000000000066
 20
-53.99999999999987
 30
0.0
 40
3.0
100
AcDbArc
 50
180.0000000000001
 51
270.0
1001
GENIUS_GENOBJ-N-FIL_13
1002
{
1000
OWNER
1000
GEN
1002
}
1001
GENIUS_GENODEF_13
1002
{
1000
HIER
1070
     0
1002
}
1002
{
1000
MANEDIT
1070
     0
1002
}
1002
{
1000
NOSEL
1070
     0
1002
}
1002
{
1000
BEHIND
1070
     0
1002
}
1002
{
1000
OTHER
1070
     0
1002
}
1002
{
1000
REACTOR
1002
}
  0
LINE
  5
1E07
330
1F
100
AcDbEntity
  8
1
100
AcDbLine
 10
0.0000000000001359
 20
54.00000000000017
 30
0.0
 11
0.0
 21
8.199999999993735
 31
0.0
  0
ARC
  5
1E08
330
1F
100
AcDbEntity
  8
1
100
AcDbCircle
 10
3.000000000000135
 20
54.00000000000017
 30
0.0
 40
3.0
100
AcDbArc
 50
90.00000000000003
 51
179.9999999999998
1001
GENIUS_GENOBJ-N-FIL_13
1002
{
1000
OWNER
1000
GEN
1002
}
1001
GENIUS_GENODEF_13
1002
{
1000
HIER
1070
     0
1002
}
1002
{
1000
MANEDIT
1070
     0
1002
}
1002
{
1000
NOSEL
1070
     0
1002
}
1002
{
1000
BEHIND
1070
     0
1002
}
1002
{
1000
OTHER
1070
     0
1002
}
1002
{
1000
REACTOR
1002
}
  0
LINE
  5
1E09
330
1F
100
AcDbEntity
  8
1
100
AcDbLine
 10
14.61620743816006
 20
57.00000000000009
 30
0.0
 11
3.000000000000135
 21
57.00000000000017
 31
0.0
  0
CIRCLE
  5
21F9
330
1F
100
AcDbEntity
  8
SK1
100
AcDbCircle
 10
0.0
 20
0.0
 30
0.0
 40
3.200115174948665
  0
LINE
  5
21FA
330
1F
100
AcDbEntity
  8
SK1
100
AcDbLine
 10
-2.262823140784184
 20
2.262823140784185
 30
0.0
 11
2.262823140784184
 21
-2.262823140784185
 31
0.0
  0
LINE
  5
21FB
330
1F
100
AcDbEntity
  8
SK1
100
AcDbLine
 10
-2.262823140784185
 20
-2.262823140784184
 30
0.0
 11
2.262823140784185
 21
2.262823140784184
 31
0.0
  0
LINE
  5
21FC
330
1F
100
AcDbEntity
  8
4
100
AcDbLine
 10
88.62927279446992
 20
-0.0000000000003341
 30
0.0
 11
0.0
 21
0.0000000000001705
 31
0.0
  0
DIMENSION
  5
2462
330
1F
100
AcDbEntity
  8
SK2
100
AcDbDimension
  2
*D3
 10
-37.15151073969126
 20
-56.99999999999987
 30
0.0
 11
-40.40151073969125
 21
0.0000000000001483
 31
0.0
 70
    32
  1
%%c<>
  3
AM_DIN
100
AcDbAlignedDimension
 13
3.000000000000157
 23
57.00000000000017
 33
0.0
 14
3.00000000000008
 24
-56.99999999999988
 34
0.0
 50
89.99999999999957
100
AcDbRotatedDimension
  0
TEXT
  5
264A
330
1F
100
AcDbEntity
  8
6
100
AcDbText
 10
34.5057277135062
 20
-71.68736136060669
 30
0.0
 40
3.5
  1
22J3K125059F4R00
100
AcDbText
  0
LINE
  5
264B
330
1F
100
AcDbEntity
  8
CUT
100
AcDbLine
 10
25.99999999999969
 20
62.49999999999969
 30
0.0
 11
84.21428590185271
 21
62.49999999999973
 31
0.0
  0
LINE
  5
264C
330
1F
100
AcDbEntity
  8
CUT
100
AcDbLine
 10
25.29903100963591
 20
52.68396189074006
 30
0.0
 11
83.51331691148905
 21
52.68396189074008
 31
0.0
  0
LINE
  5
264F
330
1F
100
AcDbEntity
  8
CUT
100
AcDbLine
 10
25.10923407364092
 20
57.00903162783627
 30
0.0
 11
25.52509694737242
 21
62.00750770322472
 31
0.0
  0
LINE
  5
2651
330
1F
100
AcDbEntity
  8
CUT
100
AcDbLine
 10
24.51735632790897
 20
53.48375197739422
 30
0.0
 11
24.51735632790908
 21
55.48615961448275
 31
0.0
  0
ARC
  5
2653
330
1F
100
AcDbEntity
  8
CUT
100
AcDbCircle
 10
25.31735632790904
 20
53.48375197739415
 30
0.0
 40
0.8
100
AcDbArc
 50
180.0
 51
268.6874309514861
1001
GENIUS_GENODEF_13
1002
{
1000
HIER
1070
     0
1002
}
1002
{
1000
MANEDIT
1070
     0
1002
}
1002
{
1000
NOSEL
1070
     0
1002
}
1002
{
1000
BEHIND
1070
     0
1002
}
1002
{
1000
OTHER
1070
     0
1002
}
1002
{
1000
REACTOR
1002
}
1001
GENIUS_GENOBJ-N-FIL_13
1002
{
1000
OWNER
1000
GEN
1002
}
  0
ARC
  5
2656
330
1F
100
AcDbEntity
  8
CUT
100
AcDbCircle
 10
25.01735632790909
 20
55.48615961448275
 30
0.0
 40
0.5
100
AcDbArc
 50
140.6324757416298
 51
180.0
1001
GENIUS_GENODEF_13
1002
{
1000
HIER
1070
     0
1002
}
1002
{
1000
MANEDIT
1070
     0
1002
}
1002
{
1000
NOSEL
1070
     0
1002
}
1002
{
1000
BEHIND
1070
     0
1002
}
1002
{
1000
OTHER
1070
     0
1002
}
1002
{
1000
REACTOR
1002
}
1001
GENIUS_GENOBJ-N-FIL_13
1002
{
1000
OWNER
1000
GEN
1002
}
  0
ARC
  5
2657
330
1F
100
AcDbEntity
  8
CUT
100
AcDbCircle
 10
22.98380603783758
 20
57.15460722156735
 30
0.0
 40
2.130407610967658
100
AcDbArc
 50
320.6324757416298
 51
356.0817959174375
  0
ARC
  5
2659
330
1F
100
AcDbEntity
  8
CUT
100
AcDbCircle
 10
26.01107091833469
 20
62.01410732641191
 30
0.0
 40
0.4860187809941681
100
AcDbArc
 50
91.30524125517695
 51
180.7780402552273
  0
CIRCLE
  5
265F
330
1F
100
AcDbEntity
  8
1
100
AcDbCircle
 10
33.572907544751
 20
57.59132333832305
 30
0.0
 40
3.149999999999991
  0
CIRCLE
  5
2661
330
1F
100
AcDbEntity
  8
1
100
AcDbCircle
 10
75.93233110050762
 20
57.59252165869898
 30
0.0
 40
3.149999999999991
  0
TEXT
  5
2662
330
1F
100
AcDbEntity
  8
6
100
AcDbText
 10
44.77014359001276
 20
67.60416772837442
 30
0.0
 40
2.5
  1
AOMT160508R
100
AcDbText
  0
LINE
  5
2663
330
1F
100
AcDbEntity
  8
1
100
AcDbLine
 10
56.63653550037164
 20
61.70020991334558
 30
0.0
 11
56.63653550037164
 21
59.69780227625698
 31
0.0
  0
LINE
  5
2664
330
1F
100
AcDbEntity
  8
1
100
AcDbLine
 10
42.6365370278233
 20
61.69901159296966
 30
0.0
 11
42.6365370278233
 21
59.69660395588107
 31
0.0
  0
CIRCLE
  5
2665
330
1F
100
AcDbEntity
  8
1
100
AcDbCircle
 10
47.57290601729933
 20
57.59252165869898
 30
0.0
 40
3.149999999999991
  0
LINE
  5
2666
330
1F
100
AcDbEntity
  8
1
100
AcDbLine
 10
42.04465928209159
 20
58.17373194252939
 30
0.0
 11
41.62879640835997
 21
53.17525586713909
 31
0.0
  0
ARC
  5
2667
330
1F
100
AcDbEntity
  8
1
100
AcDbCircle
 10
41.14282243739769
 20
53.16865624395191
 30
0.0
 40
0.4860187809941681
100
AcDbArc
 50
271.3052412551801
 51
0.7780402552256853
  0
ARC
  5
2668
330
1F
100
AcDbEntity
  8
1
100
AcDbCircle
 10
42.1365370278233
 20
59.69660395588107
 30
0.0
 40
0.5
100
AcDbArc
 50
320.6324757416282
 51
0.0
1001
GENIUS_GENODEF_13
1002
{
1000
HIER
1070
     0
1002
}
1002
{
1000
MANEDIT
1070
     0
1002
}
1002
{
1000
NOSEL
1070
     0
1002
}
1002
{
1000
BEHIND
1070
     0
1002
}
1002
{
1000
OTHER
1070
     0
1002
}
1002
{
1000
REACTOR
1002
}
1001
GENIUS_GENOBJ-N-FIL_13
1002
{
1000
OWNER
1000
GEN
1002
}
  0
ARC
  5
2669
330
1F
100
AcDbEntity
  8
1
100
AcDbCircle
 10
44.17008731789481
 20
58.02815634879646
 30
0.0
 40
2.130407610967658
100
AcDbArc
 50
140.6324757416298
 51
176.0817959173876
  0
LINE
  5
266A
330
1F
100
AcDbEntity
  8
1
100
AcDbLine
 10
56.04465775463991
 20
58.17493026290531
 30
0.0
 11
55.6287948809083
 21
53.17645418751501
 31
0.0
  0
ARC
  5
266B
330
1F
100
AcDbEntity
  8
1
100
AcDbCircle
 10
55.14282090994602
 20
53.16985456432782
 30
0.0
 40
0.4860187809941681
100
AcDbArc
 50
271.3052412551801
 51
0.7780402552256853
  0
ARC
  5
266C
330
1F
100
AcDbEntity
  8
1
100
AcDbCircle
 10
58.17008579044314
 20
58.02935466917238
 30
0.0
 40
2.130407610967658
100
AcDbArc
 50
140.6324757416298
 51
176.0817959173876
  0
ARC
  5
266D
330
1F
100
AcDbEntity
  8
1
100
AcDbCircle
 10
56.13653550037163
 20
59.69780227625698
 30
0.0
 40
0.5
100
AcDbArc
 50
320.6324757416282
 51
0.0
1001
GENIUS_GENODEF_13
1002
{
1000
HIER
1070
     0
1002
}
1002
{
1000
MANEDIT
1070
     0
1002
}
1002
{
1000
NOSEL
1070
     0
1002
}
1002
{
1000
BEHIND
1070
     0
1002
}
1002
{
1000
OTHER
1070
     0
1002
}
1002
{
1000
REACTOR
1002
}
1001
GENIUS_GENOBJ-N-FIL_13
1002
{
1000
OWNER
1000
GEN
1002
}
  0
ARC
  5
266E
330
1F
100
AcDbEntity
  8
1
100
AcDbCircle
 10
41.83653702782335
 20
61.69901159296966
 30
0.0
 40
0.8
100
AcDbArc
 50
0.0000000000008142
 51
88.68743095148614
1001
GENIUS_GENODEF_13
1002
{
1000
HIER
1070
     0
1002
}
1002
{
1000
MANEDIT
1070
     0
1002
}
1002
{
1000
NOSEL
1070
     0
1002
}
1002
{
1000
BEHIND
1070
     0
1002
}
1002
{
1000
OTHER
1070
     0
1002
}
1002
{
1000
REACTOR
1002
}
1001
GENIUS_GENOBJ-N-FIL_13
1002
{
1000
OWNER
1000
GEN
1002
}
  0
ARC
  5
266F
330
1F
100
AcDbEntity
  8
1
100
AcDbCircle
 10
55.83653550037168
 20
61.70020991334558
 30
0.0
 40
0.8
100
AcDbArc
 50
0.0000000000008142
 51
88.68743095148614
1001
GENIUS_GENODEF_13
1002
{
1000
HIER
1070
     0
1002
}
1002
{
1000
MANEDIT
1070
     0
1002
}
1002
{
1000
NOSEL
1070
     0
1002
}
1002
{
1000
BEHIND
1070
     0
1002
}
1002
{
1000
OTHER
1070
     0
1002
}
1002
{
1000
REACTOR
1002
}
1001
GENIUS_GENOBJ-N-FIL_13
1002
{
1000
OWNER
1000
GEN
1002
}
  0
LINE
  5
2670
330
1F
100
AcDbEntity
  8
1
100
AcDbLine
 10
70.81624804197573
 20
61.70020991334558
 30
0.0
 11
70.81624804197573
 21
59.69780227625698
 31
0.0
  0
CIRCLE
  5
2671
330
1F
100
AcDbEntity
  8
1
100
AcDbCircle
 10
61.75261855890342
 20
57.59252165869898
 30
0.0
 40
3.149999999999991
  0
LINE
  5
2672
330
1F
100
AcDbEntity
  8
1
100
AcDbLine
 10
70.224370296244
 20
58.17493026290531
 30
0.0
 11
69.80850742251239
 21
53.17645418751501
 31
0.0
  0
ARC
  5
2673
330
1F
100
AcDbEntity
  8
1
100
AcDbCircle
 10
69.32253345155011
 20
53.16985456432782
 30
0.0
 40
0.4860187809941681
100
AcDbArc
 50
271.3052412551801
 51
0.7780402552256853
  0
ARC
  5
2674
330
1F
100
AcDbEntity
  8
1
100
AcDbCircle
 10
72.34979833204723
 20
58.02935466917238
 30
0.0
 40
2.130407610967658
100
AcDbArc
 50
140.6324757416298
 51
176.0817959173876
  0
ARC
  5
2675
330
1F
100
AcDbEntity
  8
1
100
AcDbCircle
 10
70.31624804197573
 20
59.69780227625698
 30
0.0
 40
0.5
100
AcDbArc
 50
320.6324757416282
 51
0.0
1001
GENIUS_GENODEF_13
1002
{
1000
HIER
1070
     0
1002
}
1002
{
1000
MANEDIT
1070
     0
1002
}
1002
{
1000
NOSEL
1070
     0
1002
}
1002
{
1000
BEHIND
1070
     0
1002
}
1002
{
1000
OTHER
1070
     0
1002
}
1002
{
1000
REACTOR
1002
}
1001
GENIUS_GENOBJ-N-FIL_13
1002
{
1000
OWNER
1000
GEN
1002
}
  0
ARC
  5
2676
330
1F
100
AcDbEntity
  8
1
100
AcDbCircle
 10
70.01624804197577
 20
61.70020991334558
 30
0.0
 40
0.8
100
AcDbArc
 50
0.0000000000008142
 51
88.68743095148614
1001
GENIUS_GENODEF_13
1002
{
1000
HIER
1070
     0
1002
}
1002
{
1000
MANEDIT
1070
     0
1002
}
1002
{
1000
NOSEL
1070
     0
1002
}
1002
{
1000
BEHIND
1070
     0
1002
}
1002
{
1000
OTHER
1070
     0
1002
}
1002
{
1000
REACTOR
1002
}
1001
GENIUS_GENOBJ-N-FIL_13
1002
{
1000
OWNER
1000
GEN
1002
}
  0
LINE
  5
2677
330
1F
100
AcDbEntity
  8
1
100
AcDbLine
 10
84.99596058357992
 20
61.70020991334558
 30
0.0
 11
84.99596058357992
 21
59.69780227625698
 31
0.0
  0
LINE
  5
2678
330
1F
100
AcDbEntity
  8
CUT
100
AcDbLine
 10
84.99596058357965
 20
61.7002099133456
 30
0.0
 11
84.99596058357955
 21
59.69780227625701
 31
0.0
  0
ARC
  5
2679
330
1F
100
AcDbEntity
  8
1
100
AcDbCircle
 10
83.50224599315431
 20
53.16985456432782
 30
0.0
 40
0.4860187809941681
100
AcDbArc
 50
271.3052412551801
 51
0.7780402552256853
  0
ARC
  5
267A
330
1F
100
AcDbEntity
  8
CUT
100
AcDbCircle
 10
83.50224599315394
 20
53.16985456432785
 30
0.0
 40
0.4860187809941681
100
AcDbArc
 50
271.3052412551769
 51
0.7780402552273135
  0
LINE
  5
267B
330
1F
100
AcDbEntity
  8
1
100
AcDbLine
 10
84.40408283784821
 20
58.17493026290531
 30
0.0
 11
83.9882199641166
 21
53.17645418751501
 31
0.0
  0
LINE
  5
267C
330
1F
100
AcDbEntity
  8
CUT
100
AcDbLine
 10
84.40408283784805
 20
58.1749302629073
 30
0.0
 11
83.98821996411621
 21
53.17645418751503
 31
0.0
  0
ARC
  5
267D
330
1F
100
AcDbEntity
  8
1
100
AcDbCircle
 10
86.52951087365144
 20
58.02935466917238
 30
0.0
 40
2.130407610967658
100
AcDbArc
 50
140.6324757416298
 51
176.0817959173876
  0
ARC
  5
267E
330
1F
100
AcDbEntity
  8
CUT
100
AcDbCircle
 10
86.52951087365105
 20
58.0293546691724
 30
0.0
 40
2.130407610967658
100
AcDbArc
 50
140.6324757416298
 51
176.0817959173346
  0
ARC
  5
267F
330
1F
100
AcDbEntity
  8
1
100
AcDbCircle
 10
84.49596058357993
 20
59.69780227625698
 30
0.0
 40
0.5
100
AcDbArc
 50
320.6324757416282
 51
0.0
1001
GENIUS_GENODEF_13
1002
{
1000
HIER
1070
     0
1002
}
1002
{
1000
MANEDIT
1070
     0
1002
}
1002
{
1000
NOSEL
1070
     0
1002
}
1002
{
1000
BEHIND
1070
     0
1002
}
1002
{
1000
OTHER
1070
     0
1002
}
1002
{
1000
REACTOR
1002
}
1001
GENIUS_GENOBJ-N-FIL_13
1002
{
1000
OWNER
1000
GEN
1002
}
  0
ARC
  5
2680
330
1F
100
AcDbEntity
  8
CUT
100
AcDbCircle
 10
84.49596058357954
 20
59.69780227625701
 30
0.0
 40
0.5
100
AcDbArc
 50
320.6324757416298
 51
0.0
1001
GENIUS_GENODEF_13
1002
{
1000
HIER
1070
     0
1002
}
1002
{
1000
MANEDIT
1070
     0
1002
}
1002
{
1000
NOSEL
1070
     0
1002
}
1002
{
1000
BEHIND
1070
     0
1002
}
1002
{
1000
OTHER
1070
     0
1002
}
1002
{
1000
REACTOR
1002
}
1001
GENIUS_GENOBJ-N-FIL_13
1002
{
1000
OWNER
1000
GEN
1002
}
  0
ARC
  5
2681
330
1F
100
AcDbEntity
  8
1
100
AcDbCircle
 10
84.19596058357997
 20
61.70020991334558
 30
0.0
 40
0.8
100
AcDbArc
 50
0.0000000000008142
 51
88.68743095148614
1001
GENIUS_GENODEF_13
1002
{
1000
HIER
1070
     0
1002
}
1002
{
1000
MANEDIT
1070
     0
1002
}
1002
{
1000
NOSEL
1070
     0
1002
}
1002
{
1000
BEHIND
1070
     0
1002
}
1002
{
1000
OTHER
1070
     0
1002
}
1002
{
1000
REACTOR
1002
}
1001
GENIUS_GENOBJ-N-FIL_13
1002
{
1000
OWNER
1000
GEN
1002
}
  0
ARC
  5
2682
330
1F
100
AcDbEntity
  8
CUT
100
AcDbCircle
 10
84.19596058357958
 20
61.7002099133456
 30
0.0
 40
0.8
100
AcDbArc
 50
0.0
 51
88.68743095148614
1001
GENIUS_GENODEF_13
1002
{
1000
HIER
1070
     0
1002
}
1002
{
1000
MANEDIT
1070
     0
1002
}
1002
{
1000
NOSEL
1070
     0
1002
}
1002
{
1000
BEHIND
1070
     0
1002
}
1002
{
1000
OTHER
1070
     0
1002
}
1002
{
1000
REACTOR
1002
}
1001
GENIUS_GENOBJ-N-FIL_13
1002
{
1000
OWNER
1000
GEN
1002
}
  0
LINE
  5
2683
330
1F
100
AcDbEntity
  8
SK1
100
AcDbLine
 10
84.99999999999996
 20
62.9637693698485
 30
0.0
 11
84.99999999999996
 21
62.03623063015086
 31
0.0
  0
LINE
  5
2684
330
1F
100
AcDbEntity
  8
SK1
100
AcDbLine
 10
84.53623063015136
 20
62.49999999999968
 30
0.0
 11
85.463769369849
 21
62.49999999999968
 31
0.0
  0
CIRCLE
  5
2685
330
1F
100
AcDbEntity
  8
SK1
100
AcDbCircle
 10
85.00000000000007
 20
62.49999999999968
 30
0.0
 40
0.4637693698488208
  0
LINE
  5
2686
330
1F
100
AcDbEntity
  8
SK1
100
AcDbLine
 10
85.00000000000007
 20
62.9637693698485
 30
0.0
 11
85.00000000000007
 21
62.03623063015086
 31
0.0
  0
TEXT
  5
26A5
330
1F
100
AcDbEntity
  8
6
100
AcDbText
 10
134.6102021347157
 20
-6.465356183596497
 30
0.0
 40
3.5
  1
Z=24
 50
90.0
100
AcDbText
  0
TEXT
  5
26A6
330
1F
100
AcDbEntity
  8
6
100
AcDbText
 10
140.8325037971139
 20
-9.521540647140511
 30
0.0
 40
3.5
  1
Zeff.=6
 50
90.0
100
AcDbText
  0
LINE
  5
2756
330
1F
100
AcDbEntity
  8
1
100
AcDbLine
 10
25.50543117260466
 20
61.77113434341649
 30
0.0
 11
17.88734178157644
 21
61.77113434341649
 31
0.0
  0
ARC
  5
2757
330
1F
100
AcDbEntity
  8
1
100
AcDbCircle
 10
22.97572777160734
 20
57.15449032784968
 30
0.0
 40
2.130407610967658
100
AcDbArc
 50
320.6324757416298
 51
356.0817959173877
  0
ARC
  5
2758
330
1F
100
AcDbEntity
  8
1
100
AcDbCircle
 10
25.30927806167879
 20
53.48363508367648
 30
0.0
 40
0.8
100
AcDbArc
 50
180.0000000000007
 51
268.6874309514861
1001
GENIUS_GENODEF_13
1002
{
1000
HIER
1070
     0
1002
}
1002
{
1000
MANEDIT
1070
     0
1002
}
1002
{
1000
NOSEL
1070
     0
1002
}
1002
{
1000
BEHIND
1070
     0
1002
}
1002
{
1000
OTHER
1070
     0
1002
}
1002
{
1000
REACTOR
1002
}
1001
GENIUS_GENOBJ-N-FIL_13
1002
{
1000
OWNER
1000
GEN
1002
}
  0
LINE
  5
2759
330
1F
100
AcDbEntity
  8
1
100
AcDbLine
 10
24.50927806167872
 20
53.48363508367645
 30
0.0
 11
24.50927806167884
 21
55.48604272076505
 31
0.0
  0
ARC
  5
275A
330
1F
100
AcDbEntity
  8
1
100
AcDbCircle
 10
25.00927806167884
 20
55.48604272076508
 30
0.0
 40
0.5
100
AcDbArc
 50
140.6324757416295
 51
180.0
1001
GENIUS_GENODEF_13
1002
{
1000
HIER
1070
     0
1002
}
1002
{
1000
MANEDIT
1070
     0
1002
}
1002
{
1000
NOSEL
1070
     0
1002
}
1002
{
1000
BEHIND
1070
     0
1002
}
1002
{
1000
OTHER
1070
     0
1002
}
1002
{
1000
REACTOR
1002
}
1001
GENIUS_GENOBJ-N-FIL_13
1002
{
1000
OWNER
1000
GEN
1002
}
  0
LINE
  5
275B
330
1F
100
AcDbEntity
  8
1
100
AcDbLine
 10
25.10115580741056
 20
57.00891473411675
 30
0.0
 11
25.51701868114217
 21
62.00739080950705
 31
0.0
  0
ARC
  5
275C
330
1F
100
AcDbEntity
  8
1
100
AcDbCircle
 10
26.00299265210445
 20
62.01399043269423
 30
0.0
 40
0.4860187809941681
100
AcDbArc
 50
90.3527999850381
 51
180.7780402552256
  0
LINE
  5
2773
330
1F
100
AcDbEntity
  8
SK1
100
AcDbLine
 10
84.99999999999953
 20
-62.96376936984913
 30
0.0
 11
84.99999999999953
 21
-62.03623063015149
 31
0.0
  0
LINE
  5
2774
330
1F
100
AcDbEntity
  8
SK1
100
AcDbLine
 10
84.99999999999941
 20
-62.96376936984913
 30
0.0
 11
84.99999999999941
 21
-62.03623063015149
 31
0.0
  0
LINE
  5
2775
330
1F
100
AcDbEntity
  8
SK1
100
AcDbLine
 10
84.53623063015083
 20
-62.50000000000031
 30
0.0
 11
85.46376936984847
 21
-62.50000000000031
 31
0.0
  0
CIRCLE
  5
2776
330
1F
100
AcDbEntity
  8
SK1
100
AcDbCircle
 10
84.99999999999953
 20
-62.50000000000031
 30
0.0
 40
0.4637693698488208
  0
ARC
  5
2778
330
1F
100
AcDbEntity
  8
1
100
AcDbCircle
 10
26.00299265210442
 20
-62.01494979527543
 30
0.0
 40
0.4860187809941681
100
AcDbArc
 50
179.2219597447743
 51
269.6472000149618
  0
LINE
  5
2779
330
1F
100
AcDbEntity
  8
1
100
AcDbLine
 10
25.49726293391195
 20
-61.77089538562136
 30
0.0
 11
25.51701868114214
 21
-62.00835017208825
 31
0.0
  0
LINE
  5
277A
330
1F
100
AcDbEntity
  8
1
100
AcDbLine
 10
26.00000000000007
 20
-62.50095936258087
 30
0.0
 11
84.21428590185255
 21
-62.50000000000031
 31
0.0
  0
LINE
  5
277B
330
1F
100
AcDbEntity
  8
1
100
AcDbLine
 10
83.99679480008332
 20
53.27951968130495
 30
0.0
 11
83.99679480008307
 21
-61.77113434341709
 31
0.0
  0
LINE
  5
277C
330
1F
100
AcDbEntity
  8
1
100
AcDbLine
 10
84.99596058357939
 20
-61.70020991334621
 30
0.0
 11
84.99596058357939
 21
-59.69780227625761
 31
0.0
  0
ARC
  5
277D
330
1F
100
AcDbEntity
  8
1
100
AcDbCircle
 10
84.49596058357938
 20
-59.69780227625761
 30
0.0
 40
0.5
100
AcDbArc
 50
0.0
 51
39.3675242583714
1001
GENIUS_GENODEF_13
1002
{
1000
HIER
1070
     0
1002
}
1002
{
1000
MANEDIT
1070
     0
1002
}
1002
{
1000
NOSEL
1070
     0
1002
}
1002
{
1000
BEHIND
1070
     0
1002
}
1002
{
1000
OTHER
1070
     0
1002
}
1002
{
1000
REACTOR
1002
}
1001
GENIUS_GENOBJ-N-FIL_13
1002
{
1000
OWNER
1000
GEN
1002
}
  0
ARC
  5
277E
330
1F
100
AcDbEntity
  8
1
100
AcDbCircle
 10
86.52951087365089
 20
-58.02935466917301
 30
0.0
 40
2.130407610967658
100
AcDbArc
 50
183.9182040826123
 51
219.3675242583701
  0
LINE
  5
277F
330
1F
100
AcDbEntity
  8
1
100
AcDbLine
 10
84.40408283784767
 20
-58.17493026290595
 30
0.0
 11
83.98821996411605
 21
-53.17645418751564
 31
0.0
  0
ARC
  5
2780
330
1F
100
AcDbEntity
  8
1
100
AcDbCircle
 10
84.19596058357944
 20
-61.70020991334621
 30
0.0
 40
0.8
100
AcDbArc
 50
271.3125690485138
 51
359.9999999999992
1001
GENIUS_GENODEF_13
1002
{
1000
HIER
1070
     0
1002
}
1002
{
1000
MANEDIT
1070
     0
1002
}
1002
{
1000
NOSEL
1070
     0
1002
}
1002
{
1000
BEHIND
1070
     0
1002
}
1002
{
1000
OTHER
1070
     0
1002
}
1002
{
1000
REACTOR
1002
}
1001
GENIUS_GENOBJ-N-FIL_13
1002
{
1000
OWNER
1000
GEN
1002
}
  0
LINE
  5
2789
330
1F
100
AcDbEntity
  8
1
100
AcDbLine
 10
17.88734178157644
 20
61.77113434341649
 30
0.0
 11
14.61620743816006
 21
57.00000000000009
 31
0.0
  0
LINE
  5
2794
330
1F
100
AcDbEntity
  8
1
100
AcDbLine
 10
17.8873417815759
 20
-61.77113434341629
 30
0.0
 11
14.61620743815957
 21
-56.99999999999978
 31
0.0
  0
LINE
  5
2795
330
1F
100
AcDbEntity
  8
1
100
AcDbLine
 10
83.99679480008307
 20
-61.77113434341709
 30
0.0
 11
17.88734178157591
 21
-61.77113434341629
 31
0.0
  0
LINE
  5
27E3
330
1F
100
AcDbEntity
  8
1
100
AcDbLine
 10
14.61620743816006
 20
57.00000000000009
 30
0.0
 11
14.61620743815957
 21
-56.99999999999978
 31
0.0
  0
LINE
  5
27E4
330
1F
100
AcDbEntity
  8
1
100
AcDbLine
 10
17.88734178157644
 20
61.77113434341649
 30
0.0
 11
17.88734178157591
 21
-61.77113434341629
 31
0.0
  0
LINE
  5
2874
330
1F
100
AcDbEntity
  8
NOCUT
100
AcDbLine
 10
83.99679480008307
 20
-61.7711343434171
 30
0.0
 11
17.88734178157591
 21
-61.77113434341631
 31
0.0
  0
LINE
  5
2879
330
1F
100
AcDbEntity
  8
NOCUT
100
AcDbLine
 10
83.99679480008321
 20
-0.0000000000003126
 30
0.0
 11
0.0
 21
0.0000000000001705
 31
0.0
  0
LINE
  5
287D
330
1F
100
AcDbEntity
  8
NOCUT
100
AcDbLine
 10
0.0000000000000631
 20
-53.99999999999987
 30
0.0
 11
0.0
 21
0.0000000000001705
 31
0.0
  0
LINE
  5
2880
330
1F
100
AcDbEntity
  8
NOCUT
100
AcDbLine
 10
14.61620743815962
 20
-56.99999999999982
 30
0.0
 11
3.000000000000063
 21
-56.99999999999988
 31
0.0
  0
ARC
  5
2882
330
1F
100
AcDbEntity
  8
NOCUT
100
AcDbCircle
 10
3.000000000000063
 20
-53.99999999999987
 30
0.0
 40
3.0
100
AcDbArc
 50
180.0000000000001
 51
270.0
1001
GENIUS_GENOBJ-N-FIL_13
1002
{
1000
OWNER
1000
GEN
1002
}
1001
GENIUS_GENODEF_13
1002
{
1000
HIER
1070
     0
1002
}
1002
{
1000
MANEDIT
1070
     0
1002
}
1002
{
1000
NOSEL
1070
     0
1002
}
1002
{
1000
BEHIND
1070
     0
1002
}
1002
{
1000
OTHER
1070
     0
1002
}
1002
{
1000
REACTOR
1002
}
  0
LINE
  5
2883
330
1F
100
AcDbEntity
  8
NOCUT
100
AcDbLine
 10
17.88734178157591
 20
-61.77113434341631
 30
0.0
 11
14.61620743815957
 21
-56.99999999999979
 31
0.0
  0
LINE
  5
289A
330
1F
100
AcDbEntity
  8
NOCUT
100
AcDbLine
 10
83.99679480008321
 20
-0.0000000000003126
 30
0.0
 11
83.99679480008307
 21
-61.7711343434171
 31
0.0
  0
LINE
  5
29AC
330
1F
100
AcDbEntity
  8
1
100
AcDbLine
 10
26.00000000000007
 20
62.49999999999969
 30
0.0
 11
84.2142859018531
 21
62.49999999999969
 31
0.0
  0
LINE
  5
29AD
330
1F
100
AcDbEntity
  8
1
100
AcDbLine
 10
25.29095274340567
 20
52.68384499702237
 30
0.0
 11
83.5133169114894
 21
52.68396189074005
 31
0.0
  0
DIMENSION
  5
29E9
330
1F
100
AcDbEntity
  8
2
100
AcDbDimension
  2
*D5
 10
126.0669879362312
 20
-62.50000000000031
 30
0.0
 11
122.8166434480423
 21
-0.0000000000003022
 31
0.0
 70
    32
  1
%%c<>
  3
AM_DIN
100
AcDbAlignedDimension
 13
85.00000000000007
 23
62.49999999999968
 33
0.0
 14
84.99999999999953
 24
-62.50000000000031
 34
0.0
 50
90.00000000000003
100
AcDbRotatedDimension
  0
DIMENSION
  5
2A1A
330
1F
100
AcDbEntity
  8
2
100
AcDbDimension
  2
*D6
 10
26.00000000000007
 20
74.87161897406668
 30
0.0
 11
55.50000000000007
 21
78.12161897406667
 31
0.0
 70
    32
  3
AM_DIN
100
AcDbAlignedDimension
 13
85.00000000000007
 23
62.49999999999968
 33
0.0
 14
26.00000000000007
 24
62.49999999999969
 34
0.0
 50
0.0000000000000114
100
AcDbRotatedDimension
  0
DIMENSION
  5
2A42
330
1F
100
AcDbEntity
  8
2
100
AcDbDimension
  2
*D7
 10
0.0000000000001381
 20
89.99999999999989
 30
0.0
 11
42.5000000000001
 21
93.24999999999988
 31
0.0
 70
    32
  3
AM_DIN
100
AcDbAlignedDimension
 13
85.00000000000007
 23
62.49999999999968
 33
0.0
 14
0.0000000000001359
 24
54.00000000000017
 34
0.0
 50
0.0000000000000114
100
AcDbRotatedDimension
  0
ARC
  5
2D43
330
1F
100
AcDbEntity
  8
1
100
AcDbCircle
 10
41.66464230484624
 20
-14.09456966745632
 30
0.0
 40
63.89316305918097
100
AcDbArc
 50
48.50567302729777
 51
88.00104420227043
  0
ARC
  5
2D44
330
1F
100
AcDbEntity
  8
1
100
AcDbCircle
 10
79.85578844137596
 20
-23.23484756681815
 30
0.0
 40
72.65122146727849
100
AcDbArc
 50
86.7324589851788
 51
105.2156940405668
  0
ARC
  5
2D45
330
1F
100
AcDbEntity
  8
1
100
AcDbCircle
 10
44.60775150825265
 20
-1.719594784132752
 30
0.0
 40
51.48426405862777
100
AcDbArc
 50
90.79510410204962
 51
114.8669534450012
  0
ARC
  5
2D46
330
1F
100
AcDbEntity
  8
1
100
AcDbCircle
 10
27.93124432086678
 20
53.21006374299353
 30
0.0
 40
9.606247624584089
100
AcDbArc
 50
116.9757994478876
 51
238.8210690744337
  0
ARC
  5
2D47
330
1F
100
AcDbEntity
  8
1
100
AcDbCircle
 10
103.5952759925693
 20
38.02799152353086
 30
0.0
 40
73.15263161857235
100
AcDbArc
 50
221.0156344095125
 51
254.4599327615172
  0
ARC
  5
2D48
330
1F
100
AcDbEntity
  8
1
100
AcDbCircle
 10
-20.10596194309478
 20
-50.78539555639519
 30
0.0
 40
79.73770710922029
100
AcDbArc
 50
30.78055698449775
 51
53.69392165344837
  0
ARC
  5
2D49
330
1F
100
AcDbEntity
  8
1
100
AcDbCircle
 10
35.11044190701769
 20
-81.75090702351026
 30
0.0
 40
92.01097697828783
100
AcDbArc
 50
57.90599042586399
 51
92.38148865604904
  0
ARC
  5
2D4A
330
1F
100
AcDbEntity
  8
1
100
AcDbCircle
 10
31.47408593752388
 20
20.82403617104396
 30
0.0
 40
8.551035929832924
100
AcDbArc
 50
162.6552395549251
 51
239.2860784486834
  0
ARC
  5
2D4B
330
1F
100
AcDbEntity
  8
1
100
AcDbCircle
 10
19.44941540153361
 20
-83.14186671158578
 30
0.0
 40
106.5851509507232
100
AcDbArc
 50
52.72836742610877
 51
87.92324311980706
  0
ARC
  5
2D4E
330
1F
100
AcDbEntity
  8
1
100
AcDbCircle
 10
62.95636525964151
 20
-10.91772823162399
 30
0.0
 40
50.91167656734967
100
AcDbArc
 50
272.7415398842621
 51
294.4106162313661
  0
ARC
  5
2D4F
330
1F
100
AcDbEntity
  8
1
100
AcDbCircle
 10
77.50047421024618
 20
-8.009887295248386
 30
0.0
 40
54.74924088977042
100
AcDbArc
 50
210.4117841940704
 51
258.6549045966829
  0
ARC
  5
2D50
330
1F
100
AcDbEntity
  8
1
100
AcDbCircle
 10
28.93704705201606
 20
-46.84725888732706
 30
0.0
 40
11.20398088853577
100
AcDbArc
 50
83.09409244341489
 51
170.480816395093
  0
ARC
  5
2D51
330
1F
100
AcDbEntity
  8
1
100
AcDbCircle
 10
40.61478746267652
 20
-42.03737428787002
 30
0.0
 40
22.91900094925475
100
AcDbArc
 50
187.4129280878205
 51
239.4315078087543
  0
ARC
  5
2D52
330
1F
100
AcDbEntity
  8
1
100
AcDbCircle
 10
30.94684938353296
 20
-22.17697878536701
 30
0.0
 40
39.59415555804942
100
AcDbArc
 50
269.9999999999993
 51
301.0169157746929
  0
LINE
  5
2D6D
330
1F
100
AcDbEntity
  8
4
100
AcDbLine
 10
43.97984447842188
 20
36.9070505696466
 30
0.0
 11
26.92682457619389
 21
19.46157709881781
 31
0.0
  0
LINE
  5
2D6E
330
1F
100
AcDbEntity
  8
4
100
AcDbLine
 10
43.97984447842146
 20
-36.90705056964676
 30
0.0
 11
26.92682457619367
 21
-19.46157709881777
 31
0.0
  0
ENDSEC
  0
SECTION
  2
OBJECTS
  0
DICTIONARY
  5
C
330
0
100
AcDbDictionary
  3
ACAD_GROUP
350
D
  3
ACAD_LAYOUT
350
1A
  3
ACAD_MLINESTYLE
350
17
  3
ACAD_PLOTSETTINGS
350
19
  3
ACAD_PLOTSTYLENAME
350
E
  3
ACDBHEADERROUNDTRIPXREC
350
2FA4
  3
ACDBVARIABLEDICTIONARY
350
216
  3
ACMDICTIONARY
350
45
  3
AMG
350
41
  3
AMGSNAPSETTINGS
350
23D
  3
DWGPROPS
350
2D70
  0
DICTIONARY
  5
1F1
330
1F
100
AcDbDictionary
280
     1
  3
ACAD_INDEX
360
1F2
  3
ACAD_LAYOUTSELFREF
360
2FC7
  0
DICTIONARY
  5
2FC5
330
1B
100
AcDbDictionary
280
     1
  3
ACAD_LAYOUTSELFREF
360
2FC6
  0
DICTIONARY
  5
D
102
{ACAD_REACTORS
330
C
102
}
330
C
100
AcDbDictionary
  0
DICTIONARY
  5
1A
102
{ACAD_REACTORS
330
C
102
}
330
C
100
AcDbDictionary
  0
DICTIONARY
  5
17
102
{ACAD_REACTORS
330
C
102
}
330
C
100
AcDbDictionary
  3
STANDARD
350
18
  0
DICTIONARY
  5
19
102
{ACAD_REACTORS
330
C
102
}
330
C
100
AcDbDictionary
  0
ACDBDICTIONARYWDFLT
  5
E
102
{ACAD_REACTORS
330
C
102
}
330
C
100
AcDbDictionary
281
     1
  3
Normal
350
F
100
AcDbDictionaryWithDefault
340
F
  0
DICTIONARY
  5
2FA4
102
{ACAD_REACTORS
330
C
102
}
330
C
100
AcDbDictionary
  3
CEPSNTYPE
350
2FAE
  3
DIMSTYLEDATA
350
2FB2
  3
FINGERPRINTGUID
350
2FAF
  3
HYPERLINKBASE
350
2FA7
  3
INSUNITS
350
2FAD
  3
LAYOUTDICT
350
2FA9
  3
LWETCUNION
350
2FAC
  3
PLOTSETDICT
350
2FAA
  3
PLOTSTYLNAMDICT
350
2FAB
  3
PSVPSCALE
350
2FB1
  3
PUCSBASE
350
2FB5
  3
PUCSORGBACK
350
2FBB
  3
PUCSORGBOTTOM
350
2FB7
  3
PUCSORGFRONT
350
2FBA
  3
PUCSORGLEFT
350
2FB8
  3
PUCSORGRIGHT
350
2FB9
  3
PUCSORGTOP
350
2FB6
  3
PUCSORTHOREF
350
2FB3
  3
PUCSORTHOVIEW
350
2FB4
  3
STYLESHEET
350
2FA8
  3
TSTACKALIGN
350
2FA5
  3
TSTACKSIZE
350
2FA6
  3
UCSBASE
350
2FBE
  3
UCSORGBACK
350
2FC4
  3
UCSORGBOTTOM
350
2FC0
  3
UCSORGFRONT
350
2FC3
  3
UCSORGLEFT
350
2FC1
  3
UCSORGRIGHT
350
2FC2
  3
UCSORGTOP
350
2FBF
  3
UCSORTHOREF
350
2FBC
  3
UCSORTHOVIEW
350
2FBD
  3
VERSIONGUID
350
2FB0
  0
DICTIONARY
  5
216
102
{ACAD_REACTORS
330
C
102
}
330
C
100
AcDbDictionary
  3
DIMASSOC
350
219
  3
HIDETEXT
350
218
  3
INDEXCTL
350
217
  0
DICTIONARY
  5
45
102
{ACAD_REACTORS
330
C
102
}
330
C
100
AcDbDictionary
  3
ACMSTDDICTIONARY
350
4A
  0
DICTIONARY
  5
41
102
{ACAD_REACTORS
330
C
102
}
330
C
100
AcDbDictionary
  3
ACMGSETTINGS
350
42
  0
DICTIONARY
  5
23D
102
{ACAD_REACTORS
330
C
102
}
330
C
100
AcDbDictionary
  0
XRECORD
  5
2D70
102
{ACAD_REACTORS
330
C
102
}
330
C
100
AcDbXrecord
  1
DWGPROPS COOKIE
  2

  3

  4

  6

  7

  8

  9

300
AmdtFileType=84
301
=
302
=
303
=
304
=
305
=
306
=
307
=
308
=
309
=
 40
0.0665053472222222
 41
2453599.324339374
 42
2453755.128902037
  1

 90
        1
  0
DICTIONARY
  5
1F2
102
{ACAD_REACTORS
330
1F1
102
}
330
1F1
100
AcDbDictionary
  3
*A1
350
1F3
  0
XRECORD
  5
2FC7
102
{ACAD_REACTORS
330
1F1
102
}
330
1F1
100
AcDbXrecord
340
1F
  0
XRECORD
  5
2FC6
102
{ACAD_REACTORS
330
2FC5
102
}
330
2FC5
100
AcDbXrecord
340
1B
  0
MLINESTYLE
  5
18
102
{ACAD_REACTORS
330
17
102
}
330
17
100
AcDbMlineStyle
  2
STANDARD
 70
     0
  3

 62
   256
 51
90.0
 52
90.0
 71
     2
 49
0.5
 62
   256
  6
BYLAYER
 49
-0.5
 62
   256
  6
BYLAYER
  0
ACDBPLACEHOLDER
  5
F
102
{ACAD_REACTORS
330
E
102
}
330
E
100
AcDbPlaceHolder
280
     0
  0
XRECORD
  5
2FAE
102
{ACAD_REACTORS
330
2FA4
102
}
330
2FA4
100
AcDbXrecord
 90
        0
  0
XRECORD
  5
2FB2
102
{ACAD_REACTORS
330
2FA4
102
}
330
2FA4
100
AcDbXrecord
1000
DSTYLE
1002
{
1070
    79
 70
     2
1070
   371
 70
    -1
1070
   372
 70
    -1
1002
}
  0
XRECORD
  5
2FAF
102
{ACAD_REACTORS
330
2FA4
102
}
330
2FA4
100
AcDbXrecord
  1
{03052709-208C-44F1-88CB-F8F0E550BC5D}
  0
XRECORD
  5
2FA7
102
{ACAD_REACTORS
330
2FA4
102
}
330
2FA4
100
AcDbXrecord
  1

  0
XRECORD
  5
2FAD
102
{ACAD_REACTORS
330
2FA4
102
}
330
2FA4
100
AcDbXrecord
 90
        4
  0
XRECORD
  5
2FA9
102
{ACAD_REACTORS
330
2FA4
102
}
330
2FA4
100
AcDbXrecord
340
1A
  0
XRECORD
  5
2FAC
102
{ACAD_REACTORS
330
2FA4
102
}
330
2FA4
100
AcDbXrecord
 90
    10781
  0
XRECORD
  5
2FAA
102
{ACAD_REACTORS
330
2FA4
102
}
330
2FA4
100
AcDbXrecord
340
19
  0
XRECORD
  5
2FAB
102
{ACAD_REACTORS
330
2FA4
102
}
330
2FA4
100
AcDbXrecord
340
E
  0
XRECORD
  5
2FB1
102
{ACAD_REACTORS
330
2FA4
102
}
330
2FA4
100
AcDbXrecord
 40
0.0
  0
XRECORD
  5
2FB5
102
{ACAD_REACTORS
330
2FA4
102
}
330
2FA4
100
AcDbXrecord
340
0
  0
XRECORD
  5
2FBB
102
{ACAD_REACTORS
330
2FA4
102
}
330
2FA4
100
AcDbXrecord
 10
0.0
 20
0.0
 30
0.0
  0
XRECORD
  5
2FB7
102
{ACAD_REACTORS
330
2FA4
102
}
330
2FA4
100
AcDbXrecord
 10
0.0
 20
0.0
 30
0.0
  0
XRECORD
  5
2FBA
102
{ACAD_REACTORS
330
2FA4
102
}
330
2FA4
100
AcDbXrecord
 10
0.0
 20
0.0
 30
0.0
  0
XRECORD
  5
2FB8
102
{ACAD_REACTORS
330
2FA4
102
}
330
2FA4
100
AcDbXrecord
 10
0.0
 20
0.0
 30
0.0
  0
XRECORD
  5
2FB9
102
{ACAD_REACTORS
330
2FA4
102
}
330
2FA4
100
AcDbXrecord
 10
0.0
 20
0.0
 30
0.0
  0
XRECORD
  5
2FB6
102
{ACAD_REACTORS
330
2FA4
102
}
330
2FA4
100
AcDbXrecord
 10
0.0
 20
0.0
 30
0.0
  0
XRECORD
  5
2FB3
102
{ACAD_REACTORS
330
2FA4
102
}
330
2FA4
100
AcDbXrecord
340
0
  0
XRECORD
  5
2FB4
102
{ACAD_REACTORS
330
2FA4
102
}
330
2FA4
100
AcDbXrecord
 70
     0
  0
XRECORD
  5
2FA8
102
{ACAD_REACTORS
330
2FA4
102
}
330
2FA4
100
AcDbXrecord
  1

  0
XRECORD
  5
2FA5
102
{ACAD_REACTORS
330
2FA4
102
}
330
2FA4
100
AcDbXrecord
 90
        1
  0
XRECORD
  5
2FA6
102
{ACAD_REACTORS
330
2FA4
102
}
330
2FA4
100
AcDbXrecord
 90
       70
  0
XRECORD
  5
2FBE
102
{ACAD_REACTORS
330
2FA4
102
}
330
2FA4
100
AcDbXrecord
340
0
  0
XRECORD
  5
2FC4
102
{ACAD_REACTORS
330
2FA4
102
}
330
2FA4
100
AcDbXrecord
 10
0.0
 20
0.0
 30
0.0
  0
XRECORD
  5
2FC0
102
{ACAD_REACTORS
330
2FA4
102
}
330
2FA4
100
AcDbXrecord
 10
0.0
 20
0.0
 30
0.0
  0
XRECORD
  5
2FC3
102
{ACAD_REACTORS
330
2FA4
102
}
330
2FA4
100
AcDbXrecord
 10
0.0
 20
0.0
 30
0.0
  0
XRECORD
  5
2FC1
102
{ACAD_REACTORS
330
2FA4
102
}
330
2FA4
100
AcDbXrecord
 10
0.0
 20
0.0
 30
0.0
  0
XRECORD
  5
2FC2
102
{ACAD_REACTORS
330
2FA4
102
}
330
2FA4
100
AcDbXrecord
 10
0.0
 20
0.0
 30
0.0
  0
XRECORD
  5
2FBF
102
{ACAD_REACTORS
330
2FA4
102
}
330
2FA4
100
AcDbXrecord
 10
0.0
 20
0.0
 30
0.0
  0
XRECORD
  5
2FBC
102
{ACAD_REACTORS
330
2FA4
102
}
330
2FA4
100
AcDbXrecord
340
0
  0
XRECORD
  5
2FBD
102
{ACAD_REACTORS
330
2FA4
102
}
330
2FA4
100
AcDbXrecord
 70
     0
  0
XRECORD
  5
2FB0
102
{ACAD_REACTORS
330
2FA4
102
}
330
2FA4
100
AcDbXrecord
  1
{783D6123-89D1-4175-8BA1-D27281CCAFC3}
  0
DICTIONARYVAR
  5
219
102
{ACAD_REACTORS
330
216
102
}
330
216
100
DictionaryVariables
280
     0
  1
1
  0
DICTIONARYVAR
  5
218
102
{ACAD_REACTORS
330
216
102
}
330
216
100
DictionaryVariables
280
     0
  1
1
  0
DICTIONARYVAR
  5
217
102
{ACAD_REACTORS
330
216
102
}
330
216
100
DictionaryVariables
280
     0
  1
1
  0
DICTIONARY
  5
4A
102
{ACAD_REACTORS
330
45
102
}
330
45
100
AcDbDictionary
  0
DICTIONARY
  5
42
102
{ACAD_REACTORS
330
41
102
}
330
41
100
AcDbDictionary
  3
DWGSETTINGS
350
43
  0
LAYER_INDEX
  5
1F3
102
{ACAD_REACTORS
330
1F2
102
}
330
1F2
100
AcDbIndex
 40
2453767.6260464
100
AcDbLayerIndex
  8
0
360
1F4
 90
        0
  8
Defpoints
360
210
 90
        0
  8
1
360
29B
 90
       71
  8
2
360
2345
 90
        3
  8
4
360
2346
 90
        3
  8
6
360
2347
 90
        4
  8
SK1
360
2348
 90
       14
  8
SK2
360
2349
 90
        2
  8
SK3
360
234A
 90
        8
  8
CUT
360
234B
 90
       14
  8
NOCUT
360
234C
 90
        7
  0
XRECORD
  5
43
102
{ACAD_REACTORS
330
42
102
}
330
42
100
AcDbXrecord
  1
VERSION
140
15.0
  1
PRODUCT
  2
AutoCAD Mechanical 2000
  0
IDBUFFER
  5
1F4
330
0
100
AcDbIdBuffer
  0
IDBUFFER
  5
210
330
0
100
AcDbIdBuffer
  0
IDBUFFER
  5
29B
330
0
100
AcDbIdBuffer
330
19D1
330
19D6
330
1DFC
330
1E07
330
1E08
330
1E09
330
265F
330
2661
330
2663
330
2664
330
2665
330
2666
330
2667
330
2668
330
2669
330
266A
330
266B
330
266C
330
266D
330
266E
330
266F
330
2670
330
2671
330
2672
330
2673
330
2674
330
2675
330
2676
330
2677
330
2679
330
267B
330
267D
330
267F
330
2681
330
2756
330
2757
330
2758
330
2759
330
275A
330
275B
330
275C
330
2778
330
2779
330
277A
330
277B
330
277C
330
277D
330
277E
330
277F
330
2780
330
2789
330
2794
330
2795
330
27E3
330
27E4
330
29AC
330
29AD
330
2D43
330
2D44
330
2D45
330
2D46
330
2D47
330
2D48
330
2D49
330
2D4A
330
2D4B
330
2D4E
330
2D4F
330
2D50
330
2D51
330
2D52
  0
IDBUFFER
  5
2345
330
0
100
AcDbIdBuffer
330
29E9
330
2A1A
330
2A42
  0
IDBUFFER
  5
2346
330
0
100
AcDbIdBuffer
330
2D6D
330
2D6E
330
21FC
  0
IDBUFFER
  5
2347
330
0
100
AcDbIdBuffer
330
264A
330
2662
330
26A5
330
26A6
  0
IDBUFFER
  5
2348
330
0
100
AcDbIdBuffer
330
19D7
330
19D8
330
19D9
330
21F9
330
21FA
330
21FB
330
2683
330
2684
330
2685
330
2686
330
2773
330
2774
330
2775
330
2776
  0
IDBUFFER
  5
2349
330
0
100
AcDbIdBuffer
330
1A04
330
2462
  0
IDBUFFER
  5
234A
330
0
100
AcDbIdBuffer
330
19DC
330
19DD
330
19DE
330
19DF
330
19E0
330
19E1
330
19E2
330
19E3
  0
IDBUFFER
  5
234B
330
0
100
AcDbIdBuffer
330
264B
330
264C
330
264F
330
2651
330
2653
330
2656
330
2657
330
2659
330
2678
330
267A
330
267C
330
267E
330
2680
330
2682
  0
IDBUFFER
  5
234C
330
0
100
AcDbIdBuffer
330
2874
330
2879
330
287D
330
2880
330
2882
330
2883
330
289A
  0
ENDSEC
  0
EOF
