  0
SECTION
  2
HEADER
  9
$ACADVER
  1
AC1015
  9
$ACADMAINTVER
 70
    13
  9
$DWGCODEPAGE
  3
ANSI_1252
  9
$INSBASE
 10
0.0
 20
0.0
 30
0.0
  9
$EXTMIN
 10
-42.16093929240173
 20
-60.30796521789375
 30
-0.0000000000112498
  9
$EXTMAX
 10
161.7221847267701
 20
79.84434355392875
 30
0.0000000000002956
  9
$LIMMIN
 10
0.0
 20
0.0
  9
$LIMMAX
 10
420.0
 20
297.0
  9
$ORTHOMODE
 70
     0
  9
$REGENMODE
 70
     1
  9
$FILLMODE
 70
     1
  9
$QTEXTMODE
 70
     0
  9
$MIRRTEXT
 70
     1
  9
$LTSCALE
 40
1.0
  9
$ATTMODE
 70
     1
  9
$TEXTSIZE
 40
2.5
  9
$TRACEWID
 40
1.0
  9
$TEXTSTYLE
  7
STANDARD
  9
$CLAYER
  8
0
  9
$CELTYPE
  6
ByLayer
  9
$CECOLOR
 62
   256
  9
$CELTSCALE
 40
1.0
  9
$DISPSILH
 70
     0
  9
$DIMSCALE
 40
1.0
  9
$DIMASZ
 40
2.5
  9
$DIMEXO
 40
0.0
  9
$DIMDLI
 40
10.0
  9
$DIMRND
 40
0.0
  9
$DIMDLE
 40
0.0
  9
$DIMEXE
 40
1.0
  9
$DIMTP
 40
0.1
  9
$DIMTM
 40
0.1
  9
$DIMTXT
 40
3.5
  9
$DIMCEN
 40
0.0
  9
$DIMTSZ
 40
0.0
  9
$DIMTOL
 70
     0
  9
$DIMLIM
 70
     0
  9
$DIMTIH
 70
     0
  9
$DIMTOH
 70
     0
  9
$DIMSE1
 70
     0
  9
$DIMSE2
 70
     0
  9
$DIMTAD
 70
     1
  9
$DIMZIN
 70
     8
  9
$DIMBLK
  1

  9
$DIMASO
 70
     1
  9
$DIMSHO
 70
     1
  9
$DIMPOST
  1

  9
$DIMAPOST
  1
"
  9
$DIMALT
 70
     0
  9
$DIMALTD
 70
     2
  9
$DIMALTF
 40
0.0393701
  9
$DIMLFAC
 40
1.0
  9
$DIMTOFL
 70
     1
  9
$DIMTVP
 40
0.0
  9
$DIMTIX
 70
     0
  9
$DIMSOXD
 70
     0
  9
$DIMSAH
 70
     0
  9
$DIMBLK1
  1

  9
$DIMBLK2
  1

  9
$DIMSTYLE
  2
AM_DIN
  9
$DIMCLRD
 70
   256
  9
$DIMCLRE
 70
   256
  9
$DIMCLRT
 70
     2
  9
$DIMTFAC
 40
0.71
  9
$DIMGAP
 40
1.5
  9
$DIMJUST
 70
     0
  9
$DIMSD1
 70
     0
  9
$DIMSD2
 70
     0
  9
$DIMTOLJ
 70
     0
  9
$DIMTZIN
 70
     8
  9
$DIMALTZ
 70
     0
  9
$DIMALTTZ
 70
     0
  9
$DIMUPT
 70
     0
  9
$DIMDEC
 70
     2
  9
$DIMTDEC
 70
     2
  9
$DIMALTU
 70
     2
  9
$DIMALTTD
 70
     2
  9
$DIMTXSTY
  7
STANDARD
  9
$DIMAUNIT
 70
     0
  9
$DIMADEC
 70
     0
  9
$DIMALTRND
 40
0.0
  9
$DIMAZIN
 70
     2
  9
$DIMDSEP
 70
    46
  9
$DIMATFIT
 70
     3
  9
$DIMFRAC
 70
     0
  9
$DIMLDRBLK
  1

  9
$DIMLUNIT
 70
     2
  9
$DIMLWD
 70
    -1
  9
$DIMLWE
 70
    -1
  9
$DIMTMOVE
 70
     0
  9
$LUNITS
 70
     2
  9
$LUPREC
 70
     2
  9
$SKETCHINC
 40
1.0
  9
$FILLETRAD
 40
5.0
  9
$AUNITS
 70
     0
  9
$AUPREC
 70
     0
  9
$MENU
  1
.
  9
$ELEVATION
 40
0.0
  9
$PELEVATION
 40
0.0
  9
$THICKNESS
 40
0.0
  9
$LIMCHECK
 70
     0
  9
$CHAMFERA
 40
2.5
  9
$CHAMFERB
 40
2.5
  9
$CHAMFERC
 40
20.0
  9
$CHAMFERD
 40
0.0
  9
$SKPOLY
 70
     0
  9
$TDCREATE
 40
2453599.324339374
  9
$TDUCREATE
 40
2453599.282672708
  9
$TDUPDATE
 40
2453767.627140567
  9
$TDUUPDATE
 40
2453767.585473900
  9
$TDINDWG
 40
0.0582265625
  9
$TDUSRTIMER
 40
0.0582022222
  9
$USRTIMER
 70
     1
  9
$ANGBASE
 50
0.0
  9
$ANGDIR
 70
     0
  9
$PDMODE
 70
     0
  9
$PDSIZE
 40
0.0
  9
$PLINEWID
 40
0.0
  9
$SPLFRAME
 70
     0
  9
$SPLINETYPE
 70
     6
  9
$SPLINESEGS
 70
     8
  9
$HANDSEED
  5
2B8F
  9
$SURFTAB1
 70
     6
  9
$SURFTAB2
 70
     6
  9
$SURFTYPE
 70
     6
  9
$SURFU
 70
     6
  9
$SURFV
 70
     6
  9
$UCSBASE
  2

  9
$UCSNAME
  2

  9
$UCSORG
 10
0.0
 20
0.0
 30
0.0
  9
$UCSXDIR
 10
1.0
 20
0.0
 30
0.0
  9
$UCSYDIR
 10
0.0
 20
1.0
 30
0.0
  9
$UCSORTHOREF
  2

  9
$UCSORTHOVIEW
 70
     0
  9
$UCSORGTOP
 10
0.0
 20
0.0
 30
0.0
  9
$UCSORGBOTTOM
 10
0.0
 20
0.0
 30
0.0
  9
$UCSORGLEFT
 10
0.0
 20
0.0
 30
0.0
  9
$UCSORGRIGHT
 10
0.0
 20
0.0
 30
0.0
  9
$UCSORGFRONT
 10
0.0
 20
0.0
 30
0.0
  9
$UCSORGBACK
 10
0.0
 20
0.0
 30
0.0
  9
$PUCSBASE
  2

  9
$PUCSNAME
  2

  9
$PUCSORG
 10
0.0
 20
0.0
 30
0.0
  9
$PUCSXDIR
 10
1.0
 20
0.0
 30
0.0
  9
$PUCSYDIR
 10
0.0
 20
1.0
 30
0.0
  9
$PUCSORTHOREF
  2

  9
$PUCSORTHOVIEW
 70
     0
  9
$PUCSORGTOP
 10
0.0
 20
0.0
 30
0.0
  9
$PUCSORGBOTTOM
 10
0.0
 20
0.0
 30
0.0
  9
$PUCSORGLEFT
 10
0.0
 20
0.0
 30
0.0
  9
$PUCSORGRIGHT
 10
0.0
 20
0.0
 30
0.0
  9
$PUCSORGFRONT
 10
0.0
 20
0.0
 30
0.0
  9
$PUCSORGBACK
 10
0.0
 20
0.0
 30
0.0
  9
$USERI1
 70
     0
  9
$USERI2
 70
     0
  9
$USERI3
 70
     0
  9
$USERI4
 70
     0
  9
$USERI5
 70
     0
  9
$USERR1
 40
0.0
  9
$USERR2
 40
0.0
  9
$USERR3
 40
0.0
  9
$USERR4
 40
0.0
  9
$USERR5
 40
0.0
  9
$WORLDVIEW
 70
     1
  9
$SHADEDGE
 70
     3
  9
$SHADEDIF
 70
    70
  9
$TILEMODE
 70
     1
  9
$MAXACTVP
 70
    64
  9
$PINSBASE
 10
0.0
 20
0.0
 30
0.0
  9
$PLIMCHECK
 70
     0
  9
$PEXTMIN
 10
1.000000000000000E+20
 20
1.000000000000000E+20
 30
1.000000000000000E+20
  9
$PEXTMAX
 10
-1.000000000000000E+20
 20
-1.000000000000000E+20
 30
-1.000000000000000E+20
  9
$PLIMMIN
 10
0.0
 20
0.0
  9
$PLIMMAX
 10
420.0
 20
297.0
  9
$UNITMODE
 70
     0
  9
$VISRETAIN
 70
     1
  9
$PLINEGEN
 70
     0
  9
$PSLTSCALE
 70
     1
  9
$TREEDEPTH
 70
  3020
  9
$CMLSTYLE
  2
Standard
  9
$CMLJUST
 70
     0
  9
$CMLSCALE
 40
20.0
  9
$PROXYGRAPHICS
 70
     1
  9
$MEASUREMENT
 70
     1
  9
$CELWEIGHT
370
    -1
  9
$ENDCAPS
280
     0
  9
$JOINSTYLE
280
     0
  9
$LWDISPLAY
290
     0
  9
$INSUNITS
 70
     4
  9
$HYPERLINKBASE
  1

  9
$STYLESHEET
  1

  9
$XEDIT
290
     1
  9
$CEPSNTYPE
380
     0
  9
$PSTYLEMODE
290
     1
  9
$FINGERPRINTGUID
  2
{03052709-208C-44F1-88CB-F8F0E550BC5D}
  9
$VERSIONGUID
  2
{A08E0DF0-92D3-4D8E-AF1F-99CDD97EEFB0}
  9
$EXTNAMES
290
     1
  9
$PSVPSCALE
 40
0.0
  9
$OLESTARTUP
290
     0
  0
ENDSEC
  0
SECTION
  2
CLASSES
  0
CLASS
  1
ACDBDICTIONARYWDFLT
  2
AcDbDictionaryWithDefault
  3
AutoCAD 2000
 90
        0
280
     0
281
     0
  0
CLASS
  1
ACDBPLACEHOLDER
  2
AcDbPlaceHolder
  3
AutoCAD 2000
 90
        0
280
     0
281
     0
  0
CLASS
  1
LAYOUT
  2
AcDbLayout
  3
AutoCAD 2000
 90
        0
280
     0
281
     0
  0
CLASS
  1
ACME_DOCUMENT
  2
AcMeDbDoc
  3
AcMeServices
 90
        0
280
     0
281
     0
  0
CLASS
  1
ACMESCOPE
  2
AcMeScope
  3
AcMeServices
 90
        0
280
     0
281
     0
  0
CLASS
  1
ACMECOMMANDHISTORY
  2
AcMeCommandHistory
  3
AcMeServices
 90
        0
280
     0
281
     0
  0
CLASS
  1
ACIMSYSVARMAN
  2
AcImSysVarManager
  3
AcMeServices
 90
        0
280
     0
281
     0
  0
CLASS
  1
ACIMREALSYSVAR
  2
AcImRealSysVar
  3
AcMeServices
 90
        0
280
     0
281
     0
  0
CLASS
  1
ACIMINTSYSVAR
  2
AcImIntSysVar
  3
AcMeServices
 90
        0
280
     0
281
     0
  0
CLASS
  1
ACMEDRAWINGMAN
  2
AcMeDrawingMan
  3
AcMeServices
 90
        0
280
     0
281
     0
  0
CLASS
  1
ACMEVIEW
  2
AcMeView
  3
AcMeServices
 90
        0
280
     0
281
     0
  0
CLASS
  1
ACDBENTITYCACHE
  2
AcMeEntityCache
  3
AcMeServices
 90
        0
280
     0
281
     0
  0
CLASS
  1
GSMANAGER
  2
AcMeGSManager
  3
AcMeServices
 90
        0
280
     0
281
     0
  0
CLASS
  1
AMDTINTERNALREACTOR
  2
AmdtInternalReactor
  3
AcMeServices
 90
        0
280
     0
281
     0
  0
CLASS
  1
ACMESTATEMGR
  2
AcMeStateMgr
  3
AcMeServices
 90
        0
280
     0
281
     0
  0
CLASS
  1
ACGREFMASTER
  2
AcGrefMaster
  3
AcAttribServices
 90
        0
280
     0
281
     0
  0
CLASS
  1
ACME_DATABASE
  2
AcMeDbDatabase
  3
AcMeServices
 90
        0
280
     0
281
     0
  0
CLASS
  1
ACRFINSADJUSTERMGR
  2
AcRfInsAdjusterMgr
  3
AcMeServices
 90
        0
280
     0
281
     0
  0
CLASS
  1
ACGREFACADMASTER
  2
AcGrefacadMaster
  3
AcGrefServices
 90
        0
280
     0
281
     0
  0
CLASS
  1
AMIMASTER
  2
AmiMaster
  3
AmiServices
 90
        0
280
     0
281
     0
  0
CLASS
  1
AMGSETTINGSOBJ
  2
AmgSettingsObj
  3
"AcadM|Product Description: AutoCAD Mechanical 2000|Company: Autodesk"
 90
        0
280
     0
281
     0
  0
CLASS
  1
ACMDATADICTIONARY
  2
AcmDataDictionary
  3
"AcmSymBB|Product Description: AutoCAD Mechanical 2000|Company: Autodesk"
 90
        0
280
     0
281
     0
  0
CLASS
  1
ACMDATAENTRYBLOCK
  2
AcmDataEntryBlock
  3
"AcmSymBB|Product Description: AutoCAD Mechanical 2000|Company: Autodesk"
 90
        0
280
     0
281
     0
  0
CLASS
  1
ACIMSTRSYSVAR
  2
AcImStrSysVar
  3
AcMeServices
 90
        0
280
     0
281
     0
  0
CLASS
  1
ACMSTANDARDDIN
  2
AcmStandardDIN
  3
"Amdt_StdImp|Product Description: AutoCAD Mechanical 2000|Company: Autodesk"
 90
        0
280
     0
281
     0
  0
CLASS
  1
AMGOBJPROPCFG
  2
AmgObjPropCfg
  3
"AmgLay|Product Description: AutoCAD Mechanical 2000|Company: Autodesk"
 90
        1
280
     0
281
     0
  0
CLASS
  1
AMDTEDGESTANDARDDIN
  2
AmdtEdgeStdDIN
  3
"Amdt_StdImp|Product Description: AutoCAD Mechanical 2000|Company: Autodesk"
 90
        0
280
     0
281
     0
  0
CLASS
  1
ACMSURFSTANDARDDIN
  2
AcmSurfTextStdDIN
  3
"Amdt_StdImp|Product Description: AutoCAD Mechanical 2000|Company: Autodesk"
 90
        0
280
     0
281
     0
  0
CLASS
  1
ACMFCFSTANDARDDIN
  2
AcmFCFStdDIN
  3
"Amdt_StdImp|Product Description: AutoCAD Mechanical 2000|Company: Autodesk"
 90
        0
280
     0
281
     0
  0
CLASS
  1
ACMWELDSTANDARDDIN
  2
AcmWeldingStdDIN
  3
"Amdt_StdImp|Product Description: AutoCAD Mechanical 2000|Company: Autodesk"
 90
        0
280
     0
281
     0
  0
CLASS
  1
ACMIDSTANDARDDIN
  2
AcmIdStdDIN
  3
"Amdt_StdImp|Product Description: AutoCAD Mechanical 2000|Company: Autodesk"
 90
        0
280
     0
281
     0
  0
CLASS
  1
ACMDATUMSTANDARDDIN
  2
AcmDatumStdDIN
  3
"Amdt_StdImp|Product Description: AutoCAD Mechanical 2000|Company: Autodesk"
 90
        0
280
     0
281
     0
  0
CLASS
  1
ACMBOMSTANDARDDIN
  2
AcmBOMStdDIN
  3
"Amdt_StdImp|Product Description: AutoCAD Mechanical 2000|Company: Autodesk"
 90
        0
280
     0
281
     0
  0
CLASS
  1
ACMDETAILSTANDARDDIN
  2
AmdtDetailSymStdDIN
  3
"Amdt_StdImp|Product Description: AutoCAD Mechanical 2000|Company: Autodesk"
 90
        0
280
     0
281
     0
  0
CLASS
  1
ACMSECTIONSTANDARDDIN
  2
AmdtSectionSymStdDIN
  3
"Amdt_StdImp|Product Description: AutoCAD Mechanical 2000|Company: Autodesk"
 90
        0
280
     0
281
     0
  0
CLASS
  1
ACMCENTERLINESTANDARDDIN
  2
AmdtCenterLineStdDIN
  3
"Amdt_StdImp|Product Description: AutoCAD Mechanical 2000|Company: Autodesk"
 90
        0
280
     0
281
     0
  0
CLASS
  1
ACMNOTESTANDARDDIN
  2
AmdtNoteStdDIN
  3
"Amdt_StdImp|Product Description: AutoCAD Mechanical 2000|Company: Autodesk"
 90
        0
280
     0
281
     0
  0
CLASS
  1
ACAMGLAYSTD
  2
AcAmgLayStd
  3
"AcAmgLayStd|Product Description: AutoCAD Mechanical 2000|Company: Autodesk"
 90
        0
280
     0
281
     0
  0
CLASS
  1
ACAMGDIMSTD
  2
AcAmgDimStd
  3
"AcAmgDimStd|Product Description: AutoCAD Mechanical 2000|Company: Autodesk"
 90
        0
280
     0
281
     0
  0
CLASS
  1
ACAMGHOLECHARTSTDDIN
  2
AcAmgHoleChartStdDIN
  3
ACMSYMBB_MODULE_NAME
 90
        0
280
     0
281
     0
  0
CLASS
  1
ACAMGTITLESTD
  2
AcAmgTitleStd
  3
"TITLEAPP"
 90
        0
280
     0
281
     0
  0
CLASS
  1
ACMSTANDARDANSI
  2
AcmStandardANSI
  3
"Amdt_StdImp|Product Description: AutoCAD Mechanical 2000|Company: Autodesk"
 90
        0
280
     0
281
     0
  0
CLASS
  1
ACMSURFSTANDARDANSI
  2
AcmSurfTextStdANSI
  3
"Amdt_StdImp|Product Description: AutoCAD Mechanical 2000|Company: Autodesk"
 90
        0
280
     0
281
     0
  0
CLASS
  1
ACMFCFSTANDARDANSI
  2
AcmFCFStdANSI
  3
"Amdt_StdImp|Product Description: AutoCAD Mechanical 2000|Company: Autodesk"
 90
        0
280
     0
281
     0
  0
CLASS
  1
ACMWELDSTANDARDANSI
  2
AcmWeldingStdANSI
  3
"Amdt_StdImp|Product Description: AutoCAD Mechanical 2000|Company: Autodesk"
 90
        0
280
     0
281
     0
  0
CLASS
  1
ACMIDSTANDARDANSI
  2
AcmIdStdANSI
  3
"Amdt_StdImp|Product Description: AutoCAD Mechanical 2000|Company: Autodesk"
 90
        0
280
     0
281
     0
  0
CLASS
  1
ACMDATUMSTANDARDANSI
  2
AcmDatumStdANSI
  3
"Amdt_StdImp|Product Description: AutoCAD Mechanical 2000|Company: Autodesk"
 90
        0
280
     0
281
     0
  0
CLASS
  1
ACMBOMSTANDARDANSI
  2
AcmBOMStdANSI
  3
"Amdt_StdImp|Product Description: AutoCAD Mechanical 2000|Company: Autodesk"
 90
        0
280
     0
281
     0
  0
CLASS
  1
ACMDETAILSTANDARDANSI
  2
AmdtDetailSymStdANSI
  3
"Amdt_StdImp|Product Description: AutoCAD Mechanical 2000|Company: Autodesk"
 90
        0
280
     0
281
     0
  0
CLASS
  1
ACMSECTIONSTANDARDANSI
  2
AmdtSectionSymStdANSI
  3
"Amdt_StdImp|Product Description: AutoCAD Mechanical 2000|Company: Autodesk"
 90
        0
280
     0
281
     0
  0
CLASS
  1
ACMCENTERLINESTANDARDANSI
  2
AmdtCenterLineStdANSI
  3
"Amdt_StdImp|Product Description: AutoCAD Mechanical 2000|Company: Autodesk"
 90
        0
280
     0
281
     0
  0
CLASS
  1
ACMNOTESTANDARDANSI
  2
AmdtNoteStdANSI
  3
"Amdt_StdImp|Product Description: AutoCAD Mechanical 2000|Company: Autodesk"
 90
        0
280
     0
281
     0
  0
CLASS
  1
ACAMGHOLECHARTSTDANSI
  2
AcAmgHoleChartStdANSI
  3
ACMSYMBB_MODULE_NAME
 90
        0
280
     0
281
     0
  0
CLASS
  1
ACAMGFILTERDAT
  2
AcAmgFilterDat
  3
"AcadM|Product Description: AutoCAD Mechanical 2000|Company: Autodesk"
 90
        0
280
     0
281
     0
  0
CLASS
  1
AMDTFORMULAUPDATEDISPATCHER
  2
AmdtFormulaUpdateDispatcher
  3
AcMeServices
 90
        0
280
     0
281
     0
  0
CLASS
  1
LAYER_INDEX
  2
AcDbLayerIndex
  3
AutoCAD 2000
 90
        0
280
     0
281
     0
  0
CLASS
  1
IDBUFFER
  2
AcDbIdBuffer
  3
AutoCAD 2000
 90
        0
280
     0
281
     0
  0
CLASS
  1
DICTIONARYVAR
  2
AcDbDictionaryVar
  3
AutoCAD 2000
 90
        0
280
     0
281
     0
  0
CLASS
  1
DIMASSOC
  2
AcDbDimAssoc
  3
"AcDbDimAssoc|Product Desc:     AcDim ARX App For Dimension|Company:          Autodesk, Inc.|WEB Address:      www.autodesk.com"
 90
    32768
280
     0
281
     0
  0
CLASS
  1
ACMDIMBREAKPERSREACTOR
  2
AcmDimBreakPersReactor
  3
amgDimApp().moduleName()
 90
    33791
280
     0
281
     0
  0
CLASS
  1
ACMSURFSYM
  2
AcmSurfaceTexture
  3
"AcmSymBB|Product Description: AutoCAD Mechanical 2000|Company: Autodesk"
 90
    33791
280
     0
281
     1
  0
CLASS
  1
ACMFCFRAME
  2
AcmFCF
  3
"AcmSymBB|Product Description: AutoCAD Mechanical 2000|Company: Autodesk"
 90
    33791
280
     0
281
     1
  0
CLASS
  1
ACMSTANDARDBSI
  2
AcmStandardBSI
  3
"Amdt_StdImp|Product Description: AutoCAD Mechanical 2000|Company: Autodesk"
 90
        0
280
     0
281
     0
  0
CLASS
  1
ACMSURFSTANDARDBSI
  2
AcmSurfTextStdBSI
  3
"Amdt_StdImp|Product Description: AutoCAD Mechanical 2000|Company: Autodesk"
 90
        0
280
     0
281
     0
  0
CLASS
  1
ACMFCFSTANDARDBSI
  2
AcmFCFStdBSI
  3
"Amdt_StdImp|Product Description: AutoCAD Mechanical 2000|Company: Autodesk"
 90
        0
280
     0
281
     0
  0
CLASS
  1
ACMWELDSTANDARDBSI
  2
AcmWeldingStdBSI
  3
"Amdt_StdImp|Product Description: AutoCAD Mechanical 2000|Company: Autodesk"
 90
        0
280
     0
281
     0
  0
CLASS
  1
ACMIDSTANDARDBSI
  2
AcmIdStdBSI
  3
"Amdt_StdImp|Product Description: AutoCAD Mechanical 2000|Company: Autodesk"
 90
        0
280
     0
281
     0
  0
CLASS
  1
ACMDATUMSTANDARDBSI
  2
AcmDatumStdBSI
  3
"Amdt_StdImp|Product Description: AutoCAD Mechanical 2000|Company: Autodesk"
 90
        0
280
     0
281
     0
  0
CLASS
  1
ACMBOMSTANDARDBSI
  2
AcmBOMStdBSI
  3
"Amdt_StdImp|Product Description: AutoCAD Mechanical 2000|Company: Autodesk"
 90
        0
280
     0
281
     0
  0
CLASS
  1
ACMDETAILSTANDARDBSI
  2
AmdtDetailSymStdBSI
  3
"Amdt_StdImp|Product Description: AutoCAD Mechanical 2000|Company: Autodesk"
 90
        0
280
     0
281
     0
  0
CLASS
  1
ACMSECTIONSTANDARDBSI
  2
AmdtSectionSymStdBSI
  3
"Amdt_StdImp|Product Description: AutoCAD Mechanical 2000|Company: Autodesk"
 90
        0
280
     0
281
     0
  0
CLASS
  1
ACMCENTERLINESTANDARDBSI
  2
AmdtCenterLineStdBSI
  3
"Amdt_StdImp|Product Description: AutoCAD Mechanical 2000|Company: Autodesk"
 90
        0
280
     0
281
     0
  0
CLASS
  1
ACMTHREADLINESTANDARDBSI
  2
AmdtThreadLineStdBSI
  3
"Amdt_StdImp|Product Description: AutoCAD Mechanical 2000|Company: Autodesk"
 90
        0
280
     0
281
     0
  0
CLASS
  1
ACMNOTESTANDARDBSI
  2
AmdtNoteStdBSI
  3
"Amdt_StdImp|Product Description: AutoCAD Mechanical 2000|Company: Autodesk"
 90
        0
280
     0
281
     0
  0
CLASS
  1
ACMSTANDARDISO
  2
AcmStandardISO
  3
"Amdt_StdImp|Product Description: AutoCAD Mechanical 2000|Company: Autodesk"
 90
        0
280
     0
281
     0
  0
CLASS
  1
AMDTEDGESTANDARDISO
  2
AmdtEdgeStdISO
  3
"Amdt_StdImp|Product Description: AutoCAD Mechanical 2000|Company: Autodesk"
 90
        0
280
     0
281
     0
  0
CLASS
  1
ACMSURFSTANDARDISO
  2
AcmSurfTextStdISO
  3
"Amdt_StdImp|Product Description: AutoCAD Mechanical 2000|Company: Autodesk"
 90
        0
280
     0
281
     0
  0
CLASS
  1
ACMFCFSTANDARDISO
  2
AcmFCFStdISO
  3
"Amdt_StdImp|Product Description: AutoCAD Mechanical 2000|Company: Autodesk"
 90
        0
280
     0
281
     0
  0
CLASS
  1
ACMWELDSTANDARDISO
  2
AcmWeldingStdISO
  3
"Amdt_StdImp|Product Description: AutoCAD Mechanical 2000|Company: Autodesk"
 90
        0
280
     0
281
     0
  0
CLASS
  1
ACMIDSTANDARDISO
  2
AcmIdStdISO
  3
"Amdt_StdImp|Product Description: AutoCAD Mechanical 2000|Company: Autodesk"
 90
        0
280
     0
281
     0
  0
CLASS
  1
ACMDATUMSTANDARDISO
  2
AcmDatumStdISO
  3
"Amdt_StdImp|Product Description: AutoCAD Mechanical 2000|Company: Autodesk"
 90
        0
280
     0
281
     0
  0
CLASS
  1
ACMBOMSTANDARDISO
  2
AcmBOMStdISO
  3
"Amdt_StdImp|Product Description: AutoCAD Mechanical 2000|Company: Autodesk"
 90
        0
280
     0
281
     0
  0
CLASS
  1
ACMDETAILSTANDARDISO
  2
AmdtDetailSymStdISO
  3
"Amdt_StdImp|Product Description: AutoCAD Mechanical 2000|Company: Autodesk"
 90
        0
280
     0
281
     0
  0
CLASS
  1
ACMSECTIONSTANDARDISO
  2
AmdtSectionSymStdISO
  3
"Amdt_StdImp|Product Description: AutoCAD Mechanical 2000|Company: Autodesk"
 90
        0
280
     0
281
     0
  0
CLASS
  1
ACMCENTERLINESTANDARDISO
  2
AmdtCenterLineStdISO
  3
"Amdt_StdImp|Product Description: AutoCAD Mechanical 2000|Company: Autodesk"
 90
        0
280
     0
281
     0
  0
CLASS
  1
ACMTHREADLINESTANDARDISO
  2
AmdtThreadLineStdISO
  3
"Amdt_StdImp|Product Description: AutoCAD Mechanical 2000|Company: Autodesk"
 90
        0
280
     0
281
     0
  0
CLASS
  1
ACMNOTESTANDARDISO
  2
AmdtNoteStdISO
  3
"Amdt_StdImp|Product Description: AutoCAD Mechanical 2000|Company: Autodesk"
 90
        0
280
     0
281
     0
  0
CLASS
  1
ACMSTANDARDJIS
  2
AcmStandardJIS
  3
"Amdt_StdImp|Product Description: AutoCAD Mechanical 2000|Company: Autodesk"
 90
        0
280
     0
281
     0
  0
CLASS
  1
ACMSURFSTANDARDJIS
  2
AcmSurfTextStdJIS
  3
"Amdt_StdImp|Product Description: AutoCAD Mechanical 2000|Company: Autodesk"
 90
        0
280
     0
281
     0
  0
CLASS
  1
ACMFCFSTANDARDJIS98
  2
AcmFCFStdJIS98
  3
"Amdt_StdImp|Product Description: AutoCAD Mechanical 2000|Company: Autodesk"
 90
        0
280
     0
281
     0
  0
CLASS
  1
ACMWELDSTANDARDJIS
  2
AcmWeldingStdJIS
  3
"Amdt_StdImp|Product Description: AutoCAD Mechanical 2000|Company: Autodesk"
 90
        0
280
     0
281
     0
  0
CLASS
  1
ACMIDSTANDARDJIS
  2
AcmIdStdJIS
  3
"Amdt_StdImp|Product Description: AutoCAD Mechanical 2000|Company: Autodesk"
 90
        0
280
     0
281
     0
  0
CLASS
  1
ACMDATUMSTANDARDJIS
  2
AcmDatumStdJIS
  3
"Amdt_StdImp|Product Description: AutoCAD Mechanical 2000|Company: Autodesk"
 90
        0
280
     0
281
     0
  0
CLASS
  1
ACMBOMSTANDARDJIS
  2
AcmBOMStdJIS
  3
"Amdt_StdImp|Product Description: AutoCAD Mechanical 2000|Company: Autodesk"
 90
        0
280
     0
281
     0
  0
CLASS
  1
ACMDETAILSTANDARDJIS
  2
AmdtDetailSymStdJIS
  3
"Amdt_StdImp|Product Description: AutoCAD Mechanical 2000|Company: Autodesk"
 90
        0
280
     0
281
     0
  0
CLASS
  1
ACMSECTIONSTANDARDJIS
  2
AmdtSectionSymStdJIS
  3
"Amdt_StdImp|Product Description: AutoCAD Mechanical 2000|Company: Autodesk"
 90
        0
280
     0
281
     0
  0
CLASS
  1
ACMCENTERLINESTANDARDJIS
  2
AmdtCenterLineStdJIS
  3
"Amdt_StdImp|Product Description: AutoCAD Mechanical 2000|Company: Autodesk"
 90
        0
280
     0
281
     0
  0
CLASS
  1
ACMTHREADLINESTANDARDJIS
  2
AmdtThreadLineStdJIS
  3
"Amdt_StdImp|Product Description: AutoCAD Mechanical 2000|Company: Autodesk"
 90
        0
280
     0
281
     0
  0
CLASS
  1
ACMNOTESTANDARDJIS
  2
AmdtNoteStdJIS
  3
"Amdt_StdImp|Product Description: AutoCAD Mechanical 2000|Company: Autodesk"
 90
        0
280
     0
281
     0
  0
ENDSEC
  0
SECTION
  2
TABLES
  0
TABLE
  2
VPORT
  5
8
330
0
100
AcDbSymbolTable
 70
     4
  0
VPORT
  5
2B8E
330
8
100
AcDbSymbolTableRecord
100
AcDbViewportTableRecord
  2
*Active
 70
     0
 10
0.0
 20
0.0
 11
1.0
 21
1.0
 12
188.9195303537991
 22
118.3460173910531
 13
0.0
 23
0.0
 14
2.5
 24
2.5
 15
10.0
 25
10.0
 16
0.0
 26
0.0
 36
1.0
 17
0.0
 27
0.0
 37
0.0
 40
361.3002329856914
 41
1.716417910447761
 42
50.0
 43
0.0
 44
0.0
 50
0.0
 51
0.0
 71
     0
 72
 10000
 73
     1
 74
     3
 75
     0
 76
     0
 77
     0
 78
     0
281
     0
 65
     1
110
0.0
120
0.0
130
0.0
111
1.0
121
0.0
131
0.0
112
0.0
122
1.0
132
0.0
 79
     0
146
0.0
  0
ENDTAB
  0
TABLE
  2
LTYPE
  5
5
330
0
100
AcDbSymbolTable
 70
    24
  0
LTYPE
  5
14
330
5
100
AcDbSymbolTableRecord
100
AcDbLinetypeTableRecord
  2
ByBlock
 70
     0
  3

 72
    65
 73
     0
 40
0.0
  0
LTYPE
  5
15
330
5
100
AcDbSymbolTableRecord
100
AcDbLinetypeTableRecord
  2
ByLayer
 70
     0
  3

 72
    65
 73
     0
 40
0.0
  0
LTYPE
  5
16
330
5
100
AcDbSymbolTableRecord
100
AcDbLinetypeTableRecord
  2
Continuous
 70
     0
  3
Solid line
 72
    65
 73
     0
 40
0.0
  0
LTYPE
  5
50
330
5
100
AcDbSymbolTableRecord
100
AcDbLinetypeTableRecord
  2
Amconstr
 70
     0
  3
_______________________
 72
    65
 73
     2
 40
9999.0
 49
9999.0
 74
     0
 49
0.0
 74
     0
  0
LTYPE
  5
55
330
5
100
AcDbSymbolTableRecord
100
AcDbLinetypeTableRecord
  2
Amzigzag
 70
     0
  3
/\/-/\/-/\/-/\/-/\/-/\/
 72
    65
 73
     2
 40
11.00009999999999
 49
0.0001
 74
     4
 75
   135
340
54
 46
0.04
 50
0.0
 44
0.0
 45
0.0
 49
-11.0
 74
     0
  0
LTYPE
  5
56
330
5
100
AcDbSymbolTableRecord
100
AcDbLinetypeTableRecord
  2
AM_DIN_F_W050
 70
     0
  3
__ __ __ __ __ __ __ __ __ __ __ __ __ __ __
 72
    65
 73
     2
 40
6.25
 49
4.75
 74
     0
 49
-1.5
 74
     0
  0
LTYPE
  5
57
330
5
100
AcDbSymbolTableRecord
100
AcDbLinetypeTableRecord
  2
AM_DIN_G_W050
 70
     0
  3
____ . ____ . ____ . ____ . ____ . ____ . ____
 72
    65
 73
     4
 40
13.75
 49
9.75
 74
     0
 49
-1.5
 74
     0
 49
1.0
 74
     0
 49
-1.5
 74
     0
  0
LTYPE
  5
58
330
5
100
AcDbSymbolTableRecord
100
AcDbLinetypeTableRecord
  2
AM_DIN_K_W050
 70
     0
  3
_____ . . _____ . . _____ . . ____ .. ____
 72
    65
 73
     6
 40
16.25
 49
9.75
 74
     0
 49
-1.5
 74
     0
 49
1.0
 74
     0
 49
-1.5
 74
     0
 49
1.0
 74
     0
 49
-1.5
 74
     0
  0
LTYPE
  5
59
330
5
100
AcDbSymbolTableRecord
100
AcDbLinetypeTableRecord
  2
AM_DIN_G_W050x2
 70
     0
  3
__ . __ . __ . __ . __ . __
 72
    65
 73
     4
 40
6.875
 49
4.75
 74
     0
 49
-0.875
 74
     0
 49
0.375
 74
     0
 49
-0.875
 74
     0
  0
LTYPE
  5
5A
330
5
100
AcDbSymbolTableRecord
100
AcDbLinetypeTableRecord
  2
AM_DIN_F_W050x2
 70
     0
  3
 _ _ _ _ _ _ _ _ _ _ _ _
 72
    65
 73
     2
 40
3.125
 49
2.25
 74
     0
 49
-0.875
 74
     0
  0
LTYPE
  5
68
330
5
100
AcDbSymbolTableRecord
100
AcDbLinetypeTableRecord
  2
ACDINWELD
 70
     0
  3
_ _ _ _ _
 72
    65
 73
     2
 40
2.0
 49
2.0
 74
     0
 49
-1.0
 74
     0
  0
LTYPE
  5
69
330
5
100
AcDbSymbolTableRecord
100
AcDbLinetypeTableRecord
  2
ACDINTGB
 70
     0
  3
__ . . __ . .
 72
    65
 73
     6
 40
9.0
 49
4.0
 74
     0
 49
-1.0
 74
     0
 49
1.0
 74
     0
 49
-1.0
 74
     0
 49
1.0
 74
     0
 49
-1.0
 74
     0
  0
LTYPE
  5
6A
330
5
100
AcDbSymbolTableRecord
100
AcDbLinetypeTableRecord
  2
ACDINTGL
 70
     0
  3
_ _ _ _ _
 72
    65
 73
     2
 40
3.0
 49
2.0
 74
     0
 49
-1.0
 74
     0
  0
LTYPE
  5
6C
330
5
100
AcDbSymbolTableRecord
100
AcDbLinetypeTableRecord
  2
CENTER
 70
     0
  3
__ . __
 72
    65
 73
     4
 40
7.0
 49
4.0
 74
     0
 49
-1.0
 74
     0
 49
1.0
 74
     0
 49
-1.0
 74
     0
  0
LTYPE
  5
2027
330
5
100
AcDbSymbolTableRecord
100
AcDbLinetypeTableRecord
  2
PHANTOM2
 70
     0
  3
Phantom (.5x) ___ _ _ ___ _ _ ___ _ _ ___ _ _
 72
    65
 73
     6
 40
1.25
 49
0.625
 74
     0
 49
-0.125
 74
     0
 49
0.125
 74
     0
 49
-0.125
 74
     0
 49
0.125
 74
     0
 49
-0.125
 74
     0
  0
LTYPE
  5
2028
330
5
100
AcDbSymbolTableRecord
100
AcDbLinetypeTableRecord
  2
ACANSTGB
 70
     0
  3
__ . . __ . .
 72
    65
 73
     6
 40
0.35433070866
 49
0.15748031496
 74
     0
 49
-0.03937007874
 74
     0
 49
0.03937007874
 74
     0
 49
-0.03937007874
 74
     0
 49
0.03937007874
 74
     0
 49
-0.03937007874
 74
     0
  0
LTYPE
  5
2029
330
5
100
AcDbSymbolTableRecord
100
AcDbLinetypeTableRecord
  2
ACANSTGL
 70
     0
  3
_ _ _ _ _
 72
    65
 73
     2
 40
0.11811023622
 49
0.07874015748
 74
     0
 49
-0.03937007874
 74
     0
  0
LTYPE
  5
202A
330
5
100
AcDbSymbolTableRecord
100
AcDbLinetypeTableRecord
  2
DASHED
 70
     0
  3
__ __ __ __ __ __ __ __ __ __ __ __ __ __ __ __
 72
    65
 73
     2
 40
19.05
 49
12.7
 74
     0
 49
-6.349999999999998
 74
     0
  0
LTYPE
  5
2556
330
5
100
AcDbSymbolTableRecord
100
AcDbLinetypeTableRecord
  2
ACJISTGB
 70
     0
  3
__ . . __ . .
 72
    65
 73
     6
 40
9.0
 49
4.0
 74
     0
 49
-1.0
 74
     0
 49
1.0
 74
     0
 49
-1.0
 74
     0
 49
1.0
 74
     0
 49
-1.0
 74
     0
  0
LTYPE
  5
2557
330
5
100
AcDbSymbolTableRecord
100
AcDbLinetypeTableRecord
  2
ACJISTGL
 70
     0
  3
_ _ _ _ _
 72
    65
 73
     2
 40
3.0
 49
2.0
 74
     0
 49
-1.0
 74
     0
  0
LTYPE
  5
2558
330
5
100
AcDbSymbolTableRecord
100
AcDbLinetypeTableRecord
  2
ACBSIWELD
 70
     0
  3
_ _ _ _ _
 72
    65
 73
     2
 40
2.0
 49
2.0
 74
     0
 49
-1.0
 74
     0
  0
LTYPE
  5
2559
330
5
100
AcDbSymbolTableRecord
100
AcDbLinetypeTableRecord
  2
ACBSITGB
 70
     0
  3
__ . . __ . .
 72
    65
 73
     6
 40
9.0
 49
4.0
 74
     0
 49
-1.0
 74
     0
 49
1.0
 74
     0
 49
-1.0
 74
     0
 49
1.0
 74
     0
 49
-1.0
 74
     0
  0
LTYPE
  5
255A
330
5
100
AcDbSymbolTableRecord
100
AcDbLinetypeTableRecord
  2
ACBSITGL
 70
     0
  3
_ _ _ _ _
 72
    65
 73
     2
 40
3.0
 49
2.0
 74
     0
 49
-1.0
 74
     0
  0
LTYPE
  5
255B
330
5
100
AcDbSymbolTableRecord
100
AcDbLinetypeTableRecord
  2
ACISOWELD
 70
     0
  3
_ _ _ _ _
 72
    65
 73
     2
 40
2.0
 49
2.0
 74
     0
 49
-1.0
 74
     0
  0
LTYPE
  5
255C
330
5
100
AcDbSymbolTableRecord
100
AcDbLinetypeTableRecord
  2
ACISOTGB
 70
     0
  3
__ . . __ . .
 72
    65
 73
     6
 40
9.0
 49
4.0
 74
     0
 49
-1.0
 74
     0
 49
1.0
 74
     0
 49
-1.0
 74
     0
 49
1.0
 74
     0
 49
-1.0
 74
     0
  0
LTYPE
  5
255D
330
5
100
AcDbSymbolTableRecord
100
AcDbLinetypeTableRecord
  2
ACISOTGL
 70
     0
  3
_ _ _ _ _
 72
    65
 73
     2
 40
3.0
 49
2.0
 74
     0
 49
-1.0
 74
     0
  0
ENDTAB
  0
TABLE
  2
LAYER
  5
2
330
0
100
AcDbSymbolTable
 70
    11
  0
LAYER
  5
10
330
2
100
AcDbSymbolTableRecord
100
AcDbLayerTableRecord
  2
0
 70
     0
 62
     7
  6
Continuous
370
    -3
390
F
  0
LAYER
  5
263
330
2
100
AcDbSymbolTableRecord
100
AcDbLayerTableRecord
  2
Defpoints
 70
     0
 62
     7
  6
Continuous
290
     0
370
    -3
390
F
  0
LAYER
  5
202B
330
2
100
AcDbSymbolTableRecord
100
AcDbLayerTableRecord
  2
1
 70
     0
 62
     4
  6
Continuous
370
    -3
390
F
  0
LAYER
  5
202C
330
2
100
AcDbSymbolTableRecord
100
AcDbLayerTableRecord
  2
2
 70
     0
 62
     7
  6
Continuous
370
    -3
390
F
  0
LAYER
  5
202D
330
2
100
AcDbSymbolTableRecord
100
AcDbLayerTableRecord
  2
4
 70
     0
 62
     2
  6
CENTER
370
    -3
390
F
  0
LAYER
  5
202E
330
2
100
AcDbSymbolTableRecord
100
AcDbLayerTableRecord
  2
6
 70
     0
 62
     5
  6
Continuous
370
    -3
390
F
  0
LAYER
  5
202F
330
2
100
AcDbSymbolTableRecord
100
AcDbLayerTableRecord
  2
SK1
 70
     0
 62
     4
  6
Continuous
370
    -3
390
F
  0
LAYER
  5
2030
330
2
100
AcDbSymbolTableRecord
100
AcDbLayerTableRecord
  2
SK2
 70
     0
 62
     7
  6
Continuous
370
    -3
390
F
  0
LAYER
  5
2031
330
2
100
AcDbSymbolTableRecord
100
AcDbLayerTableRecord
  2
SK3
 70
     0
 62
     1
  6
DASHED
370
    -3
390
F
  0
LAYER
  5
2032
330
2
100
AcDbSymbolTableRecord
100
AcDbLayerTableRecord
  2
CUT
 70
     0
 62
     1
  6
Continuous
370
    -3
390
F
  0
LAYER
  5
29D2
330
2
100
AcDbSymbolTableRecord
100
AcDbLayerTableRecord
  2
NOCUT
 70
     0
 62
     7
  6
Continuous
370
    -3
390
F
  0
ENDTAB
  0
TABLE
  2
STYLE
  5
3
330
0
100
AcDbSymbolTable
 70
    12
  0
STYLE
  5
11
330
3
100
AcDbSymbolTableRecord
100
AcDbTextStyleTableRecord
  2
STANDARD
 70
     0
 40
0.0
 41
1.0
 50
0.0
 71
     0
 42
2.5
  3
ISOCP.SHX
  4

  0
STYLE
  5
54
330
3
100
AcDbSymbolTableRecord
100
AcDbTextStyleTableRecord
  2

 70
     1
 40
0.0
 41
1.0
 50
0.0
 71
     0
 42
2.5
  3
ltypeshp.shx
  4

  0
STYLE
  5
5B
330
3
100
AcDbSymbolTableRecord
100
AcDbTextStyleTableRecord
  2
ACDINTS
 70
     0
 40
1.0
 41
1.0
 50
0.0
 71
     0
 42
2.5
  3
isocp.shx
  4

  0
STYLE
  5
67
330
3
100
AcDbSymbolTableRecord
100
AcDbTextStyleTableRecord
  2
ACDINGDT
 70
     0
 40
0.0
 41
1.0
 50
0.0
 71
     0
 42
2.5
  3
amgdt.shx
  4

  0
STYLE
  5
2034
330
3
100
AcDbSymbolTableRecord
100
AcDbTextStyleTableRecord
  2
ACANSTS
 70
     0
 40
1.0
 41
1.0
 50
0.0
 71
     0
 42
0.2
  3
romans.shx
  4

  0
STYLE
  5
2035
330
3
100
AcDbSymbolTableRecord
100
AcDbTextStyleTableRecord
  2
ACANSGDT
 70
     0
 40
0.0
 41
1.0
 50
0.0
 71
     0
 42
0.2
  3
amgdtans.shx
  4

  0
STYLE
  5
255E
330
3
100
AcDbSymbolTableRecord
100
AcDbTextStyleTableRecord
  2
ACJISTS
 70
     0
 40
1.0
 41
1.0
 50
0.0
 71
     0
 42
3.5
  3
isocp.shx
  4
bigfont.shx
  0
STYLE
  5
255F
330
3
100
AcDbSymbolTableRecord
100
AcDbTextStyleTableRecord
  2
ACJISGDT
 70
     0
 40
0.0
 41
1.0
 50
0.0
 71
     0
 42
3.5
  3
amgdt.shx
  4

  0
STYLE
  5
2560
330
3
100
AcDbSymbolTableRecord
100
AcDbTextStyleTableRecord
  2
ACBSITS
 70
     0
 40
1.0
 41
1.0
 50
0.0
 71
     0
 42
3.5
  3
isocp.shx
  4

  0
STYLE
  5
2561
330
3
100
AcDbSymbolTableRecord
100
AcDbTextStyleTableRecord
  2
ACBSIGDT
 70
     0
 40
0.0
 41
1.0
 50
0.0
 71
     0
 42
3.5
  3
amgdt.shx
  4

  0
STYLE
  5
2562
330
3
100
AcDbSymbolTableRecord
100
AcDbTextStyleTableRecord
  2
ACISOTS
 70
     0
 40
1.0
 41
1.0
 50
0.0
 71
     0
 42
3.5
  3
isocp.shx
  4

  0
STYLE
  5
2563
330
3
100
AcDbSymbolTableRecord
100
AcDbTextStyleTableRecord
  2
ACISOGDT
 70
     0
 40
0.0
 41
1.0
 50
0.0
 71
     0
 42
3.5
  3
amgdt.shx
  4

  0
ENDTAB
  0
TABLE
  2
VIEW
  5
6
330
0
100
AcDbSymbolTable
 70
     0
  0
ENDTAB
  0
TABLE
  2
UCS
  5
7
330
0
100
AcDbSymbolTable
 70
     0
  0
ENDTAB
  0
TABLE
  2
APPID
  5
9
330
0
100
AcDbSymbolTable
 70
    59
  0
APPID
  5
12
330
9
100
AcDbSymbolTableRecord
100
AcDbRegAppTableRecord
  2
ACAD
 70
     0
  0
APPID
  5
2C
330
9
100
AcDbSymbolTableRecord
100
AcDbRegAppTableRecord
  2
MCAD_NO_VIS
 70
     0
  0
APPID
  5
2D
330
9
100
AcDbSymbolTableRecord
100
AcDbRegAppTableRecord
  2
ACAD_TEMP_GRAPHIC
 70
     0
  0
APPID
  5
3E
330
9
100
AcDbSymbolTableRecord
100
AcDbRegAppTableRecord
  2
ACATTRIBSERVICES
 70
     0
  0
APPID
  5
29A
330
9
100
AcDbSymbolTableRecord
100
AcDbRegAppTableRecord
  2
GENIUS_GENDIMSH_14
 70
     0
  0
APPID
  5
588
330
9
100
AcDbSymbolTableRecord
100
AcDbRegAppTableRecord
  2
GENIUS12
 70
     0
  0
APPID
  5
589
330
9
100
AcDbSymbolTableRecord
100
AcDbRegAppTableRecord
  2
GENIUS_GENOENT_13
 70
     0
  0
APPID
  5
58A
330
9
100
AcDbSymbolTableRecord
100
AcDbRegAppTableRecord
  2
GENIUS_GENODEF_13
 70
     0
  0
APPID
  5
58B
330
9
100
AcDbSymbolTableRecord
100
AcDbRegAppTableRecord
  2
GENIUS_GENOBJ-N-RSBK_13
 70
     0
  0
APPID
  5
58C
330
9
100
AcDbSymbolTableRecord
100
AcDbRegAppTableRecord
  2
GENIUS_GENOBJ-N-DIM12_13
 70
     0
  0
APPID
  5
58D
330
9
100
AcDbSymbolTableRecord
100
AcDbRegAppTableRecord
  2
GENIUS_GENSCALE_13
 70
     0
  0
APPID
  5
58E
330
9
100
AcDbSymbolTableRecord
100
AcDbRegAppTableRecord
  2
GENIUS_GENCFG_13
 70
     0
  0
APPID
  5
58F
330
9
100
AcDbSymbolTableRecord
100
AcDbRegAppTableRecord
  2
GENIUS_GENCFG0_13
 70
     0
  0
APPID
  5
590
330
9
100
AcDbSymbolTableRecord
100
AcDbRegAppTableRecord
  2
GENIUS_GENCFG1_13
 70
     0
  0
APPID
  5
591
330
9
100
AcDbSymbolTableRecord
100
AcDbRegAppTableRecord
  2
GENIUS_GENCFG2_13
 70
     0
  0
APPID
  5
592
330
9
100
AcDbSymbolTableRecord
100
AcDbRegAppTableRecord
  2
GENIUS_GENCFG3_13
 70
     0
  0
APPID
  5
593
330
9
100
AcDbSymbolTableRecord
100
AcDbRegAppTableRecord
  2
GENIUS_GENCFG4_13
 70
     0
  0
APPID
  5
594
330
9
100
AcDbSymbolTableRecord
100
AcDbRegAppTableRecord
  2
GENIUS_GEVCFG0_13
 70
     0
  0
APPID
  5
595
330
9
100
AcDbSymbolTableRecord
100
AcDbRegAppTableRecord
  2
GENIUS_GENOBJ-F-SUF_13
 70
     0
  0
APPID
  5
596
330
9
100
AcDbSymbolTableRecord
100
AcDbRegAppTableRecord
  2
GENIUS_GEFCFG0_13
 70
     0
  0
APPID
  5
597
330
9
100
AcDbSymbolTableRecord
100
AcDbRegAppTableRecord
  2
GEV_VCCNULL_SWITCH_OFF
 70
     0
  0
APPID
  5
598
330
9
100
AcDbSymbolTableRecord
100
AcDbRegAppTableRecord
  2
GENIUS_GENDTOL_13
 70
     0
  0
APPID
  5
599
330
9
100
AcDbSymbolTableRecord
100
AcDbRegAppTableRecord
  2
GENIUS_GENDIM_13
 70
     0
  0
APPID
  5
59A
330
9
100
AcDbSymbolTableRecord
100
AcDbRegAppTableRecord
  2
GENIUS_GE3DTOL_13
 70
     0
  0
APPID
  5
59B
330
9
100
AcDbSymbolTableRecord
100
AcDbRegAppTableRecord
  2
AD_DRAW
 70
     0
  0
APPID
  5
59C
330
9
100
AcDbSymbolTableRecord
100
AcDbRegAppTableRecord
  2
ASURF_PCURVE_APPNAME
 70
     0
  0
APPID
  5
59D
330
9
100
AcDbSymbolTableRecord
100
AcDbRegAppTableRecord
  2
AMG_3D2D_5.0
 70
     0
  0
APPID
  5
59E
330
9
100
AcDbSymbolTableRecord
100
AcDbRegAppTableRecord
  2
DESIGNERASSEMBLIES
 70
     0
  0
APPID
  5
59F
330
9
100
AcDbSymbolTableRecord
100
AcDbRegAppTableRecord
  2
ACADM_DIM_EDIT
 70
     0
  0
APPID
  5
5A0
330
9
100
AcDbSymbolTableRecord
100
AcDbRegAppTableRecord
  2
AMDT_DM_ADJ
 70
     0
  0
APPID
  5
5A1
330
9
100
AcDbSymbolTableRecord
100
AcDbRegAppTableRecord
  2
GENIUS_GENSCREG_15
 70
     0
  0
APPID
  5
5A2
330
9
100
AcDbSymbolTableRecord
100
AcDbRegAppTableRecord
  2
GENIUS_GENOBJ-N-SDF_13
 70
     0
  0
APPID
  5
6E4
330
9
100
AcDbSymbolTableRecord
100
AcDbRegAppTableRecord
  2
GENIUS_GENOBJ-N-FIL_13
 70
     0
  0
APPID
  5
C65
330
9
100
AcDbSymbolTableRecord
100
AcDbRegAppTableRecord
  2
GENIUS_GENHINW_13
 70
     0
  0
APPID
  5
C66
330
9
100
AcDbSymbolTableRecord
100
AcDbRegAppTableRecord
  2
GENIUS_GENOBJ-F-TOLL_13
 70
     0
  0
APPID
  5
C67
330
9
100
AcDbSymbolTableRecord
100
AcDbRegAppTableRecord
  2
GENIUS_GENOREF_13
 70
     0
  0
APPID
  5
C68
330
9
100
AcDbSymbolTableRecord
100
AcDbRegAppTableRecord
  2
GENIUS_GENOLIS_13
 70
     0
  0
APPID
  5
C69
330
9
100
AcDbSymbolTableRecord
100
AcDbRegAppTableRecord
  2
GENIUS_GEFTOLC_13
 70
     0
  0
APPID
  5
C6A
330
9
100
AcDbSymbolTableRecord
100
AcDbRegAppTableRecord
  2
GENIUS_GENOBJ-F-TOL_13
 70
     0
  0
APPID
  5
C6B
330
9
100
AcDbSymbolTableRecord
100
AcDbRegAppTableRecord
  2
GENIUS_GENOBJ-N-RSSYM_13
 70
     0
  0
APPID
  5
C6C
330
9
100
AcDbSymbolTableRecord
100
AcDbRegAppTableRecord
  2
GENIUS_GENSYMENT_13
 70
     0
  0
APPID
  5
C6D
330
9
100
AcDbSymbolTableRecord
100
AcDbRegAppTableRecord
  2
GENIUS_GENSCSYM_13
 70
     0
  0
APPID
  5
203D
330
9
100
AcDbSymbolTableRecord
100
AcDbRegAppTableRecord
  2
GENIUS_GENBLLY_14
 70
     0
  0
APPID
  5
203E
330
9
100
AcDbSymbolTableRecord
100
AcDbRegAppTableRecord
  2
GENIUS_GENTRA_14
 70
     0
  0
APPID
  5
203F
330
9
100
AcDbSymbolTableRecord
100
AcDbRegAppTableRecord
  2
GENIUS_GENOBJ-N-TIT_13
 70
     0
  0
APPID
  5
2040
330
9
100
AcDbSymbolTableRecord
100
AcDbRegAppTableRecord
  2
GENIUS_GENTITLE_13
 70
     0
  0
APPID
  5
2041
330
9
100
AcDbSymbolTableRecord
100
AcDbRegAppTableRecord
  2
ACADIGES
 70
     0
  0
APPID
  5
2042
330
9
100
AcDbSymbolTableRecord
100
AcDbRegAppTableRecord
  2
GENIUS_GENOBJ-N-HTC_13
 70
     0
  0
APPID
  5
2043
330
9
100
AcDbSymbolTableRecord
100
AcDbRegAppTableRecord
  2
GENIUS_GENHATCH_13
 70
     0
  0
APPID
  5
2044
330
9
100
AcDbSymbolTableRecord
100
AcDbRegAppTableRecord
  2
GENIUS_GENOBJ-N-CRS_13
 70
     0
  0
APPID
  5
2045
330
9
100
AcDbSymbolTableRecord
100
AcDbRegAppTableRecord
  2
GENIUS_GENFIL_13
 70
     0
  0
APPID
  5
2046
330
9
100
AcDbSymbolTableRecord
100
AcDbRegAppTableRecord
  2
GENIUS_GENOBJ-N-CHA_13
 70
     0
  0
APPID
  5
2047
330
9
100
AcDbSymbolTableRecord
100
AcDbRegAppTableRecord
  2
GENIUS_GENOBJ-N-CEN_13
 70
     0
  0
APPID
  5
2048
330
9
100
AcDbSymbolTableRecord
100
AcDbRegAppTableRecord
  2
AD_SKETCHDIM
 70
     0
  0
APPID
  5
2579
330
9
100
AcDbSymbolTableRecord
100
AcDbRegAppTableRecord
  2
DCO15
 70
     0
  0
APPID
  5
257A
330
9
100
AcDbSymbolTableRecord
100
AcDbRegAppTableRecord
  2
GENIUS_GE3CFG0_13
 70
     0
  0
APPID
  5
257B
330
9
100
AcDbSymbolTableRecord
100
AcDbRegAppTableRecord
  2
GENIUS_GENZVEED_13
 70
     0
  0
APPID
  5
257C
330
9
100
AcDbSymbolTableRecord
100
AcDbRegAppTableRecord
  2
GENIUS_GENSCREG_13
 70
     0
  0
APPID
  5
257D
330
9
100
AcDbSymbolTableRecord
100
AcDbRegAppTableRecord
  2
GENIUS_GENOBJ-F-TOLS_13
 70
     0
  0
ENDTAB
  0
TABLE
  2
DIMSTYLE
  5
A
330
0
100
AcDbSymbolTable
 70
    35
100
AcDbDimStyleTable
 71
     1
340
6F
  0
DIMSTYLE
105
6F
102
{ACAD_REACTORS
330
1A04
330
2462
330
27A9
330
280F
330
2837
102
}
330
A
100
AcDbSymbolTableRecord
100
AcDbDimStyleTableRecord
  2
AM_DIN
 70
     0
  4
"
 41
2.5
 42
0.0
 43
10.0
 44
1.0
 47
0.1
 48
0.1
 73
     0
 74
     0
 77
     1
 78
     8
 79
     2
140
3.5
141
0.0
143
0.0393701
146
0.71
147
1.5
172
     1
176
   256
177
   256
178
     2
271
     2
272
     2
283
     0
284
     8
340
11
371
    -1
372
    -1
  0
DIMSTYLE
105
70
330
A
100
AcDbSymbolTableRecord
100
AcDbDimStyleTableRecord
  2
AM_DIN$3
 70
     0
  4
"
 41
3.5
 42
0.0
 43
10.0
 44
1.0
 47
0.1
 48
0.1
 73
     0
 77
     1
 78
     8
 79
     2
140
3.5
141
0.0
143
0.0393701
146
0.71
147
1.5
176
   256
177
   256
178
     2
271
     2
272
     2
283
     0
284
     8
288
     1
289
     0
340
11
371
    -1
372
    -1
  0
DIMSTYLE
105
71
330
A
100
AcDbSymbolTableRecord
100
AcDbDimStyleTableRecord
  2
AM_DIN$4
 70
     0
  4
"
 41
3.5
 42
0.0
 43
10.0
 44
1.0
 47
0.1
 48
0.1
 73
     0
 77
     1
 78
     8
 79
     2
140
3.5
141
0.0
143
0.0393701
146
0.71
147
1.5
176
   256
177
   256
178
     2
271
     2
272
     2
283
     0
284
     8
288
     1
289
     0
340
11
371
    -1
372
    -1
  0
DIMSTYLE
105
72
330
A
100
AcDbSymbolTableRecord
100
AcDbDimStyleTableRecord
  2
AM_DIN$6
 70
     0
  4
"
 41
3.5
 42
0.0
 43
0.0
 44
1.0
 47
0.1
 48
0.1
 73
     0
 74
     0
 78
     8
 79
     2
140
3.5
141
0.0
143
0.0393701
146
0.71
147
1.5
172
     1
176
   256
177
   256
178
     2
271
     2
272
     2
283
     0
284
     8
340
11
371
    -1
372
    -1
  0
DIMSTYLE
105
73
330
A
100
AcDbSymbolTableRecord
100
AcDbDimStyleTableRecord
  2
AM_DIN$7
 70
     0
  4
"
 41
3.5
 42
0.0
 43
10.0
 44
1.0
 47
0.1
 48
0.1
 73
     0
 74
     0
 77
     1
 78
     8
 79
     2
140
3.5
141
0.0
143
0.0393701
146
0.71
147
1.5
172
     1
176
   256
177
   256
178
     2
271
     2
272
     2
283
     0
284
     8
340
11
371
    -1
372
    -1
  0
DIMSTYLE
105
74
330
A
100
AcDbSymbolTableRecord
100
AcDbDimStyleTableRecord
  2
AM_DIN$SF
 70
     0
  4
"
 41
2.5
 42
1.0
 43
10.0
 44
1.0
 47
0.1
 48
0.1
 73
     0
 74
     0
 75
     1
 76
     1
 77
     1
 78
     8
 79
     2
140
3.5
141
0.0
143
0.0393701
146
0.71
147
1.5
172
     1
176
   256
177
   256
178
     2
271
     2
272
     3
274
     4
283
     0
284
     8
340
11
371
    -1
372
    -1
  0
DIMSTYLE
105
79
330
A
100
AcDbSymbolTableRecord
100
AcDbDimStyleTableRecord
  2
AM_DIN$SH
 70
     0
  4
"
 41
2.5
 42
1.0
 43
10.0
 44
1.0
 47
0.1
 48
0.1
 73
     0
 74
     0
 75
     1
 76
     1
 77
     1
 78
     8
 79
     2
140
3.5
141
0.0
143
0.0393701
144
2.0
146
0.71
147
1.5
172
     1
173
     1
176
   256
177
   256
178
     2
271
     2
272
     3
274
     4
283
     0
284
     8
340
11
343
75
371
    -1
372
    -1
  0
DIMSTYLE
105
2036
330
A
100
AcDbSymbolTableRecord
100
AcDbDimStyleTableRecord
  2
STANDARD
 70
     0
271
     2
272
     2
279
     2
284
     8
285
     8
286
     8
340
11
  0
DIMSTYLE
105
2037
330
A
100
AcDbSymbolTableRecord
100
AcDbDimStyleTableRecord
  2
AM_ANSI
 70
     0
  4
mm
 41
0.1
 42
0.0
 43
0.5
 44
0.1
 47
0.1
 48
0.1
 78
     7
140
0.12
141
0.0
146
0.71
147
0.06
176
   256
177
   256
178
     2
271
     2
272
     2
279
     2
284
     8
285
     8
286
     8
340
11
  0
DIMSTYLE
105
2038
330
A
100
AcDbSymbolTableRecord
100
AcDbDimStyleTableRecord
  2
AM_ANSI$3
 70
     0
  4
mm
 41
0.1
 42
0.0
 43
0.5
 44
0.1
 47
0.1
 48
0.1
 78
     7
140
0.12
141
0.0
146
0.71
147
0.06
176
   256
177
   256
178
     2
271
     2
272
     2
279
     2
284
     8
285
     8
286
     8
340
11
  0
DIMSTYLE
105
2039
330
A
100
AcDbSymbolTableRecord
100
AcDbDimStyleTableRecord
  2
AM_ANSI$4
 70
     0
  4
mm
 41
0.1
 42
0.0
 43
0.5
 44
0.1
 47
0.1
 48
0.1
 78
     7
140
0.12
141
0.0
146
0.71
147
0.06
176
   256
177
   256
178
     2
271
     2
272
     2
279
     2
284
     8
285
     8
286
     8
340
11
  0
DIMSTYLE
105
203A
330
A
100
AcDbSymbolTableRecord
100
AcDbDimStyleTableRecord
  2
AM_ANSI$7
 70
     0
  4
mm
 41
0.1
 42
0.0
 43
0.5
 44
0.1
 47
0.1
 48
0.1
 78
     7
140
0.24
141
0.0
146
0.71
147
0.06
176
   256
177
   256
178
     2
271
     2
272
     2
279
     2
284
     8
285
     8
286
     8
340
11
  0
DIMSTYLE
105
203B
330
A
100
AcDbSymbolTableRecord
100
AcDbDimStyleTableRecord
  2
AM_ANSI$SF
 70
     0
  4
mm
 41
0.1
 42
0.05
 43
0.5
 44
0.1
 47
0.1
 48
0.1
 75
     1
 76
     1
 78
     7
140
0.12
141
0.0
146
0.71
147
0.06
176
   256
177
   256
178
     2
271
     2
272
     2
279
     2
284
     8
285
     8
286
     8
340
11
  0
DIMSTYLE
105
203C
330
A
100
AcDbSymbolTableRecord
100
AcDbDimStyleTableRecord
  2
AM_ANSI$SH
 70
     0
  4
mm
 41
0.1
 42
0.05
 43
0.5
 44
0.1
 47
0.1
 48
0.1
 75
     1
 76
     1
 78
     7
140
0.12
141
0.0
146
0.71
147
0.06
173
     1
176
   256
177
   256
178
     2
271
     2
272
     2
279
     2
284
     8
285
     8
286
     8
340
11
  0
DIMSTYLE
105
2564
330
A
100
AcDbSymbolTableRecord
100
AcDbDimStyleTableRecord
  2
AM_BSI
 70
     0
  4
"
 41
4.0
 42
1.0
 43
10.0
 44
1.0
 47
0.1
 48
0.1
 73
     0
 74
     0
 77
     1
 78
     8
 79
     2
140
3.5
141
0.0
143
0.0393701
146
0.71
147
1.5
172
     1
176
   256
177
   256
178
     2
271
     2
272
     3
274
     4
283
     0
284
     8
340
11
371
    -1
372
    -1
  0
DIMSTYLE
105
2565
330
A
100
AcDbSymbolTableRecord
100
AcDbDimStyleTableRecord
  2
AM_BSI$3
 70
     0
  4
"
 41
4.0
 42
1.0
 43
10.0
 44
1.0
 47
0.1
 48
0.1
 73
     0
 77
     1
 78
     8
 79
     2
140
3.5
141
0.0
143
0.0393701
146
0.71
147
1.5
176
   256
177
   256
178
     2
271
     2
272
     3
274
     4
283
     0
284
     8
288
     1
289
     0
340
11
371
    -1
372
    -1
  0
DIMSTYLE
105
2566
330
A
100
AcDbSymbolTableRecord
100
AcDbDimStyleTableRecord
  2
AM_BSI$4
 70
     0
  4
"
 41
4.0
 42
1.0
 43
10.0
 44
1.0
 47
0.1
 48
0.1
 73
     0
 77
     1
 78
     8
 79
     2
140
3.5
141
0.0
143
0.0393701
146
0.71
147
1.5
176
   256
177
   256
178
     2
271
     2
272
     3
274
     4
283
     0
284
     8
288
     1
289
     0
340
11
371
    -1
372
    -1
  0
DIMSTYLE
105
2567
330
A
100
AcDbSymbolTableRecord
100
AcDbDimStyleTableRecord
  2
AM_BSI$6
 70
     0
  4
"
 41
4.0
 42
1.0
 43
10.0
 44
1.0
 47
0.1
 48
0.1
 73
     0
 74
     0
 78
     8
 79
     2
140
3.5
141
0.0
143
0.0393701
146
0.71
147
1.5
172
     1
176
   256
177
   256
178
     2
271
     2
272
     3
274
     4
283
     0
284
     8
340
11
371
    -1
372
    -1
  0
DIMSTYLE
105
2568
330
A
100
AcDbSymbolTableRecord
100
AcDbDimStyleTableRecord
  2
AM_BSI$7
 70
     0
  4
"
 41
2.5
 42
1.0
 43
10.0
 44
1.0
 47
0.1
 48
0.1
 73
     0
 74
     0
 77
     1
 78
     8
 79
     2
140
5.0
141
0.0
143
0.0393701
146
0.71
147
1.5
172
     1
176
   256
177
   256
178
     2
271
     2
272
     3
274
     4
283
     0
284
     8
340
11
371
    -1
372
    -1
  0
DIMSTYLE
105
2569
330
A
100
AcDbSymbolTableRecord
100
AcDbDimStyleTableRecord
  2
AM_BSI$SF
 70
     0
  4
"
 41
4.0
 42
1.0
 43
10.0
 44
1.0
 47
0.1
 48
0.1
 73
     0
 74
     0
 75
     1
 76
     1
 77
     1
 78
     8
 79
     2
140
3.5
141
0.0
143
0.0393701
146
0.71
147
1.5
172
     1
176
   256
177
   256
178
     2
271
     2
272
     3
274
     4
283
     0
284
     8
340
11
371
    -1
372
    -1
  0
DIMSTYLE
105
256A
330
A
100
AcDbSymbolTableRecord
100
AcDbDimStyleTableRecord
  2
AM_BSI$SH
 70
     0
  4
"
 41
4.0
 42
1.0
 43
10.0
 44
1.0
 47
0.1
 48
0.1
 73
     0
 74
     0
 75
     1
 76
     1
 77
     1
 78
     8
 79
     2
140
3.5
141
0.0
143
0.0393701
144
2.0
146
0.71
147
1.5
172
     1
173
     1
176
   256
177
   256
178
     2
271
     2
272
     3
274
     4
283
     0
284
     8
340
11
343
75
371
    -1
372
    -1
  0
DIMSTYLE
105
256B
330
A
100
AcDbSymbolTableRecord
100
AcDbDimStyleTableRecord
  2
AM_ISO
 70
     0
  4
"
 41
2.5
 42
1.0
 43
10.0
 44
1.0
 47
0.1
 48
0.1
 73
     0
 74
     0
 77
     1
 78
     8
 79
     2
140
3.5
141
0.0
143
0.0393701
146
0.71
147
1.5
172
     1
176
   256
177
   256
178
     2
271
     2
272
     3
274
     4
283
     0
284
     8
340
11
371
    -1
372
    -1
  0
DIMSTYLE
105
256C
330
A
100
AcDbSymbolTableRecord
100
AcDbDimStyleTableRecord
  2
AM_ISO$3
 70
     0
  4
"
 41
2.5
 42
1.0
 43
10.0
 44
1.0
 47
0.1
 48
0.1
 73
     0
 77
     1
 78
     8
 79
     2
140
3.5
141
0.0
143
0.0393701
146
0.71
147
1.5
176
   256
177
   256
178
     2
271
     2
272
     3
274
     4
283
     0
284
     8
288
     1
289
     0
340
11
371
    -1
372
    -1
  0
DIMSTYLE
105
256D
330
A
100
AcDbSymbolTableRecord
100
AcDbDimStyleTableRecord
  2
AM_ISO$4
 70
     0
  4
"
 41
2.5
 42
1.0
 43
10.0
 44
1.0
 47
0.1
 48
0.1
 73
     0
 77
     1
 78
     8
 79
     2
140
3.5
141
0.0
143
0.0393701
146
0.71
147
1.5
176
   256
177
   256
178
     2
271
     2
272
     3
274
     4
283
     0
284
     8
288
     1
289
     0
340
11
371
    -1
372
    -1
  0
DIMSTYLE
105
256E
330
A
100
AcDbSymbolTableRecord
100
AcDbDimStyleTableRecord
  2
AM_ISO$6
 70
     0
  4
"
 41
2.5
 42
1.0
 43
10.0
 44
1.0
 47
0.1
 48
0.1
 73
     0
 74
     0
 78
     8
 79
     2
140
3.5
141
0.0
143
0.0393701
146
0.71
147
1.5
172
     1
176
   256
177
   256
178
     2
271
     2
272
     3
274
     4
283
     0
284
     8
340
11
371
    -1
372
    -1
  0
DIMSTYLE
105
256F
330
A
100
AcDbSymbolTableRecord
100
AcDbDimStyleTableRecord
  2
AM_ISO$7
 70
     0
  4
"
 41
2.5
 42
1.0
 43
10.0
 44
1.0
 47
0.1
 48
0.1
 73
     0
 74
     0
 77
     1
 78
     8
 79
     2
140
5.0
141
0.0
143
0.0393701
146
0.71
147
1.5
172
     1
176
   256
177
   256
178
     2
271
     2
272
     3
274
     4
283
     0
284
     8
340
11
371
    -1
372
    -1
  0
DIMSTYLE
105
2570
330
A
100
AcDbSymbolTableRecord
100
AcDbDimStyleTableRecord
  2
AM_ISO$SF
 70
     0
  4
"
 41
2.5
 42
1.0
 43
10.0
 44
1.0
 47
0.1
 48
0.1
 73
     0
 74
     0
 75
     1
 76
     1
 77
     1
 78
     8
 79
     2
140
3.5
141
0.0
143
0.0393701
146
0.71
147
1.5
172
     1
176
   256
177
   256
178
     2
271
     2
272
     3
274
     4
283
     0
284
     8
340
11
371
    -1
372
    -1
  0
DIMSTYLE
105
2571
330
A
100
AcDbSymbolTableRecord
100
AcDbDimStyleTableRecord
  2
AM_ISO$SH
 70
     0
  4
"
 41
2.5
 42
1.0
 43
10.0
 44
1.0
 47
0.1
 48
0.1
 73
     0
 74
     0
 75
     1
 76
     1
 77
     1
 78
     8
 79
     2
140
3.5
141
0.0
143
0.0393701
144
2.0
146
0.71
147
1.5
172
     1
173
     1
176
   256
177
   256
178
     2
271
     2
272
     3
274
     4
283
     0
284
     8
340
11
343
75
371
    -1
372
    -1
  0
DIMSTYLE
105
2572
330
A
100
AcDbSymbolTableRecord
100
AcDbDimStyleTableRecord
  2
AM_JIS
 70
     0
  4
"
 41
2.5
 42
1.0
 43
10.0
 44
1.0
 47
0.1
 48
0.1
 73
     0
 74
     0
 77
     3
 78
     8
 79
     2
140
3.5
141
0.0
143
0.0393701
146
0.71
147
1.5
172
     1
176
   256
177
   256
178
     2
271
     2
272
     3
274
     4
283
     0
284
     8
340
11
341
252C
342
252C
343
252C
344
252C
371
    -1
372
    -1
  0
DIMSTYLE
105
2573
330
A
100
AcDbSymbolTableRecord
100
AcDbDimStyleTableRecord
  2
AM_JIS$3
 70
     0
  4
"
 41
2.5
 42
1.0
 43
10.0
 44
1.0
 47
0.1
 48
0.1
 73
     0
 77
     3
 78
     8
 79
     2
140
3.5
141
0.0
143
0.0393701
146
0.71
147
1.5
176
   256
177
   256
178
     2
271
     2
272
     3
274
     4
283
     0
284
     8
288
     1
289
     0
340
11
341
252C
342
252C
343
252C
344
252C
371
    -1
372
    -1
  0
DIMSTYLE
105
2574
330
A
100
AcDbSymbolTableRecord
100
AcDbDimStyleTableRecord
  2
AM_JIS$4
 70
     0
  4
"
 41
2.5
 42
1.0
 43
10.0
 44
1.0
 47
0.1
 48
0.1
 73
     0
 77
     3
 78
     8
 79
     2
140
3.5
141
0.0
143
0.0393701
146
0.71
147
1.5
176
   256
177
   256
178
     2
271
     2
272
     3
274
     4
283
     0
284
     8
288
     1
289
     0
340
11
341
252C
342
252C
343
252C
344
252C
371
    -1
372
    -1
  0
DIMSTYLE
105
2575
330
A
100
AcDbSymbolTableRecord
100
AcDbDimStyleTableRecord
  2
AM_JIS$6
 70
     0
  4
"
 41
2.5
 42
1.0
 43
10.0
 44
1.0
 47
0.1
 48
0.1
 73
     0
 74
     0
 78
     8
 79
     2
140
3.5
141
0.0
143
0.0393701
146
0.71
147
1.5
172
     1
176
   256
177
   256
178
     2
271
     2
272
     3
274
     4
283
     0
284
     8
340
11
341
252C
342
252C
343
252C
344
252C
371
    -1
372
    -1
  0
DIMSTYLE
105
2576
330
A
100
AcDbSymbolTableRecord
100
AcDbDimStyleTableRecord
  2
AM_JIS$7
 70
     0
  4
"
 41
2.5
 42
1.0
 43
10.0
 44
1.0
 47
0.1
 48
0.1
 73
     0
 74
     0
 77
     3
 78
     8
 79
     2
140
5.0
141
0.0
143
0.0393701
146
0.71
147
1.5
172
     1
176
   256
177
   256
178
     2
271
     2
272
     3
274
     4
283
     0
284
     8
340
11
341
252C
342
252C
343
252C
344
252C
371
    -1
372
    -1
  0
DIMSTYLE
105
2577
330
A
100
AcDbSymbolTableRecord
100
AcDbDimStyleTableRecord
  2
AM_JIS$SF
 70
     0
  4
"
 41
2.5
 42
1.0
 43
10.0
 44
1.0
 47
0.1
 48
0.1
 73
     0
 74
     0
 75
     1
 76
     1
 77
     3
 78
     8
 79
     2
140
3.5
141
0.0
143
0.0393701
146
0.71
147
1.5
172
     1
176
   256
177
   256
178
     2
271
     2
272
     3
274
     4
283
     0
284
     8
340
11
341
252C
342
252C
343
252C
344
252C
371
    -1
372
    -1
  0
DIMSTYLE
105
2578
330
A
100
AcDbSymbolTableRecord
100
AcDbDimStyleTableRecord
  2
AM_JIS$SH
 70
     0
  4
"
 41
2.5
 42
1.0
 43
10.0
 44
1.0
 47
0.1
 48
0.1
 73
     0
 74
     0
 75
     1
 76
     1
 77
     3
 78
     8
 79
     2
140
3.5
141
0.0
143
0.0393701
144
2.0
146
0.71
147
1.5
172
     1
173
     1
176
   256
177
   256
178
     2
271
     2
272
     3
274
     4
283
     0
284
     8
340
11
341
252C
342
252C
343
75
344
252C
371
    -1
372
    -1
  0
ENDTAB
  0
TABLE
  2
BLOCK_RECORD
  5
1
330
0
100
AcDbSymbolTable
 70
     8
  0
BLOCK_RECORD
  5
1F
102
{ACAD_XDICTIONARY
360
1F1
102
}
330
1
100
AcDbSymbolTableRecord
100
AcDbBlockTableRecord
  2
*Model_Space
340
22
  0
BLOCK_RECORD
  5
1B
330
1
100
AcDbSymbolTableRecord
100
AcDbBlockTableRecord
  2
*Paper_Space
340
1E
  0
BLOCK_RECORD
  5
23
330
1
100
AcDbSymbolTableRecord
100
AcDbBlockTableRecord
  2
*Paper_Space0
340
26
  0
BLOCK_RECORD
  5
75
330
1
100
AcDbSymbolTableRecord
100
AcDbBlockTableRecord
  2
GENAXEH
340
0
  0
BLOCK_RECORD
  5
1A05
330
1
100
AcDbSymbolTableRecord
100
AcDbBlockTableRecord
  2
*D2
340
0
  0
BLOCK_RECORD
  5
2463
330
1
100
AcDbSymbolTableRecord
100
AcDbBlockTableRecord
  2
*D3
340
0
  0
BLOCK_RECORD
  5
252C
330
1
100
AcDbSymbolTableRecord
100
AcDbBlockTableRecord
  2
_Open30
340
0
  0
BLOCK_RECORD
  5
27AA
330
1
100
AcDbSymbolTableRecord
100
AcDbBlockTableRecord
  2
*D5
340
0
  0
BLOCK_RECORD
  5
2810
330
1
100
AcDbSymbolTableRecord
100
AcDbBlockTableRecord
  2
*D6
340
0
  0
BLOCK_RECORD
  5
2838
330
1
100
AcDbSymbolTableRecord
100
AcDbBlockTableRecord
  2
*D7
340
0
  0
ENDTAB
  0
ENDSEC
  0
SECTION
  2
BLOCKS
  0
BLOCK
  5
20
330
1F
100
AcDbEntity
  8
0
100
AcDbBlockBegin
  2
*Model_Space
 70
     0
 10
0.0
 20
0.0
 30
0.0
  3
*Model_Space
  1

  0
ENDBLK
  5
21
330
1F
100
AcDbEntity
  8
0
100
AcDbBlockEnd
  0
BLOCK
  5
1C
330
1B
100
AcDbEntity
 67
     1
  8
0
100
AcDbBlockBegin
  2
*Paper_Space
 70
     0
 10
0.0
 20
0.0
 30
0.0
  3
*Paper_Space
  1

  0
ENDBLK
  5
1D
330
1B
100
AcDbEntity
 67
     1
  8
0
100
AcDbBlockEnd
  0
BLOCK
  5
24
330
23
100
AcDbEntity
  8
0
100
AcDbBlockBegin
  2
*Paper_Space0
 70
     0
 10
0.0
 20
0.0
 30
0.0
  3
*Paper_Space0
  1

  0
ENDBLK
  5
25
330
23
100
AcDbEntity
  8
0
100
AcDbBlockEnd
  0
BLOCK
  5
77
330
75
100
AcDbEntity
  8
0
100
AcDbBlockBegin
  2
GENAXEH
 70
     0
 10
0.0
 20
0.0
 30
0.0
  3
GENAXEH
  1

  0
LINE
  5
76
330
75
100
AcDbEntity
  8
0
100
AcDbLine
 10
-1.0
 20
0.0
 30
0.0
 11
1.0
 21
0.0
 31
0.0
  0
ENDBLK
  5
78
330
75
100
AcDbEntity
  8
0
100
AcDbBlockEnd
  0
BLOCK
  5
1A0F
330
1A05
100
AcDbEntity
  8
0
100
AcDbBlockBegin
  2
*D2
 70
     1
 10
0.0
 20
0.0
 30
0.0
  3
*D2
  1

  0
LINE
  5
232A
330
1A05
100
AcDbEntity
  8
SK2
100
AcDbLine
 10
0.0
 20
-20.00000000000306
 30
0.0
 11
-19.81731907927395
 21
-20.00000000000306
 31
0.0
  0
LINE
  5
232B
330
1A05
100
AcDbEntity
  8
SK2
100
AcDbLine
 10
0.0000000000001137
 20
19.99999999999687
 30
0.0
 11
-19.81731907927394
 21
19.99999999999687
 31
0.0
  0
LINE
  5
232C
330
1A05
100
AcDbEntity
  8
SK2
100
AcDbLine
 10
-18.81731907927395
 20
-17.50000000000306
 30
0.0
 11
-18.81731907927394
 21
17.49999999999687
 31
0.0
  0
SOLID
  5
232D
330
1A05
100
AcDbEntity
  8
SK2
100
AcDbTrace
 10
-19.23398574594061
 20
-17.50000000000306
 30
0.0
 11
-18.40065241260728
 21
-17.50000000000306
 31
0.0
 12
-18.81731907927395
 22
-20.00000000000306
 32
0.0
 13
-18.81731907927395
 23
-20.00000000000306
 33
0.0
  0
SOLID
  5
232E
330
1A05
100
AcDbEntity
  8
SK2
100
AcDbTrace
 10
-19.23398574594061
 20
17.49999999999687
 30
0.0
 11
-18.40065241260727
 21
17.49999999999687
 31
0.0
 12
-18.81731907927394
 22
19.99999999999687
 32
0.0
 13
-18.81731907927394
 23
19.99999999999687
 33
0.0
  0
MTEXT
  5
232F
330
1A05
100
AcDbEntity
  8
SK2
 62
     2
100
AcDbMText
 10
-22.06731907927394
 20
-0.0000000000030964
 30
0.0
 40
3.5
 41
0.0
 71
     5
 72
     1
  1
%%c40
 11
0.0000000000000001
 21
1.0
 31
0.0
 73
     1
 44
1.0
  0
POINT
  5
2330
330
1A05
100
AcDbEntity
  8
Defpoints
 62
     0
100
AcDbPoint
 10
0.0
 20
-20.00000000000306
 30
0.0
  0
POINT
  5
2331
330
1A05
100
AcDbEntity
  8
Defpoints
 62
     0
100
AcDbPoint
 10
0.0000000000001137
 20
19.99999999999687
 30
0.0
  0
POINT
  5
2332
330
1A05
100
AcDbEntity
  8
Defpoints
 62
     0
100
AcDbPoint
 10
-18.81731907927394
 20
19.99999999999687
 30
0.0
  0
ENDBLK
  5
1A10
330
1A05
100
AcDbEntity
  8
0
100
AcDbBlockEnd
  0
BLOCK
  5
246D
330
2463
100
AcDbEntity
  8
0
100
AcDbBlockBegin
  2
*D3
 70
     1
 10
0.0
 20
0.0
 30
0.0
  3
*D3
  1

  0
LINE
  5
24E2
330
2463
100
AcDbEntity
  8
SK2
100
AcDbLine
 10
3.000000000000106
 20
46.0000000000002
 30
0.0
 11
-38.15151073969125
 21
46.0000000000002
 31
0.0
  0
LINE
  5
24E3
330
2463
100
AcDbEntity
  8
SK2
100
AcDbLine
 10
3.000000000000131
 20
-46.0
 30
0.0
 11
-38.15151073969127
 21
-45.99999999999999
 31
0.0
  0
LINE
  5
24E4
330
2463
100
AcDbEntity
  8
SK2
100
AcDbLine
 10
-37.15151073969125
 20
43.5000000000002
 30
0.0
 11
-37.15151073969126
 21
-43.49999999999999
 31
0.0
  0
SOLID
  5
24E5
330
2463
100
AcDbEntity
  8
SK2
100
AcDbTrace
 10
-37.56817740635792
 20
43.5000000000002
 30
0.0
 11
-36.73484407302459
 21
43.5000000000002
 31
0.0
 12
-37.15151073969125
 22
46.0000000000002
 32
0.0
 13
-37.15151073969125
 23
46.0000000000002
 33
0.0
  0
SOLID
  5
24E6
330
2463
100
AcDbEntity
  8
SK2
100
AcDbTrace
 10
-37.56817740635793
 20
-43.49999999999999
 30
0.0
 11
-36.7348440730246
 21
-43.49999999999999
 31
0.0
 12
-37.15151073969126
 22
-45.99999999999999
 32
0.0
 13
-37.15151073969126
 23
-45.99999999999999
 33
0.0
  0
MTEXT
  5
24E7
330
2463
100
AcDbEntity
  8
SK2
 62
     2
100
AcDbMText
 10
-40.4027011061647
 20
0.0000000000001021
 30
0.0
 40
3.5
 41
0.0
 71
     5
 72
     1
  1
%%c92
 11
0.0000000000000001
 21
1.0
 31
0.0
 73
     1
 44
1.0
  0
POINT
  5
24E8
330
2463
100
AcDbEntity
  8
Defpoints
 62
     0
100
AcDbPoint
 10
3.000000000000106
 20
46.0000000000002
 30
0.0
  0
POINT
  5
24E9
330
2463
100
AcDbEntity
  8
Defpoints
 62
     0
100
AcDbPoint
 10
3.000000000000131
 20
-46.0
 30
0.0
  0
POINT
  5
24EA
330
2463
100
AcDbEntity
  8
Defpoints
 62
     0
100
AcDbPoint
 10
-37.15151073969126
 20
-45.99999999999999
 30
0.0
  0
ENDBLK
  5
246E
330
2463
100
AcDbEntity
  8
0
100
AcDbBlockEnd
  0
BLOCK
  5
2530
330
252C
100
AcDbEntity
  8
0
100
AcDbBlockBegin
  2
_Open30
 70
     0
 10
0.0
 20
0.0
 30
0.0
  3
_Open30
  1

  0
LINE
  5
252D
330
252C
100
AcDbEntity
  8
0
  6
ByBlock
 62
     0
370
    -2
100
AcDbLine
 10
-1.0
 20
0.26794919
 30
0.0
 11
0.0
 21
0.0
 31
0.0
  0
LINE
  5
252E
330
252C
100
AcDbEntity
  8
0
  6
ByBlock
 62
     0
370
    -2
100
AcDbLine
 10
0.0
 20
0.0
 30
0.0
 11
-1.0
 21
-0.26794919
 31
0.0
  0
LINE
  5
252F
330
252C
100
AcDbEntity
  8
0
  6
ByBlock
 62
     0
370
    -2
100
AcDbLine
 10
0.0
 20
0.0
 30
0.0
 11
-1.0
 21
0.0
 31
0.0
  0
ENDBLK
  5
2531
330
252C
100
AcDbEntity
  8
0
100
AcDbBlockEnd
  0
BLOCK
  5
27B4
330
27AA
100
AcDbEntity
  8
0
100
AcDbBlockBegin
  2
*D5
 70
     1
 10
0.0
 20
0.0
 30
0.0
  3
*D5
  1

  0
LINE
  5
2858
330
27AA
100
AcDbEntity
  8
2
100
AcDbLine
 10
114.0
 20
49.99999999999968
 30
0.0
 11
148.1220621011027
 21
49.99999999999968
 31
0.0
  0
LINE
  5
2859
330
27AA
100
AcDbEntity
  8
2
100
AcDbLine
 10
113.9999999999996
 20
-50.00000000000032
 30
0.0
 11
148.1220621011027
 21
-50.00000000000033
 31
0.0
  0
LINE
  5
285A
330
27AA
100
AcDbEntity
  8
2
100
AcDbLine
 10
147.1220621011027
 20
47.49999999999968
 30
0.0
 11
147.1220621011027
 21
-47.50000000000033
 31
0.0
  0
SOLID
  5
285B
330
27AA
100
AcDbEntity
  8
2
100
AcDbTrace
 10
146.705395434436
 20
47.49999999999968
 30
0.0
 11
147.5387287677694
 21
47.49999999999968
 31
0.0
 12
147.1220621011027
 22
49.99999999999968
 32
0.0
 13
147.1220621011027
 23
49.99999999999968
 33
0.0
  0
SOLID
  5
285C
330
27AA
100
AcDbEntity
  8
2
100
AcDbTrace
 10
146.705395434436
 20
-47.50000000000033
 30
0.0
 11
147.5387287677694
 21
-47.50000000000033
 31
0.0
 12
147.1220621011027
 22
-50.00000000000033
 32
0.0
 13
147.1220621011027
 23
-50.00000000000033
 33
0.0
  0
MTEXT
  5
285D
330
27AA
100
AcDbEntity
  8
2
 62
     2
100
AcDbMText
 10
143.8720621011027
 20
-0.0000000000002999
 30
0.0
 40
3.5
 41
0.0
 71
     5
 72
     1
  1
%%c100
 11
0.0000000000000001
 21
1.0
 31
0.0
 73
     1
 44
1.0
  0
POINT
  5
285E
330
27AA
100
AcDbEntity
  8
Defpoints
 62
     0
100
AcDbPoint
 10
114.0
 20
49.99999999999968
 30
0.0
  0
POINT
  5
285F
330
27AA
100
AcDbEntity
  8
Defpoints
 62
     0
100
AcDbPoint
 10
113.9999999999996
 20
-50.00000000000032
 30
0.0
  0
POINT
  5
2860
330
27AA
100
AcDbEntity
  8
Defpoints
 62
     0
100
AcDbPoint
 10
147.1220621011027
 20
-50.00000000000033
 30
0.0
  0
ENDBLK
  5
27B5
330
27AA
100
AcDbEntity
  8
0
100
AcDbBlockEnd
  0
BLOCK
  5
281A
330
2810
100
AcDbEntity
  8
0
100
AcDbBlockBegin
  2
*D6
 70
     1
 10
0.0
 20
0.0
 30
0.0
  3
*D6
  1

  0
LINE
  5
2861
330
2810
100
AcDbEntity
  8
2
100
AcDbLine
 10
114.0
 20
49.99999999999968
 30
0.0
 11
114.0
 21
60.99999999999988
 31
0.0
  0
LINE
  5
2862
330
2810
100
AcDbEntity
  8
2
100
AcDbLine
 10
26.00000000000005
 20
50.2368706841778
 30
0.0
 11
26.00000000000005
 21
60.99999999999988
 31
0.0
  0
LINE
  5
2863
330
2810
100
AcDbEntity
  8
2
100
AcDbLine
 10
111.5
 20
59.99999999999988
 30
0.0
 11
28.50000000000005
 21
59.99999999999988
 31
0.0
  0
SOLID
  5
2864
330
2810
100
AcDbEntity
  8
2
100
AcDbTrace
 10
111.5
 20
60.41666666666654
 30
0.0
 11
111.5
 21
59.58333333333321
 31
0.0
 12
114.0
 22
59.99999999999988
 32
0.0
 13
114.0
 23
59.99999999999988
 33
0.0
  0
SOLID
  5
2865
330
2810
100
AcDbEntity
  8
2
100
AcDbTrace
 10
28.50000000000005
 20
60.41666666666654
 30
0.0
 11
28.50000000000005
 21
59.58333333333321
 31
0.0
 12
26.00000000000005
 22
59.99999999999988
 32
0.0
 13
26.00000000000005
 23
59.99999999999988
 33
0.0
  0
MTEXT
  5
2866
330
2810
100
AcDbEntity
  8
2
 62
     2
100
AcDbMText
 10
70.00000000000006
 20
63.24999999999988
 30
0.0
 40
3.5
 41
0.0
 71
     5
 72
     1
  1
88
 73
     1
 44
1.0
  0
POINT
  5
2867
330
2810
100
AcDbEntity
  8
Defpoints
 62
     0
100
AcDbPoint
 10
114.0
 20
49.99999999999968
 30
0.0
  0
POINT
  5
2868
330
2810
100
AcDbEntity
  8
Defpoints
 62
     0
100
AcDbPoint
 10
26.00000000000005
 20
50.2368706841778
 30
0.0
  0
POINT
  5
2869
330
2810
100
AcDbEntity
  8
Defpoints
 62
     0
100
AcDbPoint
 10
26.00000000000005
 20
59.99999999999988
 30
0.0
  0
ENDBLK
  5
281B
330
2810
100
AcDbEntity
  8
0
100
AcDbBlockEnd
  0
BLOCK
  5
2842
330
2838
100
AcDbEntity
  8
0
100
AcDbBlockBegin
  2
*D7
 70
     1
 10
0.0
 20
0.0
 30
0.0
  3
*D7
  1

  0
LINE
  5
286A
330
2838
100
AcDbEntity
  8
2
100
AcDbLine
 10
114.0
 20
49.99999999999968
 30
0.0
 11
114.0
 21
75.99999999999994
 31
0.0
  0
LINE
  5
286B
330
2838
100
AcDbEntity
  8
2
100
AcDbLine
 10
0.0000000000000853
 20
43.0000000000002
 30
0.0
 11
0.0000000000000873
 21
75.99999999999994
 31
0.0
  0
LINE
  5
286C
330
2838
100
AcDbEntity
  8
2
100
AcDbLine
 10
111.5
 20
74.99999999999994
 30
0.0
 11
2.500000000000087
 21
74.99999999999994
 31
0.0
  0
SOLID
  5
286D
330
2838
100
AcDbEntity
  8
2
100
AcDbTrace
 10
111.5
 20
75.41666666666661
 30
0.0
 11
111.5
 21
74.58333333333327
 31
0.0
 12
114.0
 22
74.99999999999994
 32
0.0
 13
114.0
 23
74.99999999999994
 33
0.0
  0
SOLID
  5
286E
330
2838
100
AcDbEntity
  8
2
100
AcDbTrace
 10
2.500000000000087
 20
75.41666666666661
 30
0.0
 11
2.500000000000087
 21
74.58333333333327
 31
0.0
 12
0.0000000000000872
 22
74.99999999999994
 32
0.0
 13
0.0000000000000872
 23
74.99999999999994
 33
0.0
  0
MTEXT
  5
286F
330
2838
100
AcDbEntity
  8
2
 62
     2
100
AcDbMText
 10
57.00000000000007
 20
78.24999999999994
 30
0.0
 40
3.5
 41
0.0
 71
     5
 72
     1
  1
114
 73
     1
 44
1.0
  0
POINT
  5
2870
330
2838
100
AcDbEntity
  8
Defpoints
 62
     0
100
AcDbPoint
 10
114.0
 20
49.99999999999968
 30
0.0
  0
POINT
  5
2871
330
2838
100
AcDbEntity
  8
Defpoints
 62
     0
100
AcDbPoint
 10
0.0000000000000853
 20
43.0000000000002
 30
0.0
  0
POINT
  5
2872
330
2838
100
AcDbEntity
  8
Defpoints
 62
     0
100
AcDbPoint
 10
0.0000000000000872
 20
74.99999999999994
 30
0.0
  0
ENDBLK
  5
2843
330
2838
100
AcDbEntity
  8
0
100
AcDbBlockEnd
  0
ENDSEC
  0
SECTION
  2
ENTITIES
  0
LINE
  5
19D1
330
1F
100
AcDbEntity
  8
1
100
AcDbLine
 10
14.61620743815966
 20
-45.99999999999993
 30
0.0
 11
3.000000000000113
 21
-46.0
 31
0.0
  0
LINE
  5
19D6
330
1F
100
AcDbEntity
  8
1
100
AcDbLine
 10
0.0000000000001172
 20
-43.0
 30
0.0
 11
0.0
 21
-8.199999999999988
 31
0.0
  0
LINE
  5
19D7
330
1F
100
AcDbEntity
  8
SK1
100
AcDbLine
 10
0.0
 20
-8.199999999999988
 30
0.0
 11
9.000000000000113
 21
-8.199999999999988
 31
0.0
  0
LINE
  5
19D8
330
1F
100
AcDbEntity
  8
SK1
100
AcDbLine
 10
9.000000000000113
 20
-8.199999999999988
 30
0.0
 11
9.000000000000113
 21
8.199999999999988
 31
0.0
  0
LINE
  5
19D9
330
1F
100
AcDbEntity
  8
SK1
100
AcDbLine
 10
9.000000000000113
 20
8.199999999999988
 30
0.0
 11
0.0000000000001137
 21
8.199999999999988
 31
0.0
  0
LINE
  5
19DC
330
1F
100
AcDbEntity
  8
SK3
100
AcDbLine
 10
0.0
 20
-20.00000000000306
 30
0.0
 11
29.50000000000011
 21
-20.00000000000312
 31
0.0
  0
LINE
  5
19DD
330
1F
100
AcDbEntity
  8
SK3
100
AcDbLine
 10
29.50000000000011
 20
-20.00000000000312
 30
0.0
 11
29.50000000000011
 21
19.99999999999687
 31
0.0
  0
LINE
  5
19DE
330
1F
100
AcDbEntity
  8
SK3
100
AcDbLine
 10
29.50000000000011
 20
19.99999999999687
 30
0.0
 11
0.0000000000001137
 21
19.99999999999687
 31
0.0
  0
LINE
  5
19DF
330
1F
100
AcDbEntity
  8
SK3
100
AcDbLine
 10
29.50000000000011
 20
-11.00000000000312
 30
0.0
 11
38.50000000000022
 21
-11.00000000000312
 31
0.0
  0
LINE
  5
19E0
330
1F
100
AcDbEntity
  8
SK3
100
AcDbLine
 10
29.50000000000011
 20
10.99999999999687
 30
0.0
 11
38.50000000000011
 21
10.99999999999687
 31
0.0
  0
LINE
  5
19E1
330
1F
100
AcDbEntity
  8
SK3
100
AcDbLine
 10
112.9967948000832
 20
16.49999999999669
 30
0.0
 11
38.50000000000011
 21
16.49999999999687
 31
0.0
  0
LINE
  5
19E2
330
1F
100
AcDbEntity
  8
SK3
100
AcDbLine
 10
38.50000000000011
 20
16.49999999999687
 30
0.0
 11
38.50000000000011
 21
-16.50000000000312
 31
0.0
  0
LINE
  5
19E3
330
1F
100
AcDbEntity
  8
SK3
100
AcDbLine
 10
38.50000000000011
 20
-16.50000000000312
 30
0.0
 11
112.9967948000832
 21
-16.50000000000312
 31
0.0
  0
DIMENSION
  5
1A04
330
1F
100
AcDbEntity
  8
SK2
100
AcDbDimension
  2
*D2
 10
-18.81731907927394
 20
19.99999999999687
 30
0.0
 11
-22.06731907927394
 21
-0.0000000000030964
 31
0.0
 70
    32
  1
%%c<>
 71
     5
 42
39.99999999999994
  3
AM_DIN
100
AcDbAlignedDimension
 13
0.0
 23
-20.00000000000306
 33
0.0
 14
0.0000000000001137
 24
19.99999999999687
 34
0.0
 50
270.0
100
AcDbRotatedDimension
  0
ARC
  5
1DFC
330
1F
100
AcDbEntity
  8
1
100
AcDbCircle
 10
3.000000000000117
 20
-43.0
 30
0.0
 40
3.0
100
AcDbArc
 50
180.0000000000001
 51
270.0
1001
GENIUS_GENOBJ-N-FIL_13
1002
{
1000
OWNER
1000
GEN
1002
}
1001
GENIUS_GENODEF_13
1002
{
1000
HIER
1070
     0
1002
}
1002
{
1000
MANEDIT
1070
     0
1002
}
1002
{
1000
NOSEL
1070
     0
1002
}
1002
{
1000
BEHIND
1070
     0
1002
}
1002
{
1000
OTHER
1070
     0
1002
}
1002
{
1000
REACTOR
1002
}
  0
LINE
  5
1E07
330
1F
100
AcDbEntity
  8
1
100
AcDbLine
 10
0.0000000000000853
 20
43.0000000000002
 30
0.0
 11
0.0
 21
8.199999999993735
 31
0.0
  0
ARC
  5
1E08
330
1F
100
AcDbEntity
  8
1
100
AcDbCircle
 10
3.000000000000085
 20
43.0000000000002
 30
0.0
 40
3.0
100
AcDbArc
 50
90.00000000000003
 51
179.9999999999998
1001
GENIUS_GENOBJ-N-FIL_13
1002
{
1000
OWNER
1000
GEN
1002
}
1001
GENIUS_GENODEF_13
1002
{
1000
HIER
1070
     0
1002
}
1002
{
1000
MANEDIT
1070
     0
1002
}
1002
{
1000
NOSEL
1070
     0
1002
}
1002
{
1000
BEHIND
1070
     0
1002
}
1002
{
1000
OTHER
1070
     0
1002
}
1002
{
1000
REACTOR
1002
}
  0
LINE
  5
1E09
330
1F
100
AcDbEntity
  8
1
100
AcDbLine
 10
14.61620743816001
 20
46.00000000000012
 30
0.0
 11
3.000000000000085
 21
46.0000000000002
 31
0.0
  0
CIRCLE
  5
21F9
330
1F
100
AcDbEntity
  8
SK1
100
AcDbCircle
 10
0.0
 20
0.0
 30
0.0
 40
3.200115174948665
  0
LINE
  5
21FA
330
1F
100
AcDbEntity
  8
SK1
100
AcDbLine
 10
-2.262823140784184
 20
2.262823140784185
 30
0.0
 11
2.262823140784184
 21
-2.262823140784185
 31
0.0
  0
LINE
  5
21FB
330
1F
100
AcDbEntity
  8
SK1
100
AcDbLine
 10
-2.262823140784185
 20
-2.262823140784184
 30
0.0
 11
2.262823140784185
 21
2.262823140784184
 31
0.0
  0
LINE
  5
21FC
330
1F
100
AcDbEntity
  8
4
100
AcDbLine
 10
117.6292727944699
 20
-0.0000000000003341
 30
0.0
 11
0.0
 21
0.0000000000001705
 31
0.0
  0
DIMENSION
  5
2462
330
1F
100
AcDbEntity
  8
SK2
100
AcDbDimension
  2
*D3
 10
-37.15151073969126
 20
-45.99999999999999
 30
0.0
 11
-40.4027011061647
 21
0.0000000000001021
 31
0.0
 70
    32
  1
%%c<>
 71
     5
 42
92.0000000000002
  3
AM_DIN
100
AcDbAlignedDimension
 13
3.000000000000106
 23
46.0000000000002
 33
0.0
 14
3.000000000000131
 24
-46.0
 34
0.0
 50
89.99999999999957
100
AcDbRotatedDimension
  0
TEXT
  5
264A
330
1F
100
AcDbEntity
  8
6
100
AcDbText
 10
53.72004414797834
 20
-60.33254162862556
 30
0.0
 40
3.5
  1
22J3K100088F4R00
100
AcDbText
  0
LINE
  5
264B
330
1F
100
AcDbEntity
  8
CUT
100
AcDbLine
 10
25.99596058357974
 20
50.00000028180489
 30
0.0
 11
113.214285901853
 21
49.99999999999971
 31
0.0
  0
LINE
  5
264C
330
1F
100
AcDbEntity
  8
CUT
100
AcDbLine
 10
25.29499159321597
 20
40.18396217254525
 30
0.0
 11
112.5133169114894
 21
40.18396189074006
 31
0.0
  0
CIRCLE
  5
264D
330
1F
100
AcDbEntity
  8
1
100
AcDbCircle
 10
48.0729075447511
 20
45.09132333832306
 30
0.0
 40
3.149999999999991
  0
LINE
  5
264F
330
1F
100
AcDbEntity
  8
CUT
100
AcDbLine
 10
25.10519465722097
 20
44.50903190964146
 30
0.0
 11
25.52105753095247
 21
49.50750798502991
 31
0.0
  0
LINE
  5
2651
330
1F
100
AcDbEntity
  8
CUT
100
AcDbLine
 10
24.51331691148903
 20
40.9837522591994
 30
0.0
 11
24.51331691148914
 21
42.98615989628794
 31
0.0
  0
ARC
  5
2653
330
1F
100
AcDbEntity
  8
CUT
100
AcDbCircle
 10
25.31331691148909
 20
40.98375225919935
 30
0.0
 40
0.8
100
AcDbArc
 50
180.0
 51
268.6874309514861
1001
GENIUS_GENODEF_13
1002
{
1000
HIER
1070
     0
1002
}
1002
{
1000
MANEDIT
1070
     0
1002
}
1002
{
1000
NOSEL
1070
     0
1002
}
1002
{
1000
BEHIND
1070
     0
1002
}
1002
{
1000
OTHER
1070
     0
1002
}
1002
{
1000
REACTOR
1002
}
1001
GENIUS_GENOBJ-N-FIL_13
1002
{
1000
OWNER
1000
GEN
1002
}
  0
ARC
  5
2656
330
1F
100
AcDbEntity
  8
CUT
100
AcDbCircle
 10
25.01331691148914
 20
42.98615989628794
 30
0.0
 40
0.5
100
AcDbArc
 50
140.6324757416298
 51
180.0
1001
GENIUS_GENODEF_13
1002
{
1000
HIER
1070
     0
1002
}
1002
{
1000
MANEDIT
1070
     0
1002
}
1002
{
1000
NOSEL
1070
     0
1002
}
1002
{
1000
BEHIND
1070
     0
1002
}
1002
{
1000
OTHER
1070
     0
1002
}
1002
{
1000
REACTOR
1002
}
1001
GENIUS_GENOBJ-N-FIL_13
1002
{
1000
OWNER
1000
GEN
1002
}
  0
ARC
  5
2657
330
1F
100
AcDbEntity
  8
CUT
100
AcDbCircle
 10
22.97976662141763
 20
44.65460750337254
 30
0.0
 40
2.130407610967658
100
AcDbArc
 50
320.6324757416298
 51
356.0817959174375
  0
ARC
  5
2659
330
1F
100
AcDbEntity
  8
CUT
100
AcDbCircle
 10
26.00703150191475
 20
49.5141076082171
 30
0.0
 40
0.4860187809941681
100
AcDbArc
 50
91.30524125517695
 51
180.7780402552273
  0
LINE
  5
265A
330
1F
100
AcDbEntity
  8
1
100
AcDbLine
 10
57.13653702782341
 20
49.19901159296967
 30
0.0
 11
57.13653702782341
 21
47.19660395588107
 31
0.0
  0
LINE
  5
265B
330
1F
100
AcDbEntity
  8
1
100
AcDbLine
 10
56.54465928209169
 20
45.67373194252939
 30
0.0
 11
56.12879640836007
 21
40.6752558671391
 31
0.0
  0
ARC
  5
265C
330
1F
100
AcDbEntity
  8
1
100
AcDbCircle
 10
55.64282243739779
 20
40.66865624395191
 30
0.0
 40
0.4860187809941681
100
AcDbArc
 50
271.3052412551801
 51
0.7780402552256853
  0
ARC
  5
265D
330
1F
100
AcDbEntity
  8
1
100
AcDbCircle
 10
58.67008731789491
 20
45.52815634879647
 30
0.0
 40
2.130407610967658
100
AcDbArc
 50
140.6324757416298
 51
176.0817959173876
  0
ARC
  5
265E
330
1F
100
AcDbEntity
  8
1
100
AcDbCircle
 10
56.6365370278234
 20
47.19660395588107
 30
0.0
 40
0.5
100
AcDbArc
 50
320.6324757416282
 51
0.0
1001
GENIUS_GENODEF_13
1002
{
1000
HIER
1070
     0
1002
}
1002
{
1000
MANEDIT
1070
     0
1002
}
1002
{
1000
NOSEL
1070
     0
1002
}
1002
{
1000
BEHIND
1070
     0
1002
}
1002
{
1000
OTHER
1070
     0
1002
}
1002
{
1000
REACTOR
1002
}
1001
GENIUS_GENOBJ-N-FIL_13
1002
{
1000
OWNER
1000
GEN
1002
}
  0
CIRCLE
  5
265F
330
1F
100
AcDbEntity
  8
1
100
AcDbCircle
 10
62.57290754475099
 20
45.09132333832306
 30
0.0
 40
3.149999999999991
  0
ARC
  5
2660
330
1F
100
AcDbEntity
  8
1
100
AcDbCircle
 10
56.33653702782345
 20
49.19901159296967
 30
0.0
 40
0.8
100
AcDbArc
 50
0.0000000000008142
 51
88.68743095148614
1001
GENIUS_GENODEF_13
1002
{
1000
HIER
1070
     0
1002
}
1002
{
1000
MANEDIT
1070
     0
1002
}
1002
{
1000
NOSEL
1070
     0
1002
}
1002
{
1000
BEHIND
1070
     0
1002
}
1002
{
1000
OTHER
1070
     0
1002
}
1002
{
1000
REACTOR
1002
}
1001
GENIUS_GENOBJ-N-FIL_13
1002
{
1000
OWNER
1000
GEN
1002
}
  0
CIRCLE
  5
2661
330
1F
100
AcDbEntity
  8
1
100
AcDbCircle
 10
104.9323311005076
 20
45.09252165869898
 30
0.0
 40
3.149999999999991
  0
TEXT
  5
2662
330
1F
100
AcDbEntity
  8
6
100
AcDbText
 10
69.36484183997817
 20
54.17160556046503
 30
0.0
 40
2.5
  1
AOMT160508R
100
AcDbText
  0
LINE
  5
2663
330
1F
100
AcDbEntity
  8
1
100
AcDbLine
 10
85.63653550037162
 20
49.20020991334559
 30
0.0
 11
85.63653550037162
 21
47.19780227625699
 31
0.0
  0
LINE
  5
2664
330
1F
100
AcDbEntity
  8
1
100
AcDbLine
 10
71.6365370278233
 20
49.19901159296967
 30
0.0
 11
71.6365370278233
 21
47.19660395588107
 31
0.0
  0
CIRCLE
  5
2665
330
1F
100
AcDbEntity
  8
1
100
AcDbCircle
 10
76.57290601729932
 20
45.09252165869898
 30
0.0
 40
3.149999999999991
  0
LINE
  5
2666
330
1F
100
AcDbEntity
  8
1
100
AcDbLine
 10
71.04465928209157
 20
45.67373194252939
 30
0.0
 11
70.62879640835996
 21
40.6752558671391
 31
0.0
  0
ARC
  5
2667
330
1F
100
AcDbEntity
  8
1
100
AcDbCircle
 10
70.14282243739768
 20
40.66865624395191
 30
0.0
 40
0.4860187809941681
100
AcDbArc
 50
271.3052412551801
 51
0.7780402552256853
  0
ARC
  5
2668
330
1F
100
AcDbEntity
  8
1
100
AcDbCircle
 10
71.13653702782329
 20
47.19660395588107
 30
0.0
 40
0.5
100
AcDbArc
 50
320.6324757416282
 51
0.0
1001
GENIUS_GENODEF_13
1002
{
1000
HIER
1070
     0
1002
}
1002
{
1000
MANEDIT
1070
     0
1002
}
1002
{
1000
NOSEL
1070
     0
1002
}
1002
{
1000
BEHIND
1070
     0
1002
}
1002
{
1000
OTHER
1070
     0
1002
}
1002
{
1000
REACTOR
1002
}
1001
GENIUS_GENOBJ-N-FIL_13
1002
{
1000
OWNER
1000
GEN
1002
}
  0
ARC
  5
2669
330
1F
100
AcDbEntity
  8
1
100
AcDbCircle
 10
73.1700873178948
 20
45.52815634879647
 30
0.0
 40
2.130407610967658
100
AcDbArc
 50
140.6324757416298
 51
176.0817959173876
  0
LINE
  5
266A
330
1F
100
AcDbEntity
  8
1
100
AcDbLine
 10
85.04465775463989
 20
45.67493026290532
 30
0.0
 11
84.62879488090829
 21
40.67645418751502
 31
0.0
  0
ARC
  5
266B
330
1F
100
AcDbEntity
  8
1
100
AcDbCircle
 10
84.14282090994602
 20
40.66985456432783
 30
0.0
 40
0.4860187809941681
100
AcDbArc
 50
271.3052412551801
 51
0.7780402552256853
  0
ARC
  5
266C
330
1F
100
AcDbEntity
  8
1
100
AcDbCircle
 10
87.17008579044312
 20
45.52935466917239
 30
0.0
 40
2.130407610967658
100
AcDbArc
 50
140.6324757416298
 51
176.0817959173876
  0
ARC
  5
266D
330
1F
100
AcDbEntity
  8
1
100
AcDbCircle
 10
85.13653550037162
 20
47.19780227625699
 30
0.0
 40
0.5
100
AcDbArc
 50
320.6324757416282
 51
0.0
1001
GENIUS_GENODEF_13
1002
{
1000
HIER
1070
     0
1002
}
1002
{
1000
MANEDIT
1070
     0
1002
}
1002
{
1000
NOSEL
1070
     0
1002
}
1002
{
1000
BEHIND
1070
     0
1002
}
1002
{
1000
OTHER
1070
     0
1002
}
1002
{
1000
REACTOR
1002
}
1001
GENIUS_GENOBJ-N-FIL_13
1002
{
1000
OWNER
1000
GEN
1002
}
  0
ARC
  5
266E
330
1F
100
AcDbEntity
  8
1
100
AcDbCircle
 10
70.83653702782334
 20
49.19901159296967
 30
0.0
 40
0.8
100
AcDbArc
 50
0.0000000000008142
 51
88.68743095148614
1001
GENIUS_GENODEF_13
1002
{
1000
HIER
1070
     0
1002
}
1002
{
1000
MANEDIT
1070
     0
1002
}
1002
{
1000
NOSEL
1070
     0
1002
}
1002
{
1000
BEHIND
1070
     0
1002
}
1002
{
1000
OTHER
1070
     0
1002
}
1002
{
1000
REACTOR
1002
}
1001
GENIUS_GENOBJ-N-FIL_13
1002
{
1000
OWNER
1000
GEN
1002
}
  0
ARC
  5
266F
330
1F
100
AcDbEntity
  8
1
100
AcDbCircle
 10
84.83653550037166
 20
49.20020991334559
 30
0.0
 40
0.8
100
AcDbArc
 50
0.0000000000008142
 51
88.68743095148614
1001
GENIUS_GENODEF_13
1002
{
1000
HIER
1070
     0
1002
}
1002
{
1000
MANEDIT
1070
     0
1002
}
1002
{
1000
NOSEL
1070
     0
1002
}
1002
{
1000
BEHIND
1070
     0
1002
}
1002
{
1000
OTHER
1070
     0
1002
}
1002
{
1000
REACTOR
1002
}
1001
GENIUS_GENOBJ-N-FIL_13
1002
{
1000
OWNER
1000
GEN
1002
}
  0
LINE
  5
2670
330
1F
100
AcDbEntity
  8
1
100
AcDbLine
 10
99.81624804197572
 20
49.20020991334559
 30
0.0
 11
99.81624804197572
 21
47.19780227625699
 31
0.0
  0
CIRCLE
  5
2671
330
1F
100
AcDbEntity
  8
1
100
AcDbCircle
 10
90.75261855890341
 20
45.09252165869898
 30
0.0
 40
3.149999999999991
  0
LINE
  5
2672
330
1F
100
AcDbEntity
  8
1
100
AcDbLine
 10
99.22437029624399
 20
45.67493026290532
 30
0.0
 11
98.80850742251238
 21
40.67645418751502
 31
0.0
  0
ARC
  5
2673
330
1F
100
AcDbEntity
  8
1
100
AcDbCircle
 10
98.3225334515501
 20
40.66985456432783
 30
0.0
 40
0.4860187809941681
100
AcDbArc
 50
271.3052412551801
 51
0.7780402552256853
  0
ARC
  5
2674
330
1F
100
AcDbEntity
  8
1
100
AcDbCircle
 10
101.3497983320472
 20
45.52935466917239
 30
0.0
 40
2.130407610967658
100
AcDbArc
 50
140.6324757416298
 51
176.0817959173876
  0
ARC
  5
2675
330
1F
100
AcDbEntity
  8
1
100
AcDbCircle
 10
99.31624804197571
 20
47.19780227625699
 30
0.0
 40
0.5
100
AcDbArc
 50
320.6324757416282
 51
0.0
1001
GENIUS_GENODEF_13
1002
{
1000
HIER
1070
     0
1002
}
1002
{
1000
MANEDIT
1070
     0
1002
}
1002
{
1000
NOSEL
1070
     0
1002
}
1002
{
1000
BEHIND
1070
     0
1002
}
1002
{
1000
OTHER
1070
     0
1002
}
1002
{
1000
REACTOR
1002
}
1001
GENIUS_GENOBJ-N-FIL_13
1002
{
1000
OWNER
1000
GEN
1002
}
  0
ARC
  5
2676
330
1F
100
AcDbEntity
  8
1
100
AcDbCircle
 10
99.01624804197576
 20
49.20020991334559
 30
0.0
 40
0.8
100
AcDbArc
 50
0.0000000000008142
 51
88.68743095148614
1001
GENIUS_GENODEF_13
1002
{
1000
HIER
1070
     0
1002
}
1002
{
1000
MANEDIT
1070
     0
1002
}
1002
{
1000
NOSEL
1070
     0
1002
}
1002
{
1000
BEHIND
1070
     0
1002
}
1002
{
1000
OTHER
1070
     0
1002
}
1002
{
1000
REACTOR
1002
}
1001
GENIUS_GENOBJ-N-FIL_13
1002
{
1000
OWNER
1000
GEN
1002
}
  0
LINE
  5
2677
330
1F
100
AcDbEntity
  8
1
100
AcDbLine
 10
113.9959605835799
 20
49.20020991334559
 30
0.0
 11
113.9959605835799
 21
47.19780227625699
 31
0.0
  0
LINE
  5
2678
330
1F
100
AcDbEntity
  8
CUT
100
AcDbLine
 10
113.99596058358
 20
49.20020991334559
 30
0.0
 11
113.9959605835799
 21
47.19780227625699
 31
0.0
  0
ARC
  5
2679
330
1F
100
AcDbEntity
  8
1
100
AcDbCircle
 10
112.5022459931543
 20
40.66985456432783
 30
0.0
 40
0.4860187809941681
100
AcDbArc
 50
271.3052412551801
 51
0.7780402552256853
  0
ARC
  5
267A
330
1F
100
AcDbEntity
  8
CUT
100
AcDbCircle
 10
112.5022459931543
 20
40.66985456432783
 30
0.0
 40
0.4860187809941681
100
AcDbArc
 50
271.3052412551769
 51
0.7780402552273135
  0
LINE
  5
267B
330
1F
100
AcDbEntity
  8
1
100
AcDbLine
 10
113.4040828378481
 20
45.67493026290532
 30
0.0
 11
112.9882199641165
 21
40.67645418751502
 31
0.0
  0
LINE
  5
267C
330
1F
100
AcDbEntity
  8
CUT
100
AcDbLine
 10
113.4040828378484
 20
45.67493026290728
 30
0.0
 11
112.9882199641165
 21
40.67645418751502
 31
0.0
  0
ARC
  5
267D
330
1F
100
AcDbEntity
  8
1
100
AcDbCircle
 10
115.5295108736514
 20
45.52935466917239
 30
0.0
 40
2.130407610967658
100
AcDbArc
 50
140.6324757416298
 51
176.0817959173876
  0
ARC
  5
267E
330
1F
100
AcDbEntity
  8
CUT
100
AcDbCircle
 10
115.5295108736514
 20
45.52935466917239
 30
0.0
 40
2.130407610967658
100
AcDbArc
 50
140.6324757416298
 51
176.0817959173346
  0
ARC
  5
267F
330
1F
100
AcDbEntity
  8
1
100
AcDbCircle
 10
113.4959605835799
 20
47.19780227625699
 30
0.0
 40
0.5
100
AcDbArc
 50
320.6324757416282
 51
0.0
1001
GENIUS_GENODEF_13
1002
{
1000
HIER
1070
     0
1002
}
1002
{
1000
MANEDIT
1070
     0
1002
}
1002
{
1000
NOSEL
1070
     0
1002
}
1002
{
1000
BEHIND
1070
     0
1002
}
1002
{
1000
OTHER
1070
     0
1002
}
1002
{
1000
REACTOR
1002
}
1001
GENIUS_GENOBJ-N-FIL_13
1002
{
1000
OWNER
1000
GEN
1002
}
  0
ARC
  5
2680
330
1F
100
AcDbEntity
  8
CUT
100
AcDbCircle
 10
113.4959605835799
 20
47.19780227625699
 30
0.0
 40
0.5
100
AcDbArc
 50
320.6324757416298
 51
0.0
1001
GENIUS_GENODEF_13
1002
{
1000
HIER
1070
     0
1002
}
1002
{
1000
MANEDIT
1070
     0
1002
}
1002
{
1000
NOSEL
1070
     0
1002
}
1002
{
1000
BEHIND
1070
     0
1002
}
1002
{
1000
OTHER
1070
     0
1002
}
1002
{
1000
REACTOR
1002
}
1001
GENIUS_GENOBJ-N-FIL_13
1002
{
1000
OWNER
1000
GEN
1002
}
  0
ARC
  5
2681
330
1F
100
AcDbEntity
  8
1
100
AcDbCircle
 10
113.1959605835799
 20
49.20020991334559
 30
0.0
 40
0.8
100
AcDbArc
 50
0.0000000000008142
 51
88.68743095148614
1001
GENIUS_GENODEF_13
1002
{
1000
HIER
1070
     0
1002
}
1002
{
1000
MANEDIT
1070
     0
1002
}
1002
{
1000
NOSEL
1070
     0
1002
}
1002
{
1000
BEHIND
1070
     0
1002
}
1002
{
1000
OTHER
1070
     0
1002
}
1002
{
1000
REACTOR
1002
}
1001
GENIUS_GENOBJ-N-FIL_13
1002
{
1000
OWNER
1000
GEN
1002
}
  0
ARC
  5
2682
330
1F
100
AcDbEntity
  8
CUT
100
AcDbCircle
 10
113.1959605835799
 20
49.20020991334559
 30
0.0
 40
0.8
100
AcDbArc
 50
0.0
 51
88.68743095148614
1001
GENIUS_GENODEF_13
1002
{
1000
HIER
1070
     0
1002
}
1002
{
1000
MANEDIT
1070
     0
1002
}
1002
{
1000
NOSEL
1070
     0
1002
}
1002
{
1000
BEHIND
1070
     0
1002
}
1002
{
1000
OTHER
1070
     0
1002
}
1002
{
1000
REACTOR
1002
}
1001
GENIUS_GENOBJ-N-FIL_13
1002
{
1000
OWNER
1000
GEN
1002
}
  0
LINE
  5
2683
330
1F
100
AcDbEntity
  8
SK1
100
AcDbLine
 10
113.9999999999999
 20
50.46376936984851
 30
0.0
 11
113.9999999999999
 21
49.53623063015086
 31
0.0
  0
LINE
  5
2684
330
1F
100
AcDbEntity
  8
SK1
100
AcDbLine
 10
113.5362306301513
 20
49.99999999999968
 30
0.0
 11
114.4637693698489
 21
49.99999999999968
 31
0.0
  0
CIRCLE
  5
2685
330
1F
100
AcDbEntity
  8
SK1
100
AcDbCircle
 10
114.0
 20
49.99999999999968
 30
0.0
 40
0.4637693698488208
  0
LINE
  5
2686
330
1F
100
AcDbEntity
  8
SK1
100
AcDbLine
 10
114.0
 20
50.46376936984851
 30
0.0
 11
114.0
 21
49.53623063015086
 31
0.0
  0
TEXT
  5
26A5
330
1F
100
AcDbEntity
  8
6
100
AcDbText
 10
155.5440620905024
 20
-6.547154708980372
 30
0.0
 40
3.5
  1
Z=36
 50
90.0
100
AcDbText
  0
TEXT
  5
26A6
330
1F
100
AcDbEntity
  8
6
100
AcDbText
 10
161.7663637529005
 20
-9.603339172524385
 30
0.0
 40
3.5
  1
Zeff.=6
 50
90.0
100
AcDbText
  0
LINE
  5
2756
330
1F
100
AcDbEntity
  8
1
100
AcDbLine
 10
25.5054311726046
 20
49.27113434341649
 30
0.0
 11
17.88734178157638
 21
49.27113434341649
 31
0.0
  0
ARC
  5
2757
330
1F
100
AcDbEntity
  8
1
100
AcDbCircle
 10
22.97572777160732
 20
44.65449032784968
 30
0.0
 40
2.130407610967658
100
AcDbArc
 50
320.6324757416298
 51
356.0817959173877
  0
ARC
  5
2758
330
1F
100
AcDbEntity
  8
1
100
AcDbCircle
 10
25.30927806167878
 20
40.98363508367649
 30
0.0
 40
0.8
100
AcDbArc
 50
180.0000000000007
 51
268.6874309514861
1001
GENIUS_GENODEF_13
1002
{
1000
HIER
1070
     0
1002
}
1002
{
1000
MANEDIT
1070
     0
1002
}
1002
{
1000
NOSEL
1070
     0
1002
}
1002
{
1000
BEHIND
1070
     0
1002
}
1002
{
1000
OTHER
1070
     0
1002
}
1002
{
1000
REACTOR
1002
}
1001
GENIUS_GENOBJ-N-FIL_13
1002
{
1000
OWNER
1000
GEN
1002
}
  0
LINE
  5
2759
330
1F
100
AcDbEntity
  8
1
100
AcDbLine
 10
24.50927806167871
 20
40.98363508367646
 30
0.0
 11
24.50927806167882
 21
42.98604272076505
 31
0.0
  0
ARC
  5
275A
330
1F
100
AcDbEntity
  8
1
100
AcDbCircle
 10
25.00927806167883
 20
42.98604272076508
 30
0.0
 40
0.5
100
AcDbArc
 50
140.6324757416295
 51
180.0
1001
GENIUS_GENODEF_13
1002
{
1000
HIER
1070
     0
1002
}
1002
{
1000
MANEDIT
1070
     0
1002
}
1002
{
1000
NOSEL
1070
     0
1002
}
1002
{
1000
BEHIND
1070
     0
1002
}
1002
{
1000
OTHER
1070
     0
1002
}
1002
{
1000
REACTOR
1002
}
1001
GENIUS_GENOBJ-N-FIL_13
1002
{
1000
OWNER
1000
GEN
1002
}
  0
LINE
  5
275B
330
1F
100
AcDbEntity
  8
1
100
AcDbLine
 10
25.10115580741055
 20
44.50891473411675
 30
0.0
 11
25.51701868114216
 21
49.50739080950706
 31
0.0
  0
ARC
  5
275C
330
1F
100
AcDbEntity
  8
1
100
AcDbCircle
 10
26.00299265210443
 20
49.51399043269424
 30
0.0
 40
0.4860187809941681
100
AcDbArc
 50
90.3527999850381
 51
180.7780402552256
  0
CIRCLE
  5
275D
330
1F
100
AcDbEntity
  8
1
100
AcDbCircle
 10
34.0729075447534
 20
45.09132333832306
 30
0.0
 40
3.149999999999991
  0
ARC
  5
275F
330
1F
100
AcDbEntity
  8
1
100
AcDbCircle
 10
42.33653702782575
 20
49.19901159296967
 30
0.0
 40
0.8
100
AcDbArc
 50
0.0000000000008142
 51
88.68743095148614
1001
GENIUS_GENODEF_13
1002
{
1000
HIER
1070
     0
1002
}
1002
{
1000
MANEDIT
1070
     0
1002
}
1002
{
1000
NOSEL
1070
     0
1002
}
1002
{
1000
BEHIND
1070
     0
1002
}
1002
{
1000
OTHER
1070
     0
1002
}
1002
{
1000
REACTOR
1002
}
1001
GENIUS_GENOBJ-N-FIL_13
1002
{
1000
OWNER
1000
GEN
1002
}
  0
ARC
  5
2760
330
1F
100
AcDbEntity
  8
1
100
AcDbCircle
 10
44.67008731789721
 20
45.52815634879647
 30
0.0
 40
2.130407610967658
100
AcDbArc
 50
140.6324757416298
 51
176.0817959173876
  0
ARC
  5
2761
330
1F
100
AcDbEntity
  8
1
100
AcDbCircle
 10
41.6428224374001
 20
40.66865624395191
 30
0.0
 40
0.4860187809941681
100
AcDbArc
 50
271.3052412551801
 51
0.7780402552256853
  0
LINE
  5
2762
330
1F
100
AcDbEntity
  8
1
100
AcDbLine
 10
42.54465928209398
 20
45.67373194252939
 30
0.0
 11
42.12879640836237
 21
40.6752558671391
 31
0.0
  0
ARC
  5
2763
330
1F
100
AcDbEntity
  8
1
100
AcDbCircle
 10
42.63653702782571
 20
47.19660395588107
 30
0.0
 40
0.5
100
AcDbArc
 50
320.6324757416282
 51
0.0
1001
GENIUS_GENODEF_13
1002
{
1000
HIER
1070
     0
1002
}
1002
{
1000
MANEDIT
1070
     0
1002
}
1002
{
1000
NOSEL
1070
     0
1002
}
1002
{
1000
BEHIND
1070
     0
1002
}
1002
{
1000
OTHER
1070
     0
1002
}
1002
{
1000
REACTOR
1002
}
1001
GENIUS_GENOBJ-N-FIL_13
1002
{
1000
OWNER
1000
GEN
1002
}
  0
LINE
  5
2764
330
1F
100
AcDbEntity
  8
1
100
AcDbLine
 10
43.13653702782571
 20
49.19901159296967
 30
0.0
 11
43.13653702782571
 21
47.19660395588107
 31
0.0
  0
LINE
  5
2766
330
1F
100
AcDbEntity
  8
1
100
AcDbLine
 10
26.00000000000005
 20
49.99999999999968
 30
0.0
 11
113.214285901853
 21
49.99999999999968
 31
0.0
  0
LINE
  5
2768
330
1F
100
AcDbEntity
  8
1
100
AcDbLine
 10
112.5133169114893
 20
40.18396189074006
 30
0.0
 11
25.29095274340565
 21
40.18384499702237
 31
0.0
  0
LINE
  5
2773
330
1F
100
AcDbEntity
  8
SK1
100
AcDbLine
 10
113.9999999999996
 20
-50.46376936984914
 30
0.0
 11
113.9999999999996
 21
-49.5362306301515
 31
0.0
  0
LINE
  5
2774
330
1F
100
AcDbEntity
  8
SK1
100
AcDbLine
 10
113.9999999999995
 20
-50.46376936984914
 30
0.0
 11
113.9999999999995
 21
-49.5362306301515
 31
0.0
  0
LINE
  5
2775
330
1F
100
AcDbEntity
  8
SK1
100
AcDbLine
 10
113.5362306301509
 20
-50.00000000000031
 30
0.0
 11
114.4637693698485
 21
-50.00000000000032
 31
0.0
  0
CIRCLE
  5
2776
330
1F
100
AcDbEntity
  8
SK1
100
AcDbCircle
 10
113.9999999999996
 20
-50.00000000000032
 30
0.0
 40
0.4637693698488208
  0
ARC
  5
2778
330
1F
100
AcDbEntity
  8
1
100
AcDbCircle
 10
40.50299265210614
 20
-49.5151887530708
 30
0.0
 40
0.4860187809941681
100
AcDbArc
 50
179.2219597447743
 51
269.6472000149618
  0
LINE
  5
2779
330
1F
100
AcDbEntity
  8
1
100
AcDbLine
 10
39.99726293391367
 20
-49.27113434341674
 30
0.0
 11
40.01701868114387
 21
-49.50858912988362
 31
0.0
  0
LINE
  5
277A
330
1F
100
AcDbEntity
  8
1
100
AcDbLine
 10
40.50000000000179
 20
-50.00119832037625
 30
0.0
 11
113.2142859018526
 21
-50.00000000000032
 31
0.0
  0
LINE
  5
277B
330
1F
100
AcDbEntity
  8
1
100
AcDbLine
 10
112.9967948000833
 20
40.77951968130496
 30
0.0
 11
112.9967948000831
 21
-49.2711343434171
 31
0.0
  0
LINE
  5
277C
330
1F
100
AcDbEntity
  8
1
100
AcDbLine
 10
113.9959605835794
 20
-49.20020991334623
 30
0.0
 11
113.9959605835794
 21
-47.19780227625763
 31
0.0
  0
ARC
  5
277D
330
1F
100
AcDbEntity
  8
1
100
AcDbCircle
 10
113.4959605835794
 20
-47.19780227625763
 30
0.0
 40
0.5
100
AcDbArc
 50
0.0
 51
39.3675242583714
1001
GENIUS_GENODEF_13
1002
{
1000
HIER
1070
     0
1002
}
1002
{
1000
MANEDIT
1070
     0
1002
}
1002
{
1000
NOSEL
1070
     0
1002
}
1002
{
1000
BEHIND
1070
     0
1002
}
1002
{
1000
OTHER
1070
     0
1002
}
1002
{
1000
REACTOR
1002
}
1001
GENIUS_GENOBJ-N-FIL_13
1002
{
1000
OWNER
1000
GEN
1002
}
  0
ARC
  5
277E
330
1F
100
AcDbEntity
  8
1
100
AcDbCircle
 10
115.5295108736509
 20
-45.52935466917303
 30
0.0
 40
2.130407610967658
100
AcDbArc
 50
183.9182040826123
 51
219.3675242583701
  0
LINE
  5
277F
330
1F
100
AcDbEntity
  8
1
100
AcDbLine
 10
113.4040828378477
 20
-45.67493026290596
 30
0.0
 11
112.9882199641161
 21
-40.67645418751566
 31
0.0
  0
ARC
  5
2780
330
1F
100
AcDbEntity
  8
1
100
AcDbCircle
 10
113.1959605835795
 20
-49.20020991334623
 30
0.0
 40
0.8
100
AcDbArc
 50
271.3125690485138
 51
359.9999999999992
1001
GENIUS_GENODEF_13
1002
{
1000
HIER
1070
     0
1002
}
1002
{
1000
MANEDIT
1070
     0
1002
}
1002
{
1000
NOSEL
1070
     0
1002
}
1002
{
1000
BEHIND
1070
     0
1002
}
1002
{
1000
OTHER
1070
     0
1002
}
1002
{
1000
REACTOR
1002
}
1001
GENIUS_GENOBJ-N-FIL_13
1002
{
1000
OWNER
1000
GEN
1002
}
  0
LINE
  5
2789
330
1F
100
AcDbEntity
  8
1
100
AcDbLine
 10
17.88734178157638
 20
49.27113434341649
 30
0.0
 11
14.61620743816001
 21
46.00000000000012
 31
0.0
  0
LINE
  5
2794
330
1F
100
AcDbEntity
  8
1
100
AcDbLine
 10
17.88734178157596
 20
-49.27113434341631
 30
0.0
 11
14.61620743815962
 21
-45.9999999999999
 31
0.0
  0
LINE
  5
2795
330
1F
100
AcDbEntity
  8
1
100
AcDbLine
 10
112.9967948000831
 20
-49.2711343434171
 30
0.0
 11
17.88734178157596
 21
-49.27113434341631
 31
0.0
  0
DIMENSION
  5
27A9
330
1F
100
AcDbEntity
  8
2
100
AcDbDimension
  2
*D5
 10
147.1220621011027
 20
-50.00000000000033
 30
0.0
 11
143.8720621011027
 21
-0.0000000000002999
 31
0.0
 70
    32
  1
%%c<>
 71
     5
 42
100.0
  3
AM_DIN
100
AcDbAlignedDimension
 13
114.0
 23
49.99999999999968
 33
0.0
 14
113.9999999999996
 24
-50.00000000000032
 34
0.0
 50
90.0
100
AcDbRotatedDimension
  0
LINE
  5
27E3
330
1F
100
AcDbEntity
  8
1
100
AcDbLine
 10
14.61620743816001
 20
46.00000000000012
 30
0.0
 11
14.61620743815962
 21
-45.9999999999999
 31
0.0
  0
LINE
  5
27E4
330
1F
100
AcDbEntity
  8
1
100
AcDbLine
 10
17.88734178157638
 20
49.27113434341649
 30
0.0
 11
17.88734178157596
 21
-49.27113434341631
 31
0.0
  0
DIMENSION
  5
280F
330
1F
100
AcDbEntity
  8
2
100
AcDbDimension
  2
*D6
 10
26.00000000000005
 20
59.99999999999988
 30
0.0
 11
70.00000000000006
 21
63.24999999999988
 31
0.0
 70
    32
 71
     5
 42
88.0
  3
AM_DIN
100
AcDbAlignedDimension
 13
114.0
 23
49.99999999999968
 33
0.0
 14
26.00000000000005
 24
50.2368706841778
 34
0.0
100
AcDbRotatedDimension
  0
DIMENSION
  5
2837
330
1F
100
AcDbEntity
  8
2
100
AcDbDimension
  2
*D7
 10
0.0000000000000872
 20
74.99999999999994
 30
0.0
 11
57.00000000000007
 21
78.24999999999994
 31
0.0
 70
    32
 71
     5
 42
113.9999999999999
  3
AM_DIN
100
AcDbAlignedDimension
 13
114.0
 23
49.99999999999968
 33
0.0
 14
0.0000000000000853
 24
43.0000000000002
 34
0.0
100
AcDbRotatedDimension
  0
LINE
  5
2874
330
1F
100
AcDbEntity
  8
NOCUT
100
AcDbLine
 10
112.9967948000831
 20
-49.27113434341712
 30
0.0
 11
17.88734178157596
 21
-49.27113434341632
 31
0.0
  0
LINE
  5
2879
330
1F
100
AcDbEntity
  8
NOCUT
100
AcDbLine
 10
112.9967948000832
 20
-0.0000000000003126
 30
0.0
 11
0.0
 21
0.0000000000001705
 31
0.0
  0
LINE
  5
287D
330
1F
100
AcDbEntity
  8
NOCUT
100
AcDbLine
 10
0.0000000000001137
 20
-43.0
 30
0.0
 11
0.0
 21
0.0000000000001705
 31
0.0
  0
LINE
  5
2880
330
1F
100
AcDbEntity
  8
NOCUT
100
AcDbLine
 10
14.61620743815967
 20
-45.99999999999994
 30
0.0
 11
3.000000000000113
 21
-46.0
 31
0.0
  0
ARC
  5
2882
330
1F
100
AcDbEntity
  8
NOCUT
100
AcDbCircle
 10
3.000000000000113
 20
-43.0
 30
0.0
 40
3.0
100
AcDbArc
 50
180.0000000000001
 51
270.0
1001
GENIUS_GENOBJ-N-FIL_13
1002
{
1000
OWNER
1000
GEN
1002
}
1001
GENIUS_GENODEF_13
1002
{
1000
HIER
1070
     0
1002
}
1002
{
1000
MANEDIT
1070
     0
1002
}
1002
{
1000
NOSEL
1070
     0
1002
}
1002
{
1000
BEHIND
1070
     0
1002
}
1002
{
1000
OTHER
1070
     0
1002
}
1002
{
1000
REACTOR
1002
}
  0
LINE
  5
2883
330
1F
100
AcDbEntity
  8
NOCUT
100
AcDbLine
 10
17.88734178157596
 20
-49.27113434341632
 30
0.0
 11
14.61620743815962
 21
-45.99999999999991
 31
0.0
  0
LINE
  5
289A
330
1F
100
AcDbEntity
  8
NOCUT
100
AcDbLine
 10
112.9967948000832
 20
-0.0000000000003126
 30
0.0
 11
112.9967948000831
 21
-49.27113434341712
 31
0.0
  0
ARC
  5
294F
330
1F
100
AcDbEntity
  8
1
100
AcDbCircle
 10
45.54532330344641
 20
-47.41485010340954
 30
0.0
 40
84.11505489716871
100
AcDbArc
 50
36.68852184990999
 51
81.29495451987223
  0
ARC
  5
2950
330
1F
100
AcDbEntity
  8
1
100
AcDbCircle
 10
56.87497901897731
 20
-26.42717069950183
 30
0.0
 40
62.1742036170349
100
AcDbArc
 50
88.70883840853279
 51
117.3299868817397
  0
ARC
  5
2951
330
1F
100
AcDbEntity
  8
1
100
AcDbCircle
 10
29.39525261005328
 20
40.45952215970936
 30
0.0
 40
11.70115588347311
100
AcDbArc
 50
131.1443041428766
 51
264.7761518558771
  0
ARC
  5
2952
330
1F
100
AcDbEntity
  8
1
100
AcDbCircle
 10
110.4091888704608
 20
-64.68442740289706
 30
0.0
 40
100.4490085174319
100
AcDbArc
 50
88.52387491645469
 51
108.986330599401
  0
ARC
  5
2958
330
1F
100
AcDbEntity
  8
1
100
AcDbCircle
 10
38.68883813623562
 20
-34.15302731829863
 30
0.0
 40
77.33204304839339
100
AcDbArc
 50
16.07609288817565
 51
49.5329321149704
  0
ARC
  5
2965
330
1F
100
AcDbEntity
  8
1
100
AcDbCircle
 10
78.47487622777521
 20
22.17114612020722
 30
0.0
 40
71.70070962202615
100
AcDbArc
 50
274.8660569713782
 51
298.7737986747504
  0
ARC
  5
2967
330
1F
100
AcDbEntity
  8
1
100
AcDbCircle
 10
95.34509773746938
 20
40.15003982005906
 30
0.0
 40
90.06958019679103
100
AcDbArc
 50
226.4868853077281
 51
263.1208786967536
  0
ARC
  5
2968
330
1F
100
AcDbEntity
  8
1
100
AcDbCircle
 10
27.88027577936042
 20
45.98649849062991
 30
0.0
 40
95.48545343705676
100
AcDbArc
 50
273.9586937776491
 51
290.669352279921
  0
ARC
  5
2969
330
1F
100
AcDbEntity
  8
1
100
AcDbCircle
 10
30.83331970652498
 20
-43.66223269987311
 30
0.0
 40
18.66012529374878
100
AcDbArc
 50
82.30985799675929
 51
133.9298917861348
  0
ARC
  5
296A
330
1F
100
AcDbEntity
  8
1
100
AcDbCircle
 10
42.40868725497437
 20
-25.61669554009363
 30
0.0
 40
24.95031483112956
100
AcDbArc
 50
190.6398855046658
 51
251.4527634521753
  0
LINE
  5
2B89
330
1F
100
AcDbEntity
  8
4
100
AcDbLine
 10
45.14450390937646
 20
36.51891261703556
 30
0.0
 11
29.50000000000011
 21
19.99999999999687
 31
0.0
  0
LINE
  5
2B8A
330
1F
100
AcDbEntity
  8
4
100
AcDbLine
 10
67.31068599866389
 20
32.23016683453157
 30
0.0
 11
30.34594510626186
 21
16.47796410810559
 31
0.0
  0
LINE
  5
2B8B
330
1F
100
AcDbEntity
  8
4
100
AcDbLine
 10
67.31068599866363
 20
-32.23016683453181
 30
0.0
 11
30.34594510626172
 21
-16.47796410810551
 31
0.0
  0
LINE
  5
2B8C
330
1F
100
AcDbEntity
  8
4
100
AcDbLine
 10
45.14450390937615
 20
-36.51891261703561
 30
0.0
 11
29.49999999999994
 21
-19.99999999999678
 31
0.0
  0
ENDSEC
  0
SECTION
  2
OBJECTS
  0
DICTIONARY
  5
C
330
0
100
AcDbDictionary
281
     1
  3
ACAD_GROUP
350
D
  3
ACAD_LAYOUT
350
1A
  3
ACAD_MLINESTYLE
350
17
  3
ACAD_PLOTSETTINGS
350
19
  3
ACAD_PLOTSTYLENAME
350
E
  3
AcDbVariableDictionary
350
216
  3
AcmDictionary
350
45
  3
AMG
350
41
  3
AMGSNAPSETTINGS
350
23D
  3
DWGPROPS
350
2B87
  0
DICTIONARY
  5
1F1
330
1F
100
AcDbDictionary
280
     1
281
     1
  3
ACAD_INDEX
360
1F2
  0
DICTIONARY
  5
D
102
{ACAD_REACTORS
330
C
102
}
330
C
100
AcDbDictionary
281
     1
  0
DICTIONARY
  5
1A
102
{ACAD_REACTORS
330
C
102
}
330
C
100
AcDbDictionary
281
     1
  3
Layout1
350
1E
  3
Layout2
350
26
  3
Model
350
22
  0
DICTIONARY
  5
17
102
{ACAD_REACTORS
330
C
102
}
330
C
100
AcDbDictionary
281
     1
  3
Standard
350
18
  0
DICTIONARY
  5
19
102
{ACAD_REACTORS
330
C
102
}
330
C
100
AcDbDictionary
281
     1
  0
ACDBDICTIONARYWDFLT
  5
E
102
{ACAD_REACTORS
330
C
102
}
330
C
100
AcDbDictionary
281
     1
  3
Normal
350
F
100
AcDbDictionaryWithDefault
340
F
  0
DICTIONARY
  5
216
102
{ACAD_REACTORS
330
C
102
}
330
C
100
AcDbDictionary
281
     1
  3
DIMASSOC
350
219
  3
HIDETEXT
350
218
  3
INDEXCTL
350
217
  0
DICTIONARY
  5
45
102
{ACAD_REACTORS
330
C
102
}
330
C
100
AcDbDictionary
281
     1
  3
AcmBOMDATA
350
46
  3
AcmStdDictionary
350
4A
  0
DICTIONARY
  5
41
102
{ACAD_REACTORS
330
C
102
}
330
C
100
AcDbDictionary
281
     1
  3
AcMgSettings
350
42
  3
AMGLAYCFG
350
4C
  0
DICTIONARY
  5
23D
102
{ACAD_REACTORS
330
C
102
}
330
C
100
AcDbDictionary
281
     1
  3
HATCH (1)
350
EE9
  3
HATCH (2)
350
EEA
  0
XRECORD
  5
2B87
102
{ACAD_REACTORS
330
C
102
}
330
C
100
AcDbXrecord
280
     1
  1
DWGPROPS COOKIE
  2

  3

  4

  6

  7

  8

  9

300
AmdtFileType=84
301
=
302
=
303
=
304
=
305
=
306
=
307
=
308
=
309
=
 40
0.0573914583333333
 41
2453599.324339374
 42
2453767.623714583
  1

 90
        1
  0
DICTIONARY
  5
1F2
102
{ACAD_REACTORS
330
1F1
102
}
330
1F1
100
AcDbDictionary
281
     1
  3
*A1
350
1F3
  0
LAYOUT
  5
1E
102
{ACAD_REACTORS
330
1A
102
}
330
1A
100
AcDbPlotSettings
  1

  2
HP DesignJet 220 (D/A1) by HP
  4

  6

 40
0.0
 41
0.0
 42
0.0
 43
0.0
 44
0.0
 45
0.0
 46
0.0
 47
0.0
 48
0.0
 49
0.0
140
0.0
141
0.0
142
1.0
143
1.0
 70
   688
 72
     0
 73
     0
 74
     5
  7
monochrome2.ctb
 75
    16
147
1.0
148
0.0
149
0.0
100
AcDbLayout
  1
Layout1
 70
     1
 71
     1
 10
0.0
 20
0.0
 11
420.0
 21
297.0
 12
0.0
 22
0.0
 32
0.0
 14
1.000000000000000E+20
 24
1.000000000000000E+20
 34
1.000000000000000E+20
 15
-1.000000000000000E+20
 25
-1.000000000000000E+20
 35
-1.000000000000000E+20
146
0.0
 13
0.0
 23
0.0
 33
0.0
 16
1.0
 26
0.0
 36
0.0
 17
0.0
 27
1.0
 37
0.0
 76
     0
330
1B
  0
LAYOUT
  5
26
102
{ACAD_REACTORS
330
1A
102
}
330
1A
100
AcDbPlotSettings
  1

  2
HP DesignJet 220 (D/A1) by HP
  4

  6

 40
0.0
 41
0.0
 42
0.0
 43
0.0
 44
0.0
 45
0.0
 46
0.0
 47
0.0
 48
0.0
 49
0.0
140
0.0
141
0.0
142
1.0
143
1.0
 70
   688
 72
     0
 73
     0
 74
     5
  7
monochrome2.ctb
 75
    16
147
1.0
148
0.0
149
0.0
100
AcDbLayout
  1
Layout2
 70
     1
 71
     2
 10
0.0
 20
0.0
 11
12.0
 21
9.0
 12
0.0
 22
0.0
 32
0.0
 14
0.0
 24
0.0
 34
0.0
 15
0.0
 25
0.0
 35
0.0
146
0.0
 13
0.0
 23
0.0
 33
0.0
 16
1.0
 26
0.0
 36
0.0
 17
0.0
 27
1.0
 37
0.0
 76
     0
330
23
  0
LAYOUT
  5
22
102
{ACAD_REACTORS
330
1A
102
}
330
1A
100
AcDbPlotSettings
  1

  2
HP DesignJet 220 (D/A1) by HP
  4

  6

 40
0.0
 41
0.0
 42
0.0
 43
0.0
 44
0.0
 45
0.0
 46
0.0
 47
0.0
 48
0.0
 49
0.0
140
0.0
141
0.0
142
1.0
143
1.0
 70
  1712
 72
     0
 73
     0
 74
     0
  7
monochrome2.ctb
 75
     0
147
1.0
148
0.0
149
0.0
100
AcDbLayout
  1
Model
 70
     1
 71
     0
 10
0.0
 20
0.0
 11
12.0
 21
9.0
 12
0.0
 22
0.0
 32
0.0
 14
0.0
 24
0.0
 34
0.0
 15
0.0
 25
0.0
 35
0.0
146
0.0
 13
0.0
 23
0.0
 33
0.0
 16
1.0
 26
0.0
 36
0.0
 17
0.0
 27
1.0
 37
0.0
 76
     0
330
1F
  0
MLINESTYLE
  5
18
102
{ACAD_REACTORS
330
17
102
}
330
17
100
AcDbMlineStyle
  2
STANDARD
 70
     0
  3

 62
   256
 51
90.0
 52
90.0
 71
     2
 49
0.5
 62
   256
  6
BYLAYER
 49
-0.5
 62
   256
  6
BYLAYER
  0
ACDBPLACEHOLDER
  5
F
102
{ACAD_REACTORS
330
E
102
}
330
E
  0
DICTIONARYVAR
  5
219
102
{ACAD_REACTORS
330
216
102
}
330
216
100
DictionaryVariables
280
     0
  1
1
  0
DICTIONARYVAR
  5
218
102
{ACAD_REACTORS
330
216
102
}
330
216
100
DictionaryVariables
280
     0
  1
1
  0
DICTIONARYVAR
  5
217
102
{ACAD_REACTORS
330
216
102
}
330
216
100
DictionaryVariables
280
     0
  1
1
  0
ACMDATADICTIONARY
  5
46
102
{ACAD_REACTORS
330
45
102
}
330
45
100
AcDbDictionary
281
     1
  3
*A1
350
47
  3
*A2
350
16E3
100
AcmDataDictionary
  0
DICTIONARY
  5
4A
102
{ACAD_REACTORS
330
45
102
}
330
45
100
AcDbDictionary
281
     1
  3
ANSI
350
20B0
  3
BSI
350
2601
  3
DIN
350
4B
  3
ISO
350
2610
  3
JIS
350
2620
  0
DICTIONARY
  5
42
102
{ACAD_REACTORS
330
41
102
}
330
41
100
AcDbDictionary
281
     1
  3
DWGSETTINGS
350
43
  3
Shaft
350
EE8
  3
TRANSSETTINGS
350
44
  0
ACAMGFILTERDAT
  5
EE9
102
{ACAD_REACTORS
330
23D
102
}
330
23D
100
AcAmgFilterDat
 70
    15
  1
HATCH
  2
*
  3
*
  4
*
  5
*
290
     1
  0
ACAMGFILTERDAT
  5
EEA
102
{ACAD_REACTORS
330
23D
102
}
330
23D
100
AcAmgFilterDat
 70
    15
  1
LINE
  2
8,8N,*-8,*-8N,AM_8,AM_8N,*-AM_8,*-AM_8N
  3
*
  4
*
  5
INSERT,STDPART2D
290
     1
  0
LAYER_INDEX
  5
1F3
102
{ACAD_REACTORS
330
1F2
102
}
330
1F2
100
AcDbIndex
 40
2453767.627140567
100
AcDbLayerIndex
  8
0
360
1F4
 90
        0
  8
Defpoints
360
210
 90
        0
  8
1
360
29B
 90
       81
  8
2
360
2345
 90
        3
  8
4
360
2346
 90
        5
  8
6
360
2347
 90
        4
  8
SK1
360
2348
 90
       14
  8
SK2
360
2349
 90
        2
  8
SK3
360
234A
 90
        8
  8
CUT
360
234B
 90
       14
  8
NOCUT
360
234C
 90
        7
  0
ACMDATAENTRYBLOCK
  5
47
102
{ACAD_REACTORS
330
46
102
}
330
46
100
AcmDataEntry
100
AcmDataEntryBlock
  0
ACMDATAENTRYBLOCK
  5
16E3
102
{ACAD_REACTORS
330
46
102
}
330
46
100
AcmDataEntry
100
AcmDataEntryBlock
  0
IDBUFFER
  5
1F4
330
0
100
AcDbIdBuffer
  0
IDBUFFER
  5
210
330
0
100
AcDbIdBuffer
  0
IDBUFFER
  5
29B
330
0
100
AcDbIdBuffer
330
19D1
330
19D6
330
1DFC
330
1E07
330
1E08
330
1E09
330
264D
330
265A
330
265B
330
265C
330
265D
330
265E
330
265F
330
2660
330
2661
330
2663
330
2664
330
2665
330
2666
330
2667
330
2668
330
2669
330
266A
330
266B
330
266C
330
266D
330
266E
330
266F
330
2670
330
2671
330
2672
330
2673
330
2674
330
2675
330
2676
330
2677
330
2679
330
267B
330
267D
330
267F
330
2681
330
2756
330
2757
330
2758
330
2759
330
275A
330
275B
330
275C
330
275D
330
275F
330
2760
330
2761
330
2762
330
2763
330
2764
330
2766
330
2768
330
2778
330
2779
330
277A
330
277B
330
277C
330
277D
330
277E
330
277F
330
2780
330
2789
330
2794
330
2795
330
27E3
330
27E4
330
294F
330
2950
330
2951
330
2952
330
2958
330
2965
330
2967
330
2968
330
2969
330
296A
  0
IDBUFFER
  5
2345
330
0
100
AcDbIdBuffer
330
27A9
330
280F
330
2837
  0
IDBUFFER
  5
2346
330
0
100
AcDbIdBuffer
330
2B8B
330
2B8C
330
21FC
330
2B89
330
2B8A
  0
IDBUFFER
  5
2347
330
0
100
AcDbIdBuffer
330
264A
330
2662
330
26A5
330
26A6
  0
IDBUFFER
  5
2348
330
0
100
AcDbIdBuffer
330
19D7
330
19D8
330
19D9
330
21F9
330
21FA
330
21FB
330
2683
330
2684
330
2685
330
2686
330
2773
330
2774
330
2775
330
2776
  0
IDBUFFER
  5
2349
330
0
100
AcDbIdBuffer
330
1A04
330
2462
  0
IDBUFFER
  5
234A
330
0
100
AcDbIdBuffer
330
19E3
330
19DC
330
19DD
330
19DE
330
19DF
330
19E0
330
19E1
330
19E2
  0
IDBUFFER
  5
234B
330
0
100
AcDbIdBuffer
330
264B
330
264C
330
264F
330
2651
330
2653
330
2656
330
2657
330
2659
330
2678
330
267A
330
267C
330
267E
330
2680
330
2682
  0
IDBUFFER
  5
234C
330
0
100
AcDbIdBuffer
330
2874
330
2879
330
287D
330
2880
330
2882
330
2883
330
289A
  0
ENDSEC
  0
EOF
