  0
SECTION
  2
HEADER
  9
$ACADVER
  1
AC1014
  9
$ACADMAINTVER
 70
     9
  9
$DWGCODEPAGE
  3
ANSI_1252
  9
$INSBASE
 10
0.0
 20
0.0
 30
0.0
  9
$EXTMIN
 10
-39.10482976643086
 20
-58.06815831396004
 30
0.0
  9
$EXTMAX
 10
140.7791224963985
 20
79.82838351313784
 30
0.0
  9
$LIMMIN
 10
0.0
 20
0.0
  9
$LIMMAX
 10
420.0
 20
297.0
  9
$ORTHOMODE
 70
     0
  9
$REGENMODE
 70
     1
  9
$FILLMODE
 70
     1
  9
$QTEXTMODE
 70
     0
  9
$MIRRTEXT
 70
     1
  9
$DRAGMODE
 70
     2
  9
$LTSCALE
 40
1.0
  9
$OSMODE
 70
  2599
  9
$ATTMODE
 70
     1
  9
$TEXTSIZE
 40
2.5
  9
$TRACEWID
 40
1.0
  9
$TEXTSTYLE
  7
STANDARD
  9
$CLAYER
  8
0
  9
$CELTYPE
  6
BYLAYER
  9
$CECOLOR
 62
   256
  9
$CELTSCALE
 40
1.0
  9
$DELOBJ
 70
     1
  9
$DISPSILH
 70
     0
  9
$DIMSCALE
 40
1.0
  9
$DIMASZ
 40
2.5
  9
$DIMEXO
 40
0.0
  9
$DIMDLI
 40
10.0
  9
$DIMRND
 40
0.0
  9
$DIMDLE
 40
0.0
  9
$DIMEXE
 40
1.0
  9
$DIMTP
 40
0.1
  9
$DIMTM
 40
0.1
  9
$DIMTXT
 40
3.5
  9
$DIMCEN
 40
0.0
  9
$DIMTSZ
 40
0.0
  9
$DIMTOL
 70
     0
  9
$DIMLIM
 70
     0
  9
$DIMTIH
 70
     0
  9
$DIMTOH
 70
     0
  9
$DIMSE1
 70
     0
  9
$DIMSE2
 70
     0
  9
$DIMTAD
 70
     1
  9
$DIMZIN
 70
     8
  9
$DIMBLK
  1

  9
$DIMASO
 70
     1
  9
$DIMSHO
 70
     1
  9
$DIMPOST
  1

  9
$DIMAPOST
  1
"
  9
$DIMALT
 70
     0
  9
$DIMALTD
 70
     2
  9
$DIMALTF
 40
0.0393701
  9
$DIMLFAC
 40
1.0
  9
$DIMTOFL
 70
     1
  9
$DIMTVP
 40
0.0
  9
$DIMTIX
 70
     0
  9
$DIMSOXD
 70
     0
  9
$DIMSAH
 70
     0
  9
$DIMBLK1
  1

  9
$DIMBLK2
  1

  9
$DIMSTYLE
  2
AM_DIN
  9
$DIMCLRD
 70
   256
  9
$DIMCLRE
 70
   256
  9
$DIMCLRT
 70
     2
  9
$DIMTFAC
 40
0.71
  9
$DIMGAP
 40
1.5
  9
$DIMJUST
 70
     0
  9
$DIMSD1
 70
     0
  9
$DIMSD2
 70
     0
  9
$DIMTOLJ
 70
     0
  9
$DIMTZIN
 70
     8
  9
$DIMALTZ
 70
     0
  9
$DIMALTTZ
 70
     0
  9
$DIMFIT
 70
     3
  9
$DIMUPT
 70
     0
  9
$DIMUNIT
 70
     2
  9
$DIMDEC
 70
     2
  9
$DIMTDEC
 70
     2
  9
$DIMALTU
 70
     2
  9
$DIMALTTD
 70
     2
  9
$DIMTXSTY
  7
STANDARD
  9
$DIMAUNIT
 70
     0
  9
$LUNITS
 70
     2
  9
$LUPREC
 70
     2
  9
$SKETCHINC
 40
1.0
  9
$FILLETRAD
 40
2.0
  9
$AUNITS
 70
     0
  9
$AUPREC
 70
     0
  9
$MENU
  1
.
  9
$ELEVATION
 40
0.0
  9
$PELEVATION
 40
0.0
  9
$THICKNESS
 40
0.0
  9
$LIMCHECK
 70
     0
  9
$BLIPMODE
 70
     0
  9
$CHAMFERA
 40
2.5
  9
$CHAMFERB
 40
2.5
  9
$CHAMFERC
 40
20.0
  9
$CHAMFERD
 40
0.0
  9
$SKPOLY
 70
     0
  9
$TDCREATE
 40
2453599.324339374
  9
$TDUPDATE
 40
2453767.617997905
  9
$TDINDWG
 40
0.0668076505
  9
$TDUSRTIMER
 40
0.0667833102
  9
$USRTIMER
 70
     1
  9
$ANGBASE
 50
0.0
  9
$ANGDIR
 70
     0
  9
$PDMODE
 70
     0
  9
$PDSIZE
 40
0.0
  9
$PLINEWID
 40
0.0
  9
$COORDS
 70
     0
  9
$SPLFRAME
 70
     0
  9
$SPLINETYPE
 70
     6
  9
$SPLINESEGS
 70
     8
  9
$ATTDIA
 70
     1
  9
$ATTREQ
 70
     1
  9
$HANDLING
 70
 22529
  9
$HANDSEED
  5
3345
  9
$SURFTAB1
 70
     6
  9
$SURFTAB2
 70
     6
  9
$SURFTYPE
 70
     6
  9
$SURFU
 70
     6
  9
$SURFV
 70
     6
  9
$UCSNAME
  2

  9
$UCSORG
 10
0.0
 20
0.0
 30
0.0
  9
$UCSXDIR
 10
1.0
 20
0.0
 30
0.0
  9
$UCSYDIR
 10
0.0
 20
1.0
 30
0.0
  9
$PUCSNAME
  2

  9
$PUCSORG
 10
0.0
 20
0.0
 30
0.0
  9
$PUCSXDIR
 10
1.0
 20
0.0
 30
0.0
  9
$PUCSYDIR
 10
0.0
 20
1.0
 30
0.0
  9
$USERI1
 70
     0
  9
$USERI2
 70
     0
  9
$USERI3
 70
     0
  9
$USERI4
 70
     0
  9
$USERI5
 70
     0
  9
$USERR1
 40
0.0
  9
$USERR2
 40
0.0
  9
$USERR3
 40
0.0
  9
$USERR4
 40
0.0
  9
$USERR5
 40
0.0
  9
$WORLDVIEW
 70
     1
  9
$SHADEDGE
 70
     3
  9
$SHADEDIF
 70
    70
  9
$TILEMODE
 70
     1
  9
$MAXACTVP
 70
    64
  9
$PINSBASE
 10
0.0
 20
0.0
 30
0.0
  9
$PLIMCHECK
 70
     0
  9
$PEXTMIN
 10
1.000000000000000E+20
 20
1.000000000000000E+20
 30
1.000000000000000E+20
  9
$PEXTMAX
 10
-1.000000000000000E+20
 20
-1.000000000000000E+20
 30
-1.000000000000000E+20
  9
$PLIMMIN
 10
0.0
 20
0.0
  9
$PLIMMAX
 10
420.0
 20
297.0
  9
$UNITMODE
 70
     0
  9
$VISRETAIN
 70
     1
  9
$PLINEGEN
 70
     0
  9
$PSLTSCALE
 70
     1
  9
$TREEDEPTH
 70
  3020
  9
$PICKSTYLE
 70
     0
  9
$CMLSTYLE
  2
STANDARD
  9
$CMLJUST
 70
     0
  9
$CMLSCALE
 40
20.0
  9
$PROXYGRAPHICS
 70
     1
  9
$MEASUREMENT
 70
     1
  0
ENDSEC
  0
SECTION
  2
CLASSES
  0
CLASS
  1
ACDBDICTIONARYWDFLT
  2
AcDbDictionaryWithDefault
  3
AutoCAD 2000
 90
        0
280
     0
281
     0
  0
CLASS
  1
ACDBPLACEHOLDER
  2
AcDbPlaceHolder
  3
AutoCAD 2000
 90
        0
280
     0
281
     0
  0
CLASS
  1
LAYOUT
  2
AcDbLayout
  3
AutoCAD 2000
 90
        0
280
     0
281
     0
  0
CLASS
  1
ACME_DOCUMENT
  2
AcMeDbDoc
  3
AcMeServices
 90
        0
280
     0
281
     0
  0
CLASS
  1
ACMESCOPE
  2
AcMeScope
  3
AcMeServices
 90
        0
280
     0
281
     0
  0
CLASS
  1
ACMECOMMANDHISTORY
  2
AcMeCommandHistory
  3
AcMeServices
 90
        0
280
     0
281
     0
  0
CLASS
  1
ACIMSYSVARMAN
  2
AcImSysVarManager
  3
AcMeServices
 90
        0
280
     0
281
     0
  0
CLASS
  1
ACIMREALSYSVAR
  2
AcImRealSysVar
  3
AcMeServices
 90
        0
280
     0
281
     0
  0
CLASS
  1
ACIMINTSYSVAR
  2
AcImIntSysVar
  3
AcMeServices
 90
        0
280
     0
281
     0
  0
CLASS
  1
ACMEDRAWINGMAN
  2
AcMeDrawingMan
  3
AcMeServices
 90
        0
280
     0
281
     0
  0
CLASS
  1
ACMEVIEW
  2
AcMeView
  3
AcMeServices
 90
        0
280
     0
281
     0
  0
CLASS
  1
ACDBENTITYCACHE
  2
AcMeEntityCache
  3
AcMeServices
 90
        0
280
     0
281
     0
  0
CLASS
  1
GSMANAGER
  2
AcMeGSManager
  3
AcMeServices
 90
        0
280
     0
281
     0
  0
CLASS
  1
AMDTINTERNALREACTOR
  2
AmdtInternalReactor
  3
AcMeServices
 90
        0
280
     0
281
     0
  0
CLASS
  1
ACMESTATEMGR
  2
AcMeStateMgr
  3
AcMeServices
 90
        0
280
     0
281
     0
  0
CLASS
  1
ACGREFMASTER
  2
AcGrefMaster
  3
AcAttribServices
 90
        0
280
     0
281
     0
  0
CLASS
  1
ACME_DATABASE
  2
AcMeDbDatabase
  3
AcMeServices
 90
        0
280
     0
281
     0
  0
CLASS
  1
ACRFINSADJUSTERMGR
  2
AcRfInsAdjusterMgr
  3
AcMeServices
 90
        0
280
     0
281
     0
  0
CLASS
  1
ACGREFACADMASTER
  2
AcGrefacadMaster
  3
AcGrefServices
 90
        0
280
     0
281
     0
  0
CLASS
  1
AMIMASTER
  2
AmiMaster
  3
AmiServices
 90
        0
280
     0
281
     0
  0
CLASS
  1
AMGSETTINGSOBJ
  2
AmgSettingsObj
  3
"AcadM|Product Description: AutoCAD Mechanical 2000|Company: Autodesk"
 90
        0
280
     0
281
     0
  0
CLASS
  1
ACMDATADICTIONARY
  2
AcmDataDictionary
  3
"AcmSymBB|Product Description: AutoCAD Mechanical 2000|Company: Autodesk"
 90
        0
280
     0
281
     0
  0
CLASS
  1
ACMDATAENTRYBLOCK
  2
AcmDataEntryBlock
  3
"AcmSymBB|Product Description: AutoCAD Mechanical 2000|Company: Autodesk"
 90
        0
280
     0
281
     0
  0
CLASS
  1
ACIMSTRSYSVAR
  2
AcImStrSysVar
  3
AcMeServices
 90
        0
280
     0
281
     0
  0
CLASS
  1
ACMSTANDARDDIN
  2
AcmStandardDIN
  3
"Amdt_StdImp|Product Description: AutoCAD Mechanical 2000|Company: Autodesk"
 90
        0
280
     0
281
     0
  0
CLASS
  1
AMGOBJPROPCFG
  2
AmgObjPropCfg
  3
"AmgLay|Product Description: AutoCAD Mechanical 2000|Company: Autodesk"
 90
        1
280
     0
281
     0
  0
CLASS
  1
AMDTEDGESTANDARDDIN
  2
AmdtEdgeStdDIN
  3
"Amdt_StdImp|Product Description: AutoCAD Mechanical 2000|Company: Autodesk"
 90
        0
280
     0
281
     0
  0
CLASS
  1
ACMSURFSTANDARDDIN
  2
AcmSurfTextStdDIN
  3
"Amdt_StdImp|Product Description: AutoCAD Mechanical 2000|Company: Autodesk"
 90
        0
280
     0
281
     0
  0
CLASS
  1
ACMFCFSTANDARDDIN
  2
AcmFCFStdDIN
  3
"Amdt_StdImp|Product Description: AutoCAD Mechanical 2000|Company: Autodesk"
 90
        0
280
     0
281
     0
  0
CLASS
  1
ACMWELDSTANDARDDIN
  2
AcmWeldingStdDIN
  3
"Amdt_StdImp|Product Description: AutoCAD Mechanical 2000|Company: Autodesk"
 90
        0
280
     0
281
     0
  0
CLASS
  1
ACMIDSTANDARDDIN
  2
AcmIdStdDIN
  3
"Amdt_StdImp|Product Description: AutoCAD Mechanical 2000|Company: Autodesk"
 90
        0
280
     0
281
     0
  0
CLASS
  1
ACMDATUMSTANDARDDIN
  2
AcmDatumStdDIN
  3
"Amdt_StdImp|Product Description: AutoCAD Mechanical 2000|Company: Autodesk"
 90
        0
280
     0
281
     0
  0
CLASS
  1
ACMBOMSTANDARDDIN
  2
AcmBOMStdDIN
  3
"Amdt_StdImp|Product Description: AutoCAD Mechanical 2000|Company: Autodesk"
 90
        0
280
     0
281
     0
  0
CLASS
  1
ACMDETAILSTANDARDDIN
  2
AmdtDetailSymStdDIN
  3
"Amdt_StdImp|Product Description: AutoCAD Mechanical 2000|Company: Autodesk"
 90
        0
280
     0
281
     0
  0
CLASS
  1
ACMSECTIONSTANDARDDIN
  2
AmdtSectionSymStdDIN
  3
"Amdt_StdImp|Product Description: AutoCAD Mechanical 2000|Company: Autodesk"
 90
        0
280
     0
281
     0
  0
CLASS
  1
ACMCENTERLINESTANDARDDIN
  2
AmdtCenterLineStdDIN
  3
"Amdt_StdImp|Product Description: AutoCAD Mechanical 2000|Company: Autodesk"
 90
        0
280
     0
281
     0
  0
CLASS
  1
ACMNOTESTANDARDDIN
  2
AmdtNoteStdDIN
  3
"Amdt_StdImp|Product Description: AutoCAD Mechanical 2000|Company: Autodesk"
 90
        0
280
     0
281
     0
  0
CLASS
  1
ACAMGLAYSTD
  2
AcAmgLayStd
  3
"AcAmgLayStd|Product Description: AutoCAD Mechanical 2000|Company: Autodesk"
 90
        0
280
     0
281
     0
  0
CLASS
  1
ACAMGDIMSTD
  2
AcAmgDimStd
  3
"AcAmgDimStd|Product Description: AutoCAD Mechanical 2000|Company: Autodesk"
 90
        0
280
     0
281
     0
  0
CLASS
  1
ACAMGHOLECHARTSTDDIN
  2
AcAmgHoleChartStdDIN
  3
ACMSYMBB_MODULE_NAME
 90
        0
280
     0
281
     0
  0
CLASS
  1
ACAMGTITLESTD
  2
AcAmgTitleStd
  3
"TITLEAPP"
 90
        0
280
     0
281
     0
  0
CLASS
  1
ACMSTANDARDANSI
  2
AcmStandardANSI
  3
"Amdt_StdImp|Product Description: AutoCAD Mechanical 2000|Company: Autodesk"
 90
        0
280
     0
281
     0
  0
CLASS
  1
ACMSURFSTANDARDANSI
  2
AcmSurfTextStdANSI
  3
"Amdt_StdImp|Product Description: AutoCAD Mechanical 2000|Company: Autodesk"
 90
        0
280
     0
281
     0
  0
CLASS
  1
ACMFCFSTANDARDANSI
  2
AcmFCFStdANSI
  3
"Amdt_StdImp|Product Description: AutoCAD Mechanical 2000|Company: Autodesk"
 90
        0
280
     0
281
     0
  0
CLASS
  1
ACMWELDSTANDARDANSI
  2
AcmWeldingStdANSI
  3
"Amdt_StdImp|Product Description: AutoCAD Mechanical 2000|Company: Autodesk"
 90
        0
280
     0
281
     0
  0
CLASS
  1
ACMIDSTANDARDANSI
  2
AcmIdStdANSI
  3
"Amdt_StdImp|Product Description: AutoCAD Mechanical 2000|Company: Autodesk"
 90
        0
280
     0
281
     0
  0
CLASS
  1
ACMDATUMSTANDARDANSI
  2
AcmDatumStdANSI
  3
"Amdt_StdImp|Product Description: AutoCAD Mechanical 2000|Company: Autodesk"
 90
        0
280
     0
281
     0
  0
CLASS
  1
ACMBOMSTANDARDANSI
  2
AcmBOMStdANSI
  3
"Amdt_StdImp|Product Description: AutoCAD Mechanical 2000|Company: Autodesk"
 90
        0
280
     0
281
     0
  0
CLASS
  1
ACMDETAILSTANDARDANSI
  2
AmdtDetailSymStdANSI
  3
"Amdt_StdImp|Product Description: AutoCAD Mechanical 2000|Company: Autodesk"
 90
        0
280
     0
281
     0
  0
CLASS
  1
ACMSECTIONSTANDARDANSI
  2
AmdtSectionSymStdANSI
  3
"Amdt_StdImp|Product Description: AutoCAD Mechanical 2000|Company: Autodesk"
 90
        0
280
     0
281
     0
  0
CLASS
  1
ACMCENTERLINESTANDARDANSI
  2
AmdtCenterLineStdANSI
  3
"Amdt_StdImp|Product Description: AutoCAD Mechanical 2000|Company: Autodesk"
 90
        0
280
     0
281
     0
  0
CLASS
  1
ACMNOTESTANDARDANSI
  2
AmdtNoteStdANSI
  3
"Amdt_StdImp|Product Description: AutoCAD Mechanical 2000|Company: Autodesk"
 90
        0
280
     0
281
     0
  0
CLASS
  1
ACAMGHOLECHARTSTDANSI
  2
AcAmgHoleChartStdANSI
  3
ACMSYMBB_MODULE_NAME
 90
        0
280
     0
281
     0
  0
CLASS
  1
ACAMGFILTERDAT
  2
AcAmgFilterDat
  3
"AcadM|Product Description: AutoCAD Mechanical 2000|Company: Autodesk"
 90
        0
280
     0
281
     0
  0
CLASS
  1
AMDTFORMULAUPDATEDISPATCHER
  2
AmdtFormulaUpdateDispatcher
  3
AcMeServices
 90
        0
280
     0
281
     0
  0
CLASS
  1
LAYER_INDEX
  2
AcDbLayerIndex
  3
AutoCAD 2000
 90
        0
280
     0
281
     0
  0
CLASS
  1
IDBUFFER
  2
AcDbIdBuffer
  3
AutoCAD 2000
 90
        0
280
     0
281
     0
  0
CLASS
  1
DICTIONARYVAR
  2
AcDbDictionaryVar
  3
AutoCAD 2000
 90
        0
280
     0
281
     0
  0
CLASS
  1
DIMASSOC
  2
AcDbDimAssoc
  3
"AcDbDimAssoc|Product Desc:     AcDim ARX App For Dimension|Company:          Autodesk, Inc.|WEB Address:      www.autodesk.com"
 90
        0
280
     0
281
     0
  0
CLASS
  1
ACMDIMBREAKPERSREACTOR
  2
AcmDimBreakPersReactor
  3
amgDimApp().moduleName()
 90
     1023
280
     0
281
     0
  0
CLASS
  1
ACMSURFSYM
  2
AcmSurfaceTexture
  3
"AcmSymBB|Product Description: AutoCAD Mechanical 2000|Company: Autodesk"
 90
     1023
280
     0
281
     1
  0
CLASS
  1
ACMFCFRAME
  2
AcmFCF
  3
"AcmSymBB|Product Description: AutoCAD Mechanical 2000|Company: Autodesk"
 90
     1023
280
     0
281
     1
  0
CLASS
  1
ACMSTANDARDBSI
  2
AcmStandardBSI
  3
"Amdt_StdImp|Product Description: AutoCAD Mechanical 2000|Company: Autodesk"
 90
        0
280
     0
281
     0
  0
CLASS
  1
ACMSURFSTANDARDBSI
  2
AcmSurfTextStdBSI
  3
"Amdt_StdImp|Product Description: AutoCAD Mechanical 2000|Company: Autodesk"
 90
        0
280
     0
281
     0
  0
CLASS
  1
ACMFCFSTANDARDBSI
  2
AcmFCFStdBSI
  3
"Amdt_StdImp|Product Description: AutoCAD Mechanical 2000|Company: Autodesk"
 90
        0
280
     0
281
     0
  0
CLASS
  1
ACMWELDSTANDARDBSI
  2
AcmWeldingStdBSI
  3
"Amdt_StdImp|Product Description: AutoCAD Mechanical 2000|Company: Autodesk"
 90
        0
280
     0
281
     0
  0
CLASS
  1
ACMIDSTANDARDBSI
  2
AcmIdStdBSI
  3
"Amdt_StdImp|Product Description: AutoCAD Mechanical 2000|Company: Autodesk"
 90
        0
280
     0
281
     0
  0
CLASS
  1
ACMDATUMSTANDARDBSI
  2
AcmDatumStdBSI
  3
"Amdt_StdImp|Product Description: AutoCAD Mechanical 2000|Company: Autodesk"
 90
        0
280
     0
281
     0
  0
CLASS
  1
ACMBOMSTANDARDBSI
  2
AcmBOMStdBSI
  3
"Amdt_StdImp|Product Description: AutoCAD Mechanical 2000|Company: Autodesk"
 90
        0
280
     0
281
     0
  0
CLASS
  1
ACMDETAILSTANDARDBSI
  2
AmdtDetailSymStdBSI
  3
"Amdt_StdImp|Product Description: AutoCAD Mechanical 2000|Company: Autodesk"
 90
        0
280
     0
281
     0
  0
CLASS
  1
ACMSECTIONSTANDARDBSI
  2
AmdtSectionSymStdBSI
  3
"Amdt_StdImp|Product Description: AutoCAD Mechanical 2000|Company: Autodesk"
 90
        0
280
     0
281
     0
  0
CLASS
  1
ACMCENTERLINESTANDARDBSI
  2
AmdtCenterLineStdBSI
  3
"Amdt_StdImp|Product Description: AutoCAD Mechanical 2000|Company: Autodesk"
 90
        0
280
     0
281
     0
  0
CLASS
  1
ACMTHREADLINESTANDARDBSI
  2
AmdtThreadLineStdBSI
  3
"Amdt_StdImp|Product Description: AutoCAD Mechanical 2000|Company: Autodesk"
 90
        0
280
     0
281
     0
  0
CLASS
  1
ACMNOTESTANDARDBSI
  2
AmdtNoteStdBSI
  3
"Amdt_StdImp|Product Description: AutoCAD Mechanical 2000|Company: Autodesk"
 90
        0
280
     0
281
     0
  0
CLASS
  1
ACMSTANDARDISO
  2
AcmStandardISO
  3
"Amdt_StdImp|Product Description: AutoCAD Mechanical 2000|Company: Autodesk"
 90
        0
280
     0
281
     0
  0
CLASS
  1
AMDTEDGESTANDARDISO
  2
AmdtEdgeStdISO
  3
"Amdt_StdImp|Product Description: AutoCAD Mechanical 2000|Company: Autodesk"
 90
        0
280
     0
281
     0
  0
CLASS
  1
ACMSURFSTANDARDISO
  2
AcmSurfTextStdISO
  3
"Amdt_StdImp|Product Description: AutoCAD Mechanical 2000|Company: Autodesk"
 90
        0
280
     0
281
     0
  0
CLASS
  1
ACMFCFSTANDARDISO
  2
AcmFCFStdISO
  3
"Amdt_StdImp|Product Description: AutoCAD Mechanical 2000|Company: Autodesk"
 90
        0
280
     0
281
     0
  0
CLASS
  1
ACMWELDSTANDARDISO
  2
AcmWeldingStdISO
  3
"Amdt_StdImp|Product Description: AutoCAD Mechanical 2000|Company: Autodesk"
 90
        0
280
     0
281
     0
  0
CLASS
  1
ACMIDSTANDARDISO
  2
AcmIdStdISO
  3
"Amdt_StdImp|Product Description: AutoCAD Mechanical 2000|Company: Autodesk"
 90
        0
280
     0
281
     0
  0
CLASS
  1
ACMDATUMSTANDARDISO
  2
AcmDatumStdISO
  3
"Amdt_StdImp|Product Description: AutoCAD Mechanical 2000|Company: Autodesk"
 90
        0
280
     0
281
     0
  0
CLASS
  1
ACMBOMSTANDARDISO
  2
AcmBOMStdISO
  3
"Amdt_StdImp|Product Description: AutoCAD Mechanical 2000|Company: Autodesk"
 90
        0
280
     0
281
     0
  0
CLASS
  1
ACMDETAILSTANDARDISO
  2
AmdtDetailSymStdISO
  3
"Amdt_StdImp|Product Description: AutoCAD Mechanical 2000|Company: Autodesk"
 90
        0
280
     0
281
     0
  0
CLASS
  1
ACMSECTIONSTANDARDISO
  2
AmdtSectionSymStdISO
  3
"Amdt_StdImp|Product Description: AutoCAD Mechanical 2000|Company: Autodesk"
 90
        0
280
     0
281
     0
  0
CLASS
  1
ACMCENTERLINESTANDARDISO
  2
AmdtCenterLineStdISO
  3
"Amdt_StdImp|Product Description: AutoCAD Mechanical 2000|Company: Autodesk"
 90
        0
280
     0
281
     0
  0
CLASS
  1
ACMTHREADLINESTANDARDISO
  2
AmdtThreadLineStdISO
  3
"Amdt_StdImp|Product Description: AutoCAD Mechanical 2000|Company: Autodesk"
 90
        0
280
     0
281
     0
  0
CLASS
  1
ACMNOTESTANDARDISO
  2
AmdtNoteStdISO
  3
"Amdt_StdImp|Product Description: AutoCAD Mechanical 2000|Company: Autodesk"
 90
        0
280
     0
281
     0
  0
CLASS
  1
ACMSTANDARDJIS
  2
AcmStandardJIS
  3
"Amdt_StdImp|Product Description: AutoCAD Mechanical 2000|Company: Autodesk"
 90
        0
280
     0
281
     0
  0
CLASS
  1
ACMSURFSTANDARDJIS
  2
AcmSurfTextStdJIS
  3
"Amdt_StdImp|Product Description: AutoCAD Mechanical 2000|Company: Autodesk"
 90
        0
280
     0
281
     0
  0
CLASS
  1
ACMFCFSTANDARDJIS98
  2
AcmFCFStdJIS98
  3
"Amdt_StdImp|Product Description: AutoCAD Mechanical 2000|Company: Autodesk"
 90
        0
280
     0
281
     0
  0
CLASS
  1
ACMWELDSTANDARDJIS
  2
AcmWeldingStdJIS
  3
"Amdt_StdImp|Product Description: AutoCAD Mechanical 2000|Company: Autodesk"
 90
        0
280
     0
281
     0
  0
CLASS
  1
ACMIDSTANDARDJIS
  2
AcmIdStdJIS
  3
"Amdt_StdImp|Product Description: AutoCAD Mechanical 2000|Company: Autodesk"
 90
        0
280
     0
281
     0
  0
CLASS
  1
ACMDATUMSTANDARDJIS
  2
AcmDatumStdJIS
  3
"Amdt_StdImp|Product Description: AutoCAD Mechanical 2000|Company: Autodesk"
 90
        0
280
     0
281
     0
  0
CLASS
  1
ACMBOMSTANDARDJIS
  2
AcmBOMStdJIS
  3
"Amdt_StdImp|Product Description: AutoCAD Mechanical 2000|Company: Autodesk"
 90
        0
280
     0
281
     0
  0
CLASS
  1
ACMDETAILSTANDARDJIS
  2
AmdtDetailSymStdJIS
  3
"Amdt_StdImp|Product Description: AutoCAD Mechanical 2000|Company: Autodesk"
 90
        0
280
     0
281
     0
  0
CLASS
  1
ACMSECTIONSTANDARDJIS
  2
AmdtSectionSymStdJIS
  3
"Amdt_StdImp|Product Description: AutoCAD Mechanical 2000|Company: Autodesk"
 90
        0
280
     0
281
     0
  0
CLASS
  1
ACMCENTERLINESTANDARDJIS
  2
AmdtCenterLineStdJIS
  3
"Amdt_StdImp|Product Description: AutoCAD Mechanical 2000|Company: Autodesk"
 90
        0
280
     0
281
     0
  0
CLASS
  1
ACMTHREADLINESTANDARDJIS
  2
AmdtThreadLineStdJIS
  3
"Amdt_StdImp|Product Description: AutoCAD Mechanical 2000|Company: Autodesk"
 90
        0
280
     0
281
     0
  0
CLASS
  1
ACMNOTESTANDARDJIS
  2
AmdtNoteStdJIS
  3
"Amdt_StdImp|Product Description: AutoCAD Mechanical 2000|Company: Autodesk"
 90
        0
280
     0
281
     0
  0
CLASS
  1
LONG_TRANSACTION
  2
AcDbLongTransaction
  3
AutoCAD 2000
 90
        0
280
     0
281
     0
  0
CLASS
  1
LWPOLYLINE
  2
AcDbPolyline
  3
AutoCAD 2000
 90
        0
280
     0
281
     1
  0
CLASS
  1
HATCH
  2
AcDbHatch
  3
AutoCAD 2000
 90
        0
280
     0
281
     1
  0
CLASS
  1
XRECORD
  2
AcDbXrecord
  3
AutoCAD 2000
 90
        0
280
     0
281
     0
  0
ENDSEC
  0
SECTION
  2
TABLES
  0
TABLE
  2
VPORT
  5
8
330
0
100
AcDbSymbolTable
 70
     6
  0
VPORT
  5
331E
330
8
100
AcDbSymbolTableRecord
100
AcDbViewportTableRecord
  2
*ACTIVE
 70
     0
 10
0.0
 20
0.0
 11
1.0
 21
1.0
 12
59.05515963395224
 22
14.9497890056993
 13
0.0
 23
0.0
 14
2.5
 24
2.5
 15
10.0
 25
10.0
 16
0.0
 26
0.0
 36
1.0
 17
0.0
 27
0.0
 37
0.0
 40
190.4881112444967
 41
1.716417910447761
 42
50.0
 43
0.0
 44
0.0
 50
0.0
 51
0.0
 71
     0
 72
 10000
 73
     1
 74
     3
 75
     0
 76
     0
 77
     0
 78
     0
  0
ENDTAB
  0
TABLE
  2
LTYPE
  5
5
330
0
100
AcDbSymbolTable
 70
    24
  0
LTYPE
  5
14
330
5
100
AcDbSymbolTableRecord
100
AcDbLinetypeTableRecord
  2
BYBLOCK
 70
     0
  3

 72
    65
 73
     0
 40
0.0
  0
LTYPE
  5
15
330
5
100
AcDbSymbolTableRecord
100
AcDbLinetypeTableRecord
  2
BYLAYER
 70
     0
  3

 72
    65
 73
     0
 40
0.0
  0
LTYPE
  5
16
330
5
100
AcDbSymbolTableRecord
100
AcDbLinetypeTableRecord
  2
CONTINUOUS
 70
     0
  3
Solid line
 72
    65
 73
     0
 40
0.0
  0
LTYPE
  5
50
330
5
100
AcDbSymbolTableRecord
100
AcDbLinetypeTableRecord
  2
AMCONSTR
 70
     0
  3
_______________________
 72
    65
 73
     2
 40
9999.0
 49
9999.0
 74
     0
 49
0.0
 74
     0
  0
LTYPE
  5
55
330
5
100
AcDbSymbolTableRecord
100
AcDbLinetypeTableRecord
  2
AMZIGZAG
 70
     0
  3
/\/-/\/-/\/-/\/-/\/-/\/
 72
    65
 73
     2
 40
11.00009999999999
 49
0.0001
 74
     4
 75
   135
340
54
 46
0.04
 50
0.0
 44
0.0
 45
0.0
 49
-11.0
 74
     0
  0
LTYPE
  5
56
330
5
100
AcDbSymbolTableRecord
100
AcDbLinetypeTableRecord
  2
AM_DIN_F_W050
 70
     0
  3
__ __ __ __ __ __ __ __ __ __ __ __ __ __ __
 72
    65
 73
     2
 40
6.25
 49
4.75
 74
     0
 49
-1.5
 74
     0
  0
LTYPE
  5
57
330
5
100
AcDbSymbolTableRecord
100
AcDbLinetypeTableRecord
  2
AM_DIN_G_W050
 70
     0
  3
____ . ____ . ____ . ____ . ____ . ____ . ____
 72
    65
 73
     4
 40
13.75
 49
9.75
 74
     0
 49
-1.5
 74
     0
 49
1.0
 74
     0
 49
-1.5
 74
     0
  0
LTYPE
  5
58
330
5
100
AcDbSymbolTableRecord
100
AcDbLinetypeTableRecord
  2
AM_DIN_K_W050
 70
     0
  3
_____ . . _____ . . _____ . . ____ .. ____
 72
    65
 73
     6
 40
16.25
 49
9.75
 74
     0
 49
-1.5
 74
     0
 49
1.0
 74
     0
 49
-1.5
 74
     0
 49
1.0
 74
     0
 49
-1.5
 74
     0
  0
LTYPE
  5
59
330
5
100
AcDbSymbolTableRecord
100
AcDbLinetypeTableRecord
  2
AM_DIN_G_W050X2
 70
     0
  3
__ . __ . __ . __ . __ . __
 72
    65
 73
     4
 40
6.875
 49
4.75
 74
     0
 49
-0.875
 74
     0
 49
0.375
 74
     0
 49
-0.875
 74
     0
  0
LTYPE
  5
5A
330
5
100
AcDbSymbolTableRecord
100
AcDbLinetypeTableRecord
  2
AM_DIN_F_W050X2
 70
     0
  3
 _ _ _ _ _ _ _ _ _ _ _ _
 72
    65
 73
     2
 40
3.125
 49
2.25
 74
     0
 49
-0.875
 74
     0
  0
LTYPE
  5
68
330
5
100
AcDbSymbolTableRecord
100
AcDbLinetypeTableRecord
  2
ACDINWELD
 70
     0
  3
_ _ _ _ _
 72
    65
 73
     2
 40
2.0
 49
2.0
 74
     0
 49
-1.0
 74
     0
  0
LTYPE
  5
69
330
5
100
AcDbSymbolTableRecord
100
AcDbLinetypeTableRecord
  2
ACDINTGB
 70
     0
  3
__ . . __ . .
 72
    65
 73
     6
 40
9.0
 49
4.0
 74
     0
 49
-1.0
 74
     0
 49
1.0
 74
     0
 49
-1.0
 74
     0
 49
1.0
 74
     0
 49
-1.0
 74
     0
  0
LTYPE
  5
6A
330
5
100
AcDbSymbolTableRecord
100
AcDbLinetypeTableRecord
  2
ACDINTGL
 70
     0
  3
_ _ _ _ _
 72
    65
 73
     2
 40
3.0
 49
2.0
 74
     0
 49
-1.0
 74
     0
  0
LTYPE
  5
6C
330
5
100
AcDbSymbolTableRecord
100
AcDbLinetypeTableRecord
  2
CENTER
 70
     0
  3
__ . __
 72
    65
 73
     4
 40
7.0
 49
4.0
 74
     0
 49
-1.0
 74
     0
 49
1.0
 74
     0
 49
-1.0
 74
     0
  0
LTYPE
  5
1E2C
330
5
100
AcDbSymbolTableRecord
100
AcDbLinetypeTableRecord
  2
PHANTOM2
 70
     0
  3
Phantom (.5x) ___ _ _ ___ _ _ ___ _ _ ___ _ _
 72
    65
 73
     6
 40
1.25
 49
0.625
 74
     0
 49
-0.125
 74
     0
 49
0.125
 74
     0
 49
-0.125
 74
     0
 49
0.125
 74
     0
 49
-0.125
 74
     0
  0
LTYPE
  5
1E2D
330
5
100
AcDbSymbolTableRecord
100
AcDbLinetypeTableRecord
  2
ACANSTGB
 70
     0
  3
__ . . __ . .
 72
    65
 73
     6
 40
0.35433070866
 49
0.15748031496
 74
     0
 49
-0.03937007874
 74
     0
 49
0.03937007874
 74
     0
 49
-0.03937007874
 74
     0
 49
0.03937007874
 74
     0
 49
-0.03937007874
 74
     0
  0
LTYPE
  5
1E2E
330
5
100
AcDbSymbolTableRecord
100
AcDbLinetypeTableRecord
  2
ACANSTGL
 70
     0
  3
_ _ _ _ _
 72
    65
 73
     2
 40
0.11811023622
 49
0.07874015748
 74
     0
 49
-0.03937007874
 74
     0
  0
LTYPE
  5
1E2F
330
5
100
AcDbSymbolTableRecord
100
AcDbLinetypeTableRecord
  2
DASHED
 70
     0
  3
__ __ __ __ __ __ __ __ __ __ __ __ __ __ __ __
 72
    65
 73
     2
 40
19.05
 49
12.7
 74
     0
 49
-6.349999999999998
 74
     0
  0
LTYPE
  5
2EBE
330
5
100
AcDbSymbolTableRecord
100
AcDbLinetypeTableRecord
  2
ACJISTGB
 70
     0
  3
__ . . __ . .
 72
    65
 73
     6
 40
9.0
 49
4.0
 74
     0
 49
-1.0
 74
     0
 49
1.0
 74
     0
 49
-1.0
 74
     0
 49
1.0
 74
     0
 49
-1.0
 74
     0
  0
LTYPE
  5
2EBF
330
5
100
AcDbSymbolTableRecord
100
AcDbLinetypeTableRecord
  2
ACJISTGL
 70
     0
  3
_ _ _ _ _
 72
    65
 73
     2
 40
3.0
 49
2.0
 74
     0
 49
-1.0
 74
     0
  0
LTYPE
  5
2EC0
330
5
100
AcDbSymbolTableRecord
100
AcDbLinetypeTableRecord
  2
ACBSIWELD
 70
     0
  3
_ _ _ _ _
 72
    65
 73
     2
 40
2.0
 49
2.0
 74
     0
 49
-1.0
 74
     0
  0
LTYPE
  5
2EC1
330
5
100
AcDbSymbolTableRecord
100
AcDbLinetypeTableRecord
  2
ACBSITGB
 70
     0
  3
__ . . __ . .
 72
    65
 73
     6
 40
9.0
 49
4.0
 74
     0
 49
-1.0
 74
     0
 49
1.0
 74
     0
 49
-1.0
 74
     0
 49
1.0
 74
     0
 49
-1.0
 74
     0
  0
LTYPE
  5
2EC2
330
5
100
AcDbSymbolTableRecord
100
AcDbLinetypeTableRecord
  2
ACBSITGL
 70
     0
  3
_ _ _ _ _
 72
    65
 73
     2
 40
3.0
 49
2.0
 74
     0
 49
-1.0
 74
     0
  0
LTYPE
  5
2EC3
330
5
100
AcDbSymbolTableRecord
100
AcDbLinetypeTableRecord
  2
ACISOWELD
 70
     0
  3
_ _ _ _ _
 72
    65
 73
     2
 40
2.0
 49
2.0
 74
     0
 49
-1.0
 74
     0
  0
LTYPE
  5
2EC4
330
5
100
AcDbSymbolTableRecord
100
AcDbLinetypeTableRecord
  2
ACISOTGB
 70
     0
  3
__ . . __ . .
 72
    65
 73
     6
 40
9.0
 49
4.0
 74
     0
 49
-1.0
 74
     0
 49
1.0
 74
     0
 49
-1.0
 74
     0
 49
1.0
 74
     0
 49
-1.0
 74
     0
  0
LTYPE
  5
2EC5
330
5
100
AcDbSymbolTableRecord
100
AcDbLinetypeTableRecord
  2
ACISOTGL
 70
     0
  3
_ _ _ _ _
 72
    65
 73
     2
 40
3.0
 49
2.0
 74
     0
 49
-1.0
 74
     0
  0
ENDTAB
  0
TABLE
  2
LAYER
  5
2
330
0
100
AcDbSymbolTable
 70
    11
  0
LAYER
  5
10
330
2
100
AcDbSymbolTableRecord
100
AcDbLayerTableRecord
  2
0
 70
     0
 62
     7
  6
CONTINUOUS
  0
LAYER
  5
263
330
2
100
AcDbSymbolTableRecord
100
AcDbLayerTableRecord
  2
DEFPOINTS
 70
     0
 62
     7
  6
CONTINUOUS
  0
LAYER
  5
1E30
330
2
100
AcDbSymbolTableRecord
100
AcDbLayerTableRecord
  2
1
 70
     0
 62
     4
  6
CONTINUOUS
  0
LAYER
  5
1E31
330
2
100
AcDbSymbolTableRecord
100
AcDbLayerTableRecord
  2
2
 70
     0
 62
     7
  6
CONTINUOUS
  0
LAYER
  5
1E32
330
2
100
AcDbSymbolTableRecord
100
AcDbLayerTableRecord
  2
4
 70
     0
 62
     2
  6
CENTER
  0
LAYER
  5
1E33
330
2
100
AcDbSymbolTableRecord
100
AcDbLayerTableRecord
  2
6
 70
     0
 62
     5
  6
CONTINUOUS
  0
LAYER
  5
1E34
330
2
100
AcDbSymbolTableRecord
100
AcDbLayerTableRecord
  2
SK1
 70
     0
 62
     4
  6
CONTINUOUS
  0
LAYER
  5
1E35
330
2
100
AcDbSymbolTableRecord
100
AcDbLayerTableRecord
  2
SK2
 70
     0
 62
     7
  6
CONTINUOUS
  0
LAYER
  5
1E36
330
2
100
AcDbSymbolTableRecord
100
AcDbLayerTableRecord
  2
SK3
 70
     0
 62
     1
  6
DASHED
  0
LAYER
  5
1E37
330
2
100
AcDbSymbolTableRecord
100
AcDbLayerTableRecord
  2
CUT
 70
     0
 62
     1
  6
CONTINUOUS
  0
LAYER
  5
1E38
330
2
100
AcDbSymbolTableRecord
100
AcDbLayerTableRecord
  2
NOCUT
 70
     0
 62
     7
  6
CONTINUOUS
  0
ENDTAB
  0
TABLE
  2
STYLE
  5
3
330
0
100
AcDbSymbolTable
 70
    12
  0
STYLE
  5
11
330
3
100
AcDbSymbolTableRecord
100
AcDbTextStyleTableRecord
  2
STANDARD
 70
     0
 40
0.0
 41
1.0
 50
0.0
 71
     0
 42
2.5
  3
ISOCP.SHX
  4

  0
STYLE
  5
54
330
3
100
AcDbSymbolTableRecord
100
AcDbTextStyleTableRecord
  2

 70
     1
 40
0.0
 41
1.0
 50
0.0
 71
     0
 42
2.5
  3
ltypeshp.shx
  4

  0
STYLE
  5
5B
330
3
100
AcDbSymbolTableRecord
100
AcDbTextStyleTableRecord
  2
ACDINTS
 70
     0
 40
1.0
 41
1.0
 50
0.0
 71
     0
 42
2.5
  3
isocp.shx
  4

  0
STYLE
  5
67
330
3
100
AcDbSymbolTableRecord
100
AcDbTextStyleTableRecord
  2
ACDINGDT
 70
     0
 40
0.0
 41
1.0
 50
0.0
 71
     0
 42
2.5
  3
amgdt.shx
  4

  0
STYLE
  5
1E39
330
3
100
AcDbSymbolTableRecord
100
AcDbTextStyleTableRecord
  2
ACANSTS
 70
     0
 40
1.0
 41
1.0
 50
0.0
 71
     0
 42
0.2
  3
romans.shx
  4

  0
STYLE
  5
1E3A
330
3
100
AcDbSymbolTableRecord
100
AcDbTextStyleTableRecord
  2
ACANSGDT
 70
     0
 40
0.0
 41
1.0
 50
0.0
 71
     0
 42
0.2
  3
amgdtans.shx
  4

  0
STYLE
  5
2EC8
330
3
100
AcDbSymbolTableRecord
100
AcDbTextStyleTableRecord
  2
ACJISTS
 70
     0
 40
1.0
 41
1.0
 50
0.0
 71
     0
 42
3.5
  3
isocp.shx
  4
bigfont.shx
  0
STYLE
  5
2EC9
330
3
100
AcDbSymbolTableRecord
100
AcDbTextStyleTableRecord
  2
ACJISGDT
 70
     0
 40
0.0
 41
1.0
 50
0.0
 71
     0
 42
3.5
  3
amgdt.shx
  4

  0
STYLE
  5
2ECA
330
3
100
AcDbSymbolTableRecord
100
AcDbTextStyleTableRecord
  2
ACBSITS
 70
     0
 40
1.0
 41
1.0
 50
0.0
 71
     0
 42
3.5
  3
isocp.shx
  4

  0
STYLE
  5
2ECB
330
3
100
AcDbSymbolTableRecord
100
AcDbTextStyleTableRecord
  2
ACBSIGDT
 70
     0
 40
0.0
 41
1.0
 50
0.0
 71
     0
 42
3.5
  3
amgdt.shx
  4

  0
STYLE
  5
2ECC
330
3
100
AcDbSymbolTableRecord
100
AcDbTextStyleTableRecord
  2
ACISOTS
 70
     0
 40
1.0
 41
1.0
 50
0.0
 71
     0
 42
3.5
  3
isocp.shx
  4

  0
STYLE
  5
2ECD
330
3
100
AcDbSymbolTableRecord
100
AcDbTextStyleTableRecord
  2
ACISOGDT
 70
     0
 40
0.0
 41
1.0
 50
0.0
 71
     0
 42
3.5
  3
amgdt.shx
  4

  0
ENDTAB
  0
TABLE
  2
VIEW
  5
6
330
0
100
AcDbSymbolTable
 70
     0
  0
ENDTAB
  0
TABLE
  2
UCS
  5
7
330
0
100
AcDbSymbolTable
 70
     0
  0
ENDTAB
  0
TABLE
  2
APPID
  5
9
330
0
100
AcDbSymbolTable
 70
    59
  0
APPID
  5
12
330
9
100
AcDbSymbolTableRecord
100
AcDbRegAppTableRecord
  2
ACAD
 70
     0
  0
APPID
  5
2C
330
9
100
AcDbSymbolTableRecord
100
AcDbRegAppTableRecord
  2
MCAD_NO_VIS
 70
     0
  0
APPID
  5
2D
330
9
100
AcDbSymbolTableRecord
100
AcDbRegAppTableRecord
  2
ACAD_TEMP_GRAPHIC
 70
     0
  0
APPID
  5
3E
330
9
100
AcDbSymbolTableRecord
100
AcDbRegAppTableRecord
  2
ACATTRIBSERVICES
 70
     0
  0
APPID
  5
29A
330
9
100
AcDbSymbolTableRecord
100
AcDbRegAppTableRecord
  2
GENIUS_GENDIMSH_14
 70
     0
  0
APPID
  5
588
330
9
100
AcDbSymbolTableRecord
100
AcDbRegAppTableRecord
  2
GENIUS12
 70
     0
  0
APPID
  5
589
330
9
100
AcDbSymbolTableRecord
100
AcDbRegAppTableRecord
  2
GENIUS_GENOENT_13
 70
     0
  0
APPID
  5
58A
330
9
100
AcDbSymbolTableRecord
100
AcDbRegAppTableRecord
  2
GENIUS_GENODEF_13
 70
     0
  0
APPID
  5
58B
330
9
100
AcDbSymbolTableRecord
100
AcDbRegAppTableRecord
  2
GENIUS_GENOBJ-N-RSBK_13
 70
     0
  0
APPID
  5
58C
330
9
100
AcDbSymbolTableRecord
100
AcDbRegAppTableRecord
  2
GENIUS_GENOBJ-N-DIM12_13
 70
     0
  0
APPID
  5
58D
330
9
100
AcDbSymbolTableRecord
100
AcDbRegAppTableRecord
  2
GENIUS_GENSCALE_13
 70
     0
  0
APPID
  5
58E
330
9
100
AcDbSymbolTableRecord
100
AcDbRegAppTableRecord
  2
GENIUS_GENCFG_13
 70
     0
  0
APPID
  5
58F
330
9
100
AcDbSymbolTableRecord
100
AcDbRegAppTableRecord
  2
GENIUS_GENCFG0_13
 70
     0
  0
APPID
  5
590
330
9
100
AcDbSymbolTableRecord
100
AcDbRegAppTableRecord
  2
GENIUS_GENCFG1_13
 70
     0
  0
APPID
  5
591
330
9
100
AcDbSymbolTableRecord
100
AcDbRegAppTableRecord
  2
GENIUS_GENCFG2_13
 70
     0
  0
APPID
  5
592
330
9
100
AcDbSymbolTableRecord
100
AcDbRegAppTableRecord
  2
GENIUS_GENCFG3_13
 70
     0
  0
APPID
  5
593
330
9
100
AcDbSymbolTableRecord
100
AcDbRegAppTableRecord
  2
GENIUS_GENCFG4_13
 70
     0
  0
APPID
  5
594
330
9
100
AcDbSymbolTableRecord
100
AcDbRegAppTableRecord
  2
GENIUS_GEVCFG0_13
 70
     0
  0
APPID
  5
595
330
9
100
AcDbSymbolTableRecord
100
AcDbRegAppTableRecord
  2
GENIUS_GENOBJ-F-SUF_13
 70
     0
  0
APPID
  5
596
330
9
100
AcDbSymbolTableRecord
100
AcDbRegAppTableRecord
  2
GENIUS_GEFCFG0_13
 70
     0
  0
APPID
  5
597
330
9
100
AcDbSymbolTableRecord
100
AcDbRegAppTableRecord
  2
GEV_VCCNULL_SWITCH_OFF
 70
     0
  0
APPID
  5
598
330
9
100
AcDbSymbolTableRecord
100
AcDbRegAppTableRecord
  2
GENIUS_GENDTOL_13
 70
     0
  0
APPID
  5
599
330
9
100
AcDbSymbolTableRecord
100
AcDbRegAppTableRecord
  2
GENIUS_GENDIM_13
 70
     0
  0
APPID
  5
59A
330
9
100
AcDbSymbolTableRecord
100
AcDbRegAppTableRecord
  2
GENIUS_GE3DTOL_13
 70
     0
  0
APPID
  5
59B
330
9
100
AcDbSymbolTableRecord
100
AcDbRegAppTableRecord
  2
AD_DRAW
 70
     0
  0
APPID
  5
59C
330
9
100
AcDbSymbolTableRecord
100
AcDbRegAppTableRecord
  2
ASURF_PCURVE_APPNAME
 70
     0
  0
APPID
  5
59D
330
9
100
AcDbSymbolTableRecord
100
AcDbRegAppTableRecord
  2
AMG_3D2D_5_0
 70
     0
  0
APPID
  5
59E
330
9
100
AcDbSymbolTableRecord
100
AcDbRegAppTableRecord
  2
DESIGNERASSEMBLIES
 70
     0
  0
APPID
  5
59F
330
9
100
AcDbSymbolTableRecord
100
AcDbRegAppTableRecord
  2
ACADM_DIM_EDIT
 70
     0
  0
APPID
  5
5A0
330
9
100
AcDbSymbolTableRecord
100
AcDbRegAppTableRecord
  2
AMDT_DM_ADJ
 70
     0
  0
APPID
  5
5A1
330
9
100
AcDbSymbolTableRecord
100
AcDbRegAppTableRecord
  2
GENIUS_GENSCREG_15
 70
     0
  0
APPID
  5
5A2
330
9
100
AcDbSymbolTableRecord
100
AcDbRegAppTableRecord
  2
GENIUS_GENOBJ-N-SDF_13
 70
     0
  0
APPID
  5
6E4
330
9
100
AcDbSymbolTableRecord
100
AcDbRegAppTableRecord
  2
GENIUS_GENOBJ-N-FIL_13
 70
     0
  0
APPID
  5
C65
330
9
100
AcDbSymbolTableRecord
100
AcDbRegAppTableRecord
  2
GENIUS_GENHINW_13
 70
     0
  0
APPID
  5
C66
330
9
100
AcDbSymbolTableRecord
100
AcDbRegAppTableRecord
  2
GENIUS_GENOBJ-F-TOLL_13
 70
     0
  0
APPID
  5
C67
330
9
100
AcDbSymbolTableRecord
100
AcDbRegAppTableRecord
  2
GENIUS_GENOREF_13
 70
     0
  0
APPID
  5
C68
330
9
100
AcDbSymbolTableRecord
100
AcDbRegAppTableRecord
  2
GENIUS_GENOLIS_13
 70
     0
  0
APPID
  5
C69
330
9
100
AcDbSymbolTableRecord
100
AcDbRegAppTableRecord
  2
GENIUS_GEFTOLC_13
 70
     0
  0
APPID
  5
C6A
330
9
100
AcDbSymbolTableRecord
100
AcDbRegAppTableRecord
  2
GENIUS_GENOBJ-F-TOL_13
 70
     0
  0
APPID
  5
C6B
330
9
100
AcDbSymbolTableRecord
100
AcDbRegAppTableRecord
  2
GENIUS_GENOBJ-N-RSSYM_13
 70
     0
  0
APPID
  5
C6C
330
9
100
AcDbSymbolTableRecord
100
AcDbRegAppTableRecord
  2
GENIUS_GENSYMENT_13
 70
     0
  0
APPID
  5
C6D
330
9
100
AcDbSymbolTableRecord
100
AcDbRegAppTableRecord
  2
GENIUS_GENSCSYM_13
 70
     0
  0
APPID
  5
1E42
330
9
100
AcDbSymbolTableRecord
100
AcDbRegAppTableRecord
  2
GENIUS_GENBLLY_14
 70
     0
  0
APPID
  5
1E43
330
9
100
AcDbSymbolTableRecord
100
AcDbRegAppTableRecord
  2
GENIUS_GENTRA_14
 70
     0
  0
APPID
  5
1E44
330
9
100
AcDbSymbolTableRecord
100
AcDbRegAppTableRecord
  2
GENIUS_GENOBJ-N-TIT_13
 70
     0
  0
APPID
  5
1E45
330
9
100
AcDbSymbolTableRecord
100
AcDbRegAppTableRecord
  2
GENIUS_GENTITLE_13
 70
     0
  0
APPID
  5
1E46
330
9
100
AcDbSymbolTableRecord
100
AcDbRegAppTableRecord
  2
ACADIGES
 70
     0
  0
APPID
  5
1E47
330
9
100
AcDbSymbolTableRecord
100
AcDbRegAppTableRecord
  2
GENIUS_GENOBJ-N-HTC_13
 70
     0
  0
APPID
  5
1E48
330
9
100
AcDbSymbolTableRecord
100
AcDbRegAppTableRecord
  2
GENIUS_GENHATCH_13
 70
     0
  0
APPID
  5
1E49
330
9
100
AcDbSymbolTableRecord
100
AcDbRegAppTableRecord
  2
GENIUS_GENOBJ-N-CRS_13
 70
     0
  0
APPID
  5
1E4A
330
9
100
AcDbSymbolTableRecord
100
AcDbRegAppTableRecord
  2
GENIUS_GENFIL_13
 70
     0
  0
APPID
  5
1E4B
330
9
100
AcDbSymbolTableRecord
100
AcDbRegAppTableRecord
  2
GENIUS_GENOBJ-N-CHA_13
 70
     0
  0
APPID
  5
1E4C
330
9
100
AcDbSymbolTableRecord
100
AcDbRegAppTableRecord
  2
GENIUS_GENOBJ-N-CEN_13
 70
     0
  0
APPID
  5
28E0
330
9
100
AcDbSymbolTableRecord
100
AcDbRegAppTableRecord
  2
AD_SKETCHDIM
 70
     0
  0
APPID
  5
2EE3
330
9
100
AcDbSymbolTableRecord
100
AcDbRegAppTableRecord
  2
DCO15
 70
     0
  0
APPID
  5
2EE4
330
9
100
AcDbSymbolTableRecord
100
AcDbRegAppTableRecord
  2
GENIUS_GE3CFG0_13
 70
     0
  0
APPID
  5
2EE5
330
9
100
AcDbSymbolTableRecord
100
AcDbRegAppTableRecord
  2
GENIUS_GENZVEED_13
 70
     0
  0
APPID
  5
2EE6
330
9
100
AcDbSymbolTableRecord
100
AcDbRegAppTableRecord
  2
GENIUS_GENSCREG_13
 70
     0
  0
APPID
  5
2EE7
330
9
100
AcDbSymbolTableRecord
100
AcDbRegAppTableRecord
  2
GENIUS_GENOBJ-F-TOLS_13
 70
     0
  0
ENDTAB
  0
TABLE
  2
DIMSTYLE
  5
A
330
0
100
AcDbSymbolTable
 70
    35
  0
DIMSTYLE
105
6F
102
{ACAD_REACTORS
330
2480
330
2483
330
3213
330
3273
330
329B
102
}
330
A
100
AcDbSymbolTableRecord
100
AcDbDimStyleTableRecord
  2
AM_DIN
 70
     0
  3

  4
"
  5

  6

  7

 40
1.0
 41
2.5
 42
0.0
 43
10.0
 44
1.0
 45
0.0
 46
0.0
 47
0.1
 48
0.1
140
3.5
141
0.0
142
0.0
143
0.0393701
144
1.0
145
0.0
146
0.71
147
1.5
 71
     0
 72
     0
 73
     0
 74
     0
 75
     0
 76
     0
 77
     1
 78
     8
170
     0
171
     2
172
     1
173
     0
174
     0
175
     0
176
   256
177
   256
178
     2
270
     2
271
     2
272
     2
273
     2
274
     2
340
11
275
     0
280
     0
281
     0
282
     0
283
     0
284
     8
285
     0
286
     0
287
     3
288
     0
  0
DIMSTYLE
105
70
330
A
100
AcDbSymbolTableRecord
100
AcDbDimStyleTableRecord
  2
AM_DIN$3
 70
     0
  3

  4
"
  5

  6

  7

 40
1.0
 41
3.5
 42
0.0
 43
10.0
 44
1.0
 45
0.0
 46
0.0
 47
0.1
 48
0.1
140
3.5
141
0.0
142
0.0
143
0.0393701
144
1.0
145
0.0
146
0.71
147
1.5
 71
     0
 72
     0
 73
     0
 74
     1
 75
     0
 76
     0
 77
     1
 78
     8
170
     0
171
     2
172
     0
173
     0
174
     0
175
     0
176
   256
177
   256
178
     2
270
     2
271
     2
272
     2
273
     2
274
     2
340
11
275
     0
280
     0
281
     0
282
     0
283
     0
284
     8
285
     0
286
     0
287
     0
288
     1
  0
DIMSTYLE
105
71
330
A
100
AcDbSymbolTableRecord
100
AcDbDimStyleTableRecord
  2
AM_DIN$4
 70
     0
  3

  4
"
  5

  6

  7

 40
1.0
 41
3.5
 42
0.0
 43
10.0
 44
1.0
 45
0.0
 46
0.0
 47
0.1
 48
0.1
140
3.5
141
0.0
142
0.0
143
0.0393701
144
1.0
145
0.0
146
0.71
147
1.5
 71
     0
 72
     0
 73
     0
 74
     1
 75
     0
 76
     0
 77
     1
 78
     8
170
     0
171
     2
172
     0
173
     0
174
     0
175
     0
176
   256
177
   256
178
     2
270
     2
271
     2
272
     2
273
     2
274
     2
340
11
275
     0
280
     0
281
     0
282
     0
283
     0
284
     8
285
     0
286
     0
287
     0
288
     1
  0
DIMSTYLE
105
72
330
A
100
AcDbSymbolTableRecord
100
AcDbDimStyleTableRecord
  2
AM_DIN$6
 70
     0
  3

  4
"
  5

  6

  7

 40
1.0
 41
3.5
 42
0.0
 43
0.0
 44
1.0
 45
0.0
 46
0.0
 47
0.1
 48
0.1
140
3.5
141
0.0
142
0.0
143
0.0393701
144
1.0
145
0.0
146
0.71
147
1.5
 71
     0
 72
     0
 73
     0
 74
     0
 75
     0
 76
     0
 77
     0
 78
     8
170
     0
171
     2
172
     1
173
     0
174
     0
175
     0
176
   256
177
   256
178
     2
270
     2
271
     2
272
     2
273
     2
274
     2
340
11
275
     0
280
     0
281
     0
282
     0
283
     0
284
     8
285
     0
286
     0
287
     3
288
     0
  0
DIMSTYLE
105
73
330
A
100
AcDbSymbolTableRecord
100
AcDbDimStyleTableRecord
  2
AM_DIN$7
 70
     0
  3

  4
"
  5

  6

  7

 40
1.0
 41
3.5
 42
0.0
 43
10.0
 44
1.0
 45
0.0
 46
0.0
 47
0.1
 48
0.1
140
3.5
141
0.0
142
0.0
143
0.0393701
144
1.0
145
0.0
146
0.71
147
1.5
 71
     0
 72
     0
 73
     0
 74
     0
 75
     0
 76
     0
 77
     1
 78
     8
170
     0
171
     2
172
     1
173
     0
174
     0
175
     0
176
   256
177
   256
178
     2
270
     2
271
     2
272
     2
273
     2
274
     2
340
11
275
     0
280
     0
281
     0
282
     0
283
     0
284
     8
285
     0
286
     0
287
     3
288
     0
  0
DIMSTYLE
105
74
330
A
100
AcDbSymbolTableRecord
100
AcDbDimStyleTableRecord
  2
AM_DIN$SF
 70
     0
  3

  4
"
  5

  6

  7

 40
1.0
 41
2.5
 42
1.0
 43
10.0
 44
1.0
 45
0.0
 46
0.0
 47
0.1
 48
0.1
140
3.5
141
0.0
142
0.0
143
0.0393701
144
1.0
145
0.0
146
0.71
147
1.5
 71
     0
 72
     0
 73
     0
 74
     0
 75
     1
 76
     1
 77
     1
 78
     8
170
     0
171
     2
172
     1
173
     0
174
     0
175
     0
176
   256
177
   256
178
     2
270
     2
271
     2
272
     3
273
     2
274
     4
340
11
275
     0
280
     0
281
     0
282
     0
283
     0
284
     8
285
     0
286
     0
287
     3
288
     0
  0
DIMSTYLE
105
79
330
A
100
AcDbSymbolTableRecord
100
AcDbDimStyleTableRecord
  2
AM_DIN$SH
 70
     0
  3

  4
"
  5

  6
GENAXEH
  7

 40
1.0
 41
2.5
 42
1.0
 43
10.0
 44
1.0
 45
0.0
 46
0.0
 47
0.1
 48
0.1
140
3.5
141
0.0
142
0.0
143
0.0393701
144
2.0
145
0.0
146
0.71
147
1.5
 71
     0
 72
     0
 73
     0
 74
     0
 75
     1
 76
     1
 77
     1
 78
     8
170
     0
171
     2
172
     1
173
     1
174
     0
175
     0
176
   256
177
   256
178
     2
270
     2
271
     2
272
     3
273
     2
274
     4
340
11
275
     0
280
     0
281
     0
282
     0
283
     0
284
     8
285
     0
286
     0
287
     3
288
     0
  0
DIMSTYLE
105
1E3B
330
A
100
AcDbSymbolTableRecord
100
AcDbDimStyleTableRecord
  2
STANDARD
 70
     0
  3

  4

  5

  6

  7

 40
1.0
 41
0.18
 42
0.0625
 43
0.38
 44
0.18
 45
0.0
 46
0.0
 47
0.0
 48
0.0
140
0.18
141
0.09
142
0.0
143
25.4
144
1.0
145
0.0
146
1.0
147
0.09
 71
     0
 72
     0
 73
     1
 74
     1
 75
     0
 76
     0
 77
     0
 78
     0
170
     0
171
     2
172
     0
173
     0
174
     0
175
     0
176
     0
177
     0
178
     0
270
     2
271
     2
272
     2
273
     2
274
     2
340
11
275
     0
280
     0
281
     0
282
     0
283
     1
284
     8
285
     8
286
     8
287
     5
288
     0
  0
DIMSTYLE
105
1E3C
330
A
100
AcDbSymbolTableRecord
100
AcDbDimStyleTableRecord
  2
AM_ANSI
 70
     0
  3

  4
mm
  5

  6

  7

 40
1.0
 41
0.1
 42
0.0
 43
0.5
 44
0.1
 45
0.0
 46
0.0
 47
0.1
 48
0.1
140
0.12
141
0.0
142
0.0
143
25.4
144
1.0
145
0.0
146
0.71
147
0.06
 71
     0
 72
     0
 73
     1
 74
     1
 75
     0
 76
     0
 77
     0
 78
     7
170
     0
171
     2
172
     0
173
     0
174
     0
175
     0
176
   256
177
   256
178
     2
270
     2
271
     2
272
     2
273
     2
274
     2
340
11
275
     0
280
     0
281
     0
282
     0
283
     1
284
     8
285
     8
286
     8
287
     5
288
     0
  0
DIMSTYLE
105
1E3D
330
A
100
AcDbSymbolTableRecord
100
AcDbDimStyleTableRecord
  2
AM_ANSI$3
 70
     0
  3

  4
mm
  5

  6

  7

 40
1.0
 41
0.1
 42
0.0
 43
0.5
 44
0.1
 45
0.0
 46
0.0
 47
0.1
 48
0.1
140
0.12
141
0.0
142
0.0
143
25.4
144
1.0
145
0.0
146
0.71
147
0.06
 71
     0
 72
     0
 73
     1
 74
     1
 75
     0
 76
     0
 77
     0
 78
     7
170
     0
171
     2
172
     0
173
     0
174
     0
175
     0
176
   256
177
   256
178
     2
270
     2
271
     2
272
     2
273
     2
274
     2
340
11
275
     0
280
     0
281
     0
282
     0
283
     1
284
     8
285
     8
286
     8
287
     5
288
     0
  0
DIMSTYLE
105
1E3E
330
A
100
AcDbSymbolTableRecord
100
AcDbDimStyleTableRecord
  2
AM_ANSI$4
 70
     0
  3

  4
mm
  5

  6

  7

 40
1.0
 41
0.1
 42
0.0
 43
0.5
 44
0.1
 45
0.0
 46
0.0
 47
0.1
 48
0.1
140
0.12
141
0.0
142
0.0
143
25.4
144
1.0
145
0.0
146
0.71
147
0.06
 71
     0
 72
     0
 73
     1
 74
     1
 75
     0
 76
     0
 77
     0
 78
     7
170
     0
171
     2
172
     0
173
     0
174
     0
175
     0
176
   256
177
   256
178
     2
270
     2
271
     2
272
     2
273
     2
274
     2
340
11
275
     0
280
     0
281
     0
282
     0
283
     1
284
     8
285
     8
286
     8
287
     5
288
     0
  0
DIMSTYLE
105
1E3F
330
A
100
AcDbSymbolTableRecord
100
AcDbDimStyleTableRecord
  2
AM_ANSI$7
 70
     0
  3

  4
mm
  5

  6

  7

 40
1.0
 41
0.1
 42
0.0
 43
0.5
 44
0.1
 45
0.0
 46
0.0
 47
0.1
 48
0.1
140
0.24
141
0.0
142
0.0
143
25.4
144
1.0
145
0.0
146
0.71
147
0.06
 71
     0
 72
     0
 73
     1
 74
     1
 75
     0
 76
     0
 77
     0
 78
     7
170
     0
171
     2
172
     0
173
     0
174
     0
175
     0
176
   256
177
   256
178
     2
270
     2
271
     2
272
     2
273
     2
274
     2
340
11
275
     0
280
     0
281
     0
282
     0
283
     1
284
     8
285
     8
286
     8
287
     5
288
     0
  0
DIMSTYLE
105
1E40
330
A
100
AcDbSymbolTableRecord
100
AcDbDimStyleTableRecord
  2
AM_ANSI$SF
 70
     0
  3

  4
mm
  5

  6

  7

 40
1.0
 41
0.1
 42
0.05
 43
0.5
 44
0.1
 45
0.0
 46
0.0
 47
0.1
 48
0.1
140
0.12
141
0.0
142
0.0
143
25.4
144
1.0
145
0.0
146
0.71
147
0.06
 71
     0
 72
     0
 73
     1
 74
     1
 75
     1
 76
     1
 77
     0
 78
     7
170
     0
171
     2
172
     0
173
     0
174
     0
175
     0
176
   256
177
   256
178
     2
270
     2
271
     2
272
     2
273
     2
274
     2
340
11
275
     0
280
     0
281
     0
282
     0
283
     1
284
     8
285
     8
286
     8
287
     5
288
     0
  0
DIMSTYLE
105
1E41
330
A
100
AcDbSymbolTableRecord
100
AcDbDimStyleTableRecord
  2
AM_ANSI$SH
 70
     0
  3

  4
mm
  5

  6

  7

 40
1.0
 41
0.1
 42
0.05
 43
0.5
 44
0.1
 45
0.0
 46
0.0
 47
0.1
 48
0.1
140
0.12
141
0.0
142
0.0
143
25.4
144
1.0
145
0.0
146
0.71
147
0.06
 71
     0
 72
     0
 73
     1
 74
     1
 75
     1
 76
     1
 77
     0
 78
     7
170
     0
171
     2
172
     0
173
     1
174
     0
175
     0
176
   256
177
   256
178
     2
270
     2
271
     2
272
     2
273
     2
274
     2
340
11
275
     0
280
     0
281
     0
282
     0
283
     1
284
     8
285
     8
286
     8
287
     5
288
     0
  0
DIMSTYLE
105
2ECE
330
A
100
AcDbSymbolTableRecord
100
AcDbDimStyleTableRecord
  2
AM_BSI
 70
     0
  3

  4
"
  5

  6

  7

 40
1.0
 41
4.0
 42
1.0
 43
10.0
 44
1.0
 45
0.0
 46
0.0
 47
0.1
 48
0.1
140
3.5
141
0.0
142
0.0
143
0.0393701
144
1.0
145
0.0
146
0.71
147
1.5
 71
     0
 72
     0
 73
     0
 74
     0
 75
     0
 76
     0
 77
     1
 78
     8
170
     0
171
     2
172
     1
173
     0
174
     0
175
     0
176
   256
177
   256
178
     2
270
     2
271
     2
272
     3
273
     2
274
     4
340
11
275
     0
280
     0
281
     0
282
     0
283
     0
284
     8
285
     0
286
     0
287
     3
288
     0
  0
DIMSTYLE
105
2ECF
330
A
100
AcDbSymbolTableRecord
100
AcDbDimStyleTableRecord
  2
AM_BSI$3
 70
     0
  3

  4
"
  5

  6

  7

 40
1.0
 41
4.0
 42
1.0
 43
10.0
 44
1.0
 45
0.0
 46
0.0
 47
0.1
 48
0.1
140
3.5
141
0.0
142
0.0
143
0.0393701
144
1.0
145
0.0
146
0.71
147
1.5
 71
     0
 72
     0
 73
     0
 74
     1
 75
     0
 76
     0
 77
     1
 78
     8
170
     0
171
     2
172
     0
173
     0
174
     0
175
     0
176
   256
177
   256
178
     2
270
     2
271
     2
272
     3
273
     2
274
     4
340
11
275
     0
280
     0
281
     0
282
     0
283
     0
284
     8
285
     0
286
     0
287
     0
288
     1
  0
DIMSTYLE
105
2ED0
330
A
100
AcDbSymbolTableRecord
100
AcDbDimStyleTableRecord
  2
AM_BSI$4
 70
     0
  3

  4
"
  5

  6

  7

 40
1.0
 41
4.0
 42
1.0
 43
10.0
 44
1.0
 45
0.0
 46
0.0
 47
0.1
 48
0.1
140
3.5
141
0.0
142
0.0
143
0.0393701
144
1.0
145
0.0
146
0.71
147
1.5
 71
     0
 72
     0
 73
     0
 74
     1
 75
     0
 76
     0
 77
     1
 78
     8
170
     0
171
     2
172
     0
173
     0
174
     0
175
     0
176
   256
177
   256
178
     2
270
     2
271
     2
272
     3
273
     2
274
     4
340
11
275
     0
280
     0
281
     0
282
     0
283
     0
284
     8
285
     0
286
     0
287
     0
288
     1
  0
DIMSTYLE
105
2ED1
330
A
100
AcDbSymbolTableRecord
100
AcDbDimStyleTableRecord
  2
AM_BSI$6
 70
     0
  3

  4
"
  5

  6

  7

 40
1.0
 41
4.0
 42
1.0
 43
10.0
 44
1.0
 45
0.0
 46
0.0
 47
0.1
 48
0.1
140
3.5
141
0.0
142
0.0
143
0.0393701
144
1.0
145
0.0
146
0.71
147
1.5
 71
     0
 72
     0
 73
     0
 74
     0
 75
     0
 76
     0
 77
     0
 78
     8
170
     0
171
     2
172
     1
173
     0
174
     0
175
     0
176
   256
177
   256
178
     2
270
     2
271
     2
272
     3
273
     2
274
     4
340
11
275
     0
280
     0
281
     0
282
     0
283
     0
284
     8
285
     0
286
     0
287
     3
288
     0
  0
DIMSTYLE
105
2ED2
330
A
100
AcDbSymbolTableRecord
100
AcDbDimStyleTableRecord
  2
AM_BSI$7
 70
     0
  3

  4
"
  5

  6

  7

 40
1.0
 41
2.5
 42
1.0
 43
10.0
 44
1.0
 45
0.0
 46
0.0
 47
0.1
 48
0.1
140
5.0
141
0.0
142
0.0
143
0.0393701
144
1.0
145
0.0
146
0.71
147
1.5
 71
     0
 72
     0
 73
     0
 74
     0
 75
     0
 76
     0
 77
     1
 78
     8
170
     0
171
     2
172
     1
173
     0
174
     0
175
     0
176
   256
177
   256
178
     2
270
     2
271
     2
272
     3
273
     2
274
     4
340
11
275
     0
280
     0
281
     0
282
     0
283
     0
284
     8
285
     0
286
     0
287
     3
288
     0
  0
DIMSTYLE
105
2ED3
330
A
100
AcDbSymbolTableRecord
100
AcDbDimStyleTableRecord
  2
AM_BSI$SF
 70
     0
  3

  4
"
  5

  6

  7

 40
1.0
 41
4.0
 42
1.0
 43
10.0
 44
1.0
 45
0.0
 46
0.0
 47
0.1
 48
0.1
140
3.5
141
0.0
142
0.0
143
0.0393701
144
1.0
145
0.0
146
0.71
147
1.5
 71
     0
 72
     0
 73
     0
 74
     0
 75
     1
 76
     1
 77
     1
 78
     8
170
     0
171
     2
172
     1
173
     0
174
     0
175
     0
176
   256
177
   256
178
     2
270
     2
271
     2
272
     3
273
     2
274
     4
340
11
275
     0
280
     0
281
     0
282
     0
283
     0
284
     8
285
     0
286
     0
287
     3
288
     0
  0
DIMSTYLE
105
2ED4
330
A
100
AcDbSymbolTableRecord
100
AcDbDimStyleTableRecord
  2
AM_BSI$SH
 70
     0
  3

  4
"
  5

  6
GENAXEH
  7

 40
1.0
 41
4.0
 42
1.0
 43
10.0
 44
1.0
 45
0.0
 46
0.0
 47
0.1
 48
0.1
140
3.5
141
0.0
142
0.0
143
0.0393701
144
2.0
145
0.0
146
0.71
147
1.5
 71
     0
 72
     0
 73
     0
 74
     0
 75
     1
 76
     1
 77
     1
 78
     8
170
     0
171
     2
172
     1
173
     1
174
     0
175
     0
176
   256
177
   256
178
     2
270
     2
271
     2
272
     3
273
     2
274
     4
340
11
275
     0
280
     0
281
     0
282
     0
283
     0
284
     8
285
     0
286
     0
287
     3
288
     0
  0
DIMSTYLE
105
2ED5
330
A
100
AcDbSymbolTableRecord
100
AcDbDimStyleTableRecord
  2
AM_ISO
 70
     0
  3

  4
"
  5

  6

  7

 40
1.0
 41
2.5
 42
1.0
 43
10.0
 44
1.0
 45
0.0
 46
0.0
 47
0.1
 48
0.1
140
3.5
141
0.0
142
0.0
143
0.0393701
144
1.0
145
0.0
146
0.71
147
1.5
 71
     0
 72
     0
 73
     0
 74
     0
 75
     0
 76
     0
 77
     1
 78
     8
170
     0
171
     2
172
     1
173
     0
174
     0
175
     0
176
   256
177
   256
178
     2
270
     2
271
     2
272
     3
273
     2
274
     4
340
11
275
     0
280
     0
281
     0
282
     0
283
     0
284
     8
285
     0
286
     0
287
     3
288
     0
  0
DIMSTYLE
105
2ED6
330
A
100
AcDbSymbolTableRecord
100
AcDbDimStyleTableRecord
  2
AM_ISO$3
 70
     0
  3

  4
"
  5

  6

  7

 40
1.0
 41
2.5
 42
1.0
 43
10.0
 44
1.0
 45
0.0
 46
0.0
 47
0.1
 48
0.1
140
3.5
141
0.0
142
0.0
143
0.0393701
144
1.0
145
0.0
146
0.71
147
1.5
 71
     0
 72
     0
 73
     0
 74
     1
 75
     0
 76
     0
 77
     1
 78
     8
170
     0
171
     2
172
     0
173
     0
174
     0
175
     0
176
   256
177
   256
178
     2
270
     2
271
     2
272
     3
273
     2
274
     4
340
11
275
     0
280
     0
281
     0
282
     0
283
     0
284
     8
285
     0
286
     0
287
     0
288
     1
  0
DIMSTYLE
105
2ED7
330
A
100
AcDbSymbolTableRecord
100
AcDbDimStyleTableRecord
  2
AM_ISO$4
 70
     0
  3

  4
"
  5

  6

  7

 40
1.0
 41
2.5
 42
1.0
 43
10.0
 44
1.0
 45
0.0
 46
0.0
 47
0.1
 48
0.1
140
3.5
141
0.0
142
0.0
143
0.0393701
144
1.0
145
0.0
146
0.71
147
1.5
 71
     0
 72
     0
 73
     0
 74
     1
 75
     0
 76
     0
 77
     1
 78
     8
170
     0
171
     2
172
     0
173
     0
174
     0
175
     0
176
   256
177
   256
178
     2
270
     2
271
     2
272
     3
273
     2
274
     4
340
11
275
     0
280
     0
281
     0
282
     0
283
     0
284
     8
285
     0
286
     0
287
     0
288
     1
  0
DIMSTYLE
105
2ED8
330
A
100
AcDbSymbolTableRecord
100
AcDbDimStyleTableRecord
  2
AM_ISO$6
 70
     0
  3

  4
"
  5

  6

  7

 40
1.0
 41
2.5
 42
1.0
 43
10.0
 44
1.0
 45
0.0
 46
0.0
 47
0.1
 48
0.1
140
3.5
141
0.0
142
0.0
143
0.0393701
144
1.0
145
0.0
146
0.71
147
1.5
 71
     0
 72
     0
 73
     0
 74
     0
 75
     0
 76
     0
 77
     0
 78
     8
170
     0
171
     2
172
     1
173
     0
174
     0
175
     0
176
   256
177
   256
178
     2
270
     2
271
     2
272
     3
273
     2
274
     4
340
11
275
     0
280
     0
281
     0
282
     0
283
     0
284
     8
285
     0
286
     0
287
     3
288
     0
  0
DIMSTYLE
105
2ED9
330
A
100
AcDbSymbolTableRecord
100
AcDbDimStyleTableRecord
  2
AM_ISO$7
 70
     0
  3

  4
"
  5

  6

  7

 40
1.0
 41
2.5
 42
1.0
 43
10.0
 44
1.0
 45
0.0
 46
0.0
 47
0.1
 48
0.1
140
5.0
141
0.0
142
0.0
143
0.0393701
144
1.0
145
0.0
146
0.71
147
1.5
 71
     0
 72
     0
 73
     0
 74
     0
 75
     0
 76
     0
 77
     1
 78
     8
170
     0
171
     2
172
     1
173
     0
174
     0
175
     0
176
   256
177
   256
178
     2
270
     2
271
     2
272
     3
273
     2
274
     4
340
11
275
     0
280
     0
281
     0
282
     0
283
     0
284
     8
285
     0
286
     0
287
     3
288
     0
  0
DIMSTYLE
105
2EDA
330
A
100
AcDbSymbolTableRecord
100
AcDbDimStyleTableRecord
  2
AM_ISO$SF
 70
     0
  3

  4
"
  5

  6

  7

 40
1.0
 41
2.5
 42
1.0
 43
10.0
 44
1.0
 45
0.0
 46
0.0
 47
0.1
 48
0.1
140
3.5
141
0.0
142
0.0
143
0.0393701
144
1.0
145
0.0
146
0.71
147
1.5
 71
     0
 72
     0
 73
     0
 74
     0
 75
     1
 76
     1
 77
     1
 78
     8
170
     0
171
     2
172
     1
173
     0
174
     0
175
     0
176
   256
177
   256
178
     2
270
     2
271
     2
272
     3
273
     2
274
     4
340
11
275
     0
280
     0
281
     0
282
     0
283
     0
284
     8
285
     0
286
     0
287
     3
288
     0
  0
DIMSTYLE
105
2EDB
330
A
100
AcDbSymbolTableRecord
100
AcDbDimStyleTableRecord
  2
AM_ISO$SH
 70
     0
  3

  4
"
  5

  6
GENAXEH
  7

 40
1.0
 41
2.5
 42
1.0
 43
10.0
 44
1.0
 45
0.0
 46
0.0
 47
0.1
 48
0.1
140
3.5
141
0.0
142
0.0
143
0.0393701
144
2.0
145
0.0
146
0.71
147
1.5
 71
     0
 72
     0
 73
     0
 74
     0
 75
     1
 76
     1
 77
     1
 78
     8
170
     0
171
     2
172
     1
173
     1
174
     0
175
     0
176
   256
177
   256
178
     2
270
     2
271
     2
272
     3
273
     2
274
     4
340
11
275
     0
280
     0
281
     0
282
     0
283
     0
284
     8
285
     0
286
     0
287
     3
288
     0
  0
DIMSTYLE
105
2EDC
330
A
100
AcDbSymbolTableRecord
100
AcDbDimStyleTableRecord
  2
AM_JIS
 70
     0
  3

  4
"
  5
OPEN30
  6
OPEN30
  7
OPEN30
 40
1.0
 41
2.5
 42
1.0
 43
10.0
 44
1.0
 45
0.0
 46
0.0
 47
0.1
 48
0.1
140
3.5
141
0.0
142
0.0
143
0.0393701
144
1.0
145
0.0
146
0.71
147
1.5
 71
     0
 72
     0
 73
     0
 74
     0
 75
     0
 76
     0
 77
     3
 78
     8
170
     0
171
     2
172
     1
173
     0
174
     0
175
     0
176
   256
177
   256
178
     2
270
     2
271
     2
272
     3
273
     2
274
     4
340
11
275
     0
280
     0
281
     0
282
     0
283
     0
284
     8
285
     0
286
     0
287
     3
288
     0
  0
DIMSTYLE
105
2EDD
330
A
100
AcDbSymbolTableRecord
100
AcDbDimStyleTableRecord
  2
AM_JIS$3
 70
     0
  3

  4
"
  5
OPEN30
  6
OPEN30
  7
OPEN30
 40
1.0
 41
2.5
 42
1.0
 43
10.0
 44
1.0
 45
0.0
 46
0.0
 47
0.1
 48
0.1
140
3.5
141
0.0
142
0.0
143
0.0393701
144
1.0
145
0.0
146
0.71
147
1.5
 71
     0
 72
     0
 73
     0
 74
     1
 75
     0
 76
     0
 77
     3
 78
     8
170
     0
171
     2
172
     0
173
     0
174
     0
175
     0
176
   256
177
   256
178
     2
270
     2
271
     2
272
     3
273
     2
274
     4
340
11
275
     0
280
     0
281
     0
282
     0
283
     0
284
     8
285
     0
286
     0
287
     0
288
     1
  0
DIMSTYLE
105
2EDE
330
A
100
AcDbSymbolTableRecord
100
AcDbDimStyleTableRecord
  2
AM_JIS$4
 70
     0
  3

  4
"
  5
OPEN30
  6
OPEN30
  7
OPEN30
 40
1.0
 41
2.5
 42
1.0
 43
10.0
 44
1.0
 45
0.0
 46
0.0
 47
0.1
 48
0.1
140
3.5
141
0.0
142
0.0
143
0.0393701
144
1.0
145
0.0
146
0.71
147
1.5
 71
     0
 72
     0
 73
     0
 74
     1
 75
     0
 76
     0
 77
     3
 78
     8
170
     0
171
     2
172
     0
173
     0
174
     0
175
     0
176
   256
177
   256
178
     2
270
     2
271
     2
272
     3
273
     2
274
     4
340
11
275
     0
280
     0
281
     0
282
     0
283
     0
284
     8
285
     0
286
     0
287
     0
288
     1
  0
DIMSTYLE
105
2EDF
330
A
100
AcDbSymbolTableRecord
100
AcDbDimStyleTableRecord
  2
AM_JIS$6
 70
     0
  3

  4
"
  5
OPEN30
  6
OPEN30
  7
OPEN30
 40
1.0
 41
2.5
 42
1.0
 43
10.0
 44
1.0
 45
0.0
 46
0.0
 47
0.1
 48
0.1
140
3.5
141
0.0
142
0.0
143
0.0393701
144
1.0
145
0.0
146
0.71
147
1.5
 71
     0
 72
     0
 73
     0
 74
     0
 75
     0
 76
     0
 77
     0
 78
     8
170
     0
171
     2
172
     1
173
     0
174
     0
175
     0
176
   256
177
   256
178
     2
270
     2
271
     2
272
     3
273
     2
274
     4
340
11
275
     0
280
     0
281
     0
282
     0
283
     0
284
     8
285
     0
286
     0
287
     3
288
     0
  0
DIMSTYLE
105
2EE0
330
A
100
AcDbSymbolTableRecord
100
AcDbDimStyleTableRecord
  2
AM_JIS$7
 70
     0
  3

  4
"
  5
OPEN30
  6
OPEN30
  7
OPEN30
 40
1.0
 41
2.5
 42
1.0
 43
10.0
 44
1.0
 45
0.0
 46
0.0
 47
0.1
 48
0.1
140
5.0
141
0.0
142
0.0
143
0.0393701
144
1.0
145
0.0
146
0.71
147
1.5
 71
     0
 72
     0
 73
     0
 74
     0
 75
     0
 76
     0
 77
     3
 78
     8
170
     0
171
     2
172
     1
173
     0
174
     0
175
     0
176
   256
177
   256
178
     2
270
     2
271
     2
272
     3
273
     2
274
     4
340
11
275
     0
280
     0
281
     0
282
     0
283
     0
284
     8
285
     0
286
     0
287
     3
288
     0
  0
DIMSTYLE
105
2EE1
330
A
100
AcDbSymbolTableRecord
100
AcDbDimStyleTableRecord
  2
AM_JIS$SF
 70
     0
  3

  4
"
  5
OPEN30
  6
OPEN30
  7
OPEN30
 40
1.0
 41
2.5
 42
1.0
 43
10.0
 44
1.0
 45
0.0
 46
0.0
 47
0.1
 48
0.1
140
3.5
141
0.0
142
0.0
143
0.0393701
144
1.0
145
0.0
146
0.71
147
1.5
 71
     0
 72
     0
 73
     0
 74
     0
 75
     1
 76
     1
 77
     3
 78
     8
170
     0
171
     2
172
     1
173
     0
174
     0
175
     0
176
   256
177
   256
178
     2
270
     2
271
     2
272
     3
273
     2
274
     4
340
11
275
     0
280
     0
281
     0
282
     0
283
     0
284
     8
285
     0
286
     0
287
     3
288
     0
  0
DIMSTYLE
105
2EE2
330
A
100
AcDbSymbolTableRecord
100
AcDbDimStyleTableRecord
  2
AM_JIS$SH
 70
     0
  3

  4
"
  5
OPEN30
  6
GENAXEH
  7
OPEN30
 40
1.0
 41
2.5
 42
1.0
 43
10.0
 44
1.0
 45
0.0
 46
0.0
 47
0.1
 48
0.1
140
3.5
141
0.0
142
0.0
143
0.0393701
144
2.0
145
0.0
146
0.71
147
1.5
 71
     0
 72
     0
 73
     0
 74
     0
 75
     1
 76
     1
 77
     3
 78
     8
170
     0
171
     2
172
     1
173
     1
174
     0
175
     0
176
   256
177
   256
178
     2
270
     2
271
     2
272
     3
273
     2
274
     4
340
11
275
     0
280
     0
281
     0
282
     0
283
     0
284
     8
285
     0
286
     0
287
     3
288
     0
  0
ENDTAB
  0
TABLE
  2
BLOCK_RECORD
  5
1
330
0
100
AcDbSymbolTable
 70
     8
  0
BLOCK_RECORD
  5
1F
102
{ACAD_XDICTIONARY
360
1F1
102
}
330
1
100
AcDbSymbolTableRecord
100
AcDbBlockTableRecord
  2
*MODEL_SPACE
  0
BLOCK_RECORD
  5
1B
102
{ACAD_XDICTIONARY
360
3340
102
}
330
1
100
AcDbSymbolTableRecord
100
AcDbBlockTableRecord
  2
*PAPER_SPACE
  0
BLOCK_RECORD
  5
75
330
1
100
AcDbSymbolTableRecord
100
AcDbBlockTableRecord
  2
GENAXEH
  0
BLOCK_RECORD
  5
2551
330
1
100
AcDbSymbolTableRecord
100
AcDbBlockTableRecord
  2
*D2
  0
BLOCK_RECORD
  5
255D
330
1
100
AcDbSymbolTableRecord
100
AcDbBlockTableRecord
  2
*D3
  0
BLOCK_RECORD
  5
2E7C
330
1
100
AcDbSymbolTableRecord
100
AcDbBlockTableRecord
  2
_OPEN30
  0
BLOCK_RECORD
  5
3214
330
1
100
AcDbSymbolTableRecord
100
AcDbBlockTableRecord
  2
*D5
  0
BLOCK_RECORD
  5
3274
330
1
100
AcDbSymbolTableRecord
100
AcDbBlockTableRecord
  2
*D6
  0
BLOCK_RECORD
  5
329C
330
1
100
AcDbSymbolTableRecord
100
AcDbBlockTableRecord
  2
*D7
  0
ENDTAB
  0
ENDSEC
  0
SECTION
  2
BLOCKS
  0
BLOCK
  5
20
330
1F
100
AcDbEntity
  8
0
100
AcDbBlockBegin
  2
*MODEL_SPACE
 70
     0
 10
0.0
 20
0.0
 30
0.0
  3
*MODEL_SPACE
  1

  0
ENDBLK
  5
21
330
1F
100
AcDbEntity
  8
0
100
AcDbBlockEnd
  0
BLOCK
  5
1C
330
1B
100
AcDbEntity
 67
     1
  8
0
100
AcDbBlockBegin
  2
*PAPER_SPACE
 70
     0
 10
0.0
 20
0.0
 30
0.0
  3
*PAPER_SPACE
  1

  0
ENDBLK
  5
1D
330
1B
100
AcDbEntity
 67
     1
  8
0
100
AcDbBlockEnd
  0
BLOCK
  5
77
330
75
100
AcDbEntity
  8
0
100
AcDbBlockBegin
  2
GENAXEH
 70
     0
 10
0.0
 20
0.0
 30
0.0
  3
GENAXEH
  1

  0
LINE
  5
76
330
75
100
AcDbEntity
  8
0
100
AcDbLine
 10
-1.0
 20
0.0
 30
0.0
 11
1.0
 21
0.0
 31
0.0
  0
ENDBLK
  5
78
330
75
100
AcDbEntity
  8
0
100
AcDbBlockEnd
  0
BLOCK
  5
255B
330
2551
100
AcDbEntity
  8
0
100
AcDbBlockBegin
  2
*D2
 70
     1
 10
0.0
 20
0.0
 30
0.0
  3
*D2
  1

  0
LINE
  5
2B41
330
2551
100
AcDbEntity
  8
SK2
100
AcDbLine
 10
2.000000000000046
 20
-36.49999999999989
 30
0.0
 11
-35.27982976643086
 21
-36.49999999999988
 31
0.0
  0
LINE
  5
2B42
330
2551
100
AcDbEntity
  8
SK2
100
AcDbLine
 10
1.999999999999982
 20
36.5000000000002
 30
0.0
 11
-35.27982976643085
 21
36.50000000000021
 31
0.0
  0
LINE
  5
2B43
330
2551
100
AcDbEntity
  8
SK2
100
AcDbLine
 10
-34.27982976643086
 20
-33.99999999999988
 30
0.0
 11
-34.27982976643085
 21
34.00000000000021
 31
0.0
  0
SOLID
  5
2B44
330
2551
100
AcDbEntity
  8
SK2
100
AcDbTrace
 10
-34.69649643309753
 20
-33.99999999999988
 30
0.0
 11
-33.8631630997642
 21
-33.99999999999988
 31
0.0
 12
-34.27982976643086
 22
-36.49999999999988
 32
0.0
 13
-34.27982976643086
 23
-36.49999999999988
 33
0.0
  0
SOLID
  5
2B45
330
2551
100
AcDbEntity
  8
SK2
100
AcDbTrace
 10
-34.69649643309751
 20
34.00000000000021
 30
0.0
 11
-33.86316309976418
 21
34.00000000000021
 31
0.0
 12
-34.27982976643085
 22
36.50000000000021
 32
0.0
 13
-34.27982976643085
 23
36.50000000000021
 33
0.0
  0
MTEXT
  5
2B46
330
2551
100
AcDbEntity
  8
SK2
 62
     2
100
AcDbMText
 10
-37.52982976643085
 20
0.0000000000001588
 30
0.0
 40
3.5
 41
0.0
 71
     5
 72
     1
  1
%%c73
 11
0.0000000000000001
 21
1.0
 31
0.0
1001
ACAD
1000
MTEXTBEGIN
1070
    73
1070
     1
1070
    44
1040
1.0
1070
    74
1070
     0
1000
MTEXTEND
  0
POINT
  5
2B47
330
2551
100
AcDbEntity
  8
DEFPOINTS
 62
     0
100
AcDbPoint
 10
2.000000000000046
 20
-36.49999999999989
 30
0.0
  0
POINT
  5
2B48
330
2551
100
AcDbEntity
  8
DEFPOINTS
 62
     0
100
AcDbPoint
 10
1.999999999999982
 20
36.5000000000002
 30
0.0
  0
POINT
  5
2B49
330
2551
100
AcDbEntity
  8
DEFPOINTS
 62
     0
100
AcDbPoint
 10
-34.27982976643085
 20
36.50000000000021
 30
0.0
  0
ENDBLK
  5
255C
330
2551
100
AcDbEntity
  8
0
100
AcDbBlockEnd
  0
BLOCK
  5
2567
330
255D
100
AcDbEntity
  8
0
100
AcDbBlockBegin
  2
*D3
 70
     1
 10
0.0
 20
0.0
 30
0.0
  3
*D3
  1

  0
LINE
  5
283E
330
255D
100
AcDbEntity
  8
SK2
100
AcDbLine
 10
0.0
 20
-15.99999999999994
 30
0.0
 11
-16.948786450054
 21
-15.99999999999993
 31
0.0
  0
LINE
  5
283F
330
255D
100
AcDbEntity
  8
SK2
100
AcDbLine
 10
0.0
 20
16.0
 30
0.0
 11
-16.94878645005399
 21
16.0
 31
0.0
  0
LINE
  5
2840
330
255D
100
AcDbEntity
  8
SK2
100
AcDbLine
 10
-15.948786450054
 20
-13.49999999999993
 30
0.0
 11
-15.94878645005399
 21
13.5
 31
0.0
  0
SOLID
  5
2841
330
255D
100
AcDbEntity
  8
SK2
100
AcDbTrace
 10
-16.36545311672067
 20
-13.49999999999993
 30
0.0
 11
-15.53211978338733
 21
-13.49999999999993
 31
0.0
 12
-15.948786450054
 22
-15.99999999999993
 32
0.0
 13
-15.948786450054
 23
-15.99999999999993
 33
0.0
  0
SOLID
  5
2842
330
255D
100
AcDbEntity
  8
SK2
100
AcDbTrace
 10
-16.36545311672066
 20
13.5
 30
0.0
 11
-15.53211978338733
 21
13.5
 31
0.0
 12
-15.94878645005399
 22
16.0
 32
0.0
 13
-15.94878645005399
 23
16.0
 33
0.0
  0
MTEXT
  5
2843
330
255D
100
AcDbEntity
  8
SK2
 62
     2
100
AcDbMText
 10
-19.19913093824297
 20
1.308009350842724
 30
0.0
 40
3.5
 41
0.0
 71
     5
 72
     1
  1
%%c32
 11
0.0000000000000001
 21
1.0
 31
0.0
1001
ACAD
1000
MTEXTBEGIN
1070
    73
1070
     1
1070
    44
1040
1.0
1070
    74
1070
     0
1000
MTEXTEND
  0
POINT
  5
2844
330
255D
100
AcDbEntity
  8
DEFPOINTS
 62
     0
100
AcDbPoint
 10
0.0
 20
-15.99999999999994
 30
0.0
  0
POINT
  5
2845
330
255D
100
AcDbEntity
  8
DEFPOINTS
 62
     0
100
AcDbPoint
 10
0.0
 20
16.0
 30
0.0
  0
POINT
  5
2846
330
255D
100
AcDbEntity
  8
DEFPOINTS
 62
     0
100
AcDbPoint
 10
-15.94878645005399
 20
16.0
 30
0.0
  0
ENDBLK
  5
2568
330
255D
100
AcDbEntity
  8
0
100
AcDbBlockEnd
  0
BLOCK
  5
2E80
330
2E7C
100
AcDbEntity
  8
0
100
AcDbBlockBegin
  2
_OPEN30
 70
     0
 10
0.0
 20
0.0
 30
0.0
  3
_OPEN30
  1

  0
LINE
  5
2E7D
330
2E7C
100
AcDbEntity
  8
0
  6
BYBLOCK
 62
     0
100
AcDbLine
 10
-1.0
 20
0.26794919
 30
0.0
 11
0.0
 21
0.0
 31
0.0
  0
LINE
  5
2E7E
330
2E7C
100
AcDbEntity
  8
0
  6
BYBLOCK
 62
     0
100
AcDbLine
 10
0.0
 20
0.0
 30
0.0
 11
-1.0
 21
-0.26794919
 31
0.0
  0
LINE
  5
2E7F
330
2E7C
100
AcDbEntity
  8
0
  6
BYBLOCK
 62
     0
100
AcDbLine
 10
0.0
 20
0.0
 30
0.0
 11
-1.0
 21
0.0
 31
0.0
  0
ENDBLK
  5
2E81
330
2E7C
100
AcDbEntity
  8
0
100
AcDbBlockEnd
  0
BLOCK
  5
321E
330
3214
100
AcDbEntity
  8
0
100
AcDbBlockBegin
  2
*D5
 70
     1
 10
0.0
 20
0.0
 30
0.0
  3
*D5
  1

  0
LINE
  5
32BC
330
3214
100
AcDbEntity
  8
2
100
AcDbLine
 10
99.00000000000003
 20
39.99999999999966
 30
0.0
 11
127.4897041126312
 21
39.99999999999965
 31
0.0
  0
LINE
  5
32BD
330
3214
100
AcDbEntity
  8
2
100
AcDbLine
 10
99.00000000000003
 20
-40.00000000000034
 30
0.0
 11
127.4897041126312
 21
-40.00000000000034
 31
0.0
  0
LINE
  5
32BE
330
3214
100
AcDbEntity
  8
2
100
AcDbLine
 10
126.4897041126312
 20
37.49999999999965
 30
0.0
 11
126.4897041126312
 21
-37.50000000000035
 31
0.0
  0
SOLID
  5
32BF
330
3214
100
AcDbEntity
  8
2
100
AcDbTrace
 10
126.0730374459645
 20
37.49999999999965
 30
0.0
 11
126.9063707792978
 21
37.49999999999965
 31
0.0
 12
126.4897041126312
 22
39.99999999999965
 32
0.0
 13
126.4897041126312
 23
39.99999999999965
 33
0.0
  0
SOLID
  5
32C0
330
3214
100
AcDbEntity
  8
2
100
AcDbTrace
 10
126.0730374459645
 20
-37.50000000000035
 30
0.0
 11
126.9063707792978
 21
-37.50000000000035
 31
0.0
 12
126.4897041126312
 22
-40.00000000000034
 32
0.0
 13
126.4897041126312
 23
-40.00000000000034
 33
0.0
  0
MTEXT
  5
32C1
330
3214
100
AcDbEntity
  8
2
 62
     2
100
AcDbMText
 10
123.2397041126312
 20
-0.0000000000003271
 30
0.0
 40
3.5
 41
0.0
 71
     5
 72
     1
  1
%%c80
 11
0.0000000000000001
 21
1.0
 31
0.0
1001
ACAD
1000
MTEXTBEGIN
1070
    73
1070
     1
1070
    44
1040
1.0
1070
    74
1070
     0
1000
MTEXTEND
  0
POINT
  5
32C2
330
3214
100
AcDbEntity
  8
DEFPOINTS
 62
     0
100
AcDbPoint
 10
99.00000000000003
 20
39.99999999999966
 30
0.0
  0
POINT
  5
32C3
330
3214
100
AcDbEntity
  8
DEFPOINTS
 62
     0
100
AcDbPoint
 10
99.00000000000003
 20
-40.00000000000034
 30
0.0
  0
POINT
  5
32C4
330
3214
100
AcDbEntity
  8
DEFPOINTS
 62
     0
100
AcDbPoint
 10
126.4897041126312
 20
-40.00000000000034
 30
0.0
  0
ENDBLK
  5
321F
330
3214
100
AcDbEntity
  8
0
100
AcDbBlockEnd
  0
BLOCK
  5
327E
330
3274
100
AcDbEntity
  8
0
100
AcDbBlockBegin
  2
*D6
 70
     1
 10
0.0
 20
0.0
 30
0.0
  3
*D6
  1

  0
LINE
  5
32C5
330
3274
100
AcDbEntity
  8
2
100
AcDbLine
 10
99.00000000000003
 20
39.99999999999966
 30
0.0
 11
99.00000000000003
 21
60.99999999999988
 31
0.0
  0
LINE
  5
32C6
330
3274
100
AcDbEntity
  8
2
100
AcDbLine
 10
25.00000000000003
 20
40.2556076558892
 30
0.0
 11
25.00000000000003
 21
60.99999999999988
 31
0.0
  0
LINE
  5
32C7
330
3274
100
AcDbEntity
  8
2
100
AcDbLine
 10
96.50000000000003
 20
59.99999999999989
 30
0.0
 11
27.50000000000003
 21
59.99999999999989
 31
0.0
  0
SOLID
  5
32C8
330
3274
100
AcDbEntity
  8
2
100
AcDbTrace
 10
96.50000000000003
 20
60.41666666666655
 30
0.0
 11
96.50000000000003
 21
59.58333333333322
 31
0.0
 12
99.00000000000003
 22
59.99999999999989
 32
0.0
 13
99.00000000000003
 23
59.99999999999989
 33
0.0
  0
SOLID
  5
32C9
330
3274
100
AcDbEntity
  8
2
100
AcDbTrace
 10
27.50000000000003
 20
60.41666666666655
 30
0.0
 11
27.50000000000003
 21
59.58333333333322
 31
0.0
 12
25.00000000000003
 22
59.99999999999989
 32
0.0
 13
25.00000000000003
 23
59.99999999999989
 33
0.0
  0
MTEXT
  5
32CA
330
3274
100
AcDbEntity
  8
2
 62
     2
100
AcDbMText
 10
62.00000000000002
 20
63.24999999999988
 30
0.0
 40
3.5
 41
0.0
 71
     5
 72
     1
  1
74
1001
ACAD
1000
MTEXTBEGIN
1070
    73
1070
     1
1070
    44
1040
1.0
1070
    74
1070
     0
1000
MTEXTEND
  0
POINT
  5
32CB
330
3274
100
AcDbEntity
  8
DEFPOINTS
 62
     0
100
AcDbPoint
 10
99.00000000000003
 20
39.99999999999966
 30
0.0
  0
POINT
  5
32CC
330
3274
100
AcDbEntity
  8
DEFPOINTS
 62
     0
100
AcDbPoint
 10
25.00000000000003
 20
40.2556076558892
 30
0.0
  0
POINT
  5
32CD
330
3274
100
AcDbEntity
  8
DEFPOINTS
 62
     0
100
AcDbPoint
 10
25.00000000000003
 20
59.99999999999989
 30
0.0
  0
ENDBLK
  5
327F
330
3274
100
AcDbEntity
  8
0
100
AcDbBlockEnd
  0
BLOCK
  5
32A6
330
329C
100
AcDbEntity
  8
0
100
AcDbBlockBegin
  2
*D7
 70
     1
 10
0.0
 20
0.0
 30
0.0
  3
*D7
  1

  0
LINE
  5
32CE
330
329C
100
AcDbEntity
  8
2
100
AcDbLine
 10
99.00000000000003
 20
39.99999999999966
 30
0.0
 11
99.00000000000003
 21
75.99999999999996
 31
0.0
  0
LINE
  5
32CF
330
329C
100
AcDbEntity
  8
2
100
AcDbLine
 10
-0.0000000000000329
 20
34.5000000000002
 30
0.0
 11
-0.0000000000000303
 21
75.99999999999996
 31
0.0
  0
LINE
  5
32D0
330
329C
100
AcDbEntity
  8
2
100
AcDbLine
 10
96.50000000000003
 20
74.99999999999996
 30
0.0
 11
2.499999999999969
 21
74.99999999999996
 31
0.0
  0
SOLID
  5
32D1
330
329C
100
AcDbEntity
  8
2
100
AcDbTrace
 10
96.50000000000003
 20
75.41666666666663
 30
0.0
 11
96.50000000000003
 21
74.58333333333328
 31
0.0
 12
99.00000000000003
 22
74.99999999999996
 32
0.0
 13
99.00000000000003
 23
74.99999999999996
 33
0.0
  0
SOLID
  5
32D2
330
329C
100
AcDbEntity
  8
2
100
AcDbTrace
 10
2.499999999999969
 20
75.41666666666663
 30
0.0
 11
2.499999999999969
 21
74.58333333333328
 31
0.0
 12
-0.0000000000000304
 22
74.99999999999996
 32
0.0
 13
-0.0000000000000304
 23
74.99999999999996
 33
0.0
  0
MTEXT
  5
32D3
330
329C
100
AcDbEntity
  8
2
 62
     2
100
AcDbMText
 10
49.5
 20
78.24999999999995
 30
0.0
 40
3.5
 41
0.0
 71
     5
 72
     1
  1
99
1001
ACAD
1000
MTEXTBEGIN
1070
    73
1070
     1
1070
    44
1040
1.0
1070
    74
1070
     0
1000
MTEXTEND
  0
POINT
  5
32D4
330
329C
100
AcDbEntity
  8
DEFPOINTS
 62
     0
100
AcDbPoint
 10
99.00000000000003
 20
39.99999999999966
 30
0.0
  0
POINT
  5
32D5
330
329C
100
AcDbEntity
  8
DEFPOINTS
 62
     0
100
AcDbPoint
 10
-0.0000000000000329
 20
34.5000000000002
 30
0.0
  0
POINT
  5
32D6
330
329C
100
AcDbEntity
  8
DEFPOINTS
 62
     0
100
AcDbPoint
 10
-0.0000000000000304
 20
74.99999999999996
 30
0.0
  0
ENDBLK
  5
32A7
330
329C
100
AcDbEntity
  8
0
100
AcDbBlockEnd
  0
ENDSEC
  0
SECTION
  2
ENTITIES
  0
LINE
  5
2471
330
1F
100
AcDbEntity
  8
1
100
AcDbLine
 10
13.36569222038867
 20
-36.49999999999989
 30
0.0
 11
2.000000000000033
 21
-36.49999999999989
 31
0.0
  0
LINE
  5
2472
330
1F
100
AcDbEntity
  8
SK3
 48
0.5
100
AcDbLine
 10
0.0
 20
-15.99999999999994
 30
0.0
 11
25.0
 21
-16.00000000000005
 31
0.0
  0
LINE
  5
2473
330
1F
100
AcDbEntity
  8
SK1
100
AcDbLine
 10
0.0
 20
-7.199999999999988
 30
0.0
 11
8.0
 21
-7.199999999999988
 31
0.0
  0
LINE
  5
2474
330
1F
100
AcDbEntity
  8
SK1
100
AcDbLine
 10
8.0
 20
7.199999999999988
 30
0.0
 11
0.0
 21
7.199999999999988
 31
0.0
  0
LINE
  5
2475
330
1F
100
AcDbEntity
  8
SK3
 48
0.5
100
AcDbLine
 10
25.0
 20
16.0
 30
0.0
 11
0.0
 21
16.0
 31
0.0
  0
LINE
  5
2476
330
1F
100
AcDbEntity
  8
1
100
AcDbLine
 10
13.36569222038906
 20
36.50000000000012
 30
0.0
 11
1.999999999999981
 21
36.5000000000002
 31
0.0
  0
LINE
  5
2477
330
1F
100
AcDbEntity
  8
SK1
100
AcDbLine
 10
8.0
 20
-7.199999999999988
 30
0.0
 11
8.0
 21
7.199999999999988
 31
0.0
  0
LINE
  5
2478
330
1F
100
AcDbEntity
  8
SK3
 48
0.5
100
AcDbLine
 10
25.0
 20
-16.00000000000005
 30
0.0
 11
25.0
 21
16.0
 31
0.0
  0
LINE
  5
2479
330
1F
100
AcDbEntity
  8
SK3
 48
0.5
100
AcDbLine
 10
30.30000000000313
 20
13.5
 30
0.0
 11
30.30000000000313
 21
-13.50000000000005
 31
0.0
  0
LINE
  5
247B
330
1F
100
AcDbEntity
  8
SK3
 48
0.5
100
AcDbLine
 10
97.99679480008377
 20
13.5000000000001
 30
0.0
 11
30.30000000000313
 21
13.5
 31
0.0
  0
LINE
  5
247C
330
1F
100
AcDbEntity
  8
SK3
100
AcDbLine
 10
25.0
 20
9.0
 30
0.0
 11
30.30000000000313
 21
9.0
 31
0.0
  0
LINE
  5
247D
330
1F
100
AcDbEntity
  8
SK3
 48
0.5
100
AcDbLine
 10
30.30000000000313
 20
-13.50000000000005
 30
0.0
 11
97.99679480008371
 21
-13.50000000000005
 31
0.0
  0
LINE
  5
247E
330
1F
100
AcDbEntity
  8
SK3
 48
0.5
100
AcDbLine
 10
25.0
 20
-9.000000000000056
 30
0.0
 11
30.30000000000313
 21
-9.0
 31
0.0
  0
LINE
  5
247F
330
1F
100
AcDbEntity
  8
1
100
AcDbLine
 10
0.0000000000000333
 20
-34.49999999999989
 30
0.0
 11
0.0
 21
-7.199999999999988
 31
0.0
  0
DIMENSION
  5
2480
330
1F
100
AcDbEntity
  8
SK2
100
AcDbDimension
  2
*D2
 10
-34.27982976643085
 20
36.50000000000021
 30
0.0
 11
-37.52982976643085
 21
0.0000000000001588
 31
0.0
 70
    32
  1
%%c<>
  3
AM_DIN
100
AcDbAlignedDimension
 13
2.000000000000046
 23
-36.49999999999989
 33
0.0
 14
1.999999999999982
 24
36.5000000000002
 34
0.0
 50
270.0
100
AcDbRotatedDimension
  0
LINE
  5
2481
330
1F
100
AcDbEntity
  8
1
100
AcDbLine
 10
0.0
 20
7.199999999999988
 30
0.0
 11
-0.0000000000000329
 21
34.5000000000002
 31
0.0
  0
DIMENSION
  5
2483
330
1F
100
AcDbEntity
  8
SK2
100
AcDbDimension
  2
*D3
 10
-15.94878645005399
 20
16.0
 30
0.0
 11
-15.948786450054
 21
1.308009350842723
 31
0.0
 70
   160
  1
%%c<>
  3
AM_DIN
100
AcDbAlignedDimension
 13
0.0
 23
-15.99999999999994
 33
0.0
 14
0.0
 24
16.0
 34
0.0
 50
270.0
100
AcDbRotatedDimension
  0
LINE
  5
2659
330
1F
100
AcDbEntity
  8
SK1
100
AcDbLine
 10
-2.262823140784184
 20
2.262823140784185
 30
0.0
 11
2.262823140784184
 21
-2.262823140784185
 31
0.0
  0
CIRCLE
  5
265A
330
1F
100
AcDbEntity
  8
SK1
100
AcDbCircle
 10
0.0
 20
0.0
 30
0.0
 40
3.200115174948665
  0
LINE
  5
265B
330
1F
100
AcDbEntity
  8
SK1
100
AcDbLine
 10
-2.262823140784185
 20
-2.262823140784184
 30
0.0
 11
2.262823140784185
 21
2.262823140784184
 31
0.0
  0
LINE
  5
265C
330
1F
100
AcDbEntity
  8
4
100
AcDbLine
 10
102.941351111936
 20
-0.000000000000365
 30
0.0
 11
0.0
 21
0.000000000000199
 31
0.0
  0
ARC
  5
2B36
330
1F
100
AcDbEntity
  8
1
100
AcDbCircle
 10
1.999999999999967
 20
34.5000000000002
 30
0.0
 40
2.0
100
AcDbArc
 50
89.99999999999957
 51
180.0
1001
GENIUS_GENOBJ-N-FIL_13
1002
{
1000
OWNER
1000
GEN
1002
}
1001
GENIUS_GENODEF_13
1002
{
1000
HIER
1070
     0
1002
}
1002
{
1000
MANEDIT
1070
     0
1002
}
1002
{
1000
NOSEL
1070
     0
1002
}
1002
{
1000
BEHIND
1070
     0
1002
}
1002
{
1000
OTHER
1070
     0
1002
}
1002
{
1000
REACTOR
1002
}
  0
ARC
  5
2B4C
330
1F
100
AcDbEntity
  8
1
100
AcDbCircle
 10
2.000000000000033
 20
-34.49999999999989
 30
0.0
 40
2.0
100
AcDbArc
 50
180.0
 51
270.0
1001
GENIUS_GENODEF_13
1002
{
1000
HIER
1070
     0
1002
}
1002
{
1000
MANEDIT
1070
     0
1002
}
1002
{
1000
NOSEL
1070
     0
1002
}
1002
{
1000
BEHIND
1070
     0
1002
}
1002
{
1000
OTHER
1070
     0
1002
}
1002
{
1000
REACTOR
1002
}
1001
GENIUS_GENOBJ-N-FIL_13
1002
{
1000
OWNER
1000
GEN
1002
}
  0
TEXT
  5
2FD4
330
1F
100
AcDbEntity
  8
6
100
AcDbText
 10
34.79083863902269
 20
-51.71310721256543
 30
0.0
 40
3.5
  1
22J3K080074F3R00
100
AcDbText
  0
LINE
  5
3120
330
1F
100
AcDbEntity
  8
CUT
100
AcDbLine
 10
24.99999999999769
 20
39.99999999999968
 30
0.0
 11
98.21832531827297
 21
39.99999971819451
 31
0.0
  0
LINE
  5
3121
330
1F
100
AcDbEntity
  8
CUT
100
AcDbLine
 10
24.29903100963398
 20
30.18396189074005
 30
0.0
 11
97.51735632790932
 21
30.18396160893486
 31
0.0
  0
CIRCLE
  5
3122
330
1F
100
AcDbEntity
  8
1
100
AcDbCircle
 10
33.07290754475104
 20
35.09132333832303
 30
0.0
 40
3.149999999999991
  0
LINE
  5
3123
330
1F
100
AcDbEntity
  8
1
100
AcDbLine
 10
24.10115580740816
 20
34.50891473411672
 30
0.0
 11
24.51701868113983
 21
39.50739080950702
 31
0.0
  0
LINE
  5
3124
330
1F
100
AcDbEntity
  8
CUT
100
AcDbLine
 10
24.10923407363898
 20
34.50903162783626
 30
0.0
 11
24.52509694737048
 21
39.50750770322471
 31
0.0
  0
LINE
  5
3125
330
1F
100
AcDbEntity
  8
1
100
AcDbLine
 10
23.50927806167638
 20
30.98363508367643
 30
0.0
 11
23.50927806167644
 21
32.98604272076502
 31
0.0
  0
LINE
  5
3126
330
1F
100
AcDbEntity
  8
CUT
100
AcDbLine
 10
23.51735632790703
 20
30.9837519773942
 30
0.0
 11
23.51735632790715
 21
32.98615961448274
 31
0.0
  0
ARC
  5
3127
330
1F
100
AcDbEntity
  8
1
100
AcDbCircle
 10
24.30927806167639
 20
30.98363508367646
 30
0.0
 40
0.8
100
AcDbArc
 50
180.0000000000007
 51
268.6874309514861
1001
GENIUS_GENODEF_13
1002
{
1000
HIER
1070
     0
1002
}
1002
{
1000
MANEDIT
1070
     0
1002
}
1002
{
1000
NOSEL
1070
     0
1002
}
1002
{
1000
BEHIND
1070
     0
1002
}
1002
{
1000
OTHER
1070
     0
1002
}
1002
{
1000
REACTOR
1002
}
1001
GENIUS_GENOBJ-N-FIL_13
1002
{
1000
OWNER
1000
GEN
1002
}
  0
ARC
  5
3128
330
1F
100
AcDbEntity
  8
CUT
100
AcDbCircle
 10
24.3173563279071
 20
30.98375197739414
 30
0.0
 40
0.8
100
AcDbArc
 50
180.0
 51
268.6874309514861
1001
GENIUS_GENODEF_13
1002
{
1000
HIER
1070
     0
1002
}
1002
{
1000
MANEDIT
1070
     0
1002
}
1002
{
1000
NOSEL
1070
     0
1002
}
1002
{
1000
BEHIND
1070
     0
1002
}
1002
{
1000
OTHER
1070
     0
1002
}
1002
{
1000
REACTOR
1002
}
1001
GENIUS_GENOBJ-N-FIL_13
1002
{
1000
OWNER
1000
GEN
1002
}
  0
ARC
  5
3129
330
1F
100
AcDbEntity
  8
1
100
AcDbCircle
 10
24.00927806167649
 20
32.98604272076505
 30
0.0
 40
0.5
100
AcDbArc
 50
140.6324757416292
 51
180.0
1001
GENIUS_GENODEF_13
1002
{
1000
HIER
1070
     0
1002
}
1002
{
1000
MANEDIT
1070
     0
1002
}
1002
{
1000
NOSEL
1070
     0
1002
}
1002
{
1000
BEHIND
1070
     0
1002
}
1002
{
1000
OTHER
1070
     0
1002
}
1002
{
1000
REACTOR
1002
}
1001
GENIUS_GENOBJ-N-FIL_13
1002
{
1000
OWNER
1000
GEN
1002
}
  0
ARC
  5
312A
330
1F
100
AcDbEntity
  8
1
100
AcDbCircle
 10
21.97572777160499
 20
34.65449032784965
 30
0.0
 40
2.130407610967658
100
AcDbArc
 50
320.6324757416298
 51
356.0817959173876
  0
ARC
  5
312B
330
1F
100
AcDbEntity
  8
CUT
100
AcDbCircle
 10
24.01735632790715
 20
32.98615961448274
 30
0.0
 40
0.5
100
AcDbArc
 50
140.6324757416298
 51
180.0
1001
GENIUS_GENODEF_13
1002
{
1000
HIER
1070
     0
1002
}
1002
{
1000
MANEDIT
1070
     0
1002
}
1002
{
1000
NOSEL
1070
     0
1002
}
1002
{
1000
BEHIND
1070
     0
1002
}
1002
{
1000
OTHER
1070
     0
1002
}
1002
{
1000
REACTOR
1002
}
1001
GENIUS_GENOBJ-N-FIL_13
1002
{
1000
OWNER
1000
GEN
1002
}
  0
ARC
  5
312C
330
1F
100
AcDbEntity
  8
CUT
100
AcDbCircle
 10
21.98380603783565
 20
34.65460722156734
 30
0.0
 40
2.130407610967658
100
AcDbArc
 50
320.6324757416298
 51
356.0817959174375
  0
ARC
  5
312D
330
1F
100
AcDbEntity
  8
1
100
AcDbCircle
 10
25.00299265210211
 20
39.51399043269421
 30
0.0
 40
0.4860187809941681
100
AcDbArc
 50
90.3527999850381
 51
180.7780402552256
  0
ARC
  5
312E
330
1F
100
AcDbEntity
  8
CUT
100
AcDbCircle
 10
25.01107091833276
 20
39.5141073264119
 30
0.0
 40
0.4860187809941681
100
AcDbArc
 50
91.30524125517693
 51
180.7780402552273
  0
LINE
  5
312F
330
1F
100
AcDbEntity
  8
1
100
AcDbLine
 10
42.13653702782335
 20
39.19901159296964
 30
0.0
 11
42.13653702782335
 21
37.19660395588104
 31
0.0
  0
LINE
  5
3130
330
1F
100
AcDbEntity
  8
1
100
AcDbLine
 10
41.54465928209162
 20
35.67373194252937
 30
0.0
 11
41.12879640836001
 21
30.67525586713907
 31
0.0
  0
ARC
  5
3131
330
1F
100
AcDbEntity
  8
1
100
AcDbCircle
 10
40.64282243739774
 20
30.66865624395188
 30
0.0
 40
0.4860187809941681
100
AcDbArc
 50
271.3052412551801
 51
0.7780402552256631
  0
ARC
  5
3132
330
1F
100
AcDbEntity
  8
1
100
AcDbCircle
 10
43.67008731789485
 20
35.52815634879644
 30
0.0
 40
2.130407610967658
100
AcDbArc
 50
140.6324757416298
 51
176.0817959173876
  0
ARC
  5
3133
330
1F
100
AcDbEntity
  8
1
100
AcDbCircle
 10
41.63653702782335
 20
37.19660395588104
 30
0.0
 40
0.5
100
AcDbArc
 50
320.6324757416275
 51
0.0
1001
GENIUS_GENODEF_13
1002
{
1000
HIER
1070
     0
1002
}
1002
{
1000
MANEDIT
1070
     0
1002
}
1002
{
1000
NOSEL
1070
     0
1002
}
1002
{
1000
BEHIND
1070
     0
1002
}
1002
{
1000
OTHER
1070
     0
1002
}
1002
{
1000
REACTOR
1002
}
1001
GENIUS_GENOBJ-N-FIL_13
1002
{
1000
OWNER
1000
GEN
1002
}
  0
CIRCLE
  5
3134
330
1F
100
AcDbEntity
  8
1
100
AcDbCircle
 10
47.57290754475095
 20
35.09132333832303
 30
0.0
 40
3.149999999999991
  0
ARC
  5
3135
330
1F
100
AcDbEntity
  8
1
100
AcDbCircle
 10
41.33653702782339
 20
39.19901159296964
 30
0.0
 40
0.8
100
AcDbArc
 50
0.0000000000008142
 51
88.68743095148614
1001
GENIUS_GENODEF_13
1002
{
1000
HIER
1070
     0
1002
}
1002
{
1000
MANEDIT
1070
     0
1002
}
1002
{
1000
NOSEL
1070
     0
1002
}
1002
{
1000
BEHIND
1070
     0
1002
}
1002
{
1000
OTHER
1070
     0
1002
}
1002
{
1000
REACTOR
1002
}
1001
GENIUS_GENOBJ-N-FIL_13
1002
{
1000
OWNER
1000
GEN
1002
}
  0
CIRCLE
  5
3136
330
1F
100
AcDbEntity
  8
1
100
AcDbCircle
 10
89.93233110050757
 20
35.09252165869895
 30
0.0
 40
3.149999999999991
  0
TEXT
  5
3137
330
1F
100
AcDbEntity
  8
6
100
AcDbText
 10
54.36484183997809
 20
44.17160556046499
 30
0.0
 40
2.5
  1
AOMT160508R
100
AcDbText
  0
LINE
  5
3138
330
1F
100
AcDbEntity
  8
1
100
AcDbLine
 10
70.63653550037159
 20
39.20020991334556
 30
0.0
 11
70.63653550037159
 21
37.19780227625696
 31
0.0
  0
LINE
  5
3139
330
1F
100
AcDbEntity
  8
1
100
AcDbLine
 10
56.63653702782326
 20
39.19901159296964
 30
0.0
 11
56.63653702782326
 21
37.19660395588104
 31
0.0
  0
CIRCLE
  5
313A
330
1F
100
AcDbEntity
  8
1
100
AcDbCircle
 10
61.57290601729929
 20
35.09252165869895
 30
0.0
 40
3.149999999999991
  0
LINE
  5
313B
330
1F
100
AcDbEntity
  8
1
100
AcDbLine
 10
56.04465928209155
 20
35.67373194252937
 30
0.0
 11
55.62879640835993
 21
30.67525586713907
 31
0.0
  0
ARC
  5
313C
330
1F
100
AcDbEntity
  8
1
100
AcDbCircle
 10
55.14282243739765
 20
30.66865624395188
 30
0.0
 40
0.4860187809941681
100
AcDbArc
 50
271.3052412551801
 51
0.7780402552256631
  0
ARC
  5
313D
330
1F
100
AcDbEntity
  8
1
100
AcDbCircle
 10
56.13653702782326
 20
37.19660395588104
 30
0.0
 40
0.5
100
AcDbArc
 50
320.6324757416275
 51
0.0
1001
GENIUS_GENODEF_13
1002
{
1000
HIER
1070
     0
1002
}
1002
{
1000
MANEDIT
1070
     0
1002
}
1002
{
1000
NOSEL
1070
     0
1002
}
1002
{
1000
BEHIND
1070
     0
1002
}
1002
{
1000
OTHER
1070
     0
1002
}
1002
{
1000
REACTOR
1002
}
1001
GENIUS_GENOBJ-N-FIL_13
1002
{
1000
OWNER
1000
GEN
1002
}
  0
ARC
  5
313E
330
1F
100
AcDbEntity
  8
1
100
AcDbCircle
 10
58.17008731789477
 20
35.52815634879644
 30
0.0
 40
2.130407610967658
100
AcDbArc
 50
140.6324757416298
 51
176.0817959173876
  0
LINE
  5
313F
330
1F
100
AcDbEntity
  8
1
100
AcDbLine
 10
70.04465775463987
 20
35.67493026290529
 30
0.0
 11
69.62879488090826
 21
30.67645418751499
 31
0.0
  0
ARC
  5
3140
330
1F
100
AcDbEntity
  8
1
100
AcDbCircle
 10
69.14282090994598
 20
30.6698545643278
 30
0.0
 40
0.4860187809941681
100
AcDbArc
 50
271.3052412551801
 51
0.7780402552256631
  0
ARC
  5
3141
330
1F
100
AcDbEntity
  8
1
100
AcDbCircle
 10
72.1700857904431
 20
35.52935466917236
 30
0.0
 40
2.130407610967658
100
AcDbArc
 50
140.6324757416298
 51
176.0817959173876
  0
ARC
  5
3142
330
1F
100
AcDbEntity
  8
1
100
AcDbCircle
 10
70.13653550037159
 20
37.19780227625696
 30
0.0
 40
0.5
100
AcDbArc
 50
320.6324757416275
 51
0.0
1001
GENIUS_GENODEF_13
1002
{
1000
HIER
1070
     0
1002
}
1002
{
1000
MANEDIT
1070
     0
1002
}
1002
{
1000
NOSEL
1070
     0
1002
}
1002
{
1000
BEHIND
1070
     0
1002
}
1002
{
1000
OTHER
1070
     0
1002
}
1002
{
1000
REACTOR
1002
}
1001
GENIUS_GENOBJ-N-FIL_13
1002
{
1000
OWNER
1000
GEN
1002
}
  0
ARC
  5
3143
330
1F
100
AcDbEntity
  8
1
100
AcDbCircle
 10
55.83653702782331
 20
39.19901159296964
 30
0.0
 40
0.8
100
AcDbArc
 50
0.0000000000008142
 51
88.68743095148614
1001
GENIUS_GENODEF_13
1002
{
1000
HIER
1070
     0
1002
}
1002
{
1000
MANEDIT
1070
     0
1002
}
1002
{
1000
NOSEL
1070
     0
1002
}
1002
{
1000
BEHIND
1070
     0
1002
}
1002
{
1000
OTHER
1070
     0
1002
}
1002
{
1000
REACTOR
1002
}
1001
GENIUS_GENOBJ-N-FIL_13
1002
{
1000
OWNER
1000
GEN
1002
}
  0
ARC
  5
3144
330
1F
100
AcDbEntity
  8
1
100
AcDbCircle
 10
69.83653550037164
 20
39.20020991334556
 30
0.0
 40
0.8
100
AcDbArc
 50
0.0000000000008142
 51
88.68743095148614
1001
GENIUS_GENODEF_13
1002
{
1000
HIER
1070
     0
1002
}
1002
{
1000
MANEDIT
1070
     0
1002
}
1002
{
1000
NOSEL
1070
     0
1002
}
1002
{
1000
BEHIND
1070
     0
1002
}
1002
{
1000
OTHER
1070
     0
1002
}
1002
{
1000
REACTOR
1002
}
1001
GENIUS_GENOBJ-N-FIL_13
1002
{
1000
OWNER
1000
GEN
1002
}
  0
LINE
  5
3145
330
1F
100
AcDbEntity
  8
1
100
AcDbLine
 10
84.81624804197569
 20
39.20020991334556
 30
0.0
 11
84.81624804197569
 21
37.19780227625696
 31
0.0
  0
CIRCLE
  5
3146
330
1F
100
AcDbEntity
  8
1
100
AcDbCircle
 10
75.75261855890338
 20
35.09252165869895
 30
0.0
 40
3.149999999999991
  0
LINE
  5
3147
330
1F
100
AcDbEntity
  8
1
100
AcDbLine
 10
84.22437029624395
 20
35.67493026290529
 30
0.0
 11
83.80850742251235
 21
30.67645418751499
 31
0.0
  0
ARC
  5
3148
330
1F
100
AcDbEntity
  8
1
100
AcDbCircle
 10
83.32253345155008
 20
30.6698545643278
 30
0.0
 40
0.4860187809941681
100
AcDbArc
 50
271.3052412551801
 51
0.7780402552256631
  0
ARC
  5
3149
330
1F
100
AcDbEntity
  8
1
100
AcDbCircle
 10
86.34979833204718
 20
35.52935466917236
 30
0.0
 40
2.130407610967658
100
AcDbArc
 50
140.6324757416298
 51
176.0817959173876
  0
ARC
  5
314A
330
1F
100
AcDbEntity
  8
1
100
AcDbCircle
 10
84.31624804197568
 20
37.19780227625696
 30
0.0
 40
0.5
100
AcDbArc
 50
320.6324757416275
 51
0.0
1001
GENIUS_GENODEF_13
1002
{
1000
HIER
1070
     0
1002
}
1002
{
1000
MANEDIT
1070
     0
1002
}
1002
{
1000
NOSEL
1070
     0
1002
}
1002
{
1000
BEHIND
1070
     0
1002
}
1002
{
1000
OTHER
1070
     0
1002
}
1002
{
1000
REACTOR
1002
}
1001
GENIUS_GENOBJ-N-FIL_13
1002
{
1000
OWNER
1000
GEN
1002
}
  0
ARC
  5
314B
330
1F
100
AcDbEntity
  8
1
100
AcDbCircle
 10
84.01624804197572
 20
39.20020991334556
 30
0.0
 40
0.8
100
AcDbArc
 50
0.0000000000008142
 51
88.68743095148614
1001
GENIUS_GENODEF_13
1002
{
1000
HIER
1070
     0
1002
}
1002
{
1000
MANEDIT
1070
     0
1002
}
1002
{
1000
NOSEL
1070
     0
1002
}
1002
{
1000
BEHIND
1070
     0
1002
}
1002
{
1000
OTHER
1070
     0
1002
}
1002
{
1000
REACTOR
1002
}
1001
GENIUS_GENOBJ-N-FIL_13
1002
{
1000
OWNER
1000
GEN
1002
}
  0
LINE
  5
314C
330
1F
100
AcDbEntity
  8
1
100
AcDbLine
 10
98.99596058357989
 20
39.20020991334556
 30
0.0
 11
98.99596058357989
 21
37.19780227625696
 31
0.0
  0
LINE
  5
314D
330
1F
100
AcDbEntity
  8
CUT
100
AcDbLine
 10
98.99999999999991
 20
39.20020963154039
 30
0.0
 11
98.9999999999998
 21
37.19780199445179
 31
0.0
  0
ARC
  5
314E
330
1F
100
AcDbEntity
  8
1
100
AcDbCircle
 10
97.50224599315428
 20
30.6698545643278
 30
0.0
 40
0.4860187809941681
100
AcDbArc
 50
271.3052412551801
 51
0.7780402552256631
  0
ARC
  5
314F
330
1F
100
AcDbEntity
  8
CUT
100
AcDbCircle
 10
97.5062854095742
 20
30.66985428252263
 30
0.0
 40
0.4860187809941681
100
AcDbArc
 50
271.3052412551769
 51
0.7780402552272914
  0
LINE
  5
3150
330
1F
100
AcDbEntity
  8
1
100
AcDbLine
 10
98.40408283784817
 20
35.67493026290529
 30
0.0
 11
97.98821996411655
 21
30.67645418751499
 31
0.0
  0
LINE
  5
3151
330
1F
100
AcDbEntity
  8
CUT
100
AcDbLine
 10
98.4081222542683
 20
35.67492998110208
 30
0.0
 11
97.99225938053647
 21
30.67645390570982
 31
0.0
  0
ARC
  5
3152
330
1F
100
AcDbEntity
  8
1
100
AcDbCircle
 10
100.5295108736513
 20
35.52935466917236
 30
0.0
 40
2.130407610967658
100
AcDbArc
 50
140.6324757416298
 51
176.0817959173876
  0
ARC
  5
3153
330
1F
100
AcDbEntity
  8
CUT
100
AcDbCircle
 10
100.5335502900713
 20
35.52935438736719
 30
0.0
 40
2.130407610967658
100
AcDbArc
 50
140.6324757416298
 51
176.0817959173346
  0
ARC
  5
3154
330
1F
100
AcDbEntity
  8
1
100
AcDbCircle
 10
98.49596058357988
 20
37.19780227625696
 30
0.0
 40
0.5
100
AcDbArc
 50
320.6324757416275
 51
0.0
1001
GENIUS_GENODEF_13
1002
{
1000
HIER
1070
     0
1002
}
1002
{
1000
MANEDIT
1070
     0
1002
}
1002
{
1000
NOSEL
1070
     0
1002
}
1002
{
1000
BEHIND
1070
     0
1002
}
1002
{
1000
OTHER
1070
     0
1002
}
1002
{
1000
REACTOR
1002
}
1001
GENIUS_GENOBJ-N-FIL_13
1002
{
1000
OWNER
1000
GEN
1002
}
  0
ARC
  5
3155
330
1F
100
AcDbEntity
  8
CUT
100
AcDbCircle
 10
98.4999999999998
 20
37.19780199445179
 30
0.0
 40
0.5
100
AcDbArc
 50
320.6324757416298
 51
0.0
1001
GENIUS_GENODEF_13
1002
{
1000
HIER
1070
     0
1002
}
1002
{
1000
MANEDIT
1070
     0
1002
}
1002
{
1000
NOSEL
1070
     0
1002
}
1002
{
1000
BEHIND
1070
     0
1002
}
1002
{
1000
OTHER
1070
     0
1002
}
1002
{
1000
REACTOR
1002
}
1001
GENIUS_GENOBJ-N-FIL_13
1002
{
1000
OWNER
1000
GEN
1002
}
  0
ARC
  5
3156
330
1F
100
AcDbEntity
  8
1
100
AcDbCircle
 10
98.19596058357994
 20
39.20020991334556
 30
0.0
 40
0.8
100
AcDbArc
 50
0.0000000000008142
 51
88.68743095148614
1001
GENIUS_GENODEF_13
1002
{
1000
HIER
1070
     0
1002
}
1002
{
1000
MANEDIT
1070
     0
1002
}
1002
{
1000
NOSEL
1070
     0
1002
}
1002
{
1000
BEHIND
1070
     0
1002
}
1002
{
1000
OTHER
1070
     0
1002
}
1002
{
1000
REACTOR
1002
}
1001
GENIUS_GENOBJ-N-FIL_13
1002
{
1000
OWNER
1000
GEN
1002
}
  0
ARC
  5
3157
330
1F
100
AcDbEntity
  8
CUT
100
AcDbCircle
 10
98.19999999999986
 20
39.20020963154039
 30
0.0
 40
0.8
100
AcDbArc
 50
0.0
 51
88.68743095148614
1001
GENIUS_GENODEF_13
1002
{
1000
HIER
1070
     0
1002
}
1002
{
1000
MANEDIT
1070
     0
1002
}
1002
{
1000
NOSEL
1070
     0
1002
}
1002
{
1000
BEHIND
1070
     0
1002
}
1002
{
1000
OTHER
1070
     0
1002
}
1002
{
1000
REACTOR
1002
}
1001
GENIUS_GENOBJ-N-FIL_13
1002
{
1000
OWNER
1000
GEN
1002
}
  0
LINE
  5
3158
330
1F
100
AcDbEntity
  8
SK1
100
AcDbLine
 10
98.99999999999991
 20
40.46376936984848
 30
0.0
 11
98.99999999999991
 21
39.53623063015084
 31
0.0
  0
LINE
  5
3159
330
1F
100
AcDbEntity
  8
SK1
100
AcDbLine
 10
98.53623063015133
 20
39.99999999999966
 30
0.0
 11
99.46376936984897
 21
39.99999999999966
 31
0.0
  0
CIRCLE
  5
315A
330
1F
100
AcDbEntity
  8
SK1
100
AcDbCircle
 10
99.00000000000003
 20
39.99999999999966
 30
0.0
 40
0.4637693698488208
  0
LINE
  5
315B
330
1F
100
AcDbEntity
  8
SK1
100
AcDbLine
 10
99.00000000000003
 20
40.46376936984848
 30
0.0
 11
99.00000000000003
 21
39.53623063015084
 31
0.0
  0
LINE
  5
315D
330
1F
100
AcDbEntity
  8
1
100
AcDbLine
 10
97.99679480008379
 20
30.73096751471632
 30
0.0
 11
97.99679480008368
 21
-39.27113434341709
 31
0.0
  0
LINE
  5
315F
330
1F
100
AcDbEntity
  8
1
100
AcDbLine
 10
24.50543117260221
 20
39.27113434341646
 30
0.0
 11
16.13682656380541
 21
39.27113434341647
 31
0.0
  0
LINE
  5
3175
330
1F
100
AcDbEntity
  8
1
100
AcDbLine
 10
25.5000000000023
 20
-40.00119832037626
 30
0.0
 11
98.21428590185313
 21
-40.00000000000034
 31
0.0
  0
LINE
  5
3176
330
1F
100
AcDbEntity
  8
1
100
AcDbLine
 10
24.99726293391418
 20
-39.27113434341674
 30
0.0
 11
25.01701868114437
 21
-39.50858912988363
 31
0.0
  0
ARC
  5
3177
330
1F
100
AcDbEntity
  8
1
100
AcDbCircle
 10
25.50299265210665
 20
-39.51518875307082
 30
0.0
 40
0.4860187809941681
100
AcDbArc
 50
179.2219597447743
 51
269.6472000149618
  0
ARC
  5
3178
330
1F
100
AcDbEntity
  8
1
100
AcDbCircle
 10
100.5295108736514
 20
-35.52935466917304
 30
0.0
 40
2.130407610967658
100
AcDbArc
 50
183.9182040826123
 51
219.3675242583701
  0
LINE
  5
3179
330
1F
100
AcDbEntity
  8
SK1
100
AcDbLine
 10
99.00000000000003
 20
-40.46376936984915
 30
0.0
 11
99.00000000000003
 21
-39.53623063015152
 31
0.0
  0
CIRCLE
  5
317A
330
1F
100
AcDbEntity
  8
SK1
100
AcDbCircle
 10
99.00000000000003
 20
-40.00000000000034
 30
0.0
 40
0.4637693698488208
  0
LINE
  5
317B
330
1F
100
AcDbEntity
  8
SK1
100
AcDbLine
 10
98.53623063015133
 20
-40.00000000000034
 30
0.0
 11
99.46376936984897
 21
-40.00000000000034
 31
0.0
  0
ARC
  5
317C
330
1F
100
AcDbEntity
  8
1
100
AcDbCircle
 10
98.49596058357995
 20
-37.19780227625764
 30
0.0
 40
0.5
100
AcDbArc
 50
0.0
 51
39.36752425837244
1001
GENIUS_GENODEF_13
1002
{
1000
HIER
1070
     0
1002
}
1002
{
1000
MANEDIT
1070
     0
1002
}
1002
{
1000
NOSEL
1070
     0
1002
}
1002
{
1000
BEHIND
1070
     0
1002
}
1002
{
1000
OTHER
1070
     0
1002
}
1002
{
1000
REACTOR
1002
}
1001
GENIUS_GENOBJ-N-FIL_13
1002
{
1000
OWNER
1000
GEN
1002
}
  0
ARC
  5
317D
330
1F
100
AcDbEntity
  8
1
100
AcDbCircle
 10
98.19596058357999
 20
-39.20020991334624
 30
0.0
 40
0.8
100
AcDbArc
 50
271.3125690485138
 51
359.9999999999992
1001
GENIUS_GENODEF_13
1002
{
1000
HIER
1070
     0
1002
}
1002
{
1000
MANEDIT
1070
     0
1002
}
1002
{
1000
NOSEL
1070
     0
1002
}
1002
{
1000
BEHIND
1070
     0
1002
}
1002
{
1000
OTHER
1070
     0
1002
}
1002
{
1000
REACTOR
1002
}
1001
GENIUS_GENOBJ-N-FIL_13
1002
{
1000
OWNER
1000
GEN
1002
}
  0
LINE
  5
317E
330
1F
100
AcDbEntity
  8
1
100
AcDbLine
 10
98.99596058357994
 20
-39.20020991334624
 30
0.0
 11
98.99596058357994
 21
-37.19780227625764
 31
0.0
  0
LINE
  5
317F
330
1F
100
AcDbEntity
  8
1
100
AcDbLine
 10
98.40408283784823
 20
-35.67493026290597
 30
0.0
 11
97.9882199641166
 21
-30.67645418751567
 31
0.0
  0
LINE
  5
3188
330
1F
100
AcDbEntity
  8
1
100
AcDbLine
 10
16.13682656380541
 20
39.27113434341647
 30
0.0
 11
13.36569222038906
 21
36.50000000000012
 31
0.0
  0
LINE
  5
3193
330
1F
100
AcDbEntity
  8
1
100
AcDbLine
 10
16.13682656380498
 20
-39.27113434341625
 30
0.0
 11
13.36569222038866
 21
-36.49999999999987
 31
0.0
  0
LINE
  5
3194
330
1F
100
AcDbEntity
  8
1
100
AcDbLine
 10
97.99679480008368
 20
-39.27113434341709
 30
0.0
 11
16.13682656380498
 21
-39.27113434341625
 31
0.0
  0
LINE
  5
3196
330
1F
100
AcDbEntity
  8
1
100
AcDbLine
 10
13.36569222038906
 20
36.50000000000012
 30
0.0
 11
13.36569222038868
 21
-36.49999999999989
 31
0.0
  0
LINE
  5
3197
330
1F
100
AcDbEntity
  8
1
100
AcDbLine
 10
16.13682656380541
 20
39.27113434341647
 30
0.0
 11
16.13682656380498
 21
-39.27113434341625
 31
0.0
  0
LINE
  5
319F
330
1F
100
AcDbEntity
  8
4
100
AcDbLine
 10
38.75459112926694
 20
26.01105750873848
 30
0.0
 11
23.46690116825311
 21
15.86679473191449
 31
0.0
  0
LINE
  5
31A0
330
1F
100
AcDbEntity
  8
4
100
AcDbLine
 10
73.8387884380042
 20
26.88097191467773
 30
0.0
 11
26.87584087206164
 21
13.73786305002007
 31
0.0
  0
LINE
  5
31A1
330
1F
100
AcDbEntity
  8
4
100
AcDbLine
 10
73.8387884380039
 20
-26.88097191467814
 30
0.0
 11
26.87584087206149
 21
-13.73786305001997
 31
0.0
  0
LINE
  5
31A2
330
1F
100
AcDbEntity
  8
4
100
AcDbLine
 10
38.75459112926666
 20
-26.01105750873851
 30
0.0
 11
23.46690116825294
 21
-15.86679473191435
 31
0.0
  0
LINE
  5
31A5
330
1F
100
AcDbEntity
  8
NOCUT
100
AcDbLine
 10
97.99679480008368
 20
-39.27113434341709
 30
0.0
 11
16.13682656380498
 21
-39.27113434341625
 31
0.0
  0
LINE
  5
31A7
330
1F
100
AcDbEntity
  8
NOCUT
100
AcDbLine
 10
97.99679480008373
 20
-0.0000000000003411
 30
0.0
 11
-0.0000000000000284
 21
0.000000000000199
 31
0.0
  0
LINE
  5
31AE
330
1F
100
AcDbEntity
  8
NOCUT
100
AcDbLine
 10
13.36569222038868
 20
-36.49999999999988
 30
0.0
 11
2.000000000000028
 21
-36.49999999999988
 31
0.0
  0
LINE
  5
31B0
330
1F
100
AcDbEntity
  8
NOCUT
100
AcDbLine
 10
0.0000000000000284
 20
-34.49999999999988
 30
0.0
 11
-0.0000000000000142
 21
0.000000000000199
 31
0.0
  0
ARC
  5
31B1
330
1F
100
AcDbEntity
  8
NOCUT
100
AcDbCircle
 10
2.000000000000028
 20
-34.49999999999988
 30
0.0
 40
2.0
100
AcDbArc
 50
180.0
 51
270.0
1001
GENIUS_GENODEF_13
1002
{
1000
HIER
1070
     0
1002
}
1002
{
1000
MANEDIT
1070
     0
1002
}
1002
{
1000
NOSEL
1070
     0
1002
}
1002
{
1000
BEHIND
1070
     0
1002
}
1002
{
1000
OTHER
1070
     0
1002
}
1002
{
1000
REACTOR
1002
}
1001
GENIUS_GENOBJ-N-FIL_13
1002
{
1000
OWNER
1000
GEN
1002
}
  0
LINE
  5
31B8
330
1F
100
AcDbEntity
  8
NOCUT
100
AcDbLine
 10
16.13682656380498
 20
-39.27113434341625
 30
0.0
 11
13.36569222038866
 21
-36.49999999999988
 31
0.0
  0
LINE
  5
31BC
330
1F
100
AcDbEntity
  8
NOCUT
100
AcDbLine
 10
97.99679480008373
 20
-0.0000000000003411
 30
0.0
 11
97.99679480008368
 21
-39.27113434341709
 31
0.0
  0
DIMENSION
  5
3213
330
1F
100
AcDbEntity
  8
2
100
AcDbDimension
  2
*D5
 10
126.4897041126312
 20
-40.00000000000034
 30
0.0
 11
123.2397041126312
 21
-0.0000000000003271
 31
0.0
 70
    32
  1
%%c<>
  3
AM_DIN
100
AcDbAlignedDimension
 13
99.00000000000003
 23
39.99999999999966
 33
0.0
 14
99.00000000000003
 24
-40.00000000000034
 34
0.0
 50
90.0
100
AcDbRotatedDimension
  0
TEXT
  5
3236
330
1F
100
AcDbEntity
  8
6
100
AcDbText
 10
134.6230897738773
 20
-6.277193327135535
 30
0.0
 40
3.5
  1
Z=20
 50
90.0
100
AcDbText
  0
TEXT
  5
3237
330
1F
100
AcDbEntity
  8
6
100
AcDbText
 10
140.8453914362755
 20
-9.333377790679548
 30
0.0
 40
3.5
  1
Zeff.=4
 50
90.0
100
AcDbText
  0
DIMENSION
  5
3273
330
1F
100
AcDbEntity
  8
2
100
AcDbDimension
  2
*D6
 10
25.00000000000003
 20
59.99999999999989
 30
0.0
 11
62.00000000000002
 21
63.24999999999988
 31
0.0
 70
    32
  3
AM_DIN
100
AcDbAlignedDimension
 13
99.00000000000003
 23
39.99999999999966
 33
0.0
 14
25.00000000000003
 24
40.2556076558892
 34
0.0
100
AcDbRotatedDimension
  0
DIMENSION
  5
329B
330
1F
100
AcDbEntity
  8
2
100
AcDbDimension
  2
*D7
 10
-0.0000000000000304
 20
74.99999999999996
 30
0.0
 11
49.5
 21
78.24999999999995
 31
0.0
 70
    32
  3
AM_DIN
100
AcDbAlignedDimension
 13
99.00000000000003
 23
39.99999999999966
 33
0.0
 14
-0.0000000000000329
 24
34.5000000000002
 34
0.0
100
AcDbRotatedDimension
  0
ARC
  5
32DE
330
1F
100
AcDbEntity
  8
1
100
AcDbCircle
 10
37.69846851650192
 20
-59.47860771913997
 30
0.0
 40
86.73737283267287
100
AcDbArc
 50
45.95821735240742
 51
82.77701234597691
  0
ARC
  5
32DF
330
1F
100
AcDbEntity
  8
1
100
AcDbCircle
 10
45.15693375922177
 20
-50.18796303554324
 30
0.0
 40
76.83577405178424
100
AcDbArc
 50
87.4286379837047
 51
107.8805469077621
  0
ARC
  5
32E0
330
1F
100
AcDbEntity
  8
1
100
AcDbCircle
 10
25.52608189897798
 20
31.45302161666825
 30
0.0
 40
9.392253332438787
100
AcDbArc
 50
123.6539172387437
 51
245.0607784088311
  0
ARC
  5
32E1
330
1F
100
AcDbEntity
  8
1
100
AcDbCircle
 10
82.10307786776516
 20
-62.14759572770635
 30
0.0
 40
90.28599179521089
100
AcDbArc
 50
79.86096231580195
 51
105.4991448848817
  0
ARC
  5
32E2
330
1F
100
AcDbEntity
  8
1
100
AcDbCircle
 10
18.08905611006104
 20
-60.61065843618731
 30
0.0
 40
95.91650313639977
100
AcDbArc
 50
33.58181159632912
 51
60.11858169431303
  0
ARC
  5
32E9
330
1F
100
AcDbEntity
  8
1
100
AcDbCircle
 10
116.938244597764
 20
131.3881015393236
 30
0.0
 40
172.9135927770679
100
AcDbArc
 50
239.1131606152685
 51
260.7379446362277
  0
ARC
  5
32EA
330
1F
100
AcDbEntity
  8
1
100
AcDbCircle
 10
26.94791235907032
 20
-27.77902966156727
 30
0.0
 40
10.84518981663206
100
AcDbArc
 50
83.50828651867898
 51
184.5450191836549
  0
ARC
  5
32EB
330
1F
100
AcDbEntity
  8
1
100
AcDbCircle
 10
33.08061483080058
 20
-22.05084168011257
 30
0.0
 40
17.62943760098485
100
AcDbArc
 50
196.0319789839744
 51
257.631970384743
  0
ARC
  5
32EC
330
1F
100
AcDbEntity
  8
1
100
AcDbCircle
 10
22.69600164864081
 20
83.30943715263668
 30
0.0
 40
123.1055227655249
100
AcDbArc
 50
275.2931329896867
 51
289.1938277303996
  0
ARC
  5
32ED
330
1F
100
AcDbEntity
  8
1
100
AcDbCircle
 10
79.03201821577339
 20
130.9789192689274
 30
0.0
 40
161.1887393525054
100
AcDbArc
 50
258.908773303865
 51
276.7568265352149
  0
ENDSEC
  0
SECTION
  2
OBJECTS
  0
DICTIONARY
  5
C
330
0
100
AcDbDictionary
  3
ACAD_GROUP
350
D
  3
ACAD_LAYOUT
350
1A
  3
ACAD_MLINESTYLE
350
17
  3
ACAD_PLOTSETTINGS
350
19
  3
ACAD_PLOTSTYLENAME
350
E
  3
ACDBHEADERROUNDTRIPXREC
350
331F
  3
ACDBVARIABLEDICTIONARY
350
216
  3
ACMDICTIONARY
350
45
  3
AMG
350
41
  3
AMGSNAPSETTINGS
350
23D
  3
DWGPROPS
350
3319
  0
DICTIONARY
  5
1F1
330
1F
100
AcDbDictionary
280
     1
  3
ACAD_INDEX
360
1F2
  3
ACAD_LAYOUTSELFREF
360
3342
  0
DICTIONARY
  5
3340
330
1B
100
AcDbDictionary
280
     1
  3
ACAD_LAYOUTSELFREF
360
3341
  0
DICTIONARY
  5
D
102
{ACAD_REACTORS
330
C
102
}
330
C
100
AcDbDictionary
  0
DICTIONARY
  5
1A
102
{ACAD_REACTORS
330
C
102
}
330
C
100
AcDbDictionary
  0
DICTIONARY
  5
17
102
{ACAD_REACTORS
330
C
102
}
330
C
100
AcDbDictionary
  3
STANDARD
350
18
  0
DICTIONARY
  5
19
102
{ACAD_REACTORS
330
C
102
}
330
C
100
AcDbDictionary
  0
ACDBDICTIONARYWDFLT
  5
E
102
{ACAD_REACTORS
330
C
102
}
330
C
100
AcDbDictionary
281
     1
  3
Normal
350
F
100
AcDbDictionaryWithDefault
340
F
  0
DICTIONARY
  5
331F
102
{ACAD_REACTORS
330
C
102
}
330
C
100
AcDbDictionary
  3
CEPSNTYPE
350
3329
  3
DIMSTYLEDATA
350
332D
  3
FINGERPRINTGUID
350
332A
  3
HYPERLINKBASE
350
3322
  3
INSUNITS
350
3328
  3
LAYOUTDICT
350
3324
  3
LWETCUNION
350
3327
  3
PLOTSETDICT
350
3325
  3
PLOTSTYLNAMDICT
350
3326
  3
PSVPSCALE
350
332C
  3
PUCSBASE
350
3330
  3
PUCSORGBACK
350
3336
  3
PUCSORGBOTTOM
350
3332
  3
PUCSORGFRONT
350
3335
  3
PUCSORGLEFT
350
3333
  3
PUCSORGRIGHT
350
3334
  3
PUCSORGTOP
350
3331
  3
PUCSORTHOREF
350
332E
  3
PUCSORTHOVIEW
350
332F
  3
STYLESHEET
350
3323
  3
TSTACKALIGN
350
3320
  3
TSTACKSIZE
350
3321
  3
UCSBASE
350
3339
  3
UCSORGBACK
350
333F
  3
UCSORGBOTTOM
350
333B
  3
UCSORGFRONT
350
333E
  3
UCSORGLEFT
350
333C
  3
UCSORGRIGHT
350
333D
  3
UCSORGTOP
350
333A
  3
UCSORTHOREF
350
3337
  3
UCSORTHOVIEW
350
3338
  3
VERSIONGUID
350
332B
  0
DICTIONARY
  5
216
102
{ACAD_REACTORS
330
C
102
}
330
C
100
AcDbDictionary
  3
DIMASSOC
350
219
  3
HIDETEXT
350
218
  3
INDEXCTL
350
217
  0
DICTIONARY
  5
45
102
{ACAD_REACTORS
330
C
102
}
330
C
100
AcDbDictionary
  3
ACMSTDDICTIONARY
350
4A
  0
DICTIONARY
  5
41
102
{ACAD_REACTORS
330
C
102
}
330
C
100
AcDbDictionary
  3
ACMGSETTINGS
350
42
  0
DICTIONARY
  5
23D
102
{ACAD_REACTORS
330
C
102
}
330
C
100
AcDbDictionary
  0
XRECORD
  5
3319
102
{ACAD_REACTORS
330
C
102
}
330
C
100
AcDbXrecord
  1
DWGPROPS COOKIE
  2

  3

  4

  6

  7

  8

  9

300
AmdtFileType=84
301
=
302
=
303
=
304
=
305
=
306
=
307
=
308
=
309
=
 40
0.0659158564814815
 41
2453599.324339374
 42
2453755.089846689
  1

 90
        1
  0
DICTIONARY
  5
1F2
102
{ACAD_REACTORS
330
1F1
102
}
330
1F1
100
AcDbDictionary
  3
*A1
350
1F3
  0
XRECORD
  5
3342
102
{ACAD_REACTORS
330
1F1
102
}
330
1F1
100
AcDbXrecord
340
1F
  0
XRECORD
  5
3341
102
{ACAD_REACTORS
330
3340
102
}
330
3340
100
AcDbXrecord
340
1B
  0
MLINESTYLE
  5
18
102
{ACAD_REACTORS
330
17
102
}
330
17
100
AcDbMlineStyle
  2
STANDARD
 70
     0
  3

 62
   256
 51
90.0
 52
90.0
 71
     2
 49
0.5
 62
   256
  6
BYLAYER
 49
-0.5
 62
   256
  6
BYLAYER
  0
ACDBPLACEHOLDER
  5
F
102
{ACAD_REACTORS
330
E
102
}
330
E
100
AcDbPlaceHolder
280
     0
  0
XRECORD
  5
3329
102
{ACAD_REACTORS
330
331F
102
}
330
331F
100
AcDbXrecord
 90
        0
  0
XRECORD
  5
332D
102
{ACAD_REACTORS
330
331F
102
}
330
331F
100
AcDbXrecord
1000
DSTYLE
1002
{
1070
    79
 70
     2
1070
   371
 70
    -1
1070
   372
 70
    -1
1002
}
  0
XRECORD
  5
332A
102
{ACAD_REACTORS
330
331F
102
}
330
331F
100
AcDbXrecord
  1
{03052709-208C-44F1-88CB-F8F0E550BC5D}
  0
XRECORD
  5
3322
102
{ACAD_REACTORS
330
331F
102
}
330
331F
100
AcDbXrecord
  1

  0
XRECORD
  5
3328
102
{ACAD_REACTORS
330
331F
102
}
330
331F
100
AcDbXrecord
 90
        4
  0
XRECORD
  5
3324
102
{ACAD_REACTORS
330
331F
102
}
330
331F
100
AcDbXrecord
340
1A
  0
XRECORD
  5
3327
102
{ACAD_REACTORS
330
331F
102
}
330
331F
100
AcDbXrecord
 90
    10781
  0
XRECORD
  5
3325
102
{ACAD_REACTORS
330
331F
102
}
330
331F
100
AcDbXrecord
340
19
  0
XRECORD
  5
3326
102
{ACAD_REACTORS
330
331F
102
}
330
331F
100
AcDbXrecord
340
E
  0
XRECORD
  5
332C
102
{ACAD_REACTORS
330
331F
102
}
330
331F
100
AcDbXrecord
 40
0.0
  0
XRECORD
  5
3330
102
{ACAD_REACTORS
330
331F
102
}
330
331F
100
AcDbXrecord
340
0
  0
XRECORD
  5
3336
102
{ACAD_REACTORS
330
331F
102
}
330
331F
100
AcDbXrecord
 10
0.0
 20
0.0
 30
0.0
  0
XRECORD
  5
3332
102
{ACAD_REACTORS
330
331F
102
}
330
331F
100
AcDbXrecord
 10
0.0
 20
0.0
 30
0.0
  0
XRECORD
  5
3335
102
{ACAD_REACTORS
330
331F
102
}
330
331F
100
AcDbXrecord
 10
0.0
 20
0.0
 30
0.0
  0
XRECORD
  5
3333
102
{ACAD_REACTORS
330
331F
102
}
330
331F
100
AcDbXrecord
 10
0.0
 20
0.0
 30
0.0
  0
XRECORD
  5
3334
102
{ACAD_REACTORS
330
331F
102
}
330
331F
100
AcDbXrecord
 10
0.0
 20
0.0
 30
0.0
  0
XRECORD
  5
3331
102
{ACAD_REACTORS
330
331F
102
}
330
331F
100
AcDbXrecord
 10
0.0
 20
0.0
 30
0.0
  0
XRECORD
  5
332E
102
{ACAD_REACTORS
330
331F
102
}
330
331F
100
AcDbXrecord
340
0
  0
XRECORD
  5
332F
102
{ACAD_REACTORS
330
331F
102
}
330
331F
100
AcDbXrecord
 70
     0
  0
XRECORD
  5
3323
102
{ACAD_REACTORS
330
331F
102
}
330
331F
100
AcDbXrecord
  1

  0
XRECORD
  5
3320
102
{ACAD_REACTORS
330
331F
102
}
330
331F
100
AcDbXrecord
 90
        1
  0
XRECORD
  5
3321
102
{ACAD_REACTORS
330
331F
102
}
330
331F
100
AcDbXrecord
 90
       70
  0
XRECORD
  5
3339
102
{ACAD_REACTORS
330
331F
102
}
330
331F
100
AcDbXrecord
340
0
  0
XRECORD
  5
333F
102
{ACAD_REACTORS
330
331F
102
}
330
331F
100
AcDbXrecord
 10
0.0
 20
0.0
 30
0.0
  0
XRECORD
  5
333B
102
{ACAD_REACTORS
330
331F
102
}
330
331F
100
AcDbXrecord
 10
0.0
 20
0.0
 30
0.0
  0
XRECORD
  5
333E
102
{ACAD_REACTORS
330
331F
102
}
330
331F
100
AcDbXrecord
 10
0.0
 20
0.0
 30
0.0
  0
XRECORD
  5
333C
102
{ACAD_REACTORS
330
331F
102
}
330
331F
100
AcDbXrecord
 10
0.0
 20
0.0
 30
0.0
  0
XRECORD
  5
333D
102
{ACAD_REACTORS
330
331F
102
}
330
331F
100
AcDbXrecord
 10
0.0
 20
0.0
 30
0.0
  0
XRECORD
  5
333A
102
{ACAD_REACTORS
330
331F
102
}
330
331F
100
AcDbXrecord
 10
0.0
 20
0.0
 30
0.0
  0
XRECORD
  5
3337
102
{ACAD_REACTORS
330
331F
102
}
330
331F
100
AcDbXrecord
340
0
  0
XRECORD
  5
3338
102
{ACAD_REACTORS
330
331F
102
}
330
331F
100
AcDbXrecord
 70
     0
  0
XRECORD
  5
332B
102
{ACAD_REACTORS
330
331F
102
}
330
331F
100
AcDbXrecord
  1
{010145FB-CF84-47CF-B925-7DE4C422B3C3}
  0
DICTIONARYVAR
  5
219
102
{ACAD_REACTORS
330
216
102
}
330
216
100
DictionaryVariables
280
     0
  1
1
  0
DICTIONARYVAR
  5
218
102
{ACAD_REACTORS
330
216
102
}
330
216
100
DictionaryVariables
280
     0
  1
1
  0
DICTIONARYVAR
  5
217
102
{ACAD_REACTORS
330
216
102
}
330
216
100
DictionaryVariables
280
     0
  1
1
  0
DICTIONARY
  5
4A
102
{ACAD_REACTORS
330
45
102
}
330
45
100
AcDbDictionary
  0
DICTIONARY
  5
42
102
{ACAD_REACTORS
330
41
102
}
330
41
100
AcDbDictionary
  3
DWGSETTINGS
350
43
  0
LAYER_INDEX
  5
1F3
102
{ACAD_REACTORS
330
1F2
102
}
330
1F2
100
AcDbIndex
 40
2453767.617997905
100
AcDbLayerIndex
  8
0
360
1F4
 90
        0
  8
Defpoints
360
210
 90
        0
  8
1
360
29B
 90
       72
  8
2
360
1EC1
 90
        3
  8
4
360
1EC2
 90
        5
  8
6
360
1EC3
 90
        4
  8
SK1
360
1EC4
 90
       13
  8
SK2
360
1EC5
 90
        2
  8
SK3
360
1EC6
 90
        8
  8
CUT
360
1EC7
 90
       14
  8
NOCUT
360
1EC8
 90
        7
  0
XRECORD
  5
43
102
{ACAD_REACTORS
330
42
102
}
330
42
100
AcDbXrecord
  1
VERSION
140
15.0
  1
PRODUCT
  2
AutoCAD Mechanical 2000
  0
IDBUFFER
  5
1F4
330
0
100
AcDbIdBuffer
  0
IDBUFFER
  5
210
330
0
100
AcDbIdBuffer
  0
IDBUFFER
  5
29B
330
0
100
AcDbIdBuffer
330
3148
330
3149
330
314A
330
314B
330
314C
330
314E
330
3150
330
3152
330
3154
330
3156
330
315D
330
315F
330
3175
330
3176
330
3177
330
3178
330
317C
330
317D
330
317E
330
317F
330
3188
330
3193
330
3194
330
3196
330
3197
330
32DE
330
32DF
330
32E0
330
32E1
330
32E2
330
32E9
330
32EA
330
32EB
330
32EC
330
32ED
330
2471
330
2476
330
247F
330
2481
330
2B36
330
2B4C
330
3122
330
3123
330
3125
330
3127
330
3129
330
312A
330
312D
330
312F
330
3130
330
3131
330
3132
330
3133
330
3134
330
3135
330
3136
330
3138
330
3139
330
313A
330
313B
330
313C
330
313D
330
313E
330
313F
330
3140
330
3141
330
3142
330
3143
330
3144
330
3145
330
3146
330
3147
  0
IDBUFFER
  5
1EC1
330
0
100
AcDbIdBuffer
330
3213
330
3273
330
329B
  0
IDBUFFER
  5
1EC2
330
0
100
AcDbIdBuffer
330
31A0
330
31A1
330
31A2
330
265C
330
319F
  0
IDBUFFER
  5
1EC3
330
0
100
AcDbIdBuffer
330
3237
330
2FD4
330
3137
330
3236
  0
IDBUFFER
  5
1EC4
330
0
100
AcDbIdBuffer
330
317B
330
2473
330
2474
330
2477
330
2659
330
265A
330
265B
330
3158
330
3159
330
315A
330
315B
330
3179
330
317A
  0
IDBUFFER
  5
1EC5
330
0
100
AcDbIdBuffer
330
2480
330
2483
  0
IDBUFFER
  5
1EC6
330
0
100
AcDbIdBuffer
330
2472
330
2475
330
2478
330
2479
330
247B
330
247C
330
247D
330
247E
  0
IDBUFFER
  5
1EC7
330
0
100
AcDbIdBuffer
330
3120
330
3121
330
3124
330
3126
330
3128
330
312B
330
312C
330
312E
330
314D
330
314F
330
3151
330
3153
330
3155
330
3157
  0
IDBUFFER
  5
1EC8
330
0
100
AcDbIdBuffer
330
31A5
330
31A7
330
31AE
330
31B0
330
31B1
330
31B8
330
31BC
  0
ENDSEC
  0
EOF
