  0
SECTION
  2
HEADER
  9
$ACADVER
  1
AC1014
  9
$ACADMAINTVER
 70
     9
  9
$DWGCODEPAGE
  3
ANSI_1252
  9
$INSBASE
 10
0.0
 20
0.0
 30
0.0
  9
$EXTMIN
 10
-40.22676482739302
 20
-43.7807836407776
 30
-0.0000000349181948
  9
$EXTMAX
 10
109.4884328483766
 20
79.84311598013312
 30
0.0000000814935746
  9
$LIMMIN
 10
0.0
 20
0.0
  9
$LIMMAX
 10
420.0
 20
297.0
  9
$ORTHOMODE
 70
     0
  9
$REGENMODE
 70
     1
  9
$FILLMODE
 70
     1
  9
$QTEXTMODE
 70
     0
  9
$MIRRTEXT
 70
     1
  9
$DRAGMODE
 70
     2
  9
$LTSCALE
 40
1.0
  9
$OSMODE
 70
  2599
  9
$ATTMODE
 70
     1
  9
$TEXTSIZE
 40
2.5
  9
$TRACEWID
 40
1.0
  9
$TEXTSTYLE
  7
STANDARD
  9
$CLAYER
  8
AM_0
  9
$CELTYPE
  6
BYLAYER
  9
$CECOLOR
 62
   256
  9
$CELTSCALE
 40
1.0
  9
$DELOBJ
 70
     1
  9
$DISPSILH
 70
     0
  9
$DIMSCALE
 40
1.0
  9
$DIMASZ
 40
2.5
  9
$DIMEXO
 40
0.0
  9
$DIMDLI
 40
10.0
  9
$DIMRND
 40
0.0
  9
$DIMDLE
 40
0.0
  9
$DIMEXE
 40
1.0
  9
$DIMTP
 40
0.1
  9
$DIMTM
 40
0.1
  9
$DIMTXT
 40
3.5
  9
$DIMCEN
 40
0.0
  9
$DIMTSZ
 40
0.0
  9
$DIMTOL
 70
     0
  9
$DIMLIM
 70
     0
  9
$DIMTIH
 70
     0
  9
$DIMTOH
 70
     0
  9
$DIMSE1
 70
     0
  9
$DIMSE2
 70
     0
  9
$DIMTAD
 70
     1
  9
$DIMZIN
 70
     8
  9
$DIMBLK
  1

  9
$DIMASO
 70
     1
  9
$DIMSHO
 70
     1
  9
$DIMPOST
  1

  9
$DIMAPOST
  1
"
  9
$DIMALT
 70
     0
  9
$DIMALTD
 70
     2
  9
$DIMALTF
 40
0.0393701
  9
$DIMLFAC
 40
1.0
  9
$DIMTOFL
 70
     1
  9
$DIMTVP
 40
0.0
  9
$DIMTIX
 70
     0
  9
$DIMSOXD
 70
     0
  9
$DIMSAH
 70
     0
  9
$DIMBLK1
  1

  9
$DIMBLK2
  1

  9
$DIMSTYLE
  2
AM_DIN
  9
$DIMCLRD
 70
   256
  9
$DIMCLRE
 70
   256
  9
$DIMCLRT
 70
     2
  9
$DIMTFAC
 40
0.71
  9
$DIMGAP
 40
1.5
  9
$DIMJUST
 70
     0
  9
$DIMSD1
 70
     0
  9
$DIMSD2
 70
     0
  9
$DIMTOLJ
 70
     0
  9
$DIMTZIN
 70
     8
  9
$DIMALTZ
 70
     0
  9
$DIMALTTZ
 70
     0
  9
$DIMFIT
 70
     3
  9
$DIMUPT
 70
     0
  9
$DIMUNIT
 70
     2
  9
$DIMDEC
 70
     2
  9
$DIMTDEC
 70
     2
  9
$DIMALTU
 70
     2
  9
$DIMALTTD
 70
     2
  9
$DIMTXSTY
  7
STANDARD
  9
$DIMAUNIT
 70
     0
  9
$LUNITS
 70
     2
  9
$LUPREC
 70
     2
  9
$SKETCHINC
 40
1.0
  9
$FILLETRAD
 40
3.0
  9
$AUNITS
 70
     0
  9
$AUPREC
 70
     0
  9
$MENU
  1
.
  9
$ELEVATION
 40
0.0
  9
$PELEVATION
 40
0.0
  9
$THICKNESS
 40
0.0
  9
$LIMCHECK
 70
     0
  9
$BLIPMODE
 70
     0
  9
$CHAMFERA
 40
2.5
  9
$CHAMFERB
 40
2.5
  9
$CHAMFERC
 40
20.0
  9
$CHAMFERD
 40
0.0
  9
$SKPOLY
 70
     0
  9
$TDCREATE
 40
2453599.324339374
  9
$TDUPDATE
 40
2453767.607384965
  9
$TDINDWG
 40
0.0495065046
  9
$TDUSRTIMER
 40
0.0494821644
  9
$USRTIMER
 70
     1
  9
$ANGBASE
 50
0.0
  9
$ANGDIR
 70
     0
  9
$PDMODE
 70
     0
  9
$PDSIZE
 40
0.0
  9
$PLINEWID
 40
0.0
  9
$COORDS
 70
     0
  9
$SPLFRAME
 70
     0
  9
$SPLINETYPE
 70
     6
  9
$SPLINESEGS
 70
     8
  9
$ATTDIA
 70
     1
  9
$ATTREQ
 70
     1
  9
$HANDLING
 70
 22529
  9
$HANDSEED
  5
297D
  9
$SURFTAB1
 70
     6
  9
$SURFTAB2
 70
     6
  9
$SURFTYPE
 70
     6
  9
$SURFU
 70
     6
  9
$SURFV
 70
     6
  9
$UCSNAME
  2

  9
$UCSORG
 10
0.0
 20
0.0
 30
0.0
  9
$UCSXDIR
 10
1.0
 20
0.0
 30
0.0
  9
$UCSYDIR
 10
0.0
 20
1.0
 30
0.0
  9
$PUCSNAME
  2

  9
$PUCSORG
 10
0.0
 20
0.0
 30
0.0
  9
$PUCSXDIR
 10
1.0
 20
0.0
 30
0.0
  9
$PUCSYDIR
 10
0.0
 20
1.0
 30
0.0
  9
$USERI1
 70
     0
  9
$USERI2
 70
     0
  9
$USERI3
 70
     0
  9
$USERI4
 70
     0
  9
$USERI5
 70
     0
  9
$USERR1
 40
0.0
  9
$USERR2
 40
0.0
  9
$USERR3
 40
0.0
  9
$USERR4
 40
0.0
  9
$USERR5
 40
0.0
  9
$WORLDVIEW
 70
     1
  9
$SHADEDGE
 70
     3
  9
$SHADEDIF
 70
    70
  9
$TILEMODE
 70
     1
  9
$MAXACTVP
 70
    64
  9
$PINSBASE
 10
0.0
 20
0.0
 30
0.0
  9
$PLIMCHECK
 70
     0
  9
$PEXTMIN
 10
1.000000000000000E+20
 20
1.000000000000000E+20
 30
1.000000000000000E+20
  9
$PEXTMAX
 10
-1.000000000000000E+20
 20
-1.000000000000000E+20
 30
-1.000000000000000E+20
  9
$PLIMMIN
 10
0.0
 20
0.0
  9
$PLIMMAX
 10
420.0
 20
297.0
  9
$UNITMODE
 70
     0
  9
$VISRETAIN
 70
     1
  9
$PLINEGEN
 70
     0
  9
$PSLTSCALE
 70
     1
  9
$TREEDEPTH
 70
  3020
  9
$PICKSTYLE
 70
     0
  9
$CMLSTYLE
  2
STANDARD
  9
$CMLJUST
 70
     0
  9
$CMLSCALE
 40
20.0
  9
$PROXYGRAPHICS
 70
     1
  9
$MEASUREMENT
 70
     1
  0
ENDSEC
  0
SECTION
  2
CLASSES
  0
CLASS
  1
ACDBDICTIONARYWDFLT
  2
AcDbDictionaryWithDefault
  3
AutoCAD 2000
 90
        0
280
     0
281
     0
  0
CLASS
  1
ACDBPLACEHOLDER
  2
AcDbPlaceHolder
  3
AutoCAD 2000
 90
        0
280
     0
281
     0
  0
CLASS
  1
LAYOUT
  2
AcDbLayout
  3
AutoCAD 2000
 90
        0
280
     0
281
     0
  0
CLASS
  1
ACME_DOCUMENT
  2
AcMeDbDoc
  3
AcMeServices
 90
        0
280
     0
281
     0
  0
CLASS
  1
ACMESCOPE
  2
AcMeScope
  3
AcMeServices
 90
        0
280
     0
281
     0
  0
CLASS
  1
ACMECOMMANDHISTORY
  2
AcMeCommandHistory
  3
AcMeServices
 90
        0
280
     0
281
     0
  0
CLASS
  1
ACIMSYSVARMAN
  2
AcImSysVarManager
  3
AcMeServices
 90
        0
280
     0
281
     0
  0
CLASS
  1
ACIMREALSYSVAR
  2
AcImRealSysVar
  3
AcMeServices
 90
        0
280
     0
281
     0
  0
CLASS
  1
ACIMINTSYSVAR
  2
AcImIntSysVar
  3
AcMeServices
 90
        0
280
     0
281
     0
  0
CLASS
  1
ACMEDRAWINGMAN
  2
AcMeDrawingMan
  3
AcMeServices
 90
        0
280
     0
281
     0
  0
CLASS
  1
ACMEVIEW
  2
AcMeView
  3
AcMeServices
 90
        0
280
     0
281
     0
  0
CLASS
  1
ACDBENTITYCACHE
  2
AcMeEntityCache
  3
AcMeServices
 90
        0
280
     0
281
     0
  0
CLASS
  1
GSMANAGER
  2
AcMeGSManager
  3
AcMeServices
 90
        0
280
     0
281
     0
  0
CLASS
  1
AMDTINTERNALREACTOR
  2
AmdtInternalReactor
  3
AcMeServices
 90
        0
280
     0
281
     0
  0
CLASS
  1
ACMESTATEMGR
  2
AcMeStateMgr
  3
AcMeServices
 90
        0
280
     0
281
     0
  0
CLASS
  1
ACGREFMASTER
  2
AcGrefMaster
  3
AcAttribServices
 90
        0
280
     0
281
     0
  0
CLASS
  1
ACME_DATABASE
  2
AcMeDbDatabase
  3
AcMeServices
 90
        0
280
     0
281
     0
  0
CLASS
  1
ACRFINSADJUSTERMGR
  2
AcRfInsAdjusterMgr
  3
AcMeServices
 90
        0
280
     0
281
     0
  0
CLASS
  1
ACGREFACADMASTER
  2
AcGrefacadMaster
  3
AcGrefServices
 90
        0
280
     0
281
     0
  0
CLASS
  1
AMIMASTER
  2
AmiMaster
  3
AmiServices
 90
        0
280
     0
281
     0
  0
CLASS
  1
AMGSETTINGSOBJ
  2
AmgSettingsObj
  3
"AcadM|Product Description: AutoCAD Mechanical 2000|Company: Autodesk"
 90
        0
280
     0
281
     0
  0
CLASS
  1
ACMDATADICTIONARY
  2
AcmDataDictionary
  3
"AcmSymBB|Product Description: AutoCAD Mechanical 2000|Company: Autodesk"
 90
        0
280
     0
281
     0
  0
CLASS
  1
ACMDATAENTRYBLOCK
  2
AcmDataEntryBlock
  3
"AcmSymBB|Product Description: AutoCAD Mechanical 2000|Company: Autodesk"
 90
        0
280
     0
281
     0
  0
CLASS
  1
ACIMSTRSYSVAR
  2
AcImStrSysVar
  3
AcMeServices
 90
        0
280
     0
281
     0
  0
CLASS
  1
ACMSTANDARDDIN
  2
AcmStandardDIN
  3
"Amdt_StdImp|Product Description: AutoCAD Mechanical 2000|Company: Autodesk"
 90
        0
280
     0
281
     0
  0
CLASS
  1
AMGOBJPROPCFG
  2
AmgObjPropCfg
  3
"AmgLay|Product Description: AutoCAD Mechanical 2000|Company: Autodesk"
 90
        1
280
     0
281
     0
  0
CLASS
  1
AMDTEDGESTANDARDDIN
  2
AmdtEdgeStdDIN
  3
"Amdt_StdImp|Product Description: AutoCAD Mechanical 2000|Company: Autodesk"
 90
        0
280
     0
281
     0
  0
CLASS
  1
ACMSURFSTANDARDDIN
  2
AcmSurfTextStdDIN
  3
"Amdt_StdImp|Product Description: AutoCAD Mechanical 2000|Company: Autodesk"
 90
        0
280
     0
281
     0
  0
CLASS
  1
ACMFCFSTANDARDDIN
  2
AcmFCFStdDIN
  3
"Amdt_StdImp|Product Description: AutoCAD Mechanical 2000|Company: Autodesk"
 90
        0
280
     0
281
     0
  0
CLASS
  1
ACMWELDSTANDARDDIN
  2
AcmWeldingStdDIN
  3
"Amdt_StdImp|Product Description: AutoCAD Mechanical 2000|Company: Autodesk"
 90
        0
280
     0
281
     0
  0
CLASS
  1
ACMIDSTANDARDDIN
  2
AcmIdStdDIN
  3
"Amdt_StdImp|Product Description: AutoCAD Mechanical 2000|Company: Autodesk"
 90
        0
280
     0
281
     0
  0
CLASS
  1
ACMDATUMSTANDARDDIN
  2
AcmDatumStdDIN
  3
"Amdt_StdImp|Product Description: AutoCAD Mechanical 2000|Company: Autodesk"
 90
        0
280
     0
281
     0
  0
CLASS
  1
ACMBOMSTANDARDDIN
  2
AcmBOMStdDIN
  3
"Amdt_StdImp|Product Description: AutoCAD Mechanical 2000|Company: Autodesk"
 90
        0
280
     0
281
     0
  0
CLASS
  1
ACMDETAILSTANDARDDIN
  2
AmdtDetailSymStdDIN
  3
"Amdt_StdImp|Product Description: AutoCAD Mechanical 2000|Company: Autodesk"
 90
        0
280
     0
281
     0
  0
CLASS
  1
ACMSECTIONSTANDARDDIN
  2
AmdtSectionSymStdDIN
  3
"Amdt_StdImp|Product Description: AutoCAD Mechanical 2000|Company: Autodesk"
 90
        0
280
     0
281
     0
  0
CLASS
  1
ACMCENTERLINESTANDARDDIN
  2
AmdtCenterLineStdDIN
  3
"Amdt_StdImp|Product Description: AutoCAD Mechanical 2000|Company: Autodesk"
 90
        0
280
     0
281
     0
  0
CLASS
  1
ACMNOTESTANDARDDIN
  2
AmdtNoteStdDIN
  3
"Amdt_StdImp|Product Description: AutoCAD Mechanical 2000|Company: Autodesk"
 90
        0
280
     0
281
     0
  0
CLASS
  1
ACAMGLAYSTD
  2
AcAmgLayStd
  3
"AcAmgLayStd|Product Description: AutoCAD Mechanical 2000|Company: Autodesk"
 90
        0
280
     0
281
     0
  0
CLASS
  1
ACAMGDIMSTD
  2
AcAmgDimStd
  3
"AcAmgDimStd|Product Description: AutoCAD Mechanical 2000|Company: Autodesk"
 90
        0
280
     0
281
     0
  0
CLASS
  1
ACAMGHOLECHARTSTDDIN
  2
AcAmgHoleChartStdDIN
  3
ACMSYMBB_MODULE_NAME
 90
        0
280
     0
281
     0
  0
CLASS
  1
ACAMGTITLESTD
  2
AcAmgTitleStd
  3
"TITLEAPP"
 90
        0
280
     0
281
     0
  0
CLASS
  1
ACMSTANDARDANSI
  2
AcmStandardANSI
  3
"Amdt_StdImp|Product Description: AutoCAD Mechanical 2000|Company: Autodesk"
 90
        0
280
     0
281
     0
  0
CLASS
  1
ACMSURFSTANDARDANSI
  2
AcmSurfTextStdANSI
  3
"Amdt_StdImp|Product Description: AutoCAD Mechanical 2000|Company: Autodesk"
 90
        0
280
     0
281
     0
  0
CLASS
  1
ACMFCFSTANDARDANSI
  2
AcmFCFStdANSI
  3
"Amdt_StdImp|Product Description: AutoCAD Mechanical 2000|Company: Autodesk"
 90
        0
280
     0
281
     0
  0
CLASS
  1
ACMWELDSTANDARDANSI
  2
AcmWeldingStdANSI
  3
"Amdt_StdImp|Product Description: AutoCAD Mechanical 2000|Company: Autodesk"
 90
        0
280
     0
281
     0
  0
CLASS
  1
ACMIDSTANDARDANSI
  2
AcmIdStdANSI
  3
"Amdt_StdImp|Product Description: AutoCAD Mechanical 2000|Company: Autodesk"
 90
        0
280
     0
281
     0
  0
CLASS
  1
ACMDATUMSTANDARDANSI
  2
AcmDatumStdANSI
  3
"Amdt_StdImp|Product Description: AutoCAD Mechanical 2000|Company: Autodesk"
 90
        0
280
     0
281
     0
  0
CLASS
  1
ACMBOMSTANDARDANSI
  2
AcmBOMStdANSI
  3
"Amdt_StdImp|Product Description: AutoCAD Mechanical 2000|Company: Autodesk"
 90
        0
280
     0
281
     0
  0
CLASS
  1
ACMDETAILSTANDARDANSI
  2
AmdtDetailSymStdANSI
  3
"Amdt_StdImp|Product Description: AutoCAD Mechanical 2000|Company: Autodesk"
 90
        0
280
     0
281
     0
  0
CLASS
  1
ACMSECTIONSTANDARDANSI
  2
AmdtSectionSymStdANSI
  3
"Amdt_StdImp|Product Description: AutoCAD Mechanical 2000|Company: Autodesk"
 90
        0
280
     0
281
     0
  0
CLASS
  1
ACMCENTERLINESTANDARDANSI
  2
AmdtCenterLineStdANSI
  3
"Amdt_StdImp|Product Description: AutoCAD Mechanical 2000|Company: Autodesk"
 90
        0
280
     0
281
     0
  0
CLASS
  1
ACMNOTESTANDARDANSI
  2
AmdtNoteStdANSI
  3
"Amdt_StdImp|Product Description: AutoCAD Mechanical 2000|Company: Autodesk"
 90
        0
280
     0
281
     0
  0
CLASS
  1
ACAMGHOLECHARTSTDANSI
  2
AcAmgHoleChartStdANSI
  3
ACMSYMBB_MODULE_NAME
 90
        0
280
     0
281
     0
  0
CLASS
  1
ACAMGFILTERDAT
  2
AcAmgFilterDat
  3
"AcadM|Product Description: AutoCAD Mechanical 2000|Company: Autodesk"
 90
        0
280
     0
281
     0
  0
CLASS
  1
AMDTFORMULAUPDATEDISPATCHER
  2
AmdtFormulaUpdateDispatcher
  3
AcMeServices
 90
        0
280
     0
281
     0
  0
CLASS
  1
LAYER_INDEX
  2
AcDbLayerIndex
  3
AutoCAD 2000
 90
        0
280
     0
281
     0
  0
CLASS
  1
IDBUFFER
  2
AcDbIdBuffer
  3
AutoCAD 2000
 90
        0
280
     0
281
     0
  0
CLASS
  1
DICTIONARYVAR
  2
AcDbDictionaryVar
  3
AutoCAD 2000
 90
        0
280
     0
281
     0
  0
CLASS
  1
DIMASSOC
  2
AcDbDimAssoc
  3
"AcDbDimAssoc|Product Desc:     AcDim ARX App For Dimension|Company:          Autodesk, Inc.|WEB Address:      www.autodesk.com"
 90
        0
280
     0
281
     0
  0
CLASS
  1
ACMDIMBREAKPERSREACTOR
  2
AcmDimBreakPersReactor
  3
amgDimApp().moduleName()
 90
     1023
280
     0
281
     0
  0
CLASS
  1
ACMSURFSYM
  2
AcmSurfaceTexture
  3
"AcmSymBB|Product Description: AutoCAD Mechanical 2000|Company: Autodesk"
 90
     1023
280
     0
281
     1
  0
CLASS
  1
ACMFCFRAME
  2
AcmFCF
  3
"AcmSymBB|Product Description: AutoCAD Mechanical 2000|Company: Autodesk"
 90
     1023
280
     0
281
     1
  0
CLASS
  1
ACMSTANDARDBSI
  2
AcmStandardBSI
  3
"Amdt_StdImp|Product Description: AutoCAD Mechanical 2000|Company: Autodesk"
 90
        0
280
     0
281
     0
  0
CLASS
  1
ACMSURFSTANDARDBSI
  2
AcmSurfTextStdBSI
  3
"Amdt_StdImp|Product Description: AutoCAD Mechanical 2000|Company: Autodesk"
 90
        0
280
     0
281
     0
  0
CLASS
  1
ACMFCFSTANDARDBSI
  2
AcmFCFStdBSI
  3
"Amdt_StdImp|Product Description: AutoCAD Mechanical 2000|Company: Autodesk"
 90
        0
280
     0
281
     0
  0
CLASS
  1
ACMWELDSTANDARDBSI
  2
AcmWeldingStdBSI
  3
"Amdt_StdImp|Product Description: AutoCAD Mechanical 2000|Company: Autodesk"
 90
        0
280
     0
281
     0
  0
CLASS
  1
ACMIDSTANDARDBSI
  2
AcmIdStdBSI
  3
"Amdt_StdImp|Product Description: AutoCAD Mechanical 2000|Company: Autodesk"
 90
        0
280
     0
281
     0
  0
CLASS
  1
ACMDATUMSTANDARDBSI
  2
AcmDatumStdBSI
  3
"Amdt_StdImp|Product Description: AutoCAD Mechanical 2000|Company: Autodesk"
 90
        0
280
     0
281
     0
  0
CLASS
  1
ACMBOMSTANDARDBSI
  2
AcmBOMStdBSI
  3
"Amdt_StdImp|Product Description: AutoCAD Mechanical 2000|Company: Autodesk"
 90
        0
280
     0
281
     0
  0
CLASS
  1
ACMDETAILSTANDARDBSI
  2
AmdtDetailSymStdBSI
  3
"Amdt_StdImp|Product Description: AutoCAD Mechanical 2000|Company: Autodesk"
 90
        0
280
     0
281
     0
  0
CLASS
  1
ACMSECTIONSTANDARDBSI
  2
AmdtSectionSymStdBSI
  3
"Amdt_StdImp|Product Description: AutoCAD Mechanical 2000|Company: Autodesk"
 90
        0
280
     0
281
     0
  0
CLASS
  1
ACMCENTERLINESTANDARDBSI
  2
AmdtCenterLineStdBSI
  3
"Amdt_StdImp|Product Description: AutoCAD Mechanical 2000|Company: Autodesk"
 90
        0
280
     0
281
     0
  0
CLASS
  1
ACMTHREADLINESTANDARDBSI
  2
AmdtThreadLineStdBSI
  3
"Amdt_StdImp|Product Description: AutoCAD Mechanical 2000|Company: Autodesk"
 90
        0
280
     0
281
     0
  0
CLASS
  1
ACMNOTESTANDARDBSI
  2
AmdtNoteStdBSI
  3
"Amdt_StdImp|Product Description: AutoCAD Mechanical 2000|Company: Autodesk"
 90
        0
280
     0
281
     0
  0
CLASS
  1
ACMSTANDARDISO
  2
AcmStandardISO
  3
"Amdt_StdImp|Product Description: AutoCAD Mechanical 2000|Company: Autodesk"
 90
        0
280
     0
281
     0
  0
CLASS
  1
AMDTEDGESTANDARDISO
  2
AmdtEdgeStdISO
  3
"Amdt_StdImp|Product Description: AutoCAD Mechanical 2000|Company: Autodesk"
 90
        0
280
     0
281
     0
  0
CLASS
  1
ACMSURFSTANDARDISO
  2
AcmSurfTextStdISO
  3
"Amdt_StdImp|Product Description: AutoCAD Mechanical 2000|Company: Autodesk"
 90
        0
280
     0
281
     0
  0
CLASS
  1
ACMFCFSTANDARDISO
  2
AcmFCFStdISO
  3
"Amdt_StdImp|Product Description: AutoCAD Mechanical 2000|Company: Autodesk"
 90
        0
280
     0
281
     0
  0
CLASS
  1
ACMWELDSTANDARDISO
  2
AcmWeldingStdISO
  3
"Amdt_StdImp|Product Description: AutoCAD Mechanical 2000|Company: Autodesk"
 90
        0
280
     0
281
     0
  0
CLASS
  1
ACMIDSTANDARDISO
  2
AcmIdStdISO
  3
"Amdt_StdImp|Product Description: AutoCAD Mechanical 2000|Company: Autodesk"
 90
        0
280
     0
281
     0
  0
CLASS
  1
ACMDATUMSTANDARDISO
  2
AcmDatumStdISO
  3
"Amdt_StdImp|Product Description: AutoCAD Mechanical 2000|Company: Autodesk"
 90
        0
280
     0
281
     0
  0
CLASS
  1
ACMBOMSTANDARDISO
  2
AcmBOMStdISO
  3
"Amdt_StdImp|Product Description: AutoCAD Mechanical 2000|Company: Autodesk"
 90
        0
280
     0
281
     0
  0
CLASS
  1
ACMDETAILSTANDARDISO
  2
AmdtDetailSymStdISO
  3
"Amdt_StdImp|Product Description: AutoCAD Mechanical 2000|Company: Autodesk"
 90
        0
280
     0
281
     0
  0
CLASS
  1
ACMSECTIONSTANDARDISO
  2
AmdtSectionSymStdISO
  3
"Amdt_StdImp|Product Description: AutoCAD Mechanical 2000|Company: Autodesk"
 90
        0
280
     0
281
     0
  0
CLASS
  1
ACMCENTERLINESTANDARDISO
  2
AmdtCenterLineStdISO
  3
"Amdt_StdImp|Product Description: AutoCAD Mechanical 2000|Company: Autodesk"
 90
        0
280
     0
281
     0
  0
CLASS
  1
ACMTHREADLINESTANDARDISO
  2
AmdtThreadLineStdISO
  3
"Amdt_StdImp|Product Description: AutoCAD Mechanical 2000|Company: Autodesk"
 90
        0
280
     0
281
     0
  0
CLASS
  1
ACMNOTESTANDARDISO
  2
AmdtNoteStdISO
  3
"Amdt_StdImp|Product Description: AutoCAD Mechanical 2000|Company: Autodesk"
 90
        0
280
     0
281
     0
  0
CLASS
  1
ACMSTANDARDJIS
  2
AcmStandardJIS
  3
"Amdt_StdImp|Product Description: AutoCAD Mechanical 2000|Company: Autodesk"
 90
        0
280
     0
281
     0
  0
CLASS
  1
ACMSURFSTANDARDJIS
  2
AcmSurfTextStdJIS
  3
"Amdt_StdImp|Product Description: AutoCAD Mechanical 2000|Company: Autodesk"
 90
        0
280
     0
281
     0
  0
CLASS
  1
ACMFCFSTANDARDJIS98
  2
AcmFCFStdJIS98
  3
"Amdt_StdImp|Product Description: AutoCAD Mechanical 2000|Company: Autodesk"
 90
        0
280
     0
281
     0
  0
CLASS
  1
ACMWELDSTANDARDJIS
  2
AcmWeldingStdJIS
  3
"Amdt_StdImp|Product Description: AutoCAD Mechanical 2000|Company: Autodesk"
 90
        0
280
     0
281
     0
  0
CLASS
  1
ACMIDSTANDARDJIS
  2
AcmIdStdJIS
  3
"Amdt_StdImp|Product Description: AutoCAD Mechanical 2000|Company: Autodesk"
 90
        0
280
     0
281
     0
  0
CLASS
  1
ACMDATUMSTANDARDJIS
  2
AcmDatumStdJIS
  3
"Amdt_StdImp|Product Description: AutoCAD Mechanical 2000|Company: Autodesk"
 90
        0
280
     0
281
     0
  0
CLASS
  1
ACMBOMSTANDARDJIS
  2
AcmBOMStdJIS
  3
"Amdt_StdImp|Product Description: AutoCAD Mechanical 2000|Company: Autodesk"
 90
        0
280
     0
281
     0
  0
CLASS
  1
ACMDETAILSTANDARDJIS
  2
AmdtDetailSymStdJIS
  3
"Amdt_StdImp|Product Description: AutoCAD Mechanical 2000|Company: Autodesk"
 90
        0
280
     0
281
     0
  0
CLASS
  1
ACMSECTIONSTANDARDJIS
  2
AmdtSectionSymStdJIS
  3
"Amdt_StdImp|Product Description: AutoCAD Mechanical 2000|Company: Autodesk"
 90
        0
280
     0
281
     0
  0
CLASS
  1
ACMCENTERLINESTANDARDJIS
  2
AmdtCenterLineStdJIS
  3
"Amdt_StdImp|Product Description: AutoCAD Mechanical 2000|Company: Autodesk"
 90
        0
280
     0
281
     0
  0
CLASS
  1
ACMTHREADLINESTANDARDJIS
  2
AmdtThreadLineStdJIS
  3
"Amdt_StdImp|Product Description: AutoCAD Mechanical 2000|Company: Autodesk"
 90
        0
280
     0
281
     0
  0
CLASS
  1
ACMNOTESTANDARDJIS
  2
AmdtNoteStdJIS
  3
"Amdt_StdImp|Product Description: AutoCAD Mechanical 2000|Company: Autodesk"
 90
        0
280
     0
281
     0
  0
CLASS
  1
LONG_TRANSACTION
  2
AcDbLongTransaction
  3
AutoCAD 2000
 90
        0
280
     0
281
     0
  0
CLASS
  1
LWPOLYLINE
  2
AcDbPolyline
  3
AutoCAD 2000
 90
        0
280
     0
281
     1
  0
CLASS
  1
HATCH
  2
AcDbHatch
  3
AutoCAD 2000
 90
        0
280
     0
281
     1
  0
CLASS
  1
XRECORD
  2
AcDbXrecord
  3
AutoCAD 2000
 90
        0
280
     0
281
     0
  0
ENDSEC
  0
SECTION
  2
TABLES
  0
TABLE
  2
VPORT
  5
8
330
0
100
AcDbSymbolTable
 70
     4
  0
VPORT
  5
2956
330
8
100
AcDbSymbolTableRecord
100
AcDbViewportTableRecord
  2
*ACTIVE
 70
     0
 10
0.0
 20
0.0
 11
1.0
 21
1.0
 12
189.8866175863035
 22
126.6096081796111
 13
0.0
 23
0.0
 14
2.5
 24
2.5
 15
10.0
 25
10.0
 16
0.0
 26
0.0
 36
1.0
 17
0.0
 27
0.0
 37
0.0
 40
344.5883901619036
 41
1.716417910447761
 42
50.0
 43
0.0
 44
0.0
 50
0.0
 51
0.0
 71
     0
 72
 10000
 73
     1
 74
     3
 75
     0
 76
     0
 77
     0
 78
     0
  0
ENDTAB
  0
TABLE
  2
LTYPE
  5
5
330
0
100
AcDbSymbolTable
 70
    24
  0
LTYPE
  5
14
330
5
100
AcDbSymbolTableRecord
100
AcDbLinetypeTableRecord
  2
BYBLOCK
 70
     0
  3

 72
    65
 73
     0
 40
0.0
  0
LTYPE
  5
15
330
5
100
AcDbSymbolTableRecord
100
AcDbLinetypeTableRecord
  2
BYLAYER
 70
     0
  3

 72
    65
 73
     0
 40
0.0
  0
LTYPE
  5
16
330
5
100
AcDbSymbolTableRecord
100
AcDbLinetypeTableRecord
  2
CONTINUOUS
 70
     0
  3
Solid line
 72
    65
 73
     0
 40
0.0
  0
LTYPE
  5
50
330
5
100
AcDbSymbolTableRecord
100
AcDbLinetypeTableRecord
  2
AMCONSTR
 70
     0
  3
_______________________
 72
    65
 73
     2
 40
9999.0
 49
9999.0
 74
     0
 49
0.0
 74
     0
  0
LTYPE
  5
55
330
5
100
AcDbSymbolTableRecord
100
AcDbLinetypeTableRecord
  2
AMZIGZAG
 70
     0
  3
/\/-/\/-/\/-/\/-/\/-/\/
 72
    65
 73
     2
 40
11.00009999999999
 49
0.0001
 74
     4
 75
   135
340
54
 46
0.04
 50
0.0
 44
0.0
 45
0.0
 49
-11.0
 74
     0
  0
LTYPE
  5
56
330
5
100
AcDbSymbolTableRecord
100
AcDbLinetypeTableRecord
  2
AM_DIN_F_W050
 70
     0
  3
__ __ __ __ __ __ __ __ __ __ __ __ __ __ __
 72
    65
 73
     2
 40
6.25
 49
4.75
 74
     0
 49
-1.5
 74
     0
  0
LTYPE
  5
57
330
5
100
AcDbSymbolTableRecord
100
AcDbLinetypeTableRecord
  2
AM_DIN_G_W050
 70
     0
  3
____ . ____ . ____ . ____ . ____ . ____ . ____
 72
    65
 73
     4
 40
13.75
 49
9.75
 74
     0
 49
-1.5
 74
     0
 49
1.0
 74
     0
 49
-1.5
 74
     0
  0
LTYPE
  5
58
330
5
100
AcDbSymbolTableRecord
100
AcDbLinetypeTableRecord
  2
AM_DIN_K_W050
 70
     0
  3
_____ . . _____ . . _____ . . ____ .. ____
 72
    65
 73
     6
 40
16.25
 49
9.75
 74
     0
 49
-1.5
 74
     0
 49
1.0
 74
     0
 49
-1.5
 74
     0
 49
1.0
 74
     0
 49
-1.5
 74
     0
  0
LTYPE
  5
59
330
5
100
AcDbSymbolTableRecord
100
AcDbLinetypeTableRecord
  2
AM_DIN_G_W050X2
 70
     0
  3
__ . __ . __ . __ . __ . __
 72
    65
 73
     4
 40
6.875
 49
4.75
 74
     0
 49
-0.875
 74
     0
 49
0.375
 74
     0
 49
-0.875
 74
     0
  0
LTYPE
  5
5A
330
5
100
AcDbSymbolTableRecord
100
AcDbLinetypeTableRecord
  2
AM_DIN_F_W050X2
 70
     0
  3
 _ _ _ _ _ _ _ _ _ _ _ _
 72
    65
 73
     2
 40
3.125
 49
2.25
 74
     0
 49
-0.875
 74
     0
  0
LTYPE
  5
68
330
5
100
AcDbSymbolTableRecord
100
AcDbLinetypeTableRecord
  2
ACDINWELD
 70
     0
  3
_ _ _ _ _
 72
    65
 73
     2
 40
2.0
 49
2.0
 74
     0
 49
-1.0
 74
     0
  0
LTYPE
  5
69
330
5
100
AcDbSymbolTableRecord
100
AcDbLinetypeTableRecord
  2
ACDINTGB
 70
     0
  3
__ . . __ . .
 72
    65
 73
     6
 40
9.0
 49
4.0
 74
     0
 49
-1.0
 74
     0
 49
1.0
 74
     0
 49
-1.0
 74
     0
 49
1.0
 74
     0
 49
-1.0
 74
     0
  0
LTYPE
  5
6A
330
5
100
AcDbSymbolTableRecord
100
AcDbLinetypeTableRecord
  2
ACDINTGL
 70
     0
  3
_ _ _ _ _
 72
    65
 73
     2
 40
3.0
 49
2.0
 74
     0
 49
-1.0
 74
     0
  0
LTYPE
  5
6C
330
5
100
AcDbSymbolTableRecord
100
AcDbLinetypeTableRecord
  2
CENTER
 70
     0
  3
__ . __
 72
    65
 73
     4
 40
7.0
 49
4.0
 74
     0
 49
-1.0
 74
     0
 49
1.0
 74
     0
 49
-1.0
 74
     0
  0
LTYPE
  5
1E2C
330
5
100
AcDbSymbolTableRecord
100
AcDbLinetypeTableRecord
  2
PHANTOM2
 70
     0
  3
Phantom (.5x) ___ _ _ ___ _ _ ___ _ _ ___ _ _
 72
    65
 73
     6
 40
1.25
 49
0.625
 74
     0
 49
-0.125
 74
     0
 49
0.125
 74
     0
 49
-0.125
 74
     0
 49
0.125
 74
     0
 49
-0.125
 74
     0
  0
LTYPE
  5
1E2D
330
5
100
AcDbSymbolTableRecord
100
AcDbLinetypeTableRecord
  2
ACANSTGB
 70
     0
  3
__ . . __ . .
 72
    65
 73
     6
 40
0.35433070866
 49
0.15748031496
 74
     0
 49
-0.03937007874
 74
     0
 49
0.03937007874
 74
     0
 49
-0.03937007874
 74
     0
 49
0.03937007874
 74
     0
 49
-0.03937007874
 74
     0
  0
LTYPE
  5
1E2E
330
5
100
AcDbSymbolTableRecord
100
AcDbLinetypeTableRecord
  2
ACANSTGL
 70
     0
  3
_ _ _ _ _
 72
    65
 73
     2
 40
0.11811023622
 49
0.07874015748
 74
     0
 49
-0.03937007874
 74
     0
  0
LTYPE
  5
1E2F
330
5
100
AcDbSymbolTableRecord
100
AcDbLinetypeTableRecord
  2
DASHED
 70
     0
  3
__ __ __ __ __ __ __ __ __ __ __ __ __ __ __ __
 72
    65
 73
     2
 40
19.05
 49
12.7
 74
     0
 49
-6.349999999999998
 74
     0
  0
LTYPE
  5
2513
330
5
100
AcDbSymbolTableRecord
100
AcDbLinetypeTableRecord
  2
ACJISTGB
 70
     0
  3
__ . . __ . .
 72
    65
 73
     6
 40
9.0
 49
4.0
 74
     0
 49
-1.0
 74
     0
 49
1.0
 74
     0
 49
-1.0
 74
     0
 49
1.0
 74
     0
 49
-1.0
 74
     0
  0
LTYPE
  5
2514
330
5
100
AcDbSymbolTableRecord
100
AcDbLinetypeTableRecord
  2
ACJISTGL
 70
     0
  3
_ _ _ _ _
 72
    65
 73
     2
 40
3.0
 49
2.0
 74
     0
 49
-1.0
 74
     0
  0
LTYPE
  5
2515
330
5
100
AcDbSymbolTableRecord
100
AcDbLinetypeTableRecord
  2
ACBSIWELD
 70
     0
  3
_ _ _ _ _
 72
    65
 73
     2
 40
2.0
 49
2.0
 74
     0
 49
-1.0
 74
     0
  0
LTYPE
  5
2516
330
5
100
AcDbSymbolTableRecord
100
AcDbLinetypeTableRecord
  2
ACBSITGB
 70
     0
  3
__ . . __ . .
 72
    65
 73
     6
 40
9.0
 49
4.0
 74
     0
 49
-1.0
 74
     0
 49
1.0
 74
     0
 49
-1.0
 74
     0
 49
1.0
 74
     0
 49
-1.0
 74
     0
  0
LTYPE
  5
2517
330
5
100
AcDbSymbolTableRecord
100
AcDbLinetypeTableRecord
  2
ACBSITGL
 70
     0
  3
_ _ _ _ _
 72
    65
 73
     2
 40
3.0
 49
2.0
 74
     0
 49
-1.0
 74
     0
  0
LTYPE
  5
2518
330
5
100
AcDbSymbolTableRecord
100
AcDbLinetypeTableRecord
  2
ACISOWELD
 70
     0
  3
_ _ _ _ _
 72
    65
 73
     2
 40
2.0
 49
2.0
 74
     0
 49
-1.0
 74
     0
  0
LTYPE
  5
2519
330
5
100
AcDbSymbolTableRecord
100
AcDbLinetypeTableRecord
  2
ACISOTGB
 70
     0
  3
__ . . __ . .
 72
    65
 73
     6
 40
9.0
 49
4.0
 74
     0
 49
-1.0
 74
     0
 49
1.0
 74
     0
 49
-1.0
 74
     0
 49
1.0
 74
     0
 49
-1.0
 74
     0
  0
LTYPE
  5
251A
330
5
100
AcDbSymbolTableRecord
100
AcDbLinetypeTableRecord
  2
ACISOTGL
 70
     0
  3
_ _ _ _ _
 72
    65
 73
     2
 40
3.0
 49
2.0
 74
     0
 49
-1.0
 74
     0
  0
ENDTAB
  0
TABLE
  2
LAYER
  5
2
330
0
100
AcDbSymbolTable
 70
    12
  0
LAYER
  5
10
330
2
100
AcDbSymbolTableRecord
100
AcDbLayerTableRecord
  2
0
 70
     0
 62
     7
  6
CONTINUOUS
  0
LAYER
  5
263
330
2
100
AcDbSymbolTableRecord
100
AcDbLayerTableRecord
  2
DEFPOINTS
 70
     0
 62
     7
  6
CONTINUOUS
  0
LAYER
  5
1E30
330
2
100
AcDbSymbolTableRecord
100
AcDbLayerTableRecord
  2
1
 70
     0
 62
     4
  6
CONTINUOUS
  0
LAYER
  5
1E31
330
2
100
AcDbSymbolTableRecord
100
AcDbLayerTableRecord
  2
2
 70
     0
 62
     7
  6
CONTINUOUS
  0
LAYER
  5
1E32
330
2
100
AcDbSymbolTableRecord
100
AcDbLayerTableRecord
  2
4
 70
     0
 62
     2
  6
CENTER
  0
LAYER
  5
1E33
330
2
100
AcDbSymbolTableRecord
100
AcDbLayerTableRecord
  2
6
 70
     0
 62
     5
  6
CONTINUOUS
  0
LAYER
  5
1E34
330
2
100
AcDbSymbolTableRecord
100
AcDbLayerTableRecord
  2
SK1
 70
     0
 62
     4
  6
CONTINUOUS
  0
LAYER
  5
1E35
330
2
100
AcDbSymbolTableRecord
100
AcDbLayerTableRecord
  2
SK2
 70
     0
 62
     7
  6
CONTINUOUS
  0
LAYER
  5
1E36
330
2
100
AcDbSymbolTableRecord
100
AcDbLayerTableRecord
  2
SK3
 70
     0
 62
     1
  6
DASHED
  0
LAYER
  5
1E37
330
2
100
AcDbSymbolTableRecord
100
AcDbLayerTableRecord
  2
CUT
 70
     0
 62
     1
  6
CONTINUOUS
  0
LAYER
  5
1E38
330
2
100
AcDbSymbolTableRecord
100
AcDbLayerTableRecord
  2
NOCUT
 70
     0
 62
     7
  6
CONTINUOUS
  0
LAYER
  5
2860
330
2
100
AcDbSymbolTableRecord
100
AcDbLayerTableRecord
  2
AM_0
 70
     0
 62
     7
  6
CONTINUOUS
  0
ENDTAB
  0
TABLE
  2
STYLE
  5
3
330
0
100
AcDbSymbolTable
 70
    12
  0
STYLE
  5
11
330
3
100
AcDbSymbolTableRecord
100
AcDbTextStyleTableRecord
  2
STANDARD
 70
     0
 40
0.0
 41
1.0
 50
0.0
 71
     0
 42
2.5
  3
ISOCP.SHX
  4

  0
STYLE
  5
54
330
3
100
AcDbSymbolTableRecord
100
AcDbTextStyleTableRecord
  2

 70
     1
 40
0.0
 41
1.0
 50
0.0
 71
     0
 42
2.5
  3
ltypeshp.shx
  4

  0
STYLE
  5
5B
330
3
100
AcDbSymbolTableRecord
100
AcDbTextStyleTableRecord
  2
ACDINTS
 70
     0
 40
1.0
 41
1.0
 50
0.0
 71
     0
 42
2.5
  3
isocp.shx
  4

  0
STYLE
  5
67
330
3
100
AcDbSymbolTableRecord
100
AcDbTextStyleTableRecord
  2
ACDINGDT
 70
     0
 40
0.0
 41
1.0
 50
0.0
 71
     0
 42
2.5
  3
amgdt.shx
  4

  0
STYLE
  5
1E39
330
3
100
AcDbSymbolTableRecord
100
AcDbTextStyleTableRecord
  2
ACANSTS
 70
     0
 40
1.0
 41
1.0
 50
0.0
 71
     0
 42
0.2
  3
romans.shx
  4

  0
STYLE
  5
1E3A
330
3
100
AcDbSymbolTableRecord
100
AcDbTextStyleTableRecord
  2
ACANSGDT
 70
     0
 40
0.0
 41
1.0
 50
0.0
 71
     0
 42
0.2
  3
amgdtans.shx
  4

  0
STYLE
  5
251D
330
3
100
AcDbSymbolTableRecord
100
AcDbTextStyleTableRecord
  2
ACJISTS
 70
     0
 40
1.0
 41
1.0
 50
0.0
 71
     0
 42
3.5
  3
isocp.shx
  4
bigfont.shx
  0
STYLE
  5
251E
330
3
100
AcDbSymbolTableRecord
100
AcDbTextStyleTableRecord
  2
ACJISGDT
 70
     0
 40
0.0
 41
1.0
 50
0.0
 71
     0
 42
3.5
  3
amgdt.shx
  4

  0
STYLE
  5
251F
330
3
100
AcDbSymbolTableRecord
100
AcDbTextStyleTableRecord
  2
ACBSITS
 70
     0
 40
1.0
 41
1.0
 50
0.0
 71
     0
 42
3.5
  3
isocp.shx
  4

  0
STYLE
  5
2520
330
3
100
AcDbSymbolTableRecord
100
AcDbTextStyleTableRecord
  2
ACBSIGDT
 70
     0
 40
0.0
 41
1.0
 50
0.0
 71
     0
 42
3.5
  3
amgdt.shx
  4

  0
STYLE
  5
2521
330
3
100
AcDbSymbolTableRecord
100
AcDbTextStyleTableRecord
  2
ACISOTS
 70
     0
 40
1.0
 41
1.0
 50
0.0
 71
     0
 42
3.5
  3
isocp.shx
  4

  0
STYLE
  5
2522
330
3
100
AcDbSymbolTableRecord
100
AcDbTextStyleTableRecord
  2
ACISOGDT
 70
     0
 40
0.0
 41
1.0
 50
0.0
 71
     0
 42
3.5
  3
amgdt.shx
  4

  0
ENDTAB
  0
TABLE
  2
VIEW
  5
6
330
0
100
AcDbSymbolTable
 70
     0
  0
ENDTAB
  0
TABLE
  2
UCS
  5
7
330
0
100
AcDbSymbolTable
 70
     0
  0
ENDTAB
  0
TABLE
  2
APPID
  5
9
330
0
100
AcDbSymbolTable
 70
    59
  0
APPID
  5
12
330
9
100
AcDbSymbolTableRecord
100
AcDbRegAppTableRecord
  2
ACAD
 70
     0
  0
APPID
  5
2C
330
9
100
AcDbSymbolTableRecord
100
AcDbRegAppTableRecord
  2
MCAD_NO_VIS
 70
     0
  0
APPID
  5
2D
330
9
100
AcDbSymbolTableRecord
100
AcDbRegAppTableRecord
  2
ACAD_TEMP_GRAPHIC
 70
     0
  0
APPID
  5
3E
330
9
100
AcDbSymbolTableRecord
100
AcDbRegAppTableRecord
  2
ACATTRIBSERVICES
 70
     0
  0
APPID
  5
29A
330
9
100
AcDbSymbolTableRecord
100
AcDbRegAppTableRecord
  2
GENIUS_GENDIMSH_14
 70
     0
  0
APPID
  5
588
330
9
100
AcDbSymbolTableRecord
100
AcDbRegAppTableRecord
  2
GENIUS12
 70
     0
  0
APPID
  5
589
330
9
100
AcDbSymbolTableRecord
100
AcDbRegAppTableRecord
  2
GENIUS_GENOENT_13
 70
     0
  0
APPID
  5
58A
330
9
100
AcDbSymbolTableRecord
100
AcDbRegAppTableRecord
  2
GENIUS_GENODEF_13
 70
     0
  0
APPID
  5
58B
330
9
100
AcDbSymbolTableRecord
100
AcDbRegAppTableRecord
  2
GENIUS_GENOBJ-N-RSBK_13
 70
     0
  0
APPID
  5
58C
330
9
100
AcDbSymbolTableRecord
100
AcDbRegAppTableRecord
  2
GENIUS_GENOBJ-N-DIM12_13
 70
     0
  0
APPID
  5
58D
330
9
100
AcDbSymbolTableRecord
100
AcDbRegAppTableRecord
  2
GENIUS_GENSCALE_13
 70
     0
  0
APPID
  5
58E
330
9
100
AcDbSymbolTableRecord
100
AcDbRegAppTableRecord
  2
GENIUS_GENCFG_13
 70
     0
  0
APPID
  5
58F
330
9
100
AcDbSymbolTableRecord
100
AcDbRegAppTableRecord
  2
GENIUS_GENCFG0_13
 70
     0
  0
APPID
  5
590
330
9
100
AcDbSymbolTableRecord
100
AcDbRegAppTableRecord
  2
GENIUS_GENCFG1_13
 70
     0
  0
APPID
  5
591
330
9
100
AcDbSymbolTableRecord
100
AcDbRegAppTableRecord
  2
GENIUS_GENCFG2_13
 70
     0
  0
APPID
  5
592
330
9
100
AcDbSymbolTableRecord
100
AcDbRegAppTableRecord
  2
GENIUS_GENCFG3_13
 70
     0
  0
APPID
  5
593
330
9
100
AcDbSymbolTableRecord
100
AcDbRegAppTableRecord
  2
GENIUS_GENCFG4_13
 70
     0
  0
APPID
  5
594
330
9
100
AcDbSymbolTableRecord
100
AcDbRegAppTableRecord
  2
GENIUS_GEVCFG0_13
 70
     0
  0
APPID
  5
595
330
9
100
AcDbSymbolTableRecord
100
AcDbRegAppTableRecord
  2
GENIUS_GENOBJ-F-SUF_13
 70
     0
  0
APPID
  5
596
330
9
100
AcDbSymbolTableRecord
100
AcDbRegAppTableRecord
  2
GENIUS_GEFCFG0_13
 70
     0
  0
APPID
  5
597
330
9
100
AcDbSymbolTableRecord
100
AcDbRegAppTableRecord
  2
GEV_VCCNULL_SWITCH_OFF
 70
     0
  0
APPID
  5
598
330
9
100
AcDbSymbolTableRecord
100
AcDbRegAppTableRecord
  2
GENIUS_GENDTOL_13
 70
     0
  0
APPID
  5
599
330
9
100
AcDbSymbolTableRecord
100
AcDbRegAppTableRecord
  2
GENIUS_GENDIM_13
 70
     0
  0
APPID
  5
59A
330
9
100
AcDbSymbolTableRecord
100
AcDbRegAppTableRecord
  2
GENIUS_GE3DTOL_13
 70
     0
  0
APPID
  5
59B
330
9
100
AcDbSymbolTableRecord
100
AcDbRegAppTableRecord
  2
AD_DRAW
 70
     0
  0
APPID
  5
59C
330
9
100
AcDbSymbolTableRecord
100
AcDbRegAppTableRecord
  2
ASURF_PCURVE_APPNAME
 70
     0
  0
APPID
  5
59D
330
9
100
AcDbSymbolTableRecord
100
AcDbRegAppTableRecord
  2
AMG_3D2D_5_0
 70
     0
  0
APPID
  5
59E
330
9
100
AcDbSymbolTableRecord
100
AcDbRegAppTableRecord
  2
DESIGNERASSEMBLIES
 70
     0
  0
APPID
  5
59F
330
9
100
AcDbSymbolTableRecord
100
AcDbRegAppTableRecord
  2
ACADM_DIM_EDIT
 70
     0
  0
APPID
  5
5A0
330
9
100
AcDbSymbolTableRecord
100
AcDbRegAppTableRecord
  2
AMDT_DM_ADJ
 70
     0
  0
APPID
  5
5A1
330
9
100
AcDbSymbolTableRecord
100
AcDbRegAppTableRecord
  2
GENIUS_GENSCREG_15
 70
     0
  0
APPID
  5
5A2
330
9
100
AcDbSymbolTableRecord
100
AcDbRegAppTableRecord
  2
GENIUS_GENOBJ-N-SDF_13
 70
     0
  0
APPID
  5
6E4
330
9
100
AcDbSymbolTableRecord
100
AcDbRegAppTableRecord
  2
GENIUS_GENOBJ-N-FIL_13
 70
     0
  0
APPID
  5
C65
330
9
100
AcDbSymbolTableRecord
100
AcDbRegAppTableRecord
  2
GENIUS_GENHINW_13
 70
     0
  0
APPID
  5
C66
330
9
100
AcDbSymbolTableRecord
100
AcDbRegAppTableRecord
  2
GENIUS_GENOBJ-F-TOLL_13
 70
     0
  0
APPID
  5
C67
330
9
100
AcDbSymbolTableRecord
100
AcDbRegAppTableRecord
  2
GENIUS_GENOREF_13
 70
     0
  0
APPID
  5
C68
330
9
100
AcDbSymbolTableRecord
100
AcDbRegAppTableRecord
  2
GENIUS_GENOLIS_13
 70
     0
  0
APPID
  5
C69
330
9
100
AcDbSymbolTableRecord
100
AcDbRegAppTableRecord
  2
GENIUS_GEFTOLC_13
 70
     0
  0
APPID
  5
C6A
330
9
100
AcDbSymbolTableRecord
100
AcDbRegAppTableRecord
  2
GENIUS_GENOBJ-F-TOL_13
 70
     0
  0
APPID
  5
C6B
330
9
100
AcDbSymbolTableRecord
100
AcDbRegAppTableRecord
  2
GENIUS_GENOBJ-N-RSSYM_13
 70
     0
  0
APPID
  5
C6C
330
9
100
AcDbSymbolTableRecord
100
AcDbRegAppTableRecord
  2
GENIUS_GENSYMENT_13
 70
     0
  0
APPID
  5
C6D
330
9
100
AcDbSymbolTableRecord
100
AcDbRegAppTableRecord
  2
GENIUS_GENSCSYM_13
 70
     0
  0
APPID
  5
1E42
330
9
100
AcDbSymbolTableRecord
100
AcDbRegAppTableRecord
  2
GENIUS_GENBLLY_14
 70
     0
  0
APPID
  5
1E43
330
9
100
AcDbSymbolTableRecord
100
AcDbRegAppTableRecord
  2
GENIUS_GENTRA_14
 70
     0
  0
APPID
  5
1E44
330
9
100
AcDbSymbolTableRecord
100
AcDbRegAppTableRecord
  2
GENIUS_GENOBJ-N-TIT_13
 70
     0
  0
APPID
  5
1E45
330
9
100
AcDbSymbolTableRecord
100
AcDbRegAppTableRecord
  2
GENIUS_GENTITLE_13
 70
     0
  0
APPID
  5
1E46
330
9
100
AcDbSymbolTableRecord
100
AcDbRegAppTableRecord
  2
ACADIGES
 70
     0
  0
APPID
  5
1E47
330
9
100
AcDbSymbolTableRecord
100
AcDbRegAppTableRecord
  2
GENIUS_GENOBJ-N-HTC_13
 70
     0
  0
APPID
  5
1E48
330
9
100
AcDbSymbolTableRecord
100
AcDbRegAppTableRecord
  2
GENIUS_GENHATCH_13
 70
     0
  0
APPID
  5
1E49
330
9
100
AcDbSymbolTableRecord
100
AcDbRegAppTableRecord
  2
GENIUS_GENOBJ-N-CRS_13
 70
     0
  0
APPID
  5
1E4A
330
9
100
AcDbSymbolTableRecord
100
AcDbRegAppTableRecord
  2
GENIUS_GENFIL_13
 70
     0
  0
APPID
  5
1E4B
330
9
100
AcDbSymbolTableRecord
100
AcDbRegAppTableRecord
  2
GENIUS_GENOBJ-N-CHA_13
 70
     0
  0
APPID
  5
1E4C
330
9
100
AcDbSymbolTableRecord
100
AcDbRegAppTableRecord
  2
GENIUS_GENOBJ-N-CEN_13
 70
     0
  0
APPID
  5
2298
330
9
100
AcDbSymbolTableRecord
100
AcDbRegAppTableRecord
  2
AD_SKETCHDIM
 70
     0
  0
APPID
  5
2538
330
9
100
AcDbSymbolTableRecord
100
AcDbRegAppTableRecord
  2
DCO15
 70
     0
  0
APPID
  5
2539
330
9
100
AcDbSymbolTableRecord
100
AcDbRegAppTableRecord
  2
GENIUS_GE3CFG0_13
 70
     0
  0
APPID
  5
253A
330
9
100
AcDbSymbolTableRecord
100
AcDbRegAppTableRecord
  2
GENIUS_GENZVEED_13
 70
     0
  0
APPID
  5
253B
330
9
100
AcDbSymbolTableRecord
100
AcDbRegAppTableRecord
  2
GENIUS_GENSCREG_13
 70
     0
  0
APPID
  5
253C
330
9
100
AcDbSymbolTableRecord
100
AcDbRegAppTableRecord
  2
GENIUS_GENOBJ-F-TOLS_13
 70
     0
  0
ENDTAB
  0
TABLE
  2
DIMSTYLE
  5
A
330
0
100
AcDbSymbolTable
 70
    35
  0
DIMSTYLE
105
6F
102
{ACAD_REACTORS
330
EC1
330
EFE
330
2878
330
28C7
330
28EB
102
}
330
A
100
AcDbSymbolTableRecord
100
AcDbDimStyleTableRecord
  2
AM_DIN
 70
     0
  3

  4
"
  5

  6

  7

 40
1.0
 41
2.5
 42
0.0
 43
10.0
 44
1.0
 45
0.0
 46
0.0
 47
0.1
 48
0.1
140
3.5
141
0.0
142
0.0
143
0.0393701
144
1.0
145
0.0
146
0.71
147
1.5
 71
     0
 72
     0
 73
     0
 74
     0
 75
     0
 76
     0
 77
     1
 78
     8
170
     0
171
     2
172
     1
173
     0
174
     0
175
     0
176
   256
177
   256
178
     2
270
     2
271
     2
272
     2
273
     2
274
     2
340
11
275
     0
280
     0
281
     0
282
     0
283
     0
284
     8
285
     0
286
     0
287
     3
288
     0
  0
DIMSTYLE
105
70
330
A
100
AcDbSymbolTableRecord
100
AcDbDimStyleTableRecord
  2
AM_DIN$3
 70
     0
  3

  4
"
  5

  6

  7

 40
1.0
 41
3.5
 42
0.0
 43
10.0
 44
1.0
 45
0.0
 46
0.0
 47
0.1
 48
0.1
140
3.5
141
0.0
142
0.0
143
0.0393701
144
1.0
145
0.0
146
0.71
147
1.5
 71
     0
 72
     0
 73
     0
 74
     1
 75
     0
 76
     0
 77
     1
 78
     8
170
     0
171
     2
172
     0
173
     0
174
     0
175
     0
176
   256
177
   256
178
     2
270
     2
271
     2
272
     2
273
     2
274
     2
340
11
275
     0
280
     0
281
     0
282
     0
283
     0
284
     8
285
     0
286
     0
287
     0
288
     1
  0
DIMSTYLE
105
71
330
A
100
AcDbSymbolTableRecord
100
AcDbDimStyleTableRecord
  2
AM_DIN$4
 70
     0
  3

  4
"
  5

  6

  7

 40
1.0
 41
3.5
 42
0.0
 43
10.0
 44
1.0
 45
0.0
 46
0.0
 47
0.1
 48
0.1
140
3.5
141
0.0
142
0.0
143
0.0393701
144
1.0
145
0.0
146
0.71
147
1.5
 71
     0
 72
     0
 73
     0
 74
     1
 75
     0
 76
     0
 77
     1
 78
     8
170
     0
171
     2
172
     0
173
     0
174
     0
175
     0
176
   256
177
   256
178
     2
270
     2
271
     2
272
     2
273
     2
274
     2
340
11
275
     0
280
     0
281
     0
282
     0
283
     0
284
     8
285
     0
286
     0
287
     0
288
     1
  0
DIMSTYLE
105
72
330
A
100
AcDbSymbolTableRecord
100
AcDbDimStyleTableRecord
  2
AM_DIN$6
 70
     0
  3

  4
"
  5

  6

  7

 40
1.0
 41
3.5
 42
0.0
 43
0.0
 44
1.0
 45
0.0
 46
0.0
 47
0.1
 48
0.1
140
3.5
141
0.0
142
0.0
143
0.0393701
144
1.0
145
0.0
146
0.71
147
1.5
 71
     0
 72
     0
 73
     0
 74
     0
 75
     0
 76
     0
 77
     0
 78
     8
170
     0
171
     2
172
     1
173
     0
174
     0
175
     0
176
   256
177
   256
178
     2
270
     2
271
     2
272
     2
273
     2
274
     2
340
11
275
     0
280
     0
281
     0
282
     0
283
     0
284
     8
285
     0
286
     0
287
     3
288
     0
  0
DIMSTYLE
105
73
330
A
100
AcDbSymbolTableRecord
100
AcDbDimStyleTableRecord
  2
AM_DIN$7
 70
     0
  3

  4
"
  5

  6

  7

 40
1.0
 41
3.5
 42
0.0
 43
10.0
 44
1.0
 45
0.0
 46
0.0
 47
0.1
 48
0.1
140
3.5
141
0.0
142
0.0
143
0.0393701
144
1.0
145
0.0
146
0.71
147
1.5
 71
     0
 72
     0
 73
     0
 74
     0
 75
     0
 76
     0
 77
     1
 78
     8
170
     0
171
     2
172
     1
173
     0
174
     0
175
     0
176
   256
177
   256
178
     2
270
     2
271
     2
272
     2
273
     2
274
     2
340
11
275
     0
280
     0
281
     0
282
     0
283
     0
284
     8
285
     0
286
     0
287
     3
288
     0
  0
DIMSTYLE
105
74
330
A
100
AcDbSymbolTableRecord
100
AcDbDimStyleTableRecord
  2
AM_DIN$SF
 70
     0
  3

  4
"
  5

  6

  7

 40
1.0
 41
2.5
 42
1.0
 43
10.0
 44
1.0
 45
0.0
 46
0.0
 47
0.1
 48
0.1
140
3.5
141
0.0
142
0.0
143
0.0393701
144
1.0
145
0.0
146
0.71
147
1.5
 71
     0
 72
     0
 73
     0
 74
     0
 75
     1
 76
     1
 77
     1
 78
     8
170
     0
171
     2
172
     1
173
     0
174
     0
175
     0
176
   256
177
   256
178
     2
270
     2
271
     2
272
     3
273
     2
274
     4
340
11
275
     0
280
     0
281
     0
282
     0
283
     0
284
     8
285
     0
286
     0
287
     3
288
     0
  0
DIMSTYLE
105
79
330
A
100
AcDbSymbolTableRecord
100
AcDbDimStyleTableRecord
  2
AM_DIN$SH
 70
     0
  3

  4
"
  5

  6
GENAXEH
  7

 40
1.0
 41
2.5
 42
1.0
 43
10.0
 44
1.0
 45
0.0
 46
0.0
 47
0.1
 48
0.1
140
3.5
141
0.0
142
0.0
143
0.0393701
144
2.0
145
0.0
146
0.71
147
1.5
 71
     0
 72
     0
 73
     0
 74
     0
 75
     1
 76
     1
 77
     1
 78
     8
170
     0
171
     2
172
     1
173
     1
174
     0
175
     0
176
   256
177
   256
178
     2
270
     2
271
     2
272
     3
273
     2
274
     4
340
11
275
     0
280
     0
281
     0
282
     0
283
     0
284
     8
285
     0
286
     0
287
     3
288
     0
  0
DIMSTYLE
105
1E3B
330
A
100
AcDbSymbolTableRecord
100
AcDbDimStyleTableRecord
  2
STANDARD
 70
     0
  3

  4

  5

  6

  7

 40
1.0
 41
0.18
 42
0.0625
 43
0.38
 44
0.18
 45
0.0
 46
0.0
 47
0.0
 48
0.0
140
0.18
141
0.09
142
0.0
143
25.4
144
1.0
145
0.0
146
1.0
147
0.09
 71
     0
 72
     0
 73
     1
 74
     1
 75
     0
 76
     0
 77
     0
 78
     0
170
     0
171
     2
172
     0
173
     0
174
     0
175
     0
176
     0
177
     0
178
     0
270
     2
271
     2
272
     2
273
     2
274
     2
340
11
275
     0
280
     0
281
     0
282
     0
283
     1
284
     8
285
     8
286
     8
287
     5
288
     0
  0
DIMSTYLE
105
1E3C
330
A
100
AcDbSymbolTableRecord
100
AcDbDimStyleTableRecord
  2
AM_ANSI
 70
     0
  3

  4
mm
  5

  6

  7

 40
1.0
 41
0.1
 42
0.0
 43
0.5
 44
0.1
 45
0.0
 46
0.0
 47
0.1
 48
0.1
140
0.12
141
0.0
142
0.0
143
25.4
144
1.0
145
0.0
146
0.71
147
0.06
 71
     0
 72
     0
 73
     1
 74
     1
 75
     0
 76
     0
 77
     0
 78
     7
170
     0
171
     2
172
     0
173
     0
174
     0
175
     0
176
   256
177
   256
178
     2
270
     2
271
     2
272
     2
273
     2
274
     2
340
11
275
     0
280
     0
281
     0
282
     0
283
     1
284
     8
285
     8
286
     8
287
     5
288
     0
  0
DIMSTYLE
105
1E3D
330
A
100
AcDbSymbolTableRecord
100
AcDbDimStyleTableRecord
  2
AM_ANSI$3
 70
     0
  3

  4
mm
  5

  6

  7

 40
1.0
 41
0.1
 42
0.0
 43
0.5
 44
0.1
 45
0.0
 46
0.0
 47
0.1
 48
0.1
140
0.12
141
0.0
142
0.0
143
25.4
144
1.0
145
0.0
146
0.71
147
0.06
 71
     0
 72
     0
 73
     1
 74
     1
 75
     0
 76
     0
 77
     0
 78
     7
170
     0
171
     2
172
     0
173
     0
174
     0
175
     0
176
   256
177
   256
178
     2
270
     2
271
     2
272
     2
273
     2
274
     2
340
11
275
     0
280
     0
281
     0
282
     0
283
     1
284
     8
285
     8
286
     8
287
     5
288
     0
  0
DIMSTYLE
105
1E3E
330
A
100
AcDbSymbolTableRecord
100
AcDbDimStyleTableRecord
  2
AM_ANSI$4
 70
     0
  3

  4
mm
  5

  6

  7

 40
1.0
 41
0.1
 42
0.0
 43
0.5
 44
0.1
 45
0.0
 46
0.0
 47
0.1
 48
0.1
140
0.12
141
0.0
142
0.0
143
25.4
144
1.0
145
0.0
146
0.71
147
0.06
 71
     0
 72
     0
 73
     1
 74
     1
 75
     0
 76
     0
 77
     0
 78
     7
170
     0
171
     2
172
     0
173
     0
174
     0
175
     0
176
   256
177
   256
178
     2
270
     2
271
     2
272
     2
273
     2
274
     2
340
11
275
     0
280
     0
281
     0
282
     0
283
     1
284
     8
285
     8
286
     8
287
     5
288
     0
  0
DIMSTYLE
105
1E3F
330
A
100
AcDbSymbolTableRecord
100
AcDbDimStyleTableRecord
  2
AM_ANSI$7
 70
     0
  3

  4
mm
  5

  6

  7

 40
1.0
 41
0.1
 42
0.0
 43
0.5
 44
0.1
 45
0.0
 46
0.0
 47
0.1
 48
0.1
140
0.24
141
0.0
142
0.0
143
25.4
144
1.0
145
0.0
146
0.71
147
0.06
 71
     0
 72
     0
 73
     1
 74
     1
 75
     0
 76
     0
 77
     0
 78
     7
170
     0
171
     2
172
     0
173
     0
174
     0
175
     0
176
   256
177
   256
178
     2
270
     2
271
     2
272
     2
273
     2
274
     2
340
11
275
     0
280
     0
281
     0
282
     0
283
     1
284
     8
285
     8
286
     8
287
     5
288
     0
  0
DIMSTYLE
105
1E40
330
A
100
AcDbSymbolTableRecord
100
AcDbDimStyleTableRecord
  2
AM_ANSI$SF
 70
     0
  3

  4
mm
  5

  6

  7

 40
1.0
 41
0.1
 42
0.05
 43
0.5
 44
0.1
 45
0.0
 46
0.0
 47
0.1
 48
0.1
140
0.12
141
0.0
142
0.0
143
25.4
144
1.0
145
0.0
146
0.71
147
0.06
 71
     0
 72
     0
 73
     1
 74
     1
 75
     1
 76
     1
 77
     0
 78
     7
170
     0
171
     2
172
     0
173
     0
174
     0
175
     0
176
   256
177
   256
178
     2
270
     2
271
     2
272
     2
273
     2
274
     2
340
11
275
     0
280
     0
281
     0
282
     0
283
     1
284
     8
285
     8
286
     8
287
     5
288
     0
  0
DIMSTYLE
105
1E41
330
A
100
AcDbSymbolTableRecord
100
AcDbDimStyleTableRecord
  2
AM_ANSI$SH
 70
     0
  3

  4
mm
  5

  6

  7

 40
1.0
 41
0.1
 42
0.05
 43
0.5
 44
0.1
 45
0.0
 46
0.0
 47
0.1
 48
0.1
140
0.12
141
0.0
142
0.0
143
25.4
144
1.0
145
0.0
146
0.71
147
0.06
 71
     0
 72
     0
 73
     1
 74
     1
 75
     1
 76
     1
 77
     0
 78
     7
170
     0
171
     2
172
     0
173
     1
174
     0
175
     0
176
   256
177
   256
178
     2
270
     2
271
     2
272
     2
273
     2
274
     2
340
11
275
     0
280
     0
281
     0
282
     0
283
     1
284
     8
285
     8
286
     8
287
     5
288
     0
  0
DIMSTYLE
105
2523
330
A
100
AcDbSymbolTableRecord
100
AcDbDimStyleTableRecord
  2
AM_BSI
 70
     0
  3

  4
"
  5

  6

  7

 40
1.0
 41
4.0
 42
1.0
 43
10.0
 44
1.0
 45
0.0
 46
0.0
 47
0.1
 48
0.1
140
3.5
141
0.0
142
0.0
143
0.0393701
144
1.0
145
0.0
146
0.71
147
1.5
 71
     0
 72
     0
 73
     0
 74
     0
 75
     0
 76
     0
 77
     1
 78
     8
170
     0
171
     2
172
     1
173
     0
174
     0
175
     0
176
   256
177
   256
178
     2
270
     2
271
     2
272
     3
273
     2
274
     4
340
11
275
     0
280
     0
281
     0
282
     0
283
     0
284
     8
285
     0
286
     0
287
     3
288
     0
  0
DIMSTYLE
105
2524
330
A
100
AcDbSymbolTableRecord
100
AcDbDimStyleTableRecord
  2
AM_BSI$3
 70
     0
  3

  4
"
  5

  6

  7

 40
1.0
 41
4.0
 42
1.0
 43
10.0
 44
1.0
 45
0.0
 46
0.0
 47
0.1
 48
0.1
140
3.5
141
0.0
142
0.0
143
0.0393701
144
1.0
145
0.0
146
0.71
147
1.5
 71
     0
 72
     0
 73
     0
 74
     1
 75
     0
 76
     0
 77
     1
 78
     8
170
     0
171
     2
172
     0
173
     0
174
     0
175
     0
176
   256
177
   256
178
     2
270
     2
271
     2
272
     3
273
     2
274
     4
340
11
275
     0
280
     0
281
     0
282
     0
283
     0
284
     8
285
     0
286
     0
287
     0
288
     1
  0
DIMSTYLE
105
2525
330
A
100
AcDbSymbolTableRecord
100
AcDbDimStyleTableRecord
  2
AM_BSI$4
 70
     0
  3

  4
"
  5

  6

  7

 40
1.0
 41
4.0
 42
1.0
 43
10.0
 44
1.0
 45
0.0
 46
0.0
 47
0.1
 48
0.1
140
3.5
141
0.0
142
0.0
143
0.0393701
144
1.0
145
0.0
146
0.71
147
1.5
 71
     0
 72
     0
 73
     0
 74
     1
 75
     0
 76
     0
 77
     1
 78
     8
170
     0
171
     2
172
     0
173
     0
174
     0
175
     0
176
   256
177
   256
178
     2
270
     2
271
     2
272
     3
273
     2
274
     4
340
11
275
     0
280
     0
281
     0
282
     0
283
     0
284
     8
285
     0
286
     0
287
     0
288
     1
  0
DIMSTYLE
105
2526
330
A
100
AcDbSymbolTableRecord
100
AcDbDimStyleTableRecord
  2
AM_BSI$6
 70
     0
  3

  4
"
  5

  6

  7

 40
1.0
 41
4.0
 42
1.0
 43
10.0
 44
1.0
 45
0.0
 46
0.0
 47
0.1
 48
0.1
140
3.5
141
0.0
142
0.0
143
0.0393701
144
1.0
145
0.0
146
0.71
147
1.5
 71
     0
 72
     0
 73
     0
 74
     0
 75
     0
 76
     0
 77
     0
 78
     8
170
     0
171
     2
172
     1
173
     0
174
     0
175
     0
176
   256
177
   256
178
     2
270
     2
271
     2
272
     3
273
     2
274
     4
340
11
275
     0
280
     0
281
     0
282
     0
283
     0
284
     8
285
     0
286
     0
287
     3
288
     0
  0
DIMSTYLE
105
2527
330
A
100
AcDbSymbolTableRecord
100
AcDbDimStyleTableRecord
  2
AM_BSI$7
 70
     0
  3

  4
"
  5

  6

  7

 40
1.0
 41
2.5
 42
1.0
 43
10.0
 44
1.0
 45
0.0
 46
0.0
 47
0.1
 48
0.1
140
5.0
141
0.0
142
0.0
143
0.0393701
144
1.0
145
0.0
146
0.71
147
1.5
 71
     0
 72
     0
 73
     0
 74
     0
 75
     0
 76
     0
 77
     1
 78
     8
170
     0
171
     2
172
     1
173
     0
174
     0
175
     0
176
   256
177
   256
178
     2
270
     2
271
     2
272
     3
273
     2
274
     4
340
11
275
     0
280
     0
281
     0
282
     0
283
     0
284
     8
285
     0
286
     0
287
     3
288
     0
  0
DIMSTYLE
105
2528
330
A
100
AcDbSymbolTableRecord
100
AcDbDimStyleTableRecord
  2
AM_BSI$SF
 70
     0
  3

  4
"
  5

  6

  7

 40
1.0
 41
4.0
 42
1.0
 43
10.0
 44
1.0
 45
0.0
 46
0.0
 47
0.1
 48
0.1
140
3.5
141
0.0
142
0.0
143
0.0393701
144
1.0
145
0.0
146
0.71
147
1.5
 71
     0
 72
     0
 73
     0
 74
     0
 75
     1
 76
     1
 77
     1
 78
     8
170
     0
171
     2
172
     1
173
     0
174
     0
175
     0
176
   256
177
   256
178
     2
270
     2
271
     2
272
     3
273
     2
274
     4
340
11
275
     0
280
     0
281
     0
282
     0
283
     0
284
     8
285
     0
286
     0
287
     3
288
     0
  0
DIMSTYLE
105
2529
330
A
100
AcDbSymbolTableRecord
100
AcDbDimStyleTableRecord
  2
AM_BSI$SH
 70
     0
  3

  4
"
  5

  6
GENAXEH
  7

 40
1.0
 41
4.0
 42
1.0
 43
10.0
 44
1.0
 45
0.0
 46
0.0
 47
0.1
 48
0.1
140
3.5
141
0.0
142
0.0
143
0.0393701
144
2.0
145
0.0
146
0.71
147
1.5
 71
     0
 72
     0
 73
     0
 74
     0
 75
     1
 76
     1
 77
     1
 78
     8
170
     0
171
     2
172
     1
173
     1
174
     0
175
     0
176
   256
177
   256
178
     2
270
     2
271
     2
272
     3
273
     2
274
     4
340
11
275
     0
280
     0
281
     0
282
     0
283
     0
284
     8
285
     0
286
     0
287
     3
288
     0
  0
DIMSTYLE
105
252A
330
A
100
AcDbSymbolTableRecord
100
AcDbDimStyleTableRecord
  2
AM_ISO
 70
     0
  3

  4
"
  5

  6

  7

 40
1.0
 41
2.5
 42
1.0
 43
10.0
 44
1.0
 45
0.0
 46
0.0
 47
0.1
 48
0.1
140
3.5
141
0.0
142
0.0
143
0.0393701
144
1.0
145
0.0
146
0.71
147
1.5
 71
     0
 72
     0
 73
     0
 74
     0
 75
     0
 76
     0
 77
     1
 78
     8
170
     0
171
     2
172
     1
173
     0
174
     0
175
     0
176
   256
177
   256
178
     2
270
     2
271
     2
272
     3
273
     2
274
     4
340
11
275
     0
280
     0
281
     0
282
     0
283
     0
284
     8
285
     0
286
     0
287
     3
288
     0
  0
DIMSTYLE
105
252B
330
A
100
AcDbSymbolTableRecord
100
AcDbDimStyleTableRecord
  2
AM_ISO$3
 70
     0
  3

  4
"
  5

  6

  7

 40
1.0
 41
2.5
 42
1.0
 43
10.0
 44
1.0
 45
0.0
 46
0.0
 47
0.1
 48
0.1
140
3.5
141
0.0
142
0.0
143
0.0393701
144
1.0
145
0.0
146
0.71
147
1.5
 71
     0
 72
     0
 73
     0
 74
     1
 75
     0
 76
     0
 77
     1
 78
     8
170
     0
171
     2
172
     0
173
     0
174
     0
175
     0
176
   256
177
   256
178
     2
270
     2
271
     2
272
     3
273
     2
274
     4
340
11
275
     0
280
     0
281
     0
282
     0
283
     0
284
     8
285
     0
286
     0
287
     0
288
     1
  0
DIMSTYLE
105
252C
330
A
100
AcDbSymbolTableRecord
100
AcDbDimStyleTableRecord
  2
AM_ISO$4
 70
     0
  3

  4
"
  5

  6

  7

 40
1.0
 41
2.5
 42
1.0
 43
10.0
 44
1.0
 45
0.0
 46
0.0
 47
0.1
 48
0.1
140
3.5
141
0.0
142
0.0
143
0.0393701
144
1.0
145
0.0
146
0.71
147
1.5
 71
     0
 72
     0
 73
     0
 74
     1
 75
     0
 76
     0
 77
     1
 78
     8
170
     0
171
     2
172
     0
173
     0
174
     0
175
     0
176
   256
177
   256
178
     2
270
     2
271
     2
272
     3
273
     2
274
     4
340
11
275
     0
280
     0
281
     0
282
     0
283
     0
284
     8
285
     0
286
     0
287
     0
288
     1
  0
DIMSTYLE
105
252D
330
A
100
AcDbSymbolTableRecord
100
AcDbDimStyleTableRecord
  2
AM_ISO$6
 70
     0
  3

  4
"
  5

  6

  7

 40
1.0
 41
2.5
 42
1.0
 43
10.0
 44
1.0
 45
0.0
 46
0.0
 47
0.1
 48
0.1
140
3.5
141
0.0
142
0.0
143
0.0393701
144
1.0
145
0.0
146
0.71
147
1.5
 71
     0
 72
     0
 73
     0
 74
     0
 75
     0
 76
     0
 77
     0
 78
     8
170
     0
171
     2
172
     1
173
     0
174
     0
175
     0
176
   256
177
   256
178
     2
270
     2
271
     2
272
     3
273
     2
274
     4
340
11
275
     0
280
     0
281
     0
282
     0
283
     0
284
     8
285
     0
286
     0
287
     3
288
     0
  0
DIMSTYLE
105
252E
330
A
100
AcDbSymbolTableRecord
100
AcDbDimStyleTableRecord
  2
AM_ISO$7
 70
     0
  3

  4
"
  5

  6

  7

 40
1.0
 41
2.5
 42
1.0
 43
10.0
 44
1.0
 45
0.0
 46
0.0
 47
0.1
 48
0.1
140
5.0
141
0.0
142
0.0
143
0.0393701
144
1.0
145
0.0
146
0.71
147
1.5
 71
     0
 72
     0
 73
     0
 74
     0
 75
     0
 76
     0
 77
     1
 78
     8
170
     0
171
     2
172
     1
173
     0
174
     0
175
     0
176
   256
177
   256
178
     2
270
     2
271
     2
272
     3
273
     2
274
     4
340
11
275
     0
280
     0
281
     0
282
     0
283
     0
284
     8
285
     0
286
     0
287
     3
288
     0
  0
DIMSTYLE
105
252F
330
A
100
AcDbSymbolTableRecord
100
AcDbDimStyleTableRecord
  2
AM_ISO$SF
 70
     0
  3

  4
"
  5

  6

  7

 40
1.0
 41
2.5
 42
1.0
 43
10.0
 44
1.0
 45
0.0
 46
0.0
 47
0.1
 48
0.1
140
3.5
141
0.0
142
0.0
143
0.0393701
144
1.0
145
0.0
146
0.71
147
1.5
 71
     0
 72
     0
 73
     0
 74
     0
 75
     1
 76
     1
 77
     1
 78
     8
170
     0
171
     2
172
     1
173
     0
174
     0
175
     0
176
   256
177
   256
178
     2
270
     2
271
     2
272
     3
273
     2
274
     4
340
11
275
     0
280
     0
281
     0
282
     0
283
     0
284
     8
285
     0
286
     0
287
     3
288
     0
  0
DIMSTYLE
105
2530
330
A
100
AcDbSymbolTableRecord
100
AcDbDimStyleTableRecord
  2
AM_ISO$SH
 70
     0
  3

  4
"
  5

  6
GENAXEH
  7

 40
1.0
 41
2.5
 42
1.0
 43
10.0
 44
1.0
 45
0.0
 46
0.0
 47
0.1
 48
0.1
140
3.5
141
0.0
142
0.0
143
0.0393701
144
2.0
145
0.0
146
0.71
147
1.5
 71
     0
 72
     0
 73
     0
 74
     0
 75
     1
 76
     1
 77
     1
 78
     8
170
     0
171
     2
172
     1
173
     1
174
     0
175
     0
176
   256
177
   256
178
     2
270
     2
271
     2
272
     3
273
     2
274
     4
340
11
275
     0
280
     0
281
     0
282
     0
283
     0
284
     8
285
     0
286
     0
287
     3
288
     0
  0
DIMSTYLE
105
2531
330
A
100
AcDbSymbolTableRecord
100
AcDbDimStyleTableRecord
  2
AM_JIS
 70
     0
  3

  4
"
  5
OPEN30
  6
OPEN30
  7
OPEN30
 40
1.0
 41
2.5
 42
1.0
 43
10.0
 44
1.0
 45
0.0
 46
0.0
 47
0.1
 48
0.1
140
3.5
141
0.0
142
0.0
143
0.0393701
144
1.0
145
0.0
146
0.71
147
1.5
 71
     0
 72
     0
 73
     0
 74
     0
 75
     0
 76
     0
 77
     3
 78
     8
170
     0
171
     2
172
     1
173
     0
174
     0
175
     0
176
   256
177
   256
178
     2
270
     2
271
     2
272
     3
273
     2
274
     4
340
11
275
     0
280
     0
281
     0
282
     0
283
     0
284
     8
285
     0
286
     0
287
     3
288
     0
  0
DIMSTYLE
105
2532
330
A
100
AcDbSymbolTableRecord
100
AcDbDimStyleTableRecord
  2
AM_JIS$3
 70
     0
  3

  4
"
  5
OPEN30
  6
OPEN30
  7
OPEN30
 40
1.0
 41
2.5
 42
1.0
 43
10.0
 44
1.0
 45
0.0
 46
0.0
 47
0.1
 48
0.1
140
3.5
141
0.0
142
0.0
143
0.0393701
144
1.0
145
0.0
146
0.71
147
1.5
 71
     0
 72
     0
 73
     0
 74
     1
 75
     0
 76
     0
 77
     3
 78
     8
170
     0
171
     2
172
     0
173
     0
174
     0
175
     0
176
   256
177
   256
178
     2
270
     2
271
     2
272
     3
273
     2
274
     4
340
11
275
     0
280
     0
281
     0
282
     0
283
     0
284
     8
285
     0
286
     0
287
     0
288
     1
  0
DIMSTYLE
105
2533
330
A
100
AcDbSymbolTableRecord
100
AcDbDimStyleTableRecord
  2
AM_JIS$4
 70
     0
  3

  4
"
  5
OPEN30
  6
OPEN30
  7
OPEN30
 40
1.0
 41
2.5
 42
1.0
 43
10.0
 44
1.0
 45
0.0
 46
0.0
 47
0.1
 48
0.1
140
3.5
141
0.0
142
0.0
143
0.0393701
144
1.0
145
0.0
146
0.71
147
1.5
 71
     0
 72
     0
 73
     0
 74
     1
 75
     0
 76
     0
 77
     3
 78
     8
170
     0
171
     2
172
     0
173
     0
174
     0
175
     0
176
   256
177
   256
178
     2
270
     2
271
     2
272
     3
273
     2
274
     4
340
11
275
     0
280
     0
281
     0
282
     0
283
     0
284
     8
285
     0
286
     0
287
     0
288
     1
  0
DIMSTYLE
105
2534
330
A
100
AcDbSymbolTableRecord
100
AcDbDimStyleTableRecord
  2
AM_JIS$6
 70
     0
  3

  4
"
  5
OPEN30
  6
OPEN30
  7
OPEN30
 40
1.0
 41
2.5
 42
1.0
 43
10.0
 44
1.0
 45
0.0
 46
0.0
 47
0.1
 48
0.1
140
3.5
141
0.0
142
0.0
143
0.0393701
144
1.0
145
0.0
146
0.71
147
1.5
 71
     0
 72
     0
 73
     0
 74
     0
 75
     0
 76
     0
 77
     0
 78
     8
170
     0
171
     2
172
     1
173
     0
174
     0
175
     0
176
   256
177
   256
178
     2
270
     2
271
     2
272
     3
273
     2
274
     4
340
11
275
     0
280
     0
281
     0
282
     0
283
     0
284
     8
285
     0
286
     0
287
     3
288
     0
  0
DIMSTYLE
105
2535
330
A
100
AcDbSymbolTableRecord
100
AcDbDimStyleTableRecord
  2
AM_JIS$7
 70
     0
  3

  4
"
  5
OPEN30
  6
OPEN30
  7
OPEN30
 40
1.0
 41
2.5
 42
1.0
 43
10.0
 44
1.0
 45
0.0
 46
0.0
 47
0.1
 48
0.1
140
5.0
141
0.0
142
0.0
143
0.0393701
144
1.0
145
0.0
146
0.71
147
1.5
 71
     0
 72
     0
 73
     0
 74
     0
 75
     0
 76
     0
 77
     3
 78
     8
170
     0
171
     2
172
     1
173
     0
174
     0
175
     0
176
   256
177
   256
178
     2
270
     2
271
     2
272
     3
273
     2
274
     4
340
11
275
     0
280
     0
281
     0
282
     0
283
     0
284
     8
285
     0
286
     0
287
     3
288
     0
  0
DIMSTYLE
105
2536
330
A
100
AcDbSymbolTableRecord
100
AcDbDimStyleTableRecord
  2
AM_JIS$SF
 70
     0
  3

  4
"
  5
OPEN30
  6
OPEN30
  7
OPEN30
 40
1.0
 41
2.5
 42
1.0
 43
10.0
 44
1.0
 45
0.0
 46
0.0
 47
0.1
 48
0.1
140
3.5
141
0.0
142
0.0
143
0.0393701
144
1.0
145
0.0
146
0.71
147
1.5
 71
     0
 72
     0
 73
     0
 74
     0
 75
     1
 76
     1
 77
     3
 78
     8
170
     0
171
     2
172
     1
173
     0
174
     0
175
     0
176
   256
177
   256
178
     2
270
     2
271
     2
272
     3
273
     2
274
     4
340
11
275
     0
280
     0
281
     0
282
     0
283
     0
284
     8
285
     0
286
     0
287
     3
288
     0
  0
DIMSTYLE
105
2537
330
A
100
AcDbSymbolTableRecord
100
AcDbDimStyleTableRecord
  2
AM_JIS$SH
 70
     0
  3

  4
"
  5
OPEN30
  6
GENAXEH
  7
OPEN30
 40
1.0
 41
2.5
 42
1.0
 43
10.0
 44
1.0
 45
0.0
 46
0.0
 47
0.1
 48
0.1
140
3.5
141
0.0
142
0.0
143
0.0393701
144
2.0
145
0.0
146
0.71
147
1.5
 71
     0
 72
     0
 73
     0
 74
     0
 75
     1
 76
     1
 77
     3
 78
     8
170
     0
171
     2
172
     1
173
     1
174
     0
175
     0
176
   256
177
   256
178
     2
270
     2
271
     2
272
     3
273
     2
274
     4
340
11
275
     0
280
     0
281
     0
282
     0
283
     0
284
     8
285
     0
286
     0
287
     3
288
     0
  0
ENDTAB
  0
TABLE
  2
BLOCK_RECORD
  5
1
330
0
100
AcDbSymbolTable
 70
     8
  0
BLOCK_RECORD
  5
1F
102
{ACAD_XDICTIONARY
360
1F1
102
}
330
1
100
AcDbSymbolTableRecord
100
AcDbBlockTableRecord
  2
*MODEL_SPACE
  0
BLOCK_RECORD
  5
1B
102
{ACAD_XDICTIONARY
360
2978
102
}
330
1
100
AcDbSymbolTableRecord
100
AcDbBlockTableRecord
  2
*PAPER_SPACE
  0
BLOCK_RECORD
  5
75
330
1
100
AcDbSymbolTableRecord
100
AcDbBlockTableRecord
  2
GENAXEH
  0
BLOCK_RECORD
  5
EC2
330
1
100
AcDbSymbolTableRecord
100
AcDbBlockTableRecord
  2
*D2
  0
BLOCK_RECORD
  5
EFF
330
1
100
AcDbSymbolTableRecord
100
AcDbBlockTableRecord
  2
*D3
  0
BLOCK_RECORD
  5
24C5
330
1
100
AcDbSymbolTableRecord
100
AcDbBlockTableRecord
  2
_OPEN30
  0
BLOCK_RECORD
  5
2879
330
1
100
AcDbSymbolTableRecord
100
AcDbBlockTableRecord
  2
*D5
  0
BLOCK_RECORD
  5
28C8
330
1
100
AcDbSymbolTableRecord
100
AcDbBlockTableRecord
  2
*D6
  0
BLOCK_RECORD
  5
28EC
330
1
100
AcDbSymbolTableRecord
100
AcDbBlockTableRecord
  2
*D7
  0
ENDTAB
  0
ENDSEC
  0
SECTION
  2
BLOCKS
  0
BLOCK
  5
20
330
1F
100
AcDbEntity
  8
0
100
AcDbBlockBegin
  2
*MODEL_SPACE
 70
     0
 10
0.0
 20
0.0
 30
0.0
  3
*MODEL_SPACE
  1

  0
ENDBLK
  5
21
330
1F
100
AcDbEntity
  8
0
100
AcDbBlockEnd
  0
BLOCK
  5
1C
330
1B
100
AcDbEntity
 67
     1
  8
0
100
AcDbBlockBegin
  2
*PAPER_SPACE
 70
     0
 10
0.0
 20
0.0
 30
0.0
  3
*PAPER_SPACE
  1

  0
ENDBLK
  5
1D
330
1B
100
AcDbEntity
 67
     1
  8
0
100
AcDbBlockEnd
  0
BLOCK
  5
77
330
75
100
AcDbEntity
  8
0
100
AcDbBlockBegin
  2
GENAXEH
 70
     0
 10
0.0
 20
0.0
 30
0.0
  3
GENAXEH
  1

  0
LINE
  5
76
330
75
100
AcDbEntity
  8
0
100
AcDbLine
 10
-1.0
 20
0.0
 30
0.0
 11
1.0
 21
0.0
 31
0.0
  0
ENDBLK
  5
78
330
75
100
AcDbEntity
  8
0
100
AcDbBlockEnd
  0
BLOCK
  5
ECC
330
EC2
100
AcDbEntity
  8
0
100
AcDbBlockBegin
  2
*D2
 70
     1
 10
0.0
 20
0.0
 30
0.0
  3
*D2
  1

  0
LINE
  5
21EA
330
EC2
100
AcDbEntity
  8
SK2
100
AcDbLine
 10
0.0
 20
-13.4999999999998
 30
0.0
 11
-19.6577820213422
 21
-13.49999999999979
 31
0.0
  0
LINE
  5
21EB
330
EC2
100
AcDbEntity
  8
SK2
100
AcDbLine
 10
0.0
 20
13.5000000000002
 30
0.0
 11
-19.6577820213422
 21
13.5000000000002
 31
0.0
  0
LINE
  5
21EC
330
EC2
100
AcDbEntity
  8
SK2
100
AcDbLine
 10
-18.6577820213422
 20
-10.99999999999979
 30
0.0
 11
-18.6577820213422
 21
11.0000000000002
 31
0.0
  0
SOLID
  5
21ED
330
EC2
100
AcDbEntity
  8
SK2
100
AcDbTrace
 10
-19.07444868800887
 20
-10.99999999999979
 30
0.0
 11
-18.24111535467554
 21
-10.99999999999979
 31
0.0
 12
-18.6577820213422
 22
-13.49999999999979
 32
0.0
 13
-18.6577820213422
 23
-13.49999999999979
 33
0.0
  0
SOLID
  5
21EE
330
EC2
100
AcDbEntity
  8
SK2
100
AcDbTrace
 10
-19.07444868800886
 20
11.0000000000002
 30
0.0
 11
-18.24111535467553
 21
11.0000000000002
 31
0.0
 12
-18.6577820213422
 22
13.5000000000002
 32
0.0
 13
-18.6577820213422
 23
13.5000000000002
 33
0.0
  0
MTEXT
  5
21EF
330
EC2
100
AcDbEntity
  8
SK2
 62
     2
100
AcDbMText
 10
-21.90812650953117
 20
0.0000000000002023
 30
0.0
 40
3.5
 41
0.0
 71
     5
 72
     1
  1
%%c27
 11
0.0000000000000001
 21
1.0
 31
0.0
1001
ACAD
1000
MTEXTBEGIN
1070
    73
1070
     1
1070
    44
1040
1.0
1070
    74
1070
     0
1000
MTEXTEND
  0
POINT
  5
21F0
330
EC2
100
AcDbEntity
  8
DEFPOINTS
 62
     0
100
AcDbPoint
 10
0.0
 20
-13.4999999999998
 30
0.0
  0
POINT
  5
21F1
330
EC2
100
AcDbEntity
  8
DEFPOINTS
 62
     0
100
AcDbPoint
 10
0.0
 20
13.5000000000002
 30
0.0
  0
POINT
  5
21F2
330
EC2
100
AcDbEntity
  8
DEFPOINTS
 62
     0
100
AcDbPoint
 10
-18.6577820213422
 20
13.5000000000002
 30
0.0
  0
ENDBLK
  5
ECD
330
EC2
100
AcDbEntity
  8
0
100
AcDbBlockEnd
  0
BLOCK
  5
F09
330
EFF
100
AcDbEntity
  8
0
100
AcDbBlockBegin
  2
*D3
 70
     1
 10
0.0
 20
0.0
 30
0.0
  3
*D3
  1

  0
LINE
  5
276B
330
EFF
100
AcDbEntity
  8
SK2
100
AcDbLine
 10
2.000000000000042
 20
-27.49999999999964
 30
0.0
 11
-36.37230029081077
 21
-27.49999999999964
 31
0.0
  0
LINE
  5
276C
330
EFF
100
AcDbEntity
  8
SK2
100
AcDbLine
 10
2.000000000000014
 20
27.50000000000008
 30
0.0
 11
-36.37230029081075
 21
27.50000000000009
 31
0.0
  0
LINE
  5
276D
330
EFF
100
AcDbEntity
  8
SK2
100
AcDbLine
 10
-35.37230029081077
 20
-24.99999999999964
 30
0.0
 11
-35.37230029081075
 21
25.00000000000009
 31
0.0
  0
SOLID
  5
276E
330
EFF
100
AcDbEntity
  8
SK2
100
AcDbTrace
 10
-35.78896695747743
 20
-24.99999999999964
 30
0.0
 11
-34.9556336241441
 21
-24.99999999999964
 31
0.0
 12
-35.37230029081077
 22
-27.49999999999964
 32
0.0
 13
-35.37230029081077
 23
-27.49999999999964
 33
0.0
  0
SOLID
  5
276F
330
EFF
100
AcDbEntity
  8
SK2
100
AcDbTrace
 10
-35.78896695747742
 20
25.00000000000009
 30
0.0
 11
-34.95563362414409
 21
25.00000000000009
 31
0.0
 12
-35.37230029081075
 22
27.50000000000009
 32
0.0
 13
-35.37230029081075
 23
27.50000000000009
 33
0.0
  0
MTEXT
  5
2770
330
EFF
100
AcDbEntity
  8
SK2
 62
     2
100
AcDbMText
 10
-38.62230029081076
 20
0.0000000000002228
 30
0.0
 40
3.5
 41
0.0
 71
     5
 72
     1
  1
%%c55
 11
0.0000000000000001
 21
1.0
 31
0.0
1001
ACAD
1000
MTEXTBEGIN
1070
    73
1070
     1
1070
    44
1040
1.0
1070
    74
1070
     0
1000
MTEXTEND
  0
POINT
  5
2771
330
EFF
100
AcDbEntity
  8
DEFPOINTS
 62
     0
100
AcDbPoint
 10
2.000000000000042
 20
-27.49999999999964
 30
0.0
  0
POINT
  5
2772
330
EFF
100
AcDbEntity
  8
DEFPOINTS
 62
     0
100
AcDbPoint
 10
2.000000000000014
 20
27.50000000000008
 30
0.0
  0
POINT
  5
2773
330
EFF
100
AcDbEntity
  8
DEFPOINTS
 62
     0
100
AcDbPoint
 10
-35.37230029081075
 20
27.50000000000009
 30
0.0
  0
ENDBLK
  5
F0A
330
EFF
100
AcDbEntity
  8
0
100
AcDbBlockEnd
  0
BLOCK
  5
24C9
330
24C5
100
AcDbEntity
  8
0
100
AcDbBlockBegin
  2
_OPEN30
 70
     0
 10
0.0
 20
0.0
 30
0.0
  3
_OPEN30
  1

  0
LINE
  5
24C6
330
24C5
100
AcDbEntity
  8
0
  6
BYBLOCK
 62
     0
100
AcDbLine
 10
-1.0
 20
0.26794919
 30
0.0
 11
0.0
 21
0.0
 31
0.0
  0
LINE
  5
24C7
330
24C5
100
AcDbEntity
  8
0
  6
BYBLOCK
 62
     0
100
AcDbLine
 10
0.0
 20
0.0
 30
0.0
 11
-1.0
 21
-0.26794919
 31
0.0
  0
LINE
  5
24C8
330
24C5
100
AcDbEntity
  8
0
  6
BYBLOCK
 62
     0
100
AcDbLine
 10
0.0
 20
0.0
 30
0.0
 11
-1.0
 21
0.0
 31
0.0
  0
ENDBLK
  5
24CA
330
24C5
100
AcDbEntity
  8
0
100
AcDbBlockEnd
  0
BLOCK
  5
2883
330
2879
100
AcDbEntity
  8
0
100
AcDbBlockBegin
  2
*D5
 70
     1
 10
0.0
 20
0.0
 30
0.0
  3
*D5
  1

  0
LINE
  5
2927
330
2879
100
AcDbEntity
  8
2
100
AcDbLine
 10
70.0
 20
31.4999999999998
 30
0.0
 11
95.60227756408654
 21
31.49999999999979
 31
0.0
  0
LINE
  5
2928
330
2879
100
AcDbEntity
  8
2
100
AcDbLine
 10
70.0
 20
-31.50000000000019
 30
0.0
 11
95.60227756408654
 21
-31.5000000000002
 31
0.0
  0
LINE
  5
2929
330
2879
100
AcDbEntity
  8
2
100
AcDbLine
 10
94.60227756408654
 20
28.99999999999979
 30
0.0
 11
94.60227756408654
 21
-29.0000000000002
 31
0.0
  0
SOLID
  5
292A
330
2879
100
AcDbEntity
  8
2
100
AcDbTrace
 10
94.18561089741986
 20
28.99999999999979
 30
0.0
 11
95.0189442307532
 21
28.99999999999979
 31
0.0
 12
94.60227756408654
 22
31.49999999999979
 32
0.0
 13
94.60227756408654
 23
31.49999999999979
 33
0.0
  0
SOLID
  5
292B
330
2879
100
AcDbEntity
  8
2
100
AcDbTrace
 10
94.18561089741986
 20
-29.0000000000002
 30
0.0
 11
95.0189442307532
 21
-29.0000000000002
 31
0.0
 12
94.60227756408654
 22
-31.5000000000002
 32
0.0
 13
94.60227756408654
 23
-31.5000000000002
 33
0.0
  0
MTEXT
  5
292C
330
2879
100
AcDbEntity
  8
2
 62
     2
100
AcDbMText
 10
91.35227756408653
 20
-0.0000000000001901
 30
0.0
 40
3.5
 41
0.0
 71
     5
 72
     1
  1
%%c63
 11
0.0000000000000001
 21
1.0
 31
0.0
1001
ACAD
1000
MTEXTBEGIN
1070
    73
1070
     1
1070
    44
1040
1.0
1070
    74
1070
     0
1000
MTEXTEND
  0
POINT
  5
292D
330
2879
100
AcDbEntity
  8
DEFPOINTS
 62
     0
100
AcDbPoint
 10
70.0
 20
31.4999999999998
 30
0.0
  0
POINT
  5
292E
330
2879
100
AcDbEntity
  8
DEFPOINTS
 62
     0
100
AcDbPoint
 10
70.0
 20
-31.50000000000019
 30
0.0
  0
POINT
  5
292F
330
2879
100
AcDbEntity
  8
DEFPOINTS
 62
     0
100
AcDbPoint
 10
94.60227756408654
 20
-31.5000000000002
 30
0.0
  0
ENDBLK
  5
2884
330
2879
100
AcDbEntity
  8
0
100
AcDbBlockEnd
  0
BLOCK
  5
28D2
330
28C8
100
AcDbEntity
  8
0
100
AcDbBlockBegin
  2
*D6
 70
     1
 10
0.0
 20
0.0
 30
0.0
  3
*D6
  1

  0
LINE
  5
290C
330
28C8
100
AcDbEntity
  8
2
100
AcDbLine
 10
70.0
 20
31.4999999999998
 30
0.0
 11
70.0
 21
60.99999999999996
 31
0.0
  0
LINE
  5
290D
330
28C8
100
AcDbEntity
  8
2
100
AcDbLine
 10
24.99999847254827
 20
31.50119832037573
 30
0.0
 11
24.99999847254827
 21
60.99999999999996
 31
0.0
  0
LINE
  5
290E
330
28C8
100
AcDbEntity
  8
2
100
AcDbLine
 10
67.5
 20
59.99999999999996
 30
0.0
 11
27.49999847254827
 21
59.99999999999996
 31
0.0
  0
SOLID
  5
290F
330
28C8
100
AcDbEntity
  8
2
100
AcDbTrace
 10
67.5
 20
60.41666666666663
 30
0.0
 11
67.5
 21
59.5833333333333
 31
0.0
 12
70.0
 22
59.99999999999996
 32
0.0
 13
70.0
 23
59.99999999999996
 33
0.0
  0
SOLID
  5
2910
330
28C8
100
AcDbEntity
  8
2
100
AcDbTrace
 10
27.49999847254827
 20
60.41666666666663
 30
0.0
 11
27.49999847254827
 21
59.5833333333333
 31
0.0
 12
24.99999847254827
 22
59.99999999999996
 32
0.0
 13
24.99999847254827
 23
59.99999999999996
 33
0.0
  0
MTEXT
  5
2911
330
28C8
100
AcDbEntity
  8
2
 62
     2
100
AcDbMText
 10
47.49999923627413
 20
63.24999999999996
 30
0.0
 40
3.5
 41
0.0
 71
     5
 72
     1
  1
45
1001
ACAD
1000
MTEXTBEGIN
1070
    73
1070
     1
1070
    44
1040
1.0
1070
    74
1070
     0
1000
MTEXTEND
  0
POINT
  5
2912
330
28C8
100
AcDbEntity
  8
DEFPOINTS
 62
     0
100
AcDbPoint
 10
70.0
 20
31.4999999999998
 30
0.0
  0
POINT
  5
2913
330
28C8
100
AcDbEntity
  8
DEFPOINTS
 62
     0
100
AcDbPoint
 10
24.99999847254827
 20
31.50119832037573
 30
0.0
  0
POINT
  5
2914
330
28C8
100
AcDbEntity
  8
DEFPOINTS
 62
     0
100
AcDbPoint
 10
24.99999847254827
 20
59.99999999999996
 30
0.0
  0
ENDBLK
  5
28D3
330
28C8
100
AcDbEntity
  8
0
100
AcDbBlockEnd
  0
BLOCK
  5
28F6
330
28EC
100
AcDbEntity
  8
0
100
AcDbBlockBegin
  2
*D7
 70
     1
 10
0.0
 20
0.0
 30
0.0
  3
*D7
  1

  0
LINE
  5
2915
330
28EC
100
AcDbEntity
  8
2
100
AcDbLine
 10
70.0
 20
31.4999999999998
 30
0.0
 11
70.0
 21
76.0
 31
0.0
  0
LINE
  5
2916
330
28EC
100
AcDbEntity
  8
2
100
AcDbLine
 10
0.0000000000000142
 20
25.50000000000008
 30
0.0
 11
0.0000000000000173
 21
76.0
 31
0.0
  0
LINE
  5
2917
330
28EC
100
AcDbEntity
  8
2
100
AcDbLine
 10
67.5
 20
75.0
 30
0.0
 11
2.500000000000017
 21
75.0
 31
0.0
  0
SOLID
  5
2918
330
28EC
100
AcDbEntity
  8
2
100
AcDbTrace
 10
67.5
 20
75.41666666666667
 30
0.0
 11
67.5
 21
74.58333333333333
 31
0.0
 12
70.0
 22
75.0
 32
0.0
 13
70.0
 23
75.0
 33
0.0
  0
SOLID
  5
2919
330
28EC
100
AcDbEntity
  8
2
100
AcDbTrace
 10
2.500000000000017
 20
75.41666666666667
 30
0.0
 11
2.500000000000017
 21
74.58333333333333
 31
0.0
 12
0.0000000000000172
 22
75.0
 32
0.0
 13
0.0000000000000172
 23
75.0
 33
0.0
  0
MTEXT
  5
291A
330
28EC
100
AcDbEntity
  8
2
 62
     2
100
AcDbMText
 10
35.0
 20
78.25
 30
0.0
 40
3.5
 41
0.0
 71
     5
 72
     1
  1
70
1001
ACAD
1000
MTEXTBEGIN
1070
    73
1070
     1
1070
    44
1040
1.0
1070
    74
1070
     0
1000
MTEXTEND
  0
POINT
  5
291B
330
28EC
100
AcDbEntity
  8
DEFPOINTS
 62
     0
100
AcDbPoint
 10
70.0
 20
31.4999999999998
 30
0.0
  0
POINT
  5
291C
330
28EC
100
AcDbEntity
  8
DEFPOINTS
 62
     0
100
AcDbPoint
 10
0.0000000000000142
 20
25.50000000000008
 30
0.0
  0
POINT
  5
291D
330
28EC
100
AcDbEntity
  8
DEFPOINTS
 62
     0
100
AcDbPoint
 10
0.0000000000000172
 20
75.0
 30
0.0
  0
ENDBLK
  5
28F7
330
28EC
100
AcDbEntity
  8
0
100
AcDbBlockEnd
  0
ENDSEC
  0
SECTION
  2
ENTITIES
  0
LINE
  5
EA3
330
1F
100
AcDbEntity
  8
1
100
AcDbLine
 10
11.4904361888204
 20
27.50000000000011
 30
0.0
 11
2.000000000000014
 21
27.50000000000008
 31
0.0
  0
LINE
  5
EA4
330
1F
100
AcDbEntity
  8
1
100
AcDbLine
 10
0.0000000000000426
 20
-25.49999999999965
 30
0.0
 11
0.0
 21
-6.199999999999789
 31
0.0
  0
LINE
  5
EA5
330
1F
100
AcDbEntity
  8
SK1
100
AcDbLine
 10
0.0
 20
-6.199999999999789
 30
0.0
 11
7.0
 21
-6.199999999999846
 31
0.0
  0
LINE
  5
EA6
330
1F
100
AcDbEntity
  8
SK1
100
AcDbLine
 10
7.0
 20
-6.199999999999846
 30
0.0
 11
7.0
 21
6.200000000000216
 31
0.0
  0
LINE
  5
EA7
330
1F
100
AcDbEntity
  8
SK1
100
AcDbLine
 10
7.0
 20
6.200000000000216
 30
0.0
 11
0.0
 21
6.200000000000216
 31
0.0
  0
LINE
  5
EA8
330
1F
100
AcDbEntity
  8
1
100
AcDbLine
 10
0.0
 20
6.200000000000216
 30
0.0
 11
0.0000000000000142
 21
25.50000000000008
 31
0.0
  0
LINE
  5
EA9
330
1F
100
AcDbEntity
  8
SK3
 48
0.5
100
AcDbLine
 10
0.0
 20
-13.4999999999998
 30
0.0
 11
21.99999999999988
 21
-13.4999999999998
 31
0.0
  0
LINE
  5
EAA
330
1F
100
AcDbEntity
  8
SK3
 48
0.5
100
AcDbLine
 10
21.99999999999988
 20
-13.4999999999998
 30
0.0
 11
21.99999999999988
 21
13.5000000000002
 31
0.0
  0
LINE
  5
EAB
330
1F
100
AcDbEntity
  8
SK3
 48
0.5
100
AcDbLine
 10
21.99999999999988
 20
13.5000000000002
 30
0.0
 11
-0.0000000000000568
 21
13.50000000000017
 31
0.0
  0
LINE
  5
EAC
330
1F
100
AcDbEntity
  8
SK3
 48
0.5
100
AcDbLine
 10
21.99999999999988
 20
-6.499999999999801
 30
0.0
 11
32.99999999999988
 21
-6.499999999999801
 31
0.0
  0
LINE
  5
EAD
330
1F
100
AcDbEntity
  8
SK3
 48
0.5
100
AcDbLine
 10
21.99999999999988
 20
6.500000000000198
 30
0.0
 11
32.99999999999977
 21
6.500000000000142
 31
0.0
  0
LINE
  5
EAE
330
1F
100
AcDbEntity
  8
SK3
 48
0.5
100
AcDbLine
 10
68.99679480008376
 20
-10.00000000000319
 30
0.0
 11
32.99999999999988
 21
-10.00000000000287
 31
0.0
  0
LINE
  5
EAF
330
1F
100
AcDbEntity
  8
SK3
 48
0.5
100
AcDbLine
 10
32.99999999999988
 20
-10.00000000000287
 30
0.0
 11
32.99999999999988
 21
10.00000000000332
 31
0.0
  0
LINE
  5
EB0
330
1F
100
AcDbEntity
  8
SK3
 48
0.5
100
AcDbLine
 10
32.99999999999988
 20
10.00000000000332
 30
0.0
 11
68.99679480008376
 21
10.00000000000319
 31
0.0
  0
DIMENSION
  5
EC1
330
1F
100
AcDbEntity
  8
SK2
100
AcDbDimension
  2
*D2
 10
-18.6577820213422
 20
13.5000000000002
 30
0.0
 11
-21.90812650953117
 21
0.0000000000002023
 31
0.0
 70
    32
  1
%%c<>
  3
AM_DIN
100
AcDbAlignedDimension
 13
0.0
 23
-13.4999999999998
 33
0.0
 14
0.0
 24
13.5000000000002
 34
0.0
 50
270.0
100
AcDbRotatedDimension
  0
DIMENSION
  5
EFE
330
1F
100
AcDbEntity
  8
SK2
100
AcDbDimension
  2
*D3
 10
-35.37230029081075
 20
27.50000000000009
 30
0.0
 11
-38.62230029081076
 21
0.0000000000002228
 31
0.0
 70
    32
  1
%%c<>
  3
AM_DIN
100
AcDbAlignedDimension
 13
2.000000000000042
 23
-27.49999999999964
 33
0.0
 14
2.000000000000014
 24
27.50000000000008
 34
0.0
 50
270.0
100
AcDbRotatedDimension
  0
ARC
  5
F3B
330
1F
100
AcDbEntity
  8
1
100
AcDbCircle
 10
2.000000000000099
 20
-25.49999999999962
 30
0.0
 40
2.0
100
AcDbArc
 50
180.0
 51
270.0
1001
GENIUS_GENOBJ-N-FIL_13
1002
{
1000
OWNER
1000
GEN
1002
}
1001
GENIUS_GENODEF_13
1002
{
1000
HIER
1070
     0
1002
}
1002
{
1000
MANEDIT
1070
     0
1002
}
1002
{
1000
NOSEL
1070
     0
1002
}
1002
{
1000
BEHIND
1070
     0
1002
}
1002
{
1000
OTHER
1070
     0
1002
}
1002
{
1000
REACTOR
1002
}
  0
ARC
  5
F50
330
1F
100
AcDbEntity
  8
1
100
AcDbCircle
 10
2.000000000000071
 20
25.50000000000011
 30
0.0
 40
2.0
100
AcDbArc
 50
90.00000000000024
 51
180.0
1001
GENIUS_GENODEF_13
1002
{
1000
HIER
1070
     0
1002
}
1002
{
1000
MANEDIT
1070
     0
1002
}
1002
{
1000
NOSEL
1070
     0
1002
}
1002
{
1000
BEHIND
1070
     0
1002
}
1002
{
1000
OTHER
1070
     0
1002
}
1002
{
1000
REACTOR
1002
}
1001
GENIUS_GENOBJ-N-FIL_13
1002
{
1000
OWNER
1000
GEN
1002
}
  0
LINE
  5
1FF6
330
1F
100
AcDbEntity
  8
SK1
100
AcDbLine
 10
0.0
 20
3.200115174948678
 30
0.0
 11
0.0
 21
-3.200115174948678
 31
0.0
  0
CIRCLE
  5
1FF7
330
1F
100
AcDbEntity
  8
SK1
100
AcDbCircle
 10
0.0
 20
0.0
 30
0.0
 40
3.200115174948665
  0
LINE
  5
1FF8
330
1F
100
AcDbEntity
  8
SK1
100
AcDbLine
 10
-3.200115174948678
 20
0.0
 30
0.0
 11
3.200115174948678
 21
0.0
 31
0.0
  0
LINE
  5
1FF9
330
1F
100
AcDbEntity
  8
4
100
AcDbLine
 10
73.67752118429206
 20
-0.0000000000002179
 30
0.0
 11
0.0
 21
0.000000000000199
 31
0.0
  0
LINE
  5
2054
330
1F
100
AcDbEntity
  8
1
100
AcDbLine
 10
11.49043618882011
 20
-27.49999999999987
 30
0.0
 11
1.999999999999758
 21
-27.49999999999976
 31
0.0
  0
LINE
  5
2480
330
1F
100
AcDbEntity
  8
4
100
AcDbLine
 10
18.70239583640523
 20
10.51645344587393
 30
0.0
 11
37.55263297421599
 21
18.86251701189518
 31
0.0
  0
TEXT
  5
2601
330
1F
100
AcDbEntity
  8
6
100
AcDbText
 10
18.73314706036018
 20
-43.78606988305148
 30
0.0
 40
3.5
  1
22J3K063045F2R00
100
AcDbText
  0
TEXT
  5
2603
330
1F
100
AcDbEntity
  8
6
100
AcDbText
 10
109.5044809168493
 20
-7.300883999369204
 30
0.0
 40
3.5
  1
Zeff.=3
 50
90.0
100
AcDbText
  0
TEXT
  5
2604
330
1F
100
AcDbEntity
  8
6
100
AcDbText
 10
103.2821792544512
 20
-4.244699535825191
 30
0.0
 40
3.5
  1
Z=9
 50
90.0
100
AcDbText
  0
LINE
  5
2785
330
1F
100
AcDbEntity
  8
1
100
AcDbLine
 10
24.49726140646021
 20
30.77113434341657
 30
0.0
 11
14.43577878107417
 21
30.77113434341661
 31
0.0
  0
LINE
  5
2786
330
1F
100
AcDbEntity
  8
SK1
100
AcDbLine
 10
70.0
 20
31.96376936984862
 30
0.0
 11
70.0
 21
31.03623063015098
 31
0.0
  0
CIRCLE
  5
2787
330
1F
100
AcDbEntity
  8
SK1
100
AcDbCircle
 10
70.0
 20
31.4999999999998
 30
0.0
 40
0.4637693698488208
  0
LINE
  5
2788
330
1F
100
AcDbEntity
  8
1
100
AcDbLine
 10
68.51331691148937
 20
21.68396189074017
 30
0.0
 11
24.29095121595378
 21
21.6850433173984
 31
0.0
  0
LINE
  5
2789
330
1F
100
AcDbEntity
  8
1
100
AcDbLine
 10
24.99999847254827
 20
31.50119832037573
 30
0.0
 11
69.21428590185309
 21
31.49999999999981
 31
0.0
  0
LINE
  5
278A
330
1F
100
AcDbEntity
  8
CUT
100
AcDbLine
 10
24.29902948218671
 20
21.68504303559323
 30
0.0
 11
68.51735632790934
 21
21.683961608935
 31
0.0
  0
LINE
  5
278B
330
1F
100
AcDbEntity
  8
CUT
100
AcDbLine
 10
24.99999847255043
 20
31.50108114485287
 30
0.0
 11
69.21832531827305
 21
31.49999971819464
 31
0.0
  0
ARC
  5
278C
330
1F
100
AcDbEntity
  8
1
100
AcDbCircle
 10
21.9757262441555
 20
26.15568864822572
 30
0.0
 40
2.130407610967658
100
AcDbArc
 50
320.6324757416298
 51
356.0817959173877
  0
ARC
  5
278D
330
1F
100
AcDbEntity
  8
CUT
100
AcDbCircle
 10
21.98380451038838
 20
26.15568836642054
 30
0.0
 40
2.130407610967658
100
AcDbArc
 50
320.6324757416298
 51
356.0817959174375
  0
LINE
  5
278E
330
1F
100
AcDbEntity
  8
1
100
AcDbLine
 10
23.5092765342269
 20
22.48483340405249
 30
0.0
 11
23.50927653422695
 21
24.48724104114109
 31
0.0
  0
ARC
  5
278F
330
1F
100
AcDbEntity
  8
1
100
AcDbCircle
 10
24.00927653422701
 20
24.48724104114111
 30
0.0
 40
0.5
100
AcDbArc
 50
140.6324757416292
 51
180.0
1001
GENIUS_GENODEF_13
1002
{
1000
HIER
1070
     0
1002
}
1002
{
1000
MANEDIT
1070
     0
1002
}
1002
{
1000
NOSEL
1070
     0
1002
}
1002
{
1000
BEHIND
1070
     0
1002
}
1002
{
1000
OTHER
1070
     0
1002
}
1002
{
1000
REACTOR
1002
}
1001
GENIUS_GENOBJ-N-FIL_13
1002
{
1000
OWNER
1000
GEN
1002
}
  0
ARC
  5
2790
330
1F
100
AcDbEntity
  8
1
100
AcDbCircle
 10
24.30927653422691
 20
22.48483340405252
 30
0.0
 40
0.8
100
AcDbArc
 50
180.0000000000007
 51
268.6874309514861
1001
GENIUS_GENODEF_13
1002
{
1000
HIER
1070
     0
1002
}
1002
{
1000
MANEDIT
1070
     0
1002
}
1002
{
1000
NOSEL
1070
     0
1002
}
1002
{
1000
BEHIND
1070
     0
1002
}
1002
{
1000
OTHER
1070
     0
1002
}
1002
{
1000
REACTOR
1002
}
1001
GENIUS_GENOBJ-N-FIL_13
1002
{
1000
OWNER
1000
GEN
1002
}
  0
ARC
  5
2791
330
1F
100
AcDbEntity
  8
CUT
100
AcDbCircle
 10
24.31735480045984
 20
22.48483312224735
 30
0.0
 40
0.8
100
AcDbArc
 50
180.0
 51
268.6874309514861
1001
GENIUS_GENODEF_13
1002
{
1000
HIER
1070
     0
1002
}
1002
{
1000
MANEDIT
1070
     0
1002
}
1002
{
1000
NOSEL
1070
     0
1002
}
1002
{
1000
BEHIND
1070
     0
1002
}
1002
{
1000
OTHER
1070
     0
1002
}
1002
{
1000
REACTOR
1002
}
1001
GENIUS_GENOBJ-N-FIL_13
1002
{
1000
OWNER
1000
GEN
1002
}
  0
ARC
  5
2792
330
1F
100
AcDbEntity
  8
CUT
100
AcDbCircle
 10
24.01735480045988
 20
24.48724075933594
 30
0.0
 40
0.5
100
AcDbArc
 50
140.6324757416298
 51
180.0
1001
GENIUS_GENODEF_13
1002
{
1000
HIER
1070
     0
1002
}
1002
{
1000
MANEDIT
1070
     0
1002
}
1002
{
1000
NOSEL
1070
     0
1002
}
1002
{
1000
BEHIND
1070
     0
1002
}
1002
{
1000
OTHER
1070
     0
1002
}
1002
{
1000
REACTOR
1002
}
1001
GENIUS_GENOBJ-N-FIL_13
1002
{
1000
OWNER
1000
GEN
1002
}
  0
LINE
  5
2793
330
1F
100
AcDbEntity
  8
CUT
100
AcDbLine
 10
23.51735480045977
 20
22.4848331222474
 30
0.0
 11
23.51735480045988
 21
24.48724075933594
 31
0.0
  0
LINE
  5
2794
330
1F
100
AcDbEntity
  8
1
100
AcDbLine
 10
24.10115427995867
 20
26.01011305449279
 30
0.0
 11
24.51701715369035
 21
31.00858912988309
 31
0.0
  0
ARC
  5
2795
330
1F
100
AcDbEntity
  8
1
100
AcDbCircle
 10
25.00299112465262
 20
31.01518875307027
 30
0.0
 40
0.4860187809941681
100
AcDbArc
 50
90.3527999850381
 51
180.7780402552256
  0
ARC
  5
2796
330
1F
100
AcDbEntity
  8
CUT
100
AcDbCircle
 10
25.01106939088549
 20
31.0151884712651
 30
0.0
 40
0.4860187809941681
100
AcDbArc
 50
91.30524125517693
 51
180.7780402552273
  0
LINE
  5
2797
330
1F
100
AcDbEntity
  8
CUT
100
AcDbLine
 10
24.10923254619172
 20
26.01011277268947
 30
0.0
 11
24.52509541992322
 21
31.00858884807792
 31
0.0
  0
CIRCLE
  5
2798
330
1F
100
AcDbEntity
  8
1
100
AcDbCircle
 10
32.57290601729931
 20
26.5925216586991
 30
0.0
 40
3.149999999999991
  0
CIRCLE
  5
2799
330
1F
100
AcDbEntity
  8
1
100
AcDbCircle
 10
46.75261855890346
 20
26.5925216586991
 30
0.0
 40
3.149999999999991
  0
LINE
  5
279A
330
1F
100
AcDbEntity
  8
1
100
AcDbLine
 10
41.0446577546399
 20
27.17493026290543
 30
0.0
 11
40.62879488090828
 21
22.17645418751513
 31
0.0
  0
ARC
  5
279B
330
1F
100
AcDbEntity
  8
1
100
AcDbCircle
 10
40.142820909946
 20
22.16985456432794
 30
0.0
 40
0.4860187809941681
100
AcDbArc
 50
271.3052412551801
 51
0.7780402552256853
  0
ARC
  5
279C
330
1F
100
AcDbEntity
  8
1
100
AcDbCircle
 10
40.83653550037166
 20
30.7002099133457
 30
0.0
 40
0.8
100
AcDbArc
 50
0.0000000000008142
 51
88.68743095148614
1001
GENIUS_GENODEF_13
1002
{
1000
HIER
1070
     0
1002
}
1002
{
1000
MANEDIT
1070
     0
1002
}
1002
{
1000
NOSEL
1070
     0
1002
}
1002
{
1000
BEHIND
1070
     0
1002
}
1002
{
1000
OTHER
1070
     0
1002
}
1002
{
1000
REACTOR
1002
}
1001
GENIUS_GENOBJ-N-FIL_13
1002
{
1000
OWNER
1000
GEN
1002
}
  0
LINE
  5
279D
330
1F
100
AcDbEntity
  8
1
100
AcDbLine
 10
41.63653550037162
 20
30.7002099133457
 30
0.0
 11
41.63653550037162
 21
28.6978022762571
 31
0.0
  0
ARC
  5
279E
330
1F
100
AcDbEntity
  8
1
100
AcDbCircle
 10
43.17008579044312
 20
27.0293546691725
 30
0.0
 40
2.130407610967658
100
AcDbArc
 50
140.6324757416298
 51
176.0817959173877
  0
ARC
  5
279F
330
1F
100
AcDbEntity
  8
1
100
AcDbCircle
 10
41.13653550037162
 20
28.6978022762571
 30
0.0
 40
0.5
100
AcDbArc
 50
320.6324757416286
 51
0.0
1001
GENIUS_GENODEF_13
1002
{
1000
HIER
1070
     0
1002
}
1002
{
1000
MANEDIT
1070
     0
1002
}
1002
{
1000
NOSEL
1070
     0
1002
}
1002
{
1000
BEHIND
1070
     0
1002
}
1002
{
1000
OTHER
1070
     0
1002
}
1002
{
1000
REACTOR
1002
}
1001
GENIUS_GENOBJ-N-FIL_13
1002
{
1000
OWNER
1000
GEN
1002
}
  0
CIRCLE
  5
27A0
330
1F
100
AcDbEntity
  8
1
100
AcDbCircle
 10
60.93233110050761
 20
26.5925216586991
 30
0.0
 40
3.149999999999991
  0
LINE
  5
27A1
330
1F
100
AcDbEntity
  8
1
100
AcDbLine
 10
55.22437029624405
 20
27.17493026290543
 30
0.0
 11
54.80850742251243
 21
22.17645418751513
 31
0.0
  0
ARC
  5
27A2
330
1F
100
AcDbEntity
  8
1
100
AcDbCircle
 10
54.32253345155015
 20
22.16985456432794
 30
0.0
 40
0.4860187809941681
100
AcDbArc
 50
271.3052412551801
 51
0.7780402552256853
  0
ARC
  5
27A3
330
1F
100
AcDbEntity
  8
1
100
AcDbCircle
 10
55.01624804197581
 20
30.7002099133457
 30
0.0
 40
0.8
100
AcDbArc
 50
0.0000000000008142
 51
88.68743095148614
1001
GENIUS_GENODEF_13
1002
{
1000
HIER
1070
     0
1002
}
1002
{
1000
MANEDIT
1070
     0
1002
}
1002
{
1000
NOSEL
1070
     0
1002
}
1002
{
1000
BEHIND
1070
     0
1002
}
1002
{
1000
OTHER
1070
     0
1002
}
1002
{
1000
REACTOR
1002
}
1001
GENIUS_GENOBJ-N-FIL_13
1002
{
1000
OWNER
1000
GEN
1002
}
  0
LINE
  5
27A4
330
1F
100
AcDbEntity
  8
1
100
AcDbLine
 10
55.81624804197577
 20
30.7002099133457
 30
0.0
 11
55.81624804197577
 21
28.6978022762571
 31
0.0
  0
ARC
  5
27A5
330
1F
100
AcDbEntity
  8
1
100
AcDbCircle
 10
57.34979833204727
 20
27.0293546691725
 30
0.0
 40
2.130407610967658
100
AcDbArc
 50
140.6324757416298
 51
176.0817959173877
  0
ARC
  5
27A6
330
1F
100
AcDbEntity
  8
1
100
AcDbCircle
 10
55.31624804197576
 20
28.6978022762571
 30
0.0
 40
0.5
100
AcDbArc
 50
320.6324757416286
 51
0.0
1001
GENIUS_GENODEF_13
1002
{
1000
HIER
1070
     0
1002
}
1002
{
1000
MANEDIT
1070
     0
1002
}
1002
{
1000
NOSEL
1070
     0
1002
}
1002
{
1000
BEHIND
1070
     0
1002
}
1002
{
1000
OTHER
1070
     0
1002
}
1002
{
1000
REACTOR
1002
}
1001
GENIUS_GENOBJ-N-FIL_13
1002
{
1000
OWNER
1000
GEN
1002
}
  0
LINE
  5
27A7
330
1F
100
AcDbEntity
  8
CUT
100
AcDbLine
 10
69.40812225426839
 20
27.17492998110222
 30
0.0
 11
68.99225938053655
 21
22.17645390570996
 31
0.0
  0
LINE
  5
27A8
330
1F
100
AcDbEntity
  8
1
100
AcDbLine
 10
69.40408283784819
 20
27.17493026290543
 30
0.0
 11
68.98821996411658
 21
22.17645418751513
 31
0.0
  0
ARC
  5
27A9
330
1F
100
AcDbEntity
  8
CUT
100
AcDbCircle
 10
68.50628540957427
 20
22.16985428252277
 30
0.0
 40
0.4860187809941681
100
AcDbArc
 50
271.3052412551769
 51
0.7780402552273135
  0
ARC
  5
27AA
330
1F
100
AcDbEntity
  8
1
100
AcDbCircle
 10
68.5022459931543
 20
22.16985456432794
 30
0.0
 40
0.4860187809941681
100
AcDbArc
 50
271.3052412551801
 51
0.7780402552256853
  0
LINE
  5
27AB
330
1F
100
AcDbEntity
  8
SK1
100
AcDbLine
 10
69.53623063015129
 20
31.4999999999998
 30
0.0
 11
70.46376936984893
 21
31.4999999999998
 31
0.0
  0
ARC
  5
27AC
330
1F
100
AcDbEntity
  8
CUT
100
AcDbCircle
 10
69.49999999999988
 20
28.69780199445193
 30
0.0
 40
0.5
100
AcDbArc
 50
320.6324757416298
 51
0.0
1001
GENIUS_GENODEF_13
1002
{
1000
HIER
1070
     0
1002
}
1002
{
1000
MANEDIT
1070
     0
1002
}
1002
{
1000
NOSEL
1070
     0
1002
}
1002
{
1000
BEHIND
1070
     0
1002
}
1002
{
1000
OTHER
1070
     0
1002
}
1002
{
1000
REACTOR
1002
}
1001
GENIUS_GENOBJ-N-FIL_13
1002
{
1000
OWNER
1000
GEN
1002
}
  0
ARC
  5
27AD
330
1F
100
AcDbEntity
  8
1
100
AcDbCircle
 10
69.49596058357991
 20
28.6978022762571
 30
0.0
 40
0.5
100
AcDbArc
 50
320.6324757416286
 51
0.0
1001
GENIUS_GENODEF_13
1002
{
1000
HIER
1070
     0
1002
}
1002
{
1000
MANEDIT
1070
     0
1002
}
1002
{
1000
NOSEL
1070
     0
1002
}
1002
{
1000
BEHIND
1070
     0
1002
}
1002
{
1000
OTHER
1070
     0
1002
}
1002
{
1000
REACTOR
1002
}
1001
GENIUS_GENOBJ-N-FIL_13
1002
{
1000
OWNER
1000
GEN
1002
}
  0
ARC
  5
27AE
330
1F
100
AcDbEntity
  8
CUT
100
AcDbCircle
 10
69.19999999999993
 20
30.70020963154053
 30
0.0
 40
0.8
100
AcDbArc
 50
0.0
 51
88.68743095148614
1001
GENIUS_GENODEF_13
1002
{
1000
HIER
1070
     0
1002
}
1002
{
1000
MANEDIT
1070
     0
1002
}
1002
{
1000
NOSEL
1070
     0
1002
}
1002
{
1000
BEHIND
1070
     0
1002
}
1002
{
1000
OTHER
1070
     0
1002
}
1002
{
1000
REACTOR
1002
}
1001
GENIUS_GENOBJ-N-FIL_13
1002
{
1000
OWNER
1000
GEN
1002
}
  0
ARC
  5
27AF
330
1F
100
AcDbEntity
  8
1
100
AcDbCircle
 10
69.19596058357996
 20
30.7002099133457
 30
0.0
 40
0.8
100
AcDbArc
 50
0.0000000000008142
 51
88.68743095148614
1001
GENIUS_GENODEF_13
1002
{
1000
HIER
1070
     0
1002
}
1002
{
1000
MANEDIT
1070
     0
1002
}
1002
{
1000
NOSEL
1070
     0
1002
}
1002
{
1000
BEHIND
1070
     0
1002
}
1002
{
1000
OTHER
1070
     0
1002
}
1002
{
1000
REACTOR
1002
}
1001
GENIUS_GENOBJ-N-FIL_13
1002
{
1000
OWNER
1000
GEN
1002
}
  0
LINE
  5
27B0
330
1F
100
AcDbEntity
  8
CUT
100
AcDbLine
 10
70.0
 20
30.70020963154053
 30
0.0
 11
69.99999999999989
 21
28.69780199445193
 31
0.0
  0
LINE
  5
27B1
330
1F
100
AcDbEntity
  8
1
100
AcDbLine
 10
69.99596058357991
 20
30.7002099133457
 30
0.0
 11
69.99596058357991
 21
28.6978022762571
 31
0.0
  0
ARC
  5
27B2
330
1F
100
AcDbEntity
  8
CUT
100
AcDbCircle
 10
71.53355029007139
 20
27.02935438736733
 30
0.0
 40
2.130407610967658
100
AcDbArc
 50
140.6324757416298
 51
176.0817959173347
  0
ARC
  5
27B3
330
1F
100
AcDbEntity
  8
1
100
AcDbCircle
 10
71.52951087365142
 20
27.0293546691725
 30
0.0
 40
2.130407610967658
100
AcDbArc
 50
140.6324757416298
 51
176.0817959173877
  0
TEXT
  5
27B4
330
1F
100
AcDbEntity
  8
6
100
AcDbText
 10
37.44312373556988
 20
34.58317692777284
 30
0.0
 40
2.5
  1
AOMT160508R
100
AcDbText
  0
LINE
  5
27B5
330
1F
100
AcDbEntity
  8
1
100
AcDbLine
 10
68.99679480008376
 20
22.27951968131049
 30
0.0
 11
68.99679480008376
 21
-30.77113434341681
 31
0.0
  0
LINE
  5
27C1
330
1F
100
AcDbEntity
  8
1
100
AcDbLine
 10
24.99999847254827
 20
-31.50119832037614
 30
0.0
 11
69.21428590185309
 21
-31.50000000000023
 31
0.0
  0
ARC
  5
27C2
330
1F
100
AcDbEntity
  8
1
100
AcDbCircle
 10
25.00299112465262
 20
-31.01518875307067
 30
0.0
 40
0.4860187809941681
100
AcDbArc
 50
179.2219597447743
 51
269.6472000149618
  0
LINE
  5
27C3
330
1F
100
AcDbEntity
  8
1
100
AcDbLine
 10
24.49726140646015
 20
-30.77113434341661
 30
0.0
 11
24.51701715369035
 21
-31.00858912988349
 31
0.0
  0
LINE
  5
27C4
330
1F
100
AcDbEntity
  8
SK1
100
AcDbLine
 10
70.0
 20
-31.96376936984901
 30
0.0
 11
70.0
 21
-31.03623063015138
 31
0.0
  0
CIRCLE
  5
27C5
330
1F
100
AcDbEntity
  8
SK1
100
AcDbCircle
 10
70.0
 20
-31.50000000000019
 30
0.0
 40
0.4637693698488208
  0
ARC
  5
27C6
330
1F
100
AcDbEntity
  8
1
100
AcDbCircle
 10
69.19596058357996
 20
-30.7002099133461
 30
0.0
 40
0.8
100
AcDbArc
 50
271.3125690485138
 51
359.9999999999992
1001
GENIUS_GENODEF_13
1002
{
1000
HIER
1070
     0
1002
}
1002
{
1000
MANEDIT
1070
     0
1002
}
1002
{
1000
NOSEL
1070
     0
1002
}
1002
{
1000
BEHIND
1070
     0
1002
}
1002
{
1000
OTHER
1070
     0
1002
}
1002
{
1000
REACTOR
1002
}
1001
GENIUS_GENOBJ-N-FIL_13
1002
{
1000
OWNER
1000
GEN
1002
}
  0
LINE
  5
27C7
330
1F
100
AcDbEntity
  8
SK1
100
AcDbLine
 10
69.53623063015129
 20
-31.50000000000019
 30
0.0
 11
70.46376936984893
 21
-31.50000000000019
 31
0.0
  0
ARC
  5
27C8
330
1F
100
AcDbEntity
  8
1
100
AcDbCircle
 10
69.49596058357991
 20
-28.6978022762575
 30
0.0
 40
0.5
100
AcDbArc
 50
0.0
 51
39.3675242583714
1001
GENIUS_GENODEF_13
1002
{
1000
HIER
1070
     0
1002
}
1002
{
1000
MANEDIT
1070
     0
1002
}
1002
{
1000
NOSEL
1070
     0
1002
}
1002
{
1000
BEHIND
1070
     0
1002
}
1002
{
1000
OTHER
1070
     0
1002
}
1002
{
1000
REACTOR
1002
}
1001
GENIUS_GENOBJ-N-FIL_13
1002
{
1000
OWNER
1000
GEN
1002
}
  0
LINE
  5
27C9
330
1F
100
AcDbEntity
  8
1
100
AcDbLine
 10
69.99596058357991
 20
-30.7002099133461
 30
0.0
 11
69.99596058357991
 21
-28.6978022762575
 31
0.0
  0
ARC
  5
27CA
330
1F
100
AcDbEntity
  8
1
100
AcDbCircle
 10
71.52951087365142
 20
-27.0293546691729
 30
0.0
 40
2.130407610967658
100
AcDbArc
 50
183.9182040826122
 51
219.3675242583701
  0
LINE
  5
27CB
330
1F
100
AcDbEntity
  8
1
100
AcDbLine
 10
69.40408283784819
 20
-27.17493026290583
 30
0.0
 11
68.98821996411658
 21
-22.17645418751553
 31
0.0
  0
LINE
  5
27D8
330
1F
100
AcDbEntity
  8
1
100
AcDbLine
 10
11.49043618882039
 20
27.50000000000011
 30
0.0
 11
14.43577878107417
 21
30.77113434341661
 31
0.0
  0
LINE
  5
27E1
330
1F
100
AcDbEntity
  8
1
100
AcDbLine
 10
68.99679480008376
 20
-30.77113434341681
 30
0.0
 11
14.43577878107382
 21
-30.77113434341637
 31
0.0
  0
LINE
  5
27E2
330
1F
100
AcDbEntity
  8
1
100
AcDbLine
 10
11.49043618882008
 20
-27.49999999999984
 30
0.0
 11
14.43577878107382
 21
-30.77113434341637
 31
0.0
  0
LINE
  5
27E5
330
1F
100
AcDbEntity
  8
4
100
AcDbLine
 10
18.70239583640511
 20
-10.51645344587375
 30
0.0
 11
37.55263297421577
 21
-18.86251701189521
 31
0.0
  0
LINE
  5
280A
330
1F
100
AcDbEntity
  8
NOCUT
100
AcDbLine
 10
68.99679480008376
 20
-30.7711343434168
 30
0.0
 11
14.43577878107382
 21
-30.77113434341637
 31
0.0
  0
LINE
  5
280C
330
1F
100
AcDbEntity
  8
NOCUT
100
AcDbLine
 10
68.99679480008376
 20
-0.000000000000199
 30
0.0
 11
-0.0000000000000142
 21
0.000000000000199
 31
0.0
  0
LINE
  5
2810
330
1F
100
AcDbEntity
  8
NOCUT
100
AcDbLine
 10
11.49043618882011
 20
-27.49999999999988
 30
0.0
 11
1.999999999999758
 21
-27.49999999999977
 31
0.0
  0
LINE
  5
2812
330
1F
100
AcDbEntity
  8
NOCUT
100
AcDbLine
 10
0.0000000000000426
 20
-25.49999999999966
 30
0.0
 11
-0.0000000000000142
 21
0.000000000000199
 31
0.0
  0
ARC
  5
2814
330
1F
100
AcDbEntity
  8
NOCUT
100
AcDbCircle
 10
2.000000000000099
 20
-25.49999999999963
 30
0.0
 40
2.0
100
AcDbArc
 50
180.0
 51
270.0
1001
GENIUS_GENOBJ-N-FIL_13
1002
{
1000
OWNER
1000
GEN
1002
}
1001
GENIUS_GENODEF_13
1002
{
1000
HIER
1070
     0
1002
}
1002
{
1000
MANEDIT
1070
     0
1002
}
1002
{
1000
NOSEL
1070
     0
1002
}
1002
{
1000
BEHIND
1070
     0
1002
}
1002
{
1000
OTHER
1070
     0
1002
}
1002
{
1000
REACTOR
1002
}
  0
LINE
  5
281E
330
1F
100
AcDbEntity
  8
NOCUT
100
AcDbLine
 10
11.49043618882008
 20
-27.49999999999983
 30
0.0
 11
14.43577878107382
 21
-30.77113434341637
 31
0.0
  0
LINE
  5
2823
330
1F
100
AcDbEntity
  8
NOCUT
100
AcDbLine
 10
68.99679480008376
 20
-0.000000000000199
 30
0.0
 11
68.99679480008376
 21
-30.7711343434168
 31
0.0
  0
DIMENSION
  5
2878
330
1F
100
AcDbEntity
  8
2
100
AcDbDimension
  2
*D5
 10
94.60227756408654
 20
-31.5000000000002
 30
0.0
 11
91.35227756408653
 21
-0.0000000000001901
 31
0.0
 70
    32
  1
%%c<>
  3
AM_DIN
100
AcDbAlignedDimension
 13
70.0
 23
31.4999999999998
 33
0.0
 14
70.0
 24
-31.50000000000019
 34
0.0
 50
90.0
100
AcDbRotatedDimension
  0
DIMENSION
  5
28C7
330
1F
100
AcDbEntity
  8
2
100
AcDbDimension
  2
*D6
 10
24.99999847254827
 20
59.99999999999996
 30
0.0
 11
47.49999923627413
 21
63.24999999999996
 31
0.0
 70
    32
  3
AM_DIN
100
AcDbAlignedDimension
 13
70.0
 23
31.4999999999998
 33
0.0
 14
24.99999847254827
 24
31.50119832037573
 34
0.0
100
AcDbRotatedDimension
  0
DIMENSION
  5
28EB
330
1F
100
AcDbEntity
  8
2
100
AcDbDimension
  2
*D7
 10
0.0000000000000172
 20
75.0
 30
0.0
 11
35.0
 21
78.25
 31
0.0
 70
    32
  3
AM_DIN
100
AcDbAlignedDimension
 13
70.0
 23
31.4999999999998
 33
0.0
 14
0.0000000000000142
 24
25.50000000000008
 34
0.0
100
AcDbRotatedDimension
  0
ARC
  5
2932
330
1F
100
AcDbEntity
  8
1
100
AcDbCircle
 10
83.67026423004586
 20
44.99517258328525
 30
0.0
 40
62.13810777994704
100
AcDbArc
 50
219.7349032238178
 51
256.3410009737129
  0
ARC
  5
2933
330
1F
100
AcDbEntity
  8
1
100
AcDbCircle
 10
4.468777449178361
 20
-28.19530232872553
 30
0.0
 40
45.90441346662285
100
AcDbArc
 50
46.81213997028327
 51
76.97741816282587
  0
ARC
  5
2934
330
1F
100
AcDbEntity
  8
1
100
AcDbCircle
 10
65.13039785153361
 20
44.64846705474269
 30
0.0
 40
49.04690706942947
100
AcDbArc
 50
233.3971015500301
 51
274.5213515678179
  0
ARC
  5
2935
330
1F
100
AcDbEntity
  8
1
100
AcDbCircle
 10
56.1525138491107
 20
-62.22713509086682
 30
0.0
 40
77.46809424647368
100
AcDbArc
 50
80.45623556917322
 51
110.3004948910796
  0
ARC
  5
2936
330
1F
100
AcDbEntity
  8
1
100
AcDbCircle
 10
17.64337858481622
 20
25.05413686525074
 30
0.0
 40
8.983279960522787
100
AcDbArc
 50
164.2007062779184
 51
251.6325058611969
  0
ARC
  5
2937
330
1F
100
AcDbEntity
  8
1
100
AcDbCircle
 10
86.81997564454048
 20
54.36456246750283
 30
0.0
 40
89.2463389613605
100
AcDbArc
 50
226.4665230729664
 51
252.5426440308257
  0
ARC
  5
2938
330
1F
100
AcDbEntity
  8
1
100
AcDbCircle
 10
27.06610625250513
 20
-30.86196112784212
 30
0.0
 40
20.59711820034386
100
AcDbArc
 50
94.78198981405615
 51
170.6058732354381
  0
ARC
  5
2939
330
1F
100
AcDbEntity
  8
1
100
AcDbCircle
 10
36.45829042260795
 20
-49.31899118780563
 30
0.0
 40
26.109200164858
100
AcDbArc
 50
68.23489916007097
 51
134.7329011455755
  0
ENDSEC
  0
SECTION
  2
OBJECTS
  0
DICTIONARY
  5
C
330
0
100
AcDbDictionary
  3
ACAD_GROUP
350
D
  3
ACAD_LAYOUT
350
1A
  3
ACAD_MLINESTYLE
350
17
  3
ACAD_PLOTSETTINGS
350
19
  3
ACAD_PLOTSTYLENAME
350
E
  3
ACDBHEADERROUNDTRIPXREC
350
2957
  3
ACDBVARIABLEDICTIONARY
350
216
  3
ACMDICTIONARY
350
45
  3
AMG
350
41
  3
AMGSNAPSETTINGS
350
23D
  3
DWGPROPS
350
2953
  0
DICTIONARY
  5
1F1
330
1F
100
AcDbDictionary
280
     1
  3
ACAD_INDEX
360
1F2
  3
ACAD_LAYOUTSELFREF
360
297A
  0
DICTIONARY
  5
2978
330
1B
100
AcDbDictionary
280
     1
  3
ACAD_LAYOUTSELFREF
360
2979
  0
DICTIONARY
  5
D
102
{ACAD_REACTORS
330
C
102
}
330
C
100
AcDbDictionary
  0
DICTIONARY
  5
1A
102
{ACAD_REACTORS
330
C
102
}
330
C
100
AcDbDictionary
  0
DICTIONARY
  5
17
102
{ACAD_REACTORS
330
C
102
}
330
C
100
AcDbDictionary
  3
STANDARD
350
18
  0
DICTIONARY
  5
19
102
{ACAD_REACTORS
330
C
102
}
330
C
100
AcDbDictionary
  0
ACDBDICTIONARYWDFLT
  5
E
102
{ACAD_REACTORS
330
C
102
}
330
C
100
AcDbDictionary
281
     1
  3
Normal
350
F
100
AcDbDictionaryWithDefault
340
F
  0
DICTIONARY
  5
2957
102
{ACAD_REACTORS
330
C
102
}
330
C
100
AcDbDictionary
  3
CEPSNTYPE
350
2961
  3
DIMSTYLEDATA
350
2965
  3
FINGERPRINTGUID
350
2962
  3
HYPERLINKBASE
350
295A
  3
INSUNITS
350
2960
  3
LAYOUTDICT
350
295C
  3
LWETCUNION
350
295F
  3
PLOTSETDICT
350
295D
  3
PLOTSTYLNAMDICT
350
295E
  3
PSVPSCALE
350
2964
  3
PUCSBASE
350
2968
  3
PUCSORGBACK
350
296E
  3
PUCSORGBOTTOM
350
296A
  3
PUCSORGFRONT
350
296D
  3
PUCSORGLEFT
350
296B
  3
PUCSORGRIGHT
350
296C
  3
PUCSORGTOP
350
2969
  3
PUCSORTHOREF
350
2966
  3
PUCSORTHOVIEW
350
2967
  3
STYLESHEET
350
295B
  3
TSTACKALIGN
350
2958
  3
TSTACKSIZE
350
2959
  3
UCSBASE
350
2971
  3
UCSORGBACK
350
2977
  3
UCSORGBOTTOM
350
2973
  3
UCSORGFRONT
350
2976
  3
UCSORGLEFT
350
2974
  3
UCSORGRIGHT
350
2975
  3
UCSORGTOP
350
2972
  3
UCSORTHOREF
350
296F
  3
UCSORTHOVIEW
350
2970
  3
VERSIONGUID
350
2963
  0
DICTIONARY
  5
216
102
{ACAD_REACTORS
330
C
102
}
330
C
100
AcDbDictionary
  3
DIMASSOC
350
219
  3
HIDETEXT
350
218
  3
INDEXCTL
350
217
  0
DICTIONARY
  5
45
102
{ACAD_REACTORS
330
C
102
}
330
C
100
AcDbDictionary
  3
ACMSTDDICTIONARY
350
4A
  0
DICTIONARY
  5
41
102
{ACAD_REACTORS
330
C
102
}
330
C
100
AcDbDictionary
  3
ACMGSETTINGS
350
42
  0
DICTIONARY
  5
23D
102
{ACAD_REACTORS
330
C
102
}
330
C
100
AcDbDictionary
  0
XRECORD
  5
2953
102
{ACAD_REACTORS
330
C
102
}
330
C
100
AcDbXrecord
  1
DWGPROPS COOKIE
  2

  3

  4

  6

  7

  8

  9

300
AmdtFileType=84
301
=
302
=
303
=
304
=
305
=
306
=
307
=
308
=
309
=
 40
0.0483931018518519
 41
2453599.324339374
 42
2453754.932265694
  1

 90
        1
  0
DICTIONARY
  5
1F2
102
{ACAD_REACTORS
330
1F1
102
}
330
1F1
100
AcDbDictionary
  3
*A1
350
1F3
  0
XRECORD
  5
297A
102
{ACAD_REACTORS
330
1F1
102
}
330
1F1
100
AcDbXrecord
340
1F
  0
XRECORD
  5
2979
102
{ACAD_REACTORS
330
2978
102
}
330
2978
100
AcDbXrecord
340
1B
  0
MLINESTYLE
  5
18
102
{ACAD_REACTORS
330
17
102
}
330
17
100
AcDbMlineStyle
  2
STANDARD
 70
     0
  3

 62
   256
 51
90.0
 52
90.0
 71
     2
 49
0.5
 62
   256
  6
BYLAYER
 49
-0.5
 62
   256
  6
BYLAYER
  0
ACDBPLACEHOLDER
  5
F
102
{ACAD_REACTORS
330
E
102
}
330
E
100
AcDbPlaceHolder
280
     0
  0
XRECORD
  5
2961
102
{ACAD_REACTORS
330
2957
102
}
330
2957
100
AcDbXrecord
 90
        0
  0
XRECORD
  5
2965
102
{ACAD_REACTORS
330
2957
102
}
330
2957
100
AcDbXrecord
1000
DSTYLE
1002
{
1070
    79
 70
     2
1070
   371
 70
    -1
1070
   372
 70
    -1
1002
}
  0
XRECORD
  5
2962
102
{ACAD_REACTORS
330
2957
102
}
330
2957
100
AcDbXrecord
  1
{03052709-208C-44F1-88CB-F8F0E550BC5D}
  0
XRECORD
  5
295A
102
{ACAD_REACTORS
330
2957
102
}
330
2957
100
AcDbXrecord
  1

  0
XRECORD
  5
2960
102
{ACAD_REACTORS
330
2957
102
}
330
2957
100
AcDbXrecord
 90
        4
  0
XRECORD
  5
295C
102
{ACAD_REACTORS
330
2957
102
}
330
2957
100
AcDbXrecord
340
1A
  0
XRECORD
  5
295F
102
{ACAD_REACTORS
330
2957
102
}
330
2957
100
AcDbXrecord
 90
    10781
  0
XRECORD
  5
295D
102
{ACAD_REACTORS
330
2957
102
}
330
2957
100
AcDbXrecord
340
19
  0
XRECORD
  5
295E
102
{ACAD_REACTORS
330
2957
102
}
330
2957
100
AcDbXrecord
340
E
  0
XRECORD
  5
2964
102
{ACAD_REACTORS
330
2957
102
}
330
2957
100
AcDbXrecord
 40
0.0
  0
XRECORD
  5
2968
102
{ACAD_REACTORS
330
2957
102
}
330
2957
100
AcDbXrecord
340
0
  0
XRECORD
  5
296E
102
{ACAD_REACTORS
330
2957
102
}
330
2957
100
AcDbXrecord
 10
0.0
 20
0.0
 30
0.0
  0
XRECORD
  5
296A
102
{ACAD_REACTORS
330
2957
102
}
330
2957
100
AcDbXrecord
 10
0.0
 20
0.0
 30
0.0
  0
XRECORD
  5
296D
102
{ACAD_REACTORS
330
2957
102
}
330
2957
100
AcDbXrecord
 10
0.0
 20
0.0
 30
0.0
  0
XRECORD
  5
296B
102
{ACAD_REACTORS
330
2957
102
}
330
2957
100
AcDbXrecord
 10
0.0
 20
0.0
 30
0.0
  0
XRECORD
  5
296C
102
{ACAD_REACTORS
330
2957
102
}
330
2957
100
AcDbXrecord
 10
0.0
 20
0.0
 30
0.0
  0
XRECORD
  5
2969
102
{ACAD_REACTORS
330
2957
102
}
330
2957
100
AcDbXrecord
 10
0.0
 20
0.0
 30
0.0
  0
XRECORD
  5
2966
102
{ACAD_REACTORS
330
2957
102
}
330
2957
100
AcDbXrecord
340
0
  0
XRECORD
  5
2967
102
{ACAD_REACTORS
330
2957
102
}
330
2957
100
AcDbXrecord
 70
     0
  0
XRECORD
  5
295B
102
{ACAD_REACTORS
330
2957
102
}
330
2957
100
AcDbXrecord
  1

  0
XRECORD
  5
2958
102
{ACAD_REACTORS
330
2957
102
}
330
2957
100
AcDbXrecord
 90
        1
  0
XRECORD
  5
2959
102
{ACAD_REACTORS
330
2957
102
}
330
2957
100
AcDbXrecord
 90
       70
  0
XRECORD
  5
2971
102
{ACAD_REACTORS
330
2957
102
}
330
2957
100
AcDbXrecord
340
0
  0
XRECORD
  5
2977
102
{ACAD_REACTORS
330
2957
102
}
330
2957
100
AcDbXrecord
 10
0.0
 20
0.0
 30
0.0
  0
XRECORD
  5
2973
102
{ACAD_REACTORS
330
2957
102
}
330
2957
100
AcDbXrecord
 10
0.0
 20
0.0
 30
0.0
  0
XRECORD
  5
2976
102
{ACAD_REACTORS
330
2957
102
}
330
2957
100
AcDbXrecord
 10
0.0
 20
0.0
 30
0.0
  0
XRECORD
  5
2974
102
{ACAD_REACTORS
330
2957
102
}
330
2957
100
AcDbXrecord
 10
0.0
 20
0.0
 30
0.0
  0
XRECORD
  5
2975
102
{ACAD_REACTORS
330
2957
102
}
330
2957
100
AcDbXrecord
 10
0.0
 20
0.0
 30
0.0
  0
XRECORD
  5
2972
102
{ACAD_REACTORS
330
2957
102
}
330
2957
100
AcDbXrecord
 10
0.0
 20
0.0
 30
0.0
  0
XRECORD
  5
296F
102
{ACAD_REACTORS
330
2957
102
}
330
2957
100
AcDbXrecord
340
0
  0
XRECORD
  5
2970
102
{ACAD_REACTORS
330
2957
102
}
330
2957
100
AcDbXrecord
 70
     0
  0
XRECORD
  5
2963
102
{ACAD_REACTORS
330
2957
102
}
330
2957
100
AcDbXrecord
  1
{E73D9D38-CB54-4139-9FCB-1056EC2108EB}
  0
DICTIONARYVAR
  5
219
102
{ACAD_REACTORS
330
216
102
}
330
216
100
DictionaryVariables
280
     0
  1
1
  0
DICTIONARYVAR
  5
218
102
{ACAD_REACTORS
330
216
102
}
330
216
100
DictionaryVariables
280
     0
  1
1
  0
DICTIONARYVAR
  5
217
102
{ACAD_REACTORS
330
216
102
}
330
216
100
DictionaryVariables
280
     0
  1
1
  0
DICTIONARY
  5
4A
102
{ACAD_REACTORS
330
45
102
}
330
45
100
AcDbDictionary
  0
DICTIONARY
  5
42
102
{ACAD_REACTORS
330
41
102
}
330
41
100
AcDbDictionary
  3
DWGSETTINGS
350
43
  0
LAYER_INDEX
  5
1F3
102
{ACAD_REACTORS
330
1F2
102
}
330
1F2
100
AcDbIndex
 40
2453767.607384965
100
AcDbLayerIndex
  8
0
360
1F4
 90
        0
  8
Defpoints
360
210
 90
        0
  8
1
360
29B
 90
       56
  8
2
360
1EC1
 90
        3
  8
4
360
1EC2
 90
        3
  8
6
360
1EC3
 90
        4
  8
SK1
360
1EC4
 90
       12
  8
SK2
360
1EC5
 90
        2
  8
SK3
360
1EC6
 90
        8
  8
CUT
360
1EC7
 90
       14
  8
NOCUT
360
1EC8
 90
        7
  8
AM_0
360
2942
 90
        0
  0
XRECORD
  5
43
102
{ACAD_REACTORS
330
42
102
}
330
42
100
AcDbXrecord
  1
VERSION
140
15.0
  1
PRODUCT
  2
AutoCAD Mechanical 2000
  0
IDBUFFER
  5
1F4
330
0
100
AcDbIdBuffer
  0
IDBUFFER
  5
210
330
0
100
AcDbIdBuffer
  0
IDBUFFER
  5
29B
330
0
100
AcDbIdBuffer
330
27B5
330
27C1
330
27C2
330
27C3
330
27C6
330
27C8
330
27C9
330
27CA
330
27CB
330
27D8
330
27E1
330
27E2
330
2932
330
2933
330
2934
330
2935
330
2936
330
2937
330
2938
330
2939
330
EA3
330
EA4
330
EA8
330
F3B
330
F50
330
2054
330
2785
330
2788
330
2789
330
278C
330
278E
330
278F
330
2790
330
2794
330
2795
330
2798
330
2799
330
279A
330
279B
330
279C
330
279D
330
279E
330
279F
330
27A0
330
27A1
330
27A2
330
27A3
330
27A4
330
27A5
330
27A6
330
27A8
330
27AA
330
27AD
330
27AF
330
27B1
330
27B3
  0
IDBUFFER
  5
1EC1
330
0
100
AcDbIdBuffer
330
2878
330
28C7
330
28EB
  0
IDBUFFER
  5
1EC2
330
0
100
AcDbIdBuffer
330
27E5
330
1FF9
330
2480
  0
IDBUFFER
  5
1EC3
330
0
100
AcDbIdBuffer
330
27B4
330
2601
330
2603
330
2604
  0
IDBUFFER
  5
1EC4
330
0
100
AcDbIdBuffer
330
EA5
330
EA6
330
EA7
330
1FF6
330
1FF7
330
1FF8
330
2786
330
2787
330
27AB
330
27C4
330
27C5
330
27C7
  0
IDBUFFER
  5
1EC5
330
0
100
AcDbIdBuffer
330
EC1
330
EFE
  0
IDBUFFER
  5
1EC6
330
0
100
AcDbIdBuffer
330
EA9
330
EAA
330
EAB
330
EAC
330
EAD
330
EAE
330
EAF
330
EB0
  0
IDBUFFER
  5
1EC7
330
0
100
AcDbIdBuffer
330
278A
330
278B
330
278D
330
2791
330
2792
330
2793
330
2796
330
2797
330
27A7
330
27A9
330
27AC
330
27AE
330
27B0
330
27B2
  0
IDBUFFER
  5
1EC8
330
0
100
AcDbIdBuffer
330
280A
330
280C
330
2810
330
2812
330
2814
330
281E
330
2823
  0
IDBUFFER
  5
2942
330
0
100
AcDbIdBuffer
  0
ENDSEC
  0
EOF
