  0
SECTION
  2
HEADER
  9
$ACADVER
  1
AC1014
  9
$ACADMAINTVER
 70
     9
  9
$DWGCODEPAGE
  3
ANSI_1252
  9
$INSBASE
 10
0.0
 20
0.0
 30
0.0
  9
$EXTMIN
 10
-36.83946524787904
 20
-40.19966622885704
 30
-0.0000000000000053
  9
$EXTMAX
 10
111.7738186217168
 20
79.8355532600932
 30
0.0000000000000099
  9
$LIMMIN
 10
0.0
 20
0.0
  9
$LIMMAX
 10
420.0
 20
297.0
  9
$ORTHOMODE
 70
     0
  9
$REGENMODE
 70
     1
  9
$FILLMODE
 70
     1
  9
$QTEXTMODE
 70
     0
  9
$MIRRTEXT
 70
     1
  9
$DRAGMODE
 70
     2
  9
$LTSCALE
 40
1.0
  9
$OSMODE
 70
  2599
  9
$ATTMODE
 70
     1
  9
$TEXTSIZE
 40
2.5
  9
$TRACEWID
 40
1.0
  9
$TEXTSTYLE
  7
STANDARD
  9
$CLAYER
  8
0
  9
$CELTYPE
  6
BYLAYER
  9
$CECOLOR
 62
   256
  9
$CELTSCALE
 40
1.0
  9
$DELOBJ
 70
     1
  9
$DISPSILH
 70
     0
  9
$DIMSCALE
 40
1.0
  9
$DIMASZ
 40
2.5
  9
$DIMEXO
 40
0.0
  9
$DIMDLI
 40
10.0
  9
$DIMRND
 40
0.0
  9
$DIMDLE
 40
0.0
  9
$DIMEXE
 40
1.0
  9
$DIMTP
 40
0.1
  9
$DIMTM
 40
0.1
  9
$DIMTXT
 40
3.5
  9
$DIMCEN
 40
0.0
  9
$DIMTSZ
 40
0.0
  9
$DIMTOL
 70
     0
  9
$DIMLIM
 70
     0
  9
$DIMTIH
 70
     0
  9
$DIMTOH
 70
     0
  9
$DIMSE1
 70
     0
  9
$DIMSE2
 70
     0
  9
$DIMTAD
 70
     1
  9
$DIMZIN
 70
     8
  9
$DIMBLK
  1

  9
$DIMASO
 70
     1
  9
$DIMSHO
 70
     1
  9
$DIMPOST
  1

  9
$DIMAPOST
  1
"
  9
$DIMALT
 70
     0
  9
$DIMALTD
 70
     2
  9
$DIMALTF
 40
0.0393701
  9
$DIMLFAC
 40
1.0
  9
$DIMTOFL
 70
     1
  9
$DIMTVP
 40
0.0
  9
$DIMTIX
 70
     0
  9
$DIMSOXD
 70
     0
  9
$DIMSAH
 70
     0
  9
$DIMBLK1
  1

  9
$DIMBLK2
  1

  9
$DIMSTYLE
  2
AM_DIN
  9
$DIMCLRD
 70
   256
  9
$DIMCLRE
 70
   256
  9
$DIMCLRT
 70
     2
  9
$DIMTFAC
 40
0.71
  9
$DIMGAP
 40
1.5
  9
$DIMJUST
 70
     0
  9
$DIMSD1
 70
     0
  9
$DIMSD2
 70
     0
  9
$DIMTOLJ
 70
     0
  9
$DIMTZIN
 70
     8
  9
$DIMALTZ
 70
     0
  9
$DIMALTTZ
 70
     0
  9
$DIMFIT
 70
     3
  9
$DIMUPT
 70
     0
  9
$DIMUNIT
 70
     2
  9
$DIMDEC
 70
     2
  9
$DIMTDEC
 70
     2
  9
$DIMALTU
 70
     2
  9
$DIMALTTD
 70
     2
  9
$DIMTXSTY
  7
STANDARD
  9
$DIMAUNIT
 70
     0
  9
$LUNITS
 70
     2
  9
$LUPREC
 70
     2
  9
$SKETCHINC
 40
1.0
  9
$FILLETRAD
 40
2.0
  9
$AUNITS
 70
     0
  9
$AUPREC
 70
     0
  9
$MENU
  1
.
  9
$ELEVATION
 40
0.0
  9
$PELEVATION
 40
0.0
  9
$THICKNESS
 40
0.0
  9
$LIMCHECK
 70
     0
  9
$BLIPMODE
 70
     0
  9
$CHAMFERA
 40
2.5
  9
$CHAMFERB
 40
2.5
  9
$CHAMFERC
 40
20.0
  9
$CHAMFERD
 40
0.0
  9
$SKPOLY
 70
     0
  9
$TDCREATE
 40
2453599.324339374
  9
$TDUPDATE
 40
2453754.768344525
  9
$TDINDWG
 40
0.0544384491
  9
$TDUSRTIMER
 40
0.0544141088
  9
$USRTIMER
 70
     1
  9
$ANGBASE
 50
0.0
  9
$ANGDIR
 70
     0
  9
$PDMODE
 70
     0
  9
$PDSIZE
 40
0.0
  9
$PLINEWID
 40
0.0
  9
$COORDS
 70
     0
  9
$SPLFRAME
 70
     0
  9
$SPLINETYPE
 70
     6
  9
$SPLINESEGS
 70
     8
  9
$ATTDIA
 70
     1
  9
$ATTREQ
 70
     1
  9
$HANDLING
 70
 22529
  9
$HANDSEED
  5
2C6B
  9
$SURFTAB1
 70
     6
  9
$SURFTAB2
 70
     6
  9
$SURFTYPE
 70
     6
  9
$SURFU
 70
     6
  9
$SURFV
 70
     6
  9
$UCSNAME
  2

  9
$UCSORG
 10
0.0
 20
0.0
 30
0.0
  9
$UCSXDIR
 10
1.0
 20
0.0
 30
0.0
  9
$UCSYDIR
 10
0.0
 20
1.0
 30
0.0
  9
$PUCSNAME
  2

  9
$PUCSORG
 10
0.0
 20
0.0
 30
0.0
  9
$PUCSXDIR
 10
1.0
 20
0.0
 30
0.0
  9
$PUCSYDIR
 10
0.0
 20
1.0
 30
0.0
  9
$USERI1
 70
     0
  9
$USERI2
 70
     0
  9
$USERI3
 70
     0
  9
$USERI4
 70
     0
  9
$USERI5
 70
     0
  9
$USERR1
 40
0.0
  9
$USERR2
 40
0.0
  9
$USERR3
 40
0.0
  9
$USERR4
 40
0.0
  9
$USERR5
 40
0.0
  9
$WORLDVIEW
 70
     1
  9
$SHADEDGE
 70
     3
  9
$SHADEDIF
 70
    70
  9
$TILEMODE
 70
     1
  9
$MAXACTVP
 70
    64
  9
$PINSBASE
 10
0.0
 20
0.0
 30
0.0
  9
$PLIMCHECK
 70
     0
  9
$PEXTMIN
 10
1.000000000000000E+20
 20
1.000000000000000E+20
 30
1.000000000000000E+20
  9
$PEXTMAX
 10
-1.000000000000000E+20
 20
-1.000000000000000E+20
 30
-1.000000000000000E+20
  9
$PLIMMIN
 10
0.0
 20
0.0
  9
$PLIMMAX
 10
420.0
 20
297.0
  9
$UNITMODE
 70
     0
  9
$VISRETAIN
 70
     1
  9
$PLINEGEN
 70
     0
  9
$PSLTSCALE
 70
     1
  9
$TREEDEPTH
 70
  3020
  9
$PICKSTYLE
 70
     0
  9
$CMLSTYLE
  2
STANDARD
  9
$CMLJUST
 70
     0
  9
$CMLSCALE
 40
20.0
  9
$PROXYGRAPHICS
 70
     1
  9
$MEASUREMENT
 70
     1
  0
ENDSEC
  0
SECTION
  2
CLASSES
  0
CLASS
  1
ACDBDICTIONARYWDFLT
  2
AcDbDictionaryWithDefault
  3
AutoCAD 2000
 90
        0
280
     0
281
     0
  0
CLASS
  1
ACDBPLACEHOLDER
  2
AcDbPlaceHolder
  3
AutoCAD 2000
 90
        0
280
     0
281
     0
  0
CLASS
  1
LAYOUT
  2
AcDbLayout
  3
AutoCAD 2000
 90
        0
280
     0
281
     0
  0
CLASS
  1
ACME_DOCUMENT
  2
AcMeDbDoc
  3
AcMeServices
 90
        0
280
     0
281
     0
  0
CLASS
  1
ACMESCOPE
  2
AcMeScope
  3
AcMeServices
 90
        0
280
     0
281
     0
  0
CLASS
  1
ACMECOMMANDHISTORY
  2
AcMeCommandHistory
  3
AcMeServices
 90
        0
280
     0
281
     0
  0
CLASS
  1
ACIMSYSVARMAN
  2
AcImSysVarManager
  3
AcMeServices
 90
        0
280
     0
281
     0
  0
CLASS
  1
ACIMREALSYSVAR
  2
AcImRealSysVar
  3
AcMeServices
 90
        0
280
     0
281
     0
  0
CLASS
  1
ACIMINTSYSVAR
  2
AcImIntSysVar
  3
AcMeServices
 90
        0
280
     0
281
     0
  0
CLASS
  1
ACMEDRAWINGMAN
  2
AcMeDrawingMan
  3
AcMeServices
 90
        0
280
     0
281
     0
  0
CLASS
  1
ACMEVIEW
  2
AcMeView
  3
AcMeServices
 90
        0
280
     0
281
     0
  0
CLASS
  1
ACDBENTITYCACHE
  2
AcMeEntityCache
  3
AcMeServices
 90
        0
280
     0
281
     0
  0
CLASS
  1
GSMANAGER
  2
AcMeGSManager
  3
AcMeServices
 90
        0
280
     0
281
     0
  0
CLASS
  1
AMDTINTERNALREACTOR
  2
AmdtInternalReactor
  3
AcMeServices
 90
        0
280
     0
281
     0
  0
CLASS
  1
ACMESTATEMGR
  2
AcMeStateMgr
  3
AcMeServices
 90
        0
280
     0
281
     0
  0
CLASS
  1
ACGREFMASTER
  2
AcGrefMaster
  3
AcAttribServices
 90
        0
280
     0
281
     0
  0
CLASS
  1
ACME_DATABASE
  2
AcMeDbDatabase
  3
AcMeServices
 90
        0
280
     0
281
     0
  0
CLASS
  1
ACRFINSADJUSTERMGR
  2
AcRfInsAdjusterMgr
  3
AcMeServices
 90
        0
280
     0
281
     0
  0
CLASS
  1
ACGREFACADMASTER
  2
AcGrefacadMaster
  3
AcGrefServices
 90
        0
280
     0
281
     0
  0
CLASS
  1
AMIMASTER
  2
AmiMaster
  3
AmiServices
 90
        0
280
     0
281
     0
  0
CLASS
  1
AMGSETTINGSOBJ
  2
AmgSettingsObj
  3
"AcadM|Product Description: AutoCAD Mechanical 2000|Company: Autodesk"
 90
        0
280
     0
281
     0
  0
CLASS
  1
ACMDATADICTIONARY
  2
AcmDataDictionary
  3
"AcmSymBB|Product Description: AutoCAD Mechanical 2000|Company: Autodesk"
 90
        0
280
     0
281
     0
  0
CLASS
  1
ACMDATAENTRYBLOCK
  2
AcmDataEntryBlock
  3
"AcmSymBB|Product Description: AutoCAD Mechanical 2000|Company: Autodesk"
 90
        0
280
     0
281
     0
  0
CLASS
  1
ACIMSTRSYSVAR
  2
AcImStrSysVar
  3
AcMeServices
 90
        0
280
     0
281
     0
  0
CLASS
  1
ACMSTANDARDDIN
  2
AcmStandardDIN
  3
"Amdt_StdImp|Product Description: AutoCAD Mechanical 2000|Company: Autodesk"
 90
        0
280
     0
281
     0
  0
CLASS
  1
AMGOBJPROPCFG
  2
AmgObjPropCfg
  3
"AmgLay|Product Description: AutoCAD Mechanical 2000|Company: Autodesk"
 90
        1
280
     0
281
     0
  0
CLASS
  1
AMDTEDGESTANDARDDIN
  2
AmdtEdgeStdDIN
  3
"Amdt_StdImp|Product Description: AutoCAD Mechanical 2000|Company: Autodesk"
 90
        0
280
     0
281
     0
  0
CLASS
  1
ACMSURFSTANDARDDIN
  2
AcmSurfTextStdDIN
  3
"Amdt_StdImp|Product Description: AutoCAD Mechanical 2000|Company: Autodesk"
 90
        0
280
     0
281
     0
  0
CLASS
  1
ACMFCFSTANDARDDIN
  2
AcmFCFStdDIN
  3
"Amdt_StdImp|Product Description: AutoCAD Mechanical 2000|Company: Autodesk"
 90
        0
280
     0
281
     0
  0
CLASS
  1
ACMWELDSTANDARDDIN
  2
AcmWeldingStdDIN
  3
"Amdt_StdImp|Product Description: AutoCAD Mechanical 2000|Company: Autodesk"
 90
        0
280
     0
281
     0
  0
CLASS
  1
ACMIDSTANDARDDIN
  2
AcmIdStdDIN
  3
"Amdt_StdImp|Product Description: AutoCAD Mechanical 2000|Company: Autodesk"
 90
        0
280
     0
281
     0
  0
CLASS
  1
ACMDATUMSTANDARDDIN
  2
AcmDatumStdDIN
  3
"Amdt_StdImp|Product Description: AutoCAD Mechanical 2000|Company: Autodesk"
 90
        0
280
     0
281
     0
  0
CLASS
  1
ACMBOMSTANDARDDIN
  2
AcmBOMStdDIN
  3
"Amdt_StdImp|Product Description: AutoCAD Mechanical 2000|Company: Autodesk"
 90
        0
280
     0
281
     0
  0
CLASS
  1
ACMDETAILSTANDARDDIN
  2
AmdtDetailSymStdDIN
  3
"Amdt_StdImp|Product Description: AutoCAD Mechanical 2000|Company: Autodesk"
 90
        0
280
     0
281
     0
  0
CLASS
  1
ACMSECTIONSTANDARDDIN
  2
AmdtSectionSymStdDIN
  3
"Amdt_StdImp|Product Description: AutoCAD Mechanical 2000|Company: Autodesk"
 90
        0
280
     0
281
     0
  0
CLASS
  1
ACMCENTERLINESTANDARDDIN
  2
AmdtCenterLineStdDIN
  3
"Amdt_StdImp|Product Description: AutoCAD Mechanical 2000|Company: Autodesk"
 90
        0
280
     0
281
     0
  0
CLASS
  1
ACMNOTESTANDARDDIN
  2
AmdtNoteStdDIN
  3
"Amdt_StdImp|Product Description: AutoCAD Mechanical 2000|Company: Autodesk"
 90
        0
280
     0
281
     0
  0
CLASS
  1
ACAMGLAYSTD
  2
AcAmgLayStd
  3
"AcAmgLayStd|Product Description: AutoCAD Mechanical 2000|Company: Autodesk"
 90
        0
280
     0
281
     0
  0
CLASS
  1
ACAMGDIMSTD
  2
AcAmgDimStd
  3
"AcAmgDimStd|Product Description: AutoCAD Mechanical 2000|Company: Autodesk"
 90
        0
280
     0
281
     0
  0
CLASS
  1
ACAMGHOLECHARTSTDDIN
  2
AcAmgHoleChartStdDIN
  3
ACMSYMBB_MODULE_NAME
 90
        0
280
     0
281
     0
  0
CLASS
  1
ACAMGTITLESTD
  2
AcAmgTitleStd
  3
"TITLEAPP"
 90
        0
280
     0
281
     0
  0
CLASS
  1
ACMSTANDARDANSI
  2
AcmStandardANSI
  3
"Amdt_StdImp|Product Description: AutoCAD Mechanical 2000|Company: Autodesk"
 90
        0
280
     0
281
     0
  0
CLASS
  1
ACMSURFSTANDARDANSI
  2
AcmSurfTextStdANSI
  3
"Amdt_StdImp|Product Description: AutoCAD Mechanical 2000|Company: Autodesk"
 90
        0
280
     0
281
     0
  0
CLASS
  1
ACMFCFSTANDARDANSI
  2
AcmFCFStdANSI
  3
"Amdt_StdImp|Product Description: AutoCAD Mechanical 2000|Company: Autodesk"
 90
        0
280
     0
281
     0
  0
CLASS
  1
ACMWELDSTANDARDANSI
  2
AcmWeldingStdANSI
  3
"Amdt_StdImp|Product Description: AutoCAD Mechanical 2000|Company: Autodesk"
 90
        0
280
     0
281
     0
  0
CLASS
  1
ACMIDSTANDARDANSI
  2
AcmIdStdANSI
  3
"Amdt_StdImp|Product Description: AutoCAD Mechanical 2000|Company: Autodesk"
 90
        0
280
     0
281
     0
  0
CLASS
  1
ACMDATUMSTANDARDANSI
  2
AcmDatumStdANSI
  3
"Amdt_StdImp|Product Description: AutoCAD Mechanical 2000|Company: Autodesk"
 90
        0
280
     0
281
     0
  0
CLASS
  1
ACMBOMSTANDARDANSI
  2
AcmBOMStdANSI
  3
"Amdt_StdImp|Product Description: AutoCAD Mechanical 2000|Company: Autodesk"
 90
        0
280
     0
281
     0
  0
CLASS
  1
ACMDETAILSTANDARDANSI
  2
AmdtDetailSymStdANSI
  3
"Amdt_StdImp|Product Description: AutoCAD Mechanical 2000|Company: Autodesk"
 90
        0
280
     0
281
     0
  0
CLASS
  1
ACMSECTIONSTANDARDANSI
  2
AmdtSectionSymStdANSI
  3
"Amdt_StdImp|Product Description: AutoCAD Mechanical 2000|Company: Autodesk"
 90
        0
280
     0
281
     0
  0
CLASS
  1
ACMCENTERLINESTANDARDANSI
  2
AmdtCenterLineStdANSI
  3
"Amdt_StdImp|Product Description: AutoCAD Mechanical 2000|Company: Autodesk"
 90
        0
280
     0
281
     0
  0
CLASS
  1
ACMNOTESTANDARDANSI
  2
AmdtNoteStdANSI
  3
"Amdt_StdImp|Product Description: AutoCAD Mechanical 2000|Company: Autodesk"
 90
        0
280
     0
281
     0
  0
CLASS
  1
ACAMGHOLECHARTSTDANSI
  2
AcAmgHoleChartStdANSI
  3
ACMSYMBB_MODULE_NAME
 90
        0
280
     0
281
     0
  0
CLASS
  1
ACAMGFILTERDAT
  2
AcAmgFilterDat
  3
"AcadM|Product Description: AutoCAD Mechanical 2000|Company: Autodesk"
 90
        0
280
     0
281
     0
  0
CLASS
  1
AMDTFORMULAUPDATEDISPATCHER
  2
AmdtFormulaUpdateDispatcher
  3
AcMeServices
 90
        0
280
     0
281
     0
  0
CLASS
  1
LAYER_INDEX
  2
AcDbLayerIndex
  3
AutoCAD 2000
 90
        0
280
     0
281
     0
  0
CLASS
  1
IDBUFFER
  2
AcDbIdBuffer
  3
AutoCAD 2000
 90
        0
280
     0
281
     0
  0
CLASS
  1
DICTIONARYVAR
  2
AcDbDictionaryVar
  3
AutoCAD 2000
 90
        0
280
     0
281
     0
  0
CLASS
  1
DIMASSOC
  2
AcDbDimAssoc
  3
"AcDbDimAssoc|Product Desc:     AcDim ARX App For Dimension|Company:          Autodesk, Inc.|WEB Address:      www.autodesk.com"
 90
        0
280
     0
281
     0
  0
CLASS
  1
ACMDIMBREAKPERSREACTOR
  2
AcmDimBreakPersReactor
  3
amgDimApp().moduleName()
 90
     1023
280
     0
281
     0
  0
CLASS
  1
ACMSURFSYM
  2
AcmSurfaceTexture
  3
"AcmSymBB|Product Description: AutoCAD Mechanical 2000|Company: Autodesk"
 90
     1023
280
     0
281
     1
  0
CLASS
  1
ACMFCFRAME
  2
AcmFCF
  3
"AcmSymBB|Product Description: AutoCAD Mechanical 2000|Company: Autodesk"
 90
     1023
280
     0
281
     1
  0
CLASS
  1
LONG_TRANSACTION
  2
AcDbLongTransaction
  3
AutoCAD 2000
 90
        0
280
     0
281
     0
  0
CLASS
  1
LWPOLYLINE
  2
AcDbPolyline
  3
AutoCAD 2000
 90
        0
280
     0
281
     1
  0
CLASS
  1
HATCH
  2
AcDbHatch
  3
AutoCAD 2000
 90
        0
280
     0
281
     1
  0
CLASS
  1
XRECORD
  2
AcDbXrecord
  3
AutoCAD 2000
 90
        0
280
     0
281
     0
  0
ENDSEC
  0
SECTION
  2
TABLES
  0
TABLE
  2
VPORT
  5
8
330
0
100
AcDbSymbolTable
 70
     5
  0
VPORT
  5
2C44
330
8
100
AcDbSymbolTableRecord
100
AcDbViewportTableRecord
  2
*ACTIVE
 70
     0
 10
0.0
 20
0.0
 11
1.0
 21
1.0
 12
191.5802673760604
 22
128.4001668855714
 13
0.0
 23
0.0
 14
2.5
 24
2.5
 15
10.0
 25
10.0
 16
0.0
 26
0.0
 36
1.0
 17
0.0
 27
0.0
 37
0.0
 40
340.9672602649336
 41
1.716417910447761
 42
50.0
 43
0.0
 44
0.0
 50
0.0
 51
0.0
 71
     0
 72
 10000
 73
     1
 74
     3
 75
     0
 76
     0
 77
     0
 78
     0
  0
ENDTAB
  0
TABLE
  2
LTYPE
  5
5
330
0
100
AcDbSymbolTable
 70
    16
  0
LTYPE
  5
14
330
5
100
AcDbSymbolTableRecord
100
AcDbLinetypeTableRecord
  2
BYBLOCK
 70
     0
  3

 72
    65
 73
     0
 40
0.0
  0
LTYPE
  5
15
330
5
100
AcDbSymbolTableRecord
100
AcDbLinetypeTableRecord
  2
BYLAYER
 70
     0
  3

 72
    65
 73
     0
 40
0.0
  0
LTYPE
  5
16
330
5
100
AcDbSymbolTableRecord
100
AcDbLinetypeTableRecord
  2
CONTINUOUS
 70
     0
  3
Solid line
 72
    65
 73
     0
 40
0.0
  0
LTYPE
  5
50
330
5
100
AcDbSymbolTableRecord
100
AcDbLinetypeTableRecord
  2
AMCONSTR
 70
     0
  3
_______________________
 72
    65
 73
     2
 40
9999.0
 49
9999.0
 74
     0
 49
0.0
 74
     0
  0
LTYPE
  5
55
330
5
100
AcDbSymbolTableRecord
100
AcDbLinetypeTableRecord
  2
AMZIGZAG
 70
     0
  3
/\/-/\/-/\/-/\/-/\/-/\/
 72
    65
 73
     2
 40
11.00009999999999
 49
0.0001
 74
     4
 75
   135
340
54
 46
0.04
 50
0.0
 44
0.0
 45
0.0
 49
-11.0
 74
     0
  0
LTYPE
  5
56
330
5
100
AcDbSymbolTableRecord
100
AcDbLinetypeTableRecord
  2
AM_DIN_F_W050
 70
     0
  3
__ __ __ __ __ __ __ __ __ __ __ __ __ __ __
 72
    65
 73
     2
 40
6.25
 49
4.75
 74
     0
 49
-1.5
 74
     0
  0
LTYPE
  5
57
330
5
100
AcDbSymbolTableRecord
100
AcDbLinetypeTableRecord
  2
AM_DIN_G_W050
 70
     0
  3
____ . ____ . ____ . ____ . ____ . ____ . ____
 72
    65
 73
     4
 40
13.75
 49
9.75
 74
     0
 49
-1.5
 74
     0
 49
1.0
 74
     0
 49
-1.5
 74
     0
  0
LTYPE
  5
58
330
5
100
AcDbSymbolTableRecord
100
AcDbLinetypeTableRecord
  2
AM_DIN_K_W050
 70
     0
  3
_____ . . _____ . . _____ . . ____ .. ____
 72
    65
 73
     6
 40
16.25
 49
9.75
 74
     0
 49
-1.5
 74
     0
 49
1.0
 74
     0
 49
-1.5
 74
     0
 49
1.0
 74
     0
 49
-1.5
 74
     0
  0
LTYPE
  5
59
330
5
100
AcDbSymbolTableRecord
100
AcDbLinetypeTableRecord
  2
AM_DIN_G_W050X2
 70
     0
  3
__ . __ . __ . __ . __ . __
 72
    65
 73
     4
 40
6.875
 49
4.75
 74
     0
 49
-0.875
 74
     0
 49
0.375
 74
     0
 49
-0.875
 74
     0
  0
LTYPE
  5
5A
330
5
100
AcDbSymbolTableRecord
100
AcDbLinetypeTableRecord
  2
AM_DIN_F_W050X2
 70
     0
  3
 _ _ _ _ _ _ _ _ _ _ _ _
 72
    65
 73
     2
 40
3.125
 49
2.25
 74
     0
 49
-0.875
 74
     0
  0
LTYPE
  5
68
330
5
100
AcDbSymbolTableRecord
100
AcDbLinetypeTableRecord
  2
ACDINWELD
 70
     0
  3
_ _ _ _ _
 72
    65
 73
     2
 40
2.0
 49
2.0
 74
     0
 49
-1.0
 74
     0
  0
LTYPE
  5
69
330
5
100
AcDbSymbolTableRecord
100
AcDbLinetypeTableRecord
  2
ACDINTGB
 70
     0
  3
__ . . __ . .
 72
    65
 73
     6
 40
9.0
 49
4.0
 74
     0
 49
-1.0
 74
     0
 49
1.0
 74
     0
 49
-1.0
 74
     0
 49
1.0
 74
     0
 49
-1.0
 74
     0
  0
LTYPE
  5
6A
330
5
100
AcDbSymbolTableRecord
100
AcDbLinetypeTableRecord
  2
ACDINTGL
 70
     0
  3
_ _ _ _ _
 72
    65
 73
     2
 40
3.0
 49
2.0
 74
     0
 49
-1.0
 74
     0
  0
LTYPE
  5
6C
330
5
100
AcDbSymbolTableRecord
100
AcDbLinetypeTableRecord
  2
CENTER
 70
     0
  3
__ . __
 72
    65
 73
     4
 40
7.0
 49
4.0
 74
     0
 49
-1.0
 74
     0
 49
1.0
 74
     0
 49
-1.0
 74
     0
  0
LTYPE
  5
1E2C
330
5
100
AcDbSymbolTableRecord
100
AcDbLinetypeTableRecord
  2
PHANTOM2
 70
     0
  3
Phantom (.5x) ___ _ _ ___ _ _ ___ _ _ ___ _ _
 72
    65
 73
     6
 40
1.25
 49
0.625
 74
     0
 49
-0.125
 74
     0
 49
0.125
 74
     0
 49
-0.125
 74
     0
 49
0.125
 74
     0
 49
-0.125
 74
     0
  0
LTYPE
  5
1E2D
330
5
100
AcDbSymbolTableRecord
100
AcDbLinetypeTableRecord
  2
ACANSTGB
 70
     0
  3
__ . . __ . .
 72
    65
 73
     6
 40
0.35433070866
 49
0.15748031496
 74
     0
 49
-0.03937007874
 74
     0
 49
0.03937007874
 74
     0
 49
-0.03937007874
 74
     0
 49
0.03937007874
 74
     0
 49
-0.03937007874
 74
     0
  0
LTYPE
  5
1E2E
330
5
100
AcDbSymbolTableRecord
100
AcDbLinetypeTableRecord
  2
ACANSTGL
 70
     0
  3
_ _ _ _ _
 72
    65
 73
     2
 40
0.11811023622
 49
0.07874015748
 74
     0
 49
-0.03937007874
 74
     0
  0
LTYPE
  5
1E2F
330
5
100
AcDbSymbolTableRecord
100
AcDbLinetypeTableRecord
  2
DASHED
 70
     0
  3
__ __ __ __ __ __ __ __ __ __ __ __ __ __ __ __
 72
    65
 73
     2
 40
19.05
 49
12.7
 74
     0
 49
-6.349999999999998
 74
     0
  0
ENDTAB
  0
TABLE
  2
LAYER
  5
2
330
0
100
AcDbSymbolTable
 70
    11
  0
LAYER
  5
10
330
2
100
AcDbSymbolTableRecord
100
AcDbLayerTableRecord
  2
0
 70
     0
 62
     7
  6
CONTINUOUS
  0
LAYER
  5
263
330
2
100
AcDbSymbolTableRecord
100
AcDbLayerTableRecord
  2
DEFPOINTS
 70
     0
 62
     7
  6
CONTINUOUS
  0
LAYER
  5
1E30
330
2
100
AcDbSymbolTableRecord
100
AcDbLayerTableRecord
  2
1
 70
     0
 62
     4
  6
CONTINUOUS
  0
LAYER
  5
1E31
330
2
100
AcDbSymbolTableRecord
100
AcDbLayerTableRecord
  2
2
 70
     0
 62
     7
  6
CONTINUOUS
  0
LAYER
  5
1E32
330
2
100
AcDbSymbolTableRecord
100
AcDbLayerTableRecord
  2
4
 70
     0
 62
     2
  6
CENTER
  0
LAYER
  5
1E33
330
2
100
AcDbSymbolTableRecord
100
AcDbLayerTableRecord
  2
6
 70
     0
 62
     5
  6
CONTINUOUS
  0
LAYER
  5
1E34
330
2
100
AcDbSymbolTableRecord
100
AcDbLayerTableRecord
  2
SK1
 70
     0
 62
     4
  6
CONTINUOUS
  0
LAYER
  5
1E35
330
2
100
AcDbSymbolTableRecord
100
AcDbLayerTableRecord
  2
SK2
 70
     0
 62
     7
  6
CONTINUOUS
  0
LAYER
  5
1E36
330
2
100
AcDbSymbolTableRecord
100
AcDbLayerTableRecord
  2
SK3
 70
     0
 62
     1
  6
DASHED
  0
LAYER
  5
1E37
330
2
100
AcDbSymbolTableRecord
100
AcDbLayerTableRecord
  2
CUT
 70
     0
 62
     1
  6
CONTINUOUS
  0
LAYER
  5
1E38
330
2
100
AcDbSymbolTableRecord
100
AcDbLayerTableRecord
  2
NOCUT
 70
     0
 62
     7
  6
CONTINUOUS
  0
ENDTAB
  0
TABLE
  2
STYLE
  5
3
330
0
100
AcDbSymbolTable
 70
     6
  0
STYLE
  5
11
330
3
100
AcDbSymbolTableRecord
100
AcDbTextStyleTableRecord
  2
STANDARD
 70
     0
 40
0.0
 41
1.0
 50
0.0
 71
     0
 42
2.5
  3
ISOCP.SHX
  4

  0
STYLE
  5
54
330
3
100
AcDbSymbolTableRecord
100
AcDbTextStyleTableRecord
  2

 70
     1
 40
0.0
 41
1.0
 50
0.0
 71
     0
 42
2.5
  3
ltypeshp.shx
  4

  0
STYLE
  5
5B
330
3
100
AcDbSymbolTableRecord
100
AcDbTextStyleTableRecord
  2
ACDINTS
 70
     0
 40
1.0
 41
1.0
 50
0.0
 71
     0
 42
2.5
  3
isocp.shx
  4

  0
STYLE
  5
67
330
3
100
AcDbSymbolTableRecord
100
AcDbTextStyleTableRecord
  2
ACDINGDT
 70
     0
 40
0.0
 41
1.0
 50
0.0
 71
     0
 42
2.5
  3
amgdt.shx
  4

  0
STYLE
  5
1E39
330
3
100
AcDbSymbolTableRecord
100
AcDbTextStyleTableRecord
  2
ACANSTS
 70
     0
 40
1.0
 41
1.0
 50
0.0
 71
     0
 42
0.2
  3
romans.shx
  4

  0
STYLE
  5
1E3A
330
3
100
AcDbSymbolTableRecord
100
AcDbTextStyleTableRecord
  2
ACANSGDT
 70
     0
 40
0.0
 41
1.0
 50
0.0
 71
     0
 42
0.2
  3
amgdtans.shx
  4

  0
ENDTAB
  0
TABLE
  2
VIEW
  5
6
330
0
100
AcDbSymbolTable
 70
     0
  0
ENDTAB
  0
TABLE
  2
UCS
  5
7
330
0
100
AcDbSymbolTable
 70
     0
  0
ENDTAB
  0
TABLE
  2
APPID
  5
9
330
0
100
AcDbSymbolTable
 70
    53
  0
APPID
  5
12
330
9
100
AcDbSymbolTableRecord
100
AcDbRegAppTableRecord
  2
ACAD
 70
     0
  0
APPID
  5
2C
330
9
100
AcDbSymbolTableRecord
100
AcDbRegAppTableRecord
  2
MCAD_NO_VIS
 70
     0
  0
APPID
  5
2D
330
9
100
AcDbSymbolTableRecord
100
AcDbRegAppTableRecord
  2
ACAD_TEMP_GRAPHIC
 70
     0
  0
APPID
  5
3E
330
9
100
AcDbSymbolTableRecord
100
AcDbRegAppTableRecord
  2
ACATTRIBSERVICES
 70
     0
  0
APPID
  5
29A
330
9
100
AcDbSymbolTableRecord
100
AcDbRegAppTableRecord
  2
GENIUS_GENDIMSH_14
 70
     0
  0
APPID
  5
588
330
9
100
AcDbSymbolTableRecord
100
AcDbRegAppTableRecord
  2
GENIUS12
 70
     0
  0
APPID
  5
589
330
9
100
AcDbSymbolTableRecord
100
AcDbRegAppTableRecord
  2
GENIUS_GENOENT_13
 70
     0
  0
APPID
  5
58A
330
9
100
AcDbSymbolTableRecord
100
AcDbRegAppTableRecord
  2
GENIUS_GENODEF_13
 70
     0
  0
APPID
  5
58B
330
9
100
AcDbSymbolTableRecord
100
AcDbRegAppTableRecord
  2
GENIUS_GENOBJ-N-RSBK_13
 70
     0
  0
APPID
  5
58C
330
9
100
AcDbSymbolTableRecord
100
AcDbRegAppTableRecord
  2
GENIUS_GENOBJ-N-DIM12_13
 70
     0
  0
APPID
  5
58D
330
9
100
AcDbSymbolTableRecord
100
AcDbRegAppTableRecord
  2
GENIUS_GENSCALE_13
 70
     0
  0
APPID
  5
58E
330
9
100
AcDbSymbolTableRecord
100
AcDbRegAppTableRecord
  2
GENIUS_GENCFG_13
 70
     0
  0
APPID
  5
58F
330
9
100
AcDbSymbolTableRecord
100
AcDbRegAppTableRecord
  2
GENIUS_GENCFG0_13
 70
     0
  0
APPID
  5
590
330
9
100
AcDbSymbolTableRecord
100
AcDbRegAppTableRecord
  2
GENIUS_GENCFG1_13
 70
     0
  0
APPID
  5
591
330
9
100
AcDbSymbolTableRecord
100
AcDbRegAppTableRecord
  2
GENIUS_GENCFG2_13
 70
     0
  0
APPID
  5
592
330
9
100
AcDbSymbolTableRecord
100
AcDbRegAppTableRecord
  2
GENIUS_GENCFG3_13
 70
     0
  0
APPID
  5
593
330
9
100
AcDbSymbolTableRecord
100
AcDbRegAppTableRecord
  2
GENIUS_GENCFG4_13
 70
     0
  0
APPID
  5
594
330
9
100
AcDbSymbolTableRecord
100
AcDbRegAppTableRecord
  2
GENIUS_GEVCFG0_13
 70
     0
  0
APPID
  5
595
330
9
100
AcDbSymbolTableRecord
100
AcDbRegAppTableRecord
  2
GENIUS_GENOBJ-F-SUF_13
 70
     0
  0
APPID
  5
596
330
9
100
AcDbSymbolTableRecord
100
AcDbRegAppTableRecord
  2
GENIUS_GEFCFG0_13
 70
     0
  0
APPID
  5
597
330
9
100
AcDbSymbolTableRecord
100
AcDbRegAppTableRecord
  2
GEV_VCCNULL_SWITCH_OFF
 70
     0
  0
APPID
  5
598
330
9
100
AcDbSymbolTableRecord
100
AcDbRegAppTableRecord
  2
GENIUS_GENDTOL_13
 70
     0
  0
APPID
  5
599
330
9
100
AcDbSymbolTableRecord
100
AcDbRegAppTableRecord
  2
GENIUS_GENDIM_13
 70
     0
  0
APPID
  5
59A
330
9
100
AcDbSymbolTableRecord
100
AcDbRegAppTableRecord
  2
GENIUS_GE3DTOL_13
 70
     0
  0
APPID
  5
59B
330
9
100
AcDbSymbolTableRecord
100
AcDbRegAppTableRecord
  2
AD_DRAW
 70
     0
  0
APPID
  5
59C
330
9
100
AcDbSymbolTableRecord
100
AcDbRegAppTableRecord
  2
ASURF_PCURVE_APPNAME
 70
     0
  0
APPID
  5
59D
330
9
100
AcDbSymbolTableRecord
100
AcDbRegAppTableRecord
  2
AMG_3D2D_5_0
 70
     0
  0
APPID
  5
59E
330
9
100
AcDbSymbolTableRecord
100
AcDbRegAppTableRecord
  2
DESIGNERASSEMBLIES
 70
     0
  0
APPID
  5
59F
330
9
100
AcDbSymbolTableRecord
100
AcDbRegAppTableRecord
  2
ACADM_DIM_EDIT
 70
     0
  0
APPID
  5
5A0
330
9
100
AcDbSymbolTableRecord
100
AcDbRegAppTableRecord
  2
AMDT_DM_ADJ
 70
     0
  0
APPID
  5
5A1
330
9
100
AcDbSymbolTableRecord
100
AcDbRegAppTableRecord
  2
GENIUS_GENSCREG_15
 70
     0
  0
APPID
  5
5A2
330
9
100
AcDbSymbolTableRecord
100
AcDbRegAppTableRecord
  2
GENIUS_GENOBJ-N-SDF_13
 70
     0
  0
APPID
  5
6E4
330
9
100
AcDbSymbolTableRecord
100
AcDbRegAppTableRecord
  2
GENIUS_GENOBJ-N-FIL_13
 70
     0
  0
APPID
  5
C65
330
9
100
AcDbSymbolTableRecord
100
AcDbRegAppTableRecord
  2
GENIUS_GENHINW_13
 70
     0
  0
APPID
  5
C66
330
9
100
AcDbSymbolTableRecord
100
AcDbRegAppTableRecord
  2
GENIUS_GENOBJ-F-TOLL_13
 70
     0
  0
APPID
  5
C67
330
9
100
AcDbSymbolTableRecord
100
AcDbRegAppTableRecord
  2
GENIUS_GENOREF_13
 70
     0
  0
APPID
  5
C68
330
9
100
AcDbSymbolTableRecord
100
AcDbRegAppTableRecord
  2
GENIUS_GENOLIS_13
 70
     0
  0
APPID
  5
C69
330
9
100
AcDbSymbolTableRecord
100
AcDbRegAppTableRecord
  2
GENIUS_GEFTOLC_13
 70
     0
  0
APPID
  5
C6A
330
9
100
AcDbSymbolTableRecord
100
AcDbRegAppTableRecord
  2
GENIUS_GENOBJ-F-TOL_13
 70
     0
  0
APPID
  5
C6B
330
9
100
AcDbSymbolTableRecord
100
AcDbRegAppTableRecord
  2
GENIUS_GENOBJ-N-RSSYM_13
 70
     0
  0
APPID
  5
C6C
330
9
100
AcDbSymbolTableRecord
100
AcDbRegAppTableRecord
  2
GENIUS_GENSYMENT_13
 70
     0
  0
APPID
  5
C6D
330
9
100
AcDbSymbolTableRecord
100
AcDbRegAppTableRecord
  2
GENIUS_GENSCSYM_13
 70
     0
  0
APPID
  5
1E42
330
9
100
AcDbSymbolTableRecord
100
AcDbRegAppTableRecord
  2
GENIUS_GENBLLY_14
 70
     0
  0
APPID
  5
1E43
330
9
100
AcDbSymbolTableRecord
100
AcDbRegAppTableRecord
  2
GENIUS_GENTRA_14
 70
     0
  0
APPID
  5
1E44
330
9
100
AcDbSymbolTableRecord
100
AcDbRegAppTableRecord
  2
GENIUS_GENOBJ-N-TIT_13
 70
     0
  0
APPID
  5
1E45
330
9
100
AcDbSymbolTableRecord
100
AcDbRegAppTableRecord
  2
GENIUS_GENTITLE_13
 70
     0
  0
APPID
  5
1E46
330
9
100
AcDbSymbolTableRecord
100
AcDbRegAppTableRecord
  2
ACADIGES
 70
     0
  0
APPID
  5
1E47
330
9
100
AcDbSymbolTableRecord
100
AcDbRegAppTableRecord
  2
GENIUS_GENOBJ-N-HTC_13
 70
     0
  0
APPID
  5
1E48
330
9
100
AcDbSymbolTableRecord
100
AcDbRegAppTableRecord
  2
GENIUS_GENHATCH_13
 70
     0
  0
APPID
  5
1E49
330
9
100
AcDbSymbolTableRecord
100
AcDbRegAppTableRecord
  2
GENIUS_GENOBJ-N-CRS_13
 70
     0
  0
APPID
  5
1E4A
330
9
100
AcDbSymbolTableRecord
100
AcDbRegAppTableRecord
  2
GENIUS_GENFIL_13
 70
     0
  0
APPID
  5
1E4B
330
9
100
AcDbSymbolTableRecord
100
AcDbRegAppTableRecord
  2
GENIUS_GENOBJ-N-CHA_13
 70
     0
  0
APPID
  5
1E4C
330
9
100
AcDbSymbolTableRecord
100
AcDbRegAppTableRecord
  2
GENIUS_GENOBJ-N-CEN_13
 70
     0
  0
ENDTAB
  0
TABLE
  2
DIMSTYLE
  5
A
330
0
100
AcDbSymbolTable
 70
    14
  0
DIMSTYLE
105
6F
102
{ACAD_REACTORS
330
EC1
330
2A8B
330
2B2A
330
2B78
330
2BA1
102
}
330
A
100
AcDbSymbolTableRecord
100
AcDbDimStyleTableRecord
  2
AM_DIN
 70
     0
  3

  4
"
  5

  6

  7

 40
1.0
 41
2.5
 42
0.0
 43
10.0
 44
1.0
 45
0.0
 46
0.0
 47
0.1
 48
0.1
140
3.5
141
0.0
142
0.0
143
0.0393701
144
1.0
145
0.0
146
0.71
147
1.5
 71
     0
 72
     0
 73
     0
 74
     0
 75
     0
 76
     0
 77
     1
 78
     8
170
     0
171
     2
172
     1
173
     0
174
     0
175
     0
176
   256
177
   256
178
     2
270
     2
271
     2
272
     2
273
     2
274
     2
340
11
275
     0
280
     0
281
     0
282
     0
283
     0
284
     8
285
     0
286
     0
287
     3
288
     0
  0
DIMSTYLE
105
70
330
A
100
AcDbSymbolTableRecord
100
AcDbDimStyleTableRecord
  2
AM_DIN$3
 70
     0
  3

  4
"
  5

  6

  7

 40
1.0
 41
3.5
 42
0.0
 43
10.0
 44
1.0
 45
0.0
 46
0.0
 47
0.1
 48
0.1
140
3.5
141
0.0
142
0.0
143
0.0393701
144
1.0
145
0.0
146
0.71
147
1.5
 71
     0
 72
     0
 73
     0
 74
     1
 75
     0
 76
     0
 77
     1
 78
     8
170
     0
171
     2
172
     0
173
     0
174
     0
175
     0
176
   256
177
   256
178
     2
270
     2
271
     2
272
     2
273
     2
274
     2
340
11
275
     0
280
     0
281
     0
282
     0
283
     0
284
     8
285
     0
286
     0
287
     0
288
     1
  0
DIMSTYLE
105
71
330
A
100
AcDbSymbolTableRecord
100
AcDbDimStyleTableRecord
  2
AM_DIN$4
 70
     0
  3

  4
"
  5

  6

  7

 40
1.0
 41
3.5
 42
0.0
 43
10.0
 44
1.0
 45
0.0
 46
0.0
 47
0.1
 48
0.1
140
3.5
141
0.0
142
0.0
143
0.0393701
144
1.0
145
0.0
146
0.71
147
1.5
 71
     0
 72
     0
 73
     0
 74
     1
 75
     0
 76
     0
 77
     1
 78
     8
170
     0
171
     2
172
     0
173
     0
174
     0
175
     0
176
   256
177
   256
178
     2
270
     2
271
     2
272
     2
273
     2
274
     2
340
11
275
     0
280
     0
281
     0
282
     0
283
     0
284
     8
285
     0
286
     0
287
     0
288
     1
  0
DIMSTYLE
105
72
330
A
100
AcDbSymbolTableRecord
100
AcDbDimStyleTableRecord
  2
AM_DIN$6
 70
     0
  3

  4
"
  5

  6

  7

 40
1.0
 41
3.5
 42
0.0
 43
0.0
 44
1.0
 45
0.0
 46
0.0
 47
0.1
 48
0.1
140
3.5
141
0.0
142
0.0
143
0.0393701
144
1.0
145
0.0
146
0.71
147
1.5
 71
     0
 72
     0
 73
     0
 74
     0
 75
     0
 76
     0
 77
     0
 78
     8
170
     0
171
     2
172
     1
173
     0
174
     0
175
     0
176
   256
177
   256
178
     2
270
     2
271
     2
272
     2
273
     2
274
     2
340
11
275
     0
280
     0
281
     0
282
     0
283
     0
284
     8
285
     0
286
     0
287
     3
288
     0
  0
DIMSTYLE
105
73
330
A
100
AcDbSymbolTableRecord
100
AcDbDimStyleTableRecord
  2
AM_DIN$7
 70
     0
  3

  4
"
  5

  6

  7

 40
1.0
 41
3.5
 42
0.0
 43
10.0
 44
1.0
 45
0.0
 46
0.0
 47
0.1
 48
0.1
140
3.5
141
0.0
142
0.0
143
0.0393701
144
1.0
145
0.0
146
0.71
147
1.5
 71
     0
 72
     0
 73
     0
 74
     0
 75
     0
 76
     0
 77
     1
 78
     8
170
     0
171
     2
172
     1
173
     0
174
     0
175
     0
176
   256
177
   256
178
     2
270
     2
271
     2
272
     2
273
     2
274
     2
340
11
275
     0
280
     0
281
     0
282
     0
283
     0
284
     8
285
     0
286
     0
287
     3
288
     0
  0
DIMSTYLE
105
74
330
A
100
AcDbSymbolTableRecord
100
AcDbDimStyleTableRecord
  2
AM_DIN$SF
 70
     0
  3

  4
"
  5

  6

  7

 40
1.0
 41
2.5
 42
1.0
 43
10.0
 44
1.0
 45
0.0
 46
0.0
 47
0.1
 48
0.1
140
3.5
141
0.0
142
0.0
143
0.0393701
144
1.0
145
0.0
146
0.71
147
1.5
 71
     0
 72
     0
 73
     0
 74
     0
 75
     1
 76
     1
 77
     1
 78
     8
170
     0
171
     2
172
     1
173
     0
174
     0
175
     0
176
   256
177
   256
178
     2
270
     2
271
     2
272
     3
273
     2
274
     4
340
11
275
     0
280
     0
281
     0
282
     0
283
     0
284
     8
285
     0
286
     0
287
     3
288
     0
  0
DIMSTYLE
105
79
330
A
100
AcDbSymbolTableRecord
100
AcDbDimStyleTableRecord
  2
AM_DIN$SH
 70
     0
  3

  4
"
  5

  6
GENAXEH
  7

 40
1.0
 41
2.5
 42
1.0
 43
10.0
 44
1.0
 45
0.0
 46
0.0
 47
0.1
 48
0.1
140
3.5
141
0.0
142
0.0
143
0.0393701
144
2.0
145
0.0
146
0.71
147
1.5
 71
     0
 72
     0
 73
     0
 74
     0
 75
     1
 76
     1
 77
     1
 78
     8
170
     0
171
     2
172
     1
173
     1
174
     0
175
     0
176
   256
177
   256
178
     2
270
     2
271
     2
272
     3
273
     2
274
     4
340
11
275
     0
280
     0
281
     0
282
     0
283
     0
284
     8
285
     0
286
     0
287
     3
288
     0
  0
DIMSTYLE
105
1E3B
330
A
100
AcDbSymbolTableRecord
100
AcDbDimStyleTableRecord
  2
STANDARD
 70
     0
  3

  4

  5

  6

  7

 40
1.0
 41
0.18
 42
0.0625
 43
0.38
 44
0.18
 45
0.0
 46
0.0
 47
0.0
 48
0.0
140
0.18
141
0.09
142
0.0
143
25.4
144
1.0
145
0.0
146
1.0
147
0.09
 71
     0
 72
     0
 73
     1
 74
     1
 75
     0
 76
     0
 77
     0
 78
     0
170
     0
171
     2
172
     0
173
     0
174
     0
175
     0
176
     0
177
     0
178
     0
270
     2
271
     2
272
     2
273
     2
274
     2
340
11
275
     0
280
     0
281
     0
282
     0
283
     1
284
     8
285
     8
286
     8
287
     5
288
     0
  0
DIMSTYLE
105
1E3C
330
A
100
AcDbSymbolTableRecord
100
AcDbDimStyleTableRecord
  2
AM_ANSI
 70
     0
  3

  4
mm
  5

  6

  7

 40
1.0
 41
0.1
 42
0.0
 43
0.5
 44
0.1
 45
0.0
 46
0.0
 47
0.1
 48
0.1
140
0.12
141
0.0
142
0.0
143
25.4
144
1.0
145
0.0
146
0.71
147
0.06
 71
     0
 72
     0
 73
     1
 74
     1
 75
     0
 76
     0
 77
     0
 78
     7
170
     0
171
     2
172
     0
173
     0
174
     0
175
     0
176
   256
177
   256
178
     2
270
     2
271
     2
272
     2
273
     2
274
     2
340
11
275
     0
280
     0
281
     0
282
     0
283
     1
284
     8
285
     8
286
     8
287
     5
288
     0
  0
DIMSTYLE
105
1E3D
330
A
100
AcDbSymbolTableRecord
100
AcDbDimStyleTableRecord
  2
AM_ANSI$3
 70
     0
  3

  4
mm
  5

  6

  7

 40
1.0
 41
0.1
 42
0.0
 43
0.5
 44
0.1
 45
0.0
 46
0.0
 47
0.1
 48
0.1
140
0.12
141
0.0
142
0.0
143
25.4
144
1.0
145
0.0
146
0.71
147
0.06
 71
     0
 72
     0
 73
     1
 74
     1
 75
     0
 76
     0
 77
     0
 78
     7
170
     0
171
     2
172
     0
173
     0
174
     0
175
     0
176
   256
177
   256
178
     2
270
     2
271
     2
272
     2
273
     2
274
     2
340
11
275
     0
280
     0
281
     0
282
     0
283
     1
284
     8
285
     8
286
     8
287
     5
288
     0
  0
DIMSTYLE
105
1E3E
330
A
100
AcDbSymbolTableRecord
100
AcDbDimStyleTableRecord
  2
AM_ANSI$4
 70
     0
  3

  4
mm
  5

  6

  7

 40
1.0
 41
0.1
 42
0.0
 43
0.5
 44
0.1
 45
0.0
 46
0.0
 47
0.1
 48
0.1
140
0.12
141
0.0
142
0.0
143
25.4
144
1.0
145
0.0
146
0.71
147
0.06
 71
     0
 72
     0
 73
     1
 74
     1
 75
     0
 76
     0
 77
     0
 78
     7
170
     0
171
     2
172
     0
173
     0
174
     0
175
     0
176
   256
177
   256
178
     2
270
     2
271
     2
272
     2
273
     2
274
     2
340
11
275
     0
280
     0
281
     0
282
     0
283
     1
284
     8
285
     8
286
     8
287
     5
288
     0
  0
DIMSTYLE
105
1E3F
330
A
100
AcDbSymbolTableRecord
100
AcDbDimStyleTableRecord
  2
AM_ANSI$7
 70
     0
  3

  4
mm
  5

  6

  7

 40
1.0
 41
0.1
 42
0.0
 43
0.5
 44
0.1
 45
0.0
 46
0.0
 47
0.1
 48
0.1
140
0.24
141
0.0
142
0.0
143
25.4
144
1.0
145
0.0
146
0.71
147
0.06
 71
     0
 72
     0
 73
     1
 74
     1
 75
     0
 76
     0
 77
     0
 78
     7
170
     0
171
     2
172
     0
173
     0
174
     0
175
     0
176
   256
177
   256
178
     2
270
     2
271
     2
272
     2
273
     2
274
     2
340
11
275
     0
280
     0
281
     0
282
     0
283
     1
284
     8
285
     8
286
     8
287
     5
288
     0
  0
DIMSTYLE
105
1E40
330
A
100
AcDbSymbolTableRecord
100
AcDbDimStyleTableRecord
  2
AM_ANSI$SF
 70
     0
  3

  4
mm
  5

  6

  7

 40
1.0
 41
0.1
 42
0.05
 43
0.5
 44
0.1
 45
0.0
 46
0.0
 47
0.1
 48
0.1
140
0.12
141
0.0
142
0.0
143
25.4
144
1.0
145
0.0
146
0.71
147
0.06
 71
     0
 72
     0
 73
     1
 74
     1
 75
     1
 76
     1
 77
     0
 78
     7
170
     0
171
     2
172
     0
173
     0
174
     0
175
     0
176
   256
177
   256
178
     2
270
     2
271
     2
272
     2
273
     2
274
     2
340
11
275
     0
280
     0
281
     0
282
     0
283
     1
284
     8
285
     8
286
     8
287
     5
288
     0
  0
DIMSTYLE
105
1E41
330
A
100
AcDbSymbolTableRecord
100
AcDbDimStyleTableRecord
  2
AM_ANSI$SH
 70
     0
  3

  4
mm
  5

  6

  7

 40
1.0
 41
0.1
 42
0.05
 43
0.5
 44
0.1
 45
0.0
 46
0.0
 47
0.1
 48
0.1
140
0.12
141
0.0
142
0.0
143
25.4
144
1.0
145
0.0
146
0.71
147
0.06
 71
     0
 72
     0
 73
     1
 74
     1
 75
     1
 76
     1
 77
     0
 78
     7
170
     0
171
     2
172
     0
173
     1
174
     0
175
     0
176
   256
177
   256
178
     2
270
     2
271
     2
272
     2
273
     2
274
     2
340
11
275
     0
280
     0
281
     0
282
     0
283
     1
284
     8
285
     8
286
     8
287
     5
288
     0
  0
ENDTAB
  0
TABLE
  2
BLOCK_RECORD
  5
1
330
0
100
AcDbSymbolTable
 70
     7
  0
BLOCK_RECORD
  5
1F
102
{ACAD_XDICTIONARY
360
1F1
102
}
330
1
100
AcDbSymbolTableRecord
100
AcDbBlockTableRecord
  2
*MODEL_SPACE
  0
BLOCK_RECORD
  5
1B
102
{ACAD_XDICTIONARY
360
2C66
102
}
330
1
100
AcDbSymbolTableRecord
100
AcDbBlockTableRecord
  2
*PAPER_SPACE
  0
BLOCK_RECORD
  5
75
330
1
100
AcDbSymbolTableRecord
100
AcDbBlockTableRecord
  2
GENAXEH
  0
BLOCK_RECORD
  5
EC2
330
1
100
AcDbSymbolTableRecord
100
AcDbBlockTableRecord
  2
*D2
  0
BLOCK_RECORD
  5
2A8C
330
1
100
AcDbSymbolTableRecord
100
AcDbBlockTableRecord
  2
*D3
  0
BLOCK_RECORD
  5
2B2B
330
1
100
AcDbSymbolTableRecord
100
AcDbBlockTableRecord
  2
*D4
  0
BLOCK_RECORD
  5
2B79
330
1
100
AcDbSymbolTableRecord
100
AcDbBlockTableRecord
  2
*D5
  0
BLOCK_RECORD
  5
2BA2
330
1
100
AcDbSymbolTableRecord
100
AcDbBlockTableRecord
  2
*D6
  0
ENDTAB
  0
ENDSEC
  0
SECTION
  2
BLOCKS
  0
BLOCK
  5
20
330
1F
100
AcDbEntity
  8
0
100
AcDbBlockBegin
  2
*MODEL_SPACE
 70
     0
 10
0.0
 20
0.0
 30
0.0
  3
*MODEL_SPACE
  1

  0
ENDBLK
  5
21
330
1F
100
AcDbEntity
  8
0
100
AcDbBlockEnd
  0
BLOCK
  5
1C
330
1B
100
AcDbEntity
 67
     1
  8
0
100
AcDbBlockBegin
  2
*PAPER_SPACE
 70
     0
 10
0.0
 20
0.0
 30
0.0
  3
*PAPER_SPACE
  1

  0
ENDBLK
  5
1D
330
1B
100
AcDbEntity
 67
     1
  8
0
100
AcDbBlockEnd
  0
BLOCK
  5
77
330
75
100
AcDbEntity
  8
0
100
AcDbBlockBegin
  2
GENAXEH
 70
     0
 10
0.0
 20
0.0
 30
0.0
  3
GENAXEH
  1

  0
LINE
  5
76
330
75
100
AcDbEntity
  8
0
100
AcDbLine
 10
-1.0
 20
0.0
 30
0.0
 11
1.0
 21
0.0
 31
0.0
  0
ENDBLK
  5
78
330
75
100
AcDbEntity
  8
0
100
AcDbBlockEnd
  0
BLOCK
  5
ECC
330
EC2
100
AcDbEntity
  8
0
100
AcDbBlockBegin
  2
*D2
 70
     1
 10
0.0
 20
0.0
 30
0.0
  3
*D2
  1

  0
LINE
  5
21EA
330
EC2
100
AcDbEntity
  8
SK2
100
AcDbLine
 10
0.0
 20
-13.4999999999998
 30
0.0
 11
-19.6577820213422
 21
-13.49999999999979
 31
0.0
  0
LINE
  5
21EB
330
EC2
100
AcDbEntity
  8
SK2
100
AcDbLine
 10
0.0
 20
13.5000000000002
 30
0.0
 11
-19.6577820213422
 21
13.5000000000002
 31
0.0
  0
LINE
  5
21EC
330
EC2
100
AcDbEntity
  8
SK2
100
AcDbLine
 10
-18.6577820213422
 20
-10.99999999999979
 30
0.0
 11
-18.6577820213422
 21
11.0000000000002
 31
0.0
  0
SOLID
  5
21ED
330
EC2
100
AcDbEntity
  8
SK2
100
AcDbTrace
 10
-19.07444868800887
 20
-10.99999999999979
 30
0.0
 11
-18.24111535467554
 21
-10.99999999999979
 31
0.0
 12
-18.6577820213422
 22
-13.49999999999979
 32
0.0
 13
-18.6577820213422
 23
-13.49999999999979
 33
0.0
  0
SOLID
  5
21EE
330
EC2
100
AcDbEntity
  8
SK2
100
AcDbTrace
 10
-19.07444868800886
 20
11.0000000000002
 30
0.0
 11
-18.24111535467553
 21
11.0000000000002
 31
0.0
 12
-18.6577820213422
 22
13.5000000000002
 32
0.0
 13
-18.6577820213422
 23
13.5000000000002
 33
0.0
  0
MTEXT
  5
21EF
330
EC2
100
AcDbEntity
  8
SK2
 62
     2
100
AcDbMText
 10
-21.90812650953117
 20
0.0000000000002023
 30
0.0
 40
3.5
 41
0.0
 71
     5
 72
     1
  1
%%c27
 11
0.0000000000000001
 21
1.0
 31
0.0
1001
ACAD
1000
MTEXTBEGIN
1070
    73
1070
     1
1070
    44
1040
1.0
1070
    74
1070
     0
1000
MTEXTEND
  0
POINT
  5
21F0
330
EC2
100
AcDbEntity
  8
DEFPOINTS
 62
     0
100
AcDbPoint
 10
0.0
 20
-13.4999999999998
 30
0.0
  0
POINT
  5
21F1
330
EC2
100
AcDbEntity
  8
DEFPOINTS
 62
     0
100
AcDbPoint
 10
0.0
 20
13.5000000000002
 30
0.0
  0
POINT
  5
21F2
330
EC2
100
AcDbEntity
  8
DEFPOINTS
 62
     0
100
AcDbPoint
 10
-18.6577820213422
 20
13.5000000000002
 30
0.0
  0
ENDBLK
  5
ECD
330
EC2
100
AcDbEntity
  8
0
100
AcDbBlockEnd
  0
BLOCK
  5
2A96
330
2A8C
100
AcDbEntity
  8
0
100
AcDbBlockBegin
  2
*D3
 70
     1
 10
0.0
 20
0.0
 30
0.0
  3
*D3
  1

  0
LINE
  5
2BDA
330
2A8C
100
AcDbEntity
  8
2
100
AcDbLine
 10
70.00000000000004
 20
31.49999999999986
 30
0.0
 11
98.29110754996259
 21
31.49999999999985
 31
0.0
  0
LINE
  5
2BDB
330
2A8C
100
AcDbEntity
  8
2
100
AcDbLine
 10
69.99999999999997
 20
-31.50000000000014
 30
0.0
 11
98.29110754996259
 21
-31.50000000000015
 31
0.0
  0
LINE
  5
2BDC
330
2A8C
100
AcDbEntity
  8
2
100
AcDbLine
 10
97.29110754996259
 20
28.99999999999985
 30
0.0
 11
97.29110754996259
 21
-29.00000000000014
 31
0.0
  0
SOLID
  5
2BDD
330
2A8C
100
AcDbEntity
  8
2
100
AcDbTrace
 10
96.87444088329591
 20
28.99999999999985
 30
0.0
 11
97.70777421662927
 21
28.99999999999985
 31
0.0
 12
97.29110754996259
 22
31.49999999999985
 32
0.0
 13
97.29110754996259
 23
31.49999999999985
 33
0.0
  0
SOLID
  5
2BDE
330
2A8C
100
AcDbEntity
  8
2
100
AcDbTrace
 10
96.87444088329591
 20
-29.00000000000014
 30
0.0
 11
97.70777421662927
 21
-29.00000000000014
 31
0.0
 12
97.29110754996259
 22
-31.50000000000015
 32
0.0
 13
97.29110754996259
 23
-31.50000000000015
 33
0.0
  0
MTEXT
  5
2BDF
330
2A8C
100
AcDbEntity
  8
2
 62
     2
100
AcDbMText
 10
94.04110754996258
 20
-0.0000000000001317
 30
0.0
 40
3.5
 41
0.0
 71
     5
 72
     1
  1
%%c63
 11
0.0000000000000001
 21
1.0
 31
0.0
1001
ACAD
1000
MTEXTBEGIN
1070
    73
1070
     1
1070
    44
1040
1.0
1070
    74
1070
     0
1000
MTEXTEND
  0
POINT
  5
2BE0
330
2A8C
100
AcDbEntity
  8
DEFPOINTS
 62
     0
100
AcDbPoint
 10
70.00000000000004
 20
31.49999999999986
 30
0.0
  0
POINT
  5
2BE1
330
2A8C
100
AcDbEntity
  8
DEFPOINTS
 62
     0
100
AcDbPoint
 10
69.99999999999997
 20
-31.50000000000014
 30
0.0
  0
POINT
  5
2BE2
330
2A8C
100
AcDbEntity
  8
DEFPOINTS
 62
     0
100
AcDbPoint
 10
97.29110754996259
 20
-31.50000000000015
 30
0.0
  0
ENDBLK
  5
2A97
330
2A8C
100
AcDbEntity
  8
0
100
AcDbBlockEnd
  0
BLOCK
  5
2B35
330
2B2B
100
AcDbEntity
  8
0
100
AcDbBlockBegin
  2
*D4
 70
     1
 10
0.0
 20
0.0
 30
0.0
  3
*D4
  1

  0
LINE
  5
2BE3
330
2B2B
100
AcDbEntity
  8
2
100
AcDbLine
 10
70.00000000000006
 20
31.49999999999986
 30
0.0
 11
70.00000000000006
 21
60.99999999999997
 31
0.0
  0
LINE
  5
2BE4
330
2B2B
100
AcDbEntity
  8
2
100
AcDbLine
 10
21.99999999999994
 20
31.42331624644856
 30
0.0
 11
21.99999999999994
 21
60.99999999999997
 31
0.0
  0
LINE
  5
2BE5
330
2B2B
100
AcDbEntity
  8
2
100
AcDbLine
 10
67.50000000000006
 20
59.99999999999997
 30
0.0
 11
24.49999999999994
 21
59.99999999999997
 31
0.0
  0
SOLID
  5
2BE6
330
2B2B
100
AcDbEntity
  8
2
100
AcDbTrace
 10
67.50000000000006
 20
60.41666666666664
 30
0.0
 11
67.50000000000006
 21
59.58333333333331
 31
0.0
 12
70.00000000000006
 22
59.99999999999997
 32
0.0
 13
70.00000000000006
 23
59.99999999999997
 33
0.0
  0
SOLID
  5
2BE7
330
2B2B
100
AcDbEntity
  8
2
100
AcDbTrace
 10
24.49999999999994
 20
60.41666666666664
 30
0.0
 11
24.49999999999994
 21
59.58333333333331
 31
0.0
 12
21.99999999999994
 22
59.99999999999997
 32
0.0
 13
21.99999999999994
 23
59.99999999999997
 33
0.0
  0
MTEXT
  5
2BE8
330
2B2B
100
AcDbEntity
  8
2
 62
     2
100
AcDbMText
 10
47.35735027401505
 20
63.24999999999997
 30
0.0
 40
3.5
 41
0.0
 71
     5
 72
     1
  1
48
1001
ACAD
1000
MTEXTBEGIN
1070
    73
1070
     1
1070
    44
1040
1.0
1070
    74
1070
     0
1000
MTEXTEND
  0
POINT
  5
2BE9
330
2B2B
100
AcDbEntity
  8
DEFPOINTS
 62
     0
100
AcDbPoint
 10
70.00000000000006
 20
31.49999999999986
 30
0.0
  0
POINT
  5
2BEA
330
2B2B
100
AcDbEntity
  8
DEFPOINTS
 62
     0
100
AcDbPoint
 10
21.99999999999994
 20
31.42331624644856
 30
0.0
  0
POINT
  5
2BEB
330
2B2B
100
AcDbEntity
  8
DEFPOINTS
 62
     0
100
AcDbPoint
 10
21.99999999999994
 20
59.99999999999997
 30
0.0
  0
ENDBLK
  5
2B36
330
2B2B
100
AcDbEntity
  8
0
100
AcDbBlockEnd
  0
BLOCK
  5
2B83
330
2B79
100
AcDbEntity
  8
0
100
AcDbBlockBegin
  2
*D5
 70
     1
 10
0.0
 20
0.0
 30
0.0
  3
*D5
  1

  0
LINE
  5
2BEC
330
2B79
100
AcDbEntity
  8
2
100
AcDbLine
 10
70.00000000000006
 20
31.49999999999986
 30
0.0
 11
70.00000000000006
 21
76.00000000000003
 31
0.0
  0
LINE
  5
2BED
330
2B79
100
AcDbEntity
  8
2
100
AcDbLine
 10
0.0000000000000644
 20
25.50000000000017
 30
0.0
 11
0.0000000000000675
 21
76.00000000000003
 31
0.0
  0
LINE
  5
2BEE
330
2B79
100
AcDbEntity
  8
2
100
AcDbLine
 10
67.50000000000006
 20
75.00000000000003
 30
0.0
 11
2.500000000000067
 21
75.00000000000003
 31
0.0
  0
SOLID
  5
2BEF
330
2B79
100
AcDbEntity
  8
2
100
AcDbTrace
 10
67.50000000000006
 20
75.4166666666667
 30
0.0
 11
67.50000000000006
 21
74.58333333333335
 31
0.0
 12
70.00000000000006
 22
75.00000000000003
 32
0.0
 13
70.00000000000006
 23
75.00000000000003
 33
0.0
  0
SOLID
  5
2BF0
330
2B79
100
AcDbEntity
  8
2
100
AcDbTrace
 10
2.500000000000067
 20
75.4166666666667
 30
0.0
 11
2.500000000000067
 21
74.58333333333335
 31
0.0
 12
0.0000000000000674
 22
75.00000000000003
 32
0.0
 13
0.0000000000000674
 23
75.00000000000003
 33
0.0
  0
MTEXT
  5
2BF1
330
2B79
100
AcDbEntity
  8
2
 62
     2
100
AcDbMText
 10
35.00000000000006
 20
78.25000000000002
 30
0.0
 40
3.5
 41
0.0
 71
     5
 72
     1
  1
70
1001
ACAD
1000
MTEXTBEGIN
1070
    73
1070
     1
1070
    44
1040
1.0
1070
    74
1070
     0
1000
MTEXTEND
  0
POINT
  5
2BF2
330
2B79
100
AcDbEntity
  8
DEFPOINTS
 62
     0
100
AcDbPoint
 10
70.00000000000006
 20
31.49999999999986
 30
0.0
  0
POINT
  5
2BF3
330
2B79
100
AcDbEntity
  8
DEFPOINTS
 62
     0
100
AcDbPoint
 10
0.0000000000000644
 20
25.50000000000017
 30
0.0
  0
POINT
  5
2BF4
330
2B79
100
AcDbEntity
  8
DEFPOINTS
 62
     0
100
AcDbPoint
 10
0.0000000000000674
 20
75.00000000000003
 30
0.0
  0
ENDBLK
  5
2B84
330
2B79
100
AcDbEntity
  8
0
100
AcDbBlockEnd
  0
BLOCK
  5
2BAC
330
2BA2
100
AcDbEntity
  8
0
100
AcDbBlockBegin
  2
*D6
 70
     1
 10
0.0
 20
0.0
 30
0.0
  3
*D6
  1

  0
LINE
  5
2BCA
330
2BA2
100
AcDbEntity
  8
SK2
100
AcDbLine
 10
2.000000000000075
 20
27.50000000000016
 30
0.0
 11
-32.98103079212068
 21
27.50000000000017
 31
0.0
  0
LINE
  5
2BCB
330
2BA2
100
AcDbEntity
  8
SK2
100
AcDbLine
 10
1.99999999999977
 20
-27.49999999999984
 30
0.0
 11
-32.9810307921207
 21
-27.49999999999983
 31
0.0
  0
LINE
  5
2BCC
330
2BA2
100
AcDbEntity
  8
SK2
100
AcDbLine
 10
-31.98103079212068
 20
25.00000000000017
 30
0.0
 11
-31.98103079212069
 21
-24.99999999999983
 31
0.0
  0
SOLID
  5
2BCD
330
2BA2
100
AcDbEntity
  8
SK2
100
AcDbTrace
 10
-32.39769745878735
 20
25.00000000000017
 30
0.0
 11
-31.56436412545401
 21
25.00000000000017
 31
0.0
 12
-31.98103079212068
 22
27.50000000000017
 32
0.0
 13
-31.98103079212068
 23
27.50000000000017
 33
0.0
  0
SOLID
  5
2BCE
330
2BA2
100
AcDbEntity
  8
SK2
100
AcDbTrace
 10
-32.39769745878736
 20
-24.99999999999983
 30
0.0
 11
-31.56436412545403
 21
-24.99999999999983
 31
0.0
 12
-31.98103079212069
 22
-27.49999999999983
 32
0.0
 13
-31.98103079212069
 23
-27.49999999999983
 33
0.0
  0
MTEXT
  5
2BCF
330
2BA2
100
AcDbEntity
  8
SK2
 62
     2
100
AcDbMText
 10
-35.23103079212069
 20
0.0000000000001693
 30
0.0
 40
3.5
 41
0.0
 71
     5
 72
     1
  1
%%c55
 11
0.0000000000000001
 21
1.0
 31
0.0
1001
ACAD
1000
MTEXTBEGIN
1070
    73
1070
     1
1070
    44
1040
1.0
1070
    74
1070
     0
1000
MTEXTEND
  0
POINT
  5
2BD0
330
2BA2
100
AcDbEntity
  8
DEFPOINTS
 62
     0
100
AcDbPoint
 10
2.000000000000075
 20
27.50000000000016
 30
0.0
  0
POINT
  5
2BD1
330
2BA2
100
AcDbEntity
  8
DEFPOINTS
 62
     0
100
AcDbPoint
 10
1.99999999999977
 20
-27.49999999999984
 30
0.0
  0
POINT
  5
2BD2
330
2BA2
100
AcDbEntity
  8
DEFPOINTS
 62
     0
100
AcDbPoint
 10
-31.98103079212069
 20
-27.49999999999983
 30
0.0
  0
ENDBLK
  5
2BAD
330
2BA2
100
AcDbEntity
  8
0
100
AcDbBlockEnd
  0
ENDSEC
  0
SECTION
  2
ENTITIES
  0
LINE
  5
EA4
330
1F
100
AcDbEntity
  8
1
100
AcDbLine
 10
-0.0000000000000195
 20
-25.49999999999983
 30
0.0
 11
0.0
 21
-6.199999999999789
 31
0.0
  0
LINE
  5
EA5
330
1F
100
AcDbEntity
  8
SK1
100
AcDbLine
 10
0.0
 20
-6.199999999999789
 30
0.0
 11
7.0
 21
-6.199999999999846
 31
0.0
  0
LINE
  5
EA6
330
1F
100
AcDbEntity
  8
SK1
100
AcDbLine
 10
7.0
 20
-6.199999999999846
 30
0.0
 11
7.0
 21
6.200000000000216
 31
0.0
  0
LINE
  5
EA7
330
1F
100
AcDbEntity
  8
SK1
100
AcDbLine
 10
7.0
 20
6.200000000000216
 30
0.0
 11
0.0
 21
6.200000000000216
 31
0.0
  0
LINE
  5
EA8
330
1F
100
AcDbEntity
  8
1
100
AcDbLine
 10
0.0
 20
6.200000000000216
 30
0.0
 11
0.0000000000000644
 21
25.50000000000017
 31
0.0
  0
LINE
  5
EA9
330
1F
100
AcDbEntity
  8
SK3
 48
0.5
100
AcDbLine
 10
0.0
 20
-13.4999999999998
 30
0.0
 11
31.99999999999988
 21
-13.49999999999979
 31
0.0
  0
LINE
  5
EAA
330
1F
100
AcDbEntity
  8
SK3
 48
0.5
100
AcDbLine
 10
31.99999999999988
 20
-13.49999999999979
 30
0.0
 11
31.99999999999988
 21
13.5000000000002
 31
0.0
  0
LINE
  5
EAB
330
1F
100
AcDbEntity
  8
SK3
 48
0.5
100
AcDbLine
 10
31.99999999999988
 20
13.5000000000002
 30
0.0
 11
-0.0000000000000568
 21
13.50000000000017
 31
0.0
  0
LINE
  5
EAC
330
1F
100
AcDbEntity
  8
SK3
 48
0.5
100
AcDbLine
 10
31.99999999999988
 20
-6.499999999999797
 30
0.0
 11
42.99999999999989
 21
-6.499999999999797
 31
0.0
  0
LINE
  5
EAD
330
1F
100
AcDbEntity
  8
SK3
 48
0.5
100
AcDbLine
 10
31.99999999999988
 20
6.500000000000202
 30
0.0
 11
42.99999999999977
 21
6.500000000000145
 31
0.0
  0
LINE
  5
EAE
330
1F
100
AcDbEntity
  8
SK3
 48
0.5
100
AcDbLine
 10
68.99679480008376
 20
-10.00000000000309
 30
0.0
 11
42.99999999999989
 21
-10.00000000000286
 31
0.0
  0
LINE
  5
EAF
330
1F
100
AcDbEntity
  8
SK3
 48
0.5
100
AcDbLine
 10
42.99999999999989
 20
-10.00000000000286
 30
0.0
 11
42.99999999999989
 21
10.00000000000332
 31
0.0
  0
LINE
  5
EB0
330
1F
100
AcDbEntity
  8
SK3
 48
0.5
100
AcDbLine
 10
42.99999999999989
 20
10.00000000000332
 30
0.0
 11
68.99679480008376
 21
10.00000000000323
 31
0.0
  0
DIMENSION
  5
EC1
330
1F
100
AcDbEntity
  8
SK2
100
AcDbDimension
  2
*D2
 10
-18.6577820213422
 20
13.5000000000002
 30
0.0
 11
-21.90812650953117
 21
0.0000000000002023
 31
0.0
 70
    32
  1
%%c<>
  3
AM_DIN
100
AcDbAlignedDimension
 13
0.0
 23
-13.4999999999998
 33
0.0
 14
0.0
 24
13.5000000000002
 34
0.0
 50
270.0
100
AcDbRotatedDimension
  0
LINE
  5
1FF6
330
1F
100
AcDbEntity
  8
SK1
100
AcDbLine
 10
-1.909269750190761
 20
1.90926975019096
 30
0.0
 11
1.909269750191042
 21
-1.909269750190844
 31
0.0
  0
LINE
  5
1FF8
330
1F
100
AcDbEntity
  8
SK1
100
AcDbLine
 10
-1.909269750190761
 20
-1.909269750190843
 30
0.0
 11
1.909269750191043
 21
1.90926975019096
 31
0.0
  0
LINE
  5
1FF9
330
1F
100
AcDbEntity
  8
4
100
AcDbLine
 10
73.58144547873918
 20
-0.0000000000001573
 30
0.0
 11
0.0
 21
0.000000000000199
 31
0.0
  0
TEXT
  5
2654
330
1F
100
AcDbEntity
  8
6
100
AcDbText
 10
41.65663334460629
 20
34.39727687640093
 30
0.0
 40
2.5
  1
AOMT110304R
100
AcDbText
  0
LINE
  5
2657
330
1F
100
AcDbEntity
  8
1
100
AcDbLine
 10
68.9967948000838
 20
24.70258113658795
 30
0.0
 11
68.99679480008373
 21
-30.77113434341699
 31
0.0
  0
LINE
  5
2690
330
1F
100
AcDbEntity
  8
1
100
AcDbLine
 10
13.84772670604841
 20
27.50000000000012
 30
0.0
 11
2.000000000000075
 21
27.50000000000016
 31
0.0
  0
ARC
  5
2695
330
1F
100
AcDbEntity
  8
1
100
AcDbCircle
 10
2.000000000000064
 20
25.50000000000016
 30
0.0
 40
2.0
100
AcDbArc
 50
89.99999999999968
 51
179.9999999999998
1001
GENIUS_GENODEF_13
1002
{
1000
HIER
1070
     0
1002
}
1002
{
1000
MANEDIT
1070
     0
1002
}
1002
{
1000
NOSEL
1070
     0
1002
}
1002
{
1000
BEHIND
1070
     0
1002
}
1002
{
1000
OTHER
1070
     0
1002
}
1002
{
1000
REACTOR
1002
}
1001
GENIUS_GENOBJ-N-FIL_13
1002
{
1000
OWNER
1000
GEN
1002
}
  0
LINE
  5
26A0
330
1F
100
AcDbEntity
  8
1
100
AcDbLine
 10
15.36886104946505
 20
30.77113434341677
 30
0.0
 11
13.84772670604841
 21
27.50000000000012
 31
0.0
  0
LINE
  5
26B1
330
1F
100
AcDbEntity
  8
1
100
AcDbLine
 10
13.84772670604844
 20
-27.49999999999988
 30
0.0
 11
1.999999999999764
 21
-27.49999999999983
 31
0.0
  0
ARC
  5
26B2
330
1F
100
AcDbEntity
  8
1
100
AcDbCircle
 10
1.999999999999776
 20
-25.49999999999983
 30
0.0
 40
2.0
100
AcDbArc
 50
179.9999999999994
 51
269.9999999999997
1001
GENIUS_GENODEF_13
1002
{
1000
HIER
1070
     0
1002
}
1002
{
1000
MANEDIT
1070
     0
1002
}
1002
{
1000
NOSEL
1070
     0
1002
}
1002
{
1000
BEHIND
1070
     0
1002
}
1002
{
1000
OTHER
1070
     0
1002
}
1002
{
1000
REACTOR
1002
}
1001
GENIUS_GENOBJ-N-FIL_13
1002
{
1000
OWNER
1000
GEN
1002
}
  0
LINE
  5
26B3
330
1F
100
AcDbEntity
  8
1
100
AcDbLine
 10
15.36886104946505
 20
-30.77113434341649
 30
0.0
 11
13.84772670604844
 21
-27.49999999999988
 31
0.0
  0
TEXT
  5
2781
330
1F
100
AcDbEntity
  8
6
100
AcDbText
 10
19.79647667072839
 20
-40.20967347525874
 30
0.0
 40
3.5
  1
22J3F063048F2R00
100
AcDbText
  0
LINE
  5
27AE
330
1F
100
AcDbEntity
  8
NOCUT
100
AcDbLine
 10
68.99679480008376
 20
-0.0000000000001315
 30
0.0
 11
0.0
 21
0.0000000000001918
 31
0.0
  0
LINE
  5
27B5
330
1F
100
AcDbEntity
  8
NOCUT
100
AcDbLine
 10
13.84772670604841
 20
-27.49999999999988
 30
0.0
 11
1.999999999999753
 21
-27.49999999999984
 31
0.0
  0
LINE
  5
27B8
330
1F
100
AcDbEntity
  8
NOCUT
100
AcDbLine
 10
-0.0000000000000195
 20
-25.49999999999984
 30
0.0
 11
0.0
 21
0.0000000000001918
 31
0.0
  0
ARC
  5
27BA
330
1F
100
AcDbEntity
  8
NOCUT
100
AcDbCircle
 10
1.999999999999753
 20
-25.49999999999984
 30
0.0
 40
2.0
100
AcDbArc
 50
179.9999999999994
 51
269.9999999999997
1001
GENIUS_GENODEF_13
1002
{
1000
HIER
1070
     0
1002
}
1002
{
1000
MANEDIT
1070
     0
1002
}
1002
{
1000
NOSEL
1070
     0
1002
}
1002
{
1000
BEHIND
1070
     0
1002
}
1002
{
1000
OTHER
1070
     0
1002
}
1002
{
1000
REACTOR
1002
}
1001
GENIUS_GENOBJ-N-FIL_13
1002
{
1000
OWNER
1000
GEN
1002
}
  0
LINE
  5
27C3
330
1F
100
AcDbEntity
  8
NOCUT
100
AcDbLine
 10
15.36886104946504
 20
-30.77113434341651
 30
0.0
 11
13.84772670604841
 21
-27.49999999999988
 31
0.0
  0
LINE
  5
27D6
330
1F
100
AcDbEntity
  8
NOCUT
100
AcDbLine
 10
68.99679480008376
 20
-0.0000000000001315
 30
0.0
 11
68.99679480008373
 21
-30.77113434341699
 31
0.0
  0
CIRCLE
  5
282D
330
1F
100
AcDbEntity
  8
SK1
100
AcDbCircle
 10
0.0000000000001407
 20
0.0000000000000583
 30
0.0
 40
2.700115174948665
  0
DIMENSION
  5
2A8B
330
1F
100
AcDbEntity
  8
2
100
AcDbDimension
  2
*D3
 10
97.29110754996259
 20
-31.50000000000015
 30
0.0
 11
94.04110754996258
 21
-0.0000000000001317
 31
0.0
 70
    32
  1
%%c<>
  3
AM_DIN
100
AcDbAlignedDimension
 13
70.00000000000004
 23
31.49999999999986
 33
0.0
 14
69.99999999999997
 24
-31.50000000000014
 34
0.0
 50
90.00000000000003
100
AcDbRotatedDimension
  0
LINE
  5
2AC7
330
1F
100
AcDbEntity
  8
1
100
AcDbLine
 10
21.6178746507569
 20
30.77113434341673
 30
0.0
 11
15.36886104946503
 21
30.77113434341673
 31
0.0
  0
LINE
  5
2AC8
330
1F
100
AcDbEntity
  8
1
100
AcDbLine
 10
21.99999999999982
 20
31.42331624644856
 30
0.0
 11
69.62073063028293
 21
31.496440271215
 31
0.0
  0
LINE
  5
2AC9
330
1F
100
AcDbEntity
  8
1
100
AcDbLine
 10
68.67588417603332
 20
24.50742237421482
 30
0.0
 11
21.05515354575021
 21
24.4342983494484
 31
0.0
  0
CIRCLE
  5
2ACA
330
1F
100
AcDbEntity
  8
1
100
AcDbCircle
 10
45.94749793991792
 20
27.96536931033173
 30
0.0
 40
1.899999999999982
  0
LINE
  5
2ACB
330
1F
100
AcDbEntity
  8
CUT
100
AcDbLine
 10
69.62073063028305
 20
31.49644027121499
 30
0.0
 11
21.99999999999994
 21
31.42331624644856
 31
0.0
  0
LINE
  5
2ACC
330
1F
100
AcDbEntity
  8
CUT
100
AcDbLine
 10
68.67588417603343
 20
24.50742237421484
 30
0.0
 11
21.05515354575021
 21
24.4342983494484
 31
0.0
  0
CIRCLE
  5
2ACD
330
1F
100
AcDbEntity
  8
1
100
AcDbCircle
 10
26.94749793991769
 20
27.96536931033173
 30
0.0
 40
1.899999999999982
  0
LINE
  5
2ACE
330
1F
100
AcDbEntity
  8
1
100
AcDbLine
 10
21.56608475900174
 20
28.20279169814813
 30
0.0
 11
21.62313584798317
 21
31.03204543521263
 31
0.0
  0
LINE
  5
2ACF
330
1F
100
AcDbEntity
  8
CUT
100
AcDbLine
 10
21.56608475900185
 20
28.20279169814813
 30
0.0
 11
21.62313584798329
 21
31.03204543521263
 31
0.0
  0
ARC
  5
2AD0
330
1F
100
AcDbEntity
  8
1
100
AcDbCircle
 10
21.0728185281236
 20
24.83390809457199
 30
0.0
 40
0.4
100
AcDbArc
 50
178.100621950905
 51
267.4688544486065
1001
GENIUS_GENODEF_13
1002
{
1000
HIER
1070
     0
1002
}
1002
{
1000
MANEDIT
1070
     0
1002
}
1002
{
1000
NOSEL
1070
     0
1002
}
1002
{
1000
BEHIND
1070
     0
1002
}
1002
{
1000
OTHER
1070
     0
1002
}
1002
{
1000
REACTOR
1002
}
1001
GENIUS_GENOBJ-N-FIL_13
1002
{
1000
OWNER
1000
GEN
1002
}
  0
ARC
  5
2AD1
330
1F
100
AcDbEntity
  8
1
100
AcDbCircle
 10
18.72129000802653
 20
28.52789843669427
 30
0.0
 40
2.885298691586131
100
AcDbArc
 50
316.920845105437
 51
348.2828177636374
  0
LINE
  5
2AD2
330
1F
100
AcDbEntity
  8
1
100
AcDbLine
 10
20.72112746937926
 20
26.29727060385462
 30
0.0
 11
20.67303829780945
 21
24.84716582627737
 31
0.0
  0
ARC
  5
2AD3
330
1F
100
AcDbEntity
  8
1
100
AcDbCircle
 10
21.12090769969341
 20
26.28401287214922
 30
0.0
 40
0.4
100
AcDbArc
 50
136.9208451054348
 51
178.1006219509017
1001
GENIUS_GENOBJ-N-FIL_13
1002
{
1000
OWNER
1000
GEN
1002
}
1001
GENIUS_GENODEF_13
1002
{
1000
HIER
1070
     0
1002
}
1002
{
1000
MANEDIT
1070
     0
1002
}
1002
{
1000
NOSEL
1070
     0
1002
}
1002
{
1000
BEHIND
1070
     0
1002
}
1002
{
1000
OTHER
1070
     0
1002
}
1002
{
1000
REACTOR
1002
}
  0
ARC
  5
2AD4
330
1F
100
AcDbEntity
  8
1
100
AcDbCircle
 10
20.70164709431725
 20
28.13665386604176
 30
0.0
 40
0.8669640644000232
100
AcDbArc
 50
347.0216949428901
 51
4.375156921660748
  0
ARC
  5
2AD5
330
1F
100
AcDbEntity
  8
CUT
100
AcDbCircle
 10
20.70164709431736
 20
28.13665386604176
 30
0.0
 40
0.8669640644000232
100
AcDbArc
 50
347.0216949428909
 51
4.37515692166156
  0
ARC
  5
2AD6
330
1F
100
AcDbEntity
  8
CUT
100
AcDbCircle
 10
21.12090769969353
 20
26.28401287214922
 30
0.0
 40
0.4
100
AcDbArc
 50
136.9208451054348
 51
178.1006219509017
1001
GENIUS_GENOBJ-N-FIL_13
1002
{
1000
OWNER
1000
GEN
1002
}
1001
GENIUS_GENODEF_13
1002
{
1000
HIER
1070
     0
1002
}
1002
{
1000
MANEDIT
1070
     0
1002
}
1002
{
1000
NOSEL
1070
     0
1002
}
1002
{
1000
BEHIND
1070
     0
1002
}
1002
{
1000
OTHER
1070
     0
1002
}
1002
{
1000
REACTOR
1002
}
  0
LINE
  5
2AD7
330
1F
100
AcDbEntity
  8
CUT
100
AcDbLine
 10
20.72112746937938
 20
26.29727060385462
 30
0.0
 11
20.67303829780957
 21
24.84716582627737
 31
0.0
  0
ARC
  5
2AD8
330
1F
100
AcDbEntity
  8
CUT
100
AcDbCircle
 10
21.07281852812371
 20
24.83390809457199
 30
0.0
 40
0.4
100
AcDbArc
 50
178.1006219509058
 51
267.4688544486065
1001
GENIUS_GENODEF_13
1002
{
1000
HIER
1070
     0
1002
}
1002
{
1000
MANEDIT
1070
     0
1002
}
1002
{
1000
NOSEL
1070
     0
1002
}
1002
{
1000
BEHIND
1070
     0
1002
}
1002
{
1000
OTHER
1070
     0
1002
}
1002
{
1000
REACTOR
1002
}
1001
GENIUS_GENOBJ-N-FIL_13
1002
{
1000
OWNER
1000
GEN
1002
}
  0
ARC
  5
2AD9
330
1F
100
AcDbEntity
  8
CUT
100
AcDbCircle
 10
18.72129000802664
 20
28.52789843669427
 30
0.0
 40
2.885298691586131
100
AcDbArc
 50
316.920845105437
 51
348.2828177636374
  0
ARC
  5
2ADA
330
1F
100
AcDbEntity
  8
1
100
AcDbCircle
 10
22.02305454964704
 20
31.02398118945936
 30
0.0
 40
0.4
100
AcDbArc
 50
93.30415208041449
 51
178.844803619443
1001
GENIUS_GENOBJ-N-FIL_13
1002
{
1000
OWNER
1000
GEN
1002
}
1001
GENIUS_GENODEF_13
1002
{
1000
HIER
1070
     0
1002
}
1002
{
1000
MANEDIT
1070
     0
1002
}
1002
{
1000
NOSEL
1070
     0
1002
}
1002
{
1000
BEHIND
1070
     0
1002
}
1002
{
1000
OTHER
1070
     0
1002
}
1002
{
1000
REACTOR
1002
}
  0
ARC
  5
2ADB
330
1F
100
AcDbEntity
  8
CUT
100
AcDbCircle
 10
22.02305454964715
 20
31.02398118945936
 30
0.0
 40
0.4
100
AcDbArc
 50
93.30415208041449
 51
178.844803619443
1001
GENIUS_GENOBJ-N-FIL_13
1002
{
1000
OWNER
1000
GEN
1002
}
1001
GENIUS_GENODEF_13
1002
{
1000
HIER
1070
     0
1002
}
1002
{
1000
MANEDIT
1070
     0
1002
}
1002
{
1000
NOSEL
1070
     0
1002
}
1002
{
1000
BEHIND
1070
     0
1002
}
1002
{
1000
OTHER
1070
     0
1002
}
1002
{
1000
REACTOR
1002
}
  0
CIRCLE
  5
2ADC
330
1F
100
AcDbEntity
  8
1
100
AcDbCircle
 10
35.94749793991792
 20
27.96536931033173
 30
0.0
 40
1.899999999999982
  0
LINE
  5
2ADD
330
1F
100
AcDbEntity
  8
1
100
AcDbLine
 10
33.17386841045623
 20
29.63346801680882
 30
0.0
 11
33.22195758202605
 21
31.08357279438604
 31
0.0
  0
ARC
  5
2ADE
330
1F
100
AcDbEntity
  8
1
100
AcDbCircle
 10
35.17370587180897
 20
27.40284018396911
 30
0.0
 40
2.885298691586131
100
AcDbArc
 50
136.9208451054371
 51
168.2828177636374
  0
ARC
  5
2ADF
330
1F
100
AcDbEntity
  8
1
100
AcDbCircle
 10
33.19334878551825
 20
27.79408475462162
 30
0.0
 40
0.8669640644000232
100
AcDbArc
 50
167.0216949428901
 51
184.3751569216607
  0
ARC
  5
2AE0
330
1F
100
AcDbEntity
  8
1
100
AcDbCircle
 10
31.87194133018858
 20
24.90675743120402
 30
0.0
 40
0.4
100
AcDbArc
 50
273.3041520804145
 51
358.8448036194431
1001
GENIUS_GENOBJ-N-FIL_13
1002
{
1000
OWNER
1000
GEN
1002
}
1001
GENIUS_GENODEF_13
1002
{
1000
HIER
1070
     0
1002
}
1002
{
1000
MANEDIT
1070
     0
1002
}
1002
{
1000
NOSEL
1070
     0
1002
}
1002
{
1000
BEHIND
1070
     0
1002
}
1002
{
1000
OTHER
1070
     0
1002
}
1002
{
1000
REACTOR
1002
}
  0
LINE
  5
2AE1
330
1F
100
AcDbEntity
  8
1
100
AcDbLine
 10
32.32891112083376
 20
27.72794692251528
 30
0.0
 11
32.27186003185233
 21
24.89869318545078
 31
0.0
  0
ARC
  5
2AE2
330
1F
100
AcDbEntity
  8
1
100
AcDbCircle
 10
32.77408818014208
 20
29.64672574851417
 30
0.0
 40
0.4
100
AcDbArc
 50
316.9208451054348
 51
358.1006219509017
1001
GENIUS_GENOBJ-N-FIL_13
1002
{
1000
OWNER
1000
GEN
1002
}
1001
GENIUS_GENODEF_13
1002
{
1000
HIER
1070
     0
1002
}
1002
{
1000
MANEDIT
1070
     0
1002
}
1002
{
1000
NOSEL
1070
     0
1002
}
1002
{
1000
BEHIND
1070
     0
1002
}
1002
{
1000
OTHER
1070
     0
1002
}
1002
{
1000
REACTOR
1002
}
  0
ARC
  5
2AE3
330
1F
100
AcDbEntity
  8
1
100
AcDbCircle
 10
32.8221773517119
 20
31.09683052609139
 30
0.0
 40
0.4
100
AcDbArc
 50
358.100621950905
 51
62.43931323487178
1001
GENIUS_GENODEF_13
1002
{
1000
HIER
1070
     0
1002
}
1002
{
1000
MANEDIT
1070
     0
1002
}
1002
{
1000
NOSEL
1070
     0
1002
}
1002
{
1000
BEHIND
1070
     0
1002
}
1002
{
1000
OTHER
1070
     0
1002
}
1002
{
1000
REACTOR
1002
}
1001
GENIUS_GENOBJ-N-FIL_13
1002
{
1000
OWNER
1000
GEN
1002
}
  0
LINE
  5
2AE4
330
1F
100
AcDbEntity
  8
1
100
AcDbLine
 10
42.17386841045646
 20
29.63346801680882
 30
0.0
 11
42.22195758202627
 21
31.08357279438604
 31
0.0
  0
ARC
  5
2AE5
330
1F
100
AcDbEntity
  8
1
100
AcDbCircle
 10
41.77408818014231
 20
29.64672574851417
 30
0.0
 40
0.4
100
AcDbArc
 50
316.9208451054348
 51
358.1006219509017
1001
GENIUS_GENOBJ-N-FIL_13
1002
{
1000
OWNER
1000
GEN
1002
}
1001
GENIUS_GENODEF_13
1002
{
1000
HIER
1070
     0
1002
}
1002
{
1000
MANEDIT
1070
     0
1002
}
1002
{
1000
NOSEL
1070
     0
1002
}
1002
{
1000
BEHIND
1070
     0
1002
}
1002
{
1000
OTHER
1070
     0
1002
}
1002
{
1000
REACTOR
1002
}
  0
LINE
  5
2AE6
330
1F
100
AcDbEntity
  8
1
100
AcDbLine
 10
41.32891112083399
 20
27.72794692251528
 30
0.0
 11
41.27186003185255
 21
24.89869318545078
 31
0.0
  0
ARC
  5
2AE7
330
1F
100
AcDbEntity
  8
1
100
AcDbCircle
 10
40.8719413301888
 20
24.90675743120402
 30
0.0
 40
0.4
100
AcDbArc
 50
273.3041520804145
 51
358.8448036194431
1001
GENIUS_GENOBJ-N-FIL_13
1002
{
1000
OWNER
1000
GEN
1002
}
1001
GENIUS_GENODEF_13
1002
{
1000
HIER
1070
     0
1002
}
1002
{
1000
MANEDIT
1070
     0
1002
}
1002
{
1000
NOSEL
1070
     0
1002
}
1002
{
1000
BEHIND
1070
     0
1002
}
1002
{
1000
OTHER
1070
     0
1002
}
1002
{
1000
REACTOR
1002
}
  0
ARC
  5
2AE8
330
1F
100
AcDbEntity
  8
1
100
AcDbCircle
 10
42.19334878551848
 20
27.79408475462162
 30
0.0
 40
0.8669640644000232
100
AcDbArc
 50
167.0216949428901
 51
184.3751569216607
  0
ARC
  5
2AE9
330
1F
100
AcDbEntity
  8
1
100
AcDbCircle
 10
44.1737058718092
 20
27.40284018396911
 30
0.0
 40
2.885298691586131
100
AcDbArc
 50
136.9208451054371
 51
168.2828177636374
  0
ARC
  5
2AEA
330
1F
100
AcDbEntity
  8
1
100
AcDbCircle
 10
41.82217735171213
 20
31.09683052609139
 30
0.0
 40
0.4
100
AcDbArc
 50
358.100621950905
 51
62.43931323487178
1001
GENIUS_GENODEF_13
1002
{
1000
HIER
1070
     0
1002
}
1002
{
1000
MANEDIT
1070
     0
1002
}
1002
{
1000
NOSEL
1070
     0
1002
}
1002
{
1000
BEHIND
1070
     0
1002
}
1002
{
1000
OTHER
1070
     0
1002
}
1002
{
1000
REACTOR
1002
}
1001
GENIUS_GENOBJ-N-FIL_13
1002
{
1000
OWNER
1000
GEN
1002
}
  0
CIRCLE
  5
2AEB
330
1F
100
AcDbEntity
  8
1
100
AcDbCircle
 10
63.72838623611534
 20
27.96536931033173
 30
0.0
 40
1.899999999999982
  0
CIRCLE
  5
2AEC
330
1F
100
AcDbEntity
  8
1
100
AcDbCircle
 10
54.83794208801606
 20
27.96536931033178
 30
0.0
 40
1.899999999999982
  0
LINE
  5
2AED
330
1F
100
AcDbEntity
  8
1
100
AcDbLine
 10
52.17386841045646
 20
29.63346801680882
 30
0.0
 11
52.22195758202627
 21
31.08357279438604
 31
0.0
  0
ARC
  5
2AEE
330
1F
100
AcDbEntity
  8
1
100
AcDbCircle
 10
50.8719413301888
 20
24.90675743120402
 30
0.0
 40
0.4
100
AcDbArc
 50
273.3041520804145
 51
358.8448036194431
1001
GENIUS_GENOBJ-N-FIL_13
1002
{
1000
OWNER
1000
GEN
1002
}
1001
GENIUS_GENODEF_13
1002
{
1000
HIER
1070
     0
1002
}
1002
{
1000
MANEDIT
1070
     0
1002
}
1002
{
1000
NOSEL
1070
     0
1002
}
1002
{
1000
BEHIND
1070
     0
1002
}
1002
{
1000
OTHER
1070
     0
1002
}
1002
{
1000
REACTOR
1002
}
  0
ARC
  5
2AEF
330
1F
100
AcDbEntity
  8
1
100
AcDbCircle
 10
51.77408818014232
 20
29.64672574851417
 30
0.0
 40
0.4
100
AcDbArc
 50
316.9208451054348
 51
358.1006219509017
1001
GENIUS_GENOBJ-N-FIL_13
1002
{
1000
OWNER
1000
GEN
1002
}
1001
GENIUS_GENODEF_13
1002
{
1000
HIER
1070
     0
1002
}
1002
{
1000
MANEDIT
1070
     0
1002
}
1002
{
1000
NOSEL
1070
     0
1002
}
1002
{
1000
BEHIND
1070
     0
1002
}
1002
{
1000
OTHER
1070
     0
1002
}
1002
{
1000
REACTOR
1002
}
  0
LINE
  5
2AF0
330
1F
100
AcDbEntity
  8
1
100
AcDbLine
 10
51.32891112083399
 20
27.72794692251528
 30
0.0
 11
51.27186003185255
 21
24.89869318545078
 31
0.0
  0
ARC
  5
2AF1
330
1F
100
AcDbEntity
  8
1
100
AcDbCircle
 10
52.19334878551848
 20
27.79408475462162
 30
0.0
 40
0.8669640644000232
100
AcDbArc
 50
167.0216949428901
 51
184.3751569216607
  0
ARC
  5
2AF2
330
1F
100
AcDbEntity
  8
1
100
AcDbCircle
 10
54.1737058718092
 20
27.40284018396911
 30
0.0
 40
2.885298691586131
100
AcDbArc
 50
136.9208451054371
 51
168.2828177636374
  0
ARC
  5
2AF3
330
1F
100
AcDbEntity
  8
1
100
AcDbCircle
 10
51.82217735171213
 20
31.09683052609139
 30
0.0
 40
0.4
100
AcDbArc
 50
358.100621950905
 51
62.43931323487178
1001
GENIUS_GENODEF_13
1002
{
1000
HIER
1070
     0
1002
}
1002
{
1000
MANEDIT
1070
     0
1002
}
1002
{
1000
NOSEL
1070
     0
1002
}
1002
{
1000
BEHIND
1070
     0
1002
}
1002
{
1000
OTHER
1070
     0
1002
}
1002
{
1000
REACTOR
1002
}
1001
GENIUS_GENOBJ-N-FIL_13
1002
{
1000
OWNER
1000
GEN
1002
}
  0
LINE
  5
2AF4
330
1F
100
AcDbEntity
  8
1
100
AcDbLine
 10
61.0643125585546
 20
29.63346801680886
 30
0.0
 11
61.11240173012442
 21
31.08357279438608
 31
0.0
  0
ARC
  5
2AF5
330
1F
100
AcDbEntity
  8
1
100
AcDbCircle
 10
59.76238547828683
 20
24.90675743120407
 30
0.0
 40
0.4
100
AcDbArc
 50
273.3041520804145
 51
358.8448036194431
1001
GENIUS_GENOBJ-N-FIL_13
1002
{
1000
OWNER
1000
GEN
1002
}
1001
GENIUS_GENODEF_13
1002
{
1000
HIER
1070
     0
1002
}
1002
{
1000
MANEDIT
1070
     0
1002
}
1002
{
1000
NOSEL
1070
     0
1002
}
1002
{
1000
BEHIND
1070
     0
1002
}
1002
{
1000
OTHER
1070
     0
1002
}
1002
{
1000
REACTOR
1002
}
  0
ARC
  5
2AF6
330
1F
100
AcDbEntity
  8
1
100
AcDbCircle
 10
60.66453232824045
 20
29.64672574851421
 30
0.0
 40
0.4
100
AcDbArc
 50
316.9208451054348
 51
358.1006219509017
1001
GENIUS_GENOBJ-N-FIL_13
1002
{
1000
OWNER
1000
GEN
1002
}
1001
GENIUS_GENODEF_13
1002
{
1000
HIER
1070
     0
1002
}
1002
{
1000
MANEDIT
1070
     0
1002
}
1002
{
1000
NOSEL
1070
     0
1002
}
1002
{
1000
BEHIND
1070
     0
1002
}
1002
{
1000
OTHER
1070
     0
1002
}
1002
{
1000
REACTOR
1002
}
  0
LINE
  5
2AF7
330
1F
100
AcDbEntity
  8
1
100
AcDbLine
 10
60.21935526893201
 20
27.72794692251533
 30
0.0
 11
60.16230417995069
 21
24.89869318545082
 31
0.0
  0
ARC
  5
2AF8
330
1F
100
AcDbEntity
  8
1
100
AcDbCircle
 10
61.08379293361662
 20
27.79408475462166
 30
0.0
 40
0.8669640644000232
100
AcDbArc
 50
167.0216949428901
 51
184.3751569216607
  0
ARC
  5
2AF9
330
1F
100
AcDbEntity
  8
1
100
AcDbCircle
 10
63.06415001990735
 20
27.40284018396916
 30
0.0
 40
2.885298691586131
100
AcDbArc
 50
136.9208451054371
 51
168.2828177636374
  0
ARC
  5
2AFA
330
1F
100
AcDbEntity
  8
1
100
AcDbCircle
 10
60.71262149981027
 20
31.09683052609144
 30
0.0
 40
0.4
100
AcDbArc
 50
358.100621950905
 51
70.55745732947598
1001
GENIUS_GENODEF_13
1002
{
1000
HIER
1070
     0
1002
}
1002
{
1000
MANEDIT
1070
     0
1002
}
1002
{
1000
NOSEL
1070
     0
1002
}
1002
{
1000
BEHIND
1070
     0
1002
}
1002
{
1000
OTHER
1070
     0
1002
}
1002
{
1000
REACTOR
1002
}
1001
GENIUS_GENOBJ-N-FIL_13
1002
{
1000
OWNER
1000
GEN
1002
}
  0
LINE
  5
2AFB
330
1F
100
AcDbEntity
  8
CUT
100
AcDbLine
 10
69.95475670665388
 20
29.63346801680882
 30
0.0
 11
70.0028458782237
 21
31.08357279438604
 31
0.0
  0
LINE
  5
2AFC
330
1F
100
AcDbEntity
  8
1
100
AcDbLine
 10
69.95475670665388
 20
29.63346801680882
 30
0.0
 11
70.0028458782237
 21
31.08357279438604
 31
0.0
  0
ARC
  5
2AFD
330
1F
100
AcDbEntity
  8
CUT
100
AcDbCircle
 10
68.65282962638622
 20
24.90675743120402
 30
0.0
 40
0.4
100
AcDbArc
 50
273.3041520804145
 51
358.8448036194431
1001
GENIUS_GENOBJ-N-FIL_13
1002
{
1000
OWNER
1000
GEN
1002
}
1001
GENIUS_GENODEF_13
1002
{
1000
HIER
1070
     0
1002
}
1002
{
1000
MANEDIT
1070
     0
1002
}
1002
{
1000
NOSEL
1070
     0
1002
}
1002
{
1000
BEHIND
1070
     0
1002
}
1002
{
1000
OTHER
1070
     0
1002
}
1002
{
1000
REACTOR
1002
}
  0
ARC
  5
2AFE
330
1F
100
AcDbEntity
  8
1
100
AcDbCircle
 10
68.65282962638611
 20
24.90675743120402
 30
0.0
 40
0.4
100
AcDbArc
 50
273.3041520804145
 51
358.8448036194431
1001
GENIUS_GENOBJ-N-FIL_13
1002
{
1000
OWNER
1000
GEN
1002
}
1001
GENIUS_GENODEF_13
1002
{
1000
HIER
1070
     0
1002
}
1002
{
1000
MANEDIT
1070
     0
1002
}
1002
{
1000
NOSEL
1070
     0
1002
}
1002
{
1000
BEHIND
1070
     0
1002
}
1002
{
1000
OTHER
1070
     0
1002
}
1002
{
1000
REACTOR
1002
}
  0
ARC
  5
2AFF
330
1F
100
AcDbEntity
  8
CUT
100
AcDbCircle
 10
69.55497647633973
 20
29.64672574851417
 30
0.0
 40
0.4
100
AcDbArc
 50
316.9208451054348
 51
358.1006219509017
1001
GENIUS_GENOBJ-N-FIL_13
1002
{
1000
OWNER
1000
GEN
1002
}
1001
GENIUS_GENODEF_13
1002
{
1000
HIER
1070
     0
1002
}
1002
{
1000
MANEDIT
1070
     0
1002
}
1002
{
1000
NOSEL
1070
     0
1002
}
1002
{
1000
BEHIND
1070
     0
1002
}
1002
{
1000
OTHER
1070
     0
1002
}
1002
{
1000
REACTOR
1002
}
  0
ARC
  5
2B00
330
1F
100
AcDbEntity
  8
1
100
AcDbCircle
 10
69.55497647633973
 20
29.64672574851417
 30
0.0
 40
0.4
100
AcDbArc
 50
316.9208451054348
 51
358.1006219509017
1001
GENIUS_GENOBJ-N-FIL_13
1002
{
1000
OWNER
1000
GEN
1002
}
1001
GENIUS_GENODEF_13
1002
{
1000
HIER
1070
     0
1002
}
1002
{
1000
MANEDIT
1070
     0
1002
}
1002
{
1000
NOSEL
1070
     0
1002
}
1002
{
1000
BEHIND
1070
     0
1002
}
1002
{
1000
OTHER
1070
     0
1002
}
1002
{
1000
REACTOR
1002
}
  0
LINE
  5
2B01
330
1F
100
AcDbEntity
  8
CUT
100
AcDbLine
 10
69.10979941703141
 20
27.72794692251528
 30
0.0
 11
69.05274832804997
 21
24.89869318545078
 31
0.0
  0
LINE
  5
2B02
330
1F
100
AcDbEntity
  8
1
100
AcDbLine
 10
69.10979941703129
 20
27.72794692251528
 30
0.0
 11
69.05274832804997
 21
24.89869318545078
 31
0.0
  0
ARC
  5
2B03
330
1F
100
AcDbEntity
  8
CUT
100
AcDbCircle
 10
69.9742370817159
 20
27.79408475462162
 30
0.0
 40
0.8669640644000232
100
AcDbArc
 50
167.0216949428909
 51
184.3751569216607
  0
ARC
  5
2B04
330
1F
100
AcDbEntity
  8
1
100
AcDbCircle
 10
69.9742370817159
 20
27.79408475462162
 30
0.0
 40
0.8669640644000232
100
AcDbArc
 50
167.0216949428901
 51
184.3751569216607
  0
ARC
  5
2B05
330
1F
100
AcDbEntity
  8
CUT
100
AcDbCircle
 10
71.95459416800662
 20
27.40284018396911
 30
0.0
 40
2.885298691586131
100
AcDbArc
 50
136.9208451054371
 51
168.2828177636374
  0
ARC
  5
2B06
330
1F
100
AcDbEntity
  8
1
100
AcDbCircle
 10
71.95459416800662
 20
27.40284018396911
 30
0.0
 40
2.885298691586131
100
AcDbArc
 50
136.9208451054371
 51
168.2828177636374
  0
ARC
  5
2B07
330
1F
100
AcDbEntity
  8
1
100
AcDbCircle
 10
69.60306564790954
 20
31.09683052609141
 30
0.0
 40
0.4
100
AcDbArc
 50
358.100621950905
 51
87.46885444860659
1001
GENIUS_GENODEF_13
1002
{
1000
HIER
1070
     0
1002
}
1002
{
1000
MANEDIT
1070
     0
1002
}
1002
{
1000
NOSEL
1070
     0
1002
}
1002
{
1000
BEHIND
1070
     0
1002
}
1002
{
1000
OTHER
1070
     0
1002
}
1002
{
1000
REACTOR
1002
}
1001
GENIUS_GENOBJ-N-FIL_13
1002
{
1000
OWNER
1000
GEN
1002
}
  0
ARC
  5
2B08
330
1F
100
AcDbEntity
  8
CUT
100
AcDbCircle
 10
69.60306564790954
 20
31.09683052609139
 30
0.0
 40
0.4
100
AcDbArc
 50
358.1006219509058
 51
87.46885444860659
1001
GENIUS_GENODEF_13
1002
{
1000
HIER
1070
     0
1002
}
1002
{
1000
MANEDIT
1070
     0
1002
}
1002
{
1000
NOSEL
1070
     0
1002
}
1002
{
1000
BEHIND
1070
     0
1002
}
1002
{
1000
OTHER
1070
     0
1002
}
1002
{
1000
REACTOR
1002
}
1001
GENIUS_GENOBJ-N-FIL_13
1002
{
1000
OWNER
1000
GEN
1002
}
  0
LINE
  5
2B09
330
1F
100
AcDbEntity
  8
SK1
100
AcDbLine
 10
70.00000000000006
 20
31.96376936984869
 30
0.0
 11
70.00000000000006
 21
31.03623063015104
 31
0.0
  0
LINE
  5
2B0A
330
1F
100
AcDbEntity
  8
SK1
100
AcDbLine
 10
69.53623063015124
 20
31.49999999999986
 30
0.0
 11
70.46376936984888
 21
31.49999999999986
 31
0.0
  0
CIRCLE
  5
2B0B
330
1F
100
AcDbEntity
  8
SK1
100
AcDbCircle
 10
70.00000000000006
 20
31.49999999999986
 30
0.0
 40
0.4637693698488208
  0
LINE
  5
2B0C
330
1F
100
AcDbEntity
  8
1
100
AcDbLine
 10
69.10979941703121
 20
-27.72794692251557
 30
0.0
 11
69.05274832804988
 21
-24.89869318545106
 31
0.0
  0
LINE
  5
2B0D
330
1F
100
AcDbEntity
  8
1
100
AcDbLine
 10
21.9999999999998
 20
-31.42331624644885
 30
0.0
 11
69.62073063028284
 21
-31.49644027121528
 31
0.0
  0
ARC
  5
2B0E
330
1F
100
AcDbEntity
  8
1
100
AcDbCircle
 10
22.02305454964701
 20
-31.02398118945965
 30
0.0
 40
0.4
100
AcDbArc
 50
181.1551963805569
 51
266.6958479195855
1001
GENIUS_GENOBJ-N-FIL_13
1002
{
1000
OWNER
1000
GEN
1002
}
1001
GENIUS_GENODEF_13
1002
{
1000
HIER
1070
     0
1002
}
1002
{
1000
MANEDIT
1070
     0
1002
}
1002
{
1000
NOSEL
1070
     0
1002
}
1002
{
1000
BEHIND
1070
     0
1002
}
1002
{
1000
OTHER
1070
     0
1002
}
1002
{
1000
REACTOR
1002
}
  0
LINE
  5
2B0F
330
1F
100
AcDbEntity
  8
1
100
AcDbLine
 10
21.61787465075676
 20
-30.77113434341692
 30
0.0
 11
21.6231358479832
 21
-31.03204543521292
 31
0.0
  0
LINE
  5
2B10
330
1F
100
AcDbEntity
  8
1
100
AcDbLine
 10
69.9547567066538
 20
-29.6334680168091
 30
0.0
 11
70.00284587822361
 21
-31.08357279438632
 31
0.0
  0
ARC
  5
2B11
330
1F
100
AcDbEntity
  8
1
100
AcDbCircle
 10
69.55497647633965
 20
-29.64672574851445
 30
0.0
 40
0.4
100
AcDbArc
 50
1.899378049098226
 51
43.07915489456518
1001
GENIUS_GENOBJ-N-FIL_13
1002
{
1000
OWNER
1000
GEN
1002
}
1001
GENIUS_GENODEF_13
1002
{
1000
HIER
1070
     0
1002
}
1002
{
1000
MANEDIT
1070
     0
1002
}
1002
{
1000
NOSEL
1070
     0
1002
}
1002
{
1000
BEHIND
1070
     0
1002
}
1002
{
1000
OTHER
1070
     0
1002
}
1002
{
1000
REACTOR
1002
}
  0
LINE
  5
2B12
330
1F
100
AcDbEntity
  8
SK1
100
AcDbLine
 10
69.99999999999997
 20
-31.96376936984896
 30
0.0
 11
69.99999999999997
 21
-31.03623063015132
 31
0.0
  0
ARC
  5
2B13
330
1F
100
AcDbEntity
  8
1
100
AcDbCircle
 10
71.95459416800654
 20
-27.4028401839694
 30
0.0
 40
2.885298691586131
100
AcDbArc
 50
191.7171822363625
 51
223.0791548945628
  0
LINE
  5
2B14
330
1F
100
AcDbEntity
  8
SK1
100
AcDbLine
 10
69.53623063015115
 20
-31.50000000000014
 30
0.0
 11
70.46376936984879
 21
-31.50000000000014
 31
0.0
  0
CIRCLE
  5
2B15
330
1F
100
AcDbEntity
  8
SK1
100
AcDbCircle
 10
69.99999999999997
 20
-31.50000000000014
 30
0.0
 40
0.4637693698488208
  0
ARC
  5
2B16
330
1F
100
AcDbEntity
  8
1
100
AcDbCircle
 10
69.60306564790946
 20
-31.09683052609168
 30
0.0
 40
0.4
100
AcDbArc
 50
272.5311455513934
 51
1.899378049094971
1001
GENIUS_GENODEF_13
1002
{
1000
HIER
1070
     0
1002
}
1002
{
1000
MANEDIT
1070
     0
1002
}
1002
{
1000
NOSEL
1070
     0
1002
}
1002
{
1000
BEHIND
1070
     0
1002
}
1002
{
1000
OTHER
1070
     0
1002
}
1002
{
1000
REACTOR
1002
}
1001
GENIUS_GENOBJ-N-FIL_13
1002
{
1000
OWNER
1000
GEN
1002
}
  0
ARC
  5
2B17
330
1F
100
AcDbEntity
  8
1
100
AcDbCircle
 10
69.97423708171581
 20
-27.7940847546219
 30
0.0
 40
0.8669640644000232
100
AcDbArc
 50
175.6248430783392
 51
192.9783050571099
  0
ARC
  5
2B18
330
1F
100
AcDbEntity
  8
1
100
AcDbCircle
 10
68.65282962638602
 20
-24.90675743120431
 30
0.0
 40
0.4
100
AcDbArc
 50
1.155196380556908
 51
30.69319144112415
1001
GENIUS_GENOBJ-N-FIL_13
1002
{
1000
OWNER
1000
GEN
1002
}
1001
GENIUS_GENODEF_13
1002
{
1000
HIER
1070
     0
1002
}
1002
{
1000
MANEDIT
1070
     0
1002
}
1002
{
1000
NOSEL
1070
     0
1002
}
1002
{
1000
BEHIND
1070
     0
1002
}
1002
{
1000
OTHER
1070
     0
1002
}
1002
{
1000
REACTOR
1002
}
  0
LINE
  5
2B19
330
1F
100
AcDbEntity
  8
NOCUT
100
AcDbLine
 10
15.36886104946616
 20
-30.77113434341892
 30
0.0
 11
68.99679480008373
 21
-30.77113434340765
 31
0.0
  0
LINE
  5
2B1A
330
1F
100
AcDbEntity
  8
1
100
AcDbLine
 10
68.99679480008373
 20
-30.77113434340765
 30
0.0
 11
15.36886104946616
 21
-30.77113434341892
 31
0.0
  0
DIMENSION
  5
2B2A
330
1F
100
AcDbEntity
  8
2
100
AcDbDimension
  2
*D4
 10
21.99999999999994
 20
59.99999999999997
 30
0.0
 11
47.35735027401505
 21
59.99999999999997
 31
0.0
 70
   160
  3
AM_DIN
100
AcDbAlignedDimension
 13
70.00000000000006
 23
31.49999999999986
 33
0.0
 14
21.99999999999994
 24
31.42331624644856
 34
0.0
 50
0.0000000000000114
100
AcDbRotatedDimension
  0
DIMENSION
  5
2B78
330
1F
100
AcDbEntity
  8
2
100
AcDbDimension
  2
*D5
 10
0.0000000000000674
 20
75.00000000000003
 30
0.0
 11
35.00000000000006
 21
78.25000000000002
 31
0.0
 70
    32
  3
AM_DIN
100
AcDbAlignedDimension
 13
70.00000000000006
 23
31.49999999999986
 33
0.0
 14
0.0000000000000644
 24
25.50000000000017
 34
0.0
 50
0.0000000000000114
100
AcDbRotatedDimension
  0
DIMENSION
  5
2BA1
330
1F
100
AcDbEntity
  8
SK2
100
AcDbDimension
  2
*D6
 10
-31.98103079212069
 20
-27.49999999999983
 30
0.0
 11
-35.23103079212069
 21
0.0000000000001693
 31
0.0
 70
    32
  1
%%c<>
  3
AM_DIN
100
AcDbAlignedDimension
 13
2.000000000000075
 23
27.50000000000016
 33
0.0
 14
1.99999999999977
 24
-27.49999999999984
 34
0.0
 50
89.99999999999982
100
AcDbRotatedDimension
  0
TEXT
  5
2BF5
330
1F
100
AcDbEntity
  8
6
100
AcDbText
 10
111.7709057213757
 20
-10.80767368632262
 30
0.0
 40
3.5
  1
Zeff.=5
 50
90.0
100
AcDbText
  0
TEXT
  5
2BF6
330
1F
100
AcDbEntity
  8
6
100
AcDbText
 10
105.5486040589775
 20
-7.751489222778609
 30
0.0
 40
3.5
  1
Z=25
 50
90.0
100
AcDbText
  0
ARC
  5
2C0D
330
1F
100
AcDbEntity
  8
1
100
AcDbCircle
 10
75.50601363098595
 20
92.12388221569867
 30
0.0
 40
124.7802370561829
100
AcDbArc
 50
242.7236604261744
 51
260.0277280615828
  0
ARC
  5
2C0E
330
1F
100
AcDbEntity
  8
1
100
AcDbCircle
 10
14.37933261120356
 20
-26.327350777578
 30
0.0
 40
8.513409786420575
100
AcDbArc
 50
62.41635916157322
 51
187.9171734312535
  0
ARC
  5
2C13
330
1F
100
AcDbEntity
  8
1
100
AcDbCircle
 10
94.82220701469303
 20
139.8773793735268
 30
0.0
 40
145.2263520512931
100
AcDbArc
 50
237.3308475502905
 51
259.7566872799699
  0
ARC
  5
2C14
330
1F
100
AcDbEntity
  8
1
100
AcDbCircle
 10
113.3624303935663
 20
105.4698426201155
 30
0.0
 40
126.933528092184
100
AcDbArc
 50
228.6702572255256
 51
249.5421234649602
  0
ARC
  5
2C15
330
1F
100
AcDbEntity
  8
1
100
AcDbCircle
 10
62.83719631090065
 20
-128.8845236473157
 30
0.0
 40
149.8996579088901
100
AcDbArc
 50
87.64496867277335
 51
106.316936114854
  0
ARC
  5
2C16
330
1F
100
AcDbEntity
  8
1
100
AcDbCircle
 10
21.10334265930798
 20
27.05686961991637
 30
0.0
 40
10.52522811499415
100
AcDbArc
 50
177.5870349807047
 51
243.6451345926041
  0
ENDSEC
  0
SECTION
  2
OBJECTS
  0
DICTIONARY
  5
C
330
0
100
AcDbDictionary
  3
ACAD_GROUP
350
D
  3
ACAD_LAYOUT
350
1A
  3
ACAD_MLINESTYLE
350
17
  3
ACAD_PLOTSETTINGS
350
19
  3
ACAD_PLOTSTYLENAME
350
E
  3
ACDBHEADERROUNDTRIPXREC
350
2C45
  3
ACDBVARIABLEDICTIONARY
350
216
  3
ACMDICTIONARY
350
45
  3
AMG
350
41
  3
AMGSNAPSETTINGS
350
23D
  3
DWGPROPS
350
2C40
  0
DICTIONARY
  5
1F1
330
1F
100
AcDbDictionary
280
     1
  3
ACAD_INDEX
360
1F2
  3
ACAD_LAYOUTSELFREF
360
2C68
  0
DICTIONARY
  5
2C66
330
1B
100
AcDbDictionary
280
     1
  3
ACAD_LAYOUTSELFREF
360
2C67
  0
DICTIONARY
  5
D
102
{ACAD_REACTORS
330
C
102
}
330
C
100
AcDbDictionary
  0
DICTIONARY
  5
1A
102
{ACAD_REACTORS
330
C
102
}
330
C
100
AcDbDictionary
  0
DICTIONARY
  5
17
102
{ACAD_REACTORS
330
C
102
}
330
C
100
AcDbDictionary
  3
STANDARD
350
18
  0
DICTIONARY
  5
19
102
{ACAD_REACTORS
330
C
102
}
330
C
100
AcDbDictionary
  0
ACDBDICTIONARYWDFLT
  5
E
102
{ACAD_REACTORS
330
C
102
}
330
C
100
AcDbDictionary
281
     1
  3
Normal
350
F
100
AcDbDictionaryWithDefault
340
F
  0
DICTIONARY
  5
2C45
102
{ACAD_REACTORS
330
C
102
}
330
C
100
AcDbDictionary
  3
CEPSNTYPE
350
2C4F
  3
DIMSTYLEDATA
350
2C53
  3
FINGERPRINTGUID
350
2C50
  3
HYPERLINKBASE
350
2C48
  3
INSUNITS
350
2C4E
  3
LAYOUTDICT
350
2C4A
  3
LWETCUNION
350
2C4D
  3
PLOTSETDICT
350
2C4B
  3
PLOTSTYLNAMDICT
350
2C4C
  3
PSVPSCALE
350
2C52
  3
PUCSBASE
350
2C56
  3
PUCSORGBACK
350
2C5C
  3
PUCSORGBOTTOM
350
2C58
  3
PUCSORGFRONT
350
2C5B
  3
PUCSORGLEFT
350
2C59
  3
PUCSORGRIGHT
350
2C5A
  3
PUCSORGTOP
350
2C57
  3
PUCSORTHOREF
350
2C54
  3
PUCSORTHOVIEW
350
2C55
  3
STYLESHEET
350
2C49
  3
TSTACKALIGN
350
2C46
  3
TSTACKSIZE
350
2C47
  3
UCSBASE
350
2C5F
  3
UCSORGBACK
350
2C65
  3
UCSORGBOTTOM
350
2C61
  3
UCSORGFRONT
350
2C64
  3
UCSORGLEFT
350
2C62
  3
UCSORGRIGHT
350
2C63
  3
UCSORGTOP
350
2C60
  3
UCSORTHOREF
350
2C5D
  3
UCSORTHOVIEW
350
2C5E
  3
VERSIONGUID
350
2C51
  0
DICTIONARY
  5
216
102
{ACAD_REACTORS
330
C
102
}
330
C
100
AcDbDictionary
  3
DIMASSOC
350
219
  3
HIDETEXT
350
218
  3
INDEXCTL
350
217
  0
DICTIONARY
  5
45
102
{ACAD_REACTORS
330
C
102
}
330
C
100
AcDbDictionary
  3
ACMSTDDICTIONARY
350
4A
  0
DICTIONARY
  5
41
102
{ACAD_REACTORS
330
C
102
}
330
C
100
AcDbDictionary
  3
ACMGSETTINGS
350
42
  0
DICTIONARY
  5
23D
102
{ACAD_REACTORS
330
C
102
}
330
C
100
AcDbDictionary
  0
XRECORD
  5
2C40
102
{ACAD_REACTORS
330
C
102
}
330
C
100
AcDbXrecord
  1
DWGPROPS COOKIE
  2

  3

  4

  6

  7

  8

  9

300
AmdtFileType=84
301
=
302
=
303
=
304
=
305
=
306
=
307
=
308
=
309
=
 40
0.0533929745370371
 41
2453599.324339374
 42
2453754.499955289
  1

 90
        1
  0
DICTIONARY
  5
1F2
102
{ACAD_REACTORS
330
1F1
102
}
330
1F1
100
AcDbDictionary
  3
*A1
350
1F3
  0
XRECORD
  5
2C68
102
{ACAD_REACTORS
330
1F1
102
}
330
1F1
100
AcDbXrecord
340
1F
  0
XRECORD
  5
2C67
102
{ACAD_REACTORS
330
2C66
102
}
330
2C66
100
AcDbXrecord
340
1B
  0
MLINESTYLE
  5
18
102
{ACAD_REACTORS
330
17
102
}
330
17
100
AcDbMlineStyle
  2
STANDARD
 70
     0
  3

 62
   256
 51
90.0
 52
90.0
 71
     2
 49
0.5
 62
   256
  6
BYLAYER
 49
-0.5
 62
   256
  6
BYLAYER
  0
ACDBPLACEHOLDER
  5
F
102
{ACAD_REACTORS
330
E
102
}
330
E
100
AcDbPlaceHolder
280
     0
  0
XRECORD
  5
2C4F
102
{ACAD_REACTORS
330
2C45
102
}
330
2C45
100
AcDbXrecord
 90
        0
  0
XRECORD
  5
2C53
102
{ACAD_REACTORS
330
2C45
102
}
330
2C45
100
AcDbXrecord
1000
DSTYLE
1002
{
1070
    79
 70
     2
1070
   371
 70
    -1
1070
   372
 70
    -1
1002
}
  0
XRECORD
  5
2C50
102
{ACAD_REACTORS
330
2C45
102
}
330
2C45
100
AcDbXrecord
  1
{03052709-208C-44F1-88CB-F8F0E550BC5D}
  0
XRECORD
  5
2C48
102
{ACAD_REACTORS
330
2C45
102
}
330
2C45
100
AcDbXrecord
  1

  0
XRECORD
  5
2C4E
102
{ACAD_REACTORS
330
2C45
102
}
330
2C45
100
AcDbXrecord
 90
        4
  0
XRECORD
  5
2C4A
102
{ACAD_REACTORS
330
2C45
102
}
330
2C45
100
AcDbXrecord
340
1A
  0
XRECORD
  5
2C4D
102
{ACAD_REACTORS
330
2C45
102
}
330
2C45
100
AcDbXrecord
 90
    10781
  0
XRECORD
  5
2C4B
102
{ACAD_REACTORS
330
2C45
102
}
330
2C45
100
AcDbXrecord
340
19
  0
XRECORD
  5
2C4C
102
{ACAD_REACTORS
330
2C45
102
}
330
2C45
100
AcDbXrecord
340
E
  0
XRECORD
  5
2C52
102
{ACAD_REACTORS
330
2C45
102
}
330
2C45
100
AcDbXrecord
 40
0.0
  0
XRECORD
  5
2C56
102
{ACAD_REACTORS
330
2C45
102
}
330
2C45
100
AcDbXrecord
340
0
  0
XRECORD
  5
2C5C
102
{ACAD_REACTORS
330
2C45
102
}
330
2C45
100
AcDbXrecord
 10
0.0
 20
0.0
 30
0.0
  0
XRECORD
  5
2C58
102
{ACAD_REACTORS
330
2C45
102
}
330
2C45
100
AcDbXrecord
 10
0.0
 20
0.0
 30
0.0
  0
XRECORD
  5
2C5B
102
{ACAD_REACTORS
330
2C45
102
}
330
2C45
100
AcDbXrecord
 10
0.0
 20
0.0
 30
0.0
  0
XRECORD
  5
2C59
102
{ACAD_REACTORS
330
2C45
102
}
330
2C45
100
AcDbXrecord
 10
0.0
 20
0.0
 30
0.0
  0
XRECORD
  5
2C5A
102
{ACAD_REACTORS
330
2C45
102
}
330
2C45
100
AcDbXrecord
 10
0.0
 20
0.0
 30
0.0
  0
XRECORD
  5
2C57
102
{ACAD_REACTORS
330
2C45
102
}
330
2C45
100
AcDbXrecord
 10
0.0
 20
0.0
 30
0.0
  0
XRECORD
  5
2C54
102
{ACAD_REACTORS
330
2C45
102
}
330
2C45
100
AcDbXrecord
340
0
  0
XRECORD
  5
2C55
102
{ACAD_REACTORS
330
2C45
102
}
330
2C45
100
AcDbXrecord
 70
     0
  0
XRECORD
  5
2C49
102
{ACAD_REACTORS
330
2C45
102
}
330
2C45
100
AcDbXrecord
  1

  0
XRECORD
  5
2C46
102
{ACAD_REACTORS
330
2C45
102
}
330
2C45
100
AcDbXrecord
 90
        1
  0
XRECORD
  5
2C47
102
{ACAD_REACTORS
330
2C45
102
}
330
2C45
100
AcDbXrecord
 90
       70
  0
XRECORD
  5
2C5F
102
{ACAD_REACTORS
330
2C45
102
}
330
2C45
100
AcDbXrecord
340
0
  0
XRECORD
  5
2C65
102
{ACAD_REACTORS
330
2C45
102
}
330
2C45
100
AcDbXrecord
 10
0.0
 20
0.0
 30
0.0
  0
XRECORD
  5
2C61
102
{ACAD_REACTORS
330
2C45
102
}
330
2C45
100
AcDbXrecord
 10
0.0
 20
0.0
 30
0.0
  0
XRECORD
  5
2C64
102
{ACAD_REACTORS
330
2C45
102
}
330
2C45
100
AcDbXrecord
 10
0.0
 20
0.0
 30
0.0
  0
XRECORD
  5
2C62
102
{ACAD_REACTORS
330
2C45
102
}
330
2C45
100
AcDbXrecord
 10
0.0
 20
0.0
 30
0.0
  0
XRECORD
  5
2C63
102
{ACAD_REACTORS
330
2C45
102
}
330
2C45
100
AcDbXrecord
 10
0.0
 20
0.0
 30
0.0
  0
XRECORD
  5
2C60
102
{ACAD_REACTORS
330
2C45
102
}
330
2C45
100
AcDbXrecord
 10
0.0
 20
0.0
 30
0.0
  0
XRECORD
  5
2C5D
102
{ACAD_REACTORS
330
2C45
102
}
330
2C45
100
AcDbXrecord
340
0
  0
XRECORD
  5
2C5E
102
{ACAD_REACTORS
330
2C45
102
}
330
2C45
100
AcDbXrecord
 70
     0
  0
XRECORD
  5
2C51
102
{ACAD_REACTORS
330
2C45
102
}
330
2C45
100
AcDbXrecord
  1
{E4EC4DBD-2971-4A9B-AA51-7C49FBB9F3ED}
  0
DICTIONARYVAR
  5
219
102
{ACAD_REACTORS
330
216
102
}
330
216
100
DictionaryVariables
280
     0
  1
1
  0
DICTIONARYVAR
  5
218
102
{ACAD_REACTORS
330
216
102
}
330
216
100
DictionaryVariables
280
     0
  1
1
  0
DICTIONARYVAR
  5
217
102
{ACAD_REACTORS
330
216
102
}
330
216
100
DictionaryVariables
280
     0
  1
1
  0
DICTIONARY
  5
4A
102
{ACAD_REACTORS
330
45
102
}
330
45
100
AcDbDictionary
  0
DICTIONARY
  5
42
102
{ACAD_REACTORS
330
41
102
}
330
41
100
AcDbDictionary
  3
DWGSETTINGS
350
43
  0
LAYER_INDEX
  5
1F3
102
{ACAD_REACTORS
330
1F2
102
}
330
1F2
100
AcDbIndex
 40
2453754.768344525
100
AcDbLayerIndex
  8
0
360
1F4
 90
        0
  8
Defpoints
360
210
 90
        0
  8
1
360
29B
 90
       76
  8
2
360
1EC1
 90
        3
  8
4
360
1EC2
 90
        1
  8
6
360
1EC3
 90
        4
  8
SK1
360
1EC4
 90
       12
  8
SK2
360
1EC5
 90
        2
  8
SK3
360
1EC6
 90
        8
  8
CUT
360
1EC7
 90
       16
  8
NOCUT
360
1EC8
 90
        7
  0
XRECORD
  5
43
102
{ACAD_REACTORS
330
42
102
}
330
42
100
AcDbXrecord
  1
VERSION
140
15.0
  1
PRODUCT
  2
AutoCAD Mechanical 2000
  0
IDBUFFER
  5
1F4
330
0
100
AcDbIdBuffer
  0
IDBUFFER
  5
210
330
0
100
AcDbIdBuffer
  0
IDBUFFER
  5
29B
330
0
100
AcDbIdBuffer
330
2B0F
330
2B10
330
2B11
330
2B13
330
2B16
330
2B17
330
2B18
330
2B1A
330
2C0D
330
2C0E
330
2C13
330
2C14
330
2C15
330
2C16
330
EA4
330
EA8
330
2657
330
2690
330
2695
330
26A0
330
26B1
330
26B2
330
26B3
330
2AC7
330
2AC8
330
2AC9
330
2ACA
330
2ACD
330
2ACE
330
2AD0
330
2AD1
330
2AD2
330
2AD3
330
2AD4
330
2ADA
330
2ADC
330
2ADD
330
2ADE
330
2ADF
330
2AE0
330
2AE1
330
2AE2
330
2AE3
330
2AE4
330
2AE5
330
2AE6
330
2AE7
330
2AE8
330
2AE9
330
2AEA
330
2AEB
330
2AEC
330
2AED
330
2AEE
330
2AEF
330
2AF0
330
2AF1
330
2AF2
330
2AF3
330
2AF4
330
2AF5
330
2AF6
330
2AF7
330
2AF8
330
2AF9
330
2AFA
330
2AFC
330
2AFE
330
2B00
330
2B02
330
2B04
330
2B06
330
2B07
330
2B0C
330
2B0D
330
2B0E
  0
IDBUFFER
  5
1EC1
330
0
100
AcDbIdBuffer
330
2A8B
330
2B2A
330
2B78
  0
IDBUFFER
  5
1EC2
330
0
100
AcDbIdBuffer
330
1FF9
  0
IDBUFFER
  5
1EC3
330
0
100
AcDbIdBuffer
330
2654
330
2781
330
2BF5
330
2BF6
  0
IDBUFFER
  5
1EC4
330
0
100
AcDbIdBuffer
330
EA5
330
EA6
330
EA7
330
1FF6
330
1FF8
330
282D
330
2B09
330
2B0A
330
2B0B
330
2B12
330
2B14
330
2B15
  0
IDBUFFER
  5
1EC5
330
0
100
AcDbIdBuffer
330
EC1
330
2BA1
  0
IDBUFFER
  5
1EC6
330
0
100
AcDbIdBuffer
330
EA9
330
EAA
330
EAB
330
EAC
330
EAD
330
EAE
330
EAF
330
EB0
  0
IDBUFFER
  5
1EC7
330
0
100
AcDbIdBuffer
330
2ACB
330
2ACC
330
2ACF
330
2AD5
330
2AD6
330
2AD7
330
2AD8
330
2AD9
330
2ADB
330
2AFB
330
2AFD
330
2AFF
330
2B01
330
2B03
330
2B05
330
2B08
  0
IDBUFFER
  5
1EC8
330
0
100
AcDbIdBuffer
330
27AE
330
27B5
330
27B8
330
27BA
330
27C3
330
27D6
330
2B19
  0
ENDSEC
  0
EOF
