  0
SECTION
  2
HEADER
  9
$ACADVER
  1
AC1014
  9
$ACADMAINTVER
 70
     9
  9
$DWGCODEPAGE
  3
ANSI_1252
  9
$INSBASE
 10
0.0
 20
0.0
 30
0.0
  9
$EXTMIN
 10
-34.6930496237062
 20
-31.57786584426355
 30
-0.000000000000013
  9
$EXTMAX
 10
92.31405012361552
 20
79.8482238872458
 30
0.0000000000000023
  9
$LIMMIN
 10
0.0
 20
0.0
  9
$LIMMAX
 10
420.0
 20
297.0
  9
$ORTHOMODE
 70
     0
  9
$REGENMODE
 70
     1
  9
$FILLMODE
 70
     1
  9
$QTEXTMODE
 70
     0
  9
$MIRRTEXT
 70
     1
  9
$DRAGMODE
 70
     2
  9
$LTSCALE
 40
1.0
  9
$OSMODE
 70
  2599
  9
$ATTMODE
 70
     1
  9
$TEXTSIZE
 40
2.5
  9
$TRACEWID
 40
1.0
  9
$TEXTSTYLE
  7
STANDARD
  9
$CLAYER
  8
0
  9
$CELTYPE
  6
BYLAYER
  9
$CECOLOR
 62
   256
  9
$CELTSCALE
 40
1.0
  9
$DELOBJ
 70
     1
  9
$DISPSILH
 70
     0
  9
$DIMSCALE
 40
1.0
  9
$DIMASZ
 40
2.5
  9
$DIMEXO
 40
0.0
  9
$DIMDLI
 40
10.0
  9
$DIMRND
 40
0.0
  9
$DIMDLE
 40
0.0
  9
$DIMEXE
 40
1.0
  9
$DIMTP
 40
0.1
  9
$DIMTM
 40
0.1
  9
$DIMTXT
 40
3.5
  9
$DIMCEN
 40
0.0
  9
$DIMTSZ
 40
0.0
  9
$DIMTOL
 70
     0
  9
$DIMLIM
 70
     0
  9
$DIMTIH
 70
     0
  9
$DIMTOH
 70
     0
  9
$DIMSE1
 70
     0
  9
$DIMSE2
 70
     0
  9
$DIMTAD
 70
     1
  9
$DIMZIN
 70
     8
  9
$DIMBLK
  1

  9
$DIMASO
 70
     1
  9
$DIMSHO
 70
     1
  9
$DIMPOST
  1

  9
$DIMAPOST
  1
"
  9
$DIMALT
 70
     0
  9
$DIMALTD
 70
     2
  9
$DIMALTF
 40
0.0393701
  9
$DIMLFAC
 40
1.0
  9
$DIMTOFL
 70
     1
  9
$DIMTVP
 40
0.0
  9
$DIMTIX
 70
     0
  9
$DIMSOXD
 70
     0
  9
$DIMSAH
 70
     0
  9
$DIMBLK1
  1

  9
$DIMBLK2
  1

  9
$DIMSTYLE
  2
AM_DIN
  9
$DIMCLRD
 70
   256
  9
$DIMCLRE
 70
   256
  9
$DIMCLRT
 70
     2
  9
$DIMTFAC
 40
0.71
  9
$DIMGAP
 40
1.5
  9
$DIMJUST
 70
     0
  9
$DIMSD1
 70
     0
  9
$DIMSD2
 70
     0
  9
$DIMTOLJ
 70
     0
  9
$DIMTZIN
 70
     8
  9
$DIMALTZ
 70
     0
  9
$DIMALTTZ
 70
     0
  9
$DIMFIT
 70
     3
  9
$DIMUPT
 70
     0
  9
$DIMUNIT
 70
     2
  9
$DIMDEC
 70
     2
  9
$DIMTDEC
 70
     2
  9
$DIMALTU
 70
     2
  9
$DIMALTTD
 70
     2
  9
$DIMTXSTY
  7
STANDARD
  9
$DIMAUNIT
 70
     0
  9
$LUNITS
 70
     2
  9
$LUPREC
 70
     2
  9
$SKETCHINC
 40
1.0
  9
$FILLETRAD
 40
2.0
  9
$AUNITS
 70
     0
  9
$AUPREC
 70
     0
  9
$MENU
  1
.
  9
$ELEVATION
 40
0.0
  9
$PELEVATION
 40
0.0
  9
$THICKNESS
 40
0.0
  9
$LIMCHECK
 70
     0
  9
$BLIPMODE
 70
     0
  9
$CHAMFERA
 40
2.5
  9
$CHAMFERB
 40
2.5
  9
$CHAMFERC
 40
20.0
  9
$CHAMFERD
 40
0.0
  9
$SKPOLY
 70
     0
  9
$TDCREATE
 40
2453599.656190694
  9
$TDUPDATE
 40
2453754.765591608
  9
$TDINDWG
 40
0.0387757755
  9
$TDUSRTIMER
 40
0.0385890509
  9
$USRTIMER
 70
     1
  9
$ANGBASE
 50
0.0
  9
$ANGDIR
 70
     0
  9
$PDMODE
 70
     0
  9
$PDSIZE
 40
0.0
  9
$PLINEWID
 40
0.0
  9
$COORDS
 70
     0
  9
$SPLFRAME
 70
     0
  9
$SPLINETYPE
 70
     6
  9
$SPLINESEGS
 70
     8
  9
$ATTDIA
 70
     1
  9
$ATTREQ
 70
     1
  9
$HANDLING
 70
 22529
  9
$HANDSEED
  5
18B6
  9
$SURFTAB1
 70
     6
  9
$SURFTAB2
 70
     6
  9
$SURFTYPE
 70
     6
  9
$SURFU
 70
     6
  9
$SURFV
 70
     6
  9
$UCSNAME
  2

  9
$UCSORG
 10
0.0
 20
0.0
 30
0.0
  9
$UCSXDIR
 10
1.0
 20
0.0
 30
0.0
  9
$UCSYDIR
 10
0.0
 20
1.0
 30
0.0
  9
$PUCSNAME
  2

  9
$PUCSORG
 10
0.0
 20
0.0
 30
0.0
  9
$PUCSXDIR
 10
1.0
 20
0.0
 30
0.0
  9
$PUCSYDIR
 10
0.0
 20
1.0
 30
0.0
  9
$USERI1
 70
     0
  9
$USERI2
 70
     0
  9
$USERI3
 70
     0
  9
$USERI4
 70
     0
  9
$USERI5
 70
     0
  9
$USERR1
 40
0.0
  9
$USERR2
 40
0.0
  9
$USERR3
 40
0.0
  9
$USERR4
 40
0.0
  9
$USERR5
 40
0.0
  9
$WORLDVIEW
 70
     1
  9
$SHADEDGE
 70
     3
  9
$SHADEDIF
 70
    70
  9
$TILEMODE
 70
     1
  9
$MAXACTVP
 70
    64
  9
$PINSBASE
 10
0.0
 20
0.0
 30
0.0
  9
$PLIMCHECK
 70
     0
  9
$PEXTMIN
 10
1.000000000000000E+20
 20
1.000000000000000E+20
 30
1.000000000000000E+20
  9
$PEXTMAX
 10
-1.000000000000000E+20
 20
-1.000000000000000E+20
 30
-1.000000000000000E+20
  9
$PLIMMIN
 10
0.0
 20
0.0
  9
$PLIMMAX
 10
420.0
 20
297.0
  9
$UNITMODE
 70
     0
  9
$VISRETAIN
 70
     1
  9
$PLINEGEN
 70
     0
  9
$PSLTSCALE
 70
     1
  9
$TREEDEPTH
 70
  3020
  9
$PICKSTYLE
 70
     0
  9
$CMLSTYLE
  2
STANDARD
  9
$CMLJUST
 70
     0
  9
$CMLSCALE
 40
20.0
  9
$PROXYGRAPHICS
 70
     1
  9
$MEASUREMENT
 70
     1
  0
ENDSEC
  0
SECTION
  2
CLASSES
  0
CLASS
  1
ACDBDICTIONARYWDFLT
  2
AcDbDictionaryWithDefault
  3
AutoCAD 2000
 90
        0
280
     0
281
     0
  0
CLASS
  1
ACDBPLACEHOLDER
  2
AcDbPlaceHolder
  3
AutoCAD 2000
 90
        0
280
     0
281
     0
  0
CLASS
  1
LAYOUT
  2
AcDbLayout
  3
AutoCAD 2000
 90
        0
280
     0
281
     0
  0
CLASS
  1
ACME_DOCUMENT
  2
AcMeDbDoc
  3
AcMeServices
 90
        0
280
     0
281
     0
  0
CLASS
  1
ACMESCOPE
  2
AcMeScope
  3
AcMeServices
 90
        0
280
     0
281
     0
  0
CLASS
  1
ACMECOMMANDHISTORY
  2
AcMeCommandHistory
  3
AcMeServices
 90
        0
280
     0
281
     0
  0
CLASS
  1
ACIMSYSVARMAN
  2
AcImSysVarManager
  3
AcMeServices
 90
        0
280
     0
281
     0
  0
CLASS
  1
ACIMREALSYSVAR
  2
AcImRealSysVar
  3
AcMeServices
 90
        0
280
     0
281
     0
  0
CLASS
  1
ACIMINTSYSVAR
  2
AcImIntSysVar
  3
AcMeServices
 90
        0
280
     0
281
     0
  0
CLASS
  1
ACMEDRAWINGMAN
  2
AcMeDrawingMan
  3
AcMeServices
 90
        0
280
     0
281
     0
  0
CLASS
  1
ACMEVIEW
  2
AcMeView
  3
AcMeServices
 90
        0
280
     0
281
     0
  0
CLASS
  1
ACDBENTITYCACHE
  2
AcMeEntityCache
  3
AcMeServices
 90
        0
280
     0
281
     0
  0
CLASS
  1
GSMANAGER
  2
AcMeGSManager
  3
AcMeServices
 90
        0
280
     0
281
     0
  0
CLASS
  1
AMDTINTERNALREACTOR
  2
AmdtInternalReactor
  3
AcMeServices
 90
        0
280
     0
281
     0
  0
CLASS
  1
ACMESTATEMGR
  2
AcMeStateMgr
  3
AcMeServices
 90
        0
280
     0
281
     0
  0
CLASS
  1
ACGREFMASTER
  2
AcGrefMaster
  3
AcAttribServices
 90
        0
280
     0
281
     0
  0
CLASS
  1
ACME_DATABASE
  2
AcMeDbDatabase
  3
AcMeServices
 90
        0
280
     0
281
     0
  0
CLASS
  1
ACRFINSADJUSTERMGR
  2
AcRfInsAdjusterMgr
  3
AcMeServices
 90
        0
280
     0
281
     0
  0
CLASS
  1
ACGREFACADMASTER
  2
AcGrefacadMaster
  3
AcGrefServices
 90
        0
280
     0
281
     0
  0
CLASS
  1
AMIMASTER
  2
AmiMaster
  3
AmiServices
 90
        0
280
     0
281
     0
  0
CLASS
  1
AMGSETTINGSOBJ
  2
AmgSettingsObj
  3
"AcadM|Product Description: AutoCAD Mechanical 2000|Company: Autodesk"
 90
        0
280
     0
281
     0
  0
CLASS
  1
ACMDATADICTIONARY
  2
AcmDataDictionary
  3
"AcmSymBB|Product Description: AutoCAD Mechanical 2000|Company: Autodesk"
 90
        0
280
     0
281
     0
  0
CLASS
  1
ACMDATAENTRYBLOCK
  2
AcmDataEntryBlock
  3
"AcmSymBB|Product Description: AutoCAD Mechanical 2000|Company: Autodesk"
 90
        0
280
     0
281
     0
  0
CLASS
  1
ACIMSTRSYSVAR
  2
AcImStrSysVar
  3
AcMeServices
 90
        0
280
     0
281
     0
  0
CLASS
  1
ACMSTANDARDDIN
  2
AcmStandardDIN
  3
"Amdt_StdImp|Product Description: AutoCAD Mechanical 2000|Company: Autodesk"
 90
        0
280
     0
281
     0
  0
CLASS
  1
AMGOBJPROPCFG
  2
AmgObjPropCfg
  3
"AmgLay|Product Description: AutoCAD Mechanical 2000|Company: Autodesk"
 90
        1
280
     0
281
     0
  0
CLASS
  1
AMDTEDGESTANDARDDIN
  2
AmdtEdgeStdDIN
  3
"Amdt_StdImp|Product Description: AutoCAD Mechanical 2000|Company: Autodesk"
 90
        0
280
     0
281
     0
  0
CLASS
  1
ACMSURFSTANDARDDIN
  2
AcmSurfTextStdDIN
  3
"Amdt_StdImp|Product Description: AutoCAD Mechanical 2000|Company: Autodesk"
 90
        0
280
     0
281
     0
  0
CLASS
  1
ACMFCFSTANDARDDIN
  2
AcmFCFStdDIN
  3
"Amdt_StdImp|Product Description: AutoCAD Mechanical 2000|Company: Autodesk"
 90
        0
280
     0
281
     0
  0
CLASS
  1
ACMWELDSTANDARDDIN
  2
AcmWeldingStdDIN
  3
"Amdt_StdImp|Product Description: AutoCAD Mechanical 2000|Company: Autodesk"
 90
        0
280
     0
281
     0
  0
CLASS
  1
ACMIDSTANDARDDIN
  2
AcmIdStdDIN
  3
"Amdt_StdImp|Product Description: AutoCAD Mechanical 2000|Company: Autodesk"
 90
        0
280
     0
281
     0
  0
CLASS
  1
ACMDATUMSTANDARDDIN
  2
AcmDatumStdDIN
  3
"Amdt_StdImp|Product Description: AutoCAD Mechanical 2000|Company: Autodesk"
 90
        0
280
     0
281
     0
  0
CLASS
  1
ACMBOMSTANDARDDIN
  2
AcmBOMStdDIN
  3
"Amdt_StdImp|Product Description: AutoCAD Mechanical 2000|Company: Autodesk"
 90
        0
280
     0
281
     0
  0
CLASS
  1
ACMDETAILSTANDARDDIN
  2
AmdtDetailSymStdDIN
  3
"Amdt_StdImp|Product Description: AutoCAD Mechanical 2000|Company: Autodesk"
 90
        0
280
     0
281
     0
  0
CLASS
  1
ACMSECTIONSTANDARDDIN
  2
AmdtSectionSymStdDIN
  3
"Amdt_StdImp|Product Description: AutoCAD Mechanical 2000|Company: Autodesk"
 90
        0
280
     0
281
     0
  0
CLASS
  1
ACMCENTERLINESTANDARDDIN
  2
AmdtCenterLineStdDIN
  3
"Amdt_StdImp|Product Description: AutoCAD Mechanical 2000|Company: Autodesk"
 90
        0
280
     0
281
     0
  0
CLASS
  1
ACMNOTESTANDARDDIN
  2
AmdtNoteStdDIN
  3
"Amdt_StdImp|Product Description: AutoCAD Mechanical 2000|Company: Autodesk"
 90
        0
280
     0
281
     0
  0
CLASS
  1
ACAMGLAYSTD
  2
AcAmgLayStd
  3
"AcAmgLayStd|Product Description: AutoCAD Mechanical 2000|Company: Autodesk"
 90
        0
280
     0
281
     0
  0
CLASS
  1
ACAMGDIMSTD
  2
AcAmgDimStd
  3
"AcAmgDimStd|Product Description: AutoCAD Mechanical 2000|Company: Autodesk"
 90
        0
280
     0
281
     0
  0
CLASS
  1
ACAMGHOLECHARTSTDDIN
  2
AcAmgHoleChartStdDIN
  3
ACMSYMBB_MODULE_NAME
 90
        0
280
     0
281
     0
  0
CLASS
  1
ACAMGTITLESTD
  2
AcAmgTitleStd
  3
"TITLEAPP"
 90
        0
280
     0
281
     0
  0
CLASS
  1
ACMSTANDARDANSI
  2
AcmStandardANSI
  3
"Amdt_StdImp|Product Description: AutoCAD Mechanical 2000|Company: Autodesk"
 90
        0
280
     0
281
     0
  0
CLASS
  1
ACMSURFSTANDARDANSI
  2
AcmSurfTextStdANSI
  3
"Amdt_StdImp|Product Description: AutoCAD Mechanical 2000|Company: Autodesk"
 90
        0
280
     0
281
     0
  0
CLASS
  1
ACMFCFSTANDARDANSI
  2
AcmFCFStdANSI
  3
"Amdt_StdImp|Product Description: AutoCAD Mechanical 2000|Company: Autodesk"
 90
        0
280
     0
281
     0
  0
CLASS
  1
ACMWELDSTANDARDANSI
  2
AcmWeldingStdANSI
  3
"Amdt_StdImp|Product Description: AutoCAD Mechanical 2000|Company: Autodesk"
 90
        0
280
     0
281
     0
  0
CLASS
  1
ACMIDSTANDARDANSI
  2
AcmIdStdANSI
  3
"Amdt_StdImp|Product Description: AutoCAD Mechanical 2000|Company: Autodesk"
 90
        0
280
     0
281
     0
  0
CLASS
  1
ACMDATUMSTANDARDANSI
  2
AcmDatumStdANSI
  3
"Amdt_StdImp|Product Description: AutoCAD Mechanical 2000|Company: Autodesk"
 90
        0
280
     0
281
     0
  0
CLASS
  1
ACMBOMSTANDARDANSI
  2
AcmBOMStdANSI
  3
"Amdt_StdImp|Product Description: AutoCAD Mechanical 2000|Company: Autodesk"
 90
        0
280
     0
281
     0
  0
CLASS
  1
ACMDETAILSTANDARDANSI
  2
AmdtDetailSymStdANSI
  3
"Amdt_StdImp|Product Description: AutoCAD Mechanical 2000|Company: Autodesk"
 90
        0
280
     0
281
     0
  0
CLASS
  1
ACMSECTIONSTANDARDANSI
  2
AmdtSectionSymStdANSI
  3
"Amdt_StdImp|Product Description: AutoCAD Mechanical 2000|Company: Autodesk"
 90
        0
280
     0
281
     0
  0
CLASS
  1
ACMCENTERLINESTANDARDANSI
  2
AmdtCenterLineStdANSI
  3
"Amdt_StdImp|Product Description: AutoCAD Mechanical 2000|Company: Autodesk"
 90
        0
280
     0
281
     0
  0
CLASS
  1
ACMNOTESTANDARDANSI
  2
AmdtNoteStdANSI
  3
"Amdt_StdImp|Product Description: AutoCAD Mechanical 2000|Company: Autodesk"
 90
        0
280
     0
281
     0
  0
CLASS
  1
ACAMGHOLECHARTSTDANSI
  2
AcAmgHoleChartStdANSI
  3
ACMSYMBB_MODULE_NAME
 90
        0
280
     0
281
     0
  0
CLASS
  1
ACAMGFILTERDAT
  2
AcAmgFilterDat
  3
"AcadM|Product Description: AutoCAD Mechanical 2000|Company: Autodesk"
 90
        0
280
     0
281
     0
  0
CLASS
  1
AMDTFORMULAUPDATEDISPATCHER
  2
AmdtFormulaUpdateDispatcher
  3
AcMeServices
 90
        0
280
     0
281
     0
  0
CLASS
  1
LAYER_INDEX
  2
AcDbLayerIndex
  3
AutoCAD 2000
 90
        0
280
     0
281
     0
  0
CLASS
  1
IDBUFFER
  2
AcDbIdBuffer
  3
AutoCAD 2000
 90
        0
280
     0
281
     0
  0
CLASS
  1
DICTIONARYVAR
  2
AcDbDictionaryVar
  3
AutoCAD 2000
 90
        0
280
     0
281
     0
  0
CLASS
  1
DIMASSOC
  2
AcDbDimAssoc
  3
"AcDbDimAssoc|Product Desc:     AcDim ARX App For Dimension|Company:          Autodesk, Inc.|WEB Address:      www.autodesk.com"
 90
        0
280
     0
281
     0
  0
CLASS
  1
LONG_TRANSACTION
  2
AcDbLongTransaction
  3
AutoCAD 2000
 90
        0
280
     0
281
     0
  0
CLASS
  1
LWPOLYLINE
  2
AcDbPolyline
  3
AutoCAD 2000
 90
        0
280
     0
281
     1
  0
CLASS
  1
HATCH
  2
AcDbHatch
  3
AutoCAD 2000
 90
        0
280
     0
281
     1
  0
CLASS
  1
XRECORD
  2
AcDbXrecord
  3
AutoCAD 2000
 90
        0
280
     0
281
     0
  0
ENDSEC
  0
SECTION
  2
TABLES
  0
TABLE
  2
VPORT
  5
8
330
0
100
AcDbSymbolTable
 70
     5
  0
VPORT
  5
188F
330
8
100
AcDbSymbolTableRecord
100
AcDbViewportTableRecord
  2
*ACTIVE
 70
     0
 10
0.0
 20
0.0
 11
1.0
 21
1.0
 12
192.6534751881469
 22
132.7110670778682
 13
0.0
 23
0.0
 14
2.5
 24
2.5
 15
10.0
 25
10.0
 16
0.0
 26
0.0
 36
1.0
 17
0.0
 27
0.0
 37
0.0
 40
332.2491269151492
 41
1.716417910447761
 42
50.0
 43
0.0
 44
0.0
 50
0.0
 51
0.0
 71
     0
 72
 10000
 73
     1
 74
     3
 75
     0
 76
     0
 77
     0
 78
     0
  0
ENDTAB
  0
TABLE
  2
LTYPE
  5
5
330
0
100
AcDbSymbolTable
 70
    16
  0
LTYPE
  5
14
330
5
100
AcDbSymbolTableRecord
100
AcDbLinetypeTableRecord
  2
BYBLOCK
 70
     0
  3

 72
    65
 73
     0
 40
0.0
  0
LTYPE
  5
15
330
5
100
AcDbSymbolTableRecord
100
AcDbLinetypeTableRecord
  2
BYLAYER
 70
     0
  3

 72
    65
 73
     0
 40
0.0
  0
LTYPE
  5
16
330
5
100
AcDbSymbolTableRecord
100
AcDbLinetypeTableRecord
  2
CONTINUOUS
 70
     0
  3
Solid line
 72
    65
 73
     0
 40
0.0
  0
LTYPE
  5
50
330
5
100
AcDbSymbolTableRecord
100
AcDbLinetypeTableRecord
  2
AMCONSTR
 70
     0
  3
_______________________
 72
    65
 73
     2
 40
9999.0
 49
9999.0
 74
     0
 49
0.0
 74
     0
  0
LTYPE
  5
55
330
5
100
AcDbSymbolTableRecord
100
AcDbLinetypeTableRecord
  2
AMZIGZAG
 70
     0
  3
/\/-/\/-/\/-/\/-/\/-/\/
 72
    65
 73
     2
 40
11.00009999999999
 49
0.0001
 74
     4
 75
   135
340
54
 46
0.04
 50
0.0
 44
0.0
 45
0.0
 49
-11.0
 74
     0
  0
LTYPE
  5
56
330
5
100
AcDbSymbolTableRecord
100
AcDbLinetypeTableRecord
  2
AM_DIN_F_W050
 70
     0
  3
__ __ __ __ __ __ __ __ __ __ __ __ __ __ __
 72
    65
 73
     2
 40
6.25
 49
4.75
 74
     0
 49
-1.5
 74
     0
  0
LTYPE
  5
57
330
5
100
AcDbSymbolTableRecord
100
AcDbLinetypeTableRecord
  2
AM_DIN_G_W050
 70
     0
  3
____ . ____ . ____ . ____ . ____ . ____ . ____
 72
    65
 73
     4
 40
13.75
 49
9.75
 74
     0
 49
-1.5
 74
     0
 49
1.0
 74
     0
 49
-1.5
 74
     0
  0
LTYPE
  5
58
330
5
100
AcDbSymbolTableRecord
100
AcDbLinetypeTableRecord
  2
AM_DIN_K_W050
 70
     0
  3
_____ . . _____ . . _____ . . ____ .. ____
 72
    65
 73
     6
 40
16.25
 49
9.75
 74
     0
 49
-1.5
 74
     0
 49
1.0
 74
     0
 49
-1.5
 74
     0
 49
1.0
 74
     0
 49
-1.5
 74
     0
  0
LTYPE
  5
59
330
5
100
AcDbSymbolTableRecord
100
AcDbLinetypeTableRecord
  2
AM_DIN_G_W050X2
 70
     0
  3
__ . __ . __ . __ . __ . __
 72
    65
 73
     4
 40
6.875
 49
4.75
 74
     0
 49
-0.875
 74
     0
 49
0.375
 74
     0
 49
-0.875
 74
     0
  0
LTYPE
  5
5A
330
5
100
AcDbSymbolTableRecord
100
AcDbLinetypeTableRecord
  2
AM_DIN_F_W050X2
 70
     0
  3
 _ _ _ _ _ _ _ _ _ _ _ _
 72
    65
 73
     2
 40
3.125
 49
2.25
 74
     0
 49
-0.875
 74
     0
  0
LTYPE
  5
68
330
5
100
AcDbSymbolTableRecord
100
AcDbLinetypeTableRecord
  2
ACDINWELD
 70
     0
  3
_ _ _ _ _
 72
    65
 73
     2
 40
2.0
 49
2.0
 74
     0
 49
-1.0
 74
     0
  0
LTYPE
  5
69
330
5
100
AcDbSymbolTableRecord
100
AcDbLinetypeTableRecord
  2
ACDINTGB
 70
     0
  3
__ . . __ . .
 72
    65
 73
     6
 40
9.0
 49
4.0
 74
     0
 49
-1.0
 74
     0
 49
1.0
 74
     0
 49
-1.0
 74
     0
 49
1.0
 74
     0
 49
-1.0
 74
     0
  0
LTYPE
  5
6A
330
5
100
AcDbSymbolTableRecord
100
AcDbLinetypeTableRecord
  2
ACDINTGL
 70
     0
  3
_ _ _ _ _
 72
    65
 73
     2
 40
3.0
 49
2.0
 74
     0
 49
-1.0
 74
     0
  0
LTYPE
  5
6C
330
5
100
AcDbSymbolTableRecord
100
AcDbLinetypeTableRecord
  2
CENTER
 70
     0
  3
__ . __
 72
    65
 73
     4
 40
7.0
 49
4.0
 74
     0
 49
-1.0
 74
     0
 49
1.0
 74
     0
 49
-1.0
 74
     0
  0
LTYPE
  5
AFA
330
5
100
AcDbSymbolTableRecord
100
AcDbLinetypeTableRecord
  2
PHANTOM2
 70
     0
  3
Phantom (.5x) ___ _ _ ___ _ _ ___ _ _ ___ _ _
 72
    65
 73
     6
 40
1.25
 49
0.625
 74
     0
 49
-0.125
 74
     0
 49
0.125
 74
     0
 49
-0.125
 74
     0
 49
0.125
 74
     0
 49
-0.125
 74
     0
  0
LTYPE
  5
AFB
330
5
100
AcDbSymbolTableRecord
100
AcDbLinetypeTableRecord
  2
ACANSTGB
 70
     0
  3
__ . . __ . .
 72
    65
 73
     6
 40
0.35433070866
 49
0.15748031496
 74
     0
 49
-0.03937007874
 74
     0
 49
0.03937007874
 74
     0
 49
-0.03937007874
 74
     0
 49
0.03937007874
 74
     0
 49
-0.03937007874
 74
     0
  0
LTYPE
  5
AFC
330
5
100
AcDbSymbolTableRecord
100
AcDbLinetypeTableRecord
  2
ACANSTGL
 70
     0
  3
_ _ _ _ _
 72
    65
 73
     2
 40
0.11811023622
 49
0.07874015748
 74
     0
 49
-0.03937007874
 74
     0
  0
LTYPE
  5
AFD
330
5
100
AcDbSymbolTableRecord
100
AcDbLinetypeTableRecord
  2
DASHED
 70
     0
  3
__ __ __ __ __ __ __ __ __ __ __ __ __ __ __ __
 72
    65
 73
     2
 40
19.05
 49
12.7
 74
     0
 49
-6.349999999999998
 74
     0
  0
ENDTAB
  0
TABLE
  2
LAYER
  5
2
330
0
100
AcDbSymbolTable
 70
    11
  0
LAYER
  5
10
330
2
100
AcDbSymbolTableRecord
100
AcDbLayerTableRecord
  2
0
 70
     0
 62
     7
  6
CONTINUOUS
  0
LAYER
  5
263
330
2
100
AcDbSymbolTableRecord
100
AcDbLayerTableRecord
  2
DEFPOINTS
 70
     0
 62
     7
  6
CONTINUOUS
  0
LAYER
  5
AFE
330
2
100
AcDbSymbolTableRecord
100
AcDbLayerTableRecord
  2
1
 70
     0
 62
     4
  6
CONTINUOUS
  0
LAYER
  5
AFF
330
2
100
AcDbSymbolTableRecord
100
AcDbLayerTableRecord
  2
2
 70
     0
 62
     7
  6
CONTINUOUS
  0
LAYER
  5
B00
330
2
100
AcDbSymbolTableRecord
100
AcDbLayerTableRecord
  2
4
 70
     0
 62
     2
  6
CENTER
  0
LAYER
  5
B01
330
2
100
AcDbSymbolTableRecord
100
AcDbLayerTableRecord
  2
6
 70
     0
 62
     5
  6
CONTINUOUS
  0
LAYER
  5
B02
330
2
100
AcDbSymbolTableRecord
100
AcDbLayerTableRecord
  2
SK1
 70
     0
 62
     4
  6
CONTINUOUS
  0
LAYER
  5
B03
330
2
100
AcDbSymbolTableRecord
100
AcDbLayerTableRecord
  2
SK2
 70
     0
 62
     7
  6
CONTINUOUS
  0
LAYER
  5
B04
330
2
100
AcDbSymbolTableRecord
100
AcDbLayerTableRecord
  2
SK3
 70
     0
 62
     1
  6
DASHED
  0
LAYER
  5
B06
330
2
100
AcDbSymbolTableRecord
100
AcDbLayerTableRecord
  2
CUT
 70
     0
 62
     1
  6
CONTINUOUS
  0
LAYER
  5
B07
330
2
100
AcDbSymbolTableRecord
100
AcDbLayerTableRecord
  2
NOCUT
 70
     0
 62
     7
  6
CONTINUOUS
  0
ENDTAB
  0
TABLE
  2
STYLE
  5
3
330
0
100
AcDbSymbolTable
 70
     6
  0
STYLE
  5
11
330
3
100
AcDbSymbolTableRecord
100
AcDbTextStyleTableRecord
  2
STANDARD
 70
     0
 40
0.0
 41
1.0
 50
0.0
 71
     0
 42
2.5
  3
ISOCP.SHX
  4

  0
STYLE
  5
54
330
3
100
AcDbSymbolTableRecord
100
AcDbTextStyleTableRecord
  2

 70
     1
 40
0.0
 41
1.0
 50
0.0
 71
     0
 42
2.5
  3
ltypeshp.shx
  4

  0
STYLE
  5
5B
330
3
100
AcDbSymbolTableRecord
100
AcDbTextStyleTableRecord
  2
ACDINTS
 70
     0
 40
1.0
 41
1.0
 50
0.0
 71
     0
 42
2.5
  3
isocp.shx
  4

  0
STYLE
  5
67
330
3
100
AcDbSymbolTableRecord
100
AcDbTextStyleTableRecord
  2
ACDINGDT
 70
     0
 40
0.0
 41
1.0
 50
0.0
 71
     0
 42
2.5
  3
amgdt.shx
  4

  0
STYLE
  5
B08
330
3
100
AcDbSymbolTableRecord
100
AcDbTextStyleTableRecord
  2
ACANSTS
 70
     0
 40
1.0
 41
1.0
 50
0.0
 71
     0
 42
0.2
  3
romans.shx
  4

  0
STYLE
  5
B09
330
3
100
AcDbSymbolTableRecord
100
AcDbTextStyleTableRecord
  2
ACANSGDT
 70
     0
 40
0.0
 41
1.0
 50
0.0
 71
     0
 42
0.2
  3
amgdtans.shx
  4

  0
ENDTAB
  0
TABLE
  2
VIEW
  5
6
330
0
100
AcDbSymbolTable
 70
     0
  0
ENDTAB
  0
TABLE
  2
UCS
  5
7
330
0
100
AcDbSymbolTable
 70
     0
  0
ENDTAB
  0
TABLE
  2
APPID
  5
9
330
0
100
AcDbSymbolTable
 70
    53
  0
APPID
  5
12
330
9
100
AcDbSymbolTableRecord
100
AcDbRegAppTableRecord
  2
ACAD
 70
     0
  0
APPID
  5
2C
330
9
100
AcDbSymbolTableRecord
100
AcDbRegAppTableRecord
  2
MCAD_NO_VIS
 70
     0
  0
APPID
  5
2D
330
9
100
AcDbSymbolTableRecord
100
AcDbRegAppTableRecord
  2
ACAD_TEMP_GRAPHIC
 70
     0
  0
APPID
  5
3E
330
9
100
AcDbSymbolTableRecord
100
AcDbRegAppTableRecord
  2
ACATTRIBSERVICES
 70
     0
  0
APPID
  5
29A
330
9
100
AcDbSymbolTableRecord
100
AcDbRegAppTableRecord
  2
GENIUS_GENDIMSH_14
 70
     0
  0
APPID
  5
551
330
9
100
AcDbSymbolTableRecord
100
AcDbRegAppTableRecord
  2
GENIUS12
 70
     0
  0
APPID
  5
552
330
9
100
AcDbSymbolTableRecord
100
AcDbRegAppTableRecord
  2
GENIUS_GENOENT_13
 70
     0
  0
APPID
  5
553
330
9
100
AcDbSymbolTableRecord
100
AcDbRegAppTableRecord
  2
GENIUS_GENODEF_13
 70
     0
  0
APPID
  5
554
330
9
100
AcDbSymbolTableRecord
100
AcDbRegAppTableRecord
  2
GENIUS_GENOBJ-N-RSBK_13
 70
     0
  0
APPID
  5
555
330
9
100
AcDbSymbolTableRecord
100
AcDbRegAppTableRecord
  2
GENIUS_GENOBJ-N-DIM12_13
 70
     0
  0
APPID
  5
556
330
9
100
AcDbSymbolTableRecord
100
AcDbRegAppTableRecord
  2
GENIUS_GENSCALE_13
 70
     0
  0
APPID
  5
557
330
9
100
AcDbSymbolTableRecord
100
AcDbRegAppTableRecord
  2
GENIUS_GENCFG_13
 70
     0
  0
APPID
  5
558
330
9
100
AcDbSymbolTableRecord
100
AcDbRegAppTableRecord
  2
GENIUS_GENCFG0_13
 70
     0
  0
APPID
  5
559
330
9
100
AcDbSymbolTableRecord
100
AcDbRegAppTableRecord
  2
GENIUS_GENCFG1_13
 70
     0
  0
APPID
  5
55A
330
9
100
AcDbSymbolTableRecord
100
AcDbRegAppTableRecord
  2
GENIUS_GENCFG2_13
 70
     0
  0
APPID
  5
55B
330
9
100
AcDbSymbolTableRecord
100
AcDbRegAppTableRecord
  2
GENIUS_GENCFG3_13
 70
     0
  0
APPID
  5
55C
330
9
100
AcDbSymbolTableRecord
100
AcDbRegAppTableRecord
  2
GENIUS_GENCFG4_13
 70
     0
  0
APPID
  5
55D
330
9
100
AcDbSymbolTableRecord
100
AcDbRegAppTableRecord
  2
GENIUS_GEVCFG0_13
 70
     0
  0
APPID
  5
55E
330
9
100
AcDbSymbolTableRecord
100
AcDbRegAppTableRecord
  2
GENIUS_GENOBJ-F-SUF_13
 70
     0
  0
APPID
  5
55F
330
9
100
AcDbSymbolTableRecord
100
AcDbRegAppTableRecord
  2
GENIUS_GEFCFG0_13
 70
     0
  0
APPID
  5
560
330
9
100
AcDbSymbolTableRecord
100
AcDbRegAppTableRecord
  2
GEV_VCCNULL_SWITCH_OFF
 70
     0
  0
APPID
  5
561
330
9
100
AcDbSymbolTableRecord
100
AcDbRegAppTableRecord
  2
GENIUS_GENDTOL_13
 70
     0
  0
APPID
  5
562
330
9
100
AcDbSymbolTableRecord
100
AcDbRegAppTableRecord
  2
GENIUS_GENDIM_13
 70
     0
  0
APPID
  5
563
330
9
100
AcDbSymbolTableRecord
100
AcDbRegAppTableRecord
  2
GENIUS_GE3DTOL_13
 70
     0
  0
APPID
  5
564
330
9
100
AcDbSymbolTableRecord
100
AcDbRegAppTableRecord
  2
AD_DRAW
 70
     0
  0
APPID
  5
565
330
9
100
AcDbSymbolTableRecord
100
AcDbRegAppTableRecord
  2
ASURF_PCURVE_APPNAME
 70
     0
  0
APPID
  5
566
330
9
100
AcDbSymbolTableRecord
100
AcDbRegAppTableRecord
  2
AMG_3D2D_5_0
 70
     0
  0
APPID
  5
567
330
9
100
AcDbSymbolTableRecord
100
AcDbRegAppTableRecord
  2
DESIGNERASSEMBLIES
 70
     0
  0
APPID
  5
568
330
9
100
AcDbSymbolTableRecord
100
AcDbRegAppTableRecord
  2
ACADM_DIM_EDIT
 70
     0
  0
APPID
  5
569
330
9
100
AcDbSymbolTableRecord
100
AcDbRegAppTableRecord
  2
AMDT_DM_ADJ
 70
     0
  0
APPID
  5
56A
330
9
100
AcDbSymbolTableRecord
100
AcDbRegAppTableRecord
  2
GENIUS_GENSCREG_15
 70
     0
  0
APPID
  5
56B
330
9
100
AcDbSymbolTableRecord
100
AcDbRegAppTableRecord
  2
GENIUS_GENOBJ-N-SDF_13
 70
     0
  0
APPID
  5
56C
330
9
100
AcDbSymbolTableRecord
100
AcDbRegAppTableRecord
  2
GENIUS_GENOBJ-N-FIL_13
 70
     0
  0
APPID
  5
56D
330
9
100
AcDbSymbolTableRecord
100
AcDbRegAppTableRecord
  2
GENIUS_GENHINW_13
 70
     0
  0
APPID
  5
56E
330
9
100
AcDbSymbolTableRecord
100
AcDbRegAppTableRecord
  2
GENIUS_GENOBJ-F-TOLL_13
 70
     0
  0
APPID
  5
56F
330
9
100
AcDbSymbolTableRecord
100
AcDbRegAppTableRecord
  2
GENIUS_GENOREF_13
 70
     0
  0
APPID
  5
570
330
9
100
AcDbSymbolTableRecord
100
AcDbRegAppTableRecord
  2
GENIUS_GENOLIS_13
 70
     0
  0
APPID
  5
571
330
9
100
AcDbSymbolTableRecord
100
AcDbRegAppTableRecord
  2
GENIUS_GEFTOLC_13
 70
     0
  0
APPID
  5
572
330
9
100
AcDbSymbolTableRecord
100
AcDbRegAppTableRecord
  2
GENIUS_GENOBJ-F-TOL_13
 70
     0
  0
APPID
  5
573
330
9
100
AcDbSymbolTableRecord
100
AcDbRegAppTableRecord
  2
GENIUS_GENOBJ-N-RSSYM_13
 70
     0
  0
APPID
  5
574
330
9
100
AcDbSymbolTableRecord
100
AcDbRegAppTableRecord
  2
GENIUS_GENSYMENT_13
 70
     0
  0
APPID
  5
575
330
9
100
AcDbSymbolTableRecord
100
AcDbRegAppTableRecord
  2
GENIUS_GENSCSYM_13
 70
     0
  0
APPID
  5
B11
330
9
100
AcDbSymbolTableRecord
100
AcDbRegAppTableRecord
  2
GENIUS_GENBLLY_14
 70
     0
  0
APPID
  5
B12
330
9
100
AcDbSymbolTableRecord
100
AcDbRegAppTableRecord
  2
GENIUS_GENTRA_14
 70
     0
  0
APPID
  5
B13
330
9
100
AcDbSymbolTableRecord
100
AcDbRegAppTableRecord
  2
GENIUS_GENOBJ-N-TIT_13
 70
     0
  0
APPID
  5
B14
330
9
100
AcDbSymbolTableRecord
100
AcDbRegAppTableRecord
  2
GENIUS_GENTITLE_13
 70
     0
  0
APPID
  5
B15
330
9
100
AcDbSymbolTableRecord
100
AcDbRegAppTableRecord
  2
ACADIGES
 70
     0
  0
APPID
  5
B16
330
9
100
AcDbSymbolTableRecord
100
AcDbRegAppTableRecord
  2
GENIUS_GENOBJ-N-HTC_13
 70
     0
  0
APPID
  5
B17
330
9
100
AcDbSymbolTableRecord
100
AcDbRegAppTableRecord
  2
GENIUS_GENHATCH_13
 70
     0
  0
APPID
  5
B18
330
9
100
AcDbSymbolTableRecord
100
AcDbRegAppTableRecord
  2
GENIUS_GENOBJ-N-CRS_13
 70
     0
  0
APPID
  5
B19
330
9
100
AcDbSymbolTableRecord
100
AcDbRegAppTableRecord
  2
GENIUS_GENFIL_13
 70
     0
  0
APPID
  5
B1A
330
9
100
AcDbSymbolTableRecord
100
AcDbRegAppTableRecord
  2
GENIUS_GENOBJ-N-CHA_13
 70
     0
  0
APPID
  5
B1B
330
9
100
AcDbSymbolTableRecord
100
AcDbRegAppTableRecord
  2
GENIUS_GENOBJ-N-CEN_13
 70
     0
  0
ENDTAB
  0
TABLE
  2
DIMSTYLE
  5
A
330
0
100
AcDbSymbolTable
 70
    14
  0
DIMSTYLE
105
6F
102
{ACAD_REACTORS
330
657
330
1675
330
16F1
330
172C
330
1769
102
}
330
A
100
AcDbSymbolTableRecord
100
AcDbDimStyleTableRecord
  2
AM_DIN
 70
     0
  3

  4
"
  5

  6

  7

 40
1.0
 41
2.5
 42
0.0
 43
10.0
 44
1.0
 45
0.0
 46
0.0
 47
0.1
 48
0.1
140
3.5
141
0.0
142
0.0
143
0.0393701
144
1.0
145
0.0
146
0.71
147
1.5
 71
     0
 72
     0
 73
     0
 74
     0
 75
     0
 76
     0
 77
     1
 78
     8
170
     0
171
     2
172
     1
173
     0
174
     0
175
     0
176
   256
177
   256
178
     2
270
     2
271
     2
272
     2
273
     2
274
     2
340
11
275
     0
280
     0
281
     0
282
     0
283
     0
284
     8
285
     0
286
     0
287
     3
288
     0
  0
DIMSTYLE
105
70
330
A
100
AcDbSymbolTableRecord
100
AcDbDimStyleTableRecord
  2
AM_DIN$3
 70
     0
  3

  4
"
  5

  6

  7

 40
1.0
 41
3.5
 42
0.0
 43
10.0
 44
1.0
 45
0.0
 46
0.0
 47
0.1
 48
0.1
140
3.5
141
0.0
142
0.0
143
0.0393701
144
1.0
145
0.0
146
0.71
147
1.5
 71
     0
 72
     0
 73
     0
 74
     1
 75
     0
 76
     0
 77
     1
 78
     8
170
     0
171
     2
172
     0
173
     0
174
     0
175
     0
176
   256
177
   256
178
     2
270
     2
271
     2
272
     2
273
     2
274
     2
340
11
275
     0
280
     0
281
     0
282
     0
283
     0
284
     8
285
     0
286
     0
287
     0
288
     1
  0
DIMSTYLE
105
71
330
A
100
AcDbSymbolTableRecord
100
AcDbDimStyleTableRecord
  2
AM_DIN$4
 70
     0
  3

  4
"
  5

  6

  7

 40
1.0
 41
3.5
 42
0.0
 43
10.0
 44
1.0
 45
0.0
 46
0.0
 47
0.1
 48
0.1
140
3.5
141
0.0
142
0.0
143
0.0393701
144
1.0
145
0.0
146
0.71
147
1.5
 71
     0
 72
     0
 73
     0
 74
     1
 75
     0
 76
     0
 77
     1
 78
     8
170
     0
171
     2
172
     0
173
     0
174
     0
175
     0
176
   256
177
   256
178
     2
270
     2
271
     2
272
     2
273
     2
274
     2
340
11
275
     0
280
     0
281
     0
282
     0
283
     0
284
     8
285
     0
286
     0
287
     0
288
     1
  0
DIMSTYLE
105
72
330
A
100
AcDbSymbolTableRecord
100
AcDbDimStyleTableRecord
  2
AM_DIN$6
 70
     0
  3

  4
"
  5

  6

  7

 40
1.0
 41
3.5
 42
0.0
 43
0.0
 44
1.0
 45
0.0
 46
0.0
 47
0.1
 48
0.1
140
3.5
141
0.0
142
0.0
143
0.0393701
144
1.0
145
0.0
146
0.71
147
1.5
 71
     0
 72
     0
 73
     0
 74
     0
 75
     0
 76
     0
 77
     0
 78
     8
170
     0
171
     2
172
     1
173
     0
174
     0
175
     0
176
   256
177
   256
178
     2
270
     2
271
     2
272
     2
273
     2
274
     2
340
11
275
     0
280
     0
281
     0
282
     0
283
     0
284
     8
285
     0
286
     0
287
     3
288
     0
  0
DIMSTYLE
105
73
330
A
100
AcDbSymbolTableRecord
100
AcDbDimStyleTableRecord
  2
AM_DIN$7
 70
     0
  3

  4
"
  5

  6

  7

 40
1.0
 41
3.5
 42
0.0
 43
10.0
 44
1.0
 45
0.0
 46
0.0
 47
0.1
 48
0.1
140
3.5
141
0.0
142
0.0
143
0.0393701
144
1.0
145
0.0
146
0.71
147
1.5
 71
     0
 72
     0
 73
     0
 74
     0
 75
     0
 76
     0
 77
     1
 78
     8
170
     0
171
     2
172
     1
173
     0
174
     0
175
     0
176
   256
177
   256
178
     2
270
     2
271
     2
272
     2
273
     2
274
     2
340
11
275
     0
280
     0
281
     0
282
     0
283
     0
284
     8
285
     0
286
     0
287
     3
288
     0
  0
DIMSTYLE
105
74
330
A
100
AcDbSymbolTableRecord
100
AcDbDimStyleTableRecord
  2
AM_DIN$SF
 70
     0
  3

  4
"
  5

  6

  7

 40
1.0
 41
2.5
 42
1.0
 43
10.0
 44
1.0
 45
0.0
 46
0.0
 47
0.1
 48
0.1
140
3.5
141
0.0
142
0.0
143
0.0393701
144
1.0
145
0.0
146
0.71
147
1.5
 71
     0
 72
     0
 73
     0
 74
     0
 75
     1
 76
     1
 77
     1
 78
     8
170
     0
171
     2
172
     1
173
     0
174
     0
175
     0
176
   256
177
   256
178
     2
270
     2
271
     2
272
     3
273
     2
274
     4
340
11
275
     0
280
     0
281
     0
282
     0
283
     0
284
     8
285
     0
286
     0
287
     3
288
     0
  0
DIMSTYLE
105
79
330
A
100
AcDbSymbolTableRecord
100
AcDbDimStyleTableRecord
  2
AM_DIN$SH
 70
     0
  3

  4
"
  5

  6
GENAXEH
  7

 40
1.0
 41
2.5
 42
1.0
 43
10.0
 44
1.0
 45
0.0
 46
0.0
 47
0.1
 48
0.1
140
3.5
141
0.0
142
0.0
143
0.0393701
144
2.0
145
0.0
146
0.71
147
1.5
 71
     0
 72
     0
 73
     0
 74
     0
 75
     1
 76
     1
 77
     1
 78
     8
170
     0
171
     2
172
     1
173
     1
174
     0
175
     0
176
   256
177
   256
178
     2
270
     2
271
     2
272
     3
273
     2
274
     4
340
11
275
     0
280
     0
281
     0
282
     0
283
     0
284
     8
285
     0
286
     0
287
     3
288
     0
  0
DIMSTYLE
105
B0A
330
A
100
AcDbSymbolTableRecord
100
AcDbDimStyleTableRecord
  2
STANDARD
 70
     0
  3

  4

  5

  6

  7

 40
1.0
 41
0.18
 42
0.0625
 43
0.38
 44
0.18
 45
0.0
 46
0.0
 47
0.0
 48
0.0
140
0.18
141
0.09
142
0.0
143
25.4
144
1.0
145
0.0
146
1.0
147
0.09
 71
     0
 72
     0
 73
     1
 74
     1
 75
     0
 76
     0
 77
     0
 78
     0
170
     0
171
     2
172
     0
173
     0
174
     0
175
     0
176
     0
177
     0
178
     0
270
     2
271
     2
272
     2
273
     2
274
     2
340
11
275
     0
280
     0
281
     0
282
     0
283
     1
284
     8
285
     8
286
     8
287
     5
288
     0
  0
DIMSTYLE
105
B0B
330
A
100
AcDbSymbolTableRecord
100
AcDbDimStyleTableRecord
  2
AM_ANSI
 70
     0
  3

  4
mm
  5

  6

  7

 40
1.0
 41
0.1
 42
0.0
 43
0.5
 44
0.1
 45
0.0
 46
0.0
 47
0.1
 48
0.1
140
0.12
141
0.0
142
0.0
143
25.4
144
1.0
145
0.0
146
0.71
147
0.06
 71
     0
 72
     0
 73
     1
 74
     1
 75
     0
 76
     0
 77
     0
 78
     7
170
     0
171
     2
172
     0
173
     0
174
     0
175
     0
176
   256
177
   256
178
     2
270
     2
271
     2
272
     2
273
     2
274
     2
340
11
275
     0
280
     0
281
     0
282
     0
283
     1
284
     8
285
     8
286
     8
287
     5
288
     0
  0
DIMSTYLE
105
B0C
330
A
100
AcDbSymbolTableRecord
100
AcDbDimStyleTableRecord
  2
AM_ANSI$3
 70
     0
  3

  4
mm
  5

  6

  7

 40
1.0
 41
0.1
 42
0.0
 43
0.5
 44
0.1
 45
0.0
 46
0.0
 47
0.1
 48
0.1
140
0.12
141
0.0
142
0.0
143
25.4
144
1.0
145
0.0
146
0.71
147
0.06
 71
     0
 72
     0
 73
     1
 74
     1
 75
     0
 76
     0
 77
     0
 78
     7
170
     0
171
     2
172
     0
173
     0
174
     0
175
     0
176
   256
177
   256
178
     2
270
     2
271
     2
272
     2
273
     2
274
     2
340
11
275
     0
280
     0
281
     0
282
     0
283
     1
284
     8
285
     8
286
     8
287
     5
288
     0
  0
DIMSTYLE
105
B0D
330
A
100
AcDbSymbolTableRecord
100
AcDbDimStyleTableRecord
  2
AM_ANSI$4
 70
     0
  3

  4
mm
  5

  6

  7

 40
1.0
 41
0.1
 42
0.0
 43
0.5
 44
0.1
 45
0.0
 46
0.0
 47
0.1
 48
0.1
140
0.12
141
0.0
142
0.0
143
25.4
144
1.0
145
0.0
146
0.71
147
0.06
 71
     0
 72
     0
 73
     1
 74
     1
 75
     0
 76
     0
 77
     0
 78
     7
170
     0
171
     2
172
     0
173
     0
174
     0
175
     0
176
   256
177
   256
178
     2
270
     2
271
     2
272
     2
273
     2
274
     2
340
11
275
     0
280
     0
281
     0
282
     0
283
     1
284
     8
285
     8
286
     8
287
     5
288
     0
  0
DIMSTYLE
105
B0E
330
A
100
AcDbSymbolTableRecord
100
AcDbDimStyleTableRecord
  2
AM_ANSI$7
 70
     0
  3

  4
mm
  5

  6

  7

 40
1.0
 41
0.1
 42
0.0
 43
0.5
 44
0.1
 45
0.0
 46
0.0
 47
0.1
 48
0.1
140
0.24
141
0.0
142
0.0
143
25.4
144
1.0
145
0.0
146
0.71
147
0.06
 71
     0
 72
     0
 73
     1
 74
     1
 75
     0
 76
     0
 77
     0
 78
     7
170
     0
171
     2
172
     0
173
     0
174
     0
175
     0
176
   256
177
   256
178
     2
270
     2
271
     2
272
     2
273
     2
274
     2
340
11
275
     0
280
     0
281
     0
282
     0
283
     1
284
     8
285
     8
286
     8
287
     5
288
     0
  0
DIMSTYLE
105
B0F
330
A
100
AcDbSymbolTableRecord
100
AcDbDimStyleTableRecord
  2
AM_ANSI$SF
 70
     0
  3

  4
mm
  5

  6

  7

 40
1.0
 41
0.1
 42
0.05
 43
0.5
 44
0.1
 45
0.0
 46
0.0
 47
0.1
 48
0.1
140
0.12
141
0.0
142
0.0
143
25.4
144
1.0
145
0.0
146
0.71
147
0.06
 71
     0
 72
     0
 73
     1
 74
     1
 75
     1
 76
     1
 77
     0
 78
     7
170
     0
171
     2
172
     0
173
     0
174
     0
175
     0
176
   256
177
   256
178
     2
270
     2
271
     2
272
     2
273
     2
274
     2
340
11
275
     0
280
     0
281
     0
282
     0
283
     1
284
     8
285
     8
286
     8
287
     5
288
     0
  0
DIMSTYLE
105
B10
330
A
100
AcDbSymbolTableRecord
100
AcDbDimStyleTableRecord
  2
AM_ANSI$SH
 70
     0
  3

  4
mm
  5

  6

  7

 40
1.0
 41
0.1
 42
0.05
 43
0.5
 44
0.1
 45
0.0
 46
0.0
 47
0.1
 48
0.1
140
0.12
141
0.0
142
0.0
143
25.4
144
1.0
145
0.0
146
0.71
147
0.06
 71
     0
 72
     0
 73
     1
 74
     1
 75
     1
 76
     1
 77
     0
 78
     7
170
     0
171
     2
172
     0
173
     1
174
     0
175
     0
176
   256
177
   256
178
     2
270
     2
271
     2
272
     2
273
     2
274
     2
340
11
275
     0
280
     0
281
     0
282
     0
283
     1
284
     8
285
     8
286
     8
287
     5
288
     0
  0
ENDTAB
  0
TABLE
  2
BLOCK_RECORD
  5
1
330
0
100
AcDbSymbolTable
 70
     7
  0
BLOCK_RECORD
  5
1F
102
{ACAD_XDICTIONARY
360
1F1
102
}
330
1
100
AcDbSymbolTableRecord
100
AcDbBlockTableRecord
  2
*MODEL_SPACE
  0
BLOCK_RECORD
  5
1B
102
{ACAD_XDICTIONARY
360
18B1
102
}
330
1
100
AcDbSymbolTableRecord
100
AcDbBlockTableRecord
  2
*PAPER_SPACE
  0
BLOCK_RECORD
  5
75
330
1
100
AcDbSymbolTableRecord
100
AcDbBlockTableRecord
  2
GENAXEH
  0
BLOCK_RECORD
  5
712
330
1
100
AcDbSymbolTableRecord
100
AcDbBlockTableRecord
  2
*D2
  0
BLOCK_RECORD
  5
167A
330
1
100
AcDbSymbolTableRecord
100
AcDbBlockTableRecord
  2
*D3
  0
BLOCK_RECORD
  5
16F2
330
1
100
AcDbSymbolTableRecord
100
AcDbBlockTableRecord
  2
*D4
  0
BLOCK_RECORD
  5
172D
330
1
100
AcDbSymbolTableRecord
100
AcDbBlockTableRecord
  2
*D5
  0
BLOCK_RECORD
  5
176A
330
1
100
AcDbSymbolTableRecord
100
AcDbBlockTableRecord
  2
*D6
  0
ENDTAB
  0
ENDSEC
  0
SECTION
  2
BLOCKS
  0
BLOCK
  5
20
330
1F
100
AcDbEntity
  8
0
100
AcDbBlockBegin
  2
*MODEL_SPACE
 70
     0
 10
0.0
 20
0.0
 30
0.0
  3
*MODEL_SPACE
  1

  0
ENDBLK
  5
21
330
1F
100
AcDbEntity
  8
0
100
AcDbBlockEnd
  0
BLOCK
  5
1C
330
1B
100
AcDbEntity
 67
     1
  8
0
100
AcDbBlockBegin
  2
*PAPER_SPACE
 70
     0
 10
0.0
 20
0.0
 30
0.0
  3
*PAPER_SPACE
  1

  0
ENDBLK
  5
1D
330
1B
100
AcDbEntity
 67
     1
  8
0
100
AcDbBlockEnd
  0
BLOCK
  5
77
330
75
100
AcDbEntity
  8
0
100
AcDbBlockBegin
  2
GENAXEH
 70
     0
 10
0.0
 20
0.0
 30
0.0
  3
GENAXEH
  1

  0
LINE
  5
76
330
75
100
AcDbEntity
  8
0
100
AcDbLine
 10
-1.0
 20
0.0
 30
0.0
 11
1.0
 21
0.0
 31
0.0
  0
ENDBLK
  5
78
330
75
100
AcDbEntity
  8
0
100
AcDbBlockEnd
  0
BLOCK
  5
71C
330
712
100
AcDbEntity
  8
0
100
AcDbBlockBegin
  2
*D2
 70
     1
 10
0.0
 20
0.0
 30
0.0
  3
*D2
  1

  0
LINE
  5
1018
330
712
100
AcDbEntity
  8
SK2
100
AcDbLine
 10
0.0
 20
-8.0
 30
0.0
 11
-17.77266089567604
 21
-7.999999999999995
 31
0.0
  0
LINE
  5
1019
330
712
100
AcDbEntity
  8
SK2
100
AcDbLine
 10
0.0
 20
8.0
 30
0.0
 11
-17.77266089567603
 21
8.000000000000005
 31
0.0
  0
LINE
  5
101A
330
712
100
AcDbEntity
  8
SK2
100
AcDbLine
 10
-16.77266089567604
 20
-5.499999999999995
 30
0.0
 11
-16.77266089567604
 21
5.500000000000005
 31
0.0
  0
SOLID
  5
101B
330
712
100
AcDbEntity
  8
SK2
100
AcDbTrace
 10
-17.1893275623427
 20
-5.499999999999995
 30
0.0
 11
-16.35599422900937
 21
-5.499999999999995
 31
0.0
 12
-16.77266089567604
 22
-7.999999999999995
 32
0.0
 13
-16.77266089567604
 23
-7.999999999999995
 33
0.0
  0
SOLID
  5
101C
330
712
100
AcDbEntity
  8
SK2
100
AcDbTrace
 10
-17.1893275623427
 20
5.500000000000005
 30
0.0
 11
-16.35599422900937
 21
5.500000000000005
 31
0.0
 12
-16.77266089567603
 22
8.000000000000005
 32
0.0
 13
-16.77266089567603
 23
8.000000000000005
 33
0.0
  0
MTEXT
  5
101D
330
712
100
AcDbEntity
  8
SK2
 62
     2
100
AcDbMText
 10
-20.02266089567604
 20
0.0000000000000028
 30
0.0
 40
3.5
 41
0.0
 71
     5
 72
     1
  1
%%c16
 11
0.0000000000000001
 21
1.0
 31
0.0
1001
ACAD
1000
MTEXTBEGIN
1070
    73
1070
     1
1070
    44
1040
1.0
1070
    74
1070
     0
1000
MTEXTEND
  0
POINT
  5
101E
330
712
100
AcDbEntity
  8
DEFPOINTS
 62
     0
100
AcDbPoint
 10
0.0
 20
-8.0
 30
0.0
  0
POINT
  5
101F
330
712
100
AcDbEntity
  8
DEFPOINTS
 62
     0
100
AcDbPoint
 10
0.0
 20
8.0
 30
0.0
  0
POINT
  5
1020
330
712
100
AcDbEntity
  8
DEFPOINTS
 62
     0
100
AcDbPoint
 10
-16.77266089567603
 20
8.000000000000005
 30
0.0
  0
ENDBLK
  5
71D
330
712
100
AcDbEntity
  8
0
100
AcDbBlockEnd
  0
BLOCK
  5
1684
330
167A
100
AcDbEntity
  8
0
100
AcDbBlockBegin
  2
*D3
 70
     1
 10
0.0
 20
0.0
 30
0.0
  3
*D3
  1

  0
LINE
  5
174F
330
167A
100
AcDbEntity
  8
2
100
AcDbLine
 10
54.99999999999983
 20
19.99999999999987
 30
0.0
 11
54.99999999999983
 21
61.00000000000002
 31
0.0
  0
LINE
  5
1750
330
167A
100
AcDbEntity
  8
2
100
AcDbLine
 10
15.99999999999982
 20
19.92331624644857
 30
0.0
 11
15.99999999999983
 21
61.00000000000002
 31
0.0
  0
LINE
  5
1751
330
167A
100
AcDbEntity
  8
2
100
AcDbLine
 10
52.49999999999983
 20
60.00000000000002
 30
0.0
 11
18.49999999999982
 21
60.00000000000002
 31
0.0
  0
SOLID
  5
1752
330
167A
100
AcDbEntity
  8
2
100
AcDbTrace
 10
52.49999999999983
 20
60.41666666666668
 30
0.0
 11
52.49999999999983
 21
59.58333333333335
 31
0.0
 12
54.99999999999983
 22
60.00000000000002
 32
0.0
 13
54.99999999999983
 23
60.00000000000002
 33
0.0
  0
SOLID
  5
1753
330
167A
100
AcDbEntity
  8
2
100
AcDbTrace
 10
18.49999999999982
 20
60.41666666666668
 30
0.0
 11
18.49999999999982
 21
59.58333333333335
 31
0.0
 12
15.99999999999983
 22
60.00000000000002
 32
0.0
 13
15.99999999999983
 23
60.00000000000002
 33
0.0
  0
MTEXT
  5
1754
330
167A
100
AcDbEntity
  8
2
 62
     2
100
AcDbMText
 10
35.49999999999982
 20
63.25000000000002
 30
0.0
 40
3.5
 41
0.0
 71
     5
 72
     1
  1
39
1001
ACAD
1000
MTEXTBEGIN
1070
    73
1070
     1
1070
    44
1040
1.0
1070
    74
1070
     0
1000
MTEXTEND
  0
POINT
  5
1755
330
167A
100
AcDbEntity
  8
DEFPOINTS
 62
     0
100
AcDbPoint
 10
54.99999999999983
 20
19.99999999999987
 30
0.0
  0
POINT
  5
1756
330
167A
100
AcDbEntity
  8
DEFPOINTS
 62
     0
100
AcDbPoint
 10
15.99999999999982
 20
19.92331624644857
 30
0.0
  0
POINT
  5
1757
330
167A
100
AcDbEntity
  8
DEFPOINTS
 62
     0
100
AcDbPoint
 10
15.99999999999983
 20
60.00000000000002
 30
0.0
  0
ENDBLK
  5
1685
330
167A
100
AcDbEntity
  8
0
100
AcDbBlockEnd
  0
BLOCK
  5
16FC
330
16F2
100
AcDbEntity
  8
0
100
AcDbBlockBegin
  2
*D4
 70
     1
 10
0.0
 20
0.0
 30
0.0
  3
*D4
  1

  0
LINE
  5
17B2
330
16F2
100
AcDbEntity
  8
2
100
AcDbLine
 10
54.99999999999983
 20
19.99999999999987
 30
0.0
 11
80.52116250297286
 21
19.99999999999986
 31
0.0
  0
LINE
  5
17B3
330
16F2
100
AcDbEntity
  8
2
100
AcDbLine
 10
54.99999999999983
 20
-20.00000000000011
 30
0.0
 11
80.52116250297286
 21
-20.00000000000011
 31
0.0
  0
LINE
  5
17B4
330
16F2
100
AcDbEntity
  8
2
100
AcDbLine
 10
79.52116250297286
 20
17.49999999999986
 30
0.0
 11
79.52116250297286
 21
-17.50000000000012
 31
0.0
  0
SOLID
  5
17B5
330
16F2
100
AcDbEntity
  8
2
100
AcDbTrace
 10
79.10449583630619
 20
17.49999999999986
 30
0.0
 11
79.93782916963953
 21
17.49999999999986
 31
0.0
 12
79.52116250297286
 22
19.99999999999986
 32
0.0
 13
79.52116250297286
 23
19.99999999999986
 33
0.0
  0
SOLID
  5
17B6
330
16F2
100
AcDbEntity
  8
2
100
AcDbTrace
 10
79.10449583630619
 20
-17.50000000000012
 30
0.0
 11
79.93782916963953
 21
-17.50000000000012
 31
0.0
 12
79.52116250297286
 22
-20.00000000000011
 32
0.0
 13
79.52116250297286
 23
-20.00000000000011
 33
0.0
  0
MTEXT
  5
17B7
330
16F2
100
AcDbEntity
  8
2
 62
     2
100
AcDbMText
 10
76.27116250297286
 20
-0.0000000000001146
 30
0.0
 40
3.5
 41
0.0
 71
     5
 72
     1
  1
%%c40
 11
0.0000000000000001
 21
1.0
 31
0.0
1001
ACAD
1000
MTEXTBEGIN
1070
    73
1070
     1
1070
    44
1040
1.0
1070
    74
1070
     0
1000
MTEXTEND
  0
POINT
  5
17B8
330
16F2
100
AcDbEntity
  8
DEFPOINTS
 62
     0
100
AcDbPoint
 10
54.99999999999983
 20
19.99999999999987
 30
0.0
  0
POINT
  5
17B9
330
16F2
100
AcDbEntity
  8
DEFPOINTS
 62
     0
100
AcDbPoint
 10
54.99999999999983
 20
-20.00000000000011
 30
0.0
  0
POINT
  5
17BA
330
16F2
100
AcDbEntity
  8
DEFPOINTS
 62
     0
100
AcDbPoint
 10
79.52116250297286
 20
-20.00000000000011
 30
0.0
  0
ENDBLK
  5
16FD
330
16F2
100
AcDbEntity
  8
0
100
AcDbBlockEnd
  0
BLOCK
  5
1737
330
172D
100
AcDbEntity
  8
0
100
AcDbBlockBegin
  2
*D5
 70
     1
 10
0.0
 20
0.0
 30
0.0
  3
*D5
  1

  0
LINE
  5
17A2
330
172D
100
AcDbEntity
  8
2
100
AcDbLine
 10
54.99999999999983
 20
19.99999999999987
 30
0.0
 11
54.99999999999983
 21
76.0
 31
0.0
  0
LINE
  5
17A3
330
172D
100
AcDbEntity
  8
2
100
AcDbLine
 10
-0.0000000000001321
 20
16.00000000000016
 30
0.0
 11
-0.0000000000001284
 21
76.0
 31
0.0
  0
LINE
  5
17A4
330
172D
100
AcDbEntity
  8
2
100
AcDbLine
 10
52.49999999999983
 20
75.0
 30
0.0
 11
2.499999999999871
 21
75.0
 31
0.0
  0
SOLID
  5
17A5
330
172D
100
AcDbEntity
  8
2
100
AcDbTrace
 10
52.49999999999983
 20
75.41666666666667
 30
0.0
 11
52.49999999999983
 21
74.58333333333333
 31
0.0
 12
54.99999999999983
 22
75.0
 32
0.0
 13
54.99999999999983
 23
75.0
 33
0.0
  0
SOLID
  5
17A6
330
172D
100
AcDbEntity
  8
2
100
AcDbTrace
 10
2.499999999999871
 20
75.41666666666667
 30
0.0
 11
2.499999999999871
 21
74.58333333333333
 31
0.0
 12
-0.0000000000001285
 22
75.0
 32
0.0
 13
-0.0000000000001285
 23
75.0
 33
0.0
  0
MTEXT
  5
17A7
330
172D
100
AcDbEntity
  8
2
 62
     2
100
AcDbMText
 10
27.49999999999985
 20
78.25
 30
0.0
 40
3.5
 41
0.0
 71
     5
 72
     1
  1
55
1001
ACAD
1000
MTEXTBEGIN
1070
    73
1070
     1
1070
    44
1040
1.0
1070
    74
1070
     0
1000
MTEXTEND
  0
POINT
  5
17A8
330
172D
100
AcDbEntity
  8
DEFPOINTS
 62
     0
100
AcDbPoint
 10
54.99999999999983
 20
19.99999999999987
 30
0.0
  0
POINT
  5
17A9
330
172D
100
AcDbEntity
  8
DEFPOINTS
 62
     0
100
AcDbPoint
 10
-0.0000000000001321
 20
16.00000000000016
 30
0.0
  0
POINT
  5
17AA
330
172D
100
AcDbEntity
  8
DEFPOINTS
 62
     0
100
AcDbPoint
 10
-0.0000000000001285
 20
75.0
 30
0.0
  0
ENDBLK
  5
1738
330
172D
100
AcDbEntity
  8
0
100
AcDbBlockEnd
  0
BLOCK
  5
1774
330
176A
100
AcDbEntity
  8
0
100
AcDbBlockBegin
  2
*D6
 70
     1
 10
0.0
 20
0.0
 30
0.0
  3
*D6
  1

  0
LINE
  5
1792
330
176A
100
AcDbEntity
  8
SK2
100
AcDbLine
 10
1.999999999999887
 20
18.00000000000018
 30
0.0
 11
-30.69914432113023
 21
18.00000000000019
 31
0.0
  0
LINE
  5
1793
330
176A
100
AcDbEntity
  8
SK2
100
AcDbLine
 10
1.999999999999675
 20
-17.9999999999998
 30
0.0
 11
-30.69914432113023
 21
-17.99999999999979
 31
0.0
  0
LINE
  5
1794
330
176A
100
AcDbEntity
  8
SK2
100
AcDbLine
 10
-29.69914432113023
 20
15.50000000000019
 30
0.0
 11
-29.69914432113023
 21
-15.49999999999979
 31
0.0
  0
SOLID
  5
1795
330
176A
100
AcDbEntity
  8
SK2
100
AcDbTrace
 10
-30.11581098779689
 20
15.50000000000019
 30
0.0
 11
-29.28247765446356
 21
15.50000000000019
 31
0.0
 12
-29.69914432113023
 22
18.00000000000019
 32
0.0
 13
-29.69914432113023
 23
18.00000000000019
 33
0.0
  0
SOLID
  5
1796
330
176A
100
AcDbEntity
  8
SK2
100
AcDbTrace
 10
-30.1158109877969
 20
-15.49999999999979
 30
0.0
 11
-29.28247765446357
 21
-15.49999999999979
 31
0.0
 12
-29.69914432113023
 22
-17.99999999999979
 32
0.0
 13
-29.69914432113023
 23
-17.99999999999979
 33
0.0
  0
MTEXT
  5
1797
330
176A
100
AcDbEntity
  8
SK2
 62
     2
100
AcDbMText
 10
-32.94914432113023
 20
0.0000000000001941
 30
0.0
 40
3.5
 41
0.0
 71
     5
 72
     1
  1
%%c36
 11
0.0000000000000001
 21
1.0
 31
0.0
1001
ACAD
1000
MTEXTBEGIN
1070
    73
1070
     1
1070
    44
1040
1.0
1070
    74
1070
     0
1000
MTEXTEND
  0
POINT
  5
1798
330
176A
100
AcDbEntity
  8
DEFPOINTS
 62
     0
100
AcDbPoint
 10
1.999999999999887
 20
18.00000000000018
 30
0.0
  0
POINT
  5
1799
330
176A
100
AcDbEntity
  8
DEFPOINTS
 62
     0
100
AcDbPoint
 10
1.999999999999675
 20
-17.9999999999998
 30
0.0
  0
POINT
  5
179A
330
176A
100
AcDbEntity
  8
DEFPOINTS
 62
     0
100
AcDbPoint
 10
-29.69914432113023
 20
-17.99999999999979
 30
0.0
  0
ENDBLK
  5
1775
330
176A
100
AcDbEntity
  8
0
100
AcDbBlockEnd
  0
ENDSEC
  0
SECTION
  2
ENTITIES
  0
LINE
  5
648
330
1F
100
AcDbEntity
  8
1
100
AcDbLine
 10
-0.0000000000002958
 20
-15.99999999999975
 30
0.0
 11
0.0
 21
-4.199999999999988
 31
0.0
  0
LINE
  5
649
330
1F
100
AcDbEntity
  8
SK1
100
AcDbLine
 10
0.0
 20
-4.199999999999988
 30
0.0
 11
5.599999999999909
 21
-4.199999999999988
 31
0.0
  0
LINE
  5
64A
330
1F
100
AcDbEntity
  8
SK1
100
AcDbLine
 10
5.599999999999909
 20
-4.199999999999988
 30
0.0
 11
5.599999999999909
 21
4.199999999999988
 31
0.0
  0
LINE
  5
64B
330
1F
100
AcDbEntity
  8
SK1
100
AcDbLine
 10
5.599999999999909
 20
4.199999999999988
 30
0.0
 11
0.0
 21
4.199999999999988
 31
0.0
  0
LINE
  5
64C
330
1F
100
AcDbEntity
  8
1
100
AcDbLine
 10
0.0
 20
4.199999999999988
 30
0.0
 11
-0.0000000000001321
 21
16.0000000000002
 31
0.0
  0
LINE
  5
64E
330
1F
100
AcDbEntity
  8
SK3
 48
0.5
100
AcDbLine
 10
0.0
 20
-8.0
 30
0.0
 11
18.0
 21
-7.999999999999943
 31
0.0
  0
LINE
  5
64F
330
1F
100
AcDbEntity
  8
SK3
 48
0.5
100
AcDbLine
 10
18.0
 20
-7.999999999999943
 30
0.0
 11
18.0
 21
7.999999999999943
 31
0.0
  0
LINE
  5
650
330
1F
100
AcDbEntity
  8
SK3
 48
0.5
100
AcDbLine
 10
18.0
 20
7.999999999999943
 30
0.0
 11
0.0
 21
8.000000000000056
 31
0.0
  0
LINE
  5
651
330
1F
100
AcDbEntity
  8
SK3
 48
0.5
100
AcDbLine
 10
18.0
 20
-4.249999999999943
 30
0.0
 11
22.0
 21
-4.249999999999943
 31
0.0
  0
LINE
  5
652
330
1F
100
AcDbEntity
  8
SK3
 48
0.5
100
AcDbLine
 10
18.0
 20
4.250000000000056
 30
0.0
 11
22.0
 21
4.250000000000056
 31
0.0
  0
LINE
  5
653
330
1F
100
AcDbEntity
  8
SK3
 48
0.5
100
AcDbLine
 10
53.99679480008359
 20
-6.749999999999955
 30
0.0
 11
22.0
 21
-6.750000000000056
 31
0.0
  0
LINE
  5
654
330
1F
100
AcDbEntity
  8
SK3
 48
0.5
100
AcDbLine
 10
22.0
 20
-6.750000000000056
 30
0.0
 11
22.0
 21
6.750000000000056
 31
0.0
  0
LINE
  5
655
330
1F
100
AcDbEntity
  8
SK3
 48
0.5
100
AcDbLine
 10
22.0
 20
6.750000000000056
 30
0.0
 11
53.99679480008359
 21
6.750000000000056
 31
0.0
  0
DIMENSION
  5
657
330
1F
100
AcDbEntity
  8
SK2
100
AcDbDimension
  2
*D2
 10
-16.77266089567603
 20
8.000000000000005
 30
0.0
 11
-20.02266089567604
 21
0.0000000000000028
 31
0.0
 70
    32
  1
%%c<>
  3
AM_DIN
100
AcDbAlignedDimension
 13
0.0
 23
-8.0
 33
0.0
 14
0.0
 24
8.0
 34
0.0
 50
270.0
100
AcDbRotatedDimension
  0
LINE
  5
E0D
330
1F
100
AcDbEntity
  8
SK1
100
AcDbLine
 10
-1.909269750190902
 20
1.909269750190902
 30
0.0
 11
1.909269750190902
 21
-1.909269750190902
 31
0.0
  0
LINE
  5
E0E
330
1F
100
AcDbEntity
  8
SK1
100
AcDbLine
 10
-1.909269750190902
 20
-1.909269750190902
 30
0.0
 11
1.909269750190902
 21
1.909269750190902
 31
0.0
  0
LINE
  5
E0F
330
1F
100
AcDbEntity
  8
4
100
AcDbLine
 10
56.76223726759604
 20
-0.0000000000001342
 30
0.0
 11
0.0
 21
0.000000000000199
 31
0.0
  0
LINE
  5
1638
330
1F
100
AcDbEntity
  8
CUT
100
AcDbLine
 10
54.62073063028282
 20
19.996440271215
 30
0.0
 11
15.99999999999982
 21
19.92331624644857
 31
0.0
  0
LINE
  5
1639
330
1F
100
AcDbEntity
  8
1
100
AcDbLine
 10
15.99999999999982
 20
19.92331624644857
 30
0.0
 11
54.62073063028276
 21
19.996440271215
 31
0.0
  0
LINE
  5
163A
330
1F
100
AcDbEntity
  8
CUT
100
AcDbLine
 10
53.67588417603321
 20
13.00742237421485
 30
0.0
 11
15.05515354575015
 21
12.93429834944841
 31
0.0
  0
LINE
  5
163B
330
1F
100
AcDbEntity
  8
1
100
AcDbLine
 10
53.67588417603315
 20
13.00742237421485
 30
0.0
 11
15.05515354575015
 21
12.93429834944842
 31
0.0
  0
ARC
  5
163C
330
1F
100
AcDbEntity
  8
CUT
100
AcDbCircle
 10
12.72129000802652
 20
17.02789843669428
 30
0.0
 40
2.885298691586131
100
AcDbArc
 50
316.9208451054377
 51
348.2828177636374
  0
ARC
  5
163D
330
1F
100
AcDbEntity
  8
1
100
AcDbCircle
 10
12.72129000802652
 20
17.02789843669428
 30
0.0
 40
2.885298691586131
100
AcDbArc
 50
316.920845105437
 51
348.2828177636374
  0
LINE
  5
163E
330
1F
100
AcDbEntity
  8
CUT
100
AcDbLine
 10
14.72112746937926
 20
14.79727060385464
 30
0.0
 11
14.67303829780945
 21
13.34716582627739
 31
0.0
  0
LINE
  5
163F
330
1F
100
AcDbEntity
  8
1
100
AcDbLine
 10
14.72112746937926
 20
14.79727060385464
 30
0.0
 11
14.67303829780945
 21
13.34716582627739
 31
0.0
  0
ARC
  5
1640
330
1F
100
AcDbEntity
  8
CUT
100
AcDbCircle
 10
15.0728185281236
 20
13.33390809457201
 30
0.0
 40
0.4
100
AcDbArc
 50
178.1006219509058
 51
267.4688544486065
1001
GENIUS_GENODEF_13
1002
{
1000
HIER
1070
     0
1002
}
1002
{
1000
MANEDIT
1070
     0
1002
}
1002
{
1000
NOSEL
1070
     0
1002
}
1002
{
1000
BEHIND
1070
     0
1002
}
1002
{
1000
OTHER
1070
     0
1002
}
1002
{
1000
REACTOR
1002
}
1001
GENIUS_GENOBJ-N-FIL_13
1002
{
1000
OWNER
1000
GEN
1002
}
  0
ARC
  5
1641
330
1F
100
AcDbEntity
  8
1
100
AcDbCircle
 10
15.0728185281236
 20
13.33390809457201
 30
0.0
 40
0.4
100
AcDbArc
 50
178.100621950905
 51
267.4688544486065
1001
GENIUS_GENODEF_13
1002
{
1000
HIER
1070
     0
1002
}
1002
{
1000
MANEDIT
1070
     0
1002
}
1002
{
1000
NOSEL
1070
     0
1002
}
1002
{
1000
BEHIND
1070
     0
1002
}
1002
{
1000
OTHER
1070
     0
1002
}
1002
{
1000
REACTOR
1002
}
1001
GENIUS_GENOBJ-N-FIL_13
1002
{
1000
OWNER
1000
GEN
1002
}
  0
ARC
  5
1642
330
1F
100
AcDbEntity
  8
CUT
100
AcDbCircle
 10
15.12090769969342
 20
14.78401287214923
 30
0.0
 40
0.4
100
AcDbArc
 50
136.9208451054348
 51
178.1006219509017
1001
GENIUS_GENOBJ-N-FIL_13
1002
{
1000
OWNER
1000
GEN
1002
}
1001
GENIUS_GENODEF_13
1002
{
1000
HIER
1070
     0
1002
}
1002
{
1000
MANEDIT
1070
     0
1002
}
1002
{
1000
NOSEL
1070
     0
1002
}
1002
{
1000
BEHIND
1070
     0
1002
}
1002
{
1000
OTHER
1070
     0
1002
}
1002
{
1000
REACTOR
1002
}
  0
ARC
  5
1643
330
1F
100
AcDbEntity
  8
1
100
AcDbCircle
 10
15.12090769969342
 20
14.78401287214923
 30
0.0
 40
0.4
100
AcDbArc
 50
136.9208451054348
 51
178.1006219509017
1001
GENIUS_GENOBJ-N-FIL_13
1002
{
1000
OWNER
1000
GEN
1002
}
1001
GENIUS_GENODEF_13
1002
{
1000
HIER
1070
     0
1002
}
1002
{
1000
MANEDIT
1070
     0
1002
}
1002
{
1000
NOSEL
1070
     0
1002
}
1002
{
1000
BEHIND
1070
     0
1002
}
1002
{
1000
OTHER
1070
     0
1002
}
1002
{
1000
REACTOR
1002
}
  0
CIRCLE
  5
1644
330
1F
100
AcDbEntity
  8
1
100
AcDbCircle
 10
20.94749793991775
 20
16.46536931033175
 30
0.0
 40
1.899999999999982
  0
ARC
  5
1645
330
1F
100
AcDbEntity
  8
CUT
100
AcDbCircle
 10
16.02305454964704
 20
19.52398118945937
 30
0.0
 40
0.4
100
AcDbArc
 50
93.30415208041449
 51
178.844803619443
1001
GENIUS_GENOBJ-N-FIL_13
1002
{
1000
OWNER
1000
GEN
1002
}
1001
GENIUS_GENODEF_13
1002
{
1000
HIER
1070
     0
1002
}
1002
{
1000
MANEDIT
1070
     0
1002
}
1002
{
1000
NOSEL
1070
     0
1002
}
1002
{
1000
BEHIND
1070
     0
1002
}
1002
{
1000
OTHER
1070
     0
1002
}
1002
{
1000
REACTOR
1002
}
  0
ARC
  5
1646
330
1F
100
AcDbEntity
  8
1
100
AcDbCircle
 10
16.02305454964704
 20
19.52398118945937
 30
0.0
 40
0.4
100
AcDbArc
 50
93.30415208041449
 51
178.844803619443
1001
GENIUS_GENOBJ-N-FIL_13
1002
{
1000
OWNER
1000
GEN
1002
}
1001
GENIUS_GENODEF_13
1002
{
1000
HIER
1070
     0
1002
}
1002
{
1000
MANEDIT
1070
     0
1002
}
1002
{
1000
NOSEL
1070
     0
1002
}
1002
{
1000
BEHIND
1070
     0
1002
}
1002
{
1000
OTHER
1070
     0
1002
}
1002
{
1000
REACTOR
1002
}
  0
ARC
  5
1647
330
1F
100
AcDbEntity
  8
CUT
100
AcDbCircle
 10
14.70164709431725
 20
16.63665386604178
 30
0.0
 40
0.8669640644000232
100
AcDbArc
 50
347.0216949428901
 51
4.37515692166156
  0
ARC
  5
1648
330
1F
100
AcDbEntity
  8
1
100
AcDbCircle
 10
14.70164709431725
 20
16.63665386604178
 30
0.0
 40
0.8669640644000232
100
AcDbArc
 50
347.0216949428901
 51
4.375156921660748
  0
LINE
  5
1649
330
1F
100
AcDbEntity
  8
CUT
100
AcDbLine
 10
15.56608475900179
 20
16.70279169814814
 30
0.0
 11
15.62313584798323
 21
19.53204543521265
 31
0.0
  0
LINE
  5
164A
330
1F
100
AcDbEntity
  8
1
100
AcDbLine
 10
15.56608475900179
 20
16.70279169814814
 30
0.0
 11
15.62313584798323
 21
19.53204543521265
 31
0.0
  0
CIRCLE
  5
164B
330
1F
100
AcDbEntity
  8
1
100
AcDbCircle
 10
39.83794208801583
 20
16.46536931033179
 30
0.0
 40
1.899999999999982
  0
LINE
  5
164C
330
1F
100
AcDbEntity
  8
1
100
AcDbLine
 10
26.32891112083376
 20
16.2279469225153
 30
0.0
 11
26.27186003185238
 21
13.39869318545079
 31
0.0
  0
ARC
  5
164D
330
1F
100
AcDbEntity
  8
1
100
AcDbCircle
 10
25.87194133018857
 20
13.40675743120404
 30
0.0
 40
0.4
100
AcDbArc
 50
273.3041520804145
 51
358.8448036194431
1001
GENIUS_GENOBJ-N-FIL_13
1002
{
1000
OWNER
1000
GEN
1002
}
1001
GENIUS_GENODEF_13
1002
{
1000
HIER
1070
     0
1002
}
1002
{
1000
MANEDIT
1070
     0
1002
}
1002
{
1000
NOSEL
1070
     0
1002
}
1002
{
1000
BEHIND
1070
     0
1002
}
1002
{
1000
OTHER
1070
     0
1002
}
1002
{
1000
REACTOR
1002
}
  0
ARC
  5
164E
330
1F
100
AcDbEntity
  8
1
100
AcDbCircle
 10
26.77408818014214
 20
18.14672574851418
 30
0.0
 40
0.4
100
AcDbArc
 50
316.9208451054348
 51
358.1006219509017
1001
GENIUS_GENOBJ-N-FIL_13
1002
{
1000
OWNER
1000
GEN
1002
}
1001
GENIUS_GENODEF_13
1002
{
1000
HIER
1070
     0
1002
}
1002
{
1000
MANEDIT
1070
     0
1002
}
1002
{
1000
NOSEL
1070
     0
1002
}
1002
{
1000
BEHIND
1070
     0
1002
}
1002
{
1000
OTHER
1070
     0
1002
}
1002
{
1000
REACTOR
1002
}
  0
ARC
  5
164F
330
1F
100
AcDbEntity
  8
1
100
AcDbCircle
 10
26.82217735171195
 20
19.59683052609141
 30
0.0
 40
0.4
100
AcDbArc
 50
358.100621950905
 51
62.43931323487178
1001
GENIUS_GENODEF_13
1002
{
1000
HIER
1070
     0
1002
}
1002
{
1000
MANEDIT
1070
     0
1002
}
1002
{
1000
NOSEL
1070
     0
1002
}
1002
{
1000
BEHIND
1070
     0
1002
}
1002
{
1000
OTHER
1070
     0
1002
}
1002
{
1000
REACTOR
1002
}
1001
GENIUS_GENOBJ-N-FIL_13
1002
{
1000
OWNER
1000
GEN
1002
}
  0
LINE
  5
1650
330
1F
100
AcDbEntity
  8
1
100
AcDbLine
 10
27.17386841045629
 20
18.13346801680883
 30
0.0
 11
27.22195758202611
 21
19.58357279438605
 31
0.0
  0
ARC
  5
1651
330
1F
100
AcDbEntity
  8
1
100
AcDbCircle
 10
27.19334878551831
 20
16.29408475462163
 30
0.0
 40
0.8669640644000232
100
AcDbArc
 50
167.0216949428901
 51
184.3751569216607
  0
ARC
  5
1652
330
1F
100
AcDbEntity
  8
1
100
AcDbCircle
 10
29.17370587180903
 20
15.90284018396913
 30
0.0
 40
2.885298691586131
100
AcDbArc
 50
136.9208451054371
 51
168.2828177636374
  0
CIRCLE
  5
1653
330
1F
100
AcDbEntity
  8
1
100
AcDbCircle
 10
30.94749793991775
 20
16.46536931033175
 30
0.0
 40
1.899999999999982
  0
LINE
  5
1654
330
1F
100
AcDbEntity
  8
1
100
AcDbLine
 10
36.32891112083376
 20
16.2279469225153
 30
0.0
 11
36.27186003185238
 21
13.39869318545079
 31
0.0
  0
ARC
  5
1655
330
1F
100
AcDbEntity
  8
1
100
AcDbCircle
 10
35.87194133018857
 20
13.40675743120404
 30
0.0
 40
0.4
100
AcDbArc
 50
273.3041520804145
 51
358.8448036194431
1001
GENIUS_GENOBJ-N-FIL_13
1002
{
1000
OWNER
1000
GEN
1002
}
1001
GENIUS_GENODEF_13
1002
{
1000
HIER
1070
     0
1002
}
1002
{
1000
MANEDIT
1070
     0
1002
}
1002
{
1000
NOSEL
1070
     0
1002
}
1002
{
1000
BEHIND
1070
     0
1002
}
1002
{
1000
OTHER
1070
     0
1002
}
1002
{
1000
REACTOR
1002
}
  0
ARC
  5
1656
330
1F
100
AcDbEntity
  8
1
100
AcDbCircle
 10
36.82217735171195
 20
19.59683052609141
 30
0.0
 40
0.4
100
AcDbArc
 50
358.100621950905
 51
62.43931323487178
1001
GENIUS_GENODEF_13
1002
{
1000
HIER
1070
     0
1002
}
1002
{
1000
MANEDIT
1070
     0
1002
}
1002
{
1000
NOSEL
1070
     0
1002
}
1002
{
1000
BEHIND
1070
     0
1002
}
1002
{
1000
OTHER
1070
     0
1002
}
1002
{
1000
REACTOR
1002
}
1001
GENIUS_GENOBJ-N-FIL_13
1002
{
1000
OWNER
1000
GEN
1002
}
  0
ARC
  5
1657
330
1F
100
AcDbEntity
  8
1
100
AcDbCircle
 10
36.77408818014214
 20
18.14672574851418
 30
0.0
 40
0.4
100
AcDbArc
 50
316.9208451054348
 51
358.1006219509017
1001
GENIUS_GENOBJ-N-FIL_13
1002
{
1000
OWNER
1000
GEN
1002
}
1001
GENIUS_GENODEF_13
1002
{
1000
HIER
1070
     0
1002
}
1002
{
1000
MANEDIT
1070
     0
1002
}
1002
{
1000
NOSEL
1070
     0
1002
}
1002
{
1000
BEHIND
1070
     0
1002
}
1002
{
1000
OTHER
1070
     0
1002
}
1002
{
1000
REACTOR
1002
}
  0
LINE
  5
1658
330
1F
100
AcDbEntity
  8
1
100
AcDbLine
 10
37.17386841045629
 20
18.13346801680883
 30
0.0
 11
37.22195758202611
 21
19.58357279438605
 31
0.0
  0
ARC
  5
1659
330
1F
100
AcDbEntity
  8
1
100
AcDbCircle
 10
37.19334878551831
 20
16.29408475462163
 30
0.0
 40
0.8669640644000232
100
AcDbArc
 50
167.0216949428901
 51
184.3751569216607
  0
ARC
  5
165A
330
1F
100
AcDbEntity
  8
1
100
AcDbCircle
 10
39.17370587180903
 20
15.90284018396913
 30
0.0
 40
2.885298691586131
100
AcDbArc
 50
136.9208451054371
 51
168.2828177636374
  0
LINE
  5
165B
330
1F
100
AcDbEntity
  8
SK1
100
AcDbLine
 10
54.99999999999983
 20
20.4637693698487
 30
0.0
 11
54.99999999999983
 21
19.53623063015105
 31
0.0
  0
CIRCLE
  5
165C
330
1F
100
AcDbEntity
  8
SK1
100
AcDbCircle
 10
54.99999999999983
 20
19.99999999999987
 30
0.0
 40
0.4637693698488208
  0
CIRCLE
  5
165D
330
1F
100
AcDbEntity
  8
1
100
AcDbCircle
 10
48.72838623611511
 20
16.46536931033175
 30
0.0
 40
1.899999999999982
  0
LINE
  5
165E
330
1F
100
AcDbEntity
  8
1
100
AcDbLine
 10
45.21935526893185
 20
16.22794692251534
 30
0.0
 11
45.16230417995046
 21
13.39869318545083
 31
0.0
  0
ARC
  5
165F
330
1F
100
AcDbEntity
  8
1
100
AcDbCircle
 10
44.76238547828666
 20
13.40675743120408
 30
0.0
 40
0.4
100
AcDbArc
 50
273.3041520804145
 51
358.8448036194431
1001
GENIUS_GENOBJ-N-FIL_13
1002
{
1000
OWNER
1000
GEN
1002
}
1001
GENIUS_GENODEF_13
1002
{
1000
HIER
1070
     0
1002
}
1002
{
1000
MANEDIT
1070
     0
1002
}
1002
{
1000
NOSEL
1070
     0
1002
}
1002
{
1000
BEHIND
1070
     0
1002
}
1002
{
1000
OTHER
1070
     0
1002
}
1002
{
1000
REACTOR
1002
}
  0
ARC
  5
1660
330
1F
100
AcDbEntity
  8
1
100
AcDbCircle
 10
45.71262149981004
 20
19.59683052609145
 30
0.0
 40
0.4
100
AcDbArc
 50
358.100621950905
 51
70.55745732947598
1001
GENIUS_GENODEF_13
1002
{
1000
HIER
1070
     0
1002
}
1002
{
1000
MANEDIT
1070
     0
1002
}
1002
{
1000
NOSEL
1070
     0
1002
}
1002
{
1000
BEHIND
1070
     0
1002
}
1002
{
1000
OTHER
1070
     0
1002
}
1002
{
1000
REACTOR
1002
}
1001
GENIUS_GENOBJ-N-FIL_13
1002
{
1000
OWNER
1000
GEN
1002
}
  0
ARC
  5
1661
330
1F
100
AcDbEntity
  8
1
100
AcDbCircle
 10
45.66453232824023
 20
18.14672574851423
 30
0.0
 40
0.4
100
AcDbArc
 50
316.9208451054348
 51
358.1006219509017
1001
GENIUS_GENOBJ-N-FIL_13
1002
{
1000
OWNER
1000
GEN
1002
}
1001
GENIUS_GENODEF_13
1002
{
1000
HIER
1070
     0
1002
}
1002
{
1000
MANEDIT
1070
     0
1002
}
1002
{
1000
NOSEL
1070
     0
1002
}
1002
{
1000
BEHIND
1070
     0
1002
}
1002
{
1000
OTHER
1070
     0
1002
}
1002
{
1000
REACTOR
1002
}
  0
LINE
  5
1662
330
1F
100
AcDbEntity
  8
1
100
AcDbLine
 10
46.06431255855437
 20
18.13346801680887
 30
0.0
 11
46.11240173012419
 21
19.5835727943861
 31
0.0
  0
ARC
  5
1663
330
1F
100
AcDbEntity
  8
1
100
AcDbCircle
 10
46.08379293361639
 20
16.29408475462168
 30
0.0
 40
0.8669640644000232
100
AcDbArc
 50
167.0216949428901
 51
184.3751569216607
  0
ARC
  5
1664
330
1F
100
AcDbEntity
  8
1
100
AcDbCircle
 10
48.06415001990711
 20
15.90284018396917
 30
0.0
 40
2.885298691586131
100
AcDbArc
 50
136.9208451054371
 51
168.2828177636374
  0
LINE
  5
1665
330
1F
100
AcDbEntity
  8
1
100
AcDbLine
 10
54.10979941703113
 20
16.2279469225153
 30
0.0
 11
54.05274832804974
 21
13.39869318545079
 31
0.0
  0
LINE
  5
1666
330
1F
100
AcDbEntity
  8
CUT
100
AcDbLine
 10
54.10979941703118
 20
16.2279469225153
 30
0.0
 11
54.0527483280498
 21
13.39869318545079
 31
0.0
  0
ARC
  5
1667
330
1F
100
AcDbEntity
  8
1
100
AcDbCircle
 10
53.65282962638594
 20
13.40675743120404
 30
0.0
 40
0.4
100
AcDbArc
 50
273.3041520804145
 51
358.8448036194431
1001
GENIUS_GENOBJ-N-FIL_13
1002
{
1000
OWNER
1000
GEN
1002
}
1001
GENIUS_GENODEF_13
1002
{
1000
HIER
1070
     0
1002
}
1002
{
1000
MANEDIT
1070
     0
1002
}
1002
{
1000
NOSEL
1070
     0
1002
}
1002
{
1000
BEHIND
1070
     0
1002
}
1002
{
1000
OTHER
1070
     0
1002
}
1002
{
1000
REACTOR
1002
}
  0
ARC
  5
1668
330
1F
100
AcDbEntity
  8
CUT
100
AcDbCircle
 10
53.65282962638599
 20
13.40675743120404
 30
0.0
 40
0.4
100
AcDbArc
 50
273.3041520804145
 51
358.8448036194439
1001
GENIUS_GENOBJ-N-FIL_13
1002
{
1000
OWNER
1000
GEN
1002
}
1001
GENIUS_GENODEF_13
1002
{
1000
HIER
1070
     0
1002
}
1002
{
1000
MANEDIT
1070
     0
1002
}
1002
{
1000
NOSEL
1070
     0
1002
}
1002
{
1000
BEHIND
1070
     0
1002
}
1002
{
1000
OTHER
1070
     0
1002
}
1002
{
1000
REACTOR
1002
}
  0
ARC
  5
1669
330
1F
100
AcDbEntity
  8
1
100
AcDbCircle
 10
54.60306564790932
 20
19.59683052609141
 30
0.0
 40
0.4
100
AcDbArc
 50
358.100621950905
 51
87.46885444860659
1001
GENIUS_GENODEF_13
1002
{
1000
HIER
1070
     0
1002
}
1002
{
1000
MANEDIT
1070
     0
1002
}
1002
{
1000
NOSEL
1070
     0
1002
}
1002
{
1000
BEHIND
1070
     0
1002
}
1002
{
1000
OTHER
1070
     0
1002
}
1002
{
1000
REACTOR
1002
}
1001
GENIUS_GENOBJ-N-FIL_13
1002
{
1000
OWNER
1000
GEN
1002
}
  0
ARC
  5
166A
330
1F
100
AcDbEntity
  8
CUT
100
AcDbCircle
 10
54.60306564790937
 20
19.59683052609141
 30
0.0
 40
0.4
100
AcDbArc
 50
358.1006219509058
 51
87.46885444860659
1001
GENIUS_GENODEF_13
1002
{
1000
HIER
1070
     0
1002
}
1002
{
1000
MANEDIT
1070
     0
1002
}
1002
{
1000
NOSEL
1070
     0
1002
}
1002
{
1000
BEHIND
1070
     0
1002
}
1002
{
1000
OTHER
1070
     0
1002
}
1002
{
1000
REACTOR
1002
}
1001
GENIUS_GENOBJ-N-FIL_13
1002
{
1000
OWNER
1000
GEN
1002
}
  0
LINE
  5
166B
330
1F
100
AcDbEntity
  8
SK1
100
AcDbLine
 10
54.53623063015101
 20
19.99999999999987
 30
0.0
 11
55.46376936984865
 21
19.99999999999987
 31
0.0
  0
LINE
  5
166C
330
1F
100
AcDbEntity
  8
1
100
AcDbLine
 10
54.95475670665365
 20
18.13346801680883
 30
0.0
 11
55.00284587822346
 21
19.58357279438605
 31
0.0
  0
ARC
  5
166D
330
1F
100
AcDbEntity
  8
1
100
AcDbCircle
 10
54.55497647633951
 20
18.14672574851418
 30
0.0
 40
0.4
100
AcDbArc
 50
316.9208451054348
 51
358.1006219509017
1001
GENIUS_GENOBJ-N-FIL_13
1002
{
1000
OWNER
1000
GEN
1002
}
1001
GENIUS_GENODEF_13
1002
{
1000
HIER
1070
     0
1002
}
1002
{
1000
MANEDIT
1070
     0
1002
}
1002
{
1000
NOSEL
1070
     0
1002
}
1002
{
1000
BEHIND
1070
     0
1002
}
1002
{
1000
OTHER
1070
     0
1002
}
1002
{
1000
REACTOR
1002
}
  0
ARC
  5
166E
330
1F
100
AcDbEntity
  8
CUT
100
AcDbCircle
 10
54.55497647633956
 20
18.14672574851418
 30
0.0
 40
0.4
100
AcDbArc
 50
316.9208451054348
 51
358.1006219509017
1001
GENIUS_GENOBJ-N-FIL_13
1002
{
1000
OWNER
1000
GEN
1002
}
1001
GENIUS_GENODEF_13
1002
{
1000
HIER
1070
     0
1002
}
1002
{
1000
MANEDIT
1070
     0
1002
}
1002
{
1000
NOSEL
1070
     0
1002
}
1002
{
1000
BEHIND
1070
     0
1002
}
1002
{
1000
OTHER
1070
     0
1002
}
1002
{
1000
REACTOR
1002
}
  0
LINE
  5
166F
330
1F
100
AcDbEntity
  8
CUT
100
AcDbLine
 10
54.95475670665371
 20
18.13346801680883
 30
0.0
 11
55.00284587822353
 21
19.58357279438605
 31
0.0
  0
ARC
  5
1670
330
1F
100
AcDbEntity
  8
1
100
AcDbCircle
 10
54.97423708171567
 20
16.29408475462163
 30
0.0
 40
0.8669640644000232
100
AcDbArc
 50
167.0216949428901
 51
184.3751569216607
  0
ARC
  5
1671
330
1F
100
AcDbEntity
  8
CUT
100
AcDbCircle
 10
54.97423708171573
 20
16.29408475462163
 30
0.0
 40
0.8669640644000232
100
AcDbArc
 50
167.0216949428909
 51
184.3751569216615
  0
ARC
  5
1672
330
1F
100
AcDbEntity
  8
1
100
AcDbCircle
 10
56.95459416800639
 20
15.90284018396913
 30
0.0
 40
2.885298691586131
100
AcDbArc
 50
136.9208451054371
 51
168.2828177636374
  0
ARC
  5
1673
330
1F
100
AcDbEntity
  8
CUT
100
AcDbCircle
 10
56.95459416800645
 20
15.90284018396913
 30
0.0
 40
2.885298691586131
100
AcDbArc
 50
136.9208451054377
 51
168.2828177636374
  0
TEXT
  5
1674
330
1F
100
AcDbEntity
  8
6
100
AcDbText
 10
57.97295678203875
 20
23.88058823657752
 30
0.0
 40
2.5
  1
AOMT110304R
100
AcDbText
  0
DIMENSION
  5
1675
330
1F
100
AcDbEntity
  8
2
100
AcDbDimension
  2
*D3
 10
15.99999999999983
 20
60.00000000000002
 30
0.0
 11
35.49999999999982
 21
63.25000000000002
 31
0.0
 70
    32
  3
AM_DIN
100
AcDbAlignedDimension
 13
54.99999999999983
 23
19.99999999999987
 33
0.0
 14
15.99999999999982
 24
19.92331624644857
 34
0.0
100
AcDbRotatedDimension
  0
LINE
  5
1676
330
1F
100
AcDbEntity
  8
1
100
AcDbLine
 10
15.61787465075684
 20
19.27113434341674
 30
0.0
 11
12.08210096138985
 21
19.27113434341674
 31
0.0
  0
LINE
  5
1677
330
1F
100
AcDbEntity
  8
1
100
AcDbLine
 10
53.99679480008359
 20
13.20258113658796
 30
0.0
 11
53.99679480008359
 21
-19.27113434341696
 31
0.0
  0
LINE
  5
1678
330
1F
100
AcDbEntity
  8
4
100
AcDbLine
 10
17.83398241782743
 20
6.5942469794775
 30
0.0
 11
36.40944106381985
 21
12.75521567710684
 31
0.0
  0
LINE
  5
1679
330
1F
100
AcDbEntity
  8
4
100
AcDbLine
 10
15.3554428095502
 20
6.631449223276145
 30
0.0
 11
23.74498199796562
 21
11.90526895218166
 31
0.0
  0
LINE
  5
168F
330
1F
100
AcDbEntity
  8
1
100
AcDbLine
 10
15.99999999999971
 20
-19.9233162464488
 30
0.0
 11
54.62073063028276
 21
-19.99644027121524
 31
0.0
  0
LINE
  5
1691
330
1F
100
AcDbEntity
  8
1
100
AcDbLine
 10
15.61787465075667
 20
-19.27113434341689
 30
0.0
 11
15.62313584798312
 21
-19.53204543521289
 31
0.0
  0
ARC
  5
1692
330
1F
100
AcDbEntity
  8
1
100
AcDbCircle
 10
16.02305454964692
 20
-19.52398118945962
 30
0.0
 40
0.4
100
AcDbArc
 50
181.1551963805569
 51
266.6958479195855
1001
GENIUS_GENOBJ-N-FIL_13
1002
{
1000
OWNER
1000
GEN
1002
}
1001
GENIUS_GENODEF_13
1002
{
1000
HIER
1070
     0
1002
}
1002
{
1000
MANEDIT
1070
     0
1002
}
1002
{
1000
NOSEL
1070
     0
1002
}
1002
{
1000
BEHIND
1070
     0
1002
}
1002
{
1000
OTHER
1070
     0
1002
}
1002
{
1000
REACTOR
1002
}
  0
LINE
  5
1693
330
1F
100
AcDbEntity
  8
1
100
AcDbLine
 10
54.95475670665365
 20
-18.13346801680907
 30
0.0
 11
55.00284587822346
 21
-19.58357279438629
 31
0.0
  0
ARC
  5
1694
330
1F
100
AcDbEntity
  8
1
100
AcDbCircle
 10
54.60306564790932
 20
-19.59683052609165
 30
0.0
 40
0.4
100
AcDbArc
 50
272.5311455513934
 51
1.899378049094971
1001
GENIUS_GENODEF_13
1002
{
1000
HIER
1070
     0
1002
}
1002
{
1000
MANEDIT
1070
     0
1002
}
1002
{
1000
NOSEL
1070
     0
1002
}
1002
{
1000
BEHIND
1070
     0
1002
}
1002
{
1000
OTHER
1070
     0
1002
}
1002
{
1000
REACTOR
1002
}
1001
GENIUS_GENOBJ-N-FIL_13
1002
{
1000
OWNER
1000
GEN
1002
}
  0
CIRCLE
  5
1695
330
1F
100
AcDbEntity
  8
SK1
100
AcDbCircle
 10
54.99999999999983
 20
-20.00000000000011
 30
0.0
 40
0.4637693698488208
  0
LINE
  5
1696
330
1F
100
AcDbEntity
  8
SK1
100
AcDbLine
 10
54.53623063015101
 20
-20.00000000000011
 30
0.0
 11
55.46376936984865
 21
-20.00000000000011
 31
0.0
  0
LINE
  5
1697
330
1F
100
AcDbEntity
  8
SK1
100
AcDbLine
 10
54.99999999999983
 20
-20.46376936984893
 30
0.0
 11
54.99999999999983
 21
-19.53623063015129
 31
0.0
  0
ARC
  5
1698
330
1F
100
AcDbEntity
  8
1
100
AcDbCircle
 10
53.65282962638594
 20
-13.40675743120428
 30
0.0
 40
0.4
100
AcDbArc
 50
1.155196380556908
 51
30.69319144112486
1001
GENIUS_GENOBJ-N-FIL_13
1002
{
1000
OWNER
1000
GEN
1002
}
1001
GENIUS_GENODEF_13
1002
{
1000
HIER
1070
     0
1002
}
1002
{
1000
MANEDIT
1070
     0
1002
}
1002
{
1000
NOSEL
1070
     0
1002
}
1002
{
1000
BEHIND
1070
     0
1002
}
1002
{
1000
OTHER
1070
     0
1002
}
1002
{
1000
REACTOR
1002
}
  0
ARC
  5
1699
330
1F
100
AcDbEntity
  8
1
100
AcDbCircle
 10
54.97423708171567
 20
-16.29408475462187
 30
0.0
 40
0.8669640644000232
100
AcDbArc
 50
175.6248430783392
 51
192.9783050571099
  0
ARC
  5
169A
330
1F
100
AcDbEntity
  8
1
100
AcDbCircle
 10
56.95459416800639
 20
-15.90284018396937
 30
0.0
 40
2.885298691586131
100
AcDbArc
 50
191.7171822363625
 51
223.0791548945628
  0
ARC
  5
169B
330
1F
100
AcDbEntity
  8
1
100
AcDbCircle
 10
54.55497647633951
 20
-18.14672574851442
 30
0.0
 40
0.4
100
AcDbArc
 50
1.899378049098226
 51
43.07915489456518
1001
GENIUS_GENOBJ-N-FIL_13
1002
{
1000
OWNER
1000
GEN
1002
}
1001
GENIUS_GENODEF_13
1002
{
1000
HIER
1070
     0
1002
}
1002
{
1000
MANEDIT
1070
     0
1002
}
1002
{
1000
NOSEL
1070
     0
1002
}
1002
{
1000
BEHIND
1070
     0
1002
}
1002
{
1000
OTHER
1070
     0
1002
}
1002
{
1000
REACTOR
1002
}
  0
LINE
  5
169C
330
1F
100
AcDbEntity
  8
1
100
AcDbLine
 10
54.10979941703113
 20
-16.22794692251554
 30
0.0
 11
54.05274832804974
 21
-13.39869318545103
 31
0.0
  0
LINE
  5
169E
330
1F
100
AcDbEntity
  8
1
100
AcDbLine
 10
53.99679480008359
 20
-19.27113434341696
 30
0.0
 11
12.08210096139002
 21
-19.27113434341688
 31
0.0
  0
CIRCLE
  5
16AB
330
1F
100
AcDbEntity
  8
SK1
100
AcDbCircle
 10
0.0
 20
0.0
 30
0.0
 40
2.700115174948665
  0
ARC
  5
16B2
330
1F
100
AcDbEntity
  8
1
100
AcDbCircle
 10
1.99999999999968
 20
-15.9999999999998
 30
0.0
 40
2.0
100
AcDbArc
 50
179.9999999999985
 51
269.9999999999998
1001
GENIUS_GENOBJ-N-FIL_13
1002
{
1000
OWNER
1000
GEN
1002
}
1001
GENIUS_GENODEF_13
1002
{
1000
HIER
1070
     0
1002
}
1002
{
1000
MANEDIT
1070
     0
1002
}
1002
{
1000
NOSEL
1070
     0
1002
}
1002
{
1000
BEHIND
1070
     0
1002
}
1002
{
1000
OTHER
1070
     0
1002
}
1002
{
1000
REACTOR
1002
}
  0
LINE
  5
16C4
330
1F
100
AcDbEntity
  8
1
100
AcDbLine
 10
1.999999999999666
 20
-17.9999999999998
 30
0.0
 11
10.810966617973
 21
-17.99999999999986
 31
0.0
  0
LINE
  5
16D0
330
1F
100
AcDbEntity
  8
1
100
AcDbLine
 10
10.810966617973
 20
-17.99999999999986
 30
0.0
 11
12.08210096139002
 21
-19.27113434341688
 31
0.0
  0
LINE
  5
16D9
330
1F
100
AcDbEntity
  8
1
100
AcDbLine
 10
1.999999999999877
 20
18.00000000000018
 30
0.0
 11
10.81096661797321
 21
18.00000000000013
 31
0.0
  0
ARC
  5
16DA
330
1F
100
AcDbEntity
  8
1
100
AcDbCircle
 10
1.999999999999867
 20
16.00000000000018
 30
0.0
 40
2.0
100
AcDbArc
 50
89.99999999999944
 51
180.0
1001
GENIUS_GENOBJ-N-FIL_13
1002
{
1000
OWNER
1000
GEN
1002
}
1001
GENIUS_GENODEF_13
1002
{
1000
HIER
1070
     0
1002
}
1002
{
1000
MANEDIT
1070
     0
1002
}
1002
{
1000
NOSEL
1070
     0
1002
}
1002
{
1000
BEHIND
1070
     0
1002
}
1002
{
1000
OTHER
1070
     0
1002
}
1002
{
1000
REACTOR
1002
}
  0
LINE
  5
16DB
330
1F
100
AcDbEntity
  8
1
100
AcDbLine
 10
10.81096661797321
 20
18.00000000000013
 30
0.0
 11
12.08210096139024
 21
19.27113434341713
 31
0.0
  0
LINE
  5
16DF
330
1F
100
AcDbEntity
  8
4
100
AcDbLine
 10
15.35544280955012
 20
-6.631449223275928
 30
0.0
 11
23.74498199796549
 21
-11.90526895218154
 31
0.0
  0
LINE
  5
16E0
330
1F
100
AcDbEntity
  8
4
100
AcDbLine
 10
17.83398241782735
 20
-6.594246979477311
 30
0.0
 11
36.4094410638197
 21
-12.75521567710687
 31
0.0
  0
DIMENSION
  5
16F1
330
1F
100
AcDbEntity
  8
2
100
AcDbDimension
  2
*D4
 10
79.52116250297286
 20
-20.00000000000011
 30
0.0
 11
76.27116250297286
 21
-0.0000000000001146
 31
0.0
 70
    32
  1
%%c<>
  3
AM_DIN
100
AcDbAlignedDimension
 13
54.99999999999983
 23
19.99999999999987
 33
0.0
 14
54.99999999999983
 24
-20.00000000000011
 34
0.0
 50
90.00000000000003
100
AcDbRotatedDimension
  0
DIMENSION
  5
172C
330
1F
100
AcDbEntity
  8
2
100
AcDbDimension
  2
*D5
 10
-0.0000000000001285
 20
75.0
 30
0.0
 11
27.49999999999985
 21
78.25
 31
0.0
 70
    32
  3
AM_DIN
100
AcDbAlignedDimension
 13
54.99999999999983
 23
19.99999999999987
 33
0.0
 14
-0.0000000000001321
 24
16.00000000000016
 34
0.0
 50
0.0000000000000114
100
AcDbRotatedDimension
  0
DIMENSION
  5
1769
330
1F
100
AcDbEntity
  8
SK2
100
AcDbDimension
  2
*D6
 10
-29.69914432113023
 20
-17.99999999999979
 30
0.0
 11
-32.94914432113023
 21
0.0000000000001941
 31
0.0
 70
    32
  1
%%c<>
  3
AM_DIN
100
AcDbAlignedDimension
 13
1.999999999999887
 23
18.00000000000018
 33
0.0
 14
1.999999999999675
 24
-17.9999999999998
 34
0.0
 50
89.99999999999969
100
AcDbRotatedDimension
  0
TEXT
  5
17BB
330
1F
100
AcDbEntity
  8
6
100
AcDbText
 10
92.32769855411204
 20
-7.132547604413232
 30
0.0
 40
3.5
  1
Zeff.=3
 50
90.0
100
AcDbText
  0
TEXT
  5
17BC
330
1F
100
AcDbEntity
  8
6
100
AcDbText
 10
86.10539689171384
 20
-4.076363140869219
 30
0.0
 40
3.5
  1
Z=12
 50
90.0
100
AcDbText
  0
TEXT
  5
17BE
330
1F
100
AcDbEntity
  8
6
100
AcDbText
 10
3.799506589543909
 20
-31.56250620281669
 30
0.0
 40
3.5
  1
22J3F040039F0R00
100
AcDbText
  0
LINE
  5
17C3
330
1F
100
AcDbEntity
  8
NOCUT
100
AcDbLine
 10
53.99679480008348
 20
-19.27113434341715
 30
0.0
 11
12.08210096138989
 21
-19.27113434341707
 31
0.0
  0
LINE
  5
17C9
330
1F
100
AcDbEntity
  8
NOCUT
100
AcDbLine
 10
53.99679480008348
 20
-0.0000000000003197
 30
0.0
 11
0.0
 21
0.0
 31
0.0
  0
LINE
  5
17CB
330
1F
100
AcDbEntity
  8
NOCUT
100
AcDbLine
 10
-0.0000000000003979
 20
-15.99999999999995
 30
0.0
 11
0.0
 21
0.0
 31
0.0
  0
LINE
  5
17CE
330
1F
100
AcDbEntity
  8
NOCUT
100
AcDbLine
 10
1.999999999999545
 20
-18.00000000000001
 30
0.0
 11
10.81096661797289
 21
-18.00000000000005
 31
0.0
  0
ARC
  5
17CF
330
1F
100
AcDbEntity
  8
NOCUT
100
AcDbCircle
 10
1.999999999999573
 20
-16.00000000000001
 30
0.0
 40
2.0
100
AcDbArc
 50
179.9999999999985
 51
269.9999999999998
1001
GENIUS_GENOBJ-N-FIL_13
1002
{
1000
OWNER
1000
GEN
1002
}
1001
GENIUS_GENODEF_13
1002
{
1000
HIER
1070
     0
1002
}
1002
{
1000
MANEDIT
1070
     0
1002
}
1002
{
1000
NOSEL
1070
     0
1002
}
1002
{
1000
BEHIND
1070
     0
1002
}
1002
{
1000
OTHER
1070
     0
1002
}
1002
{
1000
REACTOR
1002
}
  0
LINE
  5
17D0
330
1F
100
AcDbEntity
  8
NOCUT
100
AcDbLine
 10
10.81096661797289
 20
-18.00000000000005
 30
0.0
 11
12.08210096138989
 21
-19.27113434341707
 31
0.0
  0
LINE
  5
180F
330
1F
100
AcDbEntity
  8
NOCUT
100
AcDbLine
 10
53.99679480008348
 20
-0.0000000000003197
 30
0.0
 11
53.99679480008348
 21
-19.27113434341715
 31
0.0
  0
ARC
  5
186F
330
1F
100
AcDbEntity
  8
1
100
AcDbCircle
 10
53.88787186258459
 20
39.07422701586003
 30
0.0
 40
48.70991597202383
100
AcDbArc
 50
233.3389942328316
 51
270.128122368668
  0
ARC
  5
1870
330
1F
100
AcDbEntity
  8
1
100
AcDbCircle
 10
6.03562255412252
 20
-23.32710895270014
 30
0.0
 40
29.9401576743603
100
AcDbArc
 50
51.18048084614571
 51
79.85091028017716
  0
ARC
  5
1871
330
1F
100
AcDbEntity
  8
1
100
AcDbCircle
 10
13.9679764548882
 20
12.8866471269552
 30
0.0
 40
7.24659926027853
100
AcDbArc
 50
135.1202615831459
 51
248.4939972985483
  0
ARC
  5
1872
330
1F
100
AcDbEntity
  8
1
100
AcDbCircle
 10
54.56679942604374
 20
96.85910433738689
 30
0.0
 40
99.89500718783535
100
AcDbArc
 50
249.8368818976819
 51
269.6730663772396
  0
ARC
  5
1873
330
1F
100
AcDbEntity
  8
1
100
AcDbCircle
 10
46.7397431097513
 20
31.02269987101978
 30
0.0
 40
50.95268361867344
100
AcDbArc
 50
233.2702402858146
 51
260.776064328676
  0
ARC
  5
1874
330
1F
100
AcDbEntity
  8
1
100
AcDbCircle
 10
16.16149065572457
 20
-19.71999266826589
 30
0.0
 40
9.906465269131114
100
AcDbArc
 50
89.38441729394201
 51
170.0014504430381
  0
ENDSEC
  0
SECTION
  2
OBJECTS
  0
DICTIONARY
  5
C
330
0
100
AcDbDictionary
  3
ACAD_GROUP
350
D
  3
ACAD_LAYOUT
350
1A
  3
ACAD_MLINESTYLE
350
17
  3
ACAD_PLOTSETTINGS
350
19
  3
ACAD_PLOTSTYLENAME
350
E
  3
ACDBHEADERROUNDTRIPXREC
350
1890
  3
ACDBVARIABLEDICTIONARY
350
216
  3
ACMDICTIONARY
350
45
  3
AMG
350
41
  3
AMGSNAPSETTINGS
350
23D
  3
DWGPROPS
350
188B
  0
DICTIONARY
  5
1F1
330
1F
100
AcDbDictionary
280
     1
  3
ACAD_INDEX
360
1F2
  3
ACAD_LAYOUTSELFREF
360
18B3
  0
DICTIONARY
  5
18B1
330
1B
100
AcDbDictionary
280
     1
  3
ACAD_LAYOUTSELFREF
360
18B2
  0
DICTIONARY
  5
D
102
{ACAD_REACTORS
330
C
102
}
330
C
100
AcDbDictionary
  0
DICTIONARY
  5
1A
102
{ACAD_REACTORS
330
C
102
}
330
C
100
AcDbDictionary
  0
DICTIONARY
  5
17
102
{ACAD_REACTORS
330
C
102
}
330
C
100
AcDbDictionary
  3
STANDARD
350
18
  0
DICTIONARY
  5
19
102
{ACAD_REACTORS
330
C
102
}
330
C
100
AcDbDictionary
  0
ACDBDICTIONARYWDFLT
  5
E
102
{ACAD_REACTORS
330
C
102
}
330
C
100
AcDbDictionary
281
     1
  3
Normal
350
F
100
AcDbDictionaryWithDefault
340
F
  0
DICTIONARY
  5
1890
102
{ACAD_REACTORS
330
C
102
}
330
C
100
AcDbDictionary
  3
CEPSNTYPE
350
189A
  3
DIMSTYLEDATA
350
189E
  3
FINGERPRINTGUID
350
189B
  3
HYPERLINKBASE
350
1893
  3
INSUNITS
350
1899
  3
LAYOUTDICT
350
1895
  3
LWETCUNION
350
1898
  3
PLOTSETDICT
350
1896
  3
PLOTSTYLNAMDICT
350
1897
  3
PSVPSCALE
350
189D
  3
PUCSBASE
350
18A1
  3
PUCSORGBACK
350
18A7
  3
PUCSORGBOTTOM
350
18A3
  3
PUCSORGFRONT
350
18A6
  3
PUCSORGLEFT
350
18A4
  3
PUCSORGRIGHT
350
18A5
  3
PUCSORGTOP
350
18A2
  3
PUCSORTHOREF
350
189F
  3
PUCSORTHOVIEW
350
18A0
  3
STYLESHEET
350
1894
  3
TSTACKALIGN
350
1891
  3
TSTACKSIZE
350
1892
  3
UCSBASE
350
18AA
  3
UCSORGBACK
350
18B0
  3
UCSORGBOTTOM
350
18AC
  3
UCSORGFRONT
350
18AF
  3
UCSORGLEFT
350
18AD
  3
UCSORGRIGHT
350
18AE
  3
UCSORGTOP
350
18AB
  3
UCSORTHOREF
350
18A8
  3
UCSORTHOVIEW
350
18A9
  3
VERSIONGUID
350
189C
  0
DICTIONARY
  5
216
102
{ACAD_REACTORS
330
C
102
}
330
C
100
AcDbDictionary
  3
DIMASSOC
350
219
  3
HIDETEXT
350
218
  3
INDEXCTL
350
217
  0
DICTIONARY
  5
45
102
{ACAD_REACTORS
330
C
102
}
330
C
100
AcDbDictionary
  3
ACMSTDDICTIONARY
350
4A
  0
DICTIONARY
  5
41
102
{ACAD_REACTORS
330
C
102
}
330
C
100
AcDbDictionary
  3
ACMGSETTINGS
350
42
  0
DICTIONARY
  5
23D
102
{ACAD_REACTORS
330
C
102
}
330
C
100
AcDbDictionary
  0
XRECORD
  5
188B
102
{ACAD_REACTORS
330
C
102
}
330
C
100
AcDbXrecord
  1
DWGPROPS COOKIE
  2

  3

  4

  6

  7

  8

  9

300
AmdtFileType=84
301
=
302
=
303
=
304
=
305
=
306
=
307
=
308
=
309
=
 40
0.0377160416666667
 41
2453599.656190694
 42
2453754.47336544
  1

 90
        1
  0
DICTIONARY
  5
1F2
102
{ACAD_REACTORS
330
1F1
102
}
330
1F1
100
AcDbDictionary
  3
*A1
350
1F3
  0
XRECORD
  5
18B3
102
{ACAD_REACTORS
330
1F1
102
}
330
1F1
100
AcDbXrecord
340
1F
  0
XRECORD
  5
18B2
102
{ACAD_REACTORS
330
18B1
102
}
330
18B1
100
AcDbXrecord
340
1B
  0
MLINESTYLE
  5
18
102
{ACAD_REACTORS
330
17
102
}
330
17
100
AcDbMlineStyle
  2
STANDARD
 70
     0
  3

 62
   256
 51
90.0
 52
90.0
 71
     2
 49
0.5
 62
   256
  6
BYLAYER
 49
-0.5
 62
   256
  6
BYLAYER
  0
ACDBPLACEHOLDER
  5
F
102
{ACAD_REACTORS
330
E
102
}
330
E
100
AcDbPlaceHolder
280
     0
  0
XRECORD
  5
189A
102
{ACAD_REACTORS
330
1890
102
}
330
1890
100
AcDbXrecord
 90
        0
  0
XRECORD
  5
189E
102
{ACAD_REACTORS
330
1890
102
}
330
1890
100
AcDbXrecord
1000
DSTYLE
1002
{
1070
    79
 70
     2
1070
   371
 70
    -1
1070
   372
 70
    -1
1002
}
  0
XRECORD
  5
189B
102
{ACAD_REACTORS
330
1890
102
}
330
1890
100
AcDbXrecord
  1
{03052709-208C-44F1-88CB-F8F0E550BC5D}
  0
XRECORD
  5
1893
102
{ACAD_REACTORS
330
1890
102
}
330
1890
100
AcDbXrecord
  1

  0
XRECORD
  5
1899
102
{ACAD_REACTORS
330
1890
102
}
330
1890
100
AcDbXrecord
 90
        4
  0
XRECORD
  5
1895
102
{ACAD_REACTORS
330
1890
102
}
330
1890
100
AcDbXrecord
340
1A
  0
XRECORD
  5
1898
102
{ACAD_REACTORS
330
1890
102
}
330
1890
100
AcDbXrecord
 90
    10781
  0
XRECORD
  5
1896
102
{ACAD_REACTORS
330
1890
102
}
330
1890
100
AcDbXrecord
340
19
  0
XRECORD
  5
1897
102
{ACAD_REACTORS
330
1890
102
}
330
1890
100
AcDbXrecord
340
E
  0
XRECORD
  5
189D
102
{ACAD_REACTORS
330
1890
102
}
330
1890
100
AcDbXrecord
 40
0.0
  0
XRECORD
  5
18A1
102
{ACAD_REACTORS
330
1890
102
}
330
1890
100
AcDbXrecord
340
0
  0
XRECORD
  5
18A7
102
{ACAD_REACTORS
330
1890
102
}
330
1890
100
AcDbXrecord
 10
0.0
 20
0.0
 30
0.0
  0
XRECORD
  5
18A3
102
{ACAD_REACTORS
330
1890
102
}
330
1890
100
AcDbXrecord
 10
0.0
 20
0.0
 30
0.0
  0
XRECORD
  5
18A6
102
{ACAD_REACTORS
330
1890
102
}
330
1890
100
AcDbXrecord
 10
0.0
 20
0.0
 30
0.0
  0
XRECORD
  5
18A4
102
{ACAD_REACTORS
330
1890
102
}
330
1890
100
AcDbXrecord
 10
0.0
 20
0.0
 30
0.0
  0
XRECORD
  5
18A5
102
{ACAD_REACTORS
330
1890
102
}
330
1890
100
AcDbXrecord
 10
0.0
 20
0.0
 30
0.0
  0
XRECORD
  5
18A2
102
{ACAD_REACTORS
330
1890
102
}
330
1890
100
AcDbXrecord
 10
0.0
 20
0.0
 30
0.0
  0
XRECORD
  5
189F
102
{ACAD_REACTORS
330
1890
102
}
330
1890
100
AcDbXrecord
340
0
  0
XRECORD
  5
18A0
102
{ACAD_REACTORS
330
1890
102
}
330
1890
100
AcDbXrecord
 70
     0
  0
XRECORD
  5
1894
102
{ACAD_REACTORS
330
1890
102
}
330
1890
100
AcDbXrecord
  1

  0
XRECORD
  5
1891
102
{ACAD_REACTORS
330
1890
102
}
330
1890
100
AcDbXrecord
 90
        1
  0
XRECORD
  5
1892
102
{ACAD_REACTORS
330
1890
102
}
330
1890
100
AcDbXrecord
 90
       70
  0
XRECORD
  5
18AA
102
{ACAD_REACTORS
330
1890
102
}
330
1890
100
AcDbXrecord
340
0
  0
XRECORD
  5
18B0
102
{ACAD_REACTORS
330
1890
102
}
330
1890
100
AcDbXrecord
 10
0.0
 20
0.0
 30
0.0
  0
XRECORD
  5
18AC
102
{ACAD_REACTORS
330
1890
102
}
330
1890
100
AcDbXrecord
 10
0.0
 20
0.0
 30
0.0
  0
XRECORD
  5
18AF
102
{ACAD_REACTORS
330
1890
102
}
330
1890
100
AcDbXrecord
 10
0.0
 20
0.0
 30
0.0
  0
XRECORD
  5
18AD
102
{ACAD_REACTORS
330
1890
102
}
330
1890
100
AcDbXrecord
 10
0.0
 20
0.0
 30
0.0
  0
XRECORD
  5
18AE
102
{ACAD_REACTORS
330
1890
102
}
330
1890
100
AcDbXrecord
 10
0.0
 20
0.0
 30
0.0
  0
XRECORD
  5
18AB
102
{ACAD_REACTORS
330
1890
102
}
330
1890
100
AcDbXrecord
 10
0.0
 20
0.0
 30
0.0
  0
XRECORD
  5
18A8
102
{ACAD_REACTORS
330
1890
102
}
330
1890
100
AcDbXrecord
340
0
  0
XRECORD
  5
18A9
102
{ACAD_REACTORS
330
1890
102
}
330
1890
100
AcDbXrecord
 70
     0
  0
XRECORD
  5
189C
102
{ACAD_REACTORS
330
1890
102
}
330
1890
100
AcDbXrecord
  1
{BD296931-193B-4AC6-8FB6-C95500D6736A}
  0
DICTIONARYVAR
  5
219
102
{ACAD_REACTORS
330
216
102
}
330
216
100
DictionaryVariables
280
     0
  1
1
  0
DICTIONARYVAR
  5
218
102
{ACAD_REACTORS
330
216
102
}
330
216
100
DictionaryVariables
280
     0
  1
1
  0
DICTIONARYVAR
  5
217
102
{ACAD_REACTORS
330
216
102
}
330
216
100
DictionaryVariables
280
     0
  1
1
  0
DICTIONARY
  5
4A
102
{ACAD_REACTORS
330
45
102
}
330
45
100
AcDbDictionary
  0
DICTIONARY
  5
42
102
{ACAD_REACTORS
330
41
102
}
330
41
100
AcDbDictionary
  3
DWGSETTINGS
350
43
  0
LAYER_INDEX
  5
1F3
102
{ACAD_REACTORS
330
1F2
102
}
330
1F2
100
AcDbIndex
 40
2453754.765591608
100
AcDbLayerIndex
  8
0
360
1F4
 90
        0
  8
Defpoints
360
29B
 90
        0
  8
1
360
FE0
 90
       68
  8
2
360
FE1
 90
        3
  8
4
360
FE2
 90
        5
  8
6
360
FE3
 90
        4
  8
SK1
360
FE4
 90
       12
  8
SK2
360
FE5
 90
        2
  8
SK3
360
FE6
 90
        8
  8
CUT
360
FE8
 90
       16
  8
NOCUT
360
FE9
 90
        7
  0
XRECORD
  5
43
102
{ACAD_REACTORS
330
42
102
}
330
42
100
AcDbXrecord
  1
VERSION
140
15.0
  1
PRODUCT
  2
AutoCAD Mechanical 2000
  0
IDBUFFER
  5
1F4
330
0
100
AcDbIdBuffer
  0
IDBUFFER
  5
29B
330
0
100
AcDbIdBuffer
  0
IDBUFFER
  5
FE0
330
0
100
AcDbIdBuffer
330
166C
330
166D
330
1670
330
1672
330
1676
330
1677
330
168F
330
1691
330
1692
330
1693
330
1694
330
1698
330
1699
330
169A
330
169B
330
169C
330
169E
330
16B2
330
16C4
330
16D0
330
16D9
330
16DA
330
16DB
330
186F
330
1870
330
1871
330
1872
330
1873
330
1874
330
648
330
64C
330
1639
330
163B
330
163D
330
163F
330
1641
330
1643
330
1644
330
1646
330
1648
330
164A
330
164B
330
164C
330
164D
330
164E
330
164F
330
1650
330
1651
330
1652
330
1653
330
1654
330
1655
330
1656
330
1657
330
1658
330
1659
330
165A
330
165D
330
165E
330
165F
330
1660
330
1661
330
1662
330
1663
330
1664
330
1665
330
1667
330
1669
  0
IDBUFFER
  5
FE1
330
0
100
AcDbIdBuffer
330
1675
330
16F1
330
172C
  0
IDBUFFER
  5
FE2
330
0
100
AcDbIdBuffer
330
1679
330
16DF
330
16E0
330
E0F
330
1678
  0
IDBUFFER
  5
FE3
330
0
100
AcDbIdBuffer
330
17BE
330
1674
330
17BB
330
17BC
  0
IDBUFFER
  5
FE4
330
0
100
AcDbIdBuffer
330
649
330
64A
330
64B
330
E0D
330
E0E
330
165B
330
165C
330
166B
330
1695
330
1696
330
1697
330
16AB
  0
IDBUFFER
  5
FE5
330
0
100
AcDbIdBuffer
330
657
330
1769
  0
IDBUFFER
  5
FE6
330
0
100
AcDbIdBuffer
330
64E
330
64F
330
650
330
651
330
652
330
653
330
654
330
655
  0
IDBUFFER
  5
FE8
330
0
100
AcDbIdBuffer
330
1638
330
163A
330
163C
330
163E
330
1640
330
1642
330
1645
330
1647
330
1649
330
1666
330
1668
330
166A
330
166E
330
166F
330
1671
330
1673
  0
IDBUFFER
  5
FE9
330
0
100
AcDbIdBuffer
330
17C3
330
17C9
330
17CB
330
17CE
330
17CF
330
17D0
330
180F
  0
ENDSEC
  0
EOF
