  0
SECTION
  2
HEADER
  9
$ACADVER
  1
AC1015
  9
$ACADMAINTVER
 70
     6
  9
$DWGCODEPAGE
  3
ANSI_1252
  9
$INSBASE
 10
0.0
 20
0.0
 30
0.0
  9
$EXTMIN
 10
0.0
 20
0.0
 30
0.0
  9
$EXTMAX
 10
594.0
 20
420.0
 30
0.0
  9
$LIMMIN
 10
0.0
 20
0.0
  9
$LIMMAX
 10
594.0
 20
420.0
  9
$ORTHOMODE
 70
     0
  9
$REGENMODE
 70
     1
  9
$FILLMODE
 70
     1
  9
$QTEXTMODE
 70
     0
  9
$MIRRTEXT
 70
     1
  9
$LTSCALE
 40
1.0
  9
$ATTMODE
 70
     1
  9
$TEXTSIZE
 40
0.2
  9
$TRACEWID
 40
0.05
  9
$TEXTSTYLE
  7
STANDARD
  9
$CLAYER
  8
0
  9
$CELTYPE
  6
BYLAYER
  9
$CECOLOR
 62
   256
  9
$CELTSCALE
 40
1.0
  9
$DISPSILH
 70
     0
  9
$DIMSCALE
 40
1.0
  9
$DIMASZ
 40
2.5
  9
$DIMEXO
 40
3.7125
  9
$DIMDLI
 40
22.572
  9
$DIMRND
 40
0.0
  9
$DIMDLE
 40
0.0
  9
$DIMEXE
 40
10.692
  9
$DIMTP
 40
0.0
  9
$DIMTM
 40
0.0
  9
$DIMTXT
 40
3.5
  9
$DIMCEN
 40
5.346
  9
$DIMTSZ
 40
0.0
  9
$DIMTOL
 70
     0
  9
$DIMLIM
 70
     0
  9
$DIMTIH
 70
     1
  9
$DIMTOH
 70
     1
  9
$DIMSE1
 70
     0
  9
$DIMSE2
 70
     0
  9
$DIMTAD
 70
     0
  9
$DIMZIN
 70
     0
  9
$DIMBLK
  1
FILLED
  9
$DIMASO
 70
     1
  9
$DIMSHO
 70
     1
  9
$DIMPOST
  1

  9
$DIMAPOST
  1

  9
$DIMALT
 70
     0
  9
$DIMALTD
 70
     2
  9
$DIMALTF
 40
25.4
  9
$DIMLFAC
 40
1.0
  9
$DIMTOFL
 70
     0
  9
$DIMTVP
 40
0.0
  9
$DIMTIX
 70
     0
  9
$DIMSOXD
 70
     0
  9
$DIMSAH
 70
     0
  9
$DIMBLK1
  1

  9
$DIMBLK2
  1

  9
$DIMSTYLE
  2
STANDARD
  9
$DIMCLRD
 70
     0
  9
$DIMCLRE
 70
     0
  9
$DIMCLRT
 70
     0
  9
$DIMTFAC
 40
1.0
  9
$DIMGAP
 40
0.09
  9
$DIMJUST
 70
     0
  9
$DIMSD1
 70
     0
  9
$DIMSD2
 70
     0
  9
$DIMTOLJ
 70
     1
  9
$DIMTZIN
 70
     0
  9
$DIMALTZ
 70
     0
  9
$DIMALTTZ
 70
     0
  9
$DIMUPT
 70
     0
  9
$DIMDEC
 70
     4
  9
$DIMTDEC
 70
     4
  9
$DIMALTU
 70
     2
  9
$DIMALTTD
 70
     2
  9
$DIMTXSTY
  7
STANDARD
  9
$DIMAUNIT
 70
     0
  9
$DIMADEC
 70
     0
  9
$DIMALTRND
 40
0.0
  9
$DIMAZIN
 70
     0
  9
$DIMDSEP
 70
    46
  9
$DIMATFIT
 70
     3
  9
$DIMFRAC
 70
     0
  9
$DIMLDRBLK
  1

  9
$DIMLUNIT
 70
     2
  9
$DIMLWD
 70
    -2
  9
$DIMLWE
 70
    -2
  9
$DIMTMOVE
 70
     0
  9
$LUNITS
 70
     2
  9
$LUPREC
 70
     4
  9
$SKETCHINC
 40
0.1
  9
$FILLETRAD
 40
0.5
  9
$AUNITS
 70
     0
  9
$AUPREC
 70
     0
  9
$MENU
  1
.
  9
$ELEVATION
 40
0.0
  9
$PELEVATION
 40
0.0
  9
$THICKNESS
 40
0.0
  9
$LIMCHECK
 70
     0
  9
$CHAMFERA
 40
0.5
  9
$CHAMFERB
 40
0.5
  9
$CHAMFERC
 40
1.0
  9
$CHAMFERD
 40
0.0
  9
$SKPOLY
 70
     0
  9
$TDCREATE
 40
2447893.041666667
  9
$TDUCREATE
 40
0.0
  9
$TDUPDATE
 40
2447893.041666667
  9
$TDUUPDATE
 40
0.0
  9
$TDINDWG
 40
0.0
  9
$TDUSRTIMER
 40
0.0
  9
$USRTIMER
 70
     1
  9
$ANGBASE
 50
0.0
  9
$ANGDIR
 70
     0
  9
$PDMODE
 70
     3
  9
$PDSIZE
 40
0.3125
  9
$PLINEWID
 40
0.0
  9
$SPLFRAME
 70
     0
  9
$SPLINETYPE
 70
     6
  9
$SPLINESEGS
 70
     8
  9
$HANDSEED
  5
4FD
  9
$SURFTAB1
 70
     6
  9
$SURFTAB2
 70
     6
  9
$SURFTYPE
 70
     6
  9
$SURFU
 70
     6
  9
$SURFV
 70
     6
  9
$UCSBASE
  2

  9
$UCSNAME
  2

  9
$UCSORG
 10
0.0
 20
0.0
 30
0.0
  9
$UCSXDIR
 10
1.0
 20
0.0
 30
0.0
  9
$UCSYDIR
 10
0.0
 20
1.0
 30
0.0
  9
$UCSORTHOREF
  2

  9
$UCSORTHOVIEW
 70
     0
  9
$UCSORGTOP
 10
0.0
 20
0.0
 30
0.0
  9
$UCSORGBOTTOM
 10
0.0
 20
0.0
 30
0.0
  9
$UCSORGLEFT
 10
0.0
 20
0.0
 30
0.0
  9
$UCSORGRIGHT
 10
0.0
 20
0.0
 30
0.0
  9
$UCSORGFRONT
 10
0.0
 20
0.0
 30
0.0
  9
$UCSORGBACK
 10
0.0
 20
0.0
 30
0.0
  9
$PUCSBASE
  2

  9
$PUCSNAME
  2

  9
$PUCSORG
 10
0.0
 20
0.0
 30
0.0
  9
$PUCSXDIR
 10
1.0
 20
0.0
 30
0.0
  9
$PUCSYDIR
 10
0.0
 20
1.0
 30
0.0
  9
$PUCSORTHOREF
  2

  9
$PUCSORTHOVIEW
 70
     0
  9
$PUCSORGTOP
 10
0.0
 20
0.0
 30
0.0
  9
$PUCSORGBOTTOM
 10
0.0
 20
0.0
 30
0.0
  9
$PUCSORGLEFT
 10
0.0
 20
0.0
 30
0.0
  9
$PUCSORGRIGHT
 10
0.0
 20
0.0
 30
0.0
  9
$PUCSORGFRONT
 10
0.0
 20
0.0
 30
0.0
  9
$PUCSORGBACK
 10
0.0
 20
0.0
 30
0.0
  9
$USERI1
 70
     0
  9
$USERI2
 70
     0
  9
$USERI3
 70
     0
  9
$USERI4
 70
     0
  9
$USERI5
 70
     0
  9
$USERR1
 40
0.0
  9
$USERR2
 40
0.0
  9
$USERR3
 40
0.0
  9
$USERR4
 40
0.0
  9
$USERR5
 40
0.0
  9
$WORLDVIEW
 70
     1
  9
$SHADEDGE
 70
     3
  9
$SHADEDIF
 70
    70
  9
$TILEMODE
 70
     1
  9
$MAXACTVP
 70
    64
  9
$PINSBASE
 10
0.0
 20
0.0
 30
0.0
  9
$PLIMCHECK
 70
     0
  9
$PEXTMIN
 10
1.000000000000000E+20
 20
1.000000000000000E+20
 30
1.000000000000000E+20
  9
$PEXTMAX
 10
-1.000000000000000E+20
 20
-1.000000000000000E+20
 30
-1.000000000000000E+20
  9
$PLIMMIN
 10
0.0
 20
0.0
  9
$PLIMMAX
 10
12.0
 20
9.0
  9
$UNITMODE
 70
     0
  9
$VISRETAIN
 70
     1
  9
$PLINEGEN
 70
     0
  9
$PSLTSCALE
 70
     1
  9
$TREEDEPTH
 70
  3020
  9
$CMLSTYLE
  2
Standard
  9
$CMLJUST
 70
     0
  9
$CMLSCALE
 40
1.0
  9
$PROXYGRAPHICS
 70
     1
  9
$MEASUREMENT
 70
     1
  9
$CELWEIGHT
370
    -1
  9
$ENDCAPS
280
     0
  9
$JOINSTYLE
280
     0
  9
$LWDISPLAY
290
     0
  9
$INSUNITS
 70
     4
  9
$HYPERLINKBASE
  1

  9
$STYLESHEET
  1

  9
$XEDIT
290
     1
  9
$CEPSNTYPE
380
     0
  9
$PSTYLEMODE
290
     1
  9
$FINGERPRINTGUID
  2
{C8120446-5ACB-41C7-866F-2550650331AA}
  9
$VERSIONGUID
  2
{FAEB1C32-E019-11D5-929B-00C0DF256EC4}
  9
$EXTNAMES
290
     1
  9
$PSVPSCALE
 40
0.0
  9
$OLESTARTUP
290
     0
  0
ENDSEC
  0
SECTION
  2
CLASSES
  0
CLASS
  1
ACDBDICTIONARYWDFLT
  2
AcDbDictionaryWithDefault
  3
ObjectDBX Classes
 90
        0
280
     0
281
     0
  0
CLASS
  1
ACDBPLACEHOLDER
  2
AcDbPlaceHolder
  3
ObjectDBX Classes
 90
        0
280
     0
281
     0
  0
CLASS
  1
LAYOUT
  2
AcDbLayout
  3
ObjectDBX Classes
 90
        0
280
     0
281
     0
  0
ENDSEC
  0
SECTION
  2
TABLES
  0
TABLE
  2
VPORT
  5
8
330
0
100
AcDbSymbolTable
 70
     1
  0
VPORT
  5
1F4
330
8
100
AcDbSymbolTableRecord
100
AcDbViewportTableRecord
  2
*ACTIVE
 70
     0
 10
0.0
 20
0.0
 11
1.0
 21
1.0
 12
297.0
 22
210.0
 13
0.0
 23
0.0
 14
1.0
 24
1.0
 15
0.0
 25
0.0
 16
0.0
 26
0.0
 36
1.0
 17
0.0
 27
0.0
 37
0.0
 40
420.0
 41
1.4142857143
 42
50.0
 43
0.0
 44
0.0
 50
0.0
 51
0.0
 71
     0
 72
   100
 73
     1
 74
     1
 75
     0
 76
     0
 77
     0
 78
     0
281
     0
 65
     1
110
0.0
120
0.0
130
0.0
111
1.0
121
0.0
131
0.0
112
0.0
122
1.0
132
0.0
 79
     0
146
0.0
  0
ENDTAB
  0
TABLE
  2
LTYPE
  5
5
330
0
100
AcDbSymbolTable
 70
     8
  0
LTYPE
  5
14
330
5
100
AcDbSymbolTableRecord
100
AcDbLinetypeTableRecord
  2
BYBLOCK
 70
     0
  3

 72
    65
 73
     0
 40
0.0
  0
LTYPE
  5
15
330
5
100
AcDbSymbolTableRecord
100
AcDbLinetypeTableRecord
  2
BYLAYER
 70
     0
  3

 72
    65
 73
     0
 40
0.0
  0
LTYPE
  5
16
330
5
100
AcDbSymbolTableRecord
100
AcDbLinetypeTableRecord
  2
CONTINUOUS
 70
     0
  3
Solid line
 72
    65
 73
     0
 40
0.0
  0
LTYPE
  5
1F5
330
5
100
AcDbSymbolTableRecord
100
AcDbLinetypeTableRecord
  2
CENTER
 70
     0
  3
____ _ ____ _ ____ _ ____ _ ____ _ ____ _ ____
 72
    65
 73
     4
 40
0.6
 49
0.375
 74
     0
 49
-0.075
 74
     0
 49
0.075
 74
     0
 49
-0.075
 74
     0
  0
LTYPE
  5
1F6
330
5
100
AcDbSymbolTableRecord
100
AcDbLinetypeTableRecord
  2
HIDDEN
 70
     0
  3
- - - - - - - - - - - - - - - - - - - -
 72
    65
 73
     2
 40
0.2
 49
0.1
 74
     0
 49
-0.1
 74
     0
  0
LTYPE
  5
1F7
330
5
100
AcDbSymbolTableRecord
100
AcDbLinetypeTableRecord
  2
PHANTOM
 70
     0
  3
_____ _ _ _____ _ _ _____ _ _ _____
 72
    65
 73
     6
 40
0.8
 49
0.45
 74
     0
 49
-0.05
 74
     0
 49
0.1
 74
     0
 49
-0.05
 74
     0
 49
0.1
 74
     0
 49
-0.05
 74
     0
  0
LTYPE
  5
1F8
330
5
100
AcDbSymbolTableRecord
100
AcDbLinetypeTableRecord
  2
DOT
 70
     0
  3
. . . . . . . . . . . . . . . . . . . .
 72
    65
 73
     2
 40
0.2
 49
0.1
 74
     0
 49
-0.1
 74
     0
  0
LTYPE
  5
1F9
330
5
100
AcDbSymbolTableRecord
100
AcDbLinetypeTableRecord
  2
DASHED
 70
     0
  3
- - - - - - - - - - - - - - - - - - - -
 72
    65
 73
     2
 40
0.2
 49
0.1
 74
     0
 49
-0.1
 74
     0
  0
LTYPE
  5
30C
330
5
100
AcDbSymbolTableRecord
100
AcDbLinetypeTableRecord
  2
MITTE
 70
     0
  3
Mitte ____ _ ____ _ ____ _ ____ _ ____ _ ____
 72
    65
 73
     4
 40
50.8
 49
31.75
 74
     4
 75
     0
340
0
 46
1.0
 50
0.0
 44
0.0
 45
0.0
 49
-6.35
 74
     4
 75
     0
340
0
 46
1.0
 50
0.0
 44
0.0
 45
0.0
 49
6.35
 74
     4
 75
     0
340
0
 46
1.0
 50
0.0
 44
0.0
 45
0.0
 49
-6.35
 74
     4
 75
     0
340
0
 46
1.0
 50
0.0
 44
0.0
 45
0.0
  0
LTYPE
  5
30D
330
5
100
AcDbSymbolTableRecord
100
AcDbLinetypeTableRecord
  2
STRICHLINIE
 70
     0
  3
Strichlinie __ __ __ __ __ __ __ __ __ __ __ __
 72
    65
 73
     2
 40
19.05
 49
12.7
 74
     4
 75
     0
340
0
 46
1.0
 50
0.0
 44
0.0
 45
0.0
 49
-6.35
 74
     4
 75
     0
340
0
 46
1.0
 50
0.0
 44
0.0
 45
0.0
  0
ENDTAB
  0
TABLE
  2
LAYER
  5
2
330
0
100
AcDbSymbolTable
 70
    47
  0
LAYER
  5
10
330
2
100
AcDbSymbolTableRecord
100
AcDbLayerTableRecord
  2
0
 70
     0
 62
     7
  6
CONTINUOUS
370
    -3
390
F
  0
LAYER
  5
30E
330
2
100
AcDbSymbolTableRecord
100
AcDbLayerTableRecord
  2
1
 70
     0
 62
     4
  6
CONTINUOUS
370
    50
390
F
  0
LAYER
  5
30F
330
2
100
AcDbSymbolTableRecord
100
AcDbLayerTableRecord
  2
2
 70
     0
 62
     7
  6
CONTINUOUS
370
    25
390
F
  0
LAYER
  5
311
330
2
100
AcDbSymbolTableRecord
100
AcDbLayerTableRecord
  2
4
 70
     0
 62
     2
  6
MITTE
370
    25
390
F
  0
LAYER
  5
313
330
2
100
AcDbSymbolTableRecord
100
AcDbLayerTableRecord
  2
6
 70
     0
 62
     5
  6
CONTINUOUS
370
    35
390
F
  0
LAYER
  5
314
330
2
100
AcDbSymbolTableRecord
100
AcDbLayerTableRecord
  2
CUT
 70
     0
 62
     1
  6
CONTINUOUS
370
    25
390
F
  0
LAYER
  5
315
330
2
100
AcDbSymbolTableRecord
100
AcDbLayerTableRecord
  2
NOCUT
 70
     0
 62
     7
  6
CONTINUOUS
370
    25
390
F
  0
LAYER
  5
317
330
2
100
AcDbSymbolTableRecord
100
AcDbLayerTableRecord
  2
SK2
 70
     0
 62
     7
  6
CONTINUOUS
370
    25
390
F
  0
LAYER
  5
318
330
2
100
AcDbSymbolTableRecord
100
AcDbLayerTableRecord
  2
SK3
 70
     0
 62
     1
  6
STRICHLINIE
370
    25
390
F
  0
LAYER
  5
31C
330
2
100
AcDbSymbolTableRecord
100
AcDbLayerTableRecord
  2
7
 70
     0
 62
     5
  6
CONTINUOUS
370
    25
390
F
  0
ENDTAB
  0
TABLE
  2
STYLE
  5
3
330
0
100
AcDbSymbolTable
 70
     3
  0
STYLE
  5
11
330
3
100
AcDbSymbolTableRecord
100
AcDbTextStyleTableRecord
  2
STANDARD
 70
     0
 40
0.0
 41
1.0
 50
0.0
 71
     0
 42
2.5
  3
monos.ttf
  4

1001
ACAD
1000
Monospac821 BT
1071
       49
  0
STYLE
  5
216
330
3
100
AcDbSymbolTableRecord
100
AcDbTextStyleTableRecord
  2
TEXTSTYLE_1
 70
     0
 40
0.0
 41
0.8
 50
0.0
 71
     0
 42
0.2
  3
monospace 821 bold bt
  4

  0
STYLE
  5
36C
330
3
100
AcDbSymbolTableRecord
100
AcDbTextStyleTableRecord
  2
KX-STANDARD
 70
     0
 40
0.0
 41
1.0
 50
0.0
 71
     0
 42
2.5
  3
monospace 821 bold bt
  4

  0
ENDTAB
  0
TABLE
  2
VIEW
  5
6
330
0
100
AcDbSymbolTable
 70
     0
  0
ENDTAB
  0
TABLE
  2
UCS
  5
7
330
0
100
AcDbSymbolTable
 70
     0
  0
ENDTAB
  0
TABLE
  2
APPID
  5
9
330
0
100
AcDbSymbolTable
 70
     1
  0
APPID
  5
217
330
9
100
AcDbSymbolTableRecord
100
AcDbRegAppTableRecord
  2
ACAD
 70
     0
  0
ENDTAB
  0
TABLE
  2
DIMSTYLE
  5
A
330
0
100
AcDbSymbolTable
 70
     6
100
AcDbDimStyleTable
  0
DIMSTYLE
105
225
330
A
100
AcDbSymbolTableRecord
100
AcDbDimStyleTableRecord
  2
STANDARD
 70
     0
 41
2.5
 47
0.01
 48
0.01
 73
     0
 74
     0
 77
     1
 78
     8
140
3.5
178
     7
271
     3
272
     3
284
     8
340
11
341
21A
342
21A
343
21A
344
21A
  0
DIMSTYLE
105
226
330
A
100
AcDbSymbolTableRecord
100
AcDbDimStyleTableRecord
  2
DIMSTYLE_1
 70
     0
 41
2.5
 73
     0
 74
     0
 77
     1
 78
     8
140
3.5
178
     7
271
     3
272
     3
284
     8
340
11
341
21A
342
21A
343
21A
344
21A
  0
DIMSTYLE
105
227
330
A
100
AcDbSymbolTableRecord
100
AcDbDimStyleTableRecord
  2
DIMSTYLE_2
 70
     0
 41
2.5
 73
     0
 74
     0
 77
     1
 78
     8
140
3.5
271
     3
272
     3
284
     8
340
11
341
21A
342
21A
343
21A
344
21A
  0
DIMSTYLE
105
228
330
A
100
AcDbSymbolTableRecord
100
AcDbDimStyleTableRecord
  2
DIMSTYLE_3
 70
     0
 41
2.5
 73
     0
 74
     0
 77
     1
 78
     8
140
3.5
178
     7
284
     8
340
11
341
21A
342
21A
343
21A
344
21A
  0
DIMSTYLE
105
229
330
A
100
AcDbSymbolTableRecord
100
AcDbDimStyleTableRecord
  2
DIMSTYLE_4
 70
     0
 41
2.5
 73
     0
 74
     0
 77
     1
 78
     8
140
3.5
271
     2
272
     2
284
     8
340
11
341
21A
342
21A
343
21A
344
21A
  0
DIMSTYLE
105
22A
330
A
100
AcDbSymbolTableRecord
100
AcDbDimStyleTableRecord
  2
DIMSTYLE_5
 70
     0
 41
2.5
 73
     0
 74
     0
 77
     1
 78
     8
140
3.5
271
     3
272
     3
284
     8
340
11
341
21A
342
21A
343
21A
344
21A
  0
ENDTAB
  0
TABLE
  2
BLOCK_RECORD
  5
1
330
0
100
AcDbSymbolTable
 70
    11
  0
BLOCK_RECORD
  5
218
330
1
100
AcDbSymbolTableRecord
100
AcDbBlockTableRecord
  2
*Model_Space
340
30A
  0
BLOCK_RECORD
  5
219
330
1
100
AcDbSymbolTableRecord
100
AcDbBlockTableRecord
  2
*Paper_Space
340
30B
  0
BLOCK_RECORD
  5
21A
330
1
100
AcDbSymbolTableRecord
100
AcDbBlockTableRecord
  2
_FILLED
340
0
  0
BLOCK_RECORD
  5
21B
330
1
100
AcDbSymbolTableRecord
100
AcDbBlockTableRecord
  2
*D1
340
0
  0
BLOCK_RECORD
  5
21C
330
1
100
AcDbSymbolTableRecord
100
AcDbBlockTableRecord
  2
*D2
340
0
  0
BLOCK_RECORD
  5
21D
330
1
100
AcDbSymbolTableRecord
100
AcDbBlockTableRecord
  2
*D3
340
0
  0
BLOCK_RECORD
  5
21E
330
1
100
AcDbSymbolTableRecord
100
AcDbBlockTableRecord
  2
*D4
340
0
  0
BLOCK_RECORD
  5
21F
330
1
100
AcDbSymbolTableRecord
100
AcDbBlockTableRecord
  2
*D5
340
0
  0
BLOCK_RECORD
  5
220
330
1
100
AcDbSymbolTableRecord
100
AcDbBlockTableRecord
  2
*D6
340
0
  0
BLOCK_RECORD
  5
221
330
1
100
AcDbSymbolTableRecord
100
AcDbBlockTableRecord
  2
*D7
340
0
  0
BLOCK_RECORD
  5
222
330
1
100
AcDbSymbolTableRecord
100
AcDbBlockTableRecord
  2
*D8
340
0
  0
BLOCK_RECORD
  5
223
330
1
100
AcDbSymbolTableRecord
100
AcDbBlockTableRecord
  2
*D9
340
0
  0
BLOCK_RECORD
  5
224
330
1
100
AcDbSymbolTableRecord
100
AcDbBlockTableRecord
  2
NULLPUNKT_BL0
340
0
  0
ENDTAB
  0
ENDSEC
  0
SECTION
  2
BLOCKS
  0
BLOCK
  5
20
330
218
100
AcDbEntity
  8
0
100
AcDbBlockBegin
  2
*Model_Space
 70
     0
 10
0.0
 20
0.0
 30
0.0
  3
*Model_Space
  1

  0
ENDBLK
  5
21
330
218
100
AcDbEntity
  8
0
100
AcDbBlockEnd
  0
BLOCK
  5
1C
330
219
100
AcDbEntity
 67
     1
  8
0
100
AcDbBlockBegin
  2
*Paper_Space
 70
     0
 10
0.0
 20
0.0
 30
0.0
  3
*Paper_Space
  1

  0
ENDBLK
  5
1D
330
219
100
AcDbEntity
 67
     1
  8
0
100
AcDbBlockEnd
  0
BLOCK
  5
23C
330
21A
100
AcDbEntity
  8
7
100
AcDbBlockBegin
  2
_FILLED
 70
     0
 10
0.0
 20
0.0
 30
0.0
  3
_FILLED
  1

  0
SOLID
  5
23D
330
21A
100
AcDbEntity
  8
7
100
AcDbTrace
 10
0.0
 20
0.0
 30
0.0
 11
-1.0
 21
0.132
 31
0.0
 12
-1.0
 22
-0.132
 32
0.0
 13
-1.0
 23
-0.132
 33
0.0
  0
ENDBLK
  5
23E
330
21A
100
AcDbEntity
  8
7
100
AcDbBlockEnd
  0
BLOCK
  5
23F
330
21B
100
AcDbEntity
  8
7
100
AcDbBlockBegin
  2
*D1
 70
     1
 10
0.0
 20
0.0
 30
0.0
  3
*D1
  1

  0
MTEXT
  5
240
330
21B
100
AcDbEntity
  8
SK2
100
AcDbMText
 10
-14.375
 20
0.0
 30
0.0
 40
3.5
 41
10.2666666667
 71
     2
 72
     1
  1
{\Fgdt;%%c}\FMONOS.TTF;27
 11
0.0
 21
1.0
 31
0.0
 73
     1
 44
0.9
  0
LINE
  5
241
330
21B
100
AcDbEntity
  8
SK2
100
AcDbLine
 10
0.49876028
 20
-13.5
 30
0.0
 11
-12.0
 21
-13.5
 31
0.0
  0
LINE
  5
242
330
21B
100
AcDbEntity
  8
SK2
100
AcDbLine
 10
0.49876028
 20
13.5
 30
0.0
 11
-12.0
 21
13.5
 31
0.0
  0
SOLID
  5
322
330
21B
100
AcDbEntity
  8
SK2
100
AcDbTrace
 10
-10.0
 20
-13.5
 30
0.0
 11
-9.67
 21
-11.0
 31
0.0
 12
-10.33
 22
-11.0
 32
0.0
 13
-10.33
 23
-11.0
 33
0.0
  0
SOLID
  5
323
330
21B
100
AcDbEntity
  8
SK2
100
AcDbTrace
 10
-10.0
 20
13.5
 30
0.0
 11
-10.33
 21
11.0
 31
0.0
 12
-9.67
 22
11.0
 32
0.0
 13
-9.67
 23
11.0
 33
0.0
  0
LWPOLYLINE
  5
4F2
330
21B
100
AcDbEntity
  8
SK2
100
AcDbPolyline
 90
        3
 70
     0
 43
0.0
 10
-10.0
 20
-13.5
 10
-10.0
 20
0.0
 10
-10.0
 20
13.5
  0
ENDBLK
  5
247
330
21B
100
AcDbEntity
  8
7
100
AcDbBlockEnd
  0
BLOCK
  5
248
330
21C
100
AcDbEntity
  8
7
100
AcDbBlockBegin
  2
*D2
 70
     1
 10
0.0
 20
0.0
 30
0.0
  3
*D2
  1

  0
MTEXT
  5
249
330
21C
100
AcDbEntity
  8
2
100
AcDbMText
 10
25.0
 20
81.7174427225
 30
0.0
 40
3.5
 41
5.6
 71
     2
 72
     1
  1
50
 73
     1
 44
0.9
  0
LINE
  5
24A
330
21C
100
AcDbEntity
  8
2
100
AcDbLine
 10
0.0
 20
34.2057893079
 30
0.0
 11
0.0
 21
79.3424427225
 31
0.0
  0
LINE
  5
24B
330
21C
100
AcDbEntity
  8
2
100
AcDbLine
 10
50.0
 20
22.5080477462
 30
0.0
 11
50.0
 21
79.3424427225
 31
0.0
  0
SOLID
  5
324
330
21C
100
AcDbEntity
  8
2
100
AcDbTrace
 10
0.0
 20
77.3424427225
 30
0.0
 11
2.5
 21
77.0124427225
 31
0.0
 12
2.5
 22
77.6724427225
 32
0.0
 13
2.5
 23
77.6724427225
 33
0.0
  0
SOLID
  5
325
330
21C
100
AcDbEntity
  8
2
100
AcDbTrace
 10
50.0
 20
77.3424427225
 30
0.0
 11
47.5
 21
77.6724427225
 31
0.0
 12
47.5
 22
77.0124427225
 32
0.0
 13
47.5
 23
77.0124427225
 33
0.0
  0
LWPOLYLINE
  5
4F3
330
21C
100
AcDbEntity
  8
2
100
AcDbPolyline
 90
        3
 70
     0
 43
0.0
 10
0.0
 20
77.3424427225
 10
25.0
 20
77.3424427225
 10
50.0
 20
77.3424427225
  0
ENDBLK
  5
250
330
21C
100
AcDbEntity
  8
7
100
AcDbBlockEnd
  0
BLOCK
  5
251
330
21D
100
AcDbEntity
  8
7
100
AcDbBlockBegin
  2
*D3
 70
     1
 10
0.0
 20
0.0
 30
0.0
  3
*D3
  1

  0
MTEXT
  5
252
330
21D
100
AcDbEntity
  8
2
100
AcDbMText
 10
75.165
 20
0.0
 30
0.0
 40
3.5
 41
10.2666666667
 71
     2
 72
     1
  1
{\Fgdt;%%c}\FMONOS.TTF;45
 11
0.0
 21
1.0
 31
0.0
 73
     1
 44
0.9
  0
LINE
  5
253
330
21D
100
AcDbEntity
  8
2
100
AcDbLine
 10
50.5
 20
-22.5
 30
0.0
 11
81.54
 21
-22.5
 31
0.0
  0
LINE
  5
254
330
21D
100
AcDbEntity
  8
2
100
AcDbLine
 10
49.9945396259
 20
22.5
 30
0.0
 11
81.54
 21
22.5
 31
0.0
  0
SOLID
  5
326
330
21D
100
AcDbEntity
  8
2
100
AcDbTrace
 10
79.54
 20
-22.5
 30
0.0
 11
79.87
 21
-20.0
 31
0.0
 12
79.21000000000001
 22
-20.0
 32
0.0
 13
79.21000000000001
 23
-20.0
 33
0.0
  0
SOLID
  5
327
330
21D
100
AcDbEntity
  8
2
100
AcDbTrace
 10
79.54
 20
22.5
 30
0.0
 11
79.21000000000001
 21
20.0
 31
0.0
 12
79.87
 22
20.0
 32
0.0
 13
79.87
 23
20.0
 33
0.0
  0
LWPOLYLINE
  5
4F4
330
21D
100
AcDbEntity
  8
2
100
AcDbPolyline
 90
        3
 70
     0
 43
0.0
 10
79.54
 20
-22.5
 10
79.54
 20
0.0
 10
79.54
 20
22.5
  0
ENDBLK
  5
259
330
21D
100
AcDbEntity
  8
7
100
AcDbBlockEnd
  0
BLOCK
  5
25A
330
21E
100
AcDbEntity
  8
7
100
AcDbBlockBegin
  2
*D4
 70
     1
 10
0.0
 20
0.0
 30
0.0
  3
*D4
  1

  0
MTEXT
  5
25B
330
21E
100
AcDbEntity
  8
SK2
100
AcDbMText
 10
58.165
 20
0.0
 30
0.0
 40
3.5
 41
10.2666666667
 71
     2
 72
     1
  1
{\Fgdt;%%c}\FMONOS.TTF;13
 11
0.0
 21
1.0
 31
0.0
 73
     1
 44
0.9
  0
LINE
  5
25C
330
21E
100
AcDbEntity
  8
SK2
100
AcDbLine
 10
29.5585382008
 20
-6.5
 30
0.0
 11
64.54
 21
-6.5
 31
0.0
  0
LINE
  5
25D
330
21E
100
AcDbEntity
  8
SK2
100
AcDbLine
 10
29.1763322488
 20
6.5
 30
0.0
 11
64.54
 21
6.5
 31
0.0
  0
SOLID
  5
328
330
21E
100
AcDbEntity
  8
SK2
100
AcDbTrace
 10
62.54
 20
-6.5
 30
0.0
 11
62.87
 21
-4.0
 31
0.0
 12
62.21
 22
-4.0
 32
0.0
 13
62.21
 23
-4.0
 33
0.0
  0
SOLID
  5
329
330
21E
100
AcDbEntity
  8
SK2
100
AcDbTrace
 10
62.54
 20
6.5
 30
0.0
 11
62.21
 21
4.0
 31
0.0
 12
62.87
 22
4.0
 32
0.0
 13
62.87
 23
4.0
 33
0.0
  0
LWPOLYLINE
  5
4F5
330
21E
100
AcDbEntity
  8
SK2
100
AcDbPolyline
 90
        3
 70
     0
 43
0.0
 10
62.54
 20
-6.5
 10
62.54
 20
0.0
 10
62.54
 20
6.5
  0
ENDBLK
  5
262
330
21E
100
AcDbEntity
  8
7
100
AcDbBlockEnd
  0
BLOCK
  5
263
330
21F
100
AcDbEntity
  8
7
100
AcDbBlockBegin
  2
*D5
 70
     1
 10
0.0
 20
0.0
 30
0.0
  3
*D5
  1

  0
MTEXT
  5
264
330
21F
100
AcDbEntity
  8
SK2
100
AcDbMText
 10
66.665
 20
0.0
 30
0.0
 40
3.5
 41
10.2666666667
 71
     2
 72
     1
  1
{\Fgdt;%%c}\FMONOS.TTF;20
 11
0.0
 21
1.0
 31
0.0
 73
     1
 44
0.9
  0
LINE
  5
265
330
21F
100
AcDbEntity
  8
SK2
100
AcDbLine
 10
41.0
 20
-10.0
 30
0.0
 11
73.04
 21
-10.0
 31
0.0
  0
LINE
  5
266
330
21F
100
AcDbEntity
  8
SK2
100
AcDbLine
 10
41.0
 20
10.0
 30
0.0
 11
73.04
 21
10.0
 31
0.0
  0
SOLID
  5
32A
330
21F
100
AcDbEntity
  8
SK2
100
AcDbTrace
 10
71.04
 20
-10.0
 30
0.0
 11
71.37
 21
-7.5
 31
0.0
 12
70.71000000000001
 22
-7.5
 32
0.0
 13
70.71000000000001
 23
-7.5
 33
0.0
  0
SOLID
  5
32B
330
21F
100
AcDbEntity
  8
SK2
100
AcDbTrace
 10
71.04
 20
10.0
 30
0.0
 11
70.71000000000001
 21
7.5
 31
0.0
 12
71.37
 22
7.5
 32
0.0
 13
71.37
 23
7.5
 33
0.0
  0
LWPOLYLINE
  5
4F6
330
21F
100
AcDbEntity
  8
SK2
100
AcDbPolyline
 90
        3
 70
     0
 43
0.0
 10
71.04
 20
-10.0
 10
71.04
 20
0.0
 10
71.04
 20
10.0
  0
ENDBLK
  5
26B
330
21F
100
AcDbEntity
  8
7
100
AcDbBlockEnd
  0
BLOCK
  5
26C
330
220
100
AcDbEntity
  8
7
100
AcDbBlockBegin
  2
*D6
 70
     1
 10
0.0
 20
0.0
 30
0.0
  3
*D6
  1

  0
MTEXT
  5
26D
330
220
100
AcDbEntity
  8
SK2
100
AcDbMText
 10
11.0
 20
-52.322643
 30
0.0
 40
3.5
 41
5.6
 71
     2
 72
     1
  1
22
 73
     1
 44
0.9
  0
LINE
  5
26E
330
220
100
AcDbEntity
  8
SK2
100
AcDbLine
 10
0.0
 20
-34.4100295938
 30
0.0
 11
0.0
 21
-58.697643
 31
0.0
  0
LINE
  5
26F
330
220
100
AcDbEntity
  8
SK2
100
AcDbLine
 10
22.0
 20
-13.8813895938
 30
0.0
 11
22.0
 21
-58.697643
 31
0.0
  0
SOLID
  5
32C
330
220
100
AcDbEntity
  8
SK2
100
AcDbTrace
 10
0.0
 20
-56.697643
 30
0.0
 11
2.5
 21
-57.027643
 31
0.0
 12
2.5
 22
-56.367643
 32
0.0
 13
2.5
 23
-56.367643
 33
0.0
  0
SOLID
  5
32D
330
220
100
AcDbEntity
  8
SK2
100
AcDbTrace
 10
22.0
 20
-56.697643
 30
0.0
 11
19.5
 21
-56.367643
 31
0.0
 12
19.5
 22
-57.027643
 32
0.0
 13
19.5
 23
-57.027643
 33
0.0
  0
LWPOLYLINE
  5
4F7
330
220
100
AcDbEntity
  8
SK2
100
AcDbPolyline
 90
        3
 70
     0
 43
0.0
 10
0.0
 20
-56.697643
 10
11.0
 20
-56.697643
 10
22.0
 20
-56.697643
  0
ENDBLK
  5
274
330
220
100
AcDbEntity
  8
7
100
AcDbBlockEnd
  0
BLOCK
  5
275
330
221
100
AcDbEntity
  8
7
100
AcDbBlockBegin
  2
*D7
 70
     1
 10
0.0
 20
0.0
 30
0.0
  3
*D7
  1

  0
MTEXT
  5
276
330
221
100
AcDbEntity
  8
2
100
AcDbMText
 10
83.665
 20
0.0
 30
0.0
 40
3.5
 41
15.8666666667
 71
     2
 72
     1
  1
{\Fgdt;%%c}\FMONOS.TTF;93.4
 11
0.0
 21
1.0
 31
0.0
 73
     1
 44
0.9
  0
LINE
  5
277
330
221
100
AcDbEntity
  8
2
100
AcDbLine
 10
43.5340868657
 20
-46.7
 30
0.0
 11
90.04
 21
-46.7
 31
0.0
  0
LINE
  5
278
330
221
100
AcDbEntity
  8
2
100
AcDbLine
 10
43.4571203471
 20
46.7
 30
0.0
 11
90.04
 21
46.7
 31
0.0
  0
SOLID
  5
32E
330
221
100
AcDbEntity
  8
2
100
AcDbTrace
 10
88.04
 20
-46.7
 30
0.0
 11
88.37
 21
-44.2
 31
0.0
 12
87.71000000000001
 22
-44.2
 32
0.0
 13
87.71000000000001
 23
-44.2
 33
0.0
  0
SOLID
  5
32F
330
221
100
AcDbEntity
  8
2
100
AcDbTrace
 10
88.04
 20
46.7
 30
0.0
 11
87.71000000000001
 21
44.2
 31
0.0
 12
88.37
 22
44.2
 32
0.0
 13
88.37
 23
44.2
 33
0.0
  0
LWPOLYLINE
  5
4F8
330
221
100
AcDbEntity
  8
2
100
AcDbPolyline
 90
        3
 70
     0
 43
0.0
 10
88.04
 20
-46.7
 10
88.04
 20
0.0
 10
88.04
 20
46.7
  0
ENDBLK
  5
27D
330
221
100
AcDbEntity
  8
7
100
AcDbBlockEnd
  0
BLOCK
  5
27E
330
222
100
AcDbEntity
  8
7
100
AcDbBlockBegin
  2
*D8
 70
     1
 10
0.0
 20
0.0
 30
0.0
  3
*D8
  1

  0
MTEXT
  5
27F
330
222
100
AcDbEntity
  8
SK2
100
AcDbMText
 10
-22.875
 20
0.0
 30
0.0
 40
3.5
 41
10.2666666667
 71
     2
 72
     1
  1
{\Fgdt;%%c}\FMONOS.TTF;70
 11
0.0
 21
1.0
 31
0.0
 73
     1
 44
0.9
  0
LINE
  5
280
330
222
100
AcDbEntity
  8
SK2
100
AcDbLine
 10
1.5
 20
-35.0
 30
0.0
 11
1.0
 21
-35.0
 31
0.0
  0
LINE
  5
281
330
222
100
AcDbEntity
  8
SK2
100
AcDbLine
 10
-1.0
 20
-35.0
 30
0.0
 11
-20.5
 21
-35.0
 31
0.0
  0
LINE
  5
282
330
222
100
AcDbEntity
  8
SK2
100
AcDbLine
 10
1.5
 20
35.0
 30
0.0
 11
-20.5
 21
35.0
 31
0.0
  0
SOLID
  5
330
330
222
100
AcDbEntity
  8
SK2
100
AcDbTrace
 10
-18.5
 20
-35.0
 30
0.0
 11
-18.17
 21
-32.5
 31
0.0
 12
-18.83
 22
-32.5
 32
0.0
 13
-18.83
 23
-32.5
 33
0.0
  0
SOLID
  5
331
330
222
100
AcDbEntity
  8
SK2
100
AcDbTrace
 10
-18.5
 20
35.0
 30
0.0
 11
-18.83
 21
32.5
 31
0.0
 12
-18.17
 22
32.5
 32
0.0
 13
-18.17
 23
32.5
 33
0.0
  0
LWPOLYLINE
  5
4F9
330
222
100
AcDbEntity
  8
SK2
100
AcDbPolyline
 90
        3
 70
     0
 43
0.0
 10
-18.5
 20
-35.0
 10
-18.5
 20
0.0
 10
-18.5
 20
35.0
  0
ENDBLK
  5
287
330
222
100
AcDbEntity
  8
7
100
AcDbBlockEnd
  0
BLOCK
  5
288
330
223
100
AcDbEntity
  8
7
100
AcDbBlockBegin
  2
*D9
 70
     1
 10
0.0
 20
0.0
 30
0.0
  3
*D9
  1

  0
MTEXT
  5
289
330
223
100
AcDbEntity
  8
2
100
AcDbMText
 10
43.9425876077
 20
68.5106150914
 30
0.0
 40
3.5
 41
7.9333333333
 71
     2
 72
     1
  1
15\Fgdt;{\Fgdt;~}
 11
0.9914448614
 21
0.1305261922
 31
0.0
 73
     1
 44
0.9
  0
LINE
  5
28A
330
223
100
AcDbEntity
  8
2
100
AcDbLine
 10
50.0
 20
22.4978836817
 30
0.0
 11
50.0
 21
63.9076388753
 31
0.0
  0
LINE
  5
28B
330
223
100
AcDbEntity
  8
2
100
AcDbLine
 10
43.4836374035
 20
46.8193962907
 30
0.0
 11
39.2829144463
 21
62.4967077953
 31
0.0
  0
SOLID
  5
28F
330
223
100
AcDbEntity
  8
2
100
AcDbTrace
 10
52.5092081867
 20
62.1581868267
 30
0.0
 11
50.0
 21
61.9076388753
 31
0.0
 12
52.4882766697
 22
61.4985188256
 32
0.0
 13
52.4882766697
 23
61.4985188256
 33
0.0
  0
SOLID
  5
290
330
223
100
AcDbEntity
  8
2
100
AcDbTrace
 10
37.5029498989
 20
59.5256631291
 30
0.0
 11
39.8005525365
 21
60.5648561428
 31
0.0
 12
37.311996964
 22
60.1574360128
 32
0.0
 13
37.311996964
 23
60.1574360128
 33
0.0
  0
LWPOLYLINE
  5
4FA
330
223
100
AcDbEntity
  8
2
100
AcDbPolyline
 90
        4
 70
     0
 43
0.0
 10
54.98659556983204
 20
61.59086678943034
 42
0.0317303809676069
 10
50.0
 20
61.9076388753
 42
0.0655434628152383
 10
39.80055253654987
 20
60.56485614272536
 42
0.0317303809676069
 10
35.06585773917038
 20
58.96825190024001
  0
ENDBLK
  5
291
330
223
100
AcDbEntity
  8
7
100
AcDbBlockEnd
  0
BLOCK
  5
22B
330
224
100
AcDbEntity
  8
7
100
AcDbBlockBegin
  2
NULLPUNKT_BL0
 70
     0
 10
0.0
 20
0.0
 30
0.0
  3
NULLPUNKT_BL0
  1

  0
SOLID
  5
332
330
224
100
AcDbEntity
  8
1
100
AcDbTrace
 10
-1.4917828431
 20
0.0
 30
0.0
 11
-1.5
 21
0.0
 31
0.0
 12
-1.4917828431
 22
0.1567926949
 32
0.0
 13
-1.4917828431
 23
0.1567926949
 33
0.0
  0
SOLID
  5
333
330
224
100
AcDbEntity
  8
1
100
AcDbTrace
 10
1.4917828431
 20
0.0
 30
0.0
 11
1.4917828431
 21
0.1567926949
 31
0.0
 12
1.4672214011
 22
0.0
 32
0.0
 13
1.4672214011
 23
0.0
 33
0.0
210
0.0
220
0.0
230
-1.0
  0
SOLID
  5
334
330
224
100
AcDbEntity
  8
1
100
AcDbTrace
 10
-1.4672214011
 20
0.0
 30
0.0
 11
-1.4917828431
 21
0.1567926949
 31
0.0
 12
-1.4672214011
 22
0.3118675362
 32
0.0
 13
-1.4672214011
 23
0.3118675362
 33
0.0
  0
SOLID
  5
335
330
224
100
AcDbEntity
  8
1
100
AcDbTrace
 10
1.4672214011
 20
0.0
 30
0.0
 11
1.4672214011
 21
0.3118675362
 31
0.0
 12
1.4265847744
 22
0.0
 32
0.0
 13
1.4265847744
 23
0.0
 33
0.0
210
0.0
220
0.0
230
-1.0
  0
SOLID
  5
336
330
224
100
AcDbEntity
  8
1
100
AcDbTrace
 10
-1.4265847744
 20
0.0
 30
0.0
 11
-1.4672214011
 21
0.3118675362
 31
0.0
 12
-1.4265847744
 22
0.4635254916
 32
0.0
 13
-1.4265847744
 23
0.4635254916
 33
0.0
  0
SOLID
  5
337
330
224
100
AcDbEntity
  8
1
100
AcDbTrace
 10
1.4265847744
 20
0.0
 30
0.0
 11
1.4265847744
 21
0.4635254916
 31
0.0
 12
1.3703181865
 22
0.0
 32
0.0
 13
1.3703181865
 23
0.0
 33
0.0
210
0.0
220
0.0
230
-1.0
  0
SOLID
  5
338
330
224
100
AcDbEntity
  8
1
100
AcDbTrace
 10
-1.3703181865
 20
0.0
 30
0.0
 11
-1.4265847744
 21
0.4635254916
 31
0.0
 12
-1.3703181865
 22
0.6101049646
 32
0.0
 13
-1.3703181865
 23
0.6101049646
 33
0.0
  0
SOLID
  5
339
330
224
100
AcDbEntity
  8
1
100
AcDbTrace
 10
1.3703181865
 20
0.0
 30
0.0
 11
1.3703181865
 21
0.6101049646
 31
0.0
 12
1.2990381057
 22
0.0
 32
0.0
 13
1.2990381057
 23
0.0
 33
0.0
210
0.0
220
0.0
230
-1.0
  0
SOLID
  5
33A
330
224
100
AcDbEntity
  8
1
100
AcDbTrace
 10
-1.2990381057
 20
0.0
 30
0.0
 11
-1.3703181865
 21
0.6101049646
 31
0.0
 12
-1.2990381057
 22
0.75
 32
0.0
 13
-1.2990381057
 23
0.75
 33
0.0
  0
SOLID
  5
33B
330
224
100
AcDbEntity
  8
1
100
AcDbTrace
 10
1.2990381057
 20
0.0
 30
0.0
 11
1.2990381057
 21
0.75
 31
0.0
 12
1.2135254916
 22
0.0
 32
0.0
 13
1.2135254916
 23
0.0
 33
0.0
210
0.0
220
0.0
230
-1.0
  0
SOLID
  5
33C
330
224
100
AcDbEntity
  8
1
100
AcDbTrace
 10
-1.2135254916
 20
0.0
 30
0.0
 11
-1.2990381057
 21
0.75
 31
0.0
 12
-1.2135254916
 22
0.8816778784
 32
0.0
 13
-1.2135254916
 23
0.8816778784
 33
0.0
  0
SOLID
  5
33D
330
224
100
AcDbEntity
  8
1
100
AcDbTrace
 10
1.2135254916
 20
0.0
 30
0.0
 11
1.2135254916
 21
0.8816778784
 31
0.0
 12
1.1147172382
 22
0.0
 32
0.0
 13
1.1147172382
 23
0.0
 33
0.0
210
0.0
220
0.0
230
-1.0
  0
SOLID
  5
33E
330
224
100
AcDbEntity
  8
1
100
AcDbTrace
 10
-1.1147172382
 20
0.0
 30
0.0
 11
-1.2135254916
 21
0.8816778784
 31
0.0
 12
-1.1147172382
 22
1.0036959095
 32
0.0
 13
-1.1147172382
 23
1.0036959095
 33
0.0
  0
SOLID
  5
33F
330
224
100
AcDbEntity
  8
1
100
AcDbTrace
 10
1.1147172382
 20
0.0
 30
0.0
 11
1.1147172382
 21
1.0036959095
 31
0.0
 12
1.0036959095
 22
0.0
 32
0.0
 13
1.0036959095
 23
0.0
 33
0.0
210
0.0
220
0.0
230
-1.0
  0
SOLID
  5
340
330
224
100
AcDbEntity
  8
1
100
AcDbTrace
 10
-1.0036959095
 20
0.0
 30
0.0
 11
-1.1147172382
 21
1.0036959095
 31
0.0
 12
-1.0036959095
 22
1.1147172382
 32
0.0
 13
-1.0036959095
 23
1.1147172382
 33
0.0
  0
SOLID
  5
341
330
224
100
AcDbEntity
  8
1
100
AcDbTrace
 10
1.0036959095
 20
0.0
 30
0.0
 11
1.0036959095
 21
1.1147172382
 31
0.0
 12
0.8816778784
 22
0.0
 32
0.0
 13
0.8816778784
 23
0.0
 33
0.0
210
0.0
220
0.0
230
-1.0
  0
SOLID
  5
342
330
224
100
AcDbEntity
  8
1
100
AcDbTrace
 10
-0.8816778784
 20
0.0
 30
0.0
 11
-1.0036959095
 21
1.1147172382
 31
0.0
 12
-0.8816778784
 22
1.2135254916
 32
0.0
 13
-0.8816778784
 23
1.2135254916
 33
0.0
  0
SOLID
  5
343
330
224
100
AcDbEntity
  8
1
100
AcDbTrace
 10
0.8816778784
 20
0.0
 30
0.0
 11
0.8816778784
 21
1.2135254916
 31
0.0
 12
0.75
 22
0.0
 32
0.0
 13
0.75
 23
0.0
 33
0.0
210
0.0
220
0.0
230
-1.0
  0
SOLID
  5
344
330
224
100
AcDbEntity
  8
1
100
AcDbTrace
 10
-0.75
 20
0.0
 30
0.0
 11
-0.8816778784
 21
1.2135254916
 31
0.0
 12
-0.75
 22
1.2990381057
 32
0.0
 13
-0.75
 23
1.2990381057
 33
0.0
  0
SOLID
  5
345
330
224
100
AcDbEntity
  8
1
100
AcDbTrace
 10
0.75
 20
0.0
 30
0.0
 11
0.75
 21
1.2990381057
 31
0.0
 12
0.6101049646
 22
0.0
 32
0.0
 13
0.6101049646
 23
0.0
 33
0.0
210
0.0
220
0.0
230
-1.0
  0
SOLID
  5
346
330
224
100
AcDbEntity
  8
1
100
AcDbTrace
 10
-0.6101049646
 20
0.0
 30
0.0
 11
-0.75
 21
1.2990381057
 31
0.0
 12
-0.6101049646
 22
1.3703181865
 32
0.0
 13
-0.6101049646
 23
1.3703181865
 33
0.0
  0
SOLID
  5
347
330
224
100
AcDbEntity
  8
1
100
AcDbTrace
 10
0.6101049646
 20
0.0
 30
0.0
 11
0.6101049646
 21
1.3703181865
 31
0.0
 12
0.4635254916
 22
0.0
 32
0.0
 13
0.4635254916
 23
0.0
 33
0.0
210
0.0
220
0.0
230
-1.0
  0
SOLID
  5
348
330
224
100
AcDbEntity
  8
1
100
AcDbTrace
 10
-0.4635254916
 20
0.0
 30
0.0
 11
-0.6101049646
 21
1.3703181865
 31
0.0
 12
-0.4635254916
 22
1.4265847744
 32
0.0
 13
-0.4635254916
 23
1.4265847744
 33
0.0
  0
SOLID
  5
349
330
224
100
AcDbEntity
  8
1
100
AcDbTrace
 10
0.4635254916
 20
0.0
 30
0.0
 11
0.4635254916
 21
1.4265847744
 31
0.0
 12
0.3118675362
 22
0.0
 32
0.0
 13
0.3118675362
 23
0.0
 33
0.0
210
0.0
220
0.0
230
-1.0
  0
SOLID
  5
34A
330
224
100
AcDbEntity
  8
1
100
AcDbTrace
 10
-0.3118675362
 20
0.0
 30
0.0
 11
-0.4635254916
 21
1.4265847744
 31
0.0
 12
-0.3118675362
 22
1.4672214011
 32
0.0
 13
-0.3118675362
 23
1.4672214011
 33
0.0
  0
SOLID
  5
34B
330
224
100
AcDbEntity
  8
1
100
AcDbTrace
 10
0.3118675362
 20
0.0
 30
0.0
 11
0.3118675362
 21
1.4672214011
 31
0.0
 12
0.1567926949
 22
0.0
 32
0.0
 13
0.1567926949
 23
0.0
 33
0.0
210
0.0
220
0.0
230
-1.0
  0
SOLID
  5
34C
330
224
100
AcDbEntity
  8
1
100
AcDbTrace
 10
-0.1567926949
 20
0.0
 30
0.0
 11
-0.3118675362
 21
1.4672214011
 31
0.0
 12
-0.1567926949
 22
1.4917828431
 32
0.0
 13
-0.1567926949
 23
1.4917828431
 33
0.0
  0
SOLID
  5
34D
330
224
100
AcDbEntity
  8
1
100
AcDbTrace
 10
0.1567926949
 20
0.0
 30
0.0
 11
0.1567926949
 21
1.4917828431
 31
0.0
 12
0.0
 22
0.0
 32
0.0
 13
0.0
 23
0.0
 33
0.0
210
0.0
220
0.0
230
-1.0
  0
SOLID
  5
34E
330
224
100
AcDbEntity
  8
1
100
AcDbTrace
 10
0.0
 20
0.0
 30
0.0
 11
-0.1567926949
 21
1.4917828431
 31
0.0
 12
0.0
 22
1.5
 32
0.0
 13
0.0
 23
1.5
 33
0.0
  0
SOLID
  5
34F
330
224
100
AcDbEntity
  8
1
100
AcDbTrace
 10
0.0
 20
-1.5
 30
0.0
 11
0.0
 21
0.0
 31
0.0
 12
-0.1567926949
 22
-1.4917828431
 32
0.0
 13
-0.1567926949
 23
-1.4917828431
 33
0.0
210
0.0
220
0.0
230
-1.0
  0
SOLID
  5
350
330
224
100
AcDbEntity
  8
1
100
AcDbTrace
 10
-0.1567926949
 20
-1.4917828431
 30
0.0
 11
0.0
 21
0.0
 31
0.0
 12
-0.1567926949
 22
0.0
 32
0.0
 13
-0.1567926949
 23
0.0
 33
0.0
210
0.0
220
0.0
230
-1.0
  0
SOLID
  5
351
330
224
100
AcDbEntity
  8
1
100
AcDbTrace
 10
-0.1567926949
 20
-1.4917828431
 30
0.0
 11
-0.1567926949
 21
0.0
 31
0.0
 12
-0.3118675362
 22
-1.4672214011
 32
0.0
 13
-0.3118675362
 23
-1.4672214011
 33
0.0
210
0.0
220
0.0
230
-1.0
  0
SOLID
  5
352
330
224
100
AcDbEntity
  8
1
100
AcDbTrace
 10
-0.3118675362
 20
-1.4672214011
 30
0.0
 11
-0.1567926949
 21
0.0
 31
0.0
 12
-0.3118675362
 22
0.0
 32
0.0
 13
-0.3118675362
 23
0.0
 33
0.0
210
0.0
220
0.0
230
-1.0
  0
SOLID
  5
353
330
224
100
AcDbEntity
  8
1
100
AcDbTrace
 10
-0.3118675362
 20
-1.4672214011
 30
0.0
 11
-0.3118675362
 21
0.0
 31
0.0
 12
-0.4635254916
 22
-1.4265847744
 32
0.0
 13
-0.4635254916
 23
-1.4265847744
 33
0.0
210
0.0
220
0.0
230
-1.0
  0
SOLID
  5
354
330
224
100
AcDbEntity
  8
1
100
AcDbTrace
 10
-0.4635254916
 20
-1.4265847744
 30
0.0
 11
-0.3118675362
 21
0.0
 31
0.0
 12
-0.4635254916
 22
0.0
 32
0.0
 13
-0.4635254916
 23
0.0
 33
0.0
210
0.0
220
0.0
230
-1.0
  0
SOLID
  5
355
330
224
100
AcDbEntity
  8
1
100
AcDbTrace
 10
-0.4635254916
 20
-1.4265847744
 30
0.0
 11
-0.4635254916
 21
0.0
 31
0.0
 12
-0.6101049646
 22
-1.3703181865
 32
0.0
 13
-0.6101049646
 23
-1.3703181865
 33
0.0
210
0.0
220
0.0
230
-1.0
  0
SOLID
  5
356
330
224
100
AcDbEntity
  8
1
100
AcDbTrace
 10
-0.6101049646
 20
-1.3703181865
 30
0.0
 11
-0.4635254916
 21
0.0
 31
0.0
 12
-0.6101049646
 22
0.0
 32
0.0
 13
-0.6101049646
 23
0.0
 33
0.0
210
0.0
220
0.0
230
-1.0
  0
SOLID
  5
357
330
224
100
AcDbEntity
  8
1
100
AcDbTrace
 10
-0.6101049646
 20
-1.3703181865
 30
0.0
 11
-0.6101049646
 21
0.0
 31
0.0
 12
-0.75
 22
-1.2990381057
 32
0.0
 13
-0.75
 23
-1.2990381057
 33
0.0
210
0.0
220
0.0
230
-1.0
  0
SOLID
  5
358
330
224
100
AcDbEntity
  8
1
100
AcDbTrace
 10
-0.75
 20
-1.2990381057
 30
0.0
 11
-0.6101049646
 21
0.0
 31
0.0
 12
-0.75
 22
0.0
 32
0.0
 13
-0.75
 23
0.0
 33
0.0
210
0.0
220
0.0
230
-1.0
  0
SOLID
  5
359
330
224
100
AcDbEntity
  8
1
100
AcDbTrace
 10
-0.75
 20
-1.2990381057
 30
0.0
 11
-0.75
 21
0.0
 31
0.0
 12
-0.8816778784
 22
-1.2135254916
 32
0.0
 13
-0.8816778784
 23
-1.2135254916
 33
0.0
210
0.0
220
0.0
230
-1.0
  0
SOLID
  5
35A
330
224
100
AcDbEntity
  8
1
100
AcDbTrace
 10
-0.8816778784
 20
-1.2135254916
 30
0.0
 11
-0.75
 21
0.0
 31
0.0
 12
-0.8816778784
 22
0.0
 32
0.0
 13
-0.8816778784
 23
0.0
 33
0.0
210
0.0
220
0.0
230
-1.0
  0
SOLID
  5
35B
330
224
100
AcDbEntity
  8
1
100
AcDbTrace
 10
-0.8816778784
 20
-1.2135254916
 30
0.0
 11
-0.8816778784
 21
0.0
 31
0.0
 12
-1.0036959095
 22
-1.1147172382
 32
0.0
 13
-1.0036959095
 23
-1.1147172382
 33
0.0
210
0.0
220
0.0
230
-1.0
  0
SOLID
  5
35C
330
224
100
AcDbEntity
  8
1
100
AcDbTrace
 10
-1.0036959095
 20
-1.1147172382
 30
0.0
 11
-0.8816778784
 21
0.0
 31
0.0
 12
-1.0036959095
 22
0.0
 32
0.0
 13
-1.0036959095
 23
0.0
 33
0.0
210
0.0
220
0.0
230
-1.0
  0
SOLID
  5
35D
330
224
100
AcDbEntity
  8
1
100
AcDbTrace
 10
-1.0036959095
 20
-1.1147172382
 30
0.0
 11
-1.0036959095
 21
0.0
 31
0.0
 12
-1.1147172382
 22
-1.0036959095
 32
0.0
 13
-1.1147172382
 23
-1.0036959095
 33
0.0
210
0.0
220
0.0
230
-1.0
  0
SOLID
  5
35E
330
224
100
AcDbEntity
  8
1
100
AcDbTrace
 10
-1.1147172382
 20
-1.0036959095
 30
0.0
 11
-1.0036959095
 21
0.0
 31
0.0
 12
-1.1147172382
 22
0.0
 32
0.0
 13
-1.1147172382
 23
0.0
 33
0.0
210
0.0
220
0.0
230
-1.0
  0
SOLID
  5
35F
330
224
100
AcDbEntity
  8
1
100
AcDbTrace
 10
-1.1147172382
 20
-1.0036959095
 30
0.0
 11
-1.1147172382
 21
0.0
 31
0.0
 12
-1.2135254916
 22
-0.8816778784
 32
0.0
 13
-1.2135254916
 23
-0.8816778784
 33
0.0
210
0.0
220
0.0
230
-1.0
  0
SOLID
  5
360
330
224
100
AcDbEntity
  8
1
100
AcDbTrace
 10
-1.2135254916
 20
-0.8816778784
 30
0.0
 11
-1.1147172382
 21
0.0
 31
0.0
 12
-1.2135254916
 22
0.0
 32
0.0
 13
-1.2135254916
 23
0.0
 33
0.0
210
0.0
220
0.0
230
-1.0
  0
SOLID
  5
361
330
224
100
AcDbEntity
  8
1
100
AcDbTrace
 10
-1.2135254916
 20
-0.8816778784
 30
0.0
 11
-1.2135254916
 21
0.0
 31
0.0
 12
-1.2990381057
 22
-0.75
 32
0.0
 13
-1.2990381057
 23
-0.75
 33
0.0
210
0.0
220
0.0
230
-1.0
  0
SOLID
  5
362
330
224
100
AcDbEntity
  8
1
100
AcDbTrace
 10
-1.2990381057
 20
-0.75
 30
0.0
 11
-1.2135254916
 21
0.0
 31
0.0
 12
-1.2990381057
 22
0.0
 32
0.0
 13
-1.2990381057
 23
0.0
 33
0.0
210
0.0
220
0.0
230
-1.0
  0
SOLID
  5
363
330
224
100
AcDbEntity
  8
1
100
AcDbTrace
 10
-1.2990381057
 20
-0.75
 30
0.0
 11
-1.2990381057
 21
0.0
 31
0.0
 12
-1.3703181865
 22
-0.6101049646
 32
0.0
 13
-1.3703181865
 23
-0.6101049646
 33
0.0
210
0.0
220
0.0
230
-1.0
  0
SOLID
  5
364
330
224
100
AcDbEntity
  8
1
100
AcDbTrace
 10
-1.3703181865
 20
-0.6101049646
 30
0.0
 11
-1.2990381057
 21
0.0
 31
0.0
 12
-1.3703181865
 22
0.0
 32
0.0
 13
-1.3703181865
 23
0.0
 33
0.0
210
0.0
220
0.0
230
-1.0
  0
SOLID
  5
365
330
224
100
AcDbEntity
  8
1
100
AcDbTrace
 10
-1.3703181865
 20
-0.6101049646
 30
0.0
 11
-1.3703181865
 21
0.0
 31
0.0
 12
-1.4265847744
 22
-0.4635254916
 32
0.0
 13
-1.4265847744
 23
-0.4635254916
 33
0.0
210
0.0
220
0.0
230
-1.0
  0
SOLID
  5
366
330
224
100
AcDbEntity
  8
1
100
AcDbTrace
 10
-1.4265847744
 20
-0.4635254916
 30
0.0
 11
-1.3703181865
 21
0.0
 31
0.0
 12
-1.4265847744
 22
0.0
 32
0.0
 13
-1.4265847744
 23
0.0
 33
0.0
210
0.0
220
0.0
230
-1.0
  0
SOLID
  5
367
330
224
100
AcDbEntity
  8
1
100
AcDbTrace
 10
-1.4265847744
 20
-0.4635254916
 30
0.0
 11
-1.4265847744
 21
0.0
 31
0.0
 12
-1.4672214011
 22
-0.3118675362
 32
0.0
 13
-1.4672214011
 23
-0.3118675362
 33
0.0
210
0.0
220
0.0
230
-1.0
  0
SOLID
  5
368
330
224
100
AcDbEntity
  8
1
100
AcDbTrace
 10
-1.4672214011
 20
-0.3118675362
 30
0.0
 11
-1.4265847744
 21
0.0
 31
0.0
 12
-1.4672214011
 22
0.0
 32
0.0
 13
-1.4672214011
 23
0.0
 33
0.0
210
0.0
220
0.0
230
-1.0
  0
SOLID
  5
369
330
224
100
AcDbEntity
  8
1
100
AcDbTrace
 10
-1.4672214011
 20
-0.3118675362
 30
0.0
 11
-1.4672214011
 21
0.0
 31
0.0
 12
-1.4917828431
 22
-0.1567926949
 32
0.0
 13
-1.4917828431
 23
-0.1567926949
 33
0.0
210
0.0
220
0.0
230
-1.0
  0
SOLID
  5
36A
330
224
100
AcDbEntity
  8
1
100
AcDbTrace
 10
-1.4917828431
 20
-0.1567926949
 30
0.0
 11
-1.4672214011
 21
0.0
 31
0.0
 12
-1.4917828431
 22
0.0
 32
0.0
 13
-1.4917828431
 23
0.0
 33
0.0
210
0.0
220
0.0
230
-1.0
  0
SOLID
  5
36B
330
224
100
AcDbEntity
  8
1
100
AcDbTrace
 10
-1.4917828431
 20
-0.1567926949
 30
0.0
 11
-1.4917828431
 21
0.0
 31
0.0
 12
-1.5
 22
0.0
 32
0.0
 13
-1.5
 23
0.0
 33
0.0
210
0.0
220
0.0
230
-1.0
  0
LWPOLYLINE
  5
4FB
330
224
100
AcDbEntity
  8
1
100
AcDbPolyline
 90
       44
 70
     0
 43
0.0
 10
1.5
 20
0.0
 10
1.4917828431
 20
-0.1567926949
 10
1.4672214011
 20
-0.3118675362
 10
1.4265847744
 20
-0.4635254916
 10
1.3703181865
 20
-0.6101049646
 10
1.2990381057
 20
-0.75
 10
1.2135254916
 20
-0.8816778784
 10
1.1147172382
 20
-1.0036959095
 10
1.0036959095
 20
-1.1147172382
 10
0.8816778784
 20
-1.2135254916
 10
0.75
 20
-1.2990381057
 10
0.6101049646
 20
-1.3703181865
 10
0.4635254916
 20
-1.4265847744
 10
0.3118675362
 20
-1.4672214011
 10
0.1567926949
 20
-1.4917828431
 10
-0.0000000000000003
 20
-1.5
 42
0.414213562373095
 10
1.5
 20
0.0
 42
0.414213562373095
 10
0.0000000000000001
 20
1.5
 42
0.414213562373095
 10
-1.5
 20
0.0000000000000002
 42
0.414213562373095
 10
0.0
 20
-1.5
 10
0.0
 20
0.0
 10
1.5
 20
0.0
 42
-0.414213562373095
 10
-0.0000000000000003
 20
-1.5
 10
0.0
 20
0.0
 10
0.0
 20
1.5
 10
-0.1567926949
 20
1.4917828431
 10
-0.3118675362
 20
1.4672214011
 10
-0.4635254916
 20
1.4265847744
 10
-0.6101049646
 20
1.3703181865
 10
-0.75
 20
1.2990381057
 10
-0.8816778784
 20
1.2135254916
 10
-1.0036959095
 20
1.1147172382
 10
-1.1147172382
 20
1.0036959095
 10
-1.2135254916
 20
0.8816778784
 10
-1.2990381057
 20
0.75
 10
-1.3703181865
 20
0.6101049646
 10
-1.4265847744
 20
0.4635254916
 10
-1.4672214011
 20
0.3118675362
 10
-1.4917828431
 20
0.1567926949
 10
-1.5
 20
0.0
 10
0.0
 20
0.0
 10
1.5
 20
0.0
 10
0.0
 20
0.0
 10
-1.5
 20
0.0
  0
LWPOLYLINE
  5
4FC
330
224
100
AcDbEntity
  8
1
100
AcDbPolyline
 90
        3
 70
     0
 43
0.0
 10
0.0
 20
1.5
 10
0.0
 20
0.0
 10
0.0
 20
-1.5
  0
ENDBLK
  5
23B
330
224
100
AcDbEntity
  8
7
100
AcDbBlockEnd
  0
ENDSEC
  0
SECTION
  2
ENTITIES
  0
DIMENSION
  5
292
330
218
100
AcDbEntity
  8
SK2
100
AcDbDimension
  2
*D1
 10
-10.0
 20
13.5
 30
0.0
 11
-11.4749443853
 21
-2.2945914366
 31
0.0
 70
   160
  1
%%c<>
 71
     2
 42
27.0
  3
DIMSTYLE_1
100
AcDbAlignedDimension
 13
0.49876028
 23
-13.5
 33
0.0
 14
0.49876028
 24
13.5
 34
0.0
 50
90.0
100
AcDbRotatedDimension
  0
DIMENSION
  5
293
330
218
100
AcDbEntity
  8
2
100
AcDbDimension
  2
*D2
 10
50.0
 20
77.3424427225
 30
0.0
 11
22.2
 21
79.9674427225
 31
0.0
 70
   160
 71
     2
 42
50.0
  3
DIMSTYLE_2
100
AcDbAlignedDimension
 13
0.0
 23
34.2057893079
 33
0.0
 14
50.0
 24
22.5080477462
 34
0.0
100
AcDbRotatedDimension
  0
DIMENSION
  5
294
330
218
100
AcDbEntity
  8
2
100
AcDbDimension
  2
*D3
 10
79.54
 20
22.5
 30
0.0
 11
78.0650556147
 21
-2.2945914366
 31
0.0
 70
   160
  1
%%c<>
 71
     2
 42
45.0
  3
DIMSTYLE_2
100
AcDbAlignedDimension
 13
50.5
 23
-22.5
 33
0.0
 14
49.9945396259
 24
22.5
 34
0.0
 50
90.0
100
AcDbRotatedDimension
  0
DIMENSION
  5
295
330
218
100
AcDbEntity
  8
SK2
100
AcDbDimension
  2
*D4
 10
62.54
 20
6.5
 30
0.0
 11
61.0650556147
 21
-2.2945914366
 31
0.0
 70
   160
  1
%%c<>
 71
     2
 42
13.0
  3
DIMSTYLE_1
100
AcDbAlignedDimension
 13
29.5585382008
 23
-6.5
 33
0.0
 14
29.1763322488
 24
6.5
 34
0.0
 50
90.0
100
AcDbRotatedDimension
  0
DIMENSION
  5
296
330
218
100
AcDbEntity
  8
SK2
100
AcDbDimension
  2
*D5
 10
71.04
 20
10.0
 30
0.0
 11
69.5650556147
 21
-2.2945914366
 31
0.0
 70
   160
  1
%%c<>
 71
     2
 42
20.0
  3
DIMSTYLE_1
100
AcDbAlignedDimension
 13
41.0
 23
-10.0
 33
0.0
 14
41.0
 24
10.0
 34
0.0
 50
90.0
100
AcDbRotatedDimension
  0
DIMENSION
  5
297
330
218
100
AcDbEntity
  8
SK2
100
AcDbDimension
  2
*D6
 10
22.0
 20
-56.697643
 30
0.0
 11
8.2
 21
-54.072643
 31
0.0
 70
   160
 71
     2
 42
22.0
  3
DIMSTYLE_3
100
AcDbAlignedDimension
 13
0.0
 23
-34.4100295938
 33
0.0
 14
22.0
 24
-13.8813895938
 34
0.0
100
AcDbRotatedDimension
  0
DIMENSION
  5
298
330
218
100
AcDbEntity
  8
2
100
AcDbDimension
  2
*D7
 10
88.04
 20
46.7
 30
0.0
 11
87.1923586773
 21
-3.5461867656
 31
0.0
 70
   160
  1
%%c<>
 71
     2
 42
93.4
  3
DIMSTYLE_4
100
AcDbAlignedDimension
 13
43.5340868657
 23
-46.7
 33
0.0
 14
43.4571203471
 24
46.7
 34
0.0
 50
90.0
100
AcDbRotatedDimension
  0
DIMENSION
  5
299
330
218
100
AcDbEntity
  8
SK2
100
AcDbDimension
  2
*D8
 10
-18.5
 20
35.0
 30
0.0
 11
-19.9749443853
 21
-2.2945914366
 31
0.0
 70
   160
  1
%%c<>
 71
     2
 42
70.0
  3
DIMSTYLE_1
100
AcDbAlignedDimension
 13
1.5
 23
-35.0
 33
0.0
 14
1.5
 24
35.0
 34
0.0
 50
90.0
100
AcDbRotatedDimension
  0
DIMENSION
  5
29A
330
218
100
AcDbEntity
  8
2
100
AcDbDimension
  2
*D9
 10
39.2829144463
 20
62.4967077953
 30
0.0
 11
43.4835150637
 21
64.9152199634
 31
0.0
 70
   162
 71
     2
 42
0.2617993878
  3
DIMSTYLE_5
100
AcDb2LineAngularDimension
 13
50.0
 23
63.9076388753
 33
0.0
 14
50.0
 24
22.4978836817
 34
0.0
 15
43.4836374035
 25
46.8193962907
 35
0.0
 16
44.8562709532
 26
61.5705010618
 36
0.0
  0
MTEXT
  5
29B
330
218
100
AcDbEntity
  8
6
100
AcDbMText
 10
-2.4699536949
 20
-64.2816560034
 30
0.0
 40
5.0
 41
64.0
 71
     1
 72
     1
  1
15Q1H045050F2R00
 73
     1
 44
0.9
  0
MTEXT
  5
29C
330
218
100
AcDbEntity
  8
6
100
AcDbMText
 10
93.2552177582
 20
-3.8717994011
 30
0.0
 40
3.5
 41
8.4
 71
     1
 72
     1
  1
Z=3
 11
0.0
 21
1.0
 31
0.0
 73
     1
 44
0.9
  0
MTEXT
  5
29D
330
218
100
AcDbEntity
  8
6
100
AcDbMText
 10
59.3323734064
 20
58.1660845459
 30
0.0
 40
3.5
 41
30.8
 71
     1
 72
     1
  1
BEHW250308R
 73
     1
 44
0.9
  0
LINE
  5
2C5
330
218
100
AcDbEntity
  8
SK3
 48
0.2
100
AcDbLine
 10
0.9997173655
 20
-13.4995103203
 30
0.0
 11
0.0
 21
-14.076669498
 31
0.0
  0
LINE
  5
2C6
330
218
100
AcDbEntity
  8
4
 48
0.2
100
AcDbLine
 10
-3.0
 20
0.0
 30
0.0
 11
52.0816809713
 21
0.0
 31
0.0
  0
LINE
  5
2CE
330
218
100
AcDbEntity
  8
SK3
 48
0.2
100
AcDbLine
 10
22.4997338094
 20
-6.4997335747
 30
0.0
 11
21.9997133336
 21
-6.9997130801
 31
0.0
  0
LINE
  5
2D2
330
218
100
AcDbEntity
  8
SK3
 48
0.2
100
AcDbLine
 10
22.5
 20
6.5
 30
0.0
 11
28.5
 21
6.5
 31
0.0
  0
LINE
  5
2D7
330
218
100
AcDbEntity
  8
SK3
 48
0.2
100
AcDbLine
 10
18.0
 20
13.5
 30
0.0
 11
19.492820323
 21
13.9
 31
0.0
  0
SOLID
  5
37A
330
218
100
AcDbEntity
  8
1
100
AcDbTrace
 10
-1.4917828431
 20
0.0
 30
0.0
 11
-1.5
 21
0.0
 31
0.0
 12
-1.4917828431
 22
0.1567926949
 32
0.0
 13
-1.4917828431
 23
0.1567926949
 33
0.0
  0
SOLID
  5
37B
330
218
100
AcDbEntity
  8
1
100
AcDbTrace
 10
1.4917828431
 20
0.0
 30
0.0
 11
1.4917828431
 21
0.1567926949
 31
0.0
 12
1.4672214011
 22
0.0
 32
0.0
 13
1.4672214011
 23
0.0
 33
0.0
210
0.0
220
0.0
230
-1.0
  0
SOLID
  5
37C
330
218
100
AcDbEntity
  8
1
100
AcDbTrace
 10
-1.4672214011
 20
0.0
 30
0.0
 11
-1.4917828431
 21
0.1567926949
 31
0.0
 12
-1.4672214011
 22
0.3118675362
 32
0.0
 13
-1.4672214011
 23
0.3118675362
 33
0.0
  0
SOLID
  5
37D
330
218
100
AcDbEntity
  8
1
100
AcDbTrace
 10
1.4672214011
 20
0.0
 30
0.0
 11
1.4672214011
 21
0.3118675362
 31
0.0
 12
1.4265847744
 22
0.0
 32
0.0
 13
1.4265847744
 23
0.0
 33
0.0
210
0.0
220
0.0
230
-1.0
  0
SOLID
  5
37E
330
218
100
AcDbEntity
  8
1
100
AcDbTrace
 10
-1.4265847744
 20
0.0
 30
0.0
 11
-1.4672214011
 21
0.3118675362
 31
0.0
 12
-1.4265847744
 22
0.4635254916
 32
0.0
 13
-1.4265847744
 23
0.4635254916
 33
0.0
  0
SOLID
  5
37F
330
218
100
AcDbEntity
  8
1
100
AcDbTrace
 10
1.4265847744
 20
0.0
 30
0.0
 11
1.4265847744
 21
0.4635254916
 31
0.0
 12
1.3703181865
 22
0.0
 32
0.0
 13
1.3703181865
 23
0.0
 33
0.0
210
0.0
220
0.0
230
-1.0
  0
SOLID
  5
380
330
218
100
AcDbEntity
  8
1
100
AcDbTrace
 10
-1.3703181865
 20
0.0
 30
0.0
 11
-1.4265847744
 21
0.4635254916
 31
0.0
 12
-1.3703181865
 22
0.6101049646
 32
0.0
 13
-1.3703181865
 23
0.6101049646
 33
0.0
  0
SOLID
  5
381
330
218
100
AcDbEntity
  8
1
100
AcDbTrace
 10
1.3703181865
 20
0.0
 30
0.0
 11
1.3703181865
 21
0.6101049646
 31
0.0
 12
1.2990381057
 22
0.0
 32
0.0
 13
1.2990381057
 23
0.0
 33
0.0
210
0.0
220
0.0
230
-1.0
  0
SOLID
  5
382
330
218
100
AcDbEntity
  8
1
100
AcDbTrace
 10
-1.2990381057
 20
0.0
 30
0.0
 11
-1.3703181865
 21
0.6101049646
 31
0.0
 12
-1.2990381057
 22
0.75
 32
0.0
 13
-1.2990381057
 23
0.75
 33
0.0
  0
SOLID
  5
383
330
218
100
AcDbEntity
  8
1
100
AcDbTrace
 10
1.2990381057
 20
0.0
 30
0.0
 11
1.2990381057
 21
0.75
 31
0.0
 12
1.2135254916
 22
0.0
 32
0.0
 13
1.2135254916
 23
0.0
 33
0.0
210
0.0
220
0.0
230
-1.0
  0
SOLID
  5
384
330
218
100
AcDbEntity
  8
1
100
AcDbTrace
 10
-1.2135254916
 20
0.0
 30
0.0
 11
-1.2990381057
 21
0.75
 31
0.0
 12
-1.2135254916
 22
0.8816778784
 32
0.0
 13
-1.2135254916
 23
0.8816778784
 33
0.0
  0
SOLID
  5
385
330
218
100
AcDbEntity
  8
1
100
AcDbTrace
 10
1.2135254916
 20
0.0
 30
0.0
 11
1.2135254916
 21
0.8816778784
 31
0.0
 12
1.1147172382
 22
0.0
 32
0.0
 13
1.1147172382
 23
0.0
 33
0.0
210
0.0
220
0.0
230
-1.0
  0
SOLID
  5
386
330
218
100
AcDbEntity
  8
1
100
AcDbTrace
 10
-1.1147172382
 20
0.0
 30
0.0
 11
-1.2135254916
 21
0.8816778784
 31
0.0
 12
-1.1147172382
 22
1.0036959095
 32
0.0
 13
-1.1147172382
 23
1.0036959095
 33
0.0
  0
SOLID
  5
387
330
218
100
AcDbEntity
  8
1
100
AcDbTrace
 10
1.1147172382
 20
0.0
 30
0.0
 11
1.1147172382
 21
1.0036959095
 31
0.0
 12
1.0036959095
 22
0.0
 32
0.0
 13
1.0036959095
 23
0.0
 33
0.0
210
0.0
220
0.0
230
-1.0
  0
SOLID
  5
388
330
218
100
AcDbEntity
  8
1
100
AcDbTrace
 10
-1.0036959095
 20
0.0
 30
0.0
 11
-1.1147172382
 21
1.0036959095
 31
0.0
 12
-1.0036959095
 22
1.1147172382
 32
0.0
 13
-1.0036959095
 23
1.1147172382
 33
0.0
  0
SOLID
  5
389
330
218
100
AcDbEntity
  8
1
100
AcDbTrace
 10
1.0036959095
 20
0.0
 30
0.0
 11
1.0036959095
 21
1.1147172382
 31
0.0
 12
0.8816778784
 22
0.0
 32
0.0
 13
0.8816778784
 23
0.0
 33
0.0
210
0.0
220
0.0
230
-1.0
  0
SOLID
  5
38A
330
218
100
AcDbEntity
  8
1
100
AcDbTrace
 10
-0.8816778784
 20
0.0
 30
0.0
 11
-1.0036959095
 21
1.1147172382
 31
0.0
 12
-0.8816778784
 22
1.2135254916
 32
0.0
 13
-0.8816778784
 23
1.2135254916
 33
0.0
  0
SOLID
  5
38B
330
218
100
AcDbEntity
  8
1
100
AcDbTrace
 10
0.8816778784
 20
0.0
 30
0.0
 11
0.8816778784
 21
1.2135254916
 31
0.0
 12
0.75
 22
0.0
 32
0.0
 13
0.75
 23
0.0
 33
0.0
210
0.0
220
0.0
230
-1.0
  0
SOLID
  5
38C
330
218
100
AcDbEntity
  8
1
100
AcDbTrace
 10
-0.75
 20
0.0
 30
0.0
 11
-0.8816778784
 21
1.2135254916
 31
0.0
 12
-0.75
 22
1.2990381057
 32
0.0
 13
-0.75
 23
1.2990381057
 33
0.0
  0
SOLID
  5
38D
330
218
100
AcDbEntity
  8
1
100
AcDbTrace
 10
0.75
 20
0.0
 30
0.0
 11
0.75
 21
1.2990381057
 31
0.0
 12
0.6101049646
 22
0.0
 32
0.0
 13
0.6101049646
 23
0.0
 33
0.0
210
0.0
220
0.0
230
-1.0
  0
SOLID
  5
38E
330
218
100
AcDbEntity
  8
1
100
AcDbTrace
 10
-0.6101049646
 20
0.0
 30
0.0
 11
-0.75
 21
1.2990381057
 31
0.0
 12
-0.6101049646
 22
1.3703181865
 32
0.0
 13
-0.6101049646
 23
1.3703181865
 33
0.0
  0
SOLID
  5
38F
330
218
100
AcDbEntity
  8
1
100
AcDbTrace
 10
0.6101049646
 20
0.0
 30
0.0
 11
0.6101049646
 21
1.3703181865
 31
0.0
 12
0.4635254916
 22
0.0
 32
0.0
 13
0.4635254916
 23
0.0
 33
0.0
210
0.0
220
0.0
230
-1.0
  0
SOLID
  5
390
330
218
100
AcDbEntity
  8
1
100
AcDbTrace
 10
-0.4635254916
 20
0.0
 30
0.0
 11
-0.6101049646
 21
1.3703181865
 31
0.0
 12
-0.4635254916
 22
1.4265847744
 32
0.0
 13
-0.4635254916
 23
1.4265847744
 33
0.0
  0
SOLID
  5
391
330
218
100
AcDbEntity
  8
1
100
AcDbTrace
 10
0.4635254916
 20
0.0
 30
0.0
 11
0.4635254916
 21
1.4265847744
 31
0.0
 12
0.3118675362
 22
0.0
 32
0.0
 13
0.3118675362
 23
0.0
 33
0.0
210
0.0
220
0.0
230
-1.0
  0
SOLID
  5
392
330
218
100
AcDbEntity
  8
1
100
AcDbTrace
 10
-0.3118675362
 20
0.0
 30
0.0
 11
-0.4635254916
 21
1.4265847744
 31
0.0
 12
-0.3118675362
 22
1.4672214011
 32
0.0
 13
-0.3118675362
 23
1.4672214011
 33
0.0
  0
SOLID
  5
393
330
218
100
AcDbEntity
  8
1
100
AcDbTrace
 10
0.3118675362
 20
0.0
 30
0.0
 11
0.3118675362
 21
1.4672214011
 31
0.0
 12
0.1567926949
 22
0.0
 32
0.0
 13
0.1567926949
 23
0.0
 33
0.0
210
0.0
220
0.0
230
-1.0
  0
SOLID
  5
394
330
218
100
AcDbEntity
  8
1
100
AcDbTrace
 10
-0.1567926949
 20
0.0
 30
0.0
 11
-0.3118675362
 21
1.4672214011
 31
0.0
 12
-0.1567926949
 22
1.4917828431
 32
0.0
 13
-0.1567926949
 23
1.4917828431
 33
0.0
  0
SOLID
  5
395
330
218
100
AcDbEntity
  8
1
100
AcDbTrace
 10
0.1567926949
 20
0.0
 30
0.0
 11
0.1567926949
 21
1.4917828431
 31
0.0
 12
0.0
 22
0.0
 32
0.0
 13
0.0
 23
0.0
 33
0.0
210
0.0
220
0.0
230
-1.0
  0
SOLID
  5
396
330
218
100
AcDbEntity
  8
1
100
AcDbTrace
 10
0.0
 20
0.0
 30
0.0
 11
-0.1567926949
 21
1.4917828431
 31
0.0
 12
0.0
 22
1.5
 32
0.0
 13
0.0
 23
1.5
 33
0.0
  0
SOLID
  5
397
330
218
100
AcDbEntity
  8
1
100
AcDbTrace
 10
0.0
 20
-1.5
 30
0.0
 11
0.0
 21
0.0
 31
0.0
 12
-0.1567926949
 22
-1.4917828431
 32
0.0
 13
-0.1567926949
 23
-1.4917828431
 33
0.0
210
0.0
220
0.0
230
-1.0
  0
SOLID
  5
398
330
218
100
AcDbEntity
  8
1
100
AcDbTrace
 10
-0.1567926949
 20
-1.4917828431
 30
0.0
 11
0.0
 21
0.0
 31
0.0
 12
-0.1567926949
 22
0.0
 32
0.0
 13
-0.1567926949
 23
0.0
 33
0.0
210
0.0
220
0.0
230
-1.0
  0
SOLID
  5
399
330
218
100
AcDbEntity
  8
1
100
AcDbTrace
 10
-0.1567926949
 20
-1.4917828431
 30
0.0
 11
-0.1567926949
 21
0.0
 31
0.0
 12
-0.3118675362
 22
-1.4672214011
 32
0.0
 13
-0.3118675362
 23
-1.4672214011
 33
0.0
210
0.0
220
0.0
230
-1.0
  0
SOLID
  5
39A
330
218
100
AcDbEntity
  8
1
100
AcDbTrace
 10
-0.3118675362
 20
-1.4672214011
 30
0.0
 11
-0.1567926949
 21
0.0
 31
0.0
 12
-0.3118675362
 22
0.0
 32
0.0
 13
-0.3118675362
 23
0.0
 33
0.0
210
0.0
220
0.0
230
-1.0
  0
SOLID
  5
39B
330
218
100
AcDbEntity
  8
1
100
AcDbTrace
 10
-0.3118675362
 20
-1.4672214011
 30
0.0
 11
-0.3118675362
 21
0.0
 31
0.0
 12
-0.4635254916
 22
-1.4265847744
 32
0.0
 13
-0.4635254916
 23
-1.4265847744
 33
0.0
210
0.0
220
0.0
230
-1.0
  0
SOLID
  5
39C
330
218
100
AcDbEntity
  8
1
100
AcDbTrace
 10
-0.4635254916
 20
-1.4265847744
 30
0.0
 11
-0.3118675362
 21
0.0
 31
0.0
 12
-0.4635254916
 22
0.0
 32
0.0
 13
-0.4635254916
 23
0.0
 33
0.0
210
0.0
220
0.0
230
-1.0
  0
SOLID
  5
39D
330
218
100
AcDbEntity
  8
1
100
AcDbTrace
 10
-0.4635254916
 20
-1.4265847744
 30
0.0
 11
-0.4635254916
 21
0.0
 31
0.0
 12
-0.6101049646
 22
-1.3703181865
 32
0.0
 13
-0.6101049646
 23
-1.3703181865
 33
0.0
210
0.0
220
0.0
230
-1.0
  0
SOLID
  5
39E
330
218
100
AcDbEntity
  8
1
100
AcDbTrace
 10
-0.6101049646
 20
-1.3703181865
 30
0.0
 11
-0.4635254916
 21
0.0
 31
0.0
 12
-0.6101049646
 22
0.0
 32
0.0
 13
-0.6101049646
 23
0.0
 33
0.0
210
0.0
220
0.0
230
-1.0
  0
SOLID
  5
39F
330
218
100
AcDbEntity
  8
1
100
AcDbTrace
 10
-0.6101049646
 20
-1.3703181865
 30
0.0
 11
-0.6101049646
 21
0.0
 31
0.0
 12
-0.75
 22
-1.2990381057
 32
0.0
 13
-0.75
 23
-1.2990381057
 33
0.0
210
0.0
220
0.0
230
-1.0
  0
SOLID
  5
3A0
330
218
100
AcDbEntity
  8
1
100
AcDbTrace
 10
-0.75
 20
-1.2990381057
 30
0.0
 11
-0.6101049646
 21
0.0
 31
0.0
 12
-0.75
 22
0.0
 32
0.0
 13
-0.75
 23
0.0
 33
0.0
210
0.0
220
0.0
230
-1.0
  0
SOLID
  5
3A1
330
218
100
AcDbEntity
  8
1
100
AcDbTrace
 10
-0.75
 20
-1.2990381057
 30
0.0
 11
-0.75
 21
0.0
 31
0.0
 12
-0.8816778784
 22
-1.2135254916
 32
0.0
 13
-0.8816778784
 23
-1.2135254916
 33
0.0
210
0.0
220
0.0
230
-1.0
  0
SOLID
  5
3A2
330
218
100
AcDbEntity
  8
1
100
AcDbTrace
 10
-0.8816778784
 20
-1.2135254916
 30
0.0
 11
-0.75
 21
0.0
 31
0.0
 12
-0.8816778784
 22
0.0
 32
0.0
 13
-0.8816778784
 23
0.0
 33
0.0
210
0.0
220
0.0
230
-1.0
  0
SOLID
  5
3A3
330
218
100
AcDbEntity
  8
1
100
AcDbTrace
 10
-0.8816778784
 20
-1.2135254916
 30
0.0
 11
-0.8816778784
 21
0.0
 31
0.0
 12
-1.0036959095
 22
-1.1147172382
 32
0.0
 13
-1.0036959095
 23
-1.1147172382
 33
0.0
210
0.0
220
0.0
230
-1.0
  0
SOLID
  5
3A4
330
218
100
AcDbEntity
  8
1
100
AcDbTrace
 10
-1.0036959095
 20
-1.1147172382
 30
0.0
 11
-0.8816778784
 21
0.0
 31
0.0
 12
-1.0036959095
 22
0.0
 32
0.0
 13
-1.0036959095
 23
0.0
 33
0.0
210
0.0
220
0.0
230
-1.0
  0
SOLID
  5
3A5
330
218
100
AcDbEntity
  8
1
100
AcDbTrace
 10
-1.0036959095
 20
-1.1147172382
 30
0.0
 11
-1.0036959095
 21
0.0
 31
0.0
 12
-1.1147172382
 22
-1.0036959095
 32
0.0
 13
-1.1147172382
 23
-1.0036959095
 33
0.0
210
0.0
220
0.0
230
-1.0
  0
SOLID
  5
3A6
330
218
100
AcDbEntity
  8
1
100
AcDbTrace
 10
-1.1147172382
 20
-1.0036959095
 30
0.0
 11
-1.0036959095
 21
0.0
 31
0.0
 12
-1.1147172382
 22
0.0
 32
0.0
 13
-1.1147172382
 23
0.0
 33
0.0
210
0.0
220
0.0
230
-1.0
  0
SOLID
  5
3A7
330
218
100
AcDbEntity
  8
1
100
AcDbTrace
 10
-1.1147172382
 20
-1.0036959095
 30
0.0
 11
-1.1147172382
 21
0.0
 31
0.0
 12
-1.2135254916
 22
-0.8816778784
 32
0.0
 13
-1.2135254916
 23
-0.8816778784
 33
0.0
210
0.0
220
0.0
230
-1.0
  0
SOLID
  5
3A8
330
218
100
AcDbEntity
  8
1
100
AcDbTrace
 10
-1.2135254916
 20
-0.8816778784
 30
0.0
 11
-1.1147172382
 21
0.0
 31
0.0
 12
-1.2135254916
 22
0.0
 32
0.0
 13
-1.2135254916
 23
0.0
 33
0.0
210
0.0
220
0.0
230
-1.0
  0
SOLID
  5
3A9
330
218
100
AcDbEntity
  8
1
100
AcDbTrace
 10
-1.2135254916
 20
-0.8816778784
 30
0.0
 11
-1.2135254916
 21
0.0
 31
0.0
 12
-1.2990381057
 22
-0.75
 32
0.0
 13
-1.2990381057
 23
-0.75
 33
0.0
210
0.0
220
0.0
230
-1.0
  0
SOLID
  5
3AA
330
218
100
AcDbEntity
  8
1
100
AcDbTrace
 10
-1.2990381057
 20
-0.75
 30
0.0
 11
-1.2135254916
 21
0.0
 31
0.0
 12
-1.2990381057
 22
0.0
 32
0.0
 13
-1.2990381057
 23
0.0
 33
0.0
210
0.0
220
0.0
230
-1.0
  0
SOLID
  5
3AB
330
218
100
AcDbEntity
  8
1
100
AcDbTrace
 10
-1.2990381057
 20
-0.75
 30
0.0
 11
-1.2990381057
 21
0.0
 31
0.0
 12
-1.3703181865
 22
-0.6101049646
 32
0.0
 13
-1.3703181865
 23
-0.6101049646
 33
0.0
210
0.0
220
0.0
230
-1.0
  0
SOLID
  5
3AC
330
218
100
AcDbEntity
  8
1
100
AcDbTrace
 10
-1.3703181865
 20
-0.6101049646
 30
0.0
 11
-1.2990381057
 21
0.0
 31
0.0
 12
-1.3703181865
 22
0.0
 32
0.0
 13
-1.3703181865
 23
0.0
 33
0.0
210
0.0
220
0.0
230
-1.0
  0
SOLID
  5
3AD
330
218
100
AcDbEntity
  8
1
100
AcDbTrace
 10
-1.3703181865
 20
-0.6101049646
 30
0.0
 11
-1.3703181865
 21
0.0
 31
0.0
 12
-1.4265847744
 22
-0.4635254916
 32
0.0
 13
-1.4265847744
 23
-0.4635254916
 33
0.0
210
0.0
220
0.0
230
-1.0
  0
SOLID
  5
3AE
330
218
100
AcDbEntity
  8
1
100
AcDbTrace
 10
-1.4265847744
 20
-0.4635254916
 30
0.0
 11
-1.3703181865
 21
0.0
 31
0.0
 12
-1.4265847744
 22
0.0
 32
0.0
 13
-1.4265847744
 23
0.0
 33
0.0
210
0.0
220
0.0
230
-1.0
  0
SOLID
  5
3AF
330
218
100
AcDbEntity
  8
1
100
AcDbTrace
 10
-1.4265847744
 20
-0.4635254916
 30
0.0
 11
-1.4265847744
 21
0.0
 31
0.0
 12
-1.4672214011
 22
-0.3118675362
 32
0.0
 13
-1.4672214011
 23
-0.3118675362
 33
0.0
210
0.0
220
0.0
230
-1.0
  0
SOLID
  5
3B0
330
218
100
AcDbEntity
  8
1
100
AcDbTrace
 10
-1.4672214011
 20
-0.3118675362
 30
0.0
 11
-1.4265847744
 21
0.0
 31
0.0
 12
-1.4672214011
 22
0.0
 32
0.0
 13
-1.4672214011
 23
0.0
 33
0.0
210
0.0
220
0.0
230
-1.0
  0
SOLID
  5
3B1
330
218
100
AcDbEntity
  8
1
100
AcDbTrace
 10
-1.4672214011
 20
-0.3118675362
 30
0.0
 11
-1.4672214011
 21
0.0
 31
0.0
 12
-1.4917828431
 22
-0.1567926949
 32
0.0
 13
-1.4917828431
 23
-0.1567926949
 33
0.0
210
0.0
220
0.0
230
-1.0
  0
SOLID
  5
3B2
330
218
100
AcDbEntity
  8
1
100
AcDbTrace
 10
-1.4917828431
 20
-0.1567926949
 30
0.0
 11
-1.4672214011
 21
0.0
 31
0.0
 12
-1.4917828431
 22
0.0
 32
0.0
 13
-1.4917828431
 23
0.0
 33
0.0
210
0.0
220
0.0
230
-1.0
  0
SOLID
  5
3B3
330
218
100
AcDbEntity
  8
1
100
AcDbTrace
 10
-1.4917828431
 20
-0.1567926949
 30
0.0
 11
-1.4917828431
 21
0.0
 31
0.0
 12
-1.5
 22
0.0
 32
0.0
 13
-1.5
 23
0.0
 33
0.0
210
0.0
220
0.0
230
-1.0
  0
LINE
  5
3B7
330
218
100
AcDbEntity
  8
SK3
 48
0.2
100
AcDbLine
 10
28.5002720924
 20
-6.4499538828
 30
0.0
 11
28.5000000007
 21
-6.5
 31
0.0
  0
LWPOLYLINE
  5
4E4
330
218
100
AcDbEntity
  8
NOCUT
100
AcDbPolyline
 90
       13
 70
     1
 43
0.0
 10
48.46592582628907
 20
23.97516912320252
 42
-0.0655434628152382
 10
48.5
 20
23.7163500781
 10
48.5
 20
0.0
 10
0.0
 20
0.0
 10
0.0
 20
33.0
 42
-0.414213562373095
 10
2.0
 20
35.0
 10
12.3971647472
 20
35.0
 42
0.2446984432304219
 10
16.49292496865998
 20
37.13211781826622
 10
20.0716000809
 20
42.2429955465
 42
-0.2446984432304218
 10
24.1673603023
 20
44.3751133647
 10
32.7653520737
 20
44.3751133647
 10
41.92944547
 20
45.1768676484
 42
-0.3639702342889325
 10
42.98252703900443
 20
44.4394919953452
  0
LWPOLYLINE
  5
4E5
330
218
100
AcDbEntity
  8
1
100
AcDbPolyline
 90
       19
 70
     0
 43
0.0
 10
0.0
 20
-32.97193804
 10
0.0
 20
-7.2
 10
0.0
 20
-33.0
 42
0.414213562373095
 10
2.0
 20
-35.0
 10
12.3971647472
 20
-35.0
 42
-0.2446984432308842
 10
16.4929249687
 20
-37.1321178182
 10
20.07160008084003
 20
-42.24299554643378
 42
0.2446984432304216
 10
24.1673603023
 20
-44.3751133647
 10
32.7653520737
 20
-44.3751133647
 10
41.92944547
 20
-45.1768676484
 42
0.3639702342889326
 10
42.98252703900443
 20
-44.4394919953452
 10
48.4659258263
 20
-23.9751691232
 10
48.5
 20
-23.7163500781
 10
48.5
 20
23.7163500781
 10
48.4659258263
 20
23.9751691232
 10
42.982527039
 20
44.4394919954
 42
0.3639702342825088
 10
41.92944546995234
 20
45.17686764839175
 10
32.7653520737
 20
44.3751133647
 10
32.7653520737
 20
-44.3751133647
  0
LWPOLYLINE
  5
4E6
330
218
100
AcDbEntity
  8
1
100
AcDbPolyline
 90
        9
 70
     0
 43
0.0
 10
0.0
 20
32.97193804
 10
0.0
 20
7.2
 10
0.0
 20
33.0
 42
-0.414213562373095
 10
2.0
 20
35.0
 10
12.3971647472
 20
35.0
 42
0.2446984432304219
 10
16.4929249687
 20
37.1321178182
 10
20.0716000809
 20
42.2429955465
 42
-0.2446984432304218
 10
24.1673603023
 20
44.3751133647
 10
32.7653520737
 20
44.3751133647
  0
LWPOLYLINE
  5
4E7
330
218
100
AcDbEntity
  8
SK3
 48
0.2
100
AcDbPolyline
 90
       11
 70
     0
 43
0.0
 10
19.492820323
 20
-13.9
 10
19.492820323
 20
13.9
 10
21.0
 20
13.9
 42
-0.414213562373095
 10
22.0
 20
12.9
 10
22.0
 20
-12.9
 42
-0.414213562373095
 10
21.0
 20
-13.9
 10
19.492820323
 20
-13.9
 10
18.0
 20
-13.5
 10
0.9999999943
 20
-13.5
 10
0.9992932339
 20
-13.4260850059
 10
0.9988691743
 20
-6.2
  0
LWPOLYLINE
  5
4E8
330
218
100
AcDbEntity
  8
1
100
AcDbPolyline
 90
        8
 70
     0
 43
0.0
 10
0.0
 20
7.2
 10
1.0
 20
6.2
 10
6.4
 20
6.199999999999999
 42
-0.414213562373095
 10
7.0
 20
5.6
 10
7.0
 20
-5.6
 42
-0.414213562373095
 10
6.4
 20
-6.199999999999999
 10
1.0
 20
-6.2
 10
0.0
 20
-7.2
  0
LWPOLYLINE
  5
4E9
330
218
100
AcDbEntity
  8
SK3
 48
0.2
100
AcDbPolyline
 90
        4
 70
     0
 43
0.0
 10
0.0
 20
14.076669498
 10
1.0
 20
13.5
 10
18.0
 20
13.5
 10
18.0
 20
-13.5
  0
LWPOLYLINE
  5
4EA
330
218
100
AcDbEntity
  8
SK3
 48
0.2
100
AcDbPolyline
 90
        6
 70
     0
 43
0.0
 10
41.5
 20
11.0
 42
-0.414213562373095
 10
40.5
 20
10.0
 10
29.0
 20
10.0
 10
29.0
 20
-10.0
 10
40.5
 20
-10.0
 42
-0.414213562373095
 10
41.5
 20
-11.0
  0
LWPOLYLINE
  5
4EB
330
218
100
AcDbEntity
  8
SK3
 48
0.2
100
AcDbPolyline
 90
       12
 70
     0
 43
0.0
 10
21.9997133421
 20
6.9997130716
 10
22.4999999993
 20
6.5
 10
22.4997140611
 20
6.4497961038
 10
22.4997140611
 20
-6.4497961038
 10
22.4999999994
 20
-6.5
 10
28.5
 20
-6.5
 10
29.000289275
 20
-6.9997103947
 10
29.0
 20
7.000000004
 10
28.5002686407
 20
6.4997311089
 10
28.5003495903
 20
6.449505641
 10
28.5002720924
 20
-6.4499538828
 10
28.5004812737
 20
-6.2948362764
  0
LWPOLYLINE
  5
4EC
330
218
100
AcDbEntity
  8
SK3
 48
0.2
100
AcDbPolyline
 90
        8
 70
     1
 43
0.0
 10
42.0
 20
-14.74722325028444
 42
-0.2679491924311226
 10
41.5
 20
-13.8811978465
 10
41.5
 20
13.8811978465
 42
-0.2679491924311228
 10
42.0
 20
14.7472232503
 10
48.0
 20
18.2113248654
 42
0.2679491924255109
 10
48.5
 20
19.07735026919826
 10
48.5
 20
-19.0773502692
 42
0.2679491924231725
 10
48.00000000002267
 20
-18.21132486542865
  0
LWPOLYLINE
  5
4ED
330
218
100
AcDbEntity
  8
1
100
AcDbPolyline
 90
      123
 70
     1
 43
0.0
 10
49.974371
 20
-22.643324
 10
49.9800360115
 20
-22.6203036032
 10
49.985076
 20
-22.597137
 10
49.9893999167
 20
-22.5742443201
 10
49.993081
 20
-22.55124
 10
49.996061826
 20
-22.5284752328
 10
49.998387
 20
-22.505634
 10
50.0000275181
 20
-22.4829952854
 10
50.000994
 20
-22.460318
 10
50.0012685079
 20
-22.4377243824
 10
50.00085
 20
-22.415133
 10
49.9997375095
 20
-22.3925621494
 10
49.997944
 20
-22.370035
 10
49.9954980339
 20
-22.3476858082
 10
49.992398
 20
-22.325418
 10
49.9886895028
 20
-22.3034890526
 10
49.984336
 20
-22.281679
 10
49.9793846969
 20
-22.2602370256
 10
49.973783
 20
-22.238956
 10
49.9675145929
 20
-22.2178230812
 10
49.960604
 20
-22.196891
 10
49.9530860652
 20
-22.1762184355
 10
49.944956
 20
-22.155779
 10
49.9362823104
 20
-22.1357313436
 10
49.927011
 20
-22.115953
 10
49.9172263718
 20
-22.0966257646
 10
49.906857
 20
-22.077606
 10
49.8958597233
 20
-22.0588318746
 10
49.884296
 20
-22.040401
 10
49.8721603332
 20
-22.0222915751
 10
49.859486
 20
-22.004555
 10
49.8463193612
 20
-21.9872564685
 10
49.832631
 20
-21.970368
 10
49.8185031153
 20
-21.9539956626
 10
49.803881
 20
-21.938063
 10
49.7886683743
 20
-21.922466903
 10
49.772992
 20
-21.907337
 10
49.7567680399
 20
-21.8925919243
 10
49.740109
 20
-21.87834
 10
49.7230055871
 20
-21.8645784146
 10
49.705487
 20
-21.85135
 10
49.6876059526
 20
-21.8387059314
 10
49.669344
 20
-21.826618
 10
49.6505390259
 20
-21.8149733915
 10
49.631395
 20
-21.803895
 10
49.6117297551
 20
-21.7932778588
 10
49.591758
 20
-21.783249
 10
49.5714001001
 20
-21.7737786368
 10
49.550762
 20
-21.764936
 10
49.5298688841
 20
-21.7567449817
 10
49.508731
 20
-21.749208
 10
49.4872799719
 20
-21.7422983114
 10
49.46563
 20
-21.736039
 10
49.4435561436
 20
-21.73035795
 10
49.421326
 20
-21.725324
 10
49.3986319969
 20
-21.7208713358
 10
49.37582
 20
-21.717066
 10
49.352505118
 20
-21.7138434593
 10
49.329112
 20
-21.711262
 10
44.721227
 20
-21.307461
 10
39.049984
 20
-20.832754
 10
32.607042
 20
-44.8859
 10
32.6013777103
 20
-44.9089240535
 10
32.596337
 20
-44.932094
 10
32.5920128974
 20
-44.9549822217
 10
32.588331
 20
-44.977982
 10
32.5853501858
 20
-45.0007347526
 10
32.583025
 20
-45.023564
 10
32.5813852255
 20
-45.046182709
 10
32.580419
 20
-45.06884
 10
32.5801440816
 20
-45.0914056246
 10
32.580562
 20
-45.113969
 10
32.5816742484
 20
-45.1365043914
 10
32.583468
 20
-45.158996
 10
32.5859137586
 20
-45.1813023033
 10
32.589014
 20
-45.203527
 10
32.5927222453
 20
-45.2254061245
 10
32.597076
 20
-45.247166
 10
32.6020269116
 20
-45.2685527888
 10
32.607629
 20
-45.289778
 10
32.6138970341
 20
-45.3108478327
 10
32.620808
 20
-45.331716
 10
32.6283255295
 20
-45.3523201194
 10
32.636456
 20
-45.37269
 10
32.6451292936
 20
-45.3926628444
 10
32.654401
 20
-45.412365
 10
32.6641854223
 20
-45.4316129866
 10
32.674555
 20
-45.450552
 10
32.6855519379
 20
-45.4692416344
 10
32.697116
 20
-45.487586
 10
32.7092521144
 20
-45.5056054038
 10
32.721927
 20
-45.52325
 10
32.7350932511
 20
-45.5404545963
 10
32.748781
 20
-45.557247
 10
32.762908915
 20
-45.5735216629
 10
32.777531
 20
-45.589354
 10
32.7927446535
 20
-45.6048481261
 10
32.808421
 20
-45.619874
 10
32.8246449092
 20
-45.6345139158
 10
32.841303
 20
-45.648658
 10
32.8584076347
 20
-45.662310315
 10
32.875926
 20
-45.675427
 10
32.8938076282
 20
-45.6879605329
 10
32.912068
 20
-45.699936
 10
32.9308744289
 20
-45.7114673725
 10
32.950018
 20
-45.72243
 10
32.9696846097
 20
-45.732930362
 10
32.989655
 20
-45.742841
 10
33.0100138703
 20
-45.7521941544
 10
33.03065
 20
-45.760918
 10
33.0515446864
 20
-45.7689907325
 10
33.072681
 20
-45.776408
 10
33.094133723
 20
-45.7831990714
 10
33.115782
 20
-45.789339
 10
33.1378575626
 20
-45.7949001901
 10
33.160086
 20
-45.799814
 10
33.1827817369
 20
-45.8041465766
 10
33.205592
 20
-45.807832
 10
33.2289089923
 20
-45.8109333509
 10
33.252301
 20
-45.813393
 10
37.505733
 20
-46.174795
 10
41.759165
 20
-46.542563
 10
43.531428
 20
-46.697643
  0
LWPOLYLINE
  5
4EE
330
218
100
AcDbEntity
  8
CUT
100
AcDbPolyline
 90
      123
 70
     1
 43
0.0
 10
32.607042
 20
44.8859
 10
32.6013777103
 20
44.9089240535
 10
32.596337
 20
44.932094
 10
32.5920128974
 20
44.9549822217
 10
32.588331
 20
44.977982
 10
32.5853501858
 20
45.0007347526
 10
32.583025
 20
45.023564
 10
32.5813852255
 20
45.046182709
 10
32.580419
 20
45.06884
 10
32.5801440816
 20
45.0914056246
 10
32.580562
 20
45.113969
 10
32.5816742484
 20
45.1365043914
 10
32.583468
 20
45.158996
 10
32.5859137586
 20
45.1813023033
 10
32.589014
 20
45.203527
 10
32.5927222453
 20
45.2254061245
 10
32.597076
 20
45.247166
 10
32.6020269116
 20
45.2685527888
 10
32.607629
 20
45.289778
 10
32.6138970341
 20
45.3108478327
 10
32.620808
 20
45.331716
 10
32.6283255295
 20
45.3523201194
 10
32.636456
 20
45.37269
 10
32.6451292936
 20
45.3926628444
 10
32.654401
 20
45.412365
 10
32.6641854223
 20
45.4316129866
 10
32.674555
 20
45.450552
 10
32.6855519379
 20
45.4692416344
 10
32.697116
 20
45.487586
 10
32.7092521144
 20
45.5056054038
 10
32.721927
 20
45.52325
 10
32.7350932511
 20
45.5404545963
 10
32.748781
 20
45.557247
 10
32.762908915
 20
45.5735216629
 10
32.777531
 20
45.589354
 10
32.7927446535
 20
45.6048481261
 10
32.808421
 20
45.619874
 10
32.8246449092
 20
45.6345139158
 10
32.841303
 20
45.648658
 10
32.8584076347
 20
45.662310315
 10
32.875926
 20
45.675427
 10
32.8938076282
 20
45.6879605329
 10
32.912068
 20
45.699936
 10
32.9308744289
 20
45.7114673725
 10
32.950018
 20
45.72243
 10
32.9696846097
 20
45.732930362
 10
32.989655
 20
45.742841
 10
33.0100138703
 20
45.7521941544
 10
33.03065
 20
45.760918
 10
33.0515446864
 20
45.7689907325
 10
33.072681
 20
45.776408
 10
33.094133723
 20
45.7831990714
 10
33.115782
 20
45.789339
 10
33.1378575626
 20
45.7949001901
 10
33.160086
 20
45.799814
 10
33.1827817369
 20
45.8041465766
 10
33.205592
 20
45.807832
 10
33.2289089923
 20
45.8109333509
 10
33.252301
 20
45.813393
 10
43.531428
 20
46.697643
 10
49.974371
 20
22.643324
 10
49.9800360115
 20
22.6203036032
 10
49.985076
 20
22.597137
 10
49.9893999167
 20
22.5742443201
 10
49.993081
 20
22.55124
 10
49.996061826
 20
22.5284752328
 10
49.998387
 20
22.505634
 10
50.0000275181
 20
22.4829952854
 10
50.000994
 20
22.460318
 10
50.0012685079
 20
22.4377243824
 10
50.00085
 20
22.415133
 10
49.9997375095
 20
22.3925621494
 10
49.997944
 20
22.370035
 10
49.9954980339
 20
22.3476858082
 10
49.992398
 20
22.325418
 10
49.9886895028
 20
22.3034890526
 10
49.984336
 20
22.281679
 10
49.9793846969
 20
22.2602370256
 10
49.973783
 20
22.238956
 10
49.9675145929
 20
22.2178230812
 10
49.960604
 20
22.196891
 10
49.9530860652
 20
22.1762184355
 10
49.944956
 20
22.155779
 10
49.9362823104
 20
22.1357313436
 10
49.927011
 20
22.115953
 10
49.9172263718
 20
22.0966257646
 10
49.906857
 20
22.077606
 10
49.8958597233
 20
22.0588318746
 10
49.884296
 20
22.040401
 10
49.8721603332
 20
22.0222915751
 10
49.859486
 20
22.004555
 10
49.8463193612
 20
21.9872564685
 10
49.832631
 20
21.970368
 10
49.8185031153
 20
21.9539956626
 10
49.803881
 20
21.938063
 10
49.7886683743
 20
21.922466903
 10
49.772992
 20
21.907337
 10
49.7567680399
 20
21.8925919243
 10
49.740109
 20
21.87834
 10
49.7230055871
 20
21.8645784146
 10
49.705487
 20
21.85135
 10
49.6876059526
 20
21.8387059314
 10
49.669344
 20
21.826618
 10
49.6505390259
 20
21.8149733915
 10
49.631395
 20
21.803895
 10
49.6117297551
 20
21.7932778588
 10
49.591758
 20
21.783249
 10
49.5714001001
 20
21.7737786368
 10
49.550762
 20
21.764936
 10
49.5298688841
 20
21.7567449817
 10
49.508731
 20
21.749208
 10
49.4872799719
 20
21.7422983114
 10
49.46563
 20
21.736039
 10
49.4435561436
 20
21.73035795
 10
49.421326
 20
21.725324
 10
49.3986319969
 20
21.7208713358
 10
49.37582
 20
21.717066
 10
49.352505118
 20
21.7138434593
 10
49.329112
 20
21.711262
 10
46.139038
 20
21.430028
 10
43.303416
 20
21.186423
 10
40.467795
 20
20.949043
 10
39.049984
 20
20.832754
  0
LWPOLYLINE
  5
4EF
330
218
100
AcDbEntity
  8
1
100
AcDbPolyline
 90
       44
 70
     0
 43
0.0
 10
1.5
 20
0.0
 10
1.4917828431
 20
-0.1567926949
 10
1.4672214011
 20
-0.3118675362
 10
1.4265847744
 20
-0.4635254916
 10
1.3703181865
 20
-0.6101049646
 10
1.2990381057
 20
-0.75
 10
1.2135254916
 20
-0.8816778784
 10
1.1147172382
 20
-1.0036959095
 10
1.0036959095
 20
-1.1147172382
 10
0.8816778784
 20
-1.2135254916
 10
0.75
 20
-1.2990381057
 10
0.6101049646
 20
-1.3703181865
 10
0.4635254916
 20
-1.4265847744
 10
0.3118675362
 20
-1.4672214011
 10
0.1567926949
 20
-1.4917828431
 10
-0.0000000000000003
 20
-1.5
 42
0.414213562373095
 10
1.5
 20
0.0
 42
0.414213562373095
 10
0.0000000000000001
 20
1.5
 42
0.414213562373095
 10
-1.5
 20
0.0000000000000002
 42
0.414213562373095
 10
0.0
 20
-1.5
 10
0.0
 20
0.0
 10
1.5
 20
0.0
 42
-0.414213562373095
 10
-0.0000000000000003
 20
-1.5
 10
0.0
 20
0.0
 10
0.0
 20
1.5
 10
-0.1567926949
 20
1.4917828431
 10
-0.3118675362
 20
1.4672214011
 10
-0.4635254916
 20
1.4265847744
 10
-0.6101049646
 20
1.3703181865
 10
-0.75
 20
1.2990381057
 10
-0.8816778784
 20
1.2135254916
 10
-1.0036959095
 20
1.1147172382
 10
-1.1147172382
 20
1.0036959095
 10
-1.2135254916
 20
0.8816778784
 10
-1.2990381057
 20
0.75
 10
-1.3703181865
 20
0.6101049646
 10
-1.4265847744
 20
0.4635254916
 10
-1.4672214011
 20
0.3118675362
 10
-1.4917828431
 20
0.1567926949
 10
-1.5
 20
0.0
 10
0.0
 20
0.0
 10
1.5
 20
0.0
 10
0.0
 20
0.0
 10
-1.5
 20
0.0
  0
LWPOLYLINE
  5
4F0
330
218
100
AcDbEntity
  8
SK3
 48
0.2
100
AcDbPolyline
 90
        3
 70
     0
 43
0.0
 10
0.9999999943
 20
13.5
 10
0.9992932339
 20
13.4260850059
 10
0.9988691743
 20
6.2
  0
LWPOLYLINE
  5
4F1
330
218
100
AcDbEntity
  8
1
100
AcDbPolyline
 90
        3
 70
     0
 43
0.0
 10
0.0
 20
1.5
 10
0.0
 20
0.0
 10
0.0
 20
-1.5
  0
ENDSEC
  0
SECTION
  2
OBJECTS
  0
DICTIONARY
  5
C
330
0
100
AcDbDictionary
281
     1
  3
ACAD_GROUP
350
D
  3
ACAD_LAYOUT
350
1A
  3
ACAD_MLEADERSTYLE
350
321
  3
ACAD_MLINESTYLE
350
17
  3
ACAD_PLOTSETTINGS
350
19
  3
ACAD_PLOTSTYLENAME
350
E
  3
ACAD_TABLESTYLE
350
320
  0
DICTIONARY
  5
D
102
{ACAD_REACTORS
330
C
102
}
330
C
100
AcDbDictionary
281
     1
  0
DICTIONARY
  5
1A
102
{ACAD_REACTORS
330
C
102
}
330
C
100
AcDbDictionary
281
     1
  3
Layout1
350
30B
  3
Model
350
30A
  0
DICTIONARY
  5
321
102
{ACAD_REACTORS
330
C
102
}
330
C
100
AcDbDictionary
281
     1
  0
DICTIONARY
  5
17
102
{ACAD_REACTORS
330
C
102
}
330
C
100
AcDbDictionary
281
     1
  3
Standard
350
18
  0
DICTIONARY
  5
19
102
{ACAD_REACTORS
330
C
102
}
330
C
100
AcDbDictionary
281
     1
  0
ACDBDICTIONARYWDFLT
  5
E
102
{ACAD_REACTORS
330
C
102
}
330
C
100
AcDbDictionary
281
     1
  3
Normal
350
F
100
AcDbDictionaryWithDefault
340
F
  0
DICTIONARY
  5
320
102
{ACAD_REACTORS
330
C
102
}
330
C
100
AcDbDictionary
281
     1
  0
LAYOUT
  5
30B
102
{ACAD_REACTORS
330
1A
102
}
330
1A
100
AcDbPlotSettings
  1

  2
none_device
  4
ISO_A2_(594.00_x_420.00_MM)
  6

 40
0.0
 41
0.0
 42
0.0
 43
0.0
 44
594.0
 45
420.0
 46
0.0
 47
0.0
 48
0.0
 49
0.0
140
0.0
141
0.0
142
1.0
143
1.0
 70
     0
 72
     1
 73
     0
 74
     0
  7

 75
     0
147
1.0
148
0.0
149
0.0
100
AcDbLayout
  1
Layout1
 70
     0
 71
     1
 10
0.0
 20
0.0
 11
594.0
 21
420.0
 12
0.0
 22
0.0
 32
0.0
 14
0.0
 24
0.0
 34
0.0
 15
0.0
 25
0.0
 35
0.0
146
0.0
 13
0.0
 23
0.0
 33
0.0
 16
1.0
 26
0.0
 36
0.0
 17
0.0
 27
1.0
 37
0.0
 76
     0
330
219
  0
LAYOUT
  5
30A
102
{ACAD_REACTORS
330
1A
102
}
330
1A
100
AcDbPlotSettings
  1

  2
none_device
  4
ISO_A2_(594.00_x_420.00_MM)
  6

 40
0.0
 41
0.0
 42
0.0
 43
0.0
 44
594.0
 45
420.0
 46
0.0
 47
0.0
 48
0.0
 49
0.0
140
0.0
141
0.0
142
1.0
143
1.0
 70
  1024
 72
     1
 73
     0
 74
     0
  7

 75
     0
147
1.0
148
0.0
149
0.0
100
AcDbLayout
  1
Model
 70
     0
 71
     0
 10
0.0
 20
0.0
 11
594.0
 21
420.0
 12
0.0
 22
0.0
 32
0.0
 14
0.0
 24
0.0
 34
0.0
 15
0.0
 25
0.0
 35
0.0
146
0.0
 13
0.0
 23
0.0
 33
0.0
 16
1.0
 26
0.0
 36
0.0
 17
0.0
 27
1.0
 37
0.0
 76
     0
330
218
331
1F4
  0
MLINESTYLE
  5
18
102
{ACAD_REACTORS
330
17
102
}
330
17
100
AcDbMlineStyle
  2
STANDARD
 70
     0
  3

 62
   256
 51
90.0
 52
90.0
 71
     2
 49
0.5
 62
   256
  6
BYLAYER
 49
-0.5
 62
   256
  6
BYLAYER
  0
ACDBPLACEHOLDER
  5
F
102
{ACAD_REACTORS
330
E
102
}
330
E
  0
ENDSEC
  0
EOF
