  0
SECTION
  2
HEADER
  9
$ACADVER
  1
AC1015
  9
$ACADMAINTVER
 70
    10
  9
$DWGCODEPAGE
  3
ANSI_1252
  9
$INSBASE
 10
0.0
 20
0.0
 30
0.0
  9
$EXTMIN
 10
-22.95593166602293
 20
-57.40507444856348
 30
-0.0000000349181948
  9
$EXTMAX
 10
98.0401617358907
 20
62.59858745476072
 30
0.0000000814935747
  9
$LIMMIN
 10
0.0
 20
0.0
  9
$LIMMAX
 10
420.0
 20
297.0
  9
$ORTHOMODE
 70
     0
  9
$REGENMODE
 70
     1
  9
$FILLMODE
 70
     1
  9
$QTEXTMODE
 70
     0
  9
$MIRRTEXT
 70
     1
  9
$LTSCALE
 40
1.0
  9
$ATTMODE
 70
     1
  9
$TEXTSIZE
 40
2.5
  9
$TRACEWID
 40
1.0
  9
$TEXTSTYLE
  7
Standard
  9
$CLAYER
  8
0
  9
$CELTYPE
  6
ByLayer
  9
$CECOLOR
 62
   256
  9
$CELTSCALE
 40
1.0
  9
$DISPSILH
 70
     0
  9
$DIMSCALE
 40
1.0
  9
$DIMASZ
 40
2.5
  9
$DIMEXO
 40
0.625
  9
$DIMDLI
 40
3.75
  9
$DIMRND
 40
0.0
  9
$DIMDLE
 40
0.0
  9
$DIMEXE
 40
1.25
  9
$DIMTP
 40
0.0
  9
$DIMTM
 40
0.0
  9
$DIMTXT
 40
2.5
  9
$DIMCEN
 40
2.5
  9
$DIMTSZ
 40
0.0
  9
$DIMTOL
 70
     0
  9
$DIMLIM
 70
     0
  9
$DIMTIH
 70
     0
  9
$DIMTOH
 70
     0
  9
$DIMSE1
 70
     0
  9
$DIMSE2
 70
     0
  9
$DIMTAD
 70
     1
  9
$DIMZIN
 70
     8
  9
$DIMBLK
  1

  9
$DIMASO
 70
     1
  9
$DIMSHO
 70
     1
  9
$DIMPOST
  1

  9
$DIMAPOST
  1

  9
$DIMALT
 70
     0
  9
$DIMALTD
 70
     3
  9
$DIMALTF
 40
0.03937007874016
  9
$DIMLFAC
 40
1.0
  9
$DIMTOFL
 70
     1
  9
$DIMTVP
 40
0.0
  9
$DIMTIX
 70
     0
  9
$DIMSOXD
 70
     0
  9
$DIMSAH
 70
     0
  9
$DIMBLK1
  1

  9
$DIMBLK2
  1

  9
$DIMSTYLE
  2
ISO-25
  9
$DIMCLRD
 70
     0
  9
$DIMCLRE
 70
     0
  9
$DIMCLRT
 70
     0
  9
$DIMTFAC
 40
1.0
  9
$DIMGAP
 40
0.625
  9
$DIMJUST
 70
     0
  9
$DIMSD1
 70
     0
  9
$DIMSD2
 70
     0
  9
$DIMTOLJ
 70
     0
  9
$DIMTZIN
 70
     8
  9
$DIMALTZ
 70
     0
  9
$DIMALTTZ
 70
     0
  9
$DIMUPT
 70
     0
  9
$DIMDEC
 70
     2
  9
$DIMTDEC
 70
     2
  9
$DIMALTU
 70
     2
  9
$DIMALTTD
 70
     3
  9
$DIMTXSTY
  7
Standard
  9
$DIMAUNIT
 70
     0
  9
$DIMADEC
 70
     0
  9
$DIMALTRND
 40
0.0
  9
$DIMAZIN
 70
     0
  9
$DIMDSEP
 70
    44
  9
$DIMATFIT
 70
     3
  9
$DIMFRAC
 70
     0
  9
$DIMLDRBLK
  1

  9
$DIMLUNIT
 70
     2
  9
$DIMLWD
 70
    -2
  9
$DIMLWE
 70
    -2
  9
$DIMTMOVE
 70
     0
  9
$LUNITS
 70
     2
  9
$LUPREC
 70
     4
  9
$SKETCHINC
 40
1.0
  9
$FILLETRAD
 40
10.0
  9
$AUNITS
 70
     0
  9
$AUPREC
 70
     0
  9
$MENU
  1
.
  9
$ELEVATION
 40
0.0
  9
$PELEVATION
 40
0.0
  9
$THICKNESS
 40
0.0
  9
$LIMCHECK
 70
     0
  9
$CHAMFERA
 40
10.0
  9
$CHAMFERB
 40
10.0
  9
$CHAMFERC
 40
20.0
  9
$CHAMFERD
 40
0.0
  9
$SKPOLY
 70
     0
  9
$TDCREATE
 40
2455187.305229988
  9
$TDUCREATE
 40
2455187.263563321
  9
$TDUPDATE
 40
2455187.311684259
  9
$TDUUPDATE
 40
2455187.270017592
  9
$TDINDWG
 40
0.0035600231
  9
$TDUSRTIMER
 40
0.0035600231
  9
$USRTIMER
 70
     1
  9
$ANGBASE
 50
0.0
  9
$ANGDIR
 70
     0
  9
$PDMODE
 70
     0
  9
$PDSIZE
 40
0.0
  9
$PLINEWID
 40
0.0
  9
$SPLFRAME
 70
     0
  9
$SPLINETYPE
 70
     6
  9
$SPLINESEGS
 70
     8
  9
$HANDSEED
  5
26A
  9
$SURFTAB1
 70
     6
  9
$SURFTAB2
 70
     6
  9
$SURFTYPE
 70
     6
  9
$SURFU
 70
     6
  9
$SURFV
 70
     6
  9
$UCSBASE
  2

  9
$UCSNAME
  2

  9
$UCSORG
 10
0.0
 20
0.0
 30
0.0
  9
$UCSXDIR
 10
1.0
 20
0.0
 30
0.0
  9
$UCSYDIR
 10
0.0
 20
1.0
 30
0.0
  9
$UCSORTHOREF
  2

  9
$UCSORTHOVIEW
 70
     0
  9
$UCSORGTOP
 10
0.0
 20
0.0
 30
0.0
  9
$UCSORGBOTTOM
 10
0.0
 20
0.0
 30
0.0
  9
$UCSORGLEFT
 10
0.0
 20
0.0
 30
0.0
  9
$UCSORGRIGHT
 10
0.0
 20
0.0
 30
0.0
  9
$UCSORGFRONT
 10
0.0
 20
0.0
 30
0.0
  9
$UCSORGBACK
 10
0.0
 20
0.0
 30
0.0
  9
$PUCSBASE
  2

  9
$PUCSNAME
  2

  9
$PUCSORG
 10
0.0
 20
0.0
 30
0.0
  9
$PUCSXDIR
 10
1.0
 20
0.0
 30
0.0
  9
$PUCSYDIR
 10
0.0
 20
1.0
 30
0.0
  9
$PUCSORTHOREF
  2

  9
$PUCSORTHOVIEW
 70
     0
  9
$PUCSORGTOP
 10
0.0
 20
0.0
 30
0.0
  9
$PUCSORGBOTTOM
 10
0.0
 20
0.0
 30
0.0
  9
$PUCSORGLEFT
 10
0.0
 20
0.0
 30
0.0
  9
$PUCSORGRIGHT
 10
0.0
 20
0.0
 30
0.0
  9
$PUCSORGFRONT
 10
0.0
 20
0.0
 30
0.0
  9
$PUCSORGBACK
 10
0.0
 20
0.0
 30
0.0
  9
$USERI1
 70
     0
  9
$USERI2
 70
     0
  9
$USERI3
 70
     0
  9
$USERI4
 70
     0
  9
$USERI5
 70
     0
  9
$USERR1
 40
0.0
  9
$USERR2
 40
0.0
  9
$USERR3
 40
0.0
  9
$USERR4
 40
0.0
  9
$USERR5
 40
0.0
  9
$WORLDVIEW
 70
     1
  9
$SHADEDGE
 70
     3
  9
$SHADEDIF
 70
    70
  9
$TILEMODE
 70
     1
  9
$MAXACTVP
 70
    64
  9
$PINSBASE
 10
0.0
 20
0.0
 30
0.0
  9
$PLIMCHECK
 70
     0
  9
$PEXTMIN
 10
1.000000000000000E+20
 20
1.000000000000000E+20
 30
1.000000000000000E+20
  9
$PEXTMAX
 10
-1.000000000000000E+20
 20
-1.000000000000000E+20
 30
-1.000000000000000E+20
  9
$PLIMMIN
 10
0.0
 20
0.0
  9
$PLIMMAX
 10
420.0
 20
297.0
  9
$UNITMODE
 70
     0
  9
$VISRETAIN
 70
     1
  9
$PLINEGEN
 70
     0
  9
$PSLTSCALE
 70
     1
  9
$TREEDEPTH
 70
  3020
  9
$CMLSTYLE
  2
Standard
  9
$CMLJUST
 70
     0
  9
$CMLSCALE
 40
20.0
  9
$PROXYGRAPHICS
 70
     1
  9
$MEASUREMENT
 70
     1
  9
$CELWEIGHT
370
    -1
  9
$ENDCAPS
280
     0
  9
$JOINSTYLE
280
     0
  9
$LWDISPLAY
290
     0
  9
$INSUNITS
 70
     4
  9
$HYPERLINKBASE
  1

  9
$STYLESHEET
  1

  9
$XEDIT
290
     1
  9
$CEPSNTYPE
380
     0
  9
$PSTYLEMODE
290
     1
  9
$FINGERPRINTGUID
  2
{D73F997E-DB7E-4C5A-9306-E8C7AA6209DE}
  9
$VERSIONGUID
  2
{F2901FC4-0235-41B1-B542-F431C973121F}
  9
$EXTNAMES
290
     1
  9
$PSVPSCALE
 40
0.0
  9
$OLESTARTUP
290
     0
  0
ENDSEC
  0
SECTION
  2
CLASSES
  0
CLASS
  1
ACDBDICTIONARYWDFLT
  2
AcDbDictionaryWithDefault
  3
AutoCAD 2000
 90
        0
280
     0
281
     0
  0
CLASS
  1
ACDBPLACEHOLDER
  2
AcDbPlaceHolder
  3
AutoCAD 2000
 90
        0
280
     0
281
     0
  0
CLASS
  1
LAYOUT
  2
AcDbLayout
  3
AutoCAD 2000
 90
        0
280
     0
281
     0
  0
ENDSEC
  0
SECTION
  2
TABLES
  0
TABLE
  2
VPORT
  5
8
330
0
100
AcDbSymbolTable
 70
     4
  0
VPORT
  5
269
330
8
100
AcDbSymbolTableRecord
100
AcDbViewportTableRecord
  2
*Active
 70
     0
 10
0.0
 20
0.0
 11
1.0
 21
1.0
 12
37.54211503493387
 22
2.596756503098617
 13
0.0
 23
0.0
 14
10.0
 24
10.0
 15
10.0
 25
10.0
 16
0.0
 26
0.0
 36
1.0
 17
0.0
 27
0.0
 37
0.0
 40
121.7641068212213
 41
2.475490196078431
 42
50.0
 43
0.0
 44
0.0
 50
0.0
 51
0.0
 71
     0
 72
  1000
 73
     1
 74
     3
 75
     0
 76
     0
 77
     0
 78
     0
281
     0
 65
     1
110
0.0
120
0.0
130
0.0
111
1.0
121
0.0
131
0.0
112
0.0
122
1.0
132
0.0
 79
     0
146
0.0
  0
ENDTAB
  0
TABLE
  2
LTYPE
  5
5
330
0
100
AcDbSymbolTable
 70
     3
  0
LTYPE
  5
14
330
5
100
AcDbSymbolTableRecord
100
AcDbLinetypeTableRecord
  2
ByBlock
 70
     0
  3

 72
    65
 73
     0
 40
0.0
  0
LTYPE
  5
15
330
5
100
AcDbSymbolTableRecord
100
AcDbLinetypeTableRecord
  2
ByLayer
 70
     0
  3

 72
    65
 73
     0
 40
0.0
  0
LTYPE
  5
16
330
5
100
AcDbSymbolTableRecord
100
AcDbLinetypeTableRecord
  2
Continuous
 70
     0
  3
Solid line
 72
    65
 73
     0
 40
0.0
  0
LTYPE
  5
5F
330
5
100
AcDbSymbolTableRecord
100
AcDbLinetypeTableRecord
  2
CENTER
 70
     0
  3
____ _ ____ _ ____ _ ____ _ ____ _ ____ _ ____
 72
    65
 73
     4
 40
0.6
 49
0.375
 74
     0
 49
-0.075
 74
     0
 49
0.075
 74
     0
 49
-0.075
 74
     0
  0
LTYPE
  5
60
330
5
100
AcDbSymbolTableRecord
100
AcDbLinetypeTableRecord
  2
HIDDEN
 70
     0
  3
- - - - - - - - - - - - - - - - - - - -
 72
    65
 73
     2
 40
0.2
 49
0.1
 74
     0
 49
-0.1
 74
     0
  0
ENDTAB
  0
TABLE
  2
LAYER
  5
2
102
{ACAD_XDICTIONARY
360
1F9
102
}
330
0
100
AcDbSymbolTable
 70
     9
  0
LAYER
  5
10
330
2
100
AcDbSymbolTableRecord
100
AcDbLayerTableRecord
  2
0
 70
     0
 62
     7
  6
Continuous
370
    -3
390
F
  0
LAYER
  5
63
330
2
100
AcDbSymbolTableRecord
100
AcDbLayerTableRecord
  2
Defpoints
 70
     0
 62
     7
  6
Continuous
290
     0
370
    -3
390
F
  0
LAYER
  5
64
330
2
100
AcDbSymbolTableRecord
100
AcDbLayerTableRecord
  2
2
 70
     0
 62
     7
  6
Continuous
370
    -3
390
F
  0
LAYER
  5
65
330
2
100
AcDbSymbolTableRecord
100
AcDbLayerTableRecord
  2
1
 70
     0
 62
     4
  6
Continuous
370
    -3
390
F
  0
LAYER
  5
66
330
2
100
AcDbSymbolTableRecord
100
AcDbLayerTableRecord
  2
3
 70
     0
 62
     1
  6
HIDDEN
370
    -3
390
F
  0
LAYER
  5
67
330
2
100
AcDbSymbolTableRecord
100
AcDbLayerTableRecord
  2
4
 70
     0
 62
     2
  6
CENTER
370
    -3
390
F
  0
LAYER
  5
68
330
2
100
AcDbSymbolTableRecord
100
AcDbLayerTableRecord
  2
6
 70
     0
 62
     5
  6
Continuous
370
    -3
390
F
  0
LAYER
  5
69
330
2
100
AcDbSymbolTableRecord
100
AcDbLayerTableRecord
  2
CUT
 70
     0
 62
     1
  6
Continuous
370
    -3
390
F
  0
LAYER
  5
1F8
330
2
100
AcDbSymbolTableRecord
100
AcDbLayerTableRecord
  2
NOCUT
 70
     0
 62
     7
  6
Continuous
370
    -3
390
F
  0
ENDTAB
  0
TABLE
  2
STYLE
  5
3
330
0
100
AcDbSymbolTable
 70
     1
  0
STYLE
  5
11
330
3
100
AcDbSymbolTableRecord
100
AcDbTextStyleTableRecord
  2
Standard
 70
     0
 40
0.0
 41
1.0
 50
0.0
 71
     0
 42
2.5
  3
txt
  4

  0
ENDTAB
  0
TABLE
  2
VIEW
  5
6
330
0
100
AcDbSymbolTable
 70
     0
  0
ENDTAB
  0
TABLE
  2
UCS
  5
7
330
0
100
AcDbSymbolTable
 70
     0
  0
ENDTAB
  0
TABLE
  2
APPID
  5
9
330
0
100
AcDbSymbolTable
 70
     1
  0
APPID
  5
12
330
9
100
AcDbSymbolTableRecord
100
AcDbRegAppTableRecord
  2
ACAD
 70
     0
  0
ENDTAB
  0
TABLE
  2
DIMSTYLE
  5
A
330
0
100
AcDbSymbolTable
 70
     2
100
AcDbDimStyleTable
 71
     0
  0
DIMSTYLE
105
27
102
{ACAD_REACTORS
330
104
330
10F
330
112
330
139
102
}
330
A
100
AcDbSymbolTableRecord
100
AcDbDimStyleTableRecord
  2
ISO-25
 70
     0
 41
2.5
 42
0.625
 43
3.75
 44
1.25
 73
     0
 74
     0
 77
     1
 78
     8
140
2.5
141
2.5
143
0.03937007874016
147
0.625
171
     3
172
     1
271
     2
272
     2
274
     3
278
    44
283
     0
284
     8
340
11
  0
DIMSTYLE
105
6A
330
A
100
AcDbSymbolTableRecord
100
AcDbDimStyleTableRecord
  2
STANDARD
 70
     0
 41
2.5
 47
0.01
 48
0.01
 71
     1
 73
     0
 74
     0
 77
     1
 78
     8
140
3.5
178
     5
271
     3
272
     3
284
     8
340
11
341
2B
342
2B
343
2B
344
2B
  0
ENDTAB
  0
TABLE
  2
BLOCK_RECORD
  5
1
330
0
100
AcDbSymbolTable
 70
    10
  0
BLOCK_RECORD
  5
1F
330
1
100
AcDbSymbolTableRecord
100
AcDbBlockTableRecord
  2
*Model_Space
340
22
  0
BLOCK_RECORD
  5
1B
330
1
100
AcDbSymbolTableRecord
100
AcDbBlockTableRecord
  2
*Paper_Space
340
1E
  0
BLOCK_RECORD
  5
23
330
1
100
AcDbSymbolTableRecord
100
AcDbBlockTableRecord
  2
*Paper_Space0
340
26
  0
BLOCK_RECORD
  5
2B
330
1
100
AcDbSymbolTableRecord
100
AcDbBlockTableRecord
  2
_ARROW_FILLED
340
0
  0
BLOCK_RECORD
  5
193
330
1
100
AcDbSymbolTableRecord
100
AcDbBlockTableRecord
  2
*D2
340
0
  0
BLOCK_RECORD
  5
19F
330
1
100
AcDbSymbolTableRecord
100
AcDbBlockTableRecord
  2
*D3
340
0
  0
BLOCK_RECORD
  5
1AB
330
1
100
AcDbSymbolTableRecord
100
AcDbBlockTableRecord
  2
*D4
340
0
  0
BLOCK_RECORD
  5
1B9
330
1
100
AcDbSymbolTableRecord
100
AcDbBlockTableRecord
  2
*D5
340
0
  0
ENDTAB
  0
ENDSEC
  0
SECTION
  2
BLOCKS
  0
BLOCK
  5
20
330
1F
100
AcDbEntity
  8
0
100
AcDbBlockBegin
  2
*Model_Space
 70
     0
 10
0.0
 20
0.0
 30
0.0
  3
*Model_Space
  1

  0
ENDBLK
  5
21
330
1F
100
AcDbEntity
  8
0
100
AcDbBlockEnd
  0
BLOCK
  5
1C
330
1B
100
AcDbEntity
 67
     1
  8
0
100
AcDbBlockBegin
  2
*Paper_Space
 70
     0
 10
0.0
 20
0.0
 30
0.0
  3
*Paper_Space
  1

  0
ENDBLK
  5
1D
330
1B
100
AcDbEntity
 67
     1
  8
0
100
AcDbBlockEnd
  0
BLOCK
  5
24
330
23
100
AcDbEntity
  8
0
100
AcDbBlockBegin
  2
*Paper_Space0
 70
     0
 10
0.0
 20
0.0
 30
0.0
  3
*Paper_Space0
  1

  0
ENDBLK
  5
25
330
23
100
AcDbEntity
  8
0
100
AcDbBlockEnd
  0
BLOCK
  5
2D
330
2B
100
AcDbEntity
  8
0
100
AcDbBlockBegin
  2
_ARROW_FILLED
 70
     0
 10
0.0
 20
0.0
 30
0.0
  3
_ARROW_FILLED
  1

  0
SOLID
  5
2C
330
2B
100
AcDbEntity
  8
0
  6
ByBlock
 62
     0
100
AcDbTrace
 10
0.0
 20
0.0
 30
0.0
 11
-1.0
 21
0.132
 31
0.0
 12
-1.0
 22
-0.132
 32
0.0
 13
-1.0
 23
-0.132
 33
0.0
  0
ENDBLK
  5
2E
330
2B
100
AcDbEntity
  8
0
  6
ByBlock
 62
     0
100
AcDbBlockEnd
  0
BLOCK
  5
19D
330
193
100
AcDbEntity
  8
0
100
AcDbBlockBegin
  2
*D2
 70
     1
 10
0.0
 20
0.0
 30
0.0
  3
*D2
  1

  0
LINE
  5
243
330
193
100
AcDbEntity
  8
2
 62
     0
370
    -2
100
AcDbLine
 10
49.99999999999989
 20
22.6476543100417
 30
0.0
 11
49.99999999999989
 21
59.70969565875481
 31
0.0
  0
LINE
  5
244
330
193
100
AcDbEntity
  8
2
 62
     0
370
    -2
100
AcDbLine
 10
-0.0000000000001136
 20
33.62494172845021
 30
0.0
 11
-0.0000000000001121
 21
59.70969565875481
 31
0.0
  0
LINE
  5
245
330
193
100
AcDbEntity
  8
2
 62
     0
370
    -2
100
AcDbLine
 10
47.49999999999988
 20
58.45969565875481
 30
0.0
 11
2.499999999999888
 21
58.45969565875481
 31
0.0
  0
SOLID
  5
246
330
193
100
AcDbEntity
  8
2
 62
     0
100
AcDbTrace
 10
47.49999999999988
 20
58.87636232542147
 30
0.0
 11
47.49999999999988
 21
58.04302899208814
 31
0.0
 12
49.99999999999989
 22
58.45969565875481
 32
0.0
 13
49.99999999999989
 23
58.45969565875481
 33
0.0
  0
SOLID
  5
247
330
193
100
AcDbEntity
  8
2
 62
     0
100
AcDbTrace
 10
2.499999999999888
 20
58.87636232542147
 30
0.0
 11
2.499999999999888
 21
58.04302899208814
 31
0.0
 12
-0.0000000000001121
 22
58.45969565875481
 32
0.0
 13
-0.0000000000001121
 23
58.45969565875481
 33
0.0
  0
MTEXT
  5
248
330
193
100
AcDbEntity
  8
2
 62
     0
100
AcDbMText
 10
25.97996166823185
 20
60.83469565875481
 30
0.0
 40
3.5
 41
0.0
 71
     5
 72
     1
  1
50
 73
     1
 44
1.0
  0
POINT
  5
249
330
193
100
AcDbEntity
  8
Defpoints
 62
     0
100
AcDbPoint
 10
49.99999999999989
 20
22.0226543100417
 30
0.0
  0
POINT
  5
24A
330
193
100
AcDbEntity
  8
Defpoints
 62
     0
100
AcDbPoint
 10
-0.0000000000001137
 20
32.99994172845021
 30
0.0
  0
POINT
  5
24B
330
193
100
AcDbEntity
  8
Defpoints
 62
     0
100
AcDbPoint
 10
-0.0000000000001121
 20
58.45969565875481
 30
0.0
  0
ENDBLK
  5
19E
330
193
100
AcDbEntity
  8
0
100
AcDbBlockEnd
  0
BLOCK
  5
1A9
330
19F
100
AcDbEntity
  8
0
100
AcDbBlockBegin
  2
*D3
 70
     1
 10
0.0
 20
0.0
 30
0.0
  3
*D3
  1

  0
LINE
  5
260
330
19F
100
AcDbEntity
  8
2
 62
     0
370
    -2
100
AcDbLine
 10
-0.8750000000001136
 20
13.49999999999982
 30
0.0
 11
-20.06691752273343
 21
13.49999999999983
 31
0.0
  0
LINE
  5
261
330
19F
100
AcDbEntity
  8
2
 62
     0
370
    -2
100
AcDbLine
 10
-0.8750000000002273
 20
-13.5
 30
0.0
 11
-20.06691752273343
 21
-13.49999999999999
 31
0.0
  0
LINE
  5
262
330
19F
100
AcDbEntity
  8
2
 62
     0
370
    -2
100
AcDbLine
 10
-18.81691752273343
 20
10.99999999999983
 30
0.0
 11
-18.81691752273343
 21
-10.99999999999999
 31
0.0
  0
SOLID
  5
263
330
19F
100
AcDbEntity
  8
2
 62
     0
100
AcDbTrace
 10
-19.23358418940009
 20
10.99999999999983
 30
0.0
 11
-18.40025085606676
 21
10.99999999999983
 31
0.0
 12
-18.81691752273343
 22
13.49999999999983
 32
0.0
 13
-18.81691752273343
 23
13.49999999999983
 33
0.0
  0
SOLID
  5
264
330
19F
100
AcDbEntity
  8
2
 62
     0
100
AcDbTrace
 10
-19.2335841894001
 20
-10.99999999999999
 30
0.0
 11
-18.40025085606677
 21
-10.99999999999999
 31
0.0
 12
-18.81691752273343
 22
-13.49999999999999
 32
0.0
 13
-18.81691752273343
 23
-13.49999999999999
 33
0.0
  0
MTEXT
  5
265
330
19F
100
AcDbEntity
  8
2
 62
     0
100
AcDbMText
 10
-21.19191752273343
 20
0.0087116887315236
 30
0.0
 40
3.5
 41
0.0
 71
     5
 72
     1
  1
%%c27
 11
0.0000000000000001
 21
1.0
 31
0.0
 73
     1
 44
1.0
  0
POINT
  5
266
330
19F
100
AcDbEntity
  8
Defpoints
 62
     0
100
AcDbPoint
 10
-0.2500000000001137
 20
13.49999999999982
 30
0.0
  0
POINT
  5
267
330
19F
100
AcDbEntity
  8
Defpoints
 62
     0
100
AcDbPoint
 10
-0.2500000000002274
 20
-13.5
 30
0.0
  0
POINT
  5
268
330
19F
100
AcDbEntity
  8
Defpoints
 62
     0
100
AcDbPoint
 10
-18.81691752273343
 20
-13.49999999999999
 30
0.0
  0
ENDBLK
  5
1AA
330
19F
100
AcDbEntity
  8
0
100
AcDbBlockEnd
  0
BLOCK
  5
1B7
330
1AB
100
AcDbEntity
  8
0
100
AcDbBlockBegin
  2
*D4
 70
     1
 10
0.0
 20
0.0
 30
0.0
  3
*D4
  1

  0
LINE
  5
255
330
1AB
100
AcDbEntity
  8
2
 62
     0
370
    -2
100
AcDbLine
 10
0.1249999999997726
 20
-6.200000000000073
 30
0.0
 11
-8.535937500000217
 21
-6.200000000000071
 31
0.0
  0
LINE
  5
256
330
1AB
100
AcDbEntity
  8
2
 62
     0
370
    -2
100
AcDbLine
 10
0.1249999999998864
 20
6.200000000000187
 30
0.0
 11
-8.535937500000214
 21
6.20000000000019
 31
0.0
  0
LINE
  5
257
330
1AB
100
AcDbEntity
  8
2
 62
     0
370
    -2
100
AcDbLine
 10
-7.285937500000217
 20
-8.700000000000072
 30
0.0
 11
-7.285937500000218
 21
-11.20000000000007
 31
0.0
  0
LINE
  5
258
330
1AB
100
AcDbEntity
  8
2
 62
     0
370
    -2
100
AcDbLine
 10
-7.285937500000214
 20
8.700000000000189
 30
0.0
 11
-7.285937500000213
 21
11.20000000000018
 31
0.0
  0
LINE
  5
259
330
1AB
100
AcDbEntity
  8
2
 62
     0
370
    -2
100
AcDbLine
 10
-7.285937500000217
 20
-6.200000000000071
 30
0.0
 11
-7.285937500000214
 21
6.20000000000019
 31
0.0
  0
SOLID
  5
25A
330
1AB
100
AcDbEntity
  8
2
 62
     0
100
AcDbTrace
 10
-7.702604166666884
 20
-8.700000000000072
 30
0.0
 11
-6.86927083333355
 21
-8.700000000000072
 31
0.0
 12
-7.285937500000217
 22
-6.200000000000071
 32
0.0
 13
-7.285937500000217
 23
-6.200000000000071
 33
0.0
  0
SOLID
  5
25B
330
1AB
100
AcDbEntity
  8
2
 62
     0
100
AcDbTrace
 10
-7.702604166666881
 20
8.700000000000189
 30
0.0
 11
-6.869270833333547
 21
8.700000000000189
 31
0.0
 12
-7.285937500000214
 22
6.20000000000019
 32
0.0
 13
-7.285937500000214
 23
6.20000000000019
 33
0.0
  0
MTEXT
  5
25C
330
1AB
100
AcDbEntity
  8
2
 62
     0
100
AcDbMText
 10
-9.952604166666883
 20
-0.157723342349868
 30
0.0
 40
3.5
 41
0.0
 71
     5
 72
     1
  1
12,4
 11
0.0000000000000001
 21
1.0
 31
0.0
 73
     1
 44
1.0
  0
POINT
  5
25D
330
1AB
100
AcDbEntity
  8
Defpoints
 62
     0
100
AcDbPoint
 10
0.7499999999997727
 20
-6.200000000000073
 30
0.0
  0
POINT
  5
25E
330
1AB
100
AcDbEntity
  8
Defpoints
 62
     0
100
AcDbPoint
 10
0.7499999999998864
 20
6.200000000000187
 30
0.0
  0
POINT
  5
25F
330
1AB
100
AcDbEntity
  8
Defpoints
 62
     0
100
AcDbPoint
 10
-7.285937500000214
 20
6.20000000000019
 30
0.0
  0
ENDBLK
  5
1B8
330
1AB
100
AcDbEntity
  8
0
100
AcDbBlockEnd
  0
BLOCK
  5
1C3
330
1B9
100
AcDbEntity
  8
0
100
AcDbBlockBegin
  2
*D5
 70
     1
 10
0.0
 20
0.0
 30
0.0
  3
*D5
  1

  0
LINE
  5
23A
330
1B9
100
AcDbEntity
  8
2
 62
     0
370
    -2
100
AcDbLine
 10
35.87911837294984
 20
44.27000000000001
 30
0.0
 11
71.00718634689993
 21
44.27
 31
0.0
  0
LINE
  5
23B
330
1B9
100
AcDbEntity
  8
2
 62
     0
370
    -2
100
AcDbLine
 10
50.87499999999977
 20
-44.26999999999989
 30
0.0
 11
71.00718634689989
 21
-44.26999999999989
 31
0.0
  0
LINE
  5
23C
330
1B9
100
AcDbEntity
  8
2
 62
     0
370
    -2
100
AcDbLine
 10
69.75718634689993
 20
41.77
 30
0.0
 11
69.75718634689989
 21
-41.76999999999989
 31
0.0
  0
SOLID
  5
23D
330
1B9
100
AcDbEntity
  8
2
 62
     0
100
AcDbTrace
 10
69.34051968023325
 20
41.77
 30
0.0
 11
70.1738530135666
 21
41.77
 31
0.0
 12
69.75718634689993
 22
44.27
 32
0.0
 13
69.75718634689993
 23
44.27
 33
0.0
  0
SOLID
  5
23E
330
1B9
100
AcDbEntity
  8
2
 62
     0
100
AcDbTrace
 10
69.34051968023323
 20
-41.76999999999989
 30
0.0
 11
70.17385301356657
 21
-41.76999999999989
 31
0.0
 12
69.75718634689989
 22
-44.26999999999989
 32
0.0
 13
69.75718634689989
 23
-44.26999999999989
 33
0.0
  0
MTEXT
  5
23F
330
1B9
100
AcDbEntity
  8
2
 62
     0
100
AcDbMText
 10
67.09051968023324
 20
0.0000000000000003
 30
0.0
 40
3.5
 41
0.0
 71
     5
 72
     1
  1
%%c88,54
 11
0.0000000000000001
 21
1.0
 31
0.0
 73
     1
 44
1.0
  0
POINT
  5
240
330
1B9
100
AcDbEntity
  8
Defpoints
 62
     0
100
AcDbPoint
 10
35.25411837294984
 20
44.27000000000001
 30
0.0
  0
POINT
  5
241
330
1B9
100
AcDbEntity
  8
Defpoints
 62
     0
100
AcDbPoint
 10
50.24999999999977
 20
-44.26999999999989
 30
0.0
  0
POINT
  5
242
330
1B9
100
AcDbEntity
  8
Defpoints
 62
     0
100
AcDbPoint
 10
69.75718634689989
 20
-44.26999999999989
 30
0.0
  0
ENDBLK
  5
1C4
330
1B9
100
AcDbEntity
  8
0
100
AcDbBlockEnd
  0
ENDSEC
  0
SECTION
  2
ENTITIES
  0
LINE
  5
101
330
1F
100
AcDbEntity
  8
1
100
AcDbLine
 10
1.999999999999772
 20
-35.00000000000017
 30
0.0
 11
12.11324865404987
 21
-35.00000000000017
 31
0.0
  0
LINE
  5
102
330
1F
100
AcDbEntity
  8
3
100
AcDbLine
 10
17.99999999999977
 20
-13.5
 30
0.0
 11
0.9999999999997726
 21
-13.5
 31
0.0
  0
LINE
  5
103
330
1F
100
AcDbEntity
  8
4
100
AcDbLine
 10
-1.500000000000227
 20
0.0
 30
0.0
 11
50.1038809131499
 21
0.0
 31
0.0
  0
DIMENSION
  5
104
330
1F
100
AcDbEntity
  8
2
100
AcDbDimension
  2
*D2
 10
-0.0000000000001121
 20
58.45969565875481
 30
0.0
 11
25.97996166823185
 21
58.45969565875481
 31
0.0
 70
   160
 71
     5
 42
50.0
  3
ISO-25
100
AcDbAlignedDimension
 13
49.99999999999989
 23
22.0226543100417
 33
0.0
 14
-0.0000000000001137
 24
32.99994172845021
 34
0.0
 50
180.0
100
AcDbRotatedDimension
1001
ACAD
1000
DSTYLE
1002
{
1070
   140
1040
3.5
1002
}
  0
LINE
  5
105
330
1F
100
AcDbEntity
  8
1
100
AcDbLine
 10
1.999999999999772
 20
34.99999999999983
 30
0.0
 11
12.11324865404987
 21
34.99999999999983
 31
0.0
  0
LINE
  5
106
330
1F
100
AcDbEntity
  8
3
100
AcDbLine
 10
17.99999999999977
 20
13.49999999999982
 30
0.0
 11
0.9999999999997726
 21
13.49999999999982
 31
0.0
  0
ARC
  5
107
330
1F
100
AcDbEntity
  8
1
100
AcDbCircle
 10
1.999999999999772
 20
33.00000000000011
 30
0.0
 40
2.0
100
AcDbArc
 50
90.0
 51
180.0
  0
LINE
  5
108
330
1F
100
AcDbEntity
  8
1
100
AcDbLine
 10
1.999999999999772
 20
34.99999999999983
 30
0.0
 11
1.999999999999772
 21
6.200000000000187
 31
0.0
  0
TEXT
  5
109
330
1F
100
AcDbEntity
  8
6
100
AcDbText
 10
23.39786766736334
 20
-57.39846395247622
 30
0.0
 40
5.0
  1
15P1H045050F2R00
 41
0.8
 72
     1
 11
51.73120100069667
 21
-57.39846395247622
 31
0.0
100
AcDbText
  0
LINE
  5
10A
330
1F
100
AcDbEntity
  8
1
100
AcDbLine
 10
-0.0000000000001137
 20
-33.00000000000017
 30
0.0
 11
-0.0000000000001137
 21
-7.200000000000073
 31
0.0
  0
LINE
  5
10B
330
1F
100
AcDbEntity
  8
1
100
AcDbLine
 10
-0.0000000000001137
 20
-7.200000000000073
 30
0.0
 11
-0.0000000000001137
 21
-32.96785812534997
 31
0.0
  0
LINE
  5
10C
330
1F
100
AcDbEntity
  8
1
100
AcDbLine
 10
-0.0000000000001137
 20
-33.00000000000017
 30
0.0
 11
-0.0000000000001137
 21
-7.200000000000073
 31
0.0
  0
LINE
  5
10D
330
1F
100
AcDbEntity
  8
1
100
AcDbLine
 10
1.999999999999772
 20
-6.200000000000073
 30
0.0
 11
1.999999999999772
 21
-35.00000000000017
 31
0.0
  0
ARC
  5
10E
330
1F
100
AcDbEntity
  8
1
100
AcDbCircle
 10
1.999999999999772
 20
-33.00000000000017
 30
0.0
 40
2.0
100
AcDbArc
 50
180.0
 51
270.0
  0
DIMENSION
  5
10F
330
1F
100
AcDbEntity
  8
2
100
AcDbDimension
  2
*D3
 10
-18.81691752273343
 20
-13.49999999999999
 30
0.0
 11
-18.81691752273343
 21
0.0087116887315233
 31
0.0
 70
   160
  1
%%c<>
 71
     5
 42
26.99999999999983
  3
ISO-25
100
AcDbAlignedDimension
 13
-0.2500000000001137
 23
13.49999999999982
 33
0.0
 14
-0.2500000000002274
 24
-13.5
 34
0.0
 50
270.0
100
AcDbRotatedDimension
1001
ACAD
1000
DSTYLE
1002
{
1070
   140
1040
3.5
1002
}
  0
LINE
  5
110
330
1F
100
AcDbEntity
  8
1
100
AcDbLine
 10
6.999999999999772
 20
-5.600000000000079
 30
0.0
 11
6.999999999999886
 21
5.599999999999823
 31
0.0
  0
LINE
  5
111
330
1F
100
AcDbEntity
  8
1
100
AcDbLine
 10
6.999999999999772
 20
5.599999999999823
 30
0.0
 11
6.999999999999772
 21
-5.600000000000079
 31
0.0
  0
DIMENSION
  5
112
330
1F
100
AcDbEntity
  8
2
100
AcDbDimension
  2
*D4
 10
-7.285937500000214
 20
6.20000000000019
 30
0.0
 11
-7.285937500000216
 21
-0.1577233423498683
 31
0.0
 70
   160
 71
     5
 42
12.40000000000026
  3
ISO-25
100
AcDbAlignedDimension
 13
0.7499999999997727
 23
-6.200000000000073
 33
0.0
 14
0.7499999999998864
 24
6.200000000000187
 34
0.0
 50
90.0
100
AcDbRotatedDimension
1001
ACAD
1000
DSTYLE
1002
{
1070
   140
1040
3.5
1002
}
  0
LINE
  5
113
330
1F
100
AcDbEntity
  8
1
100
AcDbLine
 10
0.9999999999997726
 20
-6.200000000000073
 30
0.0
 11
6.399999999999806
 21
-6.200000000000073
 31
0.0
  0
LINE
  5
114
330
1F
100
AcDbEntity
  8
1
100
AcDbLine
 10
6.399999999999863
 20
-6.200000000000073
 30
0.0
 11
0.9999999999997726
 21
-6.200000000000073
 31
0.0
  0
LINE
  5
115
330
1F
100
AcDbEntity
  8
3
100
AcDbLine
 10
0.9988691742997843
 20
-13.5
 30
0.0
 11
-0.0000000000001137
 21
-14.07666949794989
 31
0.0
  0
LINE
  5
116
330
1F
100
AcDbEntity
  8
3
100
AcDbLine
 10
0.9997173683498772
 20
-13.5
 30
0.0
 11
0.9991872470498037
 21
-13.42604209735006
 31
0.0
  0
LINE
  5
117
330
1F
100
AcDbEntity
  8
1
100
AcDbLine
 10
0.9999999999997726
 20
-6.200000000000073
 30
0.0
 11
-0.0000000000001137
 21
-7.200000000000073
 31
0.0
  0
LINE
  5
118
330
1F
100
AcDbEntity
  8
1
100
AcDbLine
 10
0.9999999999997726
 20
-6.200000000000073
 30
0.0
 11
-0.0000000000001137
 21
-7.200000000000073
 31
0.0
  0
LINE
  5
119
330
1F
100
AcDbEntity
  8
3
100
AcDbLine
 10
0.9991872470498037
 20
-13.42604209735006
 30
0.0
 11
0.9988691742997843
 21
-6.200000000000073
 31
0.0
  0
ARC
  5
11A
330
1F
100
AcDbEntity
  8
1
100
AcDbCircle
 10
6.399999999999806
 20
-5.600000000000079
 30
0.0
 40
0.5999999999999997
100
AcDbArc
 50
270.0
 51
0.0
  0
ARC
  5
11B
330
1F
100
AcDbEntity
  8
1
100
AcDbCircle
 10
6.399999999999863
 20
-5.600000000000079
 30
0.0
 40
0.5999999999999997
100
AcDbArc
 50
270.0
 51
0.0
  0
LINE
  5
11C
330
1F
100
AcDbEntity
  8
1
100
AcDbLine
 10
-0.0000000000001137
 20
7.200000000000017
 30
0.0
 11
-0.0000000000001137
 21
33.00000000000011
 31
0.0
  0
LINE
  5
11D
330
1F
100
AcDbEntity
  8
1
100
AcDbLine
 10
-0.0000000000001137
 20
32.99994172845021
 30
0.0
 11
-0.0000000000001137
 21
7.200000000000017
 31
0.0
  0
LINE
  5
11E
330
1F
100
AcDbEntity
  8
1
100
AcDbLine
 10
0.0
 20
0.0
 30
0.0
 11
0.0
 21
1.967117971271477
 31
0.0
  0
LINE
  5
11F
330
1F
100
AcDbEntity
  8
1
100
AcDbLine
 10
0.9999999999997726
 20
6.200000000000187
 30
0.0
 11
6.399999999999863
 21
6.200000000000187
 31
0.0
  0
LINE
  5
120
330
1F
100
AcDbEntity
  8
1
100
AcDbLine
 10
0.9999999999997726
 20
6.200000000000187
 30
0.0
 11
6.399999999999863
 21
6.200000000000187
 31
0.0
  0
LINE
  5
121
330
1F
100
AcDbEntity
  8
1
100
AcDbLine
 10
-0.0000000000001137
 20
7.200000000000017
 30
0.0
 11
0.9999999999997726
 21
6.200000000000187
 31
0.0
  0
LINE
  5
122
330
1F
100
AcDbEntity
  8
1
100
AcDbLine
 10
-0.0000000000001137
 20
7.200000000000017
 30
0.0
 11
0.9999999999997726
 21
6.200000000000187
 31
0.0
  0
LINE
  5
123
330
1F
100
AcDbEntity
  8
3
100
AcDbLine
 10
0.9988691742997843
 20
13.49999999999982
 30
0.0
 11
-0.0000000000001137
 21
14.07666949795003
 31
0.0
  0
LINE
  5
124
330
1F
100
AcDbEntity
  8
3
100
AcDbLine
 10
0.9988691742997843
 20
6.200000000000187
 30
0.0
 11
0.9988691742997843
 21
13.49999999999982
 31
0.0
  0
ARC
  5
125
330
1F
100
AcDbEntity
  8
1
100
AcDbCircle
 10
6.399999999999806
 20
5.599999999999823
 30
0.0
 40
0.5999999999999997
100
AcDbArc
 50
0.0
 51
90.0
  0
ARC
  5
126
330
1F
100
AcDbEntity
  8
1
100
AcDbCircle
 10
6.399999999999863
 20
5.599999999999823
 30
0.0
 40
0.5999999999999997
100
AcDbArc
 50
0.0
 51
90.0
  0
LINE
  5
127
330
1F
100
AcDbEntity
  8
1
100
AcDbLine
 10
26.89843951236889
 20
40.02970548373821
 30
0.0
 11
39.573297705274
 21
18.07620711489582
 31
0.0
  0
LINE
  5
128
330
1F
100
AcDbEntity
  8
1
100
AcDbLine
 10
40.10988533360733
 20
19.55046950676961
 30
0.0
 11
28.43433723631233
 21
39.77311201749853
 31
0.0
  0
LINE
  5
129
330
1F
100
AcDbEntity
  8
1
100
AcDbLine
 10
28.99132197468429
 20
39.57038615159822
 30
0.0
 11
40.27999253229916
 21
20.0178351959021
 31
0.0
  0
LINE
  5
12A
330
1F
100
AcDbEntity
  8
1
100
AcDbLine
 10
36.57410899310838
 20
42.33029491899384
 30
0.0
 11
47.86277955072352
 21
22.77774396329769
 31
0.0
  0
LINE
  5
12B
330
1F
100
AcDbEntity
  8
1
100
AcDbLine
 10
48.41976428909515
 20
22.57501809739713
 30
0.0
 11
36.74421619243537
 21
42.79766060702621
 31
0.0
  0
LINE
  5
12C
330
1F
100
AcDbEntity
  8
1
100
AcDbLine
 10
37.28080382013354
 20
44.27192299999981
 30
0.0
 11
49.95566201367381
 21
22.3184246300579
 31
0.0
  0
LINE
  5
12D
330
1F
100
AcDbEntity
  8
1
100
AcDbLine
 10
28.43723799264978
 20
37.36442833328183
 30
0.0
 11
28.43723799264978
 21
-6.200000000000073
 31
0.0
  0
LINE
  5
12E
330
1F
100
AcDbEntity
  8
CUT
100
AcDbLine
 10
28.99132197468429
 20
39.57038615159822
 30
0.0
 11
40.27999253229916
 21
20.0178351959021
 31
0.0
  0
LINE
  5
12F
330
1F
100
AcDbEntity
  8
CUT
100
AcDbLine
 10
40.10988533360733
 20
19.55046950676961
 30
0.0
 11
28.43433723631233
 21
39.77311201749853
 31
0.0
  0
LINE
  5
130
330
1F
100
AcDbEntity
  8
CUT
100
AcDbLine
 10
26.89843951236878
 20
40.02970548373821
 30
0.0
 11
39.573297705274
 21
18.07620711489582
 31
0.0
  0
LINE
  5
131
330
1F
100
AcDbEntity
  8
CUT
100
AcDbLine
 10
37.28080382013354
 20
44.27192299999981
 30
0.0
 11
49.95566201367364
 21
22.3184246300579
 31
0.0
  0
LINE
  5
132
330
1F
100
AcDbEntity
  8
CUT
100
AcDbLine
 10
48.41976428909515
 20
22.57501809739713
 30
0.0
 11
36.74421619243537
 21
42.79766060702621
 31
0.0
  0
LINE
  5
133
330
1F
100
AcDbEntity
  8
CUT
100
AcDbLine
 10
36.57410899310815
 20
42.33029491899384
 30
0.0
 11
47.86277955072352
 21
22.77774396329769
 31
0.0
  0
ARC
  5
135
330
1F
100
AcDbEntity
  8
1
100
AcDbCircle
 10
12.11324865404987
 20
40.00000000000011
 30
0.0
 40
5.0
100
AcDbArc
 50
270.0
 51
329.9999999999986
  0
LINE
  5
136
330
1F
100
AcDbEntity
  8
1
100
AcDbLine
 10
12.11324865404987
 20
34.99999999999983
 30
0.0
 11
12.11324865404987
 21
-35.00000000000017
 31
0.0
  0
LINE
  5
137
330
1F
100
AcDbEntity
  8
1
100
AcDbLine
 10
16.44337567299987
 20
37.50000000000011
 30
0.0
 11
16.44337567299987
 21
-37.5
 31
0.0
  0
LINE
  5
138
330
1F
100
AcDbEntity
  8
1
100
AcDbLine
 10
19.02057423659982
 20
-39.96383885340006
 30
0.0
 11
19.02057423659982
 21
39.9638388534
 31
0.0
  0
DIMENSION
  5
139
330
1F
100
AcDbEntity
  8
2
100
AcDbDimension
  2
*D5
 10
69.75718634689989
 20
-44.26999999999989
 30
0.0
 11
69.75718634689991
 21
0.0
 31
0.0
 70
   160
  1
%%c<>
 71
     5
 42
88.5399999999999
  3
ISO-25
100
AcDbAlignedDimension
 13
35.25411837294984
 23
44.27000000000001
 33
0.0
 14
50.24999999999977
 24
-44.26999999999989
 34
0.0
 50
270.0
100
AcDbRotatedDimension
1001
ACAD
1000
DSTYLE
1002
{
1070
   140
1040
3.5
1002
}
  0
LINE
  5
13A
330
1F
100
AcDbEntity
  8
1
100
AcDbLine
 10
37.28080382013354
 20
-44.27192299999998
 30
0.0
 11
49.95566201367364
 21
-22.3184246300579
 31
0.0
  0
LINE
  5
13B
330
1F
100
AcDbEntity
  8
1
100
AcDbLine
 10
28.43723799264978
 20
-0.353990018228302
 30
0.0
 11
28.43723799264978
 21
-39.96383885340006
 31
0.0
  0
LINE
  5
13C
330
1F
100
AcDbEntity
  8
1
100
AcDbLine
 10
37.25596367809998
 20
-41.97331840310016
 30
0.0
 11
48.36602540379999
 21
-22.73012701894998
 31
0.0
  0
LINE
  5
13D
330
1F
100
AcDbEntity
  8
1
100
AcDbLine
 10
27.09283621726388
 20
-40.56380604445599
 30
0.0
 11
37.28080382013354
 21
-44.27192299999998
 31
0.0
  0
LINE
  5
13E
330
1F
100
AcDbEntity
  8
1
100
AcDbLine
 10
30.14733870929978
 20
-40.2653757494499
 30
0.0
 11
36.04791813094988
 21
-42.41301102390008
 31
0.0
  0
LINE
  5
13F
330
1F
100
AcDbEntity
  8
1
100
AcDbLine
 10
19.02057423659982
 20
-39.96383885340006
 30
0.0
 11
28.43723799264978
 21
-39.96383885340006
 31
0.0
  0
ARC
  5
140
330
1F
100
AcDbEntity
  8
1
100
AcDbCircle
 10
12.11324865404987
 20
-40.0
 30
0.0
 40
5.0
100
AcDbArc
 50
30.00000000000125
 51
90.0
  0
LINE
  5
141
330
1F
100
AcDbEntity
  8
1
100
AcDbLine
 10
16.44337567299987
 20
-37.5
 30
0.0
 11
17.28852342904986
 21
-38.96383885340006
 31
0.0
  0
ARC
  5
142
330
1F
100
AcDbEntity
  8
1
100
AcDbCircle
 10
19.02057423659982
 20
-37.96383885340006
 30
0.0
 40
2.0
100
AcDbArc
 50
209.9999999997005
 51
270.0
  0
LWPOLYLINE
  5
143
330
1F
100
AcDbEntity
  8
1
100
AcDbPolyline
 90
       39
 70
     0
 43
0.0
 10
27.09283693945087
 20
-40.56380630743177
 10
27.08119242646484
 20
-40.55885625671268
 10
27.07108883256222
 20
-40.55338878571117
 10
27.06255882554688
 20
-40.54731662385026
 10
27.0555044037398
 20
-40.54090158239847
 10
27.04992651733078
 20
-40.53438132929747
 10
27.04556097313883
 20
-40.52774102818048
 10
27.0421785560834
 20
-40.52105559635328
 10
27.03967528090697
 20
-40.51429345034387
 10
27.03788555963683
 20
-40.50745355905547
 10
27.03676497899022
 20
-40.50051919366928
 10
27.03622148629358
 20
-40.49347981729326
 10
27.03623240844666
 20
-40.48631582114938
 10
27.03674774917999
 20
-40.479007283876
 10
27.03775742693818
 20
-40.47154459845958
 10
27.03923589973351
 20
-40.46391470760028
 10
27.04117956058604
 20
-40.45610804981118
 10
27.04357567247285
 20
-40.44811414632278
 10
27.04642608543747
 20
-40.43992268838528
 10
27.04972638049895
 20
-40.43152329081877
 10
27.05348263151705
 20
-40.42290569754928
 10
27.05769626123003
 20
-40.41405965668238
 10
27.06237680030267
 20
-40.4049747566217
 10
27.06753010057076
 20
-40.3956406864308
 10
27.07316860759948
 20
-40.38604688287768
 10
27.07930161393631
 20
-40.37618306231968
 10
27.08594442712666
 20
-40.36603808338926
 10
27.09310916353013
 20
-40.35560162539519
 10
27.1008146937765
 20
-40.3448609526088
 10
27.10907659018585
 20
-40.33380439902077
 10
27.11791686421747
 20
-40.32241843194526
 10
27.127355027252
 20
-40.31068962239968
 10
27.13741415722137
 20
-40.2986059890332
 10
27.14811546575248
 20
-40.28615507716938
 10
27.15948406509068
 20
-40.27332486426508
 10
27.17154212088297
 20
-40.26010415915218
 10
27.18431968281197
 20
-40.24647801349428
 10
27.19785887053626
 20
-40.23242541944248
 10
27.21214564175812
 20
-40.21795337870989
  0
LWPOLYLINE
  5
144
330
1F
100
AcDbEntity
  8
1
100
AcDbPolyline
 90
       39
 70
     0
 43
0.0
 10
27.21214564175812
 20
-40.21795337870989
 10
27.19190031007753
 20
-40.21605066065669
 10
27.17249687488885
 20
-40.21398869618496
 10
27.15395048035515
 20
-40.21176381511489
 10
27.13621569728707
 20
-40.20938702989028
 10
27.11926049492899
 20
-40.20686629092648
 10
27.10305981791538
 20
-40.20420710875117
 10
27.0875855706152
 20
-40.20141620086408
 10
27.07281484179498
 20
-40.19849789896525
 10
27.05872349270015
 20
-40.19545807414519
 10
27.04528711106798
 20
-40.19229882180186
 10
27.03247975584014
 20
-40.18902386674688
 10
27.02028187274453
 20
-40.18563419513339
 10
27.00867032800346
 20
-40.18213200697917
 10
26.99762993163727
 20
-40.17851739422119
 10
26.98714249408084
 20
-40.17479185963026
 10
26.97719388581032
 20
-40.17095337389918
 10
26.96776757460617
 20
-40.16700177315257
 10
26.95885257065867
 20
-40.16293296051938
 10
26.95043493938851
 20
-40.15874509989879
 10
26.9425069748915
 20
-40.15443123608818
 10
26.93505741835298
 20
-40.1499874028672
 10
26.92808299363071
 20
-40.14540279261939
 10
26.92157568659138
 20
-40.14067072239178
 10
26.91553844545836
 20
-40.13577485383168
 10
26.90996782199784
 20
-40.13070549273519
 10
26.90487500278533
 20
-40.12543602438478
 10
26.90026124821685
 20
-40.11995197211169
 10
26.89615288026681
 20
-40.11420722421678
 10
26.89255569920447
 20
-40.10817361652107
 10
26.88953252360466
 20
-40.10178283165979
 10
26.88710598936939
 20
-40.09499271416228
 10
26.88540244529787
 20
-40.08769660566656
 10
26.88448143855629
 20
-40.07980338673718
 10
26.88456601016417
 20
-40.0712242720557
 10
26.88584857490872
 20
-40.06177964673407
 10
26.88848056270995
 20
-40.05165088825768
 10
26.89270448689541
 20
-40.04097468874107
 10
26.93195978311996
 20
-39.96383885340006
  0
LINE
  5
145
330
1F
100
AcDbEntity
  8
1
100
AcDbLine
 10
27.21214564175812
 20
-40.21795337870989
 30
0.0
 11
28.43723799264978
 21
-39.77205622847148
 31
0.0
  0
ARC
  5
146
330
1F
100
AcDbEntity
  8
1
100
AcDbCircle
 10
28.43723799264978
 20
-44.96383885339997
 30
0.0
 40
5.0
100
AcDbArc
 50
69.99999999999992
 51
90.0
  0
ARC
  5
147
330
1F
100
AcDbEntity
  8
1
100
AcDbCircle
 10
36.38993827429988
 20
-41.47331840310008
 30
0.0
 40
1.0
100
AcDbArc
 50
249.9999999999999
 51
329.9999999999986
  0
LINE
  5
148
330
1F
100
AcDbEntity
  8
3
100
AcDbLine
 10
40.49999999999977
 20
-10.00000000000017
 30
0.0
 11
28.99999999999988
 21
-10.00000000000017
 31
0.0
  0
LINE
  5
149
330
1F
100
AcDbEntity
  8
3
100
AcDbLine
 10
40.49999999999989
 20
9.999999999999829
 30
0.0
 11
28.99999999999988
 21
9.999999999999829
 31
0.0
  0
LINE
  5
14A
330
1F
100
AcDbEntity
  8
3
100
AcDbLine
 10
28.50053755399989
 20
-6.5
 30
0.0
 11
28.50053755399989
 21
6.499999999999829
 31
0.0
  0
LINE
  5
14B
330
1F
100
AcDbEntity
  8
3
100
AcDbLine
 10
22.49946736234977
 20
-6.5
 30
0.0
 11
22.49946736234977
 21
6.499999999999829
 31
0.0
  0
LINE
  5
14C
330
1F
100
AcDbEntity
  8
3
100
AcDbLine
 10
28.99999999999988
 20
-10.00000000000017
 30
0.0
 11
28.99999999999988
 21
9.999999999999829
 31
0.0
  0
LINE
  5
14D
330
1F
100
AcDbEntity
  8
3
100
AcDbLine
 10
21.99999999999977
 20
-12.90000000000014
 30
0.0
 11
21.99999999999977
 21
12.89999999999992
 31
0.0
  0
LINE
  5
14E
330
1F
100
AcDbEntity
  8
3
100
AcDbLine
 10
19.49282032299987
 20
13.89999999999992
 30
0.0
 11
19.49282032299987
 21
-13.90000000000014
 31
0.0
  0
LINE
  5
14F
330
1F
100
AcDbEntity
  8
3
100
AcDbLine
 10
17.99999999999977
 20
13.49999999999982
 30
0.0
 11
17.99999999999977
 21
-13.5
 31
0.0
  0
ARC
  5
150
330
1F
100
AcDbEntity
  8
3
100
AcDbCircle
 10
20.99999999999977
 20
-12.90000000000014
 30
0.0
 40
1.0
100
AcDbArc
 50
270.0
 51
0.0
  0
LINE
  5
151
330
1F
100
AcDbEntity
  8
3
100
AcDbLine
 10
19.49282032299987
 20
-13.90000000000014
 30
0.0
 11
17.99999999999977
 21
-13.5
 31
0.0
  0
LINE
  5
152
330
1F
100
AcDbEntity
  8
3
100
AcDbLine
 10
20.99999999999988
 20
-13.90000000000014
 30
0.0
 11
19.49282032299987
 21
-13.90000000000014
 31
0.0
  0
LINE
  5
153
330
1F
100
AcDbEntity
  8
3
100
AcDbLine
 10
28.50053755399989
 20
-6.5
 30
0.0
 11
22.49946736234977
 21
-6.5
 31
0.0
  0
LINE
  5
154
330
1F
100
AcDbEntity
  8
3
100
AcDbLine
 10
21.99999999999977
 20
-6.999426437250065
 30
0.0
 11
22.49946736234977
 21
-6.5
 31
0.0
  0
LINE
  5
155
330
1F
100
AcDbEntity
  8
3
100
AcDbLine
 10
28.99999999999988
 20
-6.999421143549881
 30
0.0
 11
28.50053755399989
 21
-6.5
 31
0.0
  0
ARC
  5
156
330
1F
100
AcDbEntity
  8
3
100
AcDbCircle
 10
20.99999999999988
 20
12.89999999999992
 30
0.0
 40
1.0
100
AcDbArc
 50
0.0
 51
90.0
  0
LINE
  5
157
330
1F
100
AcDbEntity
  8
3
100
AcDbLine
 10
19.49282032299987
 20
13.89999999999992
 30
0.0
 11
17.99999999999977
 21
13.49999999999982
 31
0.0
  0
LINE
  5
158
330
1F
100
AcDbEntity
  8
3
100
AcDbLine
 10
20.99999999999988
 20
13.89999999999992
 30
0.0
 11
19.49282032299987
 21
13.89999999999992
 31
0.0
  0
LINE
  5
159
330
1F
100
AcDbEntity
  8
3
100
AcDbLine
 10
28.50053755399989
 20
6.499999999999829
 30
0.0
 11
22.49946736234977
 21
6.499999999999829
 31
0.0
  0
LINE
  5
15A
330
1F
100
AcDbEntity
  8
3
100
AcDbLine
 10
21.99999999999977
 20
6.999426437249837
 30
0.0
 11
22.49946736234977
 21
6.499999999999829
 31
0.0
  0
LINE
  5
15B
330
1F
100
AcDbEntity
  8
3
100
AcDbLine
 10
28.99999999999988
 20
6.999421143550108
 30
0.0
 11
28.50053755399989
 21
6.499999999999829
 31
0.0
  0
LINE
  5
15C
330
1F
100
AcDbEntity
  8
1
100
AcDbLine
 10
48.49999999999977
 20
0.0
 30
0.0
 11
48.49999999999977
 21
5.234782885849938
 31
0.0
  0
LINE
  5
15D
330
1F
100
AcDbEntity
  8
3
100
AcDbLine
 10
41.49999999999988
 20
-13.07798018199997
 30
0.0
 11
41.49999999999988
 21
13.0779801820002
 31
0.0
  0
LINE
  5
15E
330
1F
100
AcDbEntity
  8
3
100
AcDbLine
 10
48.07357643634986
 20
-18.20141500624998
 30
0.0
 11
41.92642356364984
 21
-13.89713222624999
 31
0.0
  0
ARC
  5
15F
330
1F
100
AcDbEntity
  8
3
100
AcDbCircle
 10
42.49999999999977
 20
-13.07798018199997
 30
0.0
 40
1.0
100
AcDbArc
 50
180.0
 51
234.999999999999
  0
ARC
  5
160
330
1F
100
AcDbEntity
  8
3
100
AcDbCircle
 10
40.49999999999977
 20
-11.0
 30
0.0
 40
1.0
100
AcDbArc
 50
0.0
 51
90.0
  0
LINE
  5
161
330
1F
100
AcDbEntity
  8
1
100
AcDbLine
 10
48.49999999999977
 20
-19.88558589094748
 30
0.0
 11
48.49999999999977
 21
1.299345218300118
 31
0.0
  0
LINE
  5
162
330
1F
100
AcDbEntity
  8
1
100
AcDbLine
 10
48.44151360371234
 20
-22.56710199431816
 30
0.0
 11
49.64195588364913
 21
-22.13017673618588
 31
0.0
  0
LWPOLYLINE
  5
163
330
1F
100
AcDbEntity
  8
1
100
AcDbPolyline
 90
       39
 70
     0
 43
0.0
 10
49.76126530704386
 20
-21.78432406980456
 10
49.77291576572525
 20
-21.78927722331729
 10
49.78302357876299
 20
-21.79474813330207
 10
49.79155599100488
 20
-21.80082426480816
 10
49.79861127704731
 20
-21.8072432221009
 10
49.80418853733033
 20
-21.81376672122329
 10
49.80855255427417
 20
-21.82040989621157
 10
49.81193315629685
 20
-21.82709791550797
 10
49.8144343157407
 20
-21.83386239765357
 10
49.81622181230483
 20
-21.84070444044647
 10
49.81734006621167
 20
-21.84764077084406
 10
49.8178811951168
 20
-21.85468194272658
 10
49.81786788561397
 20
-21.86184757706166
 10
49.81735016332817
 20
-21.86915761802529
 10
49.81633812547404
 20
-21.87662165820788
 10
49.81485733312235
 20
-21.88425274979627
 10
49.81291141123733
 20
-21.89206044852889
 10
49.8105131189293
 20
-21.90005522539757
 10
49.80766062130391
 20
-21.90824738323308
 10
49.8043583546908
 20
-21.9166473025675
 10
49.80060026511836
 20
-21.9252652304263
 10
49.79638495054229
 20
-21.93411140572166
 10
49.79170290111568
 20
-21.94319623447179
 10
49.78654828205737
 20
-21.95253001839466
 10
49.78090867560457
 20
-21.96212330304578
 10
49.77477481493815
 20
-21.9719863605263
 10
49.76813141557648
 20
-21.98213031765595
 10
49.76096638498245
 20
-21.99256548688228
 10
49.75326087998962
 20
-22.00330459192807
 10
49.74499935083099
 20
-22.01435929275879
 10
49.7361598295098
 20
-22.02574308996207
 10
49.72672284637297
 20
-22.03746938088517
 10
49.71666536466028
 20
-22.04955013398787
 10
49.70596621066204
 20
-22.0619977789108
 10
49.69460031174026
 20
-22.07482432293667
 10
49.68254553757953
 20
-22.08804094683697
 10
49.66977189439887
 20
-22.10166256816356
 10
49.65623733845382
 20
-22.11571016233838
 10
49.64195588364913
 20
-22.13017673618588
  0
LWPOLYLINE
  5
164
330
1F
100
AcDbEntity
  8
1
100
AcDbPolyline
 90
       39
 70
     0
 43
0.0
 10
49.64195588364913
 20
-22.13017673618588
 10
49.66219366711982
 20
-22.13207868766216
 10
49.68159037392081
 20
-22.13413980162349
 10
49.70013088654702
 20
-22.13636374017647
 10
49.71786055768422
 20
-22.13873951416559
 10
49.73481136210705
 20
-22.14125918631617
 10
49.75100831528078
 20
-22.14391725679129
 10
49.76647946975868
 20
-22.14670702428367
 10
49.78124768194033
 20
-22.14962416062866
 10
49.79533702470104
 20
-22.15266280216138
 10
49.80877189984903
 20
-22.15582086651147
 10
49.82157823845284
 20
-22.15909464363116
 10
49.83377554011986
 20
-22.1624831480683
 10
49.84538689386204
 20
-22.16598418622248
 10
49.85642746427117
 20
-22.169597672029
 10
49.86691541535487
 20
-22.17332211142499
 10
49.87686485141847
 20
-22.17715953675616
 10
49.8862922758247
 20
-22.18111011869979
 10
49.89520865912948
 20
-22.18517796207618
 10
49.90362791196492
 20
-22.18936490382367
 10
49.91155771971131
 20
-22.19367790929305
 10
49.91900931943536
 20
-22.19812094681279
 10
49.92598597259529
 20
-22.20270483165339
 10
49.93249567233585
 20
-22.20743625518028
 10
49.93853545401567
 20
-22.21233156386438
 10
49.94410875118387
 20
-22.21740045956329
 10
49.94920435691176
 20
-22.22266956430766
 10
49.95382098245653
 20
-22.22815335306415
 10
49.95793229893701
 20
-22.23389796727389
 10
49.96153250193447
 20
-22.23993158338467
 10
49.96455873714348
 20
-22.24632258318718
 10
49.96698836878704
 20
-22.25311312955688
 10
49.9686949422358
 20
-22.26041005145657
 10
49.96961894002038
 20
-22.26830448546766
 10
49.96953691065653
 20
-22.27688566623379
 10
49.96825621019718
 20
-22.28633376557897
 10
49.96562490283617
 20
-22.29646710367856
 10
49.96139981863939
 20
-22.30714885569307
 10
49.95566201367364
 20
-22.3184246300579
  0
LWPOLYLINE
  5
165
330
1F
100
AcDbEntity
  8
1
100
AcDbPolyline
 90
       13
 70
     0
 43
0.0
 10
49.76126530704386
 20
-21.78432406980456
 10
49.812999445733
 20
-21.80767236588957
 10
49.8592960754645
 20
-21.83681702189557
 10
49.90043046821984
 20
-21.87215031376416
 10
49.93557680792986
 20
-21.91249540626665
 10
49.96408853402988
 20
-21.95707280124981
 10
49.98570314289219
 20
-22.00508275377498
 10
49.99999999999989
 20
-22.05575215841588
 10
50.00680693039078
 20
-22.10822159293488
 10
50.00581386618296
 20
-22.16171059487817
 10
49.99701384959184
 20
-22.21520917536108
 10
49.98028277565277
 20
-22.26728841772865
 10
49.95566201367364
 20
-22.3184246300579
  0
LINE
  5
166
330
1F
100
AcDbEntity
  8
1
100
AcDbLine
 10
48.49999999999977
 20
-21.32526104050356
 30
0.0
 11
49.76126530704386
 21
-21.78432406980456
 31
0.0
  0
ARC
  5
167
330
1F
100
AcDbEntity
  8
1
100
AcDbCircle
 10
47.49999999999977
 20
-22.23012701894998
 30
0.0
 40
1.0
100
AcDbArc
 50
329.9999999999986
 51
0.0
  0
LINE
  5
168
330
1F
100
AcDbEntity
  8
1
100
AcDbLine
 10
48.49999999999977
 20
-19.26421621525008
 30
0.0
 11
48.49999999999977
 21
-22.21820320554988
 31
0.0
  0
ARC
  5
169
330
1F
100
AcDbEntity
  8
3
100
AcDbCircle
 10
47.49999999999977
 20
-19.02056705054988
 30
0.0
 40
1.0
100
AcDbArc
 50
0.0000000000977066
 51
55.00000002200144
  0
LINE
  5
16A
330
1F
100
AcDbEntity
  8
1
100
AcDbLine
 10
48.49999999999977
 20
-15.62344543870006
 30
0.0
 11
48.49999999999977
 21
-22.23002181194999
 31
0.0
  0
LINE
  5
16B
330
1F
100
AcDbEntity
  8
1
100
AcDbLine
 10
40.27999253229916
 20
20.0178351959021
 30
0.0
 11
47.86277955072352
 21
22.77774396329769
 31
0.0
  0
LINE
  5
16C
330
1F
100
AcDbEntity
  8
1
100
AcDbLine
 10
48.41976428909515
 20
22.57501809739713
 30
0.0
 11
40.10988533360733
 21
19.55046950676961
 31
0.0
  0
LINE
  5
16D
330
1F
100
AcDbEntity
  8
1
100
AcDbLine
 10
39.573297705274
 20
18.07620711489582
 30
0.0
 11
49.76126530704409
 21
21.78432406980482
 31
0.0
  0
LINE
  5
16E
330
1F
100
AcDbEntity
  8
CUT
100
AcDbLine
 10
39.573297705274
 20
18.07620711489582
 30
0.0
 11
49.76126530704386
 21
21.78432406980482
 31
0.0
  0
LINE
  5
16F
330
1F
100
AcDbEntity
  8
CUT
100
AcDbLine
 10
48.41976428909515
 20
22.57501809739713
 30
0.0
 11
40.10988533360733
 21
19.55046950676961
 31
0.0
  0
LINE
  5
170
330
1F
100
AcDbEntity
  8
CUT
100
AcDbLine
 10
40.27999253229916
 20
20.0178351959021
 30
0.0
 11
47.86277955072352
 21
22.77774396329769
 31
0.0
  0
LINE
  5
171
330
1F
100
AcDbEntity
  8
3
100
AcDbLine
 10
48.07357643634986
 20
18.20141500624993
 30
0.0
 11
41.92642356364984
 21
13.89713222624993
 31
0.0
  0
LINE
  5
172
330
1F
100
AcDbEntity
  8
1
100
AcDbLine
 10
39.573297705274
 20
18.07620711489582
 30
0.0
 11
40.27999253229916
 21
20.0178351959021
 31
0.0
  0
LINE
  5
173
330
1F
100
AcDbEntity
  8
CUT
100
AcDbLine
 10
39.573297705274
 20
18.07620711489582
 30
0.0
 11
40.27999253229916
 21
20.0178351959021
 31
0.0
  0
ARC
  5
174
330
1F
100
AcDbEntity
  8
3
100
AcDbCircle
 10
40.49999999999977
 20
10.99999999999982
 30
0.0
 40
1.0
100
AcDbArc
 50
270.0
 51
0.0
  0
ARC
  5
175
330
1F
100
AcDbEntity
  8
3
100
AcDbCircle
 10
42.49999999999977
 20
13.0779801820002
 30
0.0
 40
1.0
100
AcDbArc
 50
125.0000000000005
 51
180.0
  0
LINE
  5
176
330
1F
100
AcDbEntity
  8
1
100
AcDbLine
 10
48.49999999999977
 20
19.23946938260002
 30
0.0
 11
48.49999999999977
 21
5.234782885849938
 31
0.0
  0
LINE
  5
177
330
1F
100
AcDbEntity
  8
1
100
AcDbLine
 10
47.86277955072352
 20
22.77774396329769
 30
0.0
 11
49.64195588364913
 21
22.13017673618586
 31
0.0
  0
LWPOLYLINE
  5
178
330
1F
100
AcDbEntity
  8
1
100
AcDbPolyline
 90
       39
 70
     0
 43
0.0
 10
49.76126530704409
 20
21.78432406980482
 10
49.77291576572537
 20
21.78927722331718
 10
49.78302357876299
 20
21.7947481333023
 10
49.79155599100488
 20
21.80082426480831
 10
49.79861127704731
 20
21.80724322210102
 10
49.80418853733056
 20
21.81376672122343
 10
49.80855255427417
 20
21.82040989621182
 10
49.81193315629685
 20
21.827097915508
 10
49.81443431574098
 20
21.83386239765383
 10
49.81622181230483
 20
21.84070444044653
 10
49.81734006621167
 20
21.84764077084401
 10
49.8178811951168
 20
21.85468194272661
 10
49.81786788561397
 20
21.8618475770618
 10
49.81735016332817
 20
21.86915761802521
 10
49.81633812547404
 20
21.87662165820793
 10
49.81485733312235
 20
21.88425274979633
 10
49.81291141123733
 20
21.89206044852872
 10
49.8105131189293
 20
21.90005522539749
 10
49.80766062130391
 20
21.9082473832332
 10
49.80435835469086
 20
21.91664730256761
 10
49.80060026511836
 20
21.92526523042633
 10
49.79638495054229
 20
21.93411140572183
 10
49.79170290111591
 20
21.94319623447194
 10
49.78654828205737
 20
21.95253001839481
 10
49.78090867560457
 20
21.96212330304601
 10
49.77477481493815
 20
21.9719863605261
 10
49.76813141557648
 20
21.98213031765593
 10
49.76096638498268
 20
21.99256548688239
 10
49.75326087998962
 20
22.00330459192818
 10
49.74499935083099
 20
22.01435929275882
 10
49.7361598295098
 20
22.02574308996213
 10
49.72672284637297
 20
22.03746938088519
 10
49.71666536466035
 20
22.04955013398793
 10
49.70596621066204
 20
22.06199777891103
 10
49.69460031174026
 20
22.07482432293681
 10
49.68254553757953
 20
22.08804094683693
 10
49.66977189439899
 20
22.10166256816362
 10
49.65623733845382
 20
22.11571016233833
 10
49.64195588364913
 20
22.13017673618586
  0
LWPOLYLINE
  5
179
330
1F
100
AcDbEntity
  8
1
100
AcDbPolyline
 90
       39
 70
     0
 43
0.0
 10
49.64195588364913
 20
22.13017673618586
 10
49.66219366712
 20
22.13207868766244
 10
49.68159037392081
 20
22.13413980162363
 10
49.70013088654702
 20
22.13636374017622
 10
49.71786055768427
 20
22.1387395141657
 10
49.73481136210705
 20
22.14125918631634
 10
49.75100831528078
 20
22.14391725679121
 10
49.76647946975885
 20
22.14670702428384
 10
49.78124768194033
 20
22.14962416062852
 10
49.79533702470104
 20
22.15266280216141
 10
49.80877189984903
 20
22.1558208665115
 10
49.82157823845284
 20
22.1590946436311
 10
49.83377554011986
 20
22.16248314806822
 10
49.84538689386216
 20
22.16598418622262
 10
49.85642746427135
 20
22.16959767202894
 10
49.86691541535503
 20
22.17332211142485
 10
49.8768648514187
 20
22.17715953675622
 10
49.8862922758247
 20
22.18111011869984
 10
49.89520865912965
 20
22.18517796207612
 10
49.90362791196492
 20
22.1893649038237
 10
49.91155771971131
 20
22.19367790929334
 10
49.91900931943536
 20
22.1981209468129
 10
49.92598597259529
 20
22.20270483165373
 10
49.93249567233585
 20
22.20743625518039
 10
49.93853545401567
 20
22.21233156386472
 10
49.94410875118387
 20
22.21740045956317
 10
49.94920435691176
 20
22.22266956430772
 10
49.95382098245653
 20
22.22815335306433
 10
49.95793229893718
 20
22.23389796727383
 10
49.96153250193447
 20
22.2399315833847
 10
49.96455873714348
 20
22.24632258318712
 10
49.96698836878704
 20
22.25311312955682
 10
49.9686949422358
 20
22.2604100514566
 10
49.96961894002038
 20
22.26830448546783
 10
49.96953691065653
 20
22.27688566623382
 10
49.96825621019718
 20
22.28633376557891
 10
49.96562490283617
 20
22.29646710367859
 10
49.96139981863939
 20
22.30714885569321
 10
49.95566201367381
 20
22.3184246300579
  0
LWPOLYLINE
  5
17A
330
1F
100
AcDbEntity
  8
1
100
AcDbPolyline
 90
       13
 70
     0
 43
0.0
 10
49.76126530704409
 20
21.78432406980482
 10
49.812999445733
 20
21.8076723658894
 10
49.8592960754645
 20
21.83681702189559
 10
49.90043046821984
 20
21.87215031376442
 10
49.93557680792986
 20
21.91249540626682
 10
49.96408853402988
 20
21.95707280124992
 10
49.98570314289219
 20
22.00508275377484
 10
49.99999999999989
 20
22.05575215841585
 10
50.0068069303909
 20
22.10822159293468
 10
50.00581386618302
 20
22.1617105948782
 10
49.99701384959184
 20
22.21520917536102
 10
49.98028277565277
 20
22.26728841772871
 10
49.95566201367381
 20
22.3184246300579
  0
LWPOLYLINE
  5
17B
330
1F
100
AcDbEntity
  8
CUT
100
AcDbPolyline
 90
       39
 70
     0
 43
0.0
 10
49.76126530704386
 20
21.78432406980482
 10
49.77291576572525
 20
21.78927722331718
 10
49.78302357876299
 20
21.7947481333023
 10
49.79155599100488
 20
21.80082426480831
 10
49.79861127704731
 20
21.80724322210102
 10
49.80418853733033
 20
21.81376672122343
 10
49.80855255427417
 20
21.82040989621182
 10
49.81193315629685
 20
21.827097915508
 10
49.8144343157407
 20
21.83386239765383
 10
49.81622181230483
 20
21.84070444044653
 10
49.81734006621167
 20
21.84764077084401
 10
49.8178811951168
 20
21.85468194272661
 10
49.81786788561397
 20
21.8618475770618
 10
49.81735016332817
 20
21.86915761802521
 10
49.81633812547404
 20
21.87662165820793
 10
49.81485733312235
 20
21.88425274979633
 10
49.81291141123733
 20
21.89206044852872
 10
49.8105131189293
 20
21.90005522539749
 10
49.80766062130391
 20
21.9082473832332
 10
49.8043583546908
 20
21.91664730256761
 10
49.80060026511836
 20
21.92526523042633
 10
49.79638495054229
 20
21.93411140572183
 10
49.79170290111568
 20
21.94319623447194
 10
49.78654828205737
 20
21.95253001839481
 10
49.78090867560457
 20
21.96212330304601
 10
49.77477481493815
 20
21.9719863605261
 10
49.76813141557648
 20
21.98213031765593
 10
49.76096638498245
 20
21.99256548688239
 10
49.75326087998962
 20
22.00330459192818
 10
49.74499935083099
 20
22.01435929275882
 10
49.7361598295098
 20
22.02574308996213
 10
49.72672284637297
 20
22.03746938088519
 10
49.71666536466028
 20
22.04955013398793
 10
49.70596621066204
 20
22.06199777891103
 10
49.69460031174026
 20
22.07482432293681
 10
49.68254553757953
 20
22.08804094683693
 10
49.66977189439887
 20
22.10166256816362
 10
49.65623733845382
 20
22.11571016233833
 10
49.64195588364913
 20
22.13017673618586
  0
LWPOLYLINE
  5
17C
330
1F
100
AcDbEntity
  8
CUT
100
AcDbPolyline
 90
       13
 70
     0
 43
0.0
 10
49.76126530704386
 20
21.78432406980482
 10
49.812999445733
 20
21.8076723658894
 10
49.8592960754645
 20
21.83681702189559
 10
49.90043046821984
 20
21.87215031376442
 10
49.93557680792986
 20
21.91249540626682
 10
49.96408853402988
 20
21.95707280124992
 10
49.98570314289219
 20
22.00508275377484
 10
49.99999999999989
 20
22.05575215841585
 10
50.00680693039078
 20
22.10822159293468
 10
50.00581386618296
 20
22.1617105948782
 10
49.99701384959184
 20
22.21520917536102
 10
49.98028277565277
 20
22.26728841772871
 10
49.95566201367364
 20
22.3184246300579
  0
LWPOLYLINE
  5
17D
330
1F
100
AcDbEntity
  8
CUT
100
AcDbPolyline
 90
       39
 70
     0
 43
0.0
 10
49.64195588364913
 20
22.13017673618586
 10
49.66219366711982
 20
22.13207868766244
 10
49.68159037392081
 20
22.13413980162363
 10
49.70013088654702
 20
22.13636374017622
 10
49.71786055768422
 20
22.1387395141657
 10
49.73481136210705
 20
22.14125918631634
 10
49.75100831528078
 20
22.14391725679121
 10
49.76647946975868
 20
22.14670702428384
 10
49.78124768194033
 20
22.14962416062852
 10
49.79533702470104
 20
22.15266280216141
 10
49.80877189984903
 20
22.1558208665115
 10
49.82157823845284
 20
22.1590946436311
 10
49.83377554011986
 20
22.16248314806822
 10
49.84538689386204
 20
22.16598418622262
 10
49.85642746427117
 20
22.16959767202894
 10
49.86691541535487
 20
22.17332211142485
 10
49.87686485141847
 20
22.17715953675622
 10
49.8862922758247
 20
22.18111011869984
 10
49.89520865912948
 20
22.18517796207612
 10
49.90362791196492
 20
22.1893649038237
 10
49.91155771971131
 20
22.19367790929334
 10
49.91900931943536
 20
22.1981209468129
 10
49.92598597259529
 20
22.20270483165373
 10
49.93249567233585
 20
22.20743625518039
 10
49.93853545401567
 20
22.21233156386472
 10
49.94410875118387
 20
22.21740045956317
 10
49.94920435691176
 20
22.22266956430772
 10
49.95382098245653
 20
22.22815335306433
 10
49.95793229893701
 20
22.23389796727383
 10
49.96153250193447
 20
22.2399315833847
 10
49.96455873714348
 20
22.24632258318712
 10
49.96698836878704
 20
22.25311312955682
 10
49.9686949422358
 20
22.2604100514566
 10
49.96961894002038
 20
22.26830448546783
 10
49.96953691065653
 20
22.27688566623382
 10
49.96825621019718
 20
22.28633376557891
 10
49.96562490283617
 20
22.29646710367859
 10
49.96139981863939
 20
22.30714885569321
 10
49.95566201367364
 20
22.3184246300579
  0
LINE
  5
17E
330
1F
100
AcDbEntity
  8
CUT
100
AcDbLine
 10
47.86277955072352
 20
22.77774396329769
 30
0.0
 11
49.64195588364913
 21
22.13017673618586
 31
0.0
  0
ARC
  5
17F
330
1F
100
AcDbEntity
  8
3
100
AcDbCircle
 10
47.49999999999977
 20
19.02056705055014
 30
0.0
 40
1.0
100
AcDbArc
 50
304.999999977601
 51
359.9999999999023
  0
LWPOLYLINE
  5
180
330
1F
100
AcDbEntity
  8
1
  6
Continuous
 62
     4
100
AcDbPolyline
 90
        5
 70
     0
 43
0.0
 10
48.49999999999977
 20
19.23946938260002
 10
48.4905864556498
 20
19.32342886129981
 10
48.46511216369987
 20
19.40531080515
 10
48.42358616984995
 20
19.48515538385009
 10
48.36602540379999
 20
19.5630368262
  0
LWPOLYLINE
  5
181
330
1F
100
AcDbEntity
  8
1
100
AcDbPolyline
 90
        3
 70
     0
 43
0.0
 10
48.36602540379999
 20
19.5630368262
 10
47.43102642989987
 20
20.67297086585011
 10
47.26293161815289
 20
20.87500497173593
  0
LINE
  5
182
330
1F
100
AcDbEntity
  8
1
100
AcDbLine
 10
27.09283621726388
 20
40.56380604445593
 30
0.0
 11
37.28080382013354
 21
44.27192299999981
 31
0.0
  0
LINE
  5
183
330
1F
100
AcDbEntity
  8
1
100
AcDbLine
 10
36.74421619243537
 20
42.79766060702621
 30
0.0
 11
28.43433723631233
 21
39.77311201749853
 31
0.0
  0
LINE
  5
184
330
1F
100
AcDbEntity
  8
1
100
AcDbLine
 10
28.99132197468429
 20
39.57038615159822
 30
0.0
 11
36.57410899310838
 21
42.33029491899384
 31
0.0
  0
LINE
  5
185
330
1F
100
AcDbEntity
  8
CUT
100
AcDbLine
 10
28.99132197468429
 20
39.57038615159822
 30
0.0
 11
36.57410899310815
 21
42.33029491899384
 31
0.0
  0
LINE
  5
186
330
1F
100
AcDbEntity
  8
CUT
100
AcDbLine
 10
36.74421619243537
 20
42.79766060702621
 30
0.0
 11
28.43433723631233
 21
39.77311201749853
 31
0.0
  0
LINE
  5
187
330
1F
100
AcDbEntity
  8
CUT
100
AcDbLine
 10
27.09283621726388
 20
40.56380604445593
 30
0.0
 11
37.28080382013354
 21
44.27192299999981
 31
0.0
  0
LINE
  5
188
330
1F
100
AcDbEntity
  8
1
100
AcDbLine
 10
19.02057423659982
 20
39.9638388534
 30
0.0
 11
26.76545294899978
 21
39.9638388534
 31
0.0
  0
ARC
  5
189
330
1F
100
AcDbEntity
  8
1
100
AcDbCircle
 10
19.02057423659982
 20
37.9638388534
 30
0.0
 40
2.0
100
AcDbArc
 50
90.0
 51
150.0000000002993
  0
LINE
  5
18A
330
1F
100
AcDbEntity
  8
1
100
AcDbLine
 10
16.44337567299987
 20
37.50000000000011
 30
0.0
 11
17.28852342904986
 21
38.96383885340012
 31
0.0
  0
LWPOLYLINE
  5
18B
330
1F
100
AcDbEntity
  8
1
100
AcDbPolyline
 90
       39
 70
     0
 43
0.0
 10
27.09283693945087
 20
40.56380630743183
 10
27.08119242646501
 20
40.55885625671251
 10
27.07108883256228
 20
40.55338878571123
 10
27.06255882554688
 20
40.54731662385023
 10
27.05550440373986
 20
40.54090158239842
 10
27.04992651733096
 20
40.53438132929733
 10
27.045560973139
 20
40.52774102818071
 10
27.0421785560834
 20
40.52105559635331
 10
27.03967528090714
 20
40.51429345034395
 10
27.03788555963683
 20
40.50745355905553
 10
27.03676497899022
 20
40.50051919366933
 10
27.03622148629364
 20
40.4934798172934
 10
27.03623240844683
 20
40.48631582114952
 10
27.03674774918016
 20
40.47900728387594
 10
27.03775742693818
 20
40.47154459845958
 10
27.03923589973351
 20
40.46391470760034
 10
27.04117956058604
 20
40.45610804981123
 10
27.04357567247285
 20
40.44811414632284
 10
27.04642608543747
 20
40.43992268838533
 10
27.04972638049895
 20
40.43152329081891
 10
27.05348263151705
 20
40.42290569754934
 10
27.05769626123003
 20
40.41405965668253
 10
27.06237680030284
 20
40.40497475662161
 10
27.06753010057076
 20
40.39564068643082
 10
27.07316860759948
 20
40.38604688287782
 10
27.07930161393631
 20
40.37618306231991
 10
27.08594442712666
 20
40.36603808338933
 10
27.09310916353013
 20
40.35560162539522
 10
27.10081469377667
 20
40.34486095260885
 10
27.10907659018602
 20
40.33380439902081
 10
27.1179168642177
 20
40.32241843194532
 10
27.12735502725212
 20
40.31068962239984
 10
27.13741415722137
 20
40.2986059890332
 10
27.14811546575265
 20
40.28615507716932
 10
27.15948406509068
 20
40.2733248642651
 10
27.17154212088303
 20
40.26010415915235
 10
27.18431968281214
 20
40.24647801349411
 10
27.19785887053637
 20
40.23242541944273
 10
27.21214564175812
 20
40.21795337870983
  0
LWPOLYLINE
  5
18C
330
1F
100
AcDbEntity
  8
1
100
AcDbPolyline
 90
       39
 70
     0
 43
0.0
 10
27.21214564175812
 20
40.21795337870983
 10
27.19190031007769
 20
40.21605066065672
 10
27.17249687488902
 20
40.21398869618494
 10
27.15395048035515
 20
40.21176381511483
 10
27.13621569728707
 20
40.20938702989042
 10
27.11926049492916
 20
40.20686629092651
 10
27.10305981791538
 20
40.20420710875135
 10
27.08758557061532
 20
40.20141620086412
 10
27.07281484179515
 20
40.19849789896551
 10
27.05872349270015
 20
40.19545807414533
 10
27.04528711106798
 20
40.19229882180184
 10
27.03247975584014
 20
40.18902386674702
 10
27.02028187274453
 20
40.18563419513322
 10
27.00867032800363
 20
40.1821320069792
 10
26.99762993163739
 20
40.17851739422144
 10
26.98714249408084
 20
40.17479185963009
 10
26.97719388581049
 20
40.17095337389932
 10
26.96776757460634
 20
40.16700177315243
 10
26.95885257065867
 20
40.16293296051941
 10
26.95043493938851
 20
40.15874509989891
 10
26.9425069748915
 20
40.15443123608813
 10
26.93505741835298
 20
40.14998740286734
 10
26.92808299363071
 20
40.14540279261953
 10
26.92157568659138
 20
40.14067072239183
 10
26.91553844545854
 20
40.13577485383183
 10
26.90996782199784
 20
40.13070549273542
 10
26.9048750027855
 20
40.12543602438469
 10
26.90026124821685
 20
40.11995197211141
 10
26.89615288026686
 20
40.11420722421692
 10
26.89255569920447
 20
40.10817361652101
 10
26.88953252360482
 20
40.10178283165993
 10
26.88710598936939
 20
40.0949927141622
 10
26.88540244529804
 20
40.08769660566682
 10
26.88448143855629
 20
40.0798033867372
 10
26.88456601016417
 20
40.07122427205553
 10
26.88584857490872
 20
40.061779646734
 10
26.88848056270995
 20
40.05165088825759
 10
26.89270448689552
 20
40.04097468874113
 10
26.89843951236901
 20
40.02970548373821
  0
LWPOLYLINE
  5
18D
330
1F
100
AcDbEntity
  8
CUT
100
AcDbPolyline
 90
       39
 70
     0
 43
0.0
 10
27.21214564175812
 20
40.21795337870983
 10
27.19190031007753
 20
40.21605066065672
 10
27.17249687488885
 20
40.21398869618494
 10
27.15395048035515
 20
40.21176381511483
 10
27.13621569728707
 20
40.20938702989042
 10
27.11926049492899
 20
40.20686629092651
 10
27.10305981791538
 20
40.20420710875135
 10
27.0875855706152
 20
40.20141620086412
 10
27.07281484179498
 20
40.19849789896551
 10
27.05872349270015
 20
40.19545807414533
 10
27.04528711106798
 20
40.19229882180184
 10
27.03247975584014
 20
40.18902386674702
 10
27.02028187274453
 20
40.18563419513322
 10
27.00867032800346
 20
40.1821320069792
 10
26.99762993163727
 20
40.17851739422144
 10
26.98714249408084
 20
40.17479185963009
 10
26.97719388581032
 20
40.17095337389932
 10
26.96776757460617
 20
40.16700177315243
 10
26.95885257065867
 20
40.16293296051941
 10
26.95043493938851
 20
40.15874509989891
 10
26.9425069748915
 20
40.15443123608813
 10
26.93505741835298
 20
40.14998740286734
 10
26.92808299363071
 20
40.14540279261953
 10
26.92157568659138
 20
40.14067072239183
 10
26.91553844545836
 20
40.13577485383183
 10
26.90996782199784
 20
40.13070549273542
 10
26.90487500278533
 20
40.12543602438469
 10
26.90026124821685
 20
40.11995197211141
 10
26.89615288026681
 20
40.11420722421692
 10
26.89255569920447
 20
40.10817361652101
 10
26.88953252360466
 20
40.10178283165993
 10
26.88710598936939
 20
40.0949927141622
 10
26.88540244529787
 20
40.08769660566682
 10
26.88448143855629
 20
40.0798033867372
 10
26.88456601016417
 20
40.07122427205553
 10
26.88584857490872
 20
40.061779646734
 10
26.88848056270995
 20
40.05165088825759
 10
26.89270448689541
 20
40.04097468874113
 10
26.89843951236889
 20
40.02970548373821
  0
LWPOLYLINE
  5
18E
330
1F
100
AcDbEntity
  8
CUT
100
AcDbPolyline
 90
       39
 70
     0
 43
0.0
 10
27.09283693945087
 20
40.56380630743183
 10
27.08119242646484
 20
40.55885625671251
 10
27.07108883256222
 20
40.55338878571123
 10
27.06255882554688
 20
40.54731662385023
 10
27.0555044037398
 20
40.54090158239842
 10
27.04992651733078
 20
40.53438132929733
 10
27.04556097313883
 20
40.52774102818071
 10
27.0421785560834
 20
40.52105559635331
 10
27.03967528090697
 20
40.51429345034395
 10
27.03788555963683
 20
40.50745355905553
 10
27.03676497899022
 20
40.50051919366933
 10
27.03622148629358
 20
40.4934798172934
 10
27.03623240844666
 20
40.48631582114952
 10
27.03674774917999
 20
40.47900728387594
 10
27.03775742693818
 20
40.47154459845958
 10
27.03923589973351
 20
40.46391470760034
 10
27.04117956058604
 20
40.45610804981123
 10
27.04357567247285
 20
40.44811414632284
 10
27.04642608543747
 20
40.43992268838533
 10
27.04972638049895
 20
40.43152329081891
 10
27.05348263151705
 20
40.42290569754934
 10
27.05769626123003
 20
40.41405965668253
 10
27.06237680030267
 20
40.40497475662161
 10
27.06753010057076
 20
40.39564068643082
 10
27.07316860759948
 20
40.38604688287782
 10
27.07930161393631
 20
40.37618306231991
 10
27.08594442712666
 20
40.36603808338933
 10
27.09310916353013
 20
40.35560162539522
 10
27.1008146937765
 20
40.34486095260885
 10
27.10907659018585
 20
40.33380439902081
 10
27.11791686421747
 20
40.32241843194532
 10
27.127355027252
 20
40.31068962239984
 10
27.13741415722137
 20
40.2986059890332
 10
27.14811546575248
 20
40.28615507716932
 10
27.15948406509068
 20
40.2733248642651
 10
27.17154212088297
 20
40.26010415915235
 10
27.18431968281197
 20
40.24647801349411
 10
27.19785887053626
 20
40.23242541944273
 10
27.21214564175812
 20
40.21795337870983
  0
LWPOLYLINE
  5
18F
330
1F
100
AcDbEntity
  8
1
100
AcDbPolyline
 90
        2
 70
     0
 43
0.0
 10
26.76545294899978
 20
39.9638388534
 10
27.01881551234987
 20
39.95473540069994
  0
LINE
  5
190
330
1F
100
AcDbEntity
  8
1
100
AcDbLine
 10
27.21214564175812
 20
40.21795337870983
 30
0.0
 11
28.99132197468429
 21
39.57038615159822
 31
0.0
  0
LINE
  5
191
330
1F
100
AcDbEntity
  8
CUT
100
AcDbLine
 10
27.21214564175812
 20
40.21795337870983
 30
0.0
 11
28.99132197468429
 21
39.57038615159822
 31
0.0
  0
LWPOLYLINE
  5
1F6
330
1F
100
AcDbEntity
  8
NOCUT
100
AcDbPolyline
 90
        8
 70
     0
 43
0.0
 10
-0.0000000000001137
 20
-33.00000000000017
 10
-0.0000000000001137
 20
-7.200000000000073
 10
0.9999999999997726
 20
-6.200000000000073
 10
6.399999999999863
 20
-6.200000000000073
 42
0.4142135623730951
 10
6.999999999999772
 20
-5.600000000000079
 42
-0.4142135623730951
 10
6.399999999999863
 20
-6.200000000000073
 10
0.9999999999997726
 20
-6.200000000000073
 10
-0.0000000000001137
 20
-7.200000000000073
  0
LWPOLYLINE
  5
1F7
330
1F
100
AcDbEntity
  8
NOCUT
100
AcDbPolyline
 90
       18
 70
     0
 43
0.0
 10
-0.0000000000001137
 20
-32.96785812534997
 10
-0.0000000000001137
 20
-7.200000000000073
 10
-0.0000000000002274
 20
-33.00000000000017
 42
0.4142135623730951
 10
1.999999999999772
 20
-35.00000000000017
 10
12.11324865404981
 20
-35.0
 42
-0.2679491924311169
 10
16.44337567299987
 20
-37.5
 10
17.28852342902564
 20
-38.96383885339102
 42
0.2679491924325229
 10
19.02057423659982
 20
-39.96383885340006
 10
28.43723799264978
 20
-39.96383885339998
 42
-0.0874886635259243
 10
30.14733870929978
 20
-40.2653757494499
 10
36.04791813097426
 20
-42.41301102388598
 42
0.3639702342661963
 10
37.25596367809998
 20
-41.97331840310016
 10
48.36602540378419
 20
-22.73012701895001
 42
0.1316524975874016
 10
48.49999999999977
 20
-22.23012701894998
 10
48.49999999999977
 20
0.0
 10
6.999999999999772
 20
0.0
 10
6.999999999999772
 20
-5.600000000000079
 10
6.999999999999772
 20
0.0
  0
CIRCLE
  5
202
330
1F
100
AcDbEntity
  8
1
100
AcDbCircle
 10
0.0
 20
0.0
 30
0.0
 40
1.967117971271456
  0
HATCH
  5
203
330
1F
100
AcDbEntity
  8
1
100
AcDbHatch
 10
0.0
 20
0.0
 30
0.0
210
0.0
220
0.0
230
1.0
  2
SOLID
 70
     1
 71
     0
 91
        2
 92
        7
 72
     1
 73
     1
 93
        3
 10
0.0
 20
0.0
 42
0.0
 10
1.967117971271477
 20
0.0
 42
0.4142135623730966
 10
0.0
 20
1.967117971271449
 42
0.0
 97
        0
 92
        7
 72
     1
 73
     1
 93
        3
 10
0.0
 20
-1.967117971271392
 42
0.0
 10
0.0
 20
0.0
 42
0.0
 10
-1.96711797127142
 20
0.0
 42
0.4142135623730953
 97
        0
 75
     0
 76
     1
 47
0.1190009775223266
 98
        2
 10
0.4963190690040165
 20
0.6140882339527707
 10
-0.8528911035952546
 20
-1.131084828902658
  0
LWPOLYLINE
  5
204
330
1F
100
AcDbEntity
  8
1
100
AcDbPolyline
 90
        3
 70
     1
 43
0.0
 10
0.0
 20
1.967117971271449
 10
0.0
 20
0.0
 10
1.967117971271477
 20
0.0
 42
0.4142135623730966
  0
LINE
  5
205
330
1F
100
AcDbEntity
  8
1
100
AcDbLine
 10
-0.0000000000000568
 20
7.19999999999996
 30
0.0
 11
-0.0000000000001137
 21
33.00000000000011
 31
0.0
  0
TEXT
  5
232
330
1F
100
AcDbEntity
  8
6
100
AcDbText
 10
55.36476910659188
 20
48.43568875516206
 30
0.0
 40
5.0
  1
BEHW250308R
 41
0.8
 72
     1
 11
76.69810243992521
 21
48.43568875516206
 31
0.0
100
AcDbText
  0
TEXT
  5
239
330
1F
100
AcDbEntity
  8
6
100
AcDbText
 10
83.98099983281884
 20
-4.677900073883148
 30
0.0
 40
5.0
  1
Z=3
 50
90.0
 41
0.8
 72
     1
 11
83.98099983281884
 21
0.6554332594501844
 31
0.0
100
AcDbText
  0
ENDSEC
  0
SECTION
  2
OBJECTS
  0
DICTIONARY
  5
C
330
0
100
AcDbDictionary
281
     1
  3
ACAD_GROUP
350
D
  3
ACAD_LAYOUT
350
1A
  3
ACAD_MLINESTYLE
350
17
  3
ACAD_PLOTSETTINGS
350
19
  3
ACAD_PLOTSTYLENAME
350
E
  0
DICTIONARY
  5
1F9
330
2
100
AcDbDictionary
280
     1
281
     1
  3
ACAD_LAYERSTATES
360
1FA
  0
DICTIONARY
  5
D
102
{ACAD_REACTORS
330
C
102
}
330
C
100
AcDbDictionary
281
     1
  0
DICTIONARY
  5
1A
102
{ACAD_REACTORS
330
C
102
}
330
C
100
AcDbDictionary
281
     1
  3
Layout1
350
1E
  3
Layout2
350
26
  3
Model
350
22
  0
DICTIONARY
  5
17
102
{ACAD_REACTORS
330
C
102
}
330
C
100
AcDbDictionary
281
     1
  3
Standard
350
18
  0
DICTIONARY
  5
19
102
{ACAD_REACTORS
330
C
102
}
330
C
100
AcDbDictionary
281
     1
  0
ACDBDICTIONARYWDFLT
  5
E
102
{ACAD_REACTORS
330
C
102
}
330
C
100
AcDbDictionary
281
     1
  3
Normal
350
F
100
AcDbDictionaryWithDefault
340
F
  0
DICTIONARY
  5
1FA
102
{ACAD_REACTORS
330
1F9
102
}
330
1F9
100
AcDbDictionary
281
     1
  0
LAYOUT
  5
1E
102
{ACAD_REACTORS
330
1A
102
}
330
1A
100
AcDbPlotSettings
  1

  2
\\ingdc01\ITB3
  4

  6

 40
0.0
 41
0.0
 42
0.0
 43
0.0
 44
0.0
 45
0.0
 46
0.0
 47
0.0
 48
0.0
 49
0.0
140
0.0
141
0.0
142
1.0
143
1.0
 70
   688
 72
     0
 73
     0
 74
     5
  7
monochrome.ctb
 75
    16
147
1.0
148
0.0
149
0.0
100
AcDbLayout
  1
Layout1
 70
     1
 71
     1
 10
0.0
 20
0.0
 11
420.0
 21
297.0
 12
0.0
 22
0.0
 32
0.0
 14
1.000000000000000E+20
 24
1.000000000000000E+20
 34
1.000000000000000E+20
 15
-1.000000000000000E+20
 25
-1.000000000000000E+20
 35
-1.000000000000000E+20
146
0.0
 13
0.0
 23
0.0
 33
0.0
 16
1.0
 26
0.0
 36
0.0
 17
0.0
 27
1.0
 37
0.0
 76
     0
330
1B
  0
LAYOUT
  5
26
102
{ACAD_REACTORS
330
1A
102
}
330
1A
100
AcDbPlotSettings
  1

  2
\\ingdc01\ITB3
  4

  6

 40
0.0
 41
0.0
 42
0.0
 43
0.0
 44
0.0
 45
0.0
 46
0.0
 47
0.0
 48
0.0
 49
0.0
140
0.0
141
0.0
142
1.0
143
1.0
 70
   688
 72
     0
 73
     0
 74
     5
  7
monochrome.ctb
 75
    16
147
1.0
148
0.0
149
0.0
100
AcDbLayout
  1
Layout2
 70
     1
 71
     2
 10
0.0
 20
0.0
 11
12.0
 21
9.0
 12
0.0
 22
0.0
 32
0.0
 14
0.0
 24
0.0
 34
0.0
 15
0.0
 25
0.0
 35
0.0
146
0.0
 13
0.0
 23
0.0
 33
0.0
 16
1.0
 26
0.0
 36
0.0
 17
0.0
 27
1.0
 37
0.0
 76
     0
330
23
  0
LAYOUT
  5
22
102
{ACAD_REACTORS
330
1A
102
}
330
1A
100
AcDbPlotSettings
  1

  2
\\ingdc01\ITB3
  4

  6

 40
0.0
 41
0.0
 42
0.0
 43
0.0
 44
0.0
 45
0.0
 46
0.0
 47
0.0
 48
0.0
 49
0.0
140
0.0
141
0.0
142
1.0
143
1.0
 70
  1712
 72
     0
 73
     0
 74
     0
  7
monochrome.ctb
 75
     0
147
1.0
148
0.0
149
0.0
100
AcDbLayout
  1
Model
 70
     1
 71
     0
 10
0.0
 20
0.0
 11
12.0
 21
9.0
 12
0.0
 22
0.0
 32
0.0
 14
0.0
 24
0.0
 34
0.0
 15
0.0
 25
0.0
 35
0.0
146
0.0
 13
0.0
 23
0.0
 33
0.0
 16
1.0
 26
0.0
 36
0.0
 17
0.0
 27
1.0
 37
0.0
 76
     0
330
1F
  0
MLINESTYLE
  5
18
102
{ACAD_REACTORS
330
17
102
}
330
17
100
AcDbMlineStyle
  2
STANDARD
 70
     0
  3

 62
   256
 51
90.0
 52
90.0
 71
     2
 49
0.5
 62
   256
  6
BYLAYER
 49
-0.5
 62
   256
  6
BYLAYER
  0
ACDBPLACEHOLDER
  5
F
102
{ACAD_REACTORS
330
E
102
}
330
E
  0
ENDSEC
  0
EOF
