  0
SECTION
  2
HEADER
  9
$ACADVER
  1
AC1015
  9
$ACADMAINTVER
 70
     6
  9
$DWGCODEPAGE
  3
ANSI_1252
  9
$INSBASE
 10
0.0
 20
0.0
 30
0.0
  9
$EXTMIN
 10
0.0
 20
0.0
 30
0.0
  9
$EXTMAX
 10
594.0
 20
420.0
 30
0.0
  9
$LIMMIN
 10
0.0
 20
0.0
  9
$LIMMAX
 10
594.0
 20
420.0
  9
$ORTHOMODE
 70
     0
  9
$REGENMODE
 70
     1
  9
$FILLMODE
 70
     1
  9
$QTEXTMODE
 70
     0
  9
$MIRRTEXT
 70
     1
  9
$LTSCALE
 40
1.0
  9
$ATTMODE
 70
     1
  9
$TEXTSIZE
 40
0.2
  9
$TRACEWID
 40
0.05
  9
$TEXTSTYLE
  7
STANDARD
  9
$CLAYER
  8
0
  9
$CELTYPE
  6
BYLAYER
  9
$CECOLOR
 62
   256
  9
$CELTSCALE
 40
1.0
  9
$DISPSILH
 70
     0
  9
$DIMSCALE
 40
1.0
  9
$DIMASZ
 40
2.5
  9
$DIMEXO
 40
3.7125
  9
$DIMDLI
 40
22.572
  9
$DIMRND
 40
0.0
  9
$DIMDLE
 40
0.0
  9
$DIMEXE
 40
10.692
  9
$DIMTP
 40
0.0
  9
$DIMTM
 40
0.0
  9
$DIMTXT
 40
3.5
  9
$DIMCEN
 40
5.346
  9
$DIMTSZ
 40
0.0
  9
$DIMTOL
 70
     0
  9
$DIMLIM
 70
     0
  9
$DIMTIH
 70
     1
  9
$DIMTOH
 70
     1
  9
$DIMSE1
 70
     0
  9
$DIMSE2
 70
     0
  9
$DIMTAD
 70
     0
  9
$DIMZIN
 70
     0
  9
$DIMBLK
  1
FILLED
  9
$DIMASO
 70
     1
  9
$DIMSHO
 70
     1
  9
$DIMPOST
  1

  9
$DIMAPOST
  1

  9
$DIMALT
 70
     0
  9
$DIMALTD
 70
     2
  9
$DIMALTF
 40
25.4
  9
$DIMLFAC
 40
1.0
  9
$DIMTOFL
 70
     0
  9
$DIMTVP
 40
0.0
  9
$DIMTIX
 70
     0
  9
$DIMSOXD
 70
     0
  9
$DIMSAH
 70
     0
  9
$DIMBLK1
  1

  9
$DIMBLK2
  1

  9
$DIMSTYLE
  2
STANDARD
  9
$DIMCLRD
 70
     0
  9
$DIMCLRE
 70
     0
  9
$DIMCLRT
 70
     0
  9
$DIMTFAC
 40
1.0
  9
$DIMGAP
 40
0.09
  9
$DIMJUST
 70
     0
  9
$DIMSD1
 70
     0
  9
$DIMSD2
 70
     0
  9
$DIMTOLJ
 70
     1
  9
$DIMTZIN
 70
     0
  9
$DIMALTZ
 70
     0
  9
$DIMALTTZ
 70
     0
  9
$DIMUPT
 70
     0
  9
$DIMDEC
 70
     4
  9
$DIMTDEC
 70
     4
  9
$DIMALTU
 70
     2
  9
$DIMALTTD
 70
     2
  9
$DIMTXSTY
  7
STANDARD
  9
$DIMAUNIT
 70
     0
  9
$DIMADEC
 70
     0
  9
$DIMALTRND
 40
0.0
  9
$DIMAZIN
 70
     0
  9
$DIMDSEP
 70
    46
  9
$DIMATFIT
 70
     3
  9
$DIMFRAC
 70
     0
  9
$DIMLDRBLK
  1

  9
$DIMLUNIT
 70
     2
  9
$DIMLWD
 70
    -2
  9
$DIMLWE
 70
    -2
  9
$DIMTMOVE
 70
     0
  9
$LUNITS
 70
     2
  9
$LUPREC
 70
     4
  9
$SKETCHINC
 40
0.1
  9
$FILLETRAD
 40
0.5
  9
$AUNITS
 70
     0
  9
$AUPREC
 70
     0
  9
$MENU
  1
.
  9
$ELEVATION
 40
0.0
  9
$PELEVATION
 40
0.0
  9
$THICKNESS
 40
0.0
  9
$LIMCHECK
 70
     0
  9
$CHAMFERA
 40
0.5
  9
$CHAMFERB
 40
0.5
  9
$CHAMFERC
 40
1.0
  9
$CHAMFERD
 40
0.0
  9
$SKPOLY
 70
     0
  9
$TDCREATE
 40
2447893.041666667
  9
$TDUCREATE
 40
0.0
  9
$TDUPDATE
 40
2447893.041666667
  9
$TDUUPDATE
 40
0.0
  9
$TDINDWG
 40
0.0
  9
$TDUSRTIMER
 40
0.0
  9
$USRTIMER
 70
     1
  9
$ANGBASE
 50
0.0
  9
$ANGDIR
 70
     0
  9
$PDMODE
 70
     3
  9
$PDSIZE
 40
0.3125
  9
$PLINEWID
 40
0.0
  9
$SPLFRAME
 70
     0
  9
$SPLINETYPE
 70
     6
  9
$SPLINESEGS
 70
     8
  9
$HANDSEED
  5
4F0
  9
$SURFTAB1
 70
     6
  9
$SURFTAB2
 70
     6
  9
$SURFTYPE
 70
     6
  9
$SURFU
 70
     6
  9
$SURFV
 70
     6
  9
$UCSBASE
  2

  9
$UCSNAME
  2

  9
$UCSORG
 10
0.0
 20
0.0
 30
0.0
  9
$UCSXDIR
 10
1.0
 20
0.0
 30
0.0
  9
$UCSYDIR
 10
0.0
 20
1.0
 30
0.0
  9
$UCSORTHOREF
  2

  9
$UCSORTHOVIEW
 70
     0
  9
$UCSORGTOP
 10
0.0
 20
0.0
 30
0.0
  9
$UCSORGBOTTOM
 10
0.0
 20
0.0
 30
0.0
  9
$UCSORGLEFT
 10
0.0
 20
0.0
 30
0.0
  9
$UCSORGRIGHT
 10
0.0
 20
0.0
 30
0.0
  9
$UCSORGFRONT
 10
0.0
 20
0.0
 30
0.0
  9
$UCSORGBACK
 10
0.0
 20
0.0
 30
0.0
  9
$PUCSBASE
  2

  9
$PUCSNAME
  2

  9
$PUCSORG
 10
0.0
 20
0.0
 30
0.0
  9
$PUCSXDIR
 10
1.0
 20
0.0
 30
0.0
  9
$PUCSYDIR
 10
0.0
 20
1.0
 30
0.0
  9
$PUCSORTHOREF
  2

  9
$PUCSORTHOVIEW
 70
     0
  9
$PUCSORGTOP
 10
0.0
 20
0.0
 30
0.0
  9
$PUCSORGBOTTOM
 10
0.0
 20
0.0
 30
0.0
  9
$PUCSORGLEFT
 10
0.0
 20
0.0
 30
0.0
  9
$PUCSORGRIGHT
 10
0.0
 20
0.0
 30
0.0
  9
$PUCSORGFRONT
 10
0.0
 20
0.0
 30
0.0
  9
$PUCSORGBACK
 10
0.0
 20
0.0
 30
0.0
  9
$USERI1
 70
     0
  9
$USERI2
 70
     0
  9
$USERI3
 70
     0
  9
$USERI4
 70
     0
  9
$USERI5
 70
     0
  9
$USERR1
 40
0.0
  9
$USERR2
 40
0.0
  9
$USERR3
 40
0.0
  9
$USERR4
 40
0.0
  9
$USERR5
 40
0.0
  9
$WORLDVIEW
 70
     1
  9
$SHADEDGE
 70
     3
  9
$SHADEDIF
 70
    70
  9
$TILEMODE
 70
     1
  9
$MAXACTVP
 70
    64
  9
$PINSBASE
 10
0.0
 20
0.0
 30
0.0
  9
$PLIMCHECK
 70
     0
  9
$PEXTMIN
 10
1.000000000000000E+20
 20
1.000000000000000E+20
 30
1.000000000000000E+20
  9
$PEXTMAX
 10
-1.000000000000000E+20
 20
-1.000000000000000E+20
 30
-1.000000000000000E+20
  9
$PLIMMIN
 10
0.0
 20
0.0
  9
$PLIMMAX
 10
12.0
 20
9.0
  9
$UNITMODE
 70
     0
  9
$VISRETAIN
 70
     1
  9
$PLINEGEN
 70
     0
  9
$PSLTSCALE
 70
     1
  9
$TREEDEPTH
 70
  3020
  9
$CMLSTYLE
  2
Standard
  9
$CMLJUST
 70
     0
  9
$CMLSCALE
 40
1.0
  9
$PROXYGRAPHICS
 70
     1
  9
$MEASUREMENT
 70
     1
  9
$CELWEIGHT
370
    -1
  9
$ENDCAPS
280
     0
  9
$JOINSTYLE
280
     0
  9
$LWDISPLAY
290
     0
  9
$INSUNITS
 70
     4
  9
$HYPERLINKBASE
  1

  9
$STYLESHEET
  1

  9
$XEDIT
290
     1
  9
$CEPSNTYPE
380
     0
  9
$PSTYLEMODE
290
     1
  9
$FINGERPRINTGUID
  2
{14CC6881-7509-4635-8FB7-07B23146DDEB}
  9
$VERSIONGUID
  2
{FAEB1C32-E019-11D5-929B-00C0DF256EC4}
  9
$EXTNAMES
290
     1
  9
$PSVPSCALE
 40
0.0
  9
$OLESTARTUP
290
     0
  0
ENDSEC
  0
SECTION
  2
CLASSES
  0
CLASS
  1
ACDBDICTIONARYWDFLT
  2
AcDbDictionaryWithDefault
  3
ObjectDBX Classes
 90
        0
280
     0
281
     0
  0
CLASS
  1
ACDBPLACEHOLDER
  2
AcDbPlaceHolder
  3
ObjectDBX Classes
 90
        0
280
     0
281
     0
  0
CLASS
  1
LAYOUT
  2
AcDbLayout
  3
ObjectDBX Classes
 90
        0
280
     0
281
     0
  0
ENDSEC
  0
SECTION
  2
TABLES
  0
TABLE
  2
VPORT
  5
8
330
0
100
AcDbSymbolTable
 70
     1
  0
VPORT
  5
1F4
330
8
100
AcDbSymbolTableRecord
100
AcDbViewportTableRecord
  2
*ACTIVE
 70
     0
 10
0.0
 20
0.0
 11
1.0
 21
1.0
 12
297.0
 22
210.0
 13
0.0
 23
0.0
 14
1.0
 24
1.0
 15
0.0
 25
0.0
 16
0.0
 26
0.0
 36
1.0
 17
0.0
 27
0.0
 37
0.0
 40
420.0
 41
1.4142857143
 42
50.0
 43
0.0
 44
0.0
 50
0.0
 51
0.0
 71
     0
 72
   100
 73
     1
 74
     1
 75
     0
 76
     0
 77
     0
 78
     0
281
     0
 65
     1
110
0.0
120
0.0
130
0.0
111
1.0
121
0.0
131
0.0
112
0.0
122
1.0
132
0.0
 79
     0
146
0.0
  0
ENDTAB
  0
TABLE
  2
LTYPE
  5
5
330
0
100
AcDbSymbolTable
 70
     8
  0
LTYPE
  5
14
330
5
100
AcDbSymbolTableRecord
100
AcDbLinetypeTableRecord
  2
BYBLOCK
 70
     0
  3

 72
    65
 73
     0
 40
0.0
  0
LTYPE
  5
15
330
5
100
AcDbSymbolTableRecord
100
AcDbLinetypeTableRecord
  2
BYLAYER
 70
     0
  3

 72
    65
 73
     0
 40
0.0
  0
LTYPE
  5
16
330
5
100
AcDbSymbolTableRecord
100
AcDbLinetypeTableRecord
  2
CONTINUOUS
 70
     0
  3
Solid line
 72
    65
 73
     0
 40
0.0
  0
LTYPE
  5
1F5
330
5
100
AcDbSymbolTableRecord
100
AcDbLinetypeTableRecord
  2
CENTER
 70
     0
  3
____ _ ____ _ ____ _ ____ _ ____ _ ____ _ ____
 72
    65
 73
     4
 40
0.6
 49
0.375
 74
     0
 49
-0.075
 74
     0
 49
0.075
 74
     0
 49
-0.075
 74
     0
  0
LTYPE
  5
1F6
330
5
100
AcDbSymbolTableRecord
100
AcDbLinetypeTableRecord
  2
HIDDEN
 70
     0
  3
- - - - - - - - - - - - - - - - - - - -
 72
    65
 73
     2
 40
0.2
 49
0.1
 74
     0
 49
-0.1
 74
     0
  0
LTYPE
  5
1F7
330
5
100
AcDbSymbolTableRecord
100
AcDbLinetypeTableRecord
  2
PHANTOM
 70
     0
  3
_____ _ _ _____ _ _ _____ _ _ _____
 72
    65
 73
     6
 40
0.8
 49
0.45
 74
     0
 49
-0.05
 74
     0
 49
0.1
 74
     0
 49
-0.05
 74
     0
 49
0.1
 74
     0
 49
-0.05
 74
     0
  0
LTYPE
  5
1F8
330
5
100
AcDbSymbolTableRecord
100
AcDbLinetypeTableRecord
  2
DOT
 70
     0
  3
. . . . . . . . . . . . . . . . . . . .
 72
    65
 73
     2
 40
0.2
 49
0.1
 74
     0
 49
-0.1
 74
     0
  0
LTYPE
  5
1F9
330
5
100
AcDbSymbolTableRecord
100
AcDbLinetypeTableRecord
  2
DASHED
 70
     0
  3
- - - - - - - - - - - - - - - - - - - -
 72
    65
 73
     2
 40
0.2
 49
0.1
 74
     0
 49
-0.1
 74
     0
  0
LTYPE
  5
304
330
5
100
AcDbSymbolTableRecord
100
AcDbLinetypeTableRecord
  2
MITTE
 70
     0
  3
Mitte ____ _ ____ _ ____ _ ____ _ ____ _ ____
 72
    65
 73
     4
 40
50.8
 49
31.75
 74
     4
 75
     0
340
0
 46
1.0
 50
0.0
 44
0.0
 45
0.0
 49
-6.35
 74
     4
 75
     0
340
0
 46
1.0
 50
0.0
 44
0.0
 45
0.0
 49
6.35
 74
     4
 75
     0
340
0
 46
1.0
 50
0.0
 44
0.0
 45
0.0
 49
-6.35
 74
     4
 75
     0
340
0
 46
1.0
 50
0.0
 44
0.0
 45
0.0
  0
LTYPE
  5
305
330
5
100
AcDbSymbolTableRecord
100
AcDbLinetypeTableRecord
  2
STRICHLINIE
 70
     0
  3
Strichlinie __ __ __ __ __ __ __ __ __ __ __ __
 72
    65
 73
     2
 40
19.05
 49
12.7
 74
     4
 75
     0
340
0
 46
1.0
 50
0.0
 44
0.0
 45
0.0
 49
-6.35
 74
     4
 75
     0
340
0
 46
1.0
 50
0.0
 44
0.0
 45
0.0
  0
ENDTAB
  0
TABLE
  2
LAYER
  5
2
330
0
100
AcDbSymbolTable
 70
    48
  0
LAYER
  5
10
330
2
100
AcDbSymbolTableRecord
100
AcDbLayerTableRecord
  2
0
 70
     0
 62
     7
  6
CONTINUOUS
370
    -3
390
F
  0
LAYER
  5
306
330
2
100
AcDbSymbolTableRecord
100
AcDbLayerTableRecord
  2
1
 70
     0
 62
     4
  6
CONTINUOUS
370
    50
390
F
  0
LAYER
  5
307
330
2
100
AcDbSymbolTableRecord
100
AcDbLayerTableRecord
  2
2
 70
     0
 62
     7
  6
CONTINUOUS
370
    25
390
F
  0
LAYER
  5
309
330
2
100
AcDbSymbolTableRecord
100
AcDbLayerTableRecord
  2
4
 70
     0
 62
     2
  6
MITTE
370
    25
390
F
  0
LAYER
  5
30B
330
2
100
AcDbSymbolTableRecord
100
AcDbLayerTableRecord
  2
6
 70
     0
 62
     5
  6
CONTINUOUS
370
    35
390
F
  0
LAYER
  5
30C
330
2
100
AcDbSymbolTableRecord
100
AcDbLayerTableRecord
  2
CUT
 70
     0
 62
     1
  6
CONTINUOUS
370
    25
390
F
  0
LAYER
  5
30D
330
2
100
AcDbSymbolTableRecord
100
AcDbLayerTableRecord
  2
NOCUT
 70
     0
 62
     7
  6
CONTINUOUS
370
    25
390
F
  0
LAYER
  5
30F
330
2
100
AcDbSymbolTableRecord
100
AcDbLayerTableRecord
  2
SK2
 70
     0
 62
     7
  6
CONTINUOUS
370
    25
390
F
  0
LAYER
  5
310
330
2
100
AcDbSymbolTableRecord
100
AcDbLayerTableRecord
  2
SK3
 70
     0
 62
     1
  6
STRICHLINIE
370
    25
390
F
  0
LAYER
  5
314
330
2
100
AcDbSymbolTableRecord
100
AcDbLayerTableRecord
  2
7
 70
     0
 62
     5
  6
CONTINUOUS
370
    25
390
F
  0
ENDTAB
  0
TABLE
  2
STYLE
  5
3
330
0
100
AcDbSymbolTable
 70
     3
  0
STYLE
  5
11
330
3
100
AcDbSymbolTableRecord
100
AcDbTextStyleTableRecord
  2
STANDARD
 70
     0
 40
0.0
 41
1.0
 50
0.0
 71
     0
 42
2.5
  3
monos.ttf
  4

1001
ACAD
1000
Monospac821 BT
1071
       49
  0
STYLE
  5
217
330
3
100
AcDbSymbolTableRecord
100
AcDbTextStyleTableRecord
  2
TEXTSTYLE_1
 70
     0
 40
0.0
 41
0.8
 50
0.0
 71
     0
 42
0.2
  3
monospace 821 bold bt
  4

  0
STYLE
  5
364
330
3
100
AcDbSymbolTableRecord
100
AcDbTextStyleTableRecord
  2
KX-STANDARD
 70
     0
 40
0.0
 41
1.0
 50
0.0
 71
     0
 42
2.5
  3
monospace 821 bold bt
  4

  0
ENDTAB
  0
TABLE
  2
VIEW
  5
6
330
0
100
AcDbSymbolTable
 70
     0
  0
ENDTAB
  0
TABLE
  2
UCS
  5
7
330
0
100
AcDbSymbolTable
 70
     0
  0
ENDTAB
  0
TABLE
  2
APPID
  5
9
330
0
100
AcDbSymbolTable
 70
     1
  0
APPID
  5
218
330
9
100
AcDbSymbolTableRecord
100
AcDbRegAppTableRecord
  2
ACAD
 70
     0
  0
ENDTAB
  0
TABLE
  2
DIMSTYLE
  5
A
330
0
100
AcDbSymbolTable
 70
     6
100
AcDbDimStyleTable
  0
DIMSTYLE
105
226
330
A
100
AcDbSymbolTableRecord
100
AcDbDimStyleTableRecord
  2
STANDARD
 70
     0
 41
2.5
 47
0.01
 48
0.01
 73
     0
 74
     0
 77
     1
 78
     8
140
3.5
178
     7
271
     3
272
     3
284
     8
340
11
341
21B
342
21B
343
21B
344
21B
  0
DIMSTYLE
105
227
330
A
100
AcDbSymbolTableRecord
100
AcDbDimStyleTableRecord
  2
DIMSTYLE_1
 70
     0
 41
2.5
 73
     0
 74
     0
 77
     1
 78
     8
140
3.5
178
     7
271
     3
272
     3
284
     8
340
11
341
21B
342
21B
343
21B
344
21B
  0
DIMSTYLE
105
228
330
A
100
AcDbSymbolTableRecord
100
AcDbDimStyleTableRecord
  2
DIMSTYLE_2
 70
     0
 41
2.5
 73
     0
 74
     0
 77
     1
 78
     8
140
3.5
271
     3
272
     3
284
     8
340
11
341
21B
342
21B
343
21B
344
21B
  0
DIMSTYLE
105
229
330
A
100
AcDbSymbolTableRecord
100
AcDbDimStyleTableRecord
  2
DIMSTYLE_3
 70
     0
 41
2.5
 73
     0
 74
     0
 77
     1
 78
     8
140
3.5
178
     7
284
     8
340
11
341
21B
342
21B
343
21B
344
21B
  0
DIMSTYLE
105
22A
330
A
100
AcDbSymbolTableRecord
100
AcDbDimStyleTableRecord
  2
DIMSTYLE_4
 70
     0
 41
2.5
 73
     0
 74
     0
 77
     1
 78
     8
140
3.5
271
     2
272
     2
284
     8
340
11
341
21B
342
21B
343
21B
344
21B
  0
DIMSTYLE
105
22B
330
A
100
AcDbSymbolTableRecord
100
AcDbDimStyleTableRecord
  2
DIMSTYLE_5
 70
     0
 41
2.5
 73
     0
 74
     0
 77
     1
 78
     8
140
3.5
271
     3
272
     3
284
     8
340
11
341
21B
342
21B
343
21B
344
21B
  0
ENDTAB
  0
TABLE
  2
BLOCK_RECORD
  5
1
330
0
100
AcDbSymbolTable
 70
    11
  0
BLOCK_RECORD
  5
219
330
1
100
AcDbSymbolTableRecord
100
AcDbBlockTableRecord
  2
*Model_Space
340
302
  0
BLOCK_RECORD
  5
21A
330
1
100
AcDbSymbolTableRecord
100
AcDbBlockTableRecord
  2
*Paper_Space
340
303
  0
BLOCK_RECORD
  5
21B
330
1
100
AcDbSymbolTableRecord
100
AcDbBlockTableRecord
  2
_FILLED
340
0
  0
BLOCK_RECORD
  5
21C
330
1
100
AcDbSymbolTableRecord
100
AcDbBlockTableRecord
  2
*D1
340
0
  0
BLOCK_RECORD
  5
21D
330
1
100
AcDbSymbolTableRecord
100
AcDbBlockTableRecord
  2
*D2
340
0
  0
BLOCK_RECORD
  5
21E
330
1
100
AcDbSymbolTableRecord
100
AcDbBlockTableRecord
  2
*D3
340
0
  0
BLOCK_RECORD
  5
21F
330
1
100
AcDbSymbolTableRecord
100
AcDbBlockTableRecord
  2
*D4
340
0
  0
BLOCK_RECORD
  5
220
330
1
100
AcDbSymbolTableRecord
100
AcDbBlockTableRecord
  2
*D5
340
0
  0
BLOCK_RECORD
  5
221
330
1
100
AcDbSymbolTableRecord
100
AcDbBlockTableRecord
  2
*D6
340
0
  0
BLOCK_RECORD
  5
222
330
1
100
AcDbSymbolTableRecord
100
AcDbBlockTableRecord
  2
*D7
340
0
  0
BLOCK_RECORD
  5
223
330
1
100
AcDbSymbolTableRecord
100
AcDbBlockTableRecord
  2
*D8
340
0
  0
BLOCK_RECORD
  5
224
330
1
100
AcDbSymbolTableRecord
100
AcDbBlockTableRecord
  2
*D9
340
0
  0
BLOCK_RECORD
  5
225
330
1
100
AcDbSymbolTableRecord
100
AcDbBlockTableRecord
  2
NULLPUNKT_BL0
340
0
  0
ENDTAB
  0
ENDSEC
  0
SECTION
  2
BLOCKS
  0
BLOCK
  5
20
330
219
100
AcDbEntity
  8
0
100
AcDbBlockBegin
  2
*Model_Space
 70
     0
 10
0.0
 20
0.0
 30
0.0
  3
*Model_Space
  1

  0
ENDBLK
  5
21
330
219
100
AcDbEntity
  8
0
100
AcDbBlockEnd
  0
BLOCK
  5
1C
330
21A
100
AcDbEntity
 67
     1
  8
0
100
AcDbBlockBegin
  2
*Paper_Space
 70
     0
 10
0.0
 20
0.0
 30
0.0
  3
*Paper_Space
  1

  0
ENDBLK
  5
1D
330
21A
100
AcDbEntity
 67
     1
  8
0
100
AcDbBlockEnd
  0
BLOCK
  5
23D
330
21B
100
AcDbEntity
  8
7
100
AcDbBlockBegin
  2
_FILLED
 70
     0
 10
0.0
 20
0.0
 30
0.0
  3
_FILLED
  1

  0
SOLID
  5
23E
330
21B
100
AcDbEntity
  8
7
100
AcDbTrace
 10
0.0
 20
0.0
 30
0.0
 11
-1.0
 21
0.132
 31
0.0
 12
-1.0
 22
-0.132
 32
0.0
 13
-1.0
 23
-0.132
 33
0.0
  0
ENDBLK
  5
23F
330
21B
100
AcDbEntity
  8
7
100
AcDbBlockEnd
  0
BLOCK
  5
240
330
21C
100
AcDbEntity
  8
7
100
AcDbBlockBegin
  2
*D1
 70
     1
 10
0.0
 20
0.0
 30
0.0
  3
*D1
  1

  0
MTEXT
  5
241
330
21C
100
AcDbEntity
  8
SK2
100
AcDbMText
 10
-14.375
 20
0.0
 30
0.0
 40
3.5
 41
10.2666666667
 71
     2
 72
     1
  1
{\Fgdt;%%c}\FMONOS.TTF;27
 11
0.0
 21
1.0
 31
0.0
 73
     1
 44
0.9
  0
LINE
  5
242
330
21C
100
AcDbEntity
  8
SK2
100
AcDbLine
 10
0.5
 20
-13.5
 30
0.0
 11
-12.0
 21
-13.5
 31
0.0
  0
LINE
  5
243
330
21C
100
AcDbEntity
  8
SK2
100
AcDbLine
 10
0.5
 20
13.5
 30
0.0
 11
-12.0
 21
13.5
 31
0.0
  0
SOLID
  5
31A
330
21C
100
AcDbEntity
  8
SK2
100
AcDbTrace
 10
-10.0
 20
-13.5
 30
0.0
 11
-9.67
 21
-11.0
 31
0.0
 12
-10.33
 22
-11.0
 32
0.0
 13
-10.33
 23
-11.0
 33
0.0
  0
SOLID
  5
31B
330
21C
100
AcDbEntity
  8
SK2
100
AcDbTrace
 10
-10.0
 20
13.5
 30
0.0
 11
-10.33
 21
11.0
 31
0.0
 12
-9.67
 22
11.0
 32
0.0
 13
-9.67
 23
11.0
 33
0.0
  0
LWPOLYLINE
  5
4E5
330
21C
100
AcDbEntity
  8
SK2
100
AcDbPolyline
 90
        3
 70
     0
 43
0.0
 10
-10.0
 20
-13.5
 10
-10.0
 20
0.0
 10
-10.0
 20
13.5
  0
ENDBLK
  5
248
330
21C
100
AcDbEntity
  8
7
100
AcDbBlockEnd
  0
BLOCK
  5
249
330
21D
100
AcDbEntity
  8
7
100
AcDbBlockBegin
  2
*D2
 70
     1
 10
0.0
 20
0.0
 30
0.0
  3
*D2
  1

  0
MTEXT
  5
24A
330
21D
100
AcDbEntity
  8
2
100
AcDbMText
 10
25.0
 20
66.2939976115
 30
0.0
 40
3.5
 41
5.6
 71
     2
 72
     1
  1
50
 73
     1
 44
0.9
  0
LINE
  5
24B
330
21D
100
AcDbEntity
  8
2
100
AcDbLine
 10
0.0
 20
35.5165556636
 30
0.0
 11
0.0
 21
63.9189976115
 31
0.0
  0
LINE
  5
24C
330
21D
100
AcDbEntity
  8
2
100
AcDbLine
 10
50.0
 20
23.0
 30
0.0
 11
50.0
 21
63.9189976115
 31
0.0
  0
SOLID
  5
31C
330
21D
100
AcDbEntity
  8
2
100
AcDbTrace
 10
0.0
 20
61.9189976115
 30
0.0
 11
2.5
 21
61.5889976115
 31
0.0
 12
2.5
 22
62.24899761149999
 32
0.0
 13
2.5
 23
62.24899761149999
 33
0.0
  0
SOLID
  5
31D
330
21D
100
AcDbEntity
  8
2
100
AcDbTrace
 10
50.0
 20
61.9189976115
 30
0.0
 11
47.5
 21
62.24899761149999
 31
0.0
 12
47.5
 22
61.5889976115
 32
0.0
 13
47.5
 23
61.5889976115
 33
0.0
  0
LWPOLYLINE
  5
4E6
330
21D
100
AcDbEntity
  8
2
100
AcDbPolyline
 90
        3
 70
     0
 43
0.0
 10
0.0
 20
61.9189976115
 10
25.0
 20
61.9189976115
 10
50.0
 20
61.9189976115
  0
ENDBLK
  5
251
330
21D
100
AcDbEntity
  8
7
100
AcDbBlockEnd
  0
BLOCK
  5
252
330
21E
100
AcDbEntity
  8
7
100
AcDbBlockBegin
  2
*D3
 70
     1
 10
0.0
 20
0.0
 30
0.0
  3
*D3
  1

  0
MTEXT
  5
253
330
21E
100
AcDbEntity
  8
2
100
AcDbMText
 10
75.165
 20
0.0
 30
0.0
 40
3.5
 41
10.2666666667
 71
     2
 72
     1
  1
{\Fgdt;%%c}\FMONOS.TTF;45
 11
0.0
 21
1.0
 31
0.0
 73
     1
 44
0.9
  0
LINE
  5
254
330
21E
100
AcDbEntity
  8
2
100
AcDbLine
 10
50.5
 20
-22.5
 30
0.0
 11
81.54
 21
-22.5
 31
0.0
  0
LINE
  5
255
330
21E
100
AcDbEntity
  8
2
100
AcDbLine
 10
50.5
 20
22.5
 30
0.0
 11
81.54
 21
22.5
 31
0.0
  0
SOLID
  5
31E
330
21E
100
AcDbEntity
  8
2
100
AcDbTrace
 10
79.54
 20
-22.5
 30
0.0
 11
79.87
 21
-20.0
 31
0.0
 12
79.21000000000001
 22
-20.0
 32
0.0
 13
79.21000000000001
 23
-20.0
 33
0.0
  0
SOLID
  5
31F
330
21E
100
AcDbEntity
  8
2
100
AcDbTrace
 10
79.54
 20
22.5
 30
0.0
 11
79.21000000000001
 21
20.0
 31
0.0
 12
79.87
 22
20.0
 32
0.0
 13
79.87
 23
20.0
 33
0.0
  0
LWPOLYLINE
  5
4E7
330
21E
100
AcDbEntity
  8
2
100
AcDbPolyline
 90
        3
 70
     0
 43
0.0
 10
79.54
 20
-22.5
 10
79.54
 20
0.0
 10
79.54
 20
22.5
  0
ENDBLK
  5
25A
330
21E
100
AcDbEntity
  8
7
100
AcDbBlockEnd
  0
BLOCK
  5
25B
330
21F
100
AcDbEntity
  8
7
100
AcDbBlockBegin
  2
*D4
 70
     1
 10
0.0
 20
0.0
 30
0.0
  3
*D4
  1

  0
MTEXT
  5
25C
330
21F
100
AcDbEntity
  8
SK2
100
AcDbMText
 10
58.165
 20
0.0
 30
0.0
 40
3.5
 41
10.2666666667
 71
     2
 72
     1
  1
{\Fgdt;%%c}\FMONOS.TTF;13
 11
0.0
 21
1.0
 31
0.0
 73
     1
 44
0.9
  0
LINE
  5
25D
330
21F
100
AcDbEntity
  8
SK2
100
AcDbLine
 10
28.8942582687
 20
-6.5
 30
0.0
 11
64.54
 21
-6.5
 31
0.0
  0
LINE
  5
25E
330
21F
100
AcDbEntity
  8
SK2
100
AcDbLine
 10
29.0194995151
 20
6.5
 30
0.0
 11
64.54
 21
6.5
 31
0.0
  0
SOLID
  5
320
330
21F
100
AcDbEntity
  8
SK2
100
AcDbTrace
 10
62.54
 20
-6.5
 30
0.0
 11
62.21
 21
-9.0
 31
0.0
 12
62.87
 22
-9.0
 32
0.0
 13
62.87
 23
-9.0
 33
0.0
  0
SOLID
  5
321
330
21F
100
AcDbEntity
  8
SK2
100
AcDbTrace
 10
62.54
 20
6.5
 30
0.0
 11
62.87
 21
9.0
 31
0.0
 12
62.21
 22
9.0
 32
0.0
 13
62.21
 23
9.0
 33
0.0
  0
LWPOLYLINE
  5
4E8
330
21F
100
AcDbEntity
  8
SK2
100
AcDbPolyline
 90
        5
 70
     0
 43
0.0
 10
62.54
 20
-6.5
 10
62.54
 20
-11.5
 10
62.54
 20
0.0
 10
62.54
 20
11.5
 10
62.54
 20
6.5
  0
ENDBLK
  5
265
330
21F
100
AcDbEntity
  8
7
100
AcDbBlockEnd
  0
BLOCK
  5
266
330
220
100
AcDbEntity
  8
7
100
AcDbBlockBegin
  2
*D5
 70
     1
 10
0.0
 20
0.0
 30
0.0
  3
*D5
  1

  0
MTEXT
  5
267
330
220
100
AcDbEntity
  8
SK2
100
AcDbMText
 10
66.665
 20
0.0
 30
0.0
 40
3.5
 41
10.2666666667
 71
     2
 72
     1
  1
{\Fgdt;%%c}\FMONOS.TTF;20
 11
0.0
 21
1.0
 31
0.0
 73
     1
 44
0.9
  0
LINE
  5
268
330
220
100
AcDbEntity
  8
SK2
100
AcDbLine
 10
41.0085358174
 20
-10.0
 30
0.0
 11
73.04
 21
-10.0
 31
0.0
  0
LINE
  5
269
330
220
100
AcDbEntity
  8
SK2
100
AcDbLine
 10
40.6328120784
 20
10.0
 30
0.0
 11
73.04
 21
10.0
 31
0.0
  0
SOLID
  5
322
330
220
100
AcDbEntity
  8
SK2
100
AcDbTrace
 10
71.04
 20
-10.0
 30
0.0
 11
71.37
 21
-7.5
 31
0.0
 12
70.71000000000001
 22
-7.5
 32
0.0
 13
70.71000000000001
 23
-7.5
 33
0.0
  0
SOLID
  5
323
330
220
100
AcDbEntity
  8
SK2
100
AcDbTrace
 10
71.04
 20
10.0
 30
0.0
 11
70.71000000000001
 21
7.5
 31
0.0
 12
71.37
 22
7.5
 32
0.0
 13
71.37
 23
7.5
 33
0.0
  0
LWPOLYLINE
  5
4E9
330
220
100
AcDbEntity
  8
SK2
100
AcDbPolyline
 90
        3
 70
     0
 43
0.0
 10
71.04
 20
-10.0
 10
71.04
 20
0.0
 10
71.04
 20
10.0
  0
ENDBLK
  5
26E
330
220
100
AcDbEntity
  8
7
100
AcDbBlockEnd
  0
BLOCK
  5
26F
330
221
100
AcDbEntity
  8
7
100
AcDbBlockBegin
  2
*D6
 70
     1
 10
0.0
 20
0.0
 30
0.0
  3
*D6
  1

  0
MTEXT
  5
270
330
221
100
AcDbEntity
  8
SK2
100
AcDbMText
 10
11.0
 20
-45.971794
 30
0.0
 40
3.5
 41
5.6
 71
     2
 72
     1
  1
22
 73
     1
 44
0.9
  0
LINE
  5
271
330
221
100
AcDbEntity
  8
SK2
100
AcDbLine
 10
0.0
 20
-33.0357258024
 30
0.0
 11
0.0
 21
-52.346794
 31
0.0
  0
LINE
  5
272
330
221
100
AcDbEntity
  8
SK2
100
AcDbLine
 10
22.0
 20
-13.1958090994
 30
0.0
 11
22.0
 21
-52.346794
 31
0.0
  0
SOLID
  5
324
330
221
100
AcDbEntity
  8
SK2
100
AcDbTrace
 10
0.0
 20
-50.346794
 30
0.0
 11
2.5
 21
-50.676794
 31
0.0
 12
2.5
 22
-50.016794
 32
0.0
 13
2.5
 23
-50.016794
 33
0.0
  0
SOLID
  5
325
330
221
100
AcDbEntity
  8
SK2
100
AcDbTrace
 10
22.0
 20
-50.346794
 30
0.0
 11
19.5
 21
-50.016794
 31
0.0
 12
19.5
 22
-50.676794
 32
0.0
 13
19.5
 23
-50.676794
 33
0.0
  0
LWPOLYLINE
  5
4EA
330
221
100
AcDbEntity
  8
SK2
100
AcDbPolyline
 90
        3
 70
     0
 43
0.0
 10
0.0
 20
-50.346794
 10
11.0
 20
-50.346794
 10
22.0
 20
-50.346794
  0
ENDBLK
  5
277
330
221
100
AcDbEntity
  8
7
100
AcDbBlockEnd
  0
BLOCK
  5
278
330
222
100
AcDbEntity
  8
7
100
AcDbBlockBegin
  2
*D7
 70
     1
 10
0.0
 20
0.0
 30
0.0
  3
*D7
  1

  0
MTEXT
  5
279
330
222
100
AcDbEntity
  8
2
100
AcDbMText
 10
83.665
 20
0.0
 30
0.0
 40
3.5
 41
15.8666666667
 71
     2
 72
     1
  1
{\Fgdt;%%c}\FMONOS.TTF;80.7
 11
0.0
 21
1.0
 31
0.0
 73
     1
 44
0.9
  0
LINE
  5
27A
330
222
100
AcDbEntity
  8
2
100
AcDbLine
 10
32.170735852
 20
-40.35
 30
0.0
 11
90.04
 21
-40.35
 31
0.0
  0
LINE
  5
27B
330
222
100
AcDbEntity
  8
2
100
AcDbLine
 10
32.1454735527
 20
40.35
 30
0.0
 11
49.0
 21
40.35
 31
0.0
  0
LINE
  5
27C
330
222
100
AcDbEntity
  8
2
100
AcDbLine
 10
51.0
 20
40.35
 30
0.0
 11
90.04
 21
40.35
 31
0.0
  0
SOLID
  5
326
330
222
100
AcDbEntity
  8
2
100
AcDbTrace
 10
88.04
 20
-40.35
 30
0.0
 11
88.37
 21
-37.85
 31
0.0
 12
87.71000000000001
 22
-37.85
 32
0.0
 13
87.71000000000001
 23
-37.85
 33
0.0
  0
SOLID
  5
327
330
222
100
AcDbEntity
  8
2
100
AcDbTrace
 10
88.04
 20
40.35
 30
0.0
 11
87.71000000000001
 21
37.85
 31
0.0
 12
88.37
 22
37.85
 32
0.0
 13
88.37
 23
37.85
 33
0.0
  0
LWPOLYLINE
  5
4EB
330
222
100
AcDbEntity
  8
2
100
AcDbPolyline
 90
        3
 70
     0
 43
0.0
 10
88.04
 20
-40.35
 10
88.04
 20
0.0
 10
88.04
 20
40.35
  0
ENDBLK
  5
281
330
222
100
AcDbEntity
  8
7
100
AcDbBlockEnd
  0
BLOCK
  5
282
330
223
100
AcDbEntity
  8
7
100
AcDbBlockBegin
  2
*D8
 70
     1
 10
0.0
 20
0.0
 30
0.0
  3
*D8
  1

  0
MTEXT
  5
283
330
223
100
AcDbEntity
  8
SK2
100
AcDbMText
 10
-22.875
 20
0.0
 30
0.0
 40
3.5
 41
10.2666666667
 71
     2
 72
     1
  1
{\Fgdt;%%c}\FMONOS.TTF;70
 11
0.0
 21
1.0
 31
0.0
 73
     1
 44
0.9
  0
LINE
  5
284
330
223
100
AcDbEntity
  8
SK2
100
AcDbLine
 10
1.5
 20
-35.0
 30
0.0
 11
1.0
 21
-35.0
 31
0.0
  0
LINE
  5
285
330
223
100
AcDbEntity
  8
SK2
100
AcDbLine
 10
-1.0
 20
-35.0
 30
0.0
 11
-20.5
 21
-35.0
 31
0.0
  0
LINE
  5
286
330
223
100
AcDbEntity
  8
SK2
100
AcDbLine
 10
1.5
 20
35.0
 30
0.0
 11
-20.5
 21
35.0
 31
0.0
  0
SOLID
  5
328
330
223
100
AcDbEntity
  8
SK2
100
AcDbTrace
 10
-18.5
 20
-35.0
 30
0.0
 11
-18.17
 21
-32.5
 31
0.0
 12
-18.83
 22
-32.5
 32
0.0
 13
-18.83
 23
-32.5
 33
0.0
  0
SOLID
  5
329
330
223
100
AcDbEntity
  8
SK2
100
AcDbTrace
 10
-18.5
 20
35.0
 30
0.0
 11
-18.83
 21
32.5
 31
0.0
 12
-18.17
 22
32.5
 32
0.0
 13
-18.17
 23
32.5
 33
0.0
  0
LWPOLYLINE
  5
4EC
330
223
100
AcDbEntity
  8
SK2
100
AcDbPolyline
 90
        3
 70
     0
 43
0.0
 10
-18.5
 20
-35.0
 10
-18.5
 20
0.0
 10
-18.5
 20
35.0
  0
ENDBLK
  5
28B
330
223
100
AcDbEntity
  8
7
100
AcDbBlockEnd
  0
BLOCK
  5
28C
330
224
100
AcDbEntity
  8
7
100
AcDbBlockBegin
  2
*D9
 70
     1
 10
0.0
 20
0.0
 30
0.0
  3
*D9
  1

  0
MTEXT
  5
28D
330
224
100
AcDbEntity
  8
2
100
AcDbMText
 10
35.9944236166
 20
56.3124524538
 30
0.0
 40
3.5
 41
7.9333333333
 71
     2
 72
     1
  1
45\Fgdt;{\Fgdt;~}
 11
0.9238795325
 21
0.3826834324
 31
0.0
 73
     1
 44
0.9
  0
LINE
  5
28E
330
224
100
AcDbEntity
  8
2
100
AcDbLine
 10
50.0
 20
23.0
 30
0.0
 11
50.0
 21
54.0983348087
 31
0.0
  0
LINE
  5
28F
330
224
100
AcDbEntity
  8
2
100
AcDbLine
 10
32.1684202663
 20
40.3315797337
 30
0.0
 11
27.6566031826
 21
44.8433968174
 31
0.0
  0
SOLID
  5
292
330
224
100
AcDbEntity
  8
2
100
AcDbTrace
 10
47.5161615595
 20
51.6630801688
 30
0.0
 11
50.0
 21
52.0983348087
 31
0.0
 12
47.4882966547
 22
52.3224916845
 32
0.0
 13
47.4882966547
 23
52.3224916845
 33
0.0
  0
SOLID
  5
293
330
224
100
AcDbEntity
  8
2
100
AcDbTrace
 10
30.6883563658
 20
45.3637285698
 30
0.0
 11
29.0708167449
 21
43.4291832551
 31
0.0
 12
31.134927257
 22
44.8777507523
 32
0.0
 13
31.134927257
 23
44.8777507523
 33
0.0
  0
LWPOLYLINE
  5
4ED
330
224
100
AcDbEntity
  8
2
100
AcDbPolyline
 90
        3
 70
     0
 43
0.0
 10
50.0
 20
52.0983348087
 42
0.0984914033571642
 10
38.67320764311557
 20
49.8452957261743
 42
0.0984914033571642
 10
29.0708167449384
 20
43.4291832550616
  0
ENDBLK
  5
294
330
224
100
AcDbEntity
  8
7
100
AcDbBlockEnd
  0
BLOCK
  5
22C
330
225
100
AcDbEntity
  8
7
100
AcDbBlockBegin
  2
NULLPUNKT_BL0
 70
     0
 10
0.0
 20
0.0
 30
0.0
  3
NULLPUNKT_BL0
  1

  0
SOLID
  5
32A
330
225
100
AcDbEntity
  8
1
100
AcDbTrace
 10
-1.4917828431
 20
0.0
 30
0.0
 11
-1.5
 21
0.0
 31
0.0
 12
-1.4917828431
 22
0.1567926949
 32
0.0
 13
-1.4917828431
 23
0.1567926949
 33
0.0
  0
SOLID
  5
32B
330
225
100
AcDbEntity
  8
1
100
AcDbTrace
 10
1.4917828431
 20
0.0
 30
0.0
 11
1.4917828431
 21
0.1567926949
 31
0.0
 12
1.4672214011
 22
0.0
 32
0.0
 13
1.4672214011
 23
0.0
 33
0.0
210
0.0
220
0.0
230
-1.0
  0
SOLID
  5
32C
330
225
100
AcDbEntity
  8
1
100
AcDbTrace
 10
-1.4672214011
 20
0.0
 30
0.0
 11
-1.4917828431
 21
0.1567926949
 31
0.0
 12
-1.4672214011
 22
0.3118675362
 32
0.0
 13
-1.4672214011
 23
0.3118675362
 33
0.0
  0
SOLID
  5
32D
330
225
100
AcDbEntity
  8
1
100
AcDbTrace
 10
1.4672214011
 20
0.0
 30
0.0
 11
1.4672214011
 21
0.3118675362
 31
0.0
 12
1.4265847744
 22
0.0
 32
0.0
 13
1.4265847744
 23
0.0
 33
0.0
210
0.0
220
0.0
230
-1.0
  0
SOLID
  5
32E
330
225
100
AcDbEntity
  8
1
100
AcDbTrace
 10
-1.4265847744
 20
0.0
 30
0.0
 11
-1.4672214011
 21
0.3118675362
 31
0.0
 12
-1.4265847744
 22
0.4635254916
 32
0.0
 13
-1.4265847744
 23
0.4635254916
 33
0.0
  0
SOLID
  5
32F
330
225
100
AcDbEntity
  8
1
100
AcDbTrace
 10
1.4265847744
 20
0.0
 30
0.0
 11
1.4265847744
 21
0.4635254916
 31
0.0
 12
1.3703181865
 22
0.0
 32
0.0
 13
1.3703181865
 23
0.0
 33
0.0
210
0.0
220
0.0
230
-1.0
  0
SOLID
  5
330
330
225
100
AcDbEntity
  8
1
100
AcDbTrace
 10
-1.3703181865
 20
0.0
 30
0.0
 11
-1.4265847744
 21
0.4635254916
 31
0.0
 12
-1.3703181865
 22
0.6101049646
 32
0.0
 13
-1.3703181865
 23
0.6101049646
 33
0.0
  0
SOLID
  5
331
330
225
100
AcDbEntity
  8
1
100
AcDbTrace
 10
1.3703181865
 20
0.0
 30
0.0
 11
1.3703181865
 21
0.6101049646
 31
0.0
 12
1.2990381057
 22
0.0
 32
0.0
 13
1.2990381057
 23
0.0
 33
0.0
210
0.0
220
0.0
230
-1.0
  0
SOLID
  5
332
330
225
100
AcDbEntity
  8
1
100
AcDbTrace
 10
-1.2990381057
 20
0.0
 30
0.0
 11
-1.3703181865
 21
0.6101049646
 31
0.0
 12
-1.2990381057
 22
0.75
 32
0.0
 13
-1.2990381057
 23
0.75
 33
0.0
  0
SOLID
  5
333
330
225
100
AcDbEntity
  8
1
100
AcDbTrace
 10
1.2990381057
 20
0.0
 30
0.0
 11
1.2990381057
 21
0.75
 31
0.0
 12
1.2135254916
 22
0.0
 32
0.0
 13
1.2135254916
 23
0.0
 33
0.0
210
0.0
220
0.0
230
-1.0
  0
SOLID
  5
334
330
225
100
AcDbEntity
  8
1
100
AcDbTrace
 10
-1.2135254916
 20
0.0
 30
0.0
 11
-1.2990381057
 21
0.75
 31
0.0
 12
-1.2135254916
 22
0.8816778784
 32
0.0
 13
-1.2135254916
 23
0.8816778784
 33
0.0
  0
SOLID
  5
335
330
225
100
AcDbEntity
  8
1
100
AcDbTrace
 10
1.2135254916
 20
0.0
 30
0.0
 11
1.2135254916
 21
0.8816778784
 31
0.0
 12
1.1147172382
 22
0.0
 32
0.0
 13
1.1147172382
 23
0.0
 33
0.0
210
0.0
220
0.0
230
-1.0
  0
SOLID
  5
336
330
225
100
AcDbEntity
  8
1
100
AcDbTrace
 10
-1.1147172382
 20
0.0
 30
0.0
 11
-1.2135254916
 21
0.8816778784
 31
0.0
 12
-1.1147172382
 22
1.0036959095
 32
0.0
 13
-1.1147172382
 23
1.0036959095
 33
0.0
  0
SOLID
  5
337
330
225
100
AcDbEntity
  8
1
100
AcDbTrace
 10
1.1147172382
 20
0.0
 30
0.0
 11
1.1147172382
 21
1.0036959095
 31
0.0
 12
1.0036959095
 22
0.0
 32
0.0
 13
1.0036959095
 23
0.0
 33
0.0
210
0.0
220
0.0
230
-1.0
  0
SOLID
  5
338
330
225
100
AcDbEntity
  8
1
100
AcDbTrace
 10
-1.0036959095
 20
0.0
 30
0.0
 11
-1.1147172382
 21
1.0036959095
 31
0.0
 12
-1.0036959095
 22
1.1147172382
 32
0.0
 13
-1.0036959095
 23
1.1147172382
 33
0.0
  0
SOLID
  5
339
330
225
100
AcDbEntity
  8
1
100
AcDbTrace
 10
1.0036959095
 20
0.0
 30
0.0
 11
1.0036959095
 21
1.1147172382
 31
0.0
 12
0.8816778784
 22
0.0
 32
0.0
 13
0.8816778784
 23
0.0
 33
0.0
210
0.0
220
0.0
230
-1.0
  0
SOLID
  5
33A
330
225
100
AcDbEntity
  8
1
100
AcDbTrace
 10
-0.8816778784
 20
0.0
 30
0.0
 11
-1.0036959095
 21
1.1147172382
 31
0.0
 12
-0.8816778784
 22
1.2135254916
 32
0.0
 13
-0.8816778784
 23
1.2135254916
 33
0.0
  0
SOLID
  5
33B
330
225
100
AcDbEntity
  8
1
100
AcDbTrace
 10
0.8816778784
 20
0.0
 30
0.0
 11
0.8816778784
 21
1.2135254916
 31
0.0
 12
0.75
 22
0.0
 32
0.0
 13
0.75
 23
0.0
 33
0.0
210
0.0
220
0.0
230
-1.0
  0
SOLID
  5
33C
330
225
100
AcDbEntity
  8
1
100
AcDbTrace
 10
-0.75
 20
0.0
 30
0.0
 11
-0.8816778784
 21
1.2135254916
 31
0.0
 12
-0.75
 22
1.2990381057
 32
0.0
 13
-0.75
 23
1.2990381057
 33
0.0
  0
SOLID
  5
33D
330
225
100
AcDbEntity
  8
1
100
AcDbTrace
 10
0.75
 20
0.0
 30
0.0
 11
0.75
 21
1.2990381057
 31
0.0
 12
0.6101049646
 22
0.0
 32
0.0
 13
0.6101049646
 23
0.0
 33
0.0
210
0.0
220
0.0
230
-1.0
  0
SOLID
  5
33E
330
225
100
AcDbEntity
  8
1
100
AcDbTrace
 10
-0.6101049646
 20
0.0
 30
0.0
 11
-0.75
 21
1.2990381057
 31
0.0
 12
-0.6101049646
 22
1.3703181865
 32
0.0
 13
-0.6101049646
 23
1.3703181865
 33
0.0
  0
SOLID
  5
33F
330
225
100
AcDbEntity
  8
1
100
AcDbTrace
 10
0.6101049646
 20
0.0
 30
0.0
 11
0.6101049646
 21
1.3703181865
 31
0.0
 12
0.4635254916
 22
0.0
 32
0.0
 13
0.4635254916
 23
0.0
 33
0.0
210
0.0
220
0.0
230
-1.0
  0
SOLID
  5
340
330
225
100
AcDbEntity
  8
1
100
AcDbTrace
 10
-0.4635254916
 20
0.0
 30
0.0
 11
-0.6101049646
 21
1.3703181865
 31
0.0
 12
-0.4635254916
 22
1.4265847744
 32
0.0
 13
-0.4635254916
 23
1.4265847744
 33
0.0
  0
SOLID
  5
341
330
225
100
AcDbEntity
  8
1
100
AcDbTrace
 10
0.4635254916
 20
0.0
 30
0.0
 11
0.4635254916
 21
1.4265847744
 31
0.0
 12
0.3118675362
 22
0.0
 32
0.0
 13
0.3118675362
 23
0.0
 33
0.0
210
0.0
220
0.0
230
-1.0
  0
SOLID
  5
342
330
225
100
AcDbEntity
  8
1
100
AcDbTrace
 10
-0.3118675362
 20
0.0
 30
0.0
 11
-0.4635254916
 21
1.4265847744
 31
0.0
 12
-0.3118675362
 22
1.4672214011
 32
0.0
 13
-0.3118675362
 23
1.4672214011
 33
0.0
  0
SOLID
  5
343
330
225
100
AcDbEntity
  8
1
100
AcDbTrace
 10
0.3118675362
 20
0.0
 30
0.0
 11
0.3118675362
 21
1.4672214011
 31
0.0
 12
0.1567926949
 22
0.0
 32
0.0
 13
0.1567926949
 23
0.0
 33
0.0
210
0.0
220
0.0
230
-1.0
  0
SOLID
  5
344
330
225
100
AcDbEntity
  8
1
100
AcDbTrace
 10
-0.1567926949
 20
0.0
 30
0.0
 11
-0.3118675362
 21
1.4672214011
 31
0.0
 12
-0.1567926949
 22
1.4917828431
 32
0.0
 13
-0.1567926949
 23
1.4917828431
 33
0.0
  0
SOLID
  5
345
330
225
100
AcDbEntity
  8
1
100
AcDbTrace
 10
0.1567926949
 20
0.0
 30
0.0
 11
0.1567926949
 21
1.4917828431
 31
0.0
 12
0.0
 22
0.0
 32
0.0
 13
0.0
 23
0.0
 33
0.0
210
0.0
220
0.0
230
-1.0
  0
SOLID
  5
346
330
225
100
AcDbEntity
  8
1
100
AcDbTrace
 10
0.0
 20
0.0
 30
0.0
 11
-0.1567926949
 21
1.4917828431
 31
0.0
 12
0.0
 22
1.5
 32
0.0
 13
0.0
 23
1.5
 33
0.0
  0
SOLID
  5
347
330
225
100
AcDbEntity
  8
1
100
AcDbTrace
 10
0.0
 20
-1.5
 30
0.0
 11
0.0
 21
0.0
 31
0.0
 12
-0.1567926949
 22
-1.4917828431
 32
0.0
 13
-0.1567926949
 23
-1.4917828431
 33
0.0
210
0.0
220
0.0
230
-1.0
  0
SOLID
  5
348
330
225
100
AcDbEntity
  8
1
100
AcDbTrace
 10
-0.1567926949
 20
-1.4917828431
 30
0.0
 11
0.0
 21
0.0
 31
0.0
 12
-0.1567926949
 22
0.0
 32
0.0
 13
-0.1567926949
 23
0.0
 33
0.0
210
0.0
220
0.0
230
-1.0
  0
SOLID
  5
349
330
225
100
AcDbEntity
  8
1
100
AcDbTrace
 10
-0.1567926949
 20
-1.4917828431
 30
0.0
 11
-0.1567926949
 21
0.0
 31
0.0
 12
-0.3118675362
 22
-1.4672214011
 32
0.0
 13
-0.3118675362
 23
-1.4672214011
 33
0.0
210
0.0
220
0.0
230
-1.0
  0
SOLID
  5
34A
330
225
100
AcDbEntity
  8
1
100
AcDbTrace
 10
-0.3118675362
 20
-1.4672214011
 30
0.0
 11
-0.1567926949
 21
0.0
 31
0.0
 12
-0.3118675362
 22
0.0
 32
0.0
 13
-0.3118675362
 23
0.0
 33
0.0
210
0.0
220
0.0
230
-1.0
  0
SOLID
  5
34B
330
225
100
AcDbEntity
  8
1
100
AcDbTrace
 10
-0.3118675362
 20
-1.4672214011
 30
0.0
 11
-0.3118675362
 21
0.0
 31
0.0
 12
-0.4635254916
 22
-1.4265847744
 32
0.0
 13
-0.4635254916
 23
-1.4265847744
 33
0.0
210
0.0
220
0.0
230
-1.0
  0
SOLID
  5
34C
330
225
100
AcDbEntity
  8
1
100
AcDbTrace
 10
-0.4635254916
 20
-1.4265847744
 30
0.0
 11
-0.3118675362
 21
0.0
 31
0.0
 12
-0.4635254916
 22
0.0
 32
0.0
 13
-0.4635254916
 23
0.0
 33
0.0
210
0.0
220
0.0
230
-1.0
  0
SOLID
  5
34D
330
225
100
AcDbEntity
  8
1
100
AcDbTrace
 10
-0.4635254916
 20
-1.4265847744
 30
0.0
 11
-0.4635254916
 21
0.0
 31
0.0
 12
-0.6101049646
 22
-1.3703181865
 32
0.0
 13
-0.6101049646
 23
-1.3703181865
 33
0.0
210
0.0
220
0.0
230
-1.0
  0
SOLID
  5
34E
330
225
100
AcDbEntity
  8
1
100
AcDbTrace
 10
-0.6101049646
 20
-1.3703181865
 30
0.0
 11
-0.4635254916
 21
0.0
 31
0.0
 12
-0.6101049646
 22
0.0
 32
0.0
 13
-0.6101049646
 23
0.0
 33
0.0
210
0.0
220
0.0
230
-1.0
  0
SOLID
  5
34F
330
225
100
AcDbEntity
  8
1
100
AcDbTrace
 10
-0.6101049646
 20
-1.3703181865
 30
0.0
 11
-0.6101049646
 21
0.0
 31
0.0
 12
-0.75
 22
-1.2990381057
 32
0.0
 13
-0.75
 23
-1.2990381057
 33
0.0
210
0.0
220
0.0
230
-1.0
  0
SOLID
  5
350
330
225
100
AcDbEntity
  8
1
100
AcDbTrace
 10
-0.75
 20
-1.2990381057
 30
0.0
 11
-0.6101049646
 21
0.0
 31
0.0
 12
-0.75
 22
0.0
 32
0.0
 13
-0.75
 23
0.0
 33
0.0
210
0.0
220
0.0
230
-1.0
  0
SOLID
  5
351
330
225
100
AcDbEntity
  8
1
100
AcDbTrace
 10
-0.75
 20
-1.2990381057
 30
0.0
 11
-0.75
 21
0.0
 31
0.0
 12
-0.8816778784
 22
-1.2135254916
 32
0.0
 13
-0.8816778784
 23
-1.2135254916
 33
0.0
210
0.0
220
0.0
230
-1.0
  0
SOLID
  5
352
330
225
100
AcDbEntity
  8
1
100
AcDbTrace
 10
-0.8816778784
 20
-1.2135254916
 30
0.0
 11
-0.75
 21
0.0
 31
0.0
 12
-0.8816778784
 22
0.0
 32
0.0
 13
-0.8816778784
 23
0.0
 33
0.0
210
0.0
220
0.0
230
-1.0
  0
SOLID
  5
353
330
225
100
AcDbEntity
  8
1
100
AcDbTrace
 10
-0.8816778784
 20
-1.2135254916
 30
0.0
 11
-0.8816778784
 21
0.0
 31
0.0
 12
-1.0036959095
 22
-1.1147172382
 32
0.0
 13
-1.0036959095
 23
-1.1147172382
 33
0.0
210
0.0
220
0.0
230
-1.0
  0
SOLID
  5
354
330
225
100
AcDbEntity
  8
1
100
AcDbTrace
 10
-1.0036959095
 20
-1.1147172382
 30
0.0
 11
-0.8816778784
 21
0.0
 31
0.0
 12
-1.0036959095
 22
0.0
 32
0.0
 13
-1.0036959095
 23
0.0
 33
0.0
210
0.0
220
0.0
230
-1.0
  0
SOLID
  5
355
330
225
100
AcDbEntity
  8
1
100
AcDbTrace
 10
-1.0036959095
 20
-1.1147172382
 30
0.0
 11
-1.0036959095
 21
0.0
 31
0.0
 12
-1.1147172382
 22
-1.0036959095
 32
0.0
 13
-1.1147172382
 23
-1.0036959095
 33
0.0
210
0.0
220
0.0
230
-1.0
  0
SOLID
  5
356
330
225
100
AcDbEntity
  8
1
100
AcDbTrace
 10
-1.1147172382
 20
-1.0036959095
 30
0.0
 11
-1.0036959095
 21
0.0
 31
0.0
 12
-1.1147172382
 22
0.0
 32
0.0
 13
-1.1147172382
 23
0.0
 33
0.0
210
0.0
220
0.0
230
-1.0
  0
SOLID
  5
357
330
225
100
AcDbEntity
  8
1
100
AcDbTrace
 10
-1.1147172382
 20
-1.0036959095
 30
0.0
 11
-1.1147172382
 21
0.0
 31
0.0
 12
-1.2135254916
 22
-0.8816778784
 32
0.0
 13
-1.2135254916
 23
-0.8816778784
 33
0.0
210
0.0
220
0.0
230
-1.0
  0
SOLID
  5
358
330
225
100
AcDbEntity
  8
1
100
AcDbTrace
 10
-1.2135254916
 20
-0.8816778784
 30
0.0
 11
-1.1147172382
 21
0.0
 31
0.0
 12
-1.2135254916
 22
0.0
 32
0.0
 13
-1.2135254916
 23
0.0
 33
0.0
210
0.0
220
0.0
230
-1.0
  0
SOLID
  5
359
330
225
100
AcDbEntity
  8
1
100
AcDbTrace
 10
-1.2135254916
 20
-0.8816778784
 30
0.0
 11
-1.2135254916
 21
0.0
 31
0.0
 12
-1.2990381057
 22
-0.75
 32
0.0
 13
-1.2990381057
 23
-0.75
 33
0.0
210
0.0
220
0.0
230
-1.0
  0
SOLID
  5
35A
330
225
100
AcDbEntity
  8
1
100
AcDbTrace
 10
-1.2990381057
 20
-0.75
 30
0.0
 11
-1.2135254916
 21
0.0
 31
0.0
 12
-1.2990381057
 22
0.0
 32
0.0
 13
-1.2990381057
 23
0.0
 33
0.0
210
0.0
220
0.0
230
-1.0
  0
SOLID
  5
35B
330
225
100
AcDbEntity
  8
1
100
AcDbTrace
 10
-1.2990381057
 20
-0.75
 30
0.0
 11
-1.2990381057
 21
0.0
 31
0.0
 12
-1.3703181865
 22
-0.6101049646
 32
0.0
 13
-1.3703181865
 23
-0.6101049646
 33
0.0
210
0.0
220
0.0
230
-1.0
  0
SOLID
  5
35C
330
225
100
AcDbEntity
  8
1
100
AcDbTrace
 10
-1.3703181865
 20
-0.6101049646
 30
0.0
 11
-1.2990381057
 21
0.0
 31
0.0
 12
-1.3703181865
 22
0.0
 32
0.0
 13
-1.3703181865
 23
0.0
 33
0.0
210
0.0
220
0.0
230
-1.0
  0
SOLID
  5
35D
330
225
100
AcDbEntity
  8
1
100
AcDbTrace
 10
-1.3703181865
 20
-0.6101049646
 30
0.0
 11
-1.3703181865
 21
0.0
 31
0.0
 12
-1.4265847744
 22
-0.4635254916
 32
0.0
 13
-1.4265847744
 23
-0.4635254916
 33
0.0
210
0.0
220
0.0
230
-1.0
  0
SOLID
  5
35E
330
225
100
AcDbEntity
  8
1
100
AcDbTrace
 10
-1.4265847744
 20
-0.4635254916
 30
0.0
 11
-1.3703181865
 21
0.0
 31
0.0
 12
-1.4265847744
 22
0.0
 32
0.0
 13
-1.4265847744
 23
0.0
 33
0.0
210
0.0
220
0.0
230
-1.0
  0
SOLID
  5
35F
330
225
100
AcDbEntity
  8
1
100
AcDbTrace
 10
-1.4265847744
 20
-0.4635254916
 30
0.0
 11
-1.4265847744
 21
0.0
 31
0.0
 12
-1.4672214011
 22
-0.3118675362
 32
0.0
 13
-1.4672214011
 23
-0.3118675362
 33
0.0
210
0.0
220
0.0
230
-1.0
  0
SOLID
  5
360
330
225
100
AcDbEntity
  8
1
100
AcDbTrace
 10
-1.4672214011
 20
-0.3118675362
 30
0.0
 11
-1.4265847744
 21
0.0
 31
0.0
 12
-1.4672214011
 22
0.0
 32
0.0
 13
-1.4672214011
 23
0.0
 33
0.0
210
0.0
220
0.0
230
-1.0
  0
SOLID
  5
361
330
225
100
AcDbEntity
  8
1
100
AcDbTrace
 10
-1.4672214011
 20
-0.3118675362
 30
0.0
 11
-1.4672214011
 21
0.0
 31
0.0
 12
-1.4917828431
 22
-0.1567926949
 32
0.0
 13
-1.4917828431
 23
-0.1567926949
 33
0.0
210
0.0
220
0.0
230
-1.0
  0
SOLID
  5
362
330
225
100
AcDbEntity
  8
1
100
AcDbTrace
 10
-1.4917828431
 20
-0.1567926949
 30
0.0
 11
-1.4672214011
 21
0.0
 31
0.0
 12
-1.4917828431
 22
0.0
 32
0.0
 13
-1.4917828431
 23
0.0
 33
0.0
210
0.0
220
0.0
230
-1.0
  0
SOLID
  5
363
330
225
100
AcDbEntity
  8
1
100
AcDbTrace
 10
-1.4917828431
 20
-0.1567926949
 30
0.0
 11
-1.4917828431
 21
0.0
 31
0.0
 12
-1.5
 22
0.0
 32
0.0
 13
-1.5
 23
0.0
 33
0.0
210
0.0
220
0.0
230
-1.0
  0
LWPOLYLINE
  5
4EE
330
225
100
AcDbEntity
  8
1
100
AcDbPolyline
 90
       44
 70
     0
 43
0.0
 10
1.5
 20
0.0
 10
1.4917828431
 20
-0.1567926949
 10
1.4672214011
 20
-0.3118675362
 10
1.4265847744
 20
-0.4635254916
 10
1.3703181865
 20
-0.6101049646
 10
1.2990381057
 20
-0.75
 10
1.2135254916
 20
-0.8816778784
 10
1.1147172382
 20
-1.0036959095
 10
1.0036959095
 20
-1.1147172382
 10
0.8816778784
 20
-1.2135254916
 10
0.75
 20
-1.2990381057
 10
0.6101049646
 20
-1.3703181865
 10
0.4635254916
 20
-1.4265847744
 10
0.3118675362
 20
-1.4672214011
 10
0.1567926949
 20
-1.4917828431
 10
-0.0000000000000003
 20
-1.5
 42
0.414213562373095
 10
1.5
 20
0.0
 42
0.414213562373095
 10
0.0000000000000001
 20
1.5
 42
0.414213562373095
 10
-1.5
 20
0.0000000000000002
 42
0.414213562373095
 10
0.0
 20
-1.5
 10
0.0
 20
0.0
 10
1.5
 20
0.0
 42
-0.414213562373095
 10
-0.0000000000000003
 20
-1.5
 10
0.0
 20
0.0
 10
0.0
 20
1.5
 10
-0.1567926949
 20
1.4917828431
 10
-0.3118675362
 20
1.4672214011
 10
-0.4635254916
 20
1.4265847744
 10
-0.6101049646
 20
1.3703181865
 10
-0.75
 20
1.2990381057
 10
-0.8816778784
 20
1.2135254916
 10
-1.0036959095
 20
1.1147172382
 10
-1.1147172382
 20
1.0036959095
 10
-1.2135254916
 20
0.8816778784
 10
-1.2990381057
 20
0.75
 10
-1.3703181865
 20
0.6101049646
 10
-1.4265847744
 20
0.4635254916
 10
-1.4672214011
 20
0.3118675362
 10
-1.4917828431
 20
0.1567926949
 10
-1.5
 20
0.0
 10
0.0
 20
0.0
 10
1.5
 20
0.0
 10
0.0
 20
0.0
 10
-1.5
 20
0.0
  0
LWPOLYLINE
  5
4EF
330
225
100
AcDbEntity
  8
1
100
AcDbPolyline
 90
        3
 70
     0
 43
0.0
 10
0.0
 20
1.5
 10
0.0
 20
0.0
 10
0.0
 20
-1.5
  0
ENDBLK
  5
23C
330
225
100
AcDbEntity
  8
7
100
AcDbBlockEnd
  0
ENDSEC
  0
SECTION
  2
ENTITIES
  0
DIMENSION
  5
295
330
219
100
AcDbEntity
  8
SK2
100
AcDbDimension
  2
*D1
 10
-10.0
 20
13.5
 30
0.0
 11
-11.4749443853
 21
-2.2945914366
 31
0.0
 70
   160
  1
%%c<>
 71
     2
 42
27.0
  3
DIMSTYLE_1
100
AcDbAlignedDimension
 13
0.5
 23
-13.5
 33
0.0
 14
0.5
 24
13.5
 34
0.0
 50
90.0
100
AcDbRotatedDimension
  0
DIMENSION
  5
296
330
219
100
AcDbEntity
  8
2
100
AcDbDimension
  2
*D2
 10
50.0
 20
61.9189976115
 30
0.0
 11
22.2
 21
64.5439976115
 31
0.0
 70
   160
 71
     2
 42
50.0
  3
DIMSTYLE_2
100
AcDbAlignedDimension
 13
0.0
 23
35.5165556636
 33
0.0
 14
50.0
 24
23.0
 34
0.0
100
AcDbRotatedDimension
  0
DIMENSION
  5
297
330
219
100
AcDbEntity
  8
2
100
AcDbDimension
  2
*D3
 10
79.54
 20
22.5
 30
0.0
 11
78.0650556147
 21
-2.2945914366
 31
0.0
 70
   160
  1
%%c<>
 71
     2
 42
45.0
  3
DIMSTYLE_2
100
AcDbAlignedDimension
 13
50.5
 23
-22.5
 33
0.0
 14
50.5
 24
22.5
 34
0.0
 50
90.0
100
AcDbRotatedDimension
  0
DIMENSION
  5
298
330
219
100
AcDbEntity
  8
SK2
100
AcDbDimension
  2
*D4
 10
62.54
 20
6.5
 30
0.0
 11
61.0650556147
 21
-2.2945914366
 31
0.0
 70
   160
  1
%%c<>
 71
     2
 42
13.0
  3
DIMSTYLE_1
100
AcDbAlignedDimension
 13
28.8942582687
 23
-6.5
 33
0.0
 14
29.0194995151
 24
6.5
 34
0.0
 50
90.0
100
AcDbRotatedDimension
  0
DIMENSION
  5
299
330
219
100
AcDbEntity
  8
SK2
100
AcDbDimension
  2
*D5
 10
71.04
 20
10.0
 30
0.0
 11
69.5650556147
 21
-2.2945914366
 31
0.0
 70
   160
  1
%%c<>
 71
     2
 42
20.0
  3
DIMSTYLE_1
100
AcDbAlignedDimension
 13
41.0085358174
 23
-10.0
 33
0.0
 14
40.6328120784
 24
10.0
 34
0.0
 50
90.0
100
AcDbRotatedDimension
  0
DIMENSION
  5
29A
330
219
100
AcDbEntity
  8
SK2
100
AcDbDimension
  2
*D6
 10
22.0
 20
-50.346794
 30
0.0
 11
8.2
 21
-47.721794
 31
0.0
 70
   160
 71
     2
 42
22.0
  3
DIMSTYLE_3
100
AcDbAlignedDimension
 13
0.0
 23
-33.0357258024
 33
0.0
 14
22.0
 24
-13.1958090994
 34
0.0
100
AcDbRotatedDimension
  0
DIMENSION
  5
29B
330
219
100
AcDbEntity
  8
2
100
AcDbDimension
  2
*D7
 10
88.04
 20
40.35
 30
0.0
 11
87.1923586773
 21
-3.5461867656
 31
0.0
 70
   160
  1
%%c<>
 71
     2
 42
80.7
  3
DIMSTYLE_4
100
AcDbAlignedDimension
 13
32.170735852
 23
-40.35
 33
0.0
 14
32.1454735527
 24
40.35
 34
0.0
 50
90.0
100
AcDbRotatedDimension
  0
DIMENSION
  5
29C
330
219
100
AcDbEntity
  8
SK2
100
AcDbDimension
  2
*D8
 10
-18.5
 20
35.0
 30
0.0
 11
-19.9749443853
 21
-2.2945914366
 31
0.0
 70
   160
  1
%%c<>
 71
     2
 42
70.0
  3
DIMSTYLE_1
100
AcDbAlignedDimension
 13
1.5
 23
-35.0
 33
0.0
 14
1.5
 24
35.0
 34
0.0
 50
90.0
100
AcDbRotatedDimension
  0
DIMENSION
  5
29D
330
219
100
AcDbEntity
  8
2
100
AcDbDimension
  2
*D9
 10
27.6566031826
 20
44.8433968174
 30
0.0
 11
38.3961738261
 21
55.6618927216
 31
0.0
 70
   162
 71
     2
 42
0.7853981634
  3
DIMSTYLE_5
100
AcDb2LineAngularDimension
 13
50.0
 23
54.0983348087
 33
0.0
 14
50.0
 24
23.0
 34
0.0
 15
32.1684202663
 25
40.3315797337
 35
0.0
 16
38.6732076431
 26
49.8452957262
 36
0.0
  0
MTEXT
  5
29E
330
219
100
AcDbEntity
  8
6
100
AcDbMText
 10
0.8094991867
 20
-57.5614500053
 30
0.0
 40
5.0
 41
64.0
 71
     1
 72
     1
  1
15N1H045050F2R00
 73
     1
 44
0.9
  0
MTEXT
  5
29F
330
219
100
AcDbEntity
  8
6
100
AcDbMText
 10
92.7993869459
 20
-2.6743484623
 30
0.0
 40
3.5
 41
8.4
 71
     1
 72
     1
  1
Z=3
 11
0.0
 21
1.0
 31
0.0
 73
     1
 44
0.9
  0
MTEXT
  5
2A0
330
219
100
AcDbEntity
  8
6
100
AcDbMText
 10
56.3127866287
 20
52.0422566912
 30
0.0
 40
3.5
 41
30.8
 71
     1
 72
     1
  1
BEHW250308R
 73
     1
 44
0.9
  0
LINE
  5
2C4
330
219
100
AcDbEntity
  8
SK3
 48
0.2
100
AcDbLine
 10
1.0000035729
 20
-13.5000061858
 30
0.0
 11
0.0
 21
-14.0773588706
 31
0.0
  0
LINE
  5
2C5
330
219
100
AcDbEntity
  8
4
 48
0.2
100
AcDbLine
 10
-3.0
 20
0.0
 30
0.0
 11
49.7807304637
 21
0.0
 31
0.0
  0
LINE
  5
2CA
330
219
100
AcDbEntity
  8
SK3
 48
0.2
100
AcDbLine
 10
28.5001073197
 20
-6.3955847077
 30
0.0
 11
28.5
 21
-6.5
 31
0.0
  0
LINE
  5
2CB
330
219
100
AcDbEntity
  8
SK3
 48
0.2
100
AcDbLine
 10
22.4999705529
 20
-6.4999705439
 30
0.0
 11
21.9999682878
 21
-6.9999682781
 31
0.0
  0
LINE
  5
2CE
330
219
100
AcDbEntity
  8
SK3
 48
0.2
100
AcDbLine
 10
22.5
 20
6.5
 30
0.0
 11
28.5
 21
6.5
 31
0.0
  0
LINE
  5
2D3
330
219
100
AcDbEntity
  8
SK3
 48
0.2
100
AcDbLine
 10
18.0
 20
13.5
 30
0.0
 11
19.492820323
 21
13.9
 31
0.0
  0
SOLID
  5
372
330
219
100
AcDbEntity
  8
1
100
AcDbTrace
 10
-1.4917828431
 20
0.0
 30
0.0
 11
-1.5
 21
0.0
 31
0.0
 12
-1.4917828431
 22
0.1567926949
 32
0.0
 13
-1.4917828431
 23
0.1567926949
 33
0.0
  0
SOLID
  5
373
330
219
100
AcDbEntity
  8
1
100
AcDbTrace
 10
1.4917828431
 20
0.0
 30
0.0
 11
1.4917828431
 21
0.1567926949
 31
0.0
 12
1.4672214011
 22
0.0
 32
0.0
 13
1.4672214011
 23
0.0
 33
0.0
210
0.0
220
0.0
230
-1.0
  0
SOLID
  5
374
330
219
100
AcDbEntity
  8
1
100
AcDbTrace
 10
-1.4672214011
 20
0.0
 30
0.0
 11
-1.4917828431
 21
0.1567926949
 31
0.0
 12
-1.4672214011
 22
0.3118675362
 32
0.0
 13
-1.4672214011
 23
0.3118675362
 33
0.0
  0
SOLID
  5
375
330
219
100
AcDbEntity
  8
1
100
AcDbTrace
 10
1.4672214011
 20
0.0
 30
0.0
 11
1.4672214011
 21
0.3118675362
 31
0.0
 12
1.4265847744
 22
0.0
 32
0.0
 13
1.4265847744
 23
0.0
 33
0.0
210
0.0
220
0.0
230
-1.0
  0
SOLID
  5
376
330
219
100
AcDbEntity
  8
1
100
AcDbTrace
 10
-1.4265847744
 20
0.0
 30
0.0
 11
-1.4672214011
 21
0.3118675362
 31
0.0
 12
-1.4265847744
 22
0.4635254916
 32
0.0
 13
-1.4265847744
 23
0.4635254916
 33
0.0
  0
SOLID
  5
377
330
219
100
AcDbEntity
  8
1
100
AcDbTrace
 10
1.4265847744
 20
0.0
 30
0.0
 11
1.4265847744
 21
0.4635254916
 31
0.0
 12
1.3703181865
 22
0.0
 32
0.0
 13
1.3703181865
 23
0.0
 33
0.0
210
0.0
220
0.0
230
-1.0
  0
SOLID
  5
378
330
219
100
AcDbEntity
  8
1
100
AcDbTrace
 10
-1.3703181865
 20
0.0
 30
0.0
 11
-1.4265847744
 21
0.4635254916
 31
0.0
 12
-1.3703181865
 22
0.6101049646
 32
0.0
 13
-1.3703181865
 23
0.6101049646
 33
0.0
  0
SOLID
  5
379
330
219
100
AcDbEntity
  8
1
100
AcDbTrace
 10
1.3703181865
 20
0.0
 30
0.0
 11
1.3703181865
 21
0.6101049646
 31
0.0
 12
1.2990381057
 22
0.0
 32
0.0
 13
1.2990381057
 23
0.0
 33
0.0
210
0.0
220
0.0
230
-1.0
  0
SOLID
  5
37A
330
219
100
AcDbEntity
  8
1
100
AcDbTrace
 10
-1.2990381057
 20
0.0
 30
0.0
 11
-1.3703181865
 21
0.6101049646
 31
0.0
 12
-1.2990381057
 22
0.75
 32
0.0
 13
-1.2990381057
 23
0.75
 33
0.0
  0
SOLID
  5
37B
330
219
100
AcDbEntity
  8
1
100
AcDbTrace
 10
1.2990381057
 20
0.0
 30
0.0
 11
1.2990381057
 21
0.75
 31
0.0
 12
1.2135254916
 22
0.0
 32
0.0
 13
1.2135254916
 23
0.0
 33
0.0
210
0.0
220
0.0
230
-1.0
  0
SOLID
  5
37C
330
219
100
AcDbEntity
  8
1
100
AcDbTrace
 10
-1.2135254916
 20
0.0
 30
0.0
 11
-1.2990381057
 21
0.75
 31
0.0
 12
-1.2135254916
 22
0.8816778784
 32
0.0
 13
-1.2135254916
 23
0.8816778784
 33
0.0
  0
SOLID
  5
37D
330
219
100
AcDbEntity
  8
1
100
AcDbTrace
 10
1.2135254916
 20
0.0
 30
0.0
 11
1.2135254916
 21
0.8816778784
 31
0.0
 12
1.1147172382
 22
0.0
 32
0.0
 13
1.1147172382
 23
0.0
 33
0.0
210
0.0
220
0.0
230
-1.0
  0
SOLID
  5
37E
330
219
100
AcDbEntity
  8
1
100
AcDbTrace
 10
-1.1147172382
 20
0.0
 30
0.0
 11
-1.2135254916
 21
0.8816778784
 31
0.0
 12
-1.1147172382
 22
1.0036959095
 32
0.0
 13
-1.1147172382
 23
1.0036959095
 33
0.0
  0
SOLID
  5
37F
330
219
100
AcDbEntity
  8
1
100
AcDbTrace
 10
1.1147172382
 20
0.0
 30
0.0
 11
1.1147172382
 21
1.0036959095
 31
0.0
 12
1.0036959095
 22
0.0
 32
0.0
 13
1.0036959095
 23
0.0
 33
0.0
210
0.0
220
0.0
230
-1.0
  0
SOLID
  5
380
330
219
100
AcDbEntity
  8
1
100
AcDbTrace
 10
-1.0036959095
 20
0.0
 30
0.0
 11
-1.1147172382
 21
1.0036959095
 31
0.0
 12
-1.0036959095
 22
1.1147172382
 32
0.0
 13
-1.0036959095
 23
1.1147172382
 33
0.0
  0
SOLID
  5
381
330
219
100
AcDbEntity
  8
1
100
AcDbTrace
 10
1.0036959095
 20
0.0
 30
0.0
 11
1.0036959095
 21
1.1147172382
 31
0.0
 12
0.8816778784
 22
0.0
 32
0.0
 13
0.8816778784
 23
0.0
 33
0.0
210
0.0
220
0.0
230
-1.0
  0
SOLID
  5
382
330
219
100
AcDbEntity
  8
1
100
AcDbTrace
 10
-0.8816778784
 20
0.0
 30
0.0
 11
-1.0036959095
 21
1.1147172382
 31
0.0
 12
-0.8816778784
 22
1.2135254916
 32
0.0
 13
-0.8816778784
 23
1.2135254916
 33
0.0
  0
SOLID
  5
383
330
219
100
AcDbEntity
  8
1
100
AcDbTrace
 10
0.8816778784
 20
0.0
 30
0.0
 11
0.8816778784
 21
1.2135254916
 31
0.0
 12
0.75
 22
0.0
 32
0.0
 13
0.75
 23
0.0
 33
0.0
210
0.0
220
0.0
230
-1.0
  0
SOLID
  5
384
330
219
100
AcDbEntity
  8
1
100
AcDbTrace
 10
-0.75
 20
0.0
 30
0.0
 11
-0.8816778784
 21
1.2135254916
 31
0.0
 12
-0.75
 22
1.2990381057
 32
0.0
 13
-0.75
 23
1.2990381057
 33
0.0
  0
SOLID
  5
385
330
219
100
AcDbEntity
  8
1
100
AcDbTrace
 10
0.75
 20
0.0
 30
0.0
 11
0.75
 21
1.2990381057
 31
0.0
 12
0.6101049646
 22
0.0
 32
0.0
 13
0.6101049646
 23
0.0
 33
0.0
210
0.0
220
0.0
230
-1.0
  0
SOLID
  5
386
330
219
100
AcDbEntity
  8
1
100
AcDbTrace
 10
-0.6101049646
 20
0.0
 30
0.0
 11
-0.75
 21
1.2990381057
 31
0.0
 12
-0.6101049646
 22
1.3703181865
 32
0.0
 13
-0.6101049646
 23
1.3703181865
 33
0.0
  0
SOLID
  5
387
330
219
100
AcDbEntity
  8
1
100
AcDbTrace
 10
0.6101049646
 20
0.0
 30
0.0
 11
0.6101049646
 21
1.3703181865
 31
0.0
 12
0.4635254916
 22
0.0
 32
0.0
 13
0.4635254916
 23
0.0
 33
0.0
210
0.0
220
0.0
230
-1.0
  0
SOLID
  5
388
330
219
100
AcDbEntity
  8
1
100
AcDbTrace
 10
-0.4635254916
 20
0.0
 30
0.0
 11
-0.6101049646
 21
1.3703181865
 31
0.0
 12
-0.4635254916
 22
1.4265847744
 32
0.0
 13
-0.4635254916
 23
1.4265847744
 33
0.0
  0
SOLID
  5
389
330
219
100
AcDbEntity
  8
1
100
AcDbTrace
 10
0.4635254916
 20
0.0
 30
0.0
 11
0.4635254916
 21
1.4265847744
 31
0.0
 12
0.3118675362
 22
0.0
 32
0.0
 13
0.3118675362
 23
0.0
 33
0.0
210
0.0
220
0.0
230
-1.0
  0
SOLID
  5
38A
330
219
100
AcDbEntity
  8
1
100
AcDbTrace
 10
-0.3118675362
 20
0.0
 30
0.0
 11
-0.4635254916
 21
1.4265847744
 31
0.0
 12
-0.3118675362
 22
1.4672214011
 32
0.0
 13
-0.3118675362
 23
1.4672214011
 33
0.0
  0
SOLID
  5
38B
330
219
100
AcDbEntity
  8
1
100
AcDbTrace
 10
0.3118675362
 20
0.0
 30
0.0
 11
0.3118675362
 21
1.4672214011
 31
0.0
 12
0.1567926949
 22
0.0
 32
0.0
 13
0.1567926949
 23
0.0
 33
0.0
210
0.0
220
0.0
230
-1.0
  0
SOLID
  5
38C
330
219
100
AcDbEntity
  8
1
100
AcDbTrace
 10
-0.1567926949
 20
0.0
 30
0.0
 11
-0.3118675362
 21
1.4672214011
 31
0.0
 12
-0.1567926949
 22
1.4917828431
 32
0.0
 13
-0.1567926949
 23
1.4917828431
 33
0.0
  0
SOLID
  5
38D
330
219
100
AcDbEntity
  8
1
100
AcDbTrace
 10
0.1567926949
 20
0.0
 30
0.0
 11
0.1567926949
 21
1.4917828431
 31
0.0
 12
0.0
 22
0.0
 32
0.0
 13
0.0
 23
0.0
 33
0.0
210
0.0
220
0.0
230
-1.0
  0
SOLID
  5
38E
330
219
100
AcDbEntity
  8
1
100
AcDbTrace
 10
0.0
 20
0.0
 30
0.0
 11
-0.1567926949
 21
1.4917828431
 31
0.0
 12
0.0
 22
1.5
 32
0.0
 13
0.0
 23
1.5
 33
0.0
  0
SOLID
  5
38F
330
219
100
AcDbEntity
  8
1
100
AcDbTrace
 10
0.0
 20
-1.5
 30
0.0
 11
0.0
 21
0.0
 31
0.0
 12
-0.1567926949
 22
-1.4917828431
 32
0.0
 13
-0.1567926949
 23
-1.4917828431
 33
0.0
210
0.0
220
0.0
230
-1.0
  0
SOLID
  5
390
330
219
100
AcDbEntity
  8
1
100
AcDbTrace
 10
-0.1567926949
 20
-1.4917828431
 30
0.0
 11
0.0
 21
0.0
 31
0.0
 12
-0.1567926949
 22
0.0
 32
0.0
 13
-0.1567926949
 23
0.0
 33
0.0
210
0.0
220
0.0
230
-1.0
  0
SOLID
  5
391
330
219
100
AcDbEntity
  8
1
100
AcDbTrace
 10
-0.1567926949
 20
-1.4917828431
 30
0.0
 11
-0.1567926949
 21
0.0
 31
0.0
 12
-0.3118675362
 22
-1.4672214011
 32
0.0
 13
-0.3118675362
 23
-1.4672214011
 33
0.0
210
0.0
220
0.0
230
-1.0
  0
SOLID
  5
392
330
219
100
AcDbEntity
  8
1
100
AcDbTrace
 10
-0.3118675362
 20
-1.4672214011
 30
0.0
 11
-0.1567926949
 21
0.0
 31
0.0
 12
-0.3118675362
 22
0.0
 32
0.0
 13
-0.3118675362
 23
0.0
 33
0.0
210
0.0
220
0.0
230
-1.0
  0
SOLID
  5
393
330
219
100
AcDbEntity
  8
1
100
AcDbTrace
 10
-0.3118675362
 20
-1.4672214011
 30
0.0
 11
-0.3118675362
 21
0.0
 31
0.0
 12
-0.4635254916
 22
-1.4265847744
 32
0.0
 13
-0.4635254916
 23
-1.4265847744
 33
0.0
210
0.0
220
0.0
230
-1.0
  0
SOLID
  5
394
330
219
100
AcDbEntity
  8
1
100
AcDbTrace
 10
-0.4635254916
 20
-1.4265847744
 30
0.0
 11
-0.3118675362
 21
0.0
 31
0.0
 12
-0.4635254916
 22
0.0
 32
0.0
 13
-0.4635254916
 23
0.0
 33
0.0
210
0.0
220
0.0
230
-1.0
  0
SOLID
  5
395
330
219
100
AcDbEntity
  8
1
100
AcDbTrace
 10
-0.4635254916
 20
-1.4265847744
 30
0.0
 11
-0.4635254916
 21
0.0
 31
0.0
 12
-0.6101049646
 22
-1.3703181865
 32
0.0
 13
-0.6101049646
 23
-1.3703181865
 33
0.0
210
0.0
220
0.0
230
-1.0
  0
SOLID
  5
396
330
219
100
AcDbEntity
  8
1
100
AcDbTrace
 10
-0.6101049646
 20
-1.3703181865
 30
0.0
 11
-0.4635254916
 21
0.0
 31
0.0
 12
-0.6101049646
 22
0.0
 32
0.0
 13
-0.6101049646
 23
0.0
 33
0.0
210
0.0
220
0.0
230
-1.0
  0
SOLID
  5
397
330
219
100
AcDbEntity
  8
1
100
AcDbTrace
 10
-0.6101049646
 20
-1.3703181865
 30
0.0
 11
-0.6101049646
 21
0.0
 31
0.0
 12
-0.75
 22
-1.2990381057
 32
0.0
 13
-0.75
 23
-1.2990381057
 33
0.0
210
0.0
220
0.0
230
-1.0
  0
SOLID
  5
398
330
219
100
AcDbEntity
  8
1
100
AcDbTrace
 10
-0.75
 20
-1.2990381057
 30
0.0
 11
-0.6101049646
 21
0.0
 31
0.0
 12
-0.75
 22
0.0
 32
0.0
 13
-0.75
 23
0.0
 33
0.0
210
0.0
220
0.0
230
-1.0
  0
SOLID
  5
399
330
219
100
AcDbEntity
  8
1
100
AcDbTrace
 10
-0.75
 20
-1.2990381057
 30
0.0
 11
-0.75
 21
0.0
 31
0.0
 12
-0.8816778784
 22
-1.2135254916
 32
0.0
 13
-0.8816778784
 23
-1.2135254916
 33
0.0
210
0.0
220
0.0
230
-1.0
  0
SOLID
  5
39A
330
219
100
AcDbEntity
  8
1
100
AcDbTrace
 10
-0.8816778784
 20
-1.2135254916
 30
0.0
 11
-0.75
 21
0.0
 31
0.0
 12
-0.8816778784
 22
0.0
 32
0.0
 13
-0.8816778784
 23
0.0
 33
0.0
210
0.0
220
0.0
230
-1.0
  0
SOLID
  5
39B
330
219
100
AcDbEntity
  8
1
100
AcDbTrace
 10
-0.8816778784
 20
-1.2135254916
 30
0.0
 11
-0.8816778784
 21
0.0
 31
0.0
 12
-1.0036959095
 22
-1.1147172382
 32
0.0
 13
-1.0036959095
 23
-1.1147172382
 33
0.0
210
0.0
220
0.0
230
-1.0
  0
SOLID
  5
39C
330
219
100
AcDbEntity
  8
1
100
AcDbTrace
 10
-1.0036959095
 20
-1.1147172382
 30
0.0
 11
-0.8816778784
 21
0.0
 31
0.0
 12
-1.0036959095
 22
0.0
 32
0.0
 13
-1.0036959095
 23
0.0
 33
0.0
210
0.0
220
0.0
230
-1.0
  0
SOLID
  5
39D
330
219
100
AcDbEntity
  8
1
100
AcDbTrace
 10
-1.0036959095
 20
-1.1147172382
 30
0.0
 11
-1.0036959095
 21
0.0
 31
0.0
 12
-1.1147172382
 22
-1.0036959095
 32
0.0
 13
-1.1147172382
 23
-1.0036959095
 33
0.0
210
0.0
220
0.0
230
-1.0
  0
SOLID
  5
39E
330
219
100
AcDbEntity
  8
1
100
AcDbTrace
 10
-1.1147172382
 20
-1.0036959095
 30
0.0
 11
-1.0036959095
 21
0.0
 31
0.0
 12
-1.1147172382
 22
0.0
 32
0.0
 13
-1.1147172382
 23
0.0
 33
0.0
210
0.0
220
0.0
230
-1.0
  0
SOLID
  5
39F
330
219
100
AcDbEntity
  8
1
100
AcDbTrace
 10
-1.1147172382
 20
-1.0036959095
 30
0.0
 11
-1.1147172382
 21
0.0
 31
0.0
 12
-1.2135254916
 22
-0.8816778784
 32
0.0
 13
-1.2135254916
 23
-0.8816778784
 33
0.0
210
0.0
220
0.0
230
-1.0
  0
SOLID
  5
3A0
330
219
100
AcDbEntity
  8
1
100
AcDbTrace
 10
-1.2135254916
 20
-0.8816778784
 30
0.0
 11
-1.1147172382
 21
0.0
 31
0.0
 12
-1.2135254916
 22
0.0
 32
0.0
 13
-1.2135254916
 23
0.0
 33
0.0
210
0.0
220
0.0
230
-1.0
  0
SOLID
  5
3A1
330
219
100
AcDbEntity
  8
1
100
AcDbTrace
 10
-1.2135254916
 20
-0.8816778784
 30
0.0
 11
-1.2135254916
 21
0.0
 31
0.0
 12
-1.2990381057
 22
-0.75
 32
0.0
 13
-1.2990381057
 23
-0.75
 33
0.0
210
0.0
220
0.0
230
-1.0
  0
SOLID
  5
3A2
330
219
100
AcDbEntity
  8
1
100
AcDbTrace
 10
-1.2990381057
 20
-0.75
 30
0.0
 11
-1.2135254916
 21
0.0
 31
0.0
 12
-1.2990381057
 22
0.0
 32
0.0
 13
-1.2990381057
 23
0.0
 33
0.0
210
0.0
220
0.0
230
-1.0
  0
SOLID
  5
3A3
330
219
100
AcDbEntity
  8
1
100
AcDbTrace
 10
-1.2990381057
 20
-0.75
 30
0.0
 11
-1.2990381057
 21
0.0
 31
0.0
 12
-1.3703181865
 22
-0.6101049646
 32
0.0
 13
-1.3703181865
 23
-0.6101049646
 33
0.0
210
0.0
220
0.0
230
-1.0
  0
SOLID
  5
3A4
330
219
100
AcDbEntity
  8
1
100
AcDbTrace
 10
-1.3703181865
 20
-0.6101049646
 30
0.0
 11
-1.2990381057
 21
0.0
 31
0.0
 12
-1.3703181865
 22
0.0
 32
0.0
 13
-1.3703181865
 23
0.0
 33
0.0
210
0.0
220
0.0
230
-1.0
  0
SOLID
  5
3A5
330
219
100
AcDbEntity
  8
1
100
AcDbTrace
 10
-1.3703181865
 20
-0.6101049646
 30
0.0
 11
-1.3703181865
 21
0.0
 31
0.0
 12
-1.4265847744
 22
-0.4635254916
 32
0.0
 13
-1.4265847744
 23
-0.4635254916
 33
0.0
210
0.0
220
0.0
230
-1.0
  0
SOLID
  5
3A6
330
219
100
AcDbEntity
  8
1
100
AcDbTrace
 10
-1.4265847744
 20
-0.4635254916
 30
0.0
 11
-1.3703181865
 21
0.0
 31
0.0
 12
-1.4265847744
 22
0.0
 32
0.0
 13
-1.4265847744
 23
0.0
 33
0.0
210
0.0
220
0.0
230
-1.0
  0
SOLID
  5
3A7
330
219
100
AcDbEntity
  8
1
100
AcDbTrace
 10
-1.4265847744
 20
-0.4635254916
 30
0.0
 11
-1.4265847744
 21
0.0
 31
0.0
 12
-1.4672214011
 22
-0.3118675362
 32
0.0
 13
-1.4672214011
 23
-0.3118675362
 33
0.0
210
0.0
220
0.0
230
-1.0
  0
SOLID
  5
3A8
330
219
100
AcDbEntity
  8
1
100
AcDbTrace
 10
-1.4672214011
 20
-0.3118675362
 30
0.0
 11
-1.4265847744
 21
0.0
 31
0.0
 12
-1.4672214011
 22
0.0
 32
0.0
 13
-1.4672214011
 23
0.0
 33
0.0
210
0.0
220
0.0
230
-1.0
  0
SOLID
  5
3A9
330
219
100
AcDbEntity
  8
1
100
AcDbTrace
 10
-1.4672214011
 20
-0.3118675362
 30
0.0
 11
-1.4672214011
 21
0.0
 31
0.0
 12
-1.4917828431
 22
-0.1567926949
 32
0.0
 13
-1.4917828431
 23
-0.1567926949
 33
0.0
210
0.0
220
0.0
230
-1.0
  0
SOLID
  5
3AA
330
219
100
AcDbEntity
  8
1
100
AcDbTrace
 10
-1.4917828431
 20
-0.1567926949
 30
0.0
 11
-1.4672214011
 21
0.0
 31
0.0
 12
-1.4917828431
 22
0.0
 32
0.0
 13
-1.4917828431
 23
0.0
 33
0.0
210
0.0
220
0.0
230
-1.0
  0
SOLID
  5
3AB
330
219
100
AcDbEntity
  8
1
100
AcDbTrace
 10
-1.4917828431
 20
-0.1567926949
 30
0.0
 11
-1.4917828431
 21
0.0
 31
0.0
 12
-1.5
 22
0.0
 32
0.0
 13
-1.5
 23
0.0
 33
0.0
210
0.0
220
0.0
230
-1.0
  0
LWPOLYLINE
  5
4D8
330
219
100
AcDbEntity
  8
NOCUT
100
AcDbPolyline
 90
       13
 70
     0
 43
0.0
 10
0.0
 20
32.9480598038
 10
0.0
 20
0.0
 10
47.9
 20
0.0
 10
47.9
 20
22.6251262658
 42
0.198912367379658
 10
47.7535533906
 20
22.9786796564
 10
31.0251262658
 20
39.7071067812
 42
0.1989123673805652
 10
30.3180194847
 20
40.0
 10
21.4819307164
 20
40.0
 42
0.1812661360307092
 10
20.16726169023148
 20
39.50719784754129
 10
16.412428392
 20
36.2320053811
 42
-0.1812661360307094
 10
13.1257558266
 20
35.0
 10
2.0
 20
35.0
 42
0.414213562373095
 10
0.0
 20
33.0
  0
LWPOLYLINE
  5
4D9
330
219
100
AcDbEntity
  8
1
100
AcDbPolyline
 90
       24
 70
     0
 43
0.0
 10
0.0
 20
-32.9480598038
 10
0.0
 20
-7.2
 10
0.0
 20
-33.0
 42
0.414213562373095
 10
2.0
 20
-35.0
 10
13.1257558266
 20
-35.0
 42
-0.1812661360307092
 10
16.412428392
 20
-36.2320053811
 10
20.16726169023148
 20
-39.50719784754129
 42
0.1812661360307092
 10
21.4819307164
 20
-40.0
 10
30.3180194847
 20
-40.0
 42
0.1989123673805652
 10
31.02512626588901
 20
-39.70710678118408
 10
47.7535533906
 20
-22.9786796564
 42
0.198912367379658
 10
47.9
 20
-22.6251262658
 10
47.9
 20
22.6251262658
 42
0.198912367379658
 10
47.75355339059328
 20
22.97867965639327
 10
31.0251262658
 20
39.7071067812
 42
0.1989123673805652
 10
30.3180194847
 20
40.0
 10
21.4819307164
 20
40.0
 42
0.1812661360307092
 10
20.16726169023148
 20
39.50719784754129
 10
16.412428392
 20
36.2320053811
 42
-0.1812661360307094
 10
13.1257558266
 20
35.0
 10
2.0
 20
35.0
 42
0.414213562373095
 10
0.0
 20
33.0
 10
0.0
 20
7.2
 10
0.0
 20
32.9997881147
  0
LWPOLYLINE
  5
4DA
330
219
100
AcDbEntity
  8
SK3
 48
0.2
100
AcDbPolyline
 90
        3
 70
     0
 43
0.0
 10
0.0
 20
14.0773588706
 10
1.0
 20
13.5
 10
1.000014287
 20
6.2
  0
LWPOLYLINE
  5
4DB
330
219
100
AcDbEntity
  8
SK3
 48
0.2
100
AcDbPolyline
 90
       10
 70
     0
 43
0.0
 10
1.000014287
 20
-6.2
 10
1.0000000002
 20
-13.5
 10
18.0
 20
-13.5
 10
19.492820323
 20
-13.9
 10
21.0
 20
-13.9
 42
0.414213562373095
 10
22.0
 20
-12.9
 10
22.0
 20
12.9
 42
0.414213562373095
 10
21.0
 20
13.9
 10
19.492820323
 20
13.9
 10
19.492820323
 20
-13.9
  0
LWPOLYLINE
  5
4DC
330
219
100
AcDbEntity
  8
1
100
AcDbPolyline
 90
        8
 70
     0
 43
0.0
 10
0.0
 20
7.2
 10
1.0
 20
6.2
 10
6.4
 20
6.199999999999999
 42
-0.414213562373095
 10
7.0
 20
5.6
 10
7.0
 20
-5.6
 42
-0.414213562373095
 10
6.4
 20
-6.199999999999999
 10
1.0
 20
-6.2
 10
0.0
 20
-7.2
  0
LWPOLYLINE
  5
4DD
330
219
100
AcDbEntity
  8
SK3
 48
0.2
100
AcDbPolyline
 90
        6
 70
     0
 43
0.0
 10
40.9
 20
11.0
 42
-0.414213562373095
 10
39.9
 20
10.0
 10
29.0
 20
10.0
 10
29.0
 20
-10.0
 10
39.9
 20
-10.0
 42
-0.414213562373095
 10
40.9
 20
-11.0
  0
LWPOLYLINE
  5
4DE
330
219
100
AcDbEntity
  8
SK3
 48
0.2
100
AcDbPolyline
 90
        3
 70
     0
 43
0.0
 10
1.0
 20
13.5
 10
18.0
 20
13.5
 10
18.0
 20
-13.5
  0
LWPOLYLINE
  5
4DF
330
219
100
AcDbEntity
  8
SK3
 48
0.2
100
AcDbPolyline
 90
        8
 70
     0
 43
0.0
 10
21.9999682873
 20
6.9999682786
 10
22.5
 20
6.5
 10
22.5
 20
-6.5
 10
28.5
 20
-6.5
 10
29.0000276461
 20
-6.9999723449
 10
29.0
 20
7.0000000007
 10
28.5000256692
 20
6.4999743181
 10
28.5000590291
 20
-6.4742622844
  0
LWPOLYLINE
  5
4E0
330
219
100
AcDbEntity
  8
SK3
 48
0.2
100
AcDbPolyline
 90
        8
 70
     1
 43
0.0
 10
47.68678821820983
 20
-22.05070750317953
 42
-0.2446984432063739
 10
47.9
 20
-22.4602835253
 10
47.9
 20
22.46028352529738
 42
-0.2446984431989743
 10
47.6867882182
 20
22.0507075031
 10
41.32642356364895
 20
17.59713222628899
 42
0.2446984432290343
 10
40.9
 20
16.777980182
 10
40.9
 20
-16.777980182
 42
0.2446984432290343
 10
41.3264235636
 20
-17.5971322263
  0
LWPOLYLINE
  5
4E1
330
219
100
AcDbEntity
  8
CUT
100
AcDbPolyline
 90
      121
 70
     1
 43
0.0
 10
49.756286
 20
22.746026
 10
49.7726990653
 20
22.7289400966
 10
49.788641
 20
22.711412
 10
49.803822078
 20
22.6937608818
 10
49.818499
 20
22.675689
 10
49.8324465969
 20
22.6574716702
 10
49.845861
 20
22.638858
 10
49.8585781402
 20
22.6200746107
 10
49.870727
 20
22.600919
 10
49.8822323088
 20
22.5814859988
 10
49.893132
 20
22.561707
 10
49.903417011
 20
22.5415952599
 10
49.913086
 20
22.52118
 10
49.9220990573
 20
22.5005878619
 10
49.930501
 20
22.479739
 10
49.9382050732
 20
22.4588746431
 10
49.945287
 20
22.437791
 10
49.9516654694
 20
22.4167215388
 10
49.957396
 20
22.395467
 10
49.9624725859
 20
22.3740019257
 10
49.966889
 20
22.352391
 10
49.9706480657
 20
22.3306947556
 10
49.973757
 20
22.308896
 10
49.9761971732
 20
22.2871587886
 10
49.977982
 20
22.265358
 10
49.9790953219
 20
22.2436843813
 10
49.979546
 20
22.221987
 10
49.9793273058
 20
22.2001812003
 10
49.978444
 20
22.178392
 10
49.9769017285
 20
22.1565884053
 10
49.974705
 20
22.134841
 10
49.9718610427
 20
22.1132195037
 10
49.968359
 20
22.091695
 10
49.9642155621
 20
22.0703917757
 10
49.959423
 20
22.049225
 10
49.9539468528
 20
22.0280468416
 10
49.947836
 20
22.007043
 10
49.9410561187
 20
21.9860925526
 10
49.933653
 20
21.965354
 10
49.925616068
 20
21.9448117585
 10
49.916953
 20
21.924526
 10
49.9076815251
 20
21.9045600222
 10
49.897803
 20
21.884887
 10
49.8872289053
 20
21.8653203522
 10
49.876079
 20
21.846076
 10
49.8642437467
 20
21.8269658611
 10
49.85185
 20
21.808213
 10
49.8388402994
 20
21.7897467635
 10
49.825275
 20
21.771685
 10
49.8111608967
 20
21.7540573382
 10
49.796509
 20
21.736874
 10
49.7812712279
 20
21.7200741041
 10
49.765537
 20
21.703738
 10
49.7491440746
 20
21.6876885161
 10
49.732293
 20
21.672121
 10
49.7147485279
 20
21.6568220834
 10
49.696779
 20
21.642024
 10
49.6780809008
 20
21.6274773677
 10
49.658994
 20
21.613447
 10
43.2151
 20
17.082739
 10
41.16477
 20
15.643722
 10
23.561374
 20
33.260929
 10
23.5449613182
 20
33.2780466538
 10
23.529019
 20
33.295605
 10
23.5138383103
 20
33.3132827472
 10
23.499161
 20
33.33138
 10
23.4852137415
 20
33.349619316
 10
23.471799
 20
33.368254
 10
23.4590822845
 20
33.3870553332
 10
23.446933
 20
33.406228
 10
23.4354281418
 20
33.4256738748
 10
23.424528
 20
33.445465
 10
23.4142433601
 20
33.4655854836
 10
23.404574
 20
33.486009
 10
23.3955613528
 20
33.5066053355
 10
23.387159
 20
33.527458
 10
23.3794552477
 20
33.5483219712
 10
23.372373
 20
33.569405
 10
23.3659949431
 20
33.5904695489
 10
23.360264
 20
33.611719
 10
23.3551870227
 20
33.633175074
 10
23.35077
 20
33.654777
 10
23.3470115111
 20
33.6764602199
 10
23.343903
 20
33.698246
 10
23.341463061
 20
33.7199657185
 10
23.339678
 20
33.741749
 10
23.3385646854
 20
33.7634011025
 10
23.338114
 20
33.785077
 10
23.3383326674
 20
33.8068578128
 10
23.339216
 20
33.828622
 10
23.3407581922
 20
33.8503961376
 10
23.342955
 20
33.872114
 10
23.3457987967
 20
33.8937021004
 10
23.349301
 20
33.915193
 10
23.3534444079
 20
33.9364593409
 10
23.358237
 20
33.957589
 10
23.3637124086
 20
33.9787268968
 10
23.369823
 20
33.99969
 10
23.3766030802
 20
34.0205967705
 10
23.384007
 20
34.041291
 10
23.3920439114
 20
34.0617860545
 10
23.400707
 20
34.082024
 10
23.4099782712
 20
34.1019404487
 10
23.419857
 20
34.121563
 10
23.4304310158
 20
34.141076136
 10
23.441581
 20
34.160266
 10
23.4534162433
 20
34.1793201862
 10
23.46581
 20
34.198016
 10
23.4788197123
 20
34.216423385
 10
23.492385
 20
34.234425
 10
23.50649928
 20
34.2519918039
 10
23.521151
 20
34.269113
 10
23.5363889909
 20
34.2858500837
 10
23.552123
 20
34.302122
 10
23.5685157393
 20
34.3181056615
 10
23.585366
 20
34.333606
 10
23.6029113613
 20
34.3488375988
 10
23.620881
 20
34.363567
 10
23.6395795583
 20
34.3780433143
 10
23.658666
 20
34.392002
 10
32.152889
 20
40.346794
  0
LWPOLYLINE
  5
4E2
330
219
100
AcDbEntity
  8
1
100
AcDbPolyline
 90
      122
 70
     1
 43
0.0
 10
49.756286
 20
-22.746026
 10
49.7726990653
 20
-22.7289400966
 10
49.788641
 20
-22.711412
 10
49.803822078
 20
-22.6937608818
 10
49.818499
 20
-22.675689
 10
49.8324465969
 20
-22.6574716702
 10
49.845861
 20
-22.638858
 10
49.8585781402
 20
-22.6200746107
 10
49.870727
 20
-22.600919
 10
49.8822323088
 20
-22.5814859988
 10
49.893132
 20
-22.561707
 10
49.903417011
 20
-22.5415952599
 10
49.913086
 20
-22.52118
 10
49.9220990573
 20
-22.5005878619
 10
49.930501
 20
-22.479739
 10
49.9382050732
 20
-22.4588746431
 10
49.945287
 20
-22.437791
 10
49.9516654694
 20
-22.4167215388
 10
49.957396
 20
-22.395467
 10
49.9624725859
 20
-22.3740019257
 10
49.966889
 20
-22.352391
 10
49.9706480657
 20
-22.3306947556
 10
49.973757
 20
-22.308896
 10
49.9761971732
 20
-22.2871587886
 10
49.977982
 20
-22.265358
 10
49.9790953219
 20
-22.2436843813
 10
49.979546
 20
-22.221987
 10
49.9793273058
 20
-22.2001812003
 10
49.978444
 20
-22.178392
 10
49.9769017285
 20
-22.1565884053
 10
49.974705
 20
-22.134841
 10
49.9718610427
 20
-22.1132195037
 10
49.968359
 20
-22.091695
 10
49.9642155621
 20
-22.0703917757
 10
49.959423
 20
-22.049225
 10
49.9539468528
 20
-22.0280468416
 10
49.947836
 20
-22.007043
 10
49.9410561187
 20
-21.9860925526
 10
49.933653
 20
-21.965354
 10
49.925616068
 20
-21.9448117585
 10
49.916953
 20
-21.924526
 10
49.9076815251
 20
-21.9045600222
 10
49.897803
 20
-21.884887
 10
49.8872289053
 20
-21.8653203522
 10
49.876079
 20
-21.846076
 10
49.8642437467
 20
-21.8269658611
 10
49.85185
 20
-21.808213
 10
49.8388402994
 20
-21.7897467635
 10
49.825275
 20
-21.771685
 10
49.8111608967
 20
-21.7540573382
 10
49.796509
 20
-21.736874
 10
49.7812712279
 20
-21.7200741041
 10
49.765537
 20
-21.703738
 10
49.7491440746
 20
-21.6876885161
 10
49.732293
 20
-21.672121
 10
49.7147485279
 20
-21.6568220834
 10
49.696779
 20
-21.642024
 10
49.6780809008
 20
-21.6274773677
 10
49.658994
 20
-21.613447
 10
41.16477
 20
-15.643722
 10
23.561374
 20
-33.260929
 10
23.5449613182
 20
-33.2780466538
 10
23.529019
 20
-33.295605
 10
23.5138383103
 20
-33.3132827472
 10
23.499161
 20
-33.33138
 10
23.4852137415
 20
-33.349619316
 10
23.471799
 20
-33.368254
 10
23.4590822845
 20
-33.3870553332
 10
23.446933
 20
-33.406228
 10
23.4354281418
 20
-33.4256738748
 10
23.424528
 20
-33.445465
 10
23.4142433601
 20
-33.4655854836
 10
23.404574
 20
-33.486009
 10
23.3955613528
 20
-33.5066053355
 10
23.387159
 20
-33.527458
 10
23.3794552477
 20
-33.5483219712
 10
23.372373
 20
-33.569405
 10
23.3659949431
 20
-33.5904695489
 10
23.360264
 20
-33.611719
 10
23.3551870227
 20
-33.633175074
 10
23.35077
 20
-33.654777
 10
23.3470115111
 20
-33.6764602199
 10
23.343903
 20
-33.698246
 10
23.341463061
 20
-33.7199657185
 10
23.339678
 20
-33.741749
 10
23.3385646854
 20
-33.7634011025
 10
23.338114
 20
-33.785077
 10
23.3383326674
 20
-33.8068578128
 10
23.339216
 20
-33.828622
 10
23.3407581922
 20
-33.8503961376
 10
23.342955
 20
-33.872114
 10
23.3457987967
 20
-33.8937021004
 10
23.349301
 20
-33.915193
 10
23.3534444079
 20
-33.9364593409
 10
23.358237
 20
-33.957589
 10
23.3637124086
 20
-33.9787268968
 10
23.369823
 20
-33.99969
 10
23.3766030802
 20
-34.0205967705
 10
23.384007
 20
-34.041291
 10
23.3920439114
 20
-34.0617860545
 10
23.400707
 20
-34.082024
 10
23.4099782712
 20
-34.1019404487
 10
23.419857
 20
-34.121563
 10
23.4304310158
 20
-34.141076136
 10
23.441581
 20
-34.160266
 10
23.4534162433
 20
-34.1793201862
 10
23.46581
 20
-34.198016
 10
23.4788197123
 20
-34.216423385
 10
23.492385
 20
-34.234425
 10
23.50649928
 20
-34.2519918039
 10
23.521151
 20
-34.269113
 10
23.5363889909
 20
-34.2858500837
 10
23.552123
 20
-34.302122
 10
23.5685157393
 20
-34.3181056615
 10
23.585366
 20
-34.333606
 10
23.6029113613
 20
-34.3488375988
 10
23.620881
 20
-34.363567
 10
23.6395795583
 20
-34.3780433143
 10
23.658666
 20
-34.392002
 10
30.10256
 20
-38.908154
 10
32.152889
 20
-40.346794
 10
45.50719
 20
-26.992039
  0
LWPOLYLINE
  5
4E3
330
219
100
AcDbEntity
  8
1
100
AcDbPolyline
 90
       44
 70
     0
 43
0.0
 10
1.5
 20
0.0
 10
1.4917828431
 20
-0.1567926949
 10
1.4672214011
 20
-0.3118675362
 10
1.4265847744
 20
-0.4635254916
 10
1.3703181865
 20
-0.6101049646
 10
1.2990381057
 20
-0.75
 10
1.2135254916
 20
-0.8816778784
 10
1.1147172382
 20
-1.0036959095
 10
1.0036959095
 20
-1.1147172382
 10
0.8816778784
 20
-1.2135254916
 10
0.75
 20
-1.2990381057
 10
0.6101049646
 20
-1.3703181865
 10
0.4635254916
 20
-1.4265847744
 10
0.3118675362
 20
-1.4672214011
 10
0.1567926949
 20
-1.4917828431
 10
-0.0000000000000003
 20
-1.5
 42
0.414213562373095
 10
1.5
 20
0.0
 42
0.414213562373095
 10
0.0000000000000001
 20
1.5
 42
0.414213562373095
 10
-1.5
 20
0.0000000000000002
 42
0.414213562373095
 10
0.0
 20
-1.5
 10
0.0
 20
0.0
 10
1.5
 20
0.0
 42
-0.414213562373095
 10
-0.0000000000000003
 20
-1.5
 10
0.0
 20
0.0
 10
0.0
 20
1.5
 10
-0.1567926949
 20
1.4917828431
 10
-0.3118675362
 20
1.4672214011
 10
-0.4635254916
 20
1.4265847744
 10
-0.6101049646
 20
1.3703181865
 10
-0.75
 20
1.2990381057
 10
-0.8816778784
 20
1.2135254916
 10
-1.0036959095
 20
1.1147172382
 10
-1.1147172382
 20
1.0036959095
 10
-1.2135254916
 20
0.8816778784
 10
-1.2990381057
 20
0.75
 10
-1.3703181865
 20
0.6101049646
 10
-1.4265847744
 20
0.4635254916
 10
-1.4672214011
 20
0.3118675362
 10
-1.4917828431
 20
0.1567926949
 10
-1.5
 20
0.0
 10
0.0
 20
0.0
 10
1.5
 20
0.0
 10
0.0
 20
0.0
 10
-1.5
 20
0.0
  0
LWPOLYLINE
  5
4E4
330
219
100
AcDbEntity
  8
1
100
AcDbPolyline
 90
        3
 70
     0
 43
0.0
 10
0.0
 20
1.5
 10
0.0
 20
0.0
 10
0.0
 20
-1.5
  0
ENDSEC
  0
SECTION
  2
OBJECTS
  0
DICTIONARY
  5
C
330
0
100
AcDbDictionary
281
     1
  3
ACAD_GROUP
350
D
  3
ACAD_LAYOUT
350
1A
  3
ACAD_MLEADERSTYLE
350
319
  3
ACAD_MLINESTYLE
350
17
  3
ACAD_PLOTSETTINGS
350
19
  3
ACAD_PLOTSTYLENAME
350
E
  3
ACAD_TABLESTYLE
350
318
  0
DICTIONARY
  5
D
102
{ACAD_REACTORS
330
C
102
}
330
C
100
AcDbDictionary
281
     1
  0
DICTIONARY
  5
1A
102
{ACAD_REACTORS
330
C
102
}
330
C
100
AcDbDictionary
281
     1
  3
Layout1
350
303
  3
Model
350
302
  0
DICTIONARY
  5
319
102
{ACAD_REACTORS
330
C
102
}
330
C
100
AcDbDictionary
281
     1
  0
DICTIONARY
  5
17
102
{ACAD_REACTORS
330
C
102
}
330
C
100
AcDbDictionary
281
     1
  3
Standard
350
18
  0
DICTIONARY
  5
19
102
{ACAD_REACTORS
330
C
102
}
330
C
100
AcDbDictionary
281
     1
  0
ACDBDICTIONARYWDFLT
  5
E
102
{ACAD_REACTORS
330
C
102
}
330
C
100
AcDbDictionary
281
     1
  3
Normal
350
F
100
AcDbDictionaryWithDefault
340
F
  0
DICTIONARY
  5
318
102
{ACAD_REACTORS
330
C
102
}
330
C
100
AcDbDictionary
281
     1
  0
LAYOUT
  5
303
102
{ACAD_REACTORS
330
1A
102
}
330
1A
100
AcDbPlotSettings
  1

  2
none_device
  4
ISO_A2_(594.00_x_420.00_MM)
  6

 40
0.0
 41
0.0
 42
0.0
 43
0.0
 44
594.0
 45
420.0
 46
0.0
 47
0.0
 48
0.0
 49
0.0
140
0.0
141
0.0
142
1.0
143
1.0
 70
     0
 72
     1
 73
     0
 74
     0
  7

 75
     0
147
1.0
148
0.0
149
0.0
100
AcDbLayout
  1
Layout1
 70
     0
 71
     1
 10
0.0
 20
0.0
 11
594.0
 21
420.0
 12
0.0
 22
0.0
 32
0.0
 14
0.0
 24
0.0
 34
0.0
 15
0.0
 25
0.0
 35
0.0
146
0.0
 13
0.0
 23
0.0
 33
0.0
 16
1.0
 26
0.0
 36
0.0
 17
0.0
 27
1.0
 37
0.0
 76
     0
330
21A
  0
LAYOUT
  5
302
102
{ACAD_REACTORS
330
1A
102
}
330
1A
100
AcDbPlotSettings
  1

  2
none_device
  4
ISO_A2_(594.00_x_420.00_MM)
  6

 40
0.0
 41
0.0
 42
0.0
 43
0.0
 44
594.0
 45
420.0
 46
0.0
 47
0.0
 48
0.0
 49
0.0
140
0.0
141
0.0
142
1.0
143
1.0
 70
  1024
 72
     1
 73
     0
 74
     0
  7

 75
     0
147
1.0
148
0.0
149
0.0
100
AcDbLayout
  1
Model
 70
     0
 71
     0
 10
0.0
 20
0.0
 11
594.0
 21
420.0
 12
0.0
 22
0.0
 32
0.0
 14
0.0
 24
0.0
 34
0.0
 15
0.0
 25
0.0
 35
0.0
146
0.0
 13
0.0
 23
0.0
 33
0.0
 16
1.0
 26
0.0
 36
0.0
 17
0.0
 27
1.0
 37
0.0
 76
     0
330
219
331
1F4
  0
MLINESTYLE
  5
18
102
{ACAD_REACTORS
330
17
102
}
330
17
100
AcDbMlineStyle
  2
STANDARD
 70
     0
  3

 62
   256
 51
90.0
 52
90.0
 71
     2
 49
0.5
 62
   256
  6
BYLAYER
 49
-0.5
 62
   256
  6
BYLAYER
  0
ACDBPLACEHOLDER
  5
F
102
{ACAD_REACTORS
330
E
102
}
330
E
  0
ENDSEC
  0
EOF
