  0
SECTION
  2
HEADER
  9
$ACADVER
  1
AC1015
  9
$ACADMAINTVER
 70
     6
  9
$DWGCODEPAGE
  3
ANSI_1252
  9
$INSBASE
 10
0.0
 20
0.0
 30
0.0
  9
$EXTMIN
 10
0.0
 20
0.0
 30
0.0
  9
$EXTMAX
 10
594.0
 20
420.0
 30
0.0
  9
$LIMMIN
 10
0.0
 20
0.0
  9
$LIMMAX
 10
594.0
 20
420.0
  9
$ORTHOMODE
 70
     0
  9
$REGENMODE
 70
     1
  9
$FILLMODE
 70
     1
  9
$QTEXTMODE
 70
     0
  9
$MIRRTEXT
 70
     1
  9
$LTSCALE
 40
1.0
  9
$ATTMODE
 70
     1
  9
$TEXTSIZE
 40
0.2
  9
$TRACEWID
 40
0.05
  9
$TEXTSTYLE
  7
STANDARD
  9
$CLAYER
  8
0
  9
$CELTYPE
  6
BYLAYER
  9
$CECOLOR
 62
   256
  9
$CELTSCALE
 40
1.0
  9
$DISPSILH
 70
     0
  9
$DIMSCALE
 40
1.0
  9
$DIMASZ
 40
2.5
  9
$DIMEXO
 40
3.7125
  9
$DIMDLI
 40
22.572
  9
$DIMRND
 40
0.0
  9
$DIMDLE
 40
0.0
  9
$DIMEXE
 40
10.692
  9
$DIMTP
 40
0.0
  9
$DIMTM
 40
0.0
  9
$DIMTXT
 40
3.5
  9
$DIMCEN
 40
5.346
  9
$DIMTSZ
 40
0.0
  9
$DIMTOL
 70
     0
  9
$DIMLIM
 70
     0
  9
$DIMTIH
 70
     1
  9
$DIMTOH
 70
     1
  9
$DIMSE1
 70
     0
  9
$DIMSE2
 70
     0
  9
$DIMTAD
 70
     0
  9
$DIMZIN
 70
     0
  9
$DIMBLK
  1
FILLED
  9
$DIMASO
 70
     1
  9
$DIMSHO
 70
     1
  9
$DIMPOST
  1

  9
$DIMAPOST
  1

  9
$DIMALT
 70
     0
  9
$DIMALTD
 70
     2
  9
$DIMALTF
 40
25.4
  9
$DIMLFAC
 40
1.0
  9
$DIMTOFL
 70
     0
  9
$DIMTVP
 40
0.0
  9
$DIMTIX
 70
     0
  9
$DIMSOXD
 70
     0
  9
$DIMSAH
 70
     0
  9
$DIMBLK1
  1

  9
$DIMBLK2
  1

  9
$DIMSTYLE
  2
STANDARD
  9
$DIMCLRD
 70
     0
  9
$DIMCLRE
 70
     0
  9
$DIMCLRT
 70
     0
  9
$DIMTFAC
 40
1.0
  9
$DIMGAP
 40
0.09
  9
$DIMJUST
 70
     0
  9
$DIMSD1
 70
     0
  9
$DIMSD2
 70
     0
  9
$DIMTOLJ
 70
     1
  9
$DIMTZIN
 70
     0
  9
$DIMALTZ
 70
     0
  9
$DIMALTTZ
 70
     0
  9
$DIMUPT
 70
     0
  9
$DIMDEC
 70
     4
  9
$DIMTDEC
 70
     4
  9
$DIMALTU
 70
     2
  9
$DIMALTTD
 70
     2
  9
$DIMTXSTY
  7
STANDARD
  9
$DIMAUNIT
 70
     0
  9
$DIMADEC
 70
     0
  9
$DIMALTRND
 40
0.0
  9
$DIMAZIN
 70
     0
  9
$DIMDSEP
 70
    46
  9
$DIMATFIT
 70
     3
  9
$DIMFRAC
 70
     0
  9
$DIMLDRBLK
  1

  9
$DIMLUNIT
 70
     2
  9
$DIMLWD
 70
    -2
  9
$DIMLWE
 70
    -2
  9
$DIMTMOVE
 70
     0
  9
$LUNITS
 70
     2
  9
$LUPREC
 70
     4
  9
$SKETCHINC
 40
0.1
  9
$FILLETRAD
 40
0.5
  9
$AUNITS
 70
     0
  9
$AUPREC
 70
     0
  9
$MENU
  1
.
  9
$ELEVATION
 40
0.0
  9
$PELEVATION
 40
0.0
  9
$THICKNESS
 40
0.0
  9
$LIMCHECK
 70
     0
  9
$CHAMFERA
 40
0.5
  9
$CHAMFERB
 40
0.5
  9
$CHAMFERC
 40
1.0
  9
$CHAMFERD
 40
0.0
  9
$SKPOLY
 70
     0
  9
$TDCREATE
 40
2447893.041666667
  9
$TDUCREATE
 40
0.0
  9
$TDUPDATE
 40
2447893.041666667
  9
$TDUUPDATE
 40
0.0
  9
$TDINDWG
 40
0.0
  9
$TDUSRTIMER
 40
0.0
  9
$USRTIMER
 70
     1
  9
$ANGBASE
 50
0.0
  9
$ANGDIR
 70
     0
  9
$PDMODE
 70
     3
  9
$PDSIZE
 40
0.3125
  9
$PLINEWID
 40
0.0
  9
$SPLFRAME
 70
     0
  9
$SPLINETYPE
 70
     6
  9
$SPLINESEGS
 70
     8
  9
$HANDSEED
  5
4E7
  9
$SURFTAB1
 70
     6
  9
$SURFTAB2
 70
     6
  9
$SURFTYPE
 70
     6
  9
$SURFU
 70
     6
  9
$SURFV
 70
     6
  9
$UCSBASE
  2

  9
$UCSNAME
  2

  9
$UCSORG
 10
0.0
 20
0.0
 30
0.0
  9
$UCSXDIR
 10
1.0
 20
0.0
 30
0.0
  9
$UCSYDIR
 10
0.0
 20
1.0
 30
0.0
  9
$UCSORTHOREF
  2

  9
$UCSORTHOVIEW
 70
     0
  9
$UCSORGTOP
 10
0.0
 20
0.0
 30
0.0
  9
$UCSORGBOTTOM
 10
0.0
 20
0.0
 30
0.0
  9
$UCSORGLEFT
 10
0.0
 20
0.0
 30
0.0
  9
$UCSORGRIGHT
 10
0.0
 20
0.0
 30
0.0
  9
$UCSORGFRONT
 10
0.0
 20
0.0
 30
0.0
  9
$UCSORGBACK
 10
0.0
 20
0.0
 30
0.0
  9
$PUCSBASE
  2

  9
$PUCSNAME
  2

  9
$PUCSORG
 10
0.0
 20
0.0
 30
0.0
  9
$PUCSXDIR
 10
1.0
 20
0.0
 30
0.0
  9
$PUCSYDIR
 10
0.0
 20
1.0
 30
0.0
  9
$PUCSORTHOREF
  2

  9
$PUCSORTHOVIEW
 70
     0
  9
$PUCSORGTOP
 10
0.0
 20
0.0
 30
0.0
  9
$PUCSORGBOTTOM
 10
0.0
 20
0.0
 30
0.0
  9
$PUCSORGLEFT
 10
0.0
 20
0.0
 30
0.0
  9
$PUCSORGRIGHT
 10
0.0
 20
0.0
 30
0.0
  9
$PUCSORGFRONT
 10
0.0
 20
0.0
 30
0.0
  9
$PUCSORGBACK
 10
0.0
 20
0.0
 30
0.0
  9
$USERI1
 70
     0
  9
$USERI2
 70
     0
  9
$USERI3
 70
     0
  9
$USERI4
 70
     0
  9
$USERI5
 70
     0
  9
$USERR1
 40
0.0
  9
$USERR2
 40
0.0
  9
$USERR3
 40
0.0
  9
$USERR4
 40
0.0
  9
$USERR5
 40
0.0
  9
$WORLDVIEW
 70
     1
  9
$SHADEDGE
 70
     3
  9
$SHADEDIF
 70
    70
  9
$TILEMODE
 70
     1
  9
$MAXACTVP
 70
    64
  9
$PINSBASE
 10
0.0
 20
0.0
 30
0.0
  9
$PLIMCHECK
 70
     0
  9
$PEXTMIN
 10
1.000000000000000E+20
 20
1.000000000000000E+20
 30
1.000000000000000E+20
  9
$PEXTMAX
 10
-1.000000000000000E+20
 20
-1.000000000000000E+20
 30
-1.000000000000000E+20
  9
$PLIMMIN
 10
0.0
 20
0.0
  9
$PLIMMAX
 10
12.0
 20
9.0
  9
$UNITMODE
 70
     0
  9
$VISRETAIN
 70
     1
  9
$PLINEGEN
 70
     0
  9
$PSLTSCALE
 70
     1
  9
$TREEDEPTH
 70
  3020
  9
$CMLSTYLE
  2
Standard
  9
$CMLJUST
 70
     0
  9
$CMLSCALE
 40
1.0
  9
$PROXYGRAPHICS
 70
     1
  9
$MEASUREMENT
 70
     1
  9
$CELWEIGHT
370
    -1
  9
$ENDCAPS
280
     0
  9
$JOINSTYLE
280
     0
  9
$LWDISPLAY
290
     0
  9
$INSUNITS
 70
     4
  9
$HYPERLINKBASE
  1

  9
$STYLESHEET
  1

  9
$XEDIT
290
     1
  9
$CEPSNTYPE
380
     0
  9
$PSTYLEMODE
290
     1
  9
$FINGERPRINTGUID
  2
{ABD41E35-501B-4FDC-AD76-03E0F851352B}
  9
$VERSIONGUID
  2
{FAEB1C32-E019-11D5-929B-00C0DF256EC4}
  9
$EXTNAMES
290
     1
  9
$PSVPSCALE
 40
0.0
  9
$OLESTARTUP
290
     0
  0
ENDSEC
  0
SECTION
  2
CLASSES
  0
CLASS
  1
ACDBDICTIONARYWDFLT
  2
AcDbDictionaryWithDefault
  3
ObjectDBX Classes
 90
        0
280
     0
281
     0
  0
CLASS
  1
ACDBPLACEHOLDER
  2
AcDbPlaceHolder
  3
ObjectDBX Classes
 90
        0
280
     0
281
     0
  0
CLASS
  1
LAYOUT
  2
AcDbLayout
  3
ObjectDBX Classes
 90
        0
280
     0
281
     0
  0
ENDSEC
  0
SECTION
  2
TABLES
  0
TABLE
  2
VPORT
  5
8
330
0
100
AcDbSymbolTable
 70
     1
  0
VPORT
  5
1F4
330
8
100
AcDbSymbolTableRecord
100
AcDbViewportTableRecord
  2
*ACTIVE
 70
     0
 10
0.0
 20
0.0
 11
1.0
 21
1.0
 12
297.0
 22
210.0
 13
0.0
 23
0.0
 14
1.0
 24
1.0
 15
0.0
 25
0.0
 16
0.0
 26
0.0
 36
1.0
 17
0.0
 27
0.0
 37
0.0
 40
420.0
 41
1.4142857143
 42
50.0
 43
0.0
 44
0.0
 50
0.0
 51
0.0
 71
     0
 72
   100
 73
     1
 74
     1
 75
     0
 76
     0
 77
     0
 78
     0
281
     0
 65
     1
110
0.0
120
0.0
130
0.0
111
1.0
121
0.0
131
0.0
112
0.0
122
1.0
132
0.0
 79
     0
146
0.0
  0
ENDTAB
  0
TABLE
  2
LTYPE
  5
5
330
0
100
AcDbSymbolTable
 70
     8
  0
LTYPE
  5
14
330
5
100
AcDbSymbolTableRecord
100
AcDbLinetypeTableRecord
  2
BYBLOCK
 70
     0
  3

 72
    65
 73
     0
 40
0.0
  0
LTYPE
  5
15
330
5
100
AcDbSymbolTableRecord
100
AcDbLinetypeTableRecord
  2
BYLAYER
 70
     0
  3

 72
    65
 73
     0
 40
0.0
  0
LTYPE
  5
16
330
5
100
AcDbSymbolTableRecord
100
AcDbLinetypeTableRecord
  2
CONTINUOUS
 70
     0
  3
Solid line
 72
    65
 73
     0
 40
0.0
  0
LTYPE
  5
1F5
330
5
100
AcDbSymbolTableRecord
100
AcDbLinetypeTableRecord
  2
CENTER
 70
     0
  3
____ _ ____ _ ____ _ ____ _ ____ _ ____ _ ____
 72
    65
 73
     4
 40
0.6
 49
0.375
 74
     0
 49
-0.075
 74
     0
 49
0.075
 74
     0
 49
-0.075
 74
     0
  0
LTYPE
  5
1F6
330
5
100
AcDbSymbolTableRecord
100
AcDbLinetypeTableRecord
  2
HIDDEN
 70
     0
  3
- - - - - - - - - - - - - - - - - - - -
 72
    65
 73
     2
 40
0.2
 49
0.1
 74
     0
 49
-0.1
 74
     0
  0
LTYPE
  5
1F7
330
5
100
AcDbSymbolTableRecord
100
AcDbLinetypeTableRecord
  2
PHANTOM
 70
     0
  3
_____ _ _ _____ _ _ _____ _ _ _____
 72
    65
 73
     6
 40
0.8
 49
0.45
 74
     0
 49
-0.05
 74
     0
 49
0.1
 74
     0
 49
-0.05
 74
     0
 49
0.1
 74
     0
 49
-0.05
 74
     0
  0
LTYPE
  5
1F8
330
5
100
AcDbSymbolTableRecord
100
AcDbLinetypeTableRecord
  2
DOT
 70
     0
  3
. . . . . . . . . . . . . . . . . . . .
 72
    65
 73
     2
 40
0.2
 49
0.1
 74
     0
 49
-0.1
 74
     0
  0
LTYPE
  5
1F9
330
5
100
AcDbSymbolTableRecord
100
AcDbLinetypeTableRecord
  2
DASHED
 70
     0
  3
- - - - - - - - - - - - - - - - - - - -
 72
    65
 73
     2
 40
0.2
 49
0.1
 74
     0
 49
-0.1
 74
     0
  0
LTYPE
  5
2FB
330
5
100
AcDbSymbolTableRecord
100
AcDbLinetypeTableRecord
  2
MITTE
 70
     0
  3
Mitte ____ _ ____ _ ____ _ ____ _ ____ _ ____
 72
    65
 73
     4
 40
50.8
 49
31.75
 74
     4
 75
     0
340
0
 46
1.0
 50
0.0
 44
0.0
 45
0.0
 49
-6.35
 74
     4
 75
     0
340
0
 46
1.0
 50
0.0
 44
0.0
 45
0.0
 49
6.35
 74
     4
 75
     0
340
0
 46
1.0
 50
0.0
 44
0.0
 45
0.0
 49
-6.35
 74
     4
 75
     0
340
0
 46
1.0
 50
0.0
 44
0.0
 45
0.0
  0
LTYPE
  5
2FC
330
5
100
AcDbSymbolTableRecord
100
AcDbLinetypeTableRecord
  2
STRICHLINIE
 70
     0
  3
Strichlinie __ __ __ __ __ __ __ __ __ __ __ __
 72
    65
 73
     2
 40
19.05
 49
12.7
 74
     4
 75
     0
340
0
 46
1.0
 50
0.0
 44
0.0
 45
0.0
 49
-6.35
 74
     4
 75
     0
340
0
 46
1.0
 50
0.0
 44
0.0
 45
0.0
  0
ENDTAB
  0
TABLE
  2
LAYER
  5
2
330
0
100
AcDbSymbolTable
 70
    48
  0
LAYER
  5
10
330
2
100
AcDbSymbolTableRecord
100
AcDbLayerTableRecord
  2
0
 70
     0
 62
     7
  6
CONTINUOUS
370
    -3
390
F
  0
LAYER
  5
2FD
330
2
100
AcDbSymbolTableRecord
100
AcDbLayerTableRecord
  2
1
 70
     0
 62
     4
  6
CONTINUOUS
370
    50
390
F
  0
LAYER
  5
2FE
330
2
100
AcDbSymbolTableRecord
100
AcDbLayerTableRecord
  2
2
 70
     0
 62
     7
  6
CONTINUOUS
370
    25
390
F
  0
LAYER
  5
300
330
2
100
AcDbSymbolTableRecord
100
AcDbLayerTableRecord
  2
4
 70
     0
 62
     2
  6
MITTE
370
    25
390
F
  0
LAYER
  5
302
330
2
100
AcDbSymbolTableRecord
100
AcDbLayerTableRecord
  2
6
 70
     0
 62
     5
  6
CONTINUOUS
370
    35
390
F
  0
LAYER
  5
303
330
2
100
AcDbSymbolTableRecord
100
AcDbLayerTableRecord
  2
CUT
 70
     0
 62
     1
  6
CONTINUOUS
370
    25
390
F
  0
LAYER
  5
304
330
2
100
AcDbSymbolTableRecord
100
AcDbLayerTableRecord
  2
NOCUT
 70
     0
 62
     7
  6
CONTINUOUS
370
    25
390
F
  0
LAYER
  5
306
330
2
100
AcDbSymbolTableRecord
100
AcDbLayerTableRecord
  2
SK2
 70
     0
 62
     7
  6
CONTINUOUS
370
    25
390
F
  0
LAYER
  5
307
330
2
100
AcDbSymbolTableRecord
100
AcDbLayerTableRecord
  2
SK3
 70
     0
 62
     1
  6
STRICHLINIE
370
    25
390
F
  0
LAYER
  5
30B
330
2
100
AcDbSymbolTableRecord
100
AcDbLayerTableRecord
  2
7
 70
     0
 62
     5
  6
CONTINUOUS
370
    25
390
F
  0
ENDTAB
  0
TABLE
  2
STYLE
  5
3
330
0
100
AcDbSymbolTable
 70
     3
  0
STYLE
  5
11
330
3
100
AcDbSymbolTableRecord
100
AcDbTextStyleTableRecord
  2
STANDARD
 70
     0
 40
0.0
 41
1.0
 50
0.0
 71
     0
 42
2.5
  3
monos.ttf
  4

1001
ACAD
1000
Monospac821 BT
1071
       49
  0
STYLE
  5
217
330
3
100
AcDbSymbolTableRecord
100
AcDbTextStyleTableRecord
  2
TEXTSTYLE_1
 70
     0
 40
0.0
 41
0.8
 50
0.0
 71
     0
 42
0.2
  3
monospace 821 bold bt
  4

  0
STYLE
  5
35B
330
3
100
AcDbSymbolTableRecord
100
AcDbTextStyleTableRecord
  2
KX-STANDARD
 70
     0
 40
0.0
 41
1.0
 50
0.0
 71
     0
 42
2.5
  3
monospace 821 bold bt
  4

  0
ENDTAB
  0
TABLE
  2
VIEW
  5
6
330
0
100
AcDbSymbolTable
 70
     0
  0
ENDTAB
  0
TABLE
  2
UCS
  5
7
330
0
100
AcDbSymbolTable
 70
     0
  0
ENDTAB
  0
TABLE
  2
APPID
  5
9
330
0
100
AcDbSymbolTable
 70
     1
  0
APPID
  5
218
330
9
100
AcDbSymbolTableRecord
100
AcDbRegAppTableRecord
  2
ACAD
 70
     0
  0
ENDTAB
  0
TABLE
  2
DIMSTYLE
  5
A
330
0
100
AcDbSymbolTable
 70
     6
100
AcDbDimStyleTable
  0
DIMSTYLE
105
226
330
A
100
AcDbSymbolTableRecord
100
AcDbDimStyleTableRecord
  2
STANDARD
 70
     0
 41
2.5
 47
0.01
 48
0.01
 73
     0
 74
     0
 77
     1
 78
     8
140
3.5
178
     7
271
     3
272
     3
284
     8
340
11
341
21B
342
21B
343
21B
344
21B
  0
DIMSTYLE
105
227
330
A
100
AcDbSymbolTableRecord
100
AcDbDimStyleTableRecord
  2
DIMSTYLE_1
 70
     0
 41
2.5
 73
     0
 74
     0
 77
     1
 78
     8
140
3.5
178
     7
271
     3
272
     3
284
     8
340
11
341
21B
342
21B
343
21B
344
21B
  0
DIMSTYLE
105
228
330
A
100
AcDbSymbolTableRecord
100
AcDbDimStyleTableRecord
  2
DIMSTYLE_2
 70
     0
 41
2.5
 73
     0
 74
     0
 77
     1
 78
     8
140
3.5
271
     3
272
     3
284
     8
340
11
341
21B
342
21B
343
21B
344
21B
  0
DIMSTYLE
105
229
330
A
100
AcDbSymbolTableRecord
100
AcDbDimStyleTableRecord
  2
DIMSTYLE_3
 70
     0
 41
2.5
 73
     0
 74
     0
 77
     1
 78
     8
140
3.5
178
     7
284
     8
340
11
341
21B
342
21B
343
21B
344
21B
  0
DIMSTYLE
105
22A
330
A
100
AcDbSymbolTableRecord
100
AcDbDimStyleTableRecord
  2
DIMSTYLE_4
 70
     0
 41
2.5
 73
     0
 74
     0
 77
     1
 78
     8
140
3.5
271
     2
272
     2
284
     8
340
11
341
21B
342
21B
343
21B
344
21B
  0
DIMSTYLE
105
22B
330
A
100
AcDbSymbolTableRecord
100
AcDbDimStyleTableRecord
  2
DIMSTYLE_5
 70
     0
 41
2.5
 73
     0
 74
     0
 77
     1
 78
     8
140
3.5
271
     3
272
     3
284
     8
340
11
341
21B
342
21B
343
21B
344
21B
  0
ENDTAB
  0
TABLE
  2
BLOCK_RECORD
  5
1
330
0
100
AcDbSymbolTable
 70
    11
  0
BLOCK_RECORD
  5
219
330
1
100
AcDbSymbolTableRecord
100
AcDbBlockTableRecord
  2
*Model_Space
340
2F9
  0
BLOCK_RECORD
  5
21A
330
1
100
AcDbSymbolTableRecord
100
AcDbBlockTableRecord
  2
*Paper_Space
340
2FA
  0
BLOCK_RECORD
  5
21B
330
1
100
AcDbSymbolTableRecord
100
AcDbBlockTableRecord
  2
_FILLED
340
0
  0
BLOCK_RECORD
  5
21C
330
1
100
AcDbSymbolTableRecord
100
AcDbBlockTableRecord
  2
*D1
340
0
  0
BLOCK_RECORD
  5
21D
330
1
100
AcDbSymbolTableRecord
100
AcDbBlockTableRecord
  2
*D2
340
0
  0
BLOCK_RECORD
  5
21E
330
1
100
AcDbSymbolTableRecord
100
AcDbBlockTableRecord
  2
*D3
340
0
  0
BLOCK_RECORD
  5
21F
330
1
100
AcDbSymbolTableRecord
100
AcDbBlockTableRecord
  2
*D4
340
0
  0
BLOCK_RECORD
  5
220
330
1
100
AcDbSymbolTableRecord
100
AcDbBlockTableRecord
  2
*D5
340
0
  0
BLOCK_RECORD
  5
221
330
1
100
AcDbSymbolTableRecord
100
AcDbBlockTableRecord
  2
*D6
340
0
  0
BLOCK_RECORD
  5
222
330
1
100
AcDbSymbolTableRecord
100
AcDbBlockTableRecord
  2
*D7
340
0
  0
BLOCK_RECORD
  5
223
330
1
100
AcDbSymbolTableRecord
100
AcDbBlockTableRecord
  2
*D8
340
0
  0
BLOCK_RECORD
  5
224
330
1
100
AcDbSymbolTableRecord
100
AcDbBlockTableRecord
  2
*D9
340
0
  0
BLOCK_RECORD
  5
225
330
1
100
AcDbSymbolTableRecord
100
AcDbBlockTableRecord
  2
NULLPUNKT_BL0
340
0
  0
ENDTAB
  0
ENDSEC
  0
SECTION
  2
BLOCKS
  0
BLOCK
  5
20
330
219
100
AcDbEntity
  8
0
100
AcDbBlockBegin
  2
*Model_Space
 70
     0
 10
0.0
 20
0.0
 30
0.0
  3
*Model_Space
  1

  0
ENDBLK
  5
21
330
219
100
AcDbEntity
  8
0
100
AcDbBlockEnd
  0
BLOCK
  5
1C
330
21A
100
AcDbEntity
 67
     1
  8
0
100
AcDbBlockBegin
  2
*Paper_Space
 70
     0
 10
0.0
 20
0.0
 30
0.0
  3
*Paper_Space
  1

  0
ENDBLK
  5
1D
330
21A
100
AcDbEntity
 67
     1
  8
0
100
AcDbBlockEnd
  0
BLOCK
  5
23D
330
21B
100
AcDbEntity
  8
7
100
AcDbBlockBegin
  2
_FILLED
 70
     0
 10
0.0
 20
0.0
 30
0.0
  3
_FILLED
  1

  0
SOLID
  5
23E
330
21B
100
AcDbEntity
  8
7
100
AcDbTrace
 10
0.0
 20
0.0
 30
0.0
 11
-1.0
 21
0.132
 31
0.0
 12
-1.0
 22
-0.132
 32
0.0
 13
-1.0
 23
-0.132
 33
0.0
  0
ENDBLK
  5
23F
330
21B
100
AcDbEntity
  8
7
100
AcDbBlockEnd
  0
BLOCK
  5
240
330
21C
100
AcDbEntity
  8
7
100
AcDbBlockBegin
  2
*D1
 70
     1
 10
0.0
 20
0.0
 30
0.0
  3
*D1
  1

  0
MTEXT
  5
241
330
21C
100
AcDbEntity
  8
SK2
100
AcDbMText
 10
-14.375
 20
0.0
 30
0.0
 40
3.5
 41
10.2666666667
 71
     2
 72
     1
  1
{\Fgdt;%%c}\FMONOS.TTF;27
 11
0.0
 21
1.0
 31
0.0
 73
     1
 44
0.9
  0
LINE
  5
242
330
21C
100
AcDbEntity
  8
SK2
100
AcDbLine
 10
0.5
 20
-13.5
 30
0.0
 11
-12.0
 21
-13.5
 31
0.0
  0
LINE
  5
243
330
21C
100
AcDbEntity
  8
SK2
100
AcDbLine
 10
0.5
 20
13.5
 30
0.0
 11
-12.0
 21
13.5
 31
0.0
  0
SOLID
  5
311
330
21C
100
AcDbEntity
  8
SK2
100
AcDbTrace
 10
-10.0
 20
-13.5
 30
0.0
 11
-9.67
 21
-11.0
 31
0.0
 12
-10.33
 22
-11.0
 32
0.0
 13
-10.33
 23
-11.0
 33
0.0
  0
SOLID
  5
312
330
21C
100
AcDbEntity
  8
SK2
100
AcDbTrace
 10
-10.0
 20
13.5
 30
0.0
 11
-10.33
 21
11.0
 31
0.0
 12
-9.67
 22
11.0
 32
0.0
 13
-9.67
 23
11.0
 33
0.0
  0
LWPOLYLINE
  5
4DC
330
21C
100
AcDbEntity
  8
SK2
100
AcDbPolyline
 90
        3
 70
     0
 43
0.0
 10
-10.0
 20
-13.5
 10
-10.0
 20
0.0
 10
-10.0
 20
13.5
  0
ENDBLK
  5
248
330
21C
100
AcDbEntity
  8
7
100
AcDbBlockEnd
  0
BLOCK
  5
249
330
21D
100
AcDbEntity
  8
7
100
AcDbBlockBegin
  2
*D2
 70
     1
 10
0.0
 20
0.0
 30
0.0
  3
*D2
  1

  0
MTEXT
  5
24A
330
21D
100
AcDbEntity
  8
2
100
AcDbMText
 10
25.0
 20
60.1840344047
 30
0.0
 40
3.5
 41
5.6
 71
     2
 72
     1
  1
50
 73
     1
 44
0.9
  0
LINE
  5
24B
330
21D
100
AcDbEntity
  8
2
100
AcDbLine
 10
0.0
 20
33.7326599524
 30
0.0
 11
0.0
 21
57.8090344047
 31
0.0
  0
LINE
  5
24C
330
21D
100
AcDbEntity
  8
2
100
AcDbLine
 10
50.0
 20
23.0
 30
0.0
 11
50.0
 21
57.8090344047
 31
0.0
  0
SOLID
  5
313
330
21D
100
AcDbEntity
  8
2
100
AcDbTrace
 10
0.0
 20
55.8090344047
 30
0.0
 11
2.5
 21
55.4790344047
 31
0.0
 12
2.5
 22
56.1390344047
 32
0.0
 13
2.5
 23
56.1390344047
 33
0.0
  0
SOLID
  5
314
330
21D
100
AcDbEntity
  8
2
100
AcDbTrace
 10
50.0
 20
55.8090344047
 30
0.0
 11
47.5
 21
56.1390344047
 31
0.0
 12
47.5
 22
55.4790344047
 32
0.0
 13
47.5
 23
55.4790344047
 33
0.0
  0
LWPOLYLINE
  5
4DD
330
21D
100
AcDbEntity
  8
2
100
AcDbPolyline
 90
        3
 70
     0
 43
0.0
 10
0.0
 20
55.8090344047
 10
25.0
 20
55.8090344047
 10
50.0
 20
55.8090344047
  0
ENDBLK
  5
251
330
21D
100
AcDbEntity
  8
7
100
AcDbBlockEnd
  0
BLOCK
  5
252
330
21E
100
AcDbEntity
  8
7
100
AcDbBlockBegin
  2
*D3
 70
     1
 10
0.0
 20
0.0
 30
0.0
  3
*D3
  1

  0
MTEXT
  5
253
330
21E
100
AcDbEntity
  8
2
100
AcDbMText
 10
75.165
 20
0.0
 30
0.0
 40
3.5
 41
10.2666666667
 71
     2
 72
     1
  1
{\Fgdt;%%c}\FMONOS.TTF;45
 11
0.0
 21
1.0
 31
0.0
 73
     1
 44
0.9
  0
LINE
  5
254
330
21E
100
AcDbEntity
  8
2
100
AcDbLine
 10
50.5
 20
-22.5
 30
0.0
 11
81.54
 21
-22.5
 31
0.0
  0
LINE
  5
255
330
21E
100
AcDbEntity
  8
2
100
AcDbLine
 10
50.5
 20
22.5
 30
0.0
 11
81.54
 21
22.5
 31
0.0
  0
SOLID
  5
315
330
21E
100
AcDbEntity
  8
2
100
AcDbTrace
 10
79.54
 20
-22.5
 30
0.0
 11
79.87
 21
-20.0
 31
0.0
 12
79.21000000000001
 22
-20.0
 32
0.0
 13
79.21000000000001
 23
-20.0
 33
0.0
  0
SOLID
  5
316
330
21E
100
AcDbEntity
  8
2
100
AcDbTrace
 10
79.54
 20
22.5
 30
0.0
 11
79.21000000000001
 21
20.0
 31
0.0
 12
79.87
 22
20.0
 32
0.0
 13
79.87
 23
20.0
 33
0.0
  0
LWPOLYLINE
  5
4DE
330
21E
100
AcDbEntity
  8
2
100
AcDbPolyline
 90
        3
 70
     0
 43
0.0
 10
79.54
 20
-22.5
 10
79.54
 20
0.0
 10
79.54
 20
22.5
  0
ENDBLK
  5
25A
330
21E
100
AcDbEntity
  8
7
100
AcDbBlockEnd
  0
BLOCK
  5
25B
330
21F
100
AcDbEntity
  8
7
100
AcDbBlockBegin
  2
*D4
 70
     1
 10
0.0
 20
0.0
 30
0.0
  3
*D4
  1

  0
MTEXT
  5
25C
330
21F
100
AcDbEntity
  8
SK2
100
AcDbMText
 10
58.165
 20
0.0
 30
0.0
 40
3.5
 41
10.2666666667
 71
     2
 72
     1
  1
{\Fgdt;%%c}\FMONOS.TTF;13
 11
0.0
 21
1.0
 31
0.0
 73
     1
 44
0.9
  0
LINE
  5
25D
330
21F
100
AcDbEntity
  8
SK2
100
AcDbLine
 10
29.0799417397
 20
-6.5
 30
0.0
 11
64.54
 21
-6.5
 31
0.0
  0
LINE
  5
25E
330
21F
100
AcDbEntity
  8
SK2
100
AcDbLine
 10
28.6552684597
 20
6.5
 30
0.0
 11
64.54
 21
6.5
 31
0.0
  0
SOLID
  5
317
330
21F
100
AcDbEntity
  8
SK2
100
AcDbTrace
 10
62.54
 20
-6.5
 30
0.0
 11
62.21
 21
-9.0
 31
0.0
 12
62.87
 22
-9.0
 32
0.0
 13
62.87
 23
-9.0
 33
0.0
  0
SOLID
  5
318
330
21F
100
AcDbEntity
  8
SK2
100
AcDbTrace
 10
62.54
 20
6.5
 30
0.0
 11
62.87
 21
9.0
 31
0.0
 12
62.21
 22
9.0
 32
0.0
 13
62.21
 23
9.0
 33
0.0
  0
LWPOLYLINE
  5
4DF
330
21F
100
AcDbEntity
  8
SK2
100
AcDbPolyline
 90
        5
 70
     0
 43
0.0
 10
62.54
 20
-6.5
 10
62.54
 20
-11.5
 10
62.54
 20
0.0
 10
62.54
 20
11.5
 10
62.54
 20
6.5
  0
ENDBLK
  5
265
330
21F
100
AcDbEntity
  8
7
100
AcDbBlockEnd
  0
BLOCK
  5
266
330
220
100
AcDbEntity
  8
7
100
AcDbBlockBegin
  2
*D5
 70
     1
 10
0.0
 20
0.0
 30
0.0
  3
*D5
  1

  0
MTEXT
  5
267
330
220
100
AcDbEntity
  8
SK2
100
AcDbMText
 10
66.665
 20
0.0
 30
0.0
 40
3.5
 41
10.2666666667
 71
     2
 72
     1
  1
{\Fgdt;%%c}\FMONOS.TTF;20
 11
0.0
 21
1.0
 31
0.0
 73
     1
 44
0.9
  0
LINE
  5
268
330
220
100
AcDbEntity
  8
SK2
100
AcDbLine
 10
40.4399519797
 20
-10.0
 30
0.0
 11
73.04
 21
-10.0
 31
0.0
  0
LINE
  5
269
330
220
100
AcDbEntity
  8
SK2
100
AcDbLine
 10
41.1831302197
 20
10.0
 30
0.0
 11
73.04
 21
10.0
 31
0.0
  0
SOLID
  5
319
330
220
100
AcDbEntity
  8
SK2
100
AcDbTrace
 10
71.04
 20
-10.0
 30
0.0
 11
71.37
 21
-7.5
 31
0.0
 12
70.71000000000001
 22
-7.5
 32
0.0
 13
70.71000000000001
 23
-7.5
 33
0.0
  0
SOLID
  5
31A
330
220
100
AcDbEntity
  8
SK2
100
AcDbTrace
 10
71.04
 20
10.0
 30
0.0
 11
70.71000000000001
 21
7.5
 31
0.0
 12
71.37
 22
7.5
 32
0.0
 13
71.37
 23
7.5
 33
0.0
  0
LWPOLYLINE
  5
4E0
330
220
100
AcDbEntity
  8
SK2
100
AcDbPolyline
 90
        3
 70
     0
 43
0.0
 10
71.04
 20
-10.0
 10
71.04
 20
0.0
 10
71.04
 20
10.0
  0
ENDBLK
  5
26E
330
220
100
AcDbEntity
  8
7
100
AcDbBlockEnd
  0
BLOCK
  5
26F
330
221
100
AcDbEntity
  8
7
100
AcDbBlockBegin
  2
*D6
 70
     1
 10
0.0
 20
0.0
 30
0.0
  3
*D6
  1

  0
MTEXT
  5
270
330
221
100
AcDbEntity
  8
SK2
100
AcDbMText
 10
11.0
 20
-40.789761
 30
0.0
 40
3.5
 41
5.6
 71
     2
 72
     1
  1
22
 73
     1
 44
0.9
  0
LINE
  5
271
330
221
100
AcDbEntity
  8
SK2
100
AcDbLine
 10
0.0
 20
-33.9978059789
 30
0.0
 11
0.0
 21
-47.164761
 31
0.0
  0
LINE
  5
272
330
221
100
AcDbEntity
  8
SK2
100
AcDbLine
 10
22.0
 20
-13.2618059789
 30
0.0
 11
22.0
 21
-47.164761
 31
0.0
  0
SOLID
  5
31B
330
221
100
AcDbEntity
  8
SK2
100
AcDbTrace
 10
0.0
 20
-45.164761
 30
0.0
 11
2.5
 21
-45.494761
 31
0.0
 12
2.5
 22
-44.834761
 32
0.0
 13
2.5
 23
-44.834761
 33
0.0
  0
SOLID
  5
31C
330
221
100
AcDbEntity
  8
SK2
100
AcDbTrace
 10
22.0
 20
-45.164761
 30
0.0
 11
19.5
 21
-44.834761
 31
0.0
 12
19.5
 22
-45.494761
 32
0.0
 13
19.5
 23
-45.494761
 33
0.0
  0
LWPOLYLINE
  5
4E1
330
221
100
AcDbEntity
  8
SK2
100
AcDbPolyline
 90
        3
 70
     0
 43
0.0
 10
0.0
 20
-45.164761
 10
11.0
 20
-45.164761
 10
22.0
 20
-45.164761
  0
ENDBLK
  5
277
330
221
100
AcDbEntity
  8
7
100
AcDbBlockEnd
  0
BLOCK
  5
278
330
222
100
AcDbEntity
  8
7
100
AcDbBlockBegin
  2
*D7
 70
     1
 10
0.0
 20
0.0
 30
0.0
  3
*D7
  1

  0
MTEXT
  5
279
330
222
100
AcDbEntity
  8
2
100
AcDbMText
 10
83.665
 20
0.0
 30
0.0
 40
3.5
 41
18.6666666667
 71
     2
 72
     1
  1
{\Fgdt;%%c}\FMONOS.TTF;70.33
 11
0.0
 21
1.0
 31
0.0
 73
     1
 44
0.9
  0
LINE
  5
27A
330
222
100
AcDbEntity
  8
2
100
AcDbLine
 10
28.5635765221
 20
-35.165
 30
0.0
 11
90.04
 21
-35.165
 31
0.0
  0
LINE
  5
27B
330
222
100
AcDbEntity
  8
2
100
AcDbLine
 10
28.5635765221
 20
35.165
 30
0.0
 11
49.0
 21
35.165
 31
0.0
  0
LINE
  5
27C
330
222
100
AcDbEntity
  8
2
100
AcDbLine
 10
51.0
 20
35.165
 30
0.0
 11
90.04
 21
35.165
 31
0.0
  0
SOLID
  5
31D
330
222
100
AcDbEntity
  8
2
100
AcDbTrace
 10
88.04
 20
-35.165
 30
0.0
 11
88.37
 21
-32.665
 31
0.0
 12
87.71000000000001
 22
-32.665
 32
0.0
 13
87.71000000000001
 23
-32.665
 33
0.0
  0
SOLID
  5
31E
330
222
100
AcDbEntity
  8
2
100
AcDbTrace
 10
88.04
 20
35.165
 30
0.0
 11
87.71000000000001
 21
32.665
 31
0.0
 12
88.37
 22
32.665
 32
0.0
 13
88.37
 23
32.665
 33
0.0
  0
LWPOLYLINE
  5
4E2
330
222
100
AcDbEntity
  8
2
100
AcDbPolyline
 90
        3
 70
     0
 43
0.0
 10
88.04
 20
-35.165
 10
88.04
 20
0.0
 10
88.04
 20
35.165
  0
ENDBLK
  5
281
330
222
100
AcDbEntity
  8
7
100
AcDbBlockEnd
  0
BLOCK
  5
282
330
223
100
AcDbEntity
  8
7
100
AcDbBlockBegin
  2
*D8
 70
     1
 10
0.0
 20
0.0
 30
0.0
  3
*D8
  1

  0
MTEXT
  5
283
330
223
100
AcDbEntity
  8
SK2
100
AcDbMText
 10
-22.875
 20
0.0
 30
0.0
 40
3.5
 41
10.2666666667
 71
     2
 72
     1
  1
{\Fgdt;%%c}\FMONOS.TTF;70
 11
0.0
 21
1.0
 31
0.0
 73
     1
 44
0.9
  0
LINE
  5
284
330
223
100
AcDbEntity
  8
SK2
100
AcDbLine
 10
1.5
 20
-35.0
 30
0.0
 11
1.0
 21
-35.0
 31
0.0
  0
LINE
  5
285
330
223
100
AcDbEntity
  8
SK2
100
AcDbLine
 10
-1.0
 20
-35.0
 30
0.0
 11
-20.5
 21
-35.0
 31
0.0
  0
LINE
  5
286
330
223
100
AcDbEntity
  8
SK2
100
AcDbLine
 10
1.5
 20
35.0
 30
0.0
 11
-20.5
 21
35.0
 31
0.0
  0
SOLID
  5
31F
330
223
100
AcDbEntity
  8
SK2
100
AcDbTrace
 10
-18.5
 20
-35.0
 30
0.0
 11
-18.17
 21
-32.5
 31
0.0
 12
-18.83
 22
-32.5
 32
0.0
 13
-18.83
 23
-32.5
 33
0.0
  0
SOLID
  5
320
330
223
100
AcDbEntity
  8
SK2
100
AcDbTrace
 10
-18.5
 20
35.0
 30
0.0
 11
-18.83
 21
32.5
 31
0.0
 12
-18.17
 22
32.5
 32
0.0
 13
-18.17
 23
32.5
 33
0.0
  0
LWPOLYLINE
  5
4E3
330
223
100
AcDbEntity
  8
SK2
100
AcDbPolyline
 90
        3
 70
     0
 43
0.0
 10
-18.5
 20
-35.0
 10
-18.5
 20
0.0
 10
-18.5
 20
35.0
  0
ENDBLK
  5
28B
330
223
100
AcDbEntity
  8
7
100
AcDbBlockEnd
  0
BLOCK
  5
28C
330
224
100
AcDbEntity
  8
7
100
AcDbBlockBegin
  2
*D9
 70
     1
 10
0.0
 20
0.0
 30
0.0
  3
*D9
  1

  0
MTEXT
  5
28D
330
224
100
AcDbEntity
  8
2
100
AcDbMText
 10
33.7617141166
 20
50.6255361779
 30
0.0
 40
3.5
 41
7.9333333333
 71
     2
 72
     1
  1
60\Fgdt;{\Fgdt;~}
 11
0.8660254038
 21
0.5
 31
0.0
 73
     1
 44
0.9
  0
LINE
  5
28E
330
224
100
AcDbEntity
  8
2
100
AcDbLine
 10
50.0
 20
23.0
 30
0.0
 11
50.0
 21
49.9765717668
 31
0.0
  0
LINE
  5
28F
330
224
100
AcDbEntity
  8
2
100
AcDbLine
 10
29.6686924562
 20
34.2382858834
 30
0.0
 11
27.8013073934
 21
35.3164211521
 31
0.0
  0
SOLID
  5
292
330
224
100
AcDbEntity
  8
2
100
AcDbTrace
 10
47.5191934265
 20
47.5243563921
 30
0.0
 11
50.0
 21
47.9765717668
 31
0.0
 12
47.4868237248
 22
48.1835621282
 32
0.0
 13
47.4868237248
 23
48.1835621282
 33
0.0
  0
SOLID
  5
293
330
224
100
AcDbEntity
  8
2
100
AcDbTrace
 10
29.0139708749
 20
37.5182555626
 30
0.0
 11
27.9366416486
 21
35.2382858834
 31
0.0
 12
29.5686749378
 22
37.1606197106
 32
0.0
 13
29.5686749378
 23
37.1606197106
 33
0.0
  0
LWPOLYLINE
  5
4E4
330
224
100
AcDbEntity
  8
2
100
AcDbPolyline
 90
        3
 70
     0
 43
0.0
 10
50.0
 20
47.9765717668
 42
0.1316524975873958
 10
37.2617141166
 20
44.5633583513862
 42
0.1316524975873959
 10
27.9366416486138
 20
35.2382858834
  0
ENDBLK
  5
294
330
224
100
AcDbEntity
  8
7
100
AcDbBlockEnd
  0
BLOCK
  5
22C
330
225
100
AcDbEntity
  8
7
100
AcDbBlockBegin
  2
NULLPUNKT_BL0
 70
     0
 10
0.0
 20
0.0
 30
0.0
  3
NULLPUNKT_BL0
  1

  0
SOLID
  5
321
330
225
100
AcDbEntity
  8
1
100
AcDbTrace
 10
-1.4917828431
 20
0.0
 30
0.0
 11
-1.5
 21
0.0
 31
0.0
 12
-1.4917828431
 22
0.1567926949
 32
0.0
 13
-1.4917828431
 23
0.1567926949
 33
0.0
  0
SOLID
  5
322
330
225
100
AcDbEntity
  8
1
100
AcDbTrace
 10
1.4917828431
 20
0.0
 30
0.0
 11
1.4917828431
 21
0.1567926949
 31
0.0
 12
1.4672214011
 22
0.0
 32
0.0
 13
1.4672214011
 23
0.0
 33
0.0
210
0.0
220
0.0
230
-1.0
  0
SOLID
  5
323
330
225
100
AcDbEntity
  8
1
100
AcDbTrace
 10
-1.4672214011
 20
0.0
 30
0.0
 11
-1.4917828431
 21
0.1567926949
 31
0.0
 12
-1.4672214011
 22
0.3118675362
 32
0.0
 13
-1.4672214011
 23
0.3118675362
 33
0.0
  0
SOLID
  5
324
330
225
100
AcDbEntity
  8
1
100
AcDbTrace
 10
1.4672214011
 20
0.0
 30
0.0
 11
1.4672214011
 21
0.3118675362
 31
0.0
 12
1.4265847744
 22
0.0
 32
0.0
 13
1.4265847744
 23
0.0
 33
0.0
210
0.0
220
0.0
230
-1.0
  0
SOLID
  5
325
330
225
100
AcDbEntity
  8
1
100
AcDbTrace
 10
-1.4265847744
 20
0.0
 30
0.0
 11
-1.4672214011
 21
0.3118675362
 31
0.0
 12
-1.4265847744
 22
0.4635254916
 32
0.0
 13
-1.4265847744
 23
0.4635254916
 33
0.0
  0
SOLID
  5
326
330
225
100
AcDbEntity
  8
1
100
AcDbTrace
 10
1.4265847744
 20
0.0
 30
0.0
 11
1.4265847744
 21
0.4635254916
 31
0.0
 12
1.3703181865
 22
0.0
 32
0.0
 13
1.3703181865
 23
0.0
 33
0.0
210
0.0
220
0.0
230
-1.0
  0
SOLID
  5
327
330
225
100
AcDbEntity
  8
1
100
AcDbTrace
 10
-1.3703181865
 20
0.0
 30
0.0
 11
-1.4265847744
 21
0.4635254916
 31
0.0
 12
-1.3703181865
 22
0.6101049646
 32
0.0
 13
-1.3703181865
 23
0.6101049646
 33
0.0
  0
SOLID
  5
328
330
225
100
AcDbEntity
  8
1
100
AcDbTrace
 10
1.3703181865
 20
0.0
 30
0.0
 11
1.3703181865
 21
0.6101049646
 31
0.0
 12
1.2990381057
 22
0.0
 32
0.0
 13
1.2990381057
 23
0.0
 33
0.0
210
0.0
220
0.0
230
-1.0
  0
SOLID
  5
329
330
225
100
AcDbEntity
  8
1
100
AcDbTrace
 10
-1.2990381057
 20
0.0
 30
0.0
 11
-1.3703181865
 21
0.6101049646
 31
0.0
 12
-1.2990381057
 22
0.75
 32
0.0
 13
-1.2990381057
 23
0.75
 33
0.0
  0
SOLID
  5
32A
330
225
100
AcDbEntity
  8
1
100
AcDbTrace
 10
1.2990381057
 20
0.0
 30
0.0
 11
1.2990381057
 21
0.75
 31
0.0
 12
1.2135254916
 22
0.0
 32
0.0
 13
1.2135254916
 23
0.0
 33
0.0
210
0.0
220
0.0
230
-1.0
  0
SOLID
  5
32B
330
225
100
AcDbEntity
  8
1
100
AcDbTrace
 10
-1.2135254916
 20
0.0
 30
0.0
 11
-1.2990381057
 21
0.75
 31
0.0
 12
-1.2135254916
 22
0.8816778784
 32
0.0
 13
-1.2135254916
 23
0.8816778784
 33
0.0
  0
SOLID
  5
32C
330
225
100
AcDbEntity
  8
1
100
AcDbTrace
 10
1.2135254916
 20
0.0
 30
0.0
 11
1.2135254916
 21
0.8816778784
 31
0.0
 12
1.1147172382
 22
0.0
 32
0.0
 13
1.1147172382
 23
0.0
 33
0.0
210
0.0
220
0.0
230
-1.0
  0
SOLID
  5
32D
330
225
100
AcDbEntity
  8
1
100
AcDbTrace
 10
-1.1147172382
 20
0.0
 30
0.0
 11
-1.2135254916
 21
0.8816778784
 31
0.0
 12
-1.1147172382
 22
1.0036959095
 32
0.0
 13
-1.1147172382
 23
1.0036959095
 33
0.0
  0
SOLID
  5
32E
330
225
100
AcDbEntity
  8
1
100
AcDbTrace
 10
1.1147172382
 20
0.0
 30
0.0
 11
1.1147172382
 21
1.0036959095
 31
0.0
 12
1.0036959095
 22
0.0
 32
0.0
 13
1.0036959095
 23
0.0
 33
0.0
210
0.0
220
0.0
230
-1.0
  0
SOLID
  5
32F
330
225
100
AcDbEntity
  8
1
100
AcDbTrace
 10
-1.0036959095
 20
0.0
 30
0.0
 11
-1.1147172382
 21
1.0036959095
 31
0.0
 12
-1.0036959095
 22
1.1147172382
 32
0.0
 13
-1.0036959095
 23
1.1147172382
 33
0.0
  0
SOLID
  5
330
330
225
100
AcDbEntity
  8
1
100
AcDbTrace
 10
1.0036959095
 20
0.0
 30
0.0
 11
1.0036959095
 21
1.1147172382
 31
0.0
 12
0.8816778784
 22
0.0
 32
0.0
 13
0.8816778784
 23
0.0
 33
0.0
210
0.0
220
0.0
230
-1.0
  0
SOLID
  5
331
330
225
100
AcDbEntity
  8
1
100
AcDbTrace
 10
-0.8816778784
 20
0.0
 30
0.0
 11
-1.0036959095
 21
1.1147172382
 31
0.0
 12
-0.8816778784
 22
1.2135254916
 32
0.0
 13
-0.8816778784
 23
1.2135254916
 33
0.0
  0
SOLID
  5
332
330
225
100
AcDbEntity
  8
1
100
AcDbTrace
 10
0.8816778784
 20
0.0
 30
0.0
 11
0.8816778784
 21
1.2135254916
 31
0.0
 12
0.75
 22
0.0
 32
0.0
 13
0.75
 23
0.0
 33
0.0
210
0.0
220
0.0
230
-1.0
  0
SOLID
  5
333
330
225
100
AcDbEntity
  8
1
100
AcDbTrace
 10
-0.75
 20
0.0
 30
0.0
 11
-0.8816778784
 21
1.2135254916
 31
0.0
 12
-0.75
 22
1.2990381057
 32
0.0
 13
-0.75
 23
1.2990381057
 33
0.0
  0
SOLID
  5
334
330
225
100
AcDbEntity
  8
1
100
AcDbTrace
 10
0.75
 20
0.0
 30
0.0
 11
0.75
 21
1.2990381057
 31
0.0
 12
0.6101049646
 22
0.0
 32
0.0
 13
0.6101049646
 23
0.0
 33
0.0
210
0.0
220
0.0
230
-1.0
  0
SOLID
  5
335
330
225
100
AcDbEntity
  8
1
100
AcDbTrace
 10
-0.6101049646
 20
0.0
 30
0.0
 11
-0.75
 21
1.2990381057
 31
0.0
 12
-0.6101049646
 22
1.3703181865
 32
0.0
 13
-0.6101049646
 23
1.3703181865
 33
0.0
  0
SOLID
  5
336
330
225
100
AcDbEntity
  8
1
100
AcDbTrace
 10
0.6101049646
 20
0.0
 30
0.0
 11
0.6101049646
 21
1.3703181865
 31
0.0
 12
0.4635254916
 22
0.0
 32
0.0
 13
0.4635254916
 23
0.0
 33
0.0
210
0.0
220
0.0
230
-1.0
  0
SOLID
  5
337
330
225
100
AcDbEntity
  8
1
100
AcDbTrace
 10
-0.4635254916
 20
0.0
 30
0.0
 11
-0.6101049646
 21
1.3703181865
 31
0.0
 12
-0.4635254916
 22
1.4265847744
 32
0.0
 13
-0.4635254916
 23
1.4265847744
 33
0.0
  0
SOLID
  5
338
330
225
100
AcDbEntity
  8
1
100
AcDbTrace
 10
0.4635254916
 20
0.0
 30
0.0
 11
0.4635254916
 21
1.4265847744
 31
0.0
 12
0.3118675362
 22
0.0
 32
0.0
 13
0.3118675362
 23
0.0
 33
0.0
210
0.0
220
0.0
230
-1.0
  0
SOLID
  5
339
330
225
100
AcDbEntity
  8
1
100
AcDbTrace
 10
-0.3118675362
 20
0.0
 30
0.0
 11
-0.4635254916
 21
1.4265847744
 31
0.0
 12
-0.3118675362
 22
1.4672214011
 32
0.0
 13
-0.3118675362
 23
1.4672214011
 33
0.0
  0
SOLID
  5
33A
330
225
100
AcDbEntity
  8
1
100
AcDbTrace
 10
0.3118675362
 20
0.0
 30
0.0
 11
0.3118675362
 21
1.4672214011
 31
0.0
 12
0.1567926949
 22
0.0
 32
0.0
 13
0.1567926949
 23
0.0
 33
0.0
210
0.0
220
0.0
230
-1.0
  0
SOLID
  5
33B
330
225
100
AcDbEntity
  8
1
100
AcDbTrace
 10
-0.1567926949
 20
0.0
 30
0.0
 11
-0.3118675362
 21
1.4672214011
 31
0.0
 12
-0.1567926949
 22
1.4917828431
 32
0.0
 13
-0.1567926949
 23
1.4917828431
 33
0.0
  0
SOLID
  5
33C
330
225
100
AcDbEntity
  8
1
100
AcDbTrace
 10
0.1567926949
 20
0.0
 30
0.0
 11
0.1567926949
 21
1.4917828431
 31
0.0
 12
0.0
 22
0.0
 32
0.0
 13
0.0
 23
0.0
 33
0.0
210
0.0
220
0.0
230
-1.0
  0
SOLID
  5
33D
330
225
100
AcDbEntity
  8
1
100
AcDbTrace
 10
0.0
 20
0.0
 30
0.0
 11
-0.1567926949
 21
1.4917828431
 31
0.0
 12
0.0
 22
1.5
 32
0.0
 13
0.0
 23
1.5
 33
0.0
  0
SOLID
  5
33E
330
225
100
AcDbEntity
  8
1
100
AcDbTrace
 10
0.0
 20
-1.5
 30
0.0
 11
0.0
 21
0.0
 31
0.0
 12
-0.1567926949
 22
-1.4917828431
 32
0.0
 13
-0.1567926949
 23
-1.4917828431
 33
0.0
210
0.0
220
0.0
230
-1.0
  0
SOLID
  5
33F
330
225
100
AcDbEntity
  8
1
100
AcDbTrace
 10
-0.1567926949
 20
-1.4917828431
 30
0.0
 11
0.0
 21
0.0
 31
0.0
 12
-0.1567926949
 22
0.0
 32
0.0
 13
-0.1567926949
 23
0.0
 33
0.0
210
0.0
220
0.0
230
-1.0
  0
SOLID
  5
340
330
225
100
AcDbEntity
  8
1
100
AcDbTrace
 10
-0.1567926949
 20
-1.4917828431
 30
0.0
 11
-0.1567926949
 21
0.0
 31
0.0
 12
-0.3118675362
 22
-1.4672214011
 32
0.0
 13
-0.3118675362
 23
-1.4672214011
 33
0.0
210
0.0
220
0.0
230
-1.0
  0
SOLID
  5
341
330
225
100
AcDbEntity
  8
1
100
AcDbTrace
 10
-0.3118675362
 20
-1.4672214011
 30
0.0
 11
-0.1567926949
 21
0.0
 31
0.0
 12
-0.3118675362
 22
0.0
 32
0.0
 13
-0.3118675362
 23
0.0
 33
0.0
210
0.0
220
0.0
230
-1.0
  0
SOLID
  5
342
330
225
100
AcDbEntity
  8
1
100
AcDbTrace
 10
-0.3118675362
 20
-1.4672214011
 30
0.0
 11
-0.3118675362
 21
0.0
 31
0.0
 12
-0.4635254916
 22
-1.4265847744
 32
0.0
 13
-0.4635254916
 23
-1.4265847744
 33
0.0
210
0.0
220
0.0
230
-1.0
  0
SOLID
  5
343
330
225
100
AcDbEntity
  8
1
100
AcDbTrace
 10
-0.4635254916
 20
-1.4265847744
 30
0.0
 11
-0.3118675362
 21
0.0
 31
0.0
 12
-0.4635254916
 22
0.0
 32
0.0
 13
-0.4635254916
 23
0.0
 33
0.0
210
0.0
220
0.0
230
-1.0
  0
SOLID
  5
344
330
225
100
AcDbEntity
  8
1
100
AcDbTrace
 10
-0.4635254916
 20
-1.4265847744
 30
0.0
 11
-0.4635254916
 21
0.0
 31
0.0
 12
-0.6101049646
 22
-1.3703181865
 32
0.0
 13
-0.6101049646
 23
-1.3703181865
 33
0.0
210
0.0
220
0.0
230
-1.0
  0
SOLID
  5
345
330
225
100
AcDbEntity
  8
1
100
AcDbTrace
 10
-0.6101049646
 20
-1.3703181865
 30
0.0
 11
-0.4635254916
 21
0.0
 31
0.0
 12
-0.6101049646
 22
0.0
 32
0.0
 13
-0.6101049646
 23
0.0
 33
0.0
210
0.0
220
0.0
230
-1.0
  0
SOLID
  5
346
330
225
100
AcDbEntity
  8
1
100
AcDbTrace
 10
-0.6101049646
 20
-1.3703181865
 30
0.0
 11
-0.6101049646
 21
0.0
 31
0.0
 12
-0.75
 22
-1.2990381057
 32
0.0
 13
-0.75
 23
-1.2990381057
 33
0.0
210
0.0
220
0.0
230
-1.0
  0
SOLID
  5
347
330
225
100
AcDbEntity
  8
1
100
AcDbTrace
 10
-0.75
 20
-1.2990381057
 30
0.0
 11
-0.6101049646
 21
0.0
 31
0.0
 12
-0.75
 22
0.0
 32
0.0
 13
-0.75
 23
0.0
 33
0.0
210
0.0
220
0.0
230
-1.0
  0
SOLID
  5
348
330
225
100
AcDbEntity
  8
1
100
AcDbTrace
 10
-0.75
 20
-1.2990381057
 30
0.0
 11
-0.75
 21
0.0
 31
0.0
 12
-0.8816778784
 22
-1.2135254916
 32
0.0
 13
-0.8816778784
 23
-1.2135254916
 33
0.0
210
0.0
220
0.0
230
-1.0
  0
SOLID
  5
349
330
225
100
AcDbEntity
  8
1
100
AcDbTrace
 10
-0.8816778784
 20
-1.2135254916
 30
0.0
 11
-0.75
 21
0.0
 31
0.0
 12
-0.8816778784
 22
0.0
 32
0.0
 13
-0.8816778784
 23
0.0
 33
0.0
210
0.0
220
0.0
230
-1.0
  0
SOLID
  5
34A
330
225
100
AcDbEntity
  8
1
100
AcDbTrace
 10
-0.8816778784
 20
-1.2135254916
 30
0.0
 11
-0.8816778784
 21
0.0
 31
0.0
 12
-1.0036959095
 22
-1.1147172382
 32
0.0
 13
-1.0036959095
 23
-1.1147172382
 33
0.0
210
0.0
220
0.0
230
-1.0
  0
SOLID
  5
34B
330
225
100
AcDbEntity
  8
1
100
AcDbTrace
 10
-1.0036959095
 20
-1.1147172382
 30
0.0
 11
-0.8816778784
 21
0.0
 31
0.0
 12
-1.0036959095
 22
0.0
 32
0.0
 13
-1.0036959095
 23
0.0
 33
0.0
210
0.0
220
0.0
230
-1.0
  0
SOLID
  5
34C
330
225
100
AcDbEntity
  8
1
100
AcDbTrace
 10
-1.0036959095
 20
-1.1147172382
 30
0.0
 11
-1.0036959095
 21
0.0
 31
0.0
 12
-1.1147172382
 22
-1.0036959095
 32
0.0
 13
-1.1147172382
 23
-1.0036959095
 33
0.0
210
0.0
220
0.0
230
-1.0
  0
SOLID
  5
34D
330
225
100
AcDbEntity
  8
1
100
AcDbTrace
 10
-1.1147172382
 20
-1.0036959095
 30
0.0
 11
-1.0036959095
 21
0.0
 31
0.0
 12
-1.1147172382
 22
0.0
 32
0.0
 13
-1.1147172382
 23
0.0
 33
0.0
210
0.0
220
0.0
230
-1.0
  0
SOLID
  5
34E
330
225
100
AcDbEntity
  8
1
100
AcDbTrace
 10
-1.1147172382
 20
-1.0036959095
 30
0.0
 11
-1.1147172382
 21
0.0
 31
0.0
 12
-1.2135254916
 22
-0.8816778784
 32
0.0
 13
-1.2135254916
 23
-0.8816778784
 33
0.0
210
0.0
220
0.0
230
-1.0
  0
SOLID
  5
34F
330
225
100
AcDbEntity
  8
1
100
AcDbTrace
 10
-1.2135254916
 20
-0.8816778784
 30
0.0
 11
-1.1147172382
 21
0.0
 31
0.0
 12
-1.2135254916
 22
0.0
 32
0.0
 13
-1.2135254916
 23
0.0
 33
0.0
210
0.0
220
0.0
230
-1.0
  0
SOLID
  5
350
330
225
100
AcDbEntity
  8
1
100
AcDbTrace
 10
-1.2135254916
 20
-0.8816778784
 30
0.0
 11
-1.2135254916
 21
0.0
 31
0.0
 12
-1.2990381057
 22
-0.75
 32
0.0
 13
-1.2990381057
 23
-0.75
 33
0.0
210
0.0
220
0.0
230
-1.0
  0
SOLID
  5
351
330
225
100
AcDbEntity
  8
1
100
AcDbTrace
 10
-1.2990381057
 20
-0.75
 30
0.0
 11
-1.2135254916
 21
0.0
 31
0.0
 12
-1.2990381057
 22
0.0
 32
0.0
 13
-1.2990381057
 23
0.0
 33
0.0
210
0.0
220
0.0
230
-1.0
  0
SOLID
  5
352
330
225
100
AcDbEntity
  8
1
100
AcDbTrace
 10
-1.2990381057
 20
-0.75
 30
0.0
 11
-1.2990381057
 21
0.0
 31
0.0
 12
-1.3703181865
 22
-0.6101049646
 32
0.0
 13
-1.3703181865
 23
-0.6101049646
 33
0.0
210
0.0
220
0.0
230
-1.0
  0
SOLID
  5
353
330
225
100
AcDbEntity
  8
1
100
AcDbTrace
 10
-1.3703181865
 20
-0.6101049646
 30
0.0
 11
-1.2990381057
 21
0.0
 31
0.0
 12
-1.3703181865
 22
0.0
 32
0.0
 13
-1.3703181865
 23
0.0
 33
0.0
210
0.0
220
0.0
230
-1.0
  0
SOLID
  5
354
330
225
100
AcDbEntity
  8
1
100
AcDbTrace
 10
-1.3703181865
 20
-0.6101049646
 30
0.0
 11
-1.3703181865
 21
0.0
 31
0.0
 12
-1.4265847744
 22
-0.4635254916
 32
0.0
 13
-1.4265847744
 23
-0.4635254916
 33
0.0
210
0.0
220
0.0
230
-1.0
  0
SOLID
  5
355
330
225
100
AcDbEntity
  8
1
100
AcDbTrace
 10
-1.4265847744
 20
-0.4635254916
 30
0.0
 11
-1.3703181865
 21
0.0
 31
0.0
 12
-1.4265847744
 22
0.0
 32
0.0
 13
-1.4265847744
 23
0.0
 33
0.0
210
0.0
220
0.0
230
-1.0
  0
SOLID
  5
356
330
225
100
AcDbEntity
  8
1
100
AcDbTrace
 10
-1.4265847744
 20
-0.4635254916
 30
0.0
 11
-1.4265847744
 21
0.0
 31
0.0
 12
-1.4672214011
 22
-0.3118675362
 32
0.0
 13
-1.4672214011
 23
-0.3118675362
 33
0.0
210
0.0
220
0.0
230
-1.0
  0
SOLID
  5
357
330
225
100
AcDbEntity
  8
1
100
AcDbTrace
 10
-1.4672214011
 20
-0.3118675362
 30
0.0
 11
-1.4265847744
 21
0.0
 31
0.0
 12
-1.4672214011
 22
0.0
 32
0.0
 13
-1.4672214011
 23
0.0
 33
0.0
210
0.0
220
0.0
230
-1.0
  0
SOLID
  5
358
330
225
100
AcDbEntity
  8
1
100
AcDbTrace
 10
-1.4672214011
 20
-0.3118675362
 30
0.0
 11
-1.4672214011
 21
0.0
 31
0.0
 12
-1.4917828431
 22
-0.1567926949
 32
0.0
 13
-1.4917828431
 23
-0.1567926949
 33
0.0
210
0.0
220
0.0
230
-1.0
  0
SOLID
  5
359
330
225
100
AcDbEntity
  8
1
100
AcDbTrace
 10
-1.4917828431
 20
-0.1567926949
 30
0.0
 11
-1.4672214011
 21
0.0
 31
0.0
 12
-1.4917828431
 22
0.0
 32
0.0
 13
-1.4917828431
 23
0.0
 33
0.0
210
0.0
220
0.0
230
-1.0
  0
SOLID
  5
35A
330
225
100
AcDbEntity
  8
1
100
AcDbTrace
 10
-1.4917828431
 20
-0.1567926949
 30
0.0
 11
-1.4917828431
 21
0.0
 31
0.0
 12
-1.5
 22
0.0
 32
0.0
 13
-1.5
 23
0.0
 33
0.0
210
0.0
220
0.0
230
-1.0
  0
LWPOLYLINE
  5
4E5
330
225
100
AcDbEntity
  8
1
100
AcDbPolyline
 90
       44
 70
     0
 43
0.0
 10
1.5
 20
0.0
 10
1.4917828431
 20
-0.1567926949
 10
1.4672214011
 20
-0.3118675362
 10
1.4265847744
 20
-0.4635254916
 10
1.3703181865
 20
-0.6101049646
 10
1.2990381057
 20
-0.75
 10
1.2135254916
 20
-0.8816778784
 10
1.1147172382
 20
-1.0036959095
 10
1.0036959095
 20
-1.1147172382
 10
0.8816778784
 20
-1.2135254916
 10
0.75
 20
-1.2990381057
 10
0.6101049646
 20
-1.3703181865
 10
0.4635254916
 20
-1.4265847744
 10
0.3118675362
 20
-1.4672214011
 10
0.1567926949
 20
-1.4917828431
 10
-0.0000000000000003
 20
-1.5
 42
0.414213562373095
 10
1.5
 20
0.0
 42
0.414213562373095
 10
0.0000000000000001
 20
1.5
 42
0.414213562373095
 10
-1.5
 20
0.0000000000000002
 42
0.414213562373095
 10
0.0
 20
-1.5
 10
0.0
 20
0.0
 10
1.5
 20
0.0
 42
-0.414213562373095
 10
-0.0000000000000003
 20
-1.5
 10
0.0
 20
0.0
 10
0.0
 20
1.5
 10
-0.1567926949
 20
1.4917828431
 10
-0.3118675362
 20
1.4672214011
 10
-0.4635254916
 20
1.4265847744
 10
-0.6101049646
 20
1.3703181865
 10
-0.75
 20
1.2990381057
 10
-0.8816778784
 20
1.2135254916
 10
-1.0036959095
 20
1.1147172382
 10
-1.1147172382
 20
1.0036959095
 10
-1.2135254916
 20
0.8816778784
 10
-1.2990381057
 20
0.75
 10
-1.3703181865
 20
0.6101049646
 10
-1.4265847744
 20
0.4635254916
 10
-1.4672214011
 20
0.3118675362
 10
-1.4917828431
 20
0.1567926949
 10
-1.5
 20
0.0
 10
0.0
 20
0.0
 10
1.5
 20
0.0
 10
0.0
 20
0.0
 10
-1.5
 20
0.0
  0
LWPOLYLINE
  5
4E6
330
225
100
AcDbEntity
  8
1
100
AcDbPolyline
 90
        3
 70
     0
 43
0.0
 10
0.0
 20
1.5
 10
0.0
 20
0.0
 10
0.0
 20
-1.5
  0
ENDBLK
  5
23C
330
225
100
AcDbEntity
  8
7
100
AcDbBlockEnd
  0
ENDSEC
  0
SECTION
  2
ENTITIES
  0
DIMENSION
  5
295
330
219
100
AcDbEntity
  8
SK2
100
AcDbDimension
  2
*D1
 10
-10.0
 20
13.5
 30
0.0
 11
-11.4749443853
 21
-2.2945914366
 31
0.0
 70
   160
  1
%%c<>
 71
     2
 42
27.0
  3
DIMSTYLE_1
100
AcDbAlignedDimension
 13
0.5
 23
-13.5
 33
0.0
 14
0.5
 24
13.5
 34
0.0
 50
90.0
100
AcDbRotatedDimension
  0
DIMENSION
  5
296
330
219
100
AcDbEntity
  8
2
100
AcDbDimension
  2
*D2
 10
50.0
 20
55.8090344047
 30
0.0
 11
22.2
 21
58.4340344047
 31
0.0
 70
   160
 71
     2
 42
50.0
  3
DIMSTYLE_2
100
AcDbAlignedDimension
 13
0.0
 23
33.7326599524
 33
0.0
 14
50.0
 24
23.0
 34
0.0
100
AcDbRotatedDimension
  0
DIMENSION
  5
297
330
219
100
AcDbEntity
  8
2
100
AcDbDimension
  2
*D3
 10
79.54
 20
22.5
 30
0.0
 11
78.0650556147
 21
-2.2945914366
 31
0.0
 70
   160
  1
%%c<>
 71
     2
 42
45.0
  3
DIMSTYLE_2
100
AcDbAlignedDimension
 13
50.5
 23
-22.5
 33
0.0
 14
50.5
 24
22.5
 34
0.0
 50
90.0
100
AcDbRotatedDimension
  0
DIMENSION
  5
298
330
219
100
AcDbEntity
  8
SK2
100
AcDbDimension
  2
*D4
 10
62.54
 20
6.5
 30
0.0
 11
61.0650556147
 21
-2.2945914366
 31
0.0
 70
   160
  1
%%c<>
 71
     2
 42
13.0
  3
DIMSTYLE_1
100
AcDbAlignedDimension
 13
29.0799417397
 23
-6.5
 33
0.0
 14
28.6552684597
 24
6.5
 34
0.0
 50
90.0
100
AcDbRotatedDimension
  0
DIMENSION
  5
299
330
219
100
AcDbEntity
  8
SK2
100
AcDbDimension
  2
*D5
 10
71.04
 20
10.0
 30
0.0
 11
69.5650556147
 21
-2.2945914366
 31
0.0
 70
   160
  1
%%c<>
 71
     2
 42
20.0
  3
DIMSTYLE_1
100
AcDbAlignedDimension
 13
40.4399519797
 23
-10.0
 33
0.0
 14
41.1831302197
 24
10.0
 34
0.0
 50
90.0
100
AcDbRotatedDimension
  0
DIMENSION
  5
29A
330
219
100
AcDbEntity
  8
SK2
100
AcDbDimension
  2
*D6
 10
22.0
 20
-45.164761
 30
0.0
 11
8.2
 21
-42.539761
 31
0.0
 70
   160
 71
     2
 42
22.0
  3
DIMSTYLE_3
100
AcDbAlignedDimension
 13
0.0
 23
-33.9978059789
 33
0.0
 14
22.0
 24
-13.2618059789
 34
0.0
100
AcDbRotatedDimension
  0
DIMENSION
  5
29B
330
219
100
AcDbEntity
  8
2
100
AcDbDimension
  2
*D7
 10
88.04
 20
35.165
 30
0.0
 11
87.5060102086
 21
-4.1719844301
 31
0.0
 70
   160
  1
%%c<>
 71
     2
 42
70.33
  3
DIMSTYLE_4
100
AcDbAlignedDimension
 13
28.5635765221
 23
-35.165
 33
0.0
 14
28.5635765221
 24
35.165
 34
0.0
 50
90.0
100
AcDbRotatedDimension
  0
DIMENSION
  5
29C
330
219
100
AcDbEntity
  8
SK2
100
AcDbDimension
  2
*D8
 10
-18.5
 20
35.0
 30
0.0
 11
-19.9749443853
 21
-2.2945914366
 31
0.0
 70
   160
  1
%%c<>
 71
     2
 42
70.0
  3
DIMSTYLE_1
100
AcDbAlignedDimension
 13
1.5
 23
-35.0
 33
0.0
 14
1.5
 24
35.0
 34
0.0
 50
90.0
100
AcDbRotatedDimension
  0
DIMENSION
  5
29D
330
219
100
AcDbEntity
  8
2
100
AcDbDimension
  2
*D9
 10
27.8013073934
 20
35.3164211521
 30
0.0
 11
34.3307820743
 21
51.2931469354
 31
0.0
 70
   162
 71
     2
 42
1.0471975512
  3
DIMSTYLE_5
100
AcDb2LineAngularDimension
 13
50.0
 23
49.9765717668
 33
0.0
 14
50.0
 24
23.0
 34
0.0
 15
29.6686924562
 25
34.2382858834
 35
0.0
 16
37.2617141166
 26
44.5633583514
 36
0.0
  0
MTEXT
  5
29E
330
219
100
AcDbEntity
  8
6
100
AcDbMText
 10
-4.4682455461
 20
-53.8851174911
 30
0.0
 40
5.0
 41
64.0
 71
     1
 72
     1
  1
15M1H045050F2R00
 73
     1
 44
0.9
  0
MTEXT
  5
29F
330
219
100
AcDbEntity
  8
6
100
AcDbMText
 10
93.4149308794
 20
-2.5010259764
 30
0.0
 40
3.5
 41
8.4
 71
     1
 72
     1
  1
Z=3
 11
0.0
 21
1.0
 31
0.0
 73
     1
 44
0.9
  0
MTEXT
  5
2A0
330
219
100
AcDbEntity
  8
6
100
AcDbMText
 10
56.7195544254
 20
46.9854344047
 30
0.0
 40
3.5
 41
30.8
 71
     1
 72
     1
  1
BEHW250308R
 73
     1
 44
0.9
  0
LINE
  5
2BD
330
219
100
AcDbEntity
  8
SK3
 48
0.2
100
AcDbLine
 10
1.0000034008
 20
-13.5000058878
 30
0.0
 11
0.0
 21
-14.0773584563
 31
0.0
  0
LINE
  5
2BE
330
219
100
AcDbEntity
  8
4
 48
0.2
100
AcDbLine
 10
-3.0
 20
0.0
 30
0.0
 11
51.7256283872
 21
0.0
 31
0.0
  0
LINE
  5
2C3
330
219
100
AcDbEntity
  8
SK3
 48
0.2
100
AcDbLine
 10
28.5001073197
 20
-6.3955847077
 30
0.0
 11
28.5
 21
-6.5
 31
0.0
  0
LINE
  5
2C5
330
219
100
AcDbEntity
  8
SK3
 48
0.2
100
AcDbLine
 10
22.4999705529
 20
-6.4999705439
 30
0.0
 11
21.9999682878
 21
-6.9999682781
 31
0.0
  0
LINE
  5
2C9
330
219
100
AcDbEntity
  8
SK3
 48
0.2
100
AcDbLine
 10
22.5
 20
6.5
 30
0.0
 11
28.5
 21
6.5
 31
0.0
  0
LINE
  5
2CD
330
219
100
AcDbEntity
  8
SK3
 48
0.2
100
AcDbLine
 10
1.0
 20
13.5
 30
0.0
 11
18.0
 21
13.5
 31
0.0
  0
SOLID
  5
369
330
219
100
AcDbEntity
  8
1
100
AcDbTrace
 10
-1.4917828431
 20
0.0
 30
0.0
 11
-1.5
 21
0.0
 31
0.0
 12
-1.4917828431
 22
0.1567926949
 32
0.0
 13
-1.4917828431
 23
0.1567926949
 33
0.0
  0
SOLID
  5
36A
330
219
100
AcDbEntity
  8
1
100
AcDbTrace
 10
1.4917828431
 20
0.0
 30
0.0
 11
1.4917828431
 21
0.1567926949
 31
0.0
 12
1.4672214011
 22
0.0
 32
0.0
 13
1.4672214011
 23
0.0
 33
0.0
210
0.0
220
0.0
230
-1.0
  0
SOLID
  5
36B
330
219
100
AcDbEntity
  8
1
100
AcDbTrace
 10
-1.4672214011
 20
0.0
 30
0.0
 11
-1.4917828431
 21
0.1567926949
 31
0.0
 12
-1.4672214011
 22
0.3118675362
 32
0.0
 13
-1.4672214011
 23
0.3118675362
 33
0.0
  0
SOLID
  5
36C
330
219
100
AcDbEntity
  8
1
100
AcDbTrace
 10
1.4672214011
 20
0.0
 30
0.0
 11
1.4672214011
 21
0.3118675362
 31
0.0
 12
1.4265847744
 22
0.0
 32
0.0
 13
1.4265847744
 23
0.0
 33
0.0
210
0.0
220
0.0
230
-1.0
  0
SOLID
  5
36D
330
219
100
AcDbEntity
  8
1
100
AcDbTrace
 10
-1.4265847744
 20
0.0
 30
0.0
 11
-1.4672214011
 21
0.3118675362
 31
0.0
 12
-1.4265847744
 22
0.4635254916
 32
0.0
 13
-1.4265847744
 23
0.4635254916
 33
0.0
  0
SOLID
  5
36E
330
219
100
AcDbEntity
  8
1
100
AcDbTrace
 10
1.4265847744
 20
0.0
 30
0.0
 11
1.4265847744
 21
0.4635254916
 31
0.0
 12
1.3703181865
 22
0.0
 32
0.0
 13
1.3703181865
 23
0.0
 33
0.0
210
0.0
220
0.0
230
-1.0
  0
SOLID
  5
36F
330
219
100
AcDbEntity
  8
1
100
AcDbTrace
 10
-1.3703181865
 20
0.0
 30
0.0
 11
-1.4265847744
 21
0.4635254916
 31
0.0
 12
-1.3703181865
 22
0.6101049646
 32
0.0
 13
-1.3703181865
 23
0.6101049646
 33
0.0
  0
SOLID
  5
370
330
219
100
AcDbEntity
  8
1
100
AcDbTrace
 10
1.3703181865
 20
0.0
 30
0.0
 11
1.3703181865
 21
0.6101049646
 31
0.0
 12
1.2990381057
 22
0.0
 32
0.0
 13
1.2990381057
 23
0.0
 33
0.0
210
0.0
220
0.0
230
-1.0
  0
SOLID
  5
371
330
219
100
AcDbEntity
  8
1
100
AcDbTrace
 10
-1.2990381057
 20
0.0
 30
0.0
 11
-1.3703181865
 21
0.6101049646
 31
0.0
 12
-1.2990381057
 22
0.75
 32
0.0
 13
-1.2990381057
 23
0.75
 33
0.0
  0
SOLID
  5
372
330
219
100
AcDbEntity
  8
1
100
AcDbTrace
 10
1.2990381057
 20
0.0
 30
0.0
 11
1.2990381057
 21
0.75
 31
0.0
 12
1.2135254916
 22
0.0
 32
0.0
 13
1.2135254916
 23
0.0
 33
0.0
210
0.0
220
0.0
230
-1.0
  0
SOLID
  5
373
330
219
100
AcDbEntity
  8
1
100
AcDbTrace
 10
-1.2135254916
 20
0.0
 30
0.0
 11
-1.2990381057
 21
0.75
 31
0.0
 12
-1.2135254916
 22
0.8816778784
 32
0.0
 13
-1.2135254916
 23
0.8816778784
 33
0.0
  0
SOLID
  5
374
330
219
100
AcDbEntity
  8
1
100
AcDbTrace
 10
1.2135254916
 20
0.0
 30
0.0
 11
1.2135254916
 21
0.8816778784
 31
0.0
 12
1.1147172382
 22
0.0
 32
0.0
 13
1.1147172382
 23
0.0
 33
0.0
210
0.0
220
0.0
230
-1.0
  0
SOLID
  5
375
330
219
100
AcDbEntity
  8
1
100
AcDbTrace
 10
-1.1147172382
 20
0.0
 30
0.0
 11
-1.2135254916
 21
0.8816778784
 31
0.0
 12
-1.1147172382
 22
1.0036959095
 32
0.0
 13
-1.1147172382
 23
1.0036959095
 33
0.0
  0
SOLID
  5
376
330
219
100
AcDbEntity
  8
1
100
AcDbTrace
 10
1.1147172382
 20
0.0
 30
0.0
 11
1.1147172382
 21
1.0036959095
 31
0.0
 12
1.0036959095
 22
0.0
 32
0.0
 13
1.0036959095
 23
0.0
 33
0.0
210
0.0
220
0.0
230
-1.0
  0
SOLID
  5
377
330
219
100
AcDbEntity
  8
1
100
AcDbTrace
 10
-1.0036959095
 20
0.0
 30
0.0
 11
-1.1147172382
 21
1.0036959095
 31
0.0
 12
-1.0036959095
 22
1.1147172382
 32
0.0
 13
-1.0036959095
 23
1.1147172382
 33
0.0
  0
SOLID
  5
378
330
219
100
AcDbEntity
  8
1
100
AcDbTrace
 10
1.0036959095
 20
0.0
 30
0.0
 11
1.0036959095
 21
1.1147172382
 31
0.0
 12
0.8816778784
 22
0.0
 32
0.0
 13
0.8816778784
 23
0.0
 33
0.0
210
0.0
220
0.0
230
-1.0
  0
SOLID
  5
379
330
219
100
AcDbEntity
  8
1
100
AcDbTrace
 10
-0.8816778784
 20
0.0
 30
0.0
 11
-1.0036959095
 21
1.1147172382
 31
0.0
 12
-0.8816778784
 22
1.2135254916
 32
0.0
 13
-0.8816778784
 23
1.2135254916
 33
0.0
  0
SOLID
  5
37A
330
219
100
AcDbEntity
  8
1
100
AcDbTrace
 10
0.8816778784
 20
0.0
 30
0.0
 11
0.8816778784
 21
1.2135254916
 31
0.0
 12
0.75
 22
0.0
 32
0.0
 13
0.75
 23
0.0
 33
0.0
210
0.0
220
0.0
230
-1.0
  0
SOLID
  5
37B
330
219
100
AcDbEntity
  8
1
100
AcDbTrace
 10
-0.75
 20
0.0
 30
0.0
 11
-0.8816778784
 21
1.2135254916
 31
0.0
 12
-0.75
 22
1.2990381057
 32
0.0
 13
-0.75
 23
1.2990381057
 33
0.0
  0
SOLID
  5
37C
330
219
100
AcDbEntity
  8
1
100
AcDbTrace
 10
0.75
 20
0.0
 30
0.0
 11
0.75
 21
1.2990381057
 31
0.0
 12
0.6101049646
 22
0.0
 32
0.0
 13
0.6101049646
 23
0.0
 33
0.0
210
0.0
220
0.0
230
-1.0
  0
SOLID
  5
37D
330
219
100
AcDbEntity
  8
1
100
AcDbTrace
 10
-0.6101049646
 20
0.0
 30
0.0
 11
-0.75
 21
1.2990381057
 31
0.0
 12
-0.6101049646
 22
1.3703181865
 32
0.0
 13
-0.6101049646
 23
1.3703181865
 33
0.0
  0
SOLID
  5
37E
330
219
100
AcDbEntity
  8
1
100
AcDbTrace
 10
0.6101049646
 20
0.0
 30
0.0
 11
0.6101049646
 21
1.3703181865
 31
0.0
 12
0.4635254916
 22
0.0
 32
0.0
 13
0.4635254916
 23
0.0
 33
0.0
210
0.0
220
0.0
230
-1.0
  0
SOLID
  5
37F
330
219
100
AcDbEntity
  8
1
100
AcDbTrace
 10
-0.4635254916
 20
0.0
 30
0.0
 11
-0.6101049646
 21
1.3703181865
 31
0.0
 12
-0.4635254916
 22
1.4265847744
 32
0.0
 13
-0.4635254916
 23
1.4265847744
 33
0.0
  0
SOLID
  5
380
330
219
100
AcDbEntity
  8
1
100
AcDbTrace
 10
0.4635254916
 20
0.0
 30
0.0
 11
0.4635254916
 21
1.4265847744
 31
0.0
 12
0.3118675362
 22
0.0
 32
0.0
 13
0.3118675362
 23
0.0
 33
0.0
210
0.0
220
0.0
230
-1.0
  0
SOLID
  5
381
330
219
100
AcDbEntity
  8
1
100
AcDbTrace
 10
-0.3118675362
 20
0.0
 30
0.0
 11
-0.4635254916
 21
1.4265847744
 31
0.0
 12
-0.3118675362
 22
1.4672214011
 32
0.0
 13
-0.3118675362
 23
1.4672214011
 33
0.0
  0
SOLID
  5
382
330
219
100
AcDbEntity
  8
1
100
AcDbTrace
 10
0.3118675362
 20
0.0
 30
0.0
 11
0.3118675362
 21
1.4672214011
 31
0.0
 12
0.1567926949
 22
0.0
 32
0.0
 13
0.1567926949
 23
0.0
 33
0.0
210
0.0
220
0.0
230
-1.0
  0
SOLID
  5
383
330
219
100
AcDbEntity
  8
1
100
AcDbTrace
 10
-0.1567926949
 20
0.0
 30
0.0
 11
-0.3118675362
 21
1.4672214011
 31
0.0
 12
-0.1567926949
 22
1.4917828431
 32
0.0
 13
-0.1567926949
 23
1.4917828431
 33
0.0
  0
SOLID
  5
384
330
219
100
AcDbEntity
  8
1
100
AcDbTrace
 10
0.1567926949
 20
0.0
 30
0.0
 11
0.1567926949
 21
1.4917828431
 31
0.0
 12
0.0
 22
0.0
 32
0.0
 13
0.0
 23
0.0
 33
0.0
210
0.0
220
0.0
230
-1.0
  0
SOLID
  5
385
330
219
100
AcDbEntity
  8
1
100
AcDbTrace
 10
0.0
 20
0.0
 30
0.0
 11
-0.1567926949
 21
1.4917828431
 31
0.0
 12
0.0
 22
1.5
 32
0.0
 13
0.0
 23
1.5
 33
0.0
  0
SOLID
  5
386
330
219
100
AcDbEntity
  8
1
100
AcDbTrace
 10
0.0
 20
-1.5
 30
0.0
 11
0.0
 21
0.0
 31
0.0
 12
-0.1567926949
 22
-1.4917828431
 32
0.0
 13
-0.1567926949
 23
-1.4917828431
 33
0.0
210
0.0
220
0.0
230
-1.0
  0
SOLID
  5
387
330
219
100
AcDbEntity
  8
1
100
AcDbTrace
 10
-0.1567926949
 20
-1.4917828431
 30
0.0
 11
0.0
 21
0.0
 31
0.0
 12
-0.1567926949
 22
0.0
 32
0.0
 13
-0.1567926949
 23
0.0
 33
0.0
210
0.0
220
0.0
230
-1.0
  0
SOLID
  5
388
330
219
100
AcDbEntity
  8
1
100
AcDbTrace
 10
-0.1567926949
 20
-1.4917828431
 30
0.0
 11
-0.1567926949
 21
0.0
 31
0.0
 12
-0.3118675362
 22
-1.4672214011
 32
0.0
 13
-0.3118675362
 23
-1.4672214011
 33
0.0
210
0.0
220
0.0
230
-1.0
  0
SOLID
  5
389
330
219
100
AcDbEntity
  8
1
100
AcDbTrace
 10
-0.3118675362
 20
-1.4672214011
 30
0.0
 11
-0.1567926949
 21
0.0
 31
0.0
 12
-0.3118675362
 22
0.0
 32
0.0
 13
-0.3118675362
 23
0.0
 33
0.0
210
0.0
220
0.0
230
-1.0
  0
SOLID
  5
38A
330
219
100
AcDbEntity
  8
1
100
AcDbTrace
 10
-0.3118675362
 20
-1.4672214011
 30
0.0
 11
-0.3118675362
 21
0.0
 31
0.0
 12
-0.4635254916
 22
-1.4265847744
 32
0.0
 13
-0.4635254916
 23
-1.4265847744
 33
0.0
210
0.0
220
0.0
230
-1.0
  0
SOLID
  5
38B
330
219
100
AcDbEntity
  8
1
100
AcDbTrace
 10
-0.4635254916
 20
-1.4265847744
 30
0.0
 11
-0.3118675362
 21
0.0
 31
0.0
 12
-0.4635254916
 22
0.0
 32
0.0
 13
-0.4635254916
 23
0.0
 33
0.0
210
0.0
220
0.0
230
-1.0
  0
SOLID
  5
38C
330
219
100
AcDbEntity
  8
1
100
AcDbTrace
 10
-0.4635254916
 20
-1.4265847744
 30
0.0
 11
-0.4635254916
 21
0.0
 31
0.0
 12
-0.6101049646
 22
-1.3703181865
 32
0.0
 13
-0.6101049646
 23
-1.3703181865
 33
0.0
210
0.0
220
0.0
230
-1.0
  0
SOLID
  5
38D
330
219
100
AcDbEntity
  8
1
100
AcDbTrace
 10
-0.6101049646
 20
-1.3703181865
 30
0.0
 11
-0.4635254916
 21
0.0
 31
0.0
 12
-0.6101049646
 22
0.0
 32
0.0
 13
-0.6101049646
 23
0.0
 33
0.0
210
0.0
220
0.0
230
-1.0
  0
SOLID
  5
38E
330
219
100
AcDbEntity
  8
1
100
AcDbTrace
 10
-0.6101049646
 20
-1.3703181865
 30
0.0
 11
-0.6101049646
 21
0.0
 31
0.0
 12
-0.75
 22
-1.2990381057
 32
0.0
 13
-0.75
 23
-1.2990381057
 33
0.0
210
0.0
220
0.0
230
-1.0
  0
SOLID
  5
38F
330
219
100
AcDbEntity
  8
1
100
AcDbTrace
 10
-0.75
 20
-1.2990381057
 30
0.0
 11
-0.6101049646
 21
0.0
 31
0.0
 12
-0.75
 22
0.0
 32
0.0
 13
-0.75
 23
0.0
 33
0.0
210
0.0
220
0.0
230
-1.0
  0
SOLID
  5
390
330
219
100
AcDbEntity
  8
1
100
AcDbTrace
 10
-0.75
 20
-1.2990381057
 30
0.0
 11
-0.75
 21
0.0
 31
0.0
 12
-0.8816778784
 22
-1.2135254916
 32
0.0
 13
-0.8816778784
 23
-1.2135254916
 33
0.0
210
0.0
220
0.0
230
-1.0
  0
SOLID
  5
391
330
219
100
AcDbEntity
  8
1
100
AcDbTrace
 10
-0.8816778784
 20
-1.2135254916
 30
0.0
 11
-0.75
 21
0.0
 31
0.0
 12
-0.8816778784
 22
0.0
 32
0.0
 13
-0.8816778784
 23
0.0
 33
0.0
210
0.0
220
0.0
230
-1.0
  0
SOLID
  5
392
330
219
100
AcDbEntity
  8
1
100
AcDbTrace
 10
-0.8816778784
 20
-1.2135254916
 30
0.0
 11
-0.8816778784
 21
0.0
 31
0.0
 12
-1.0036959095
 22
-1.1147172382
 32
0.0
 13
-1.0036959095
 23
-1.1147172382
 33
0.0
210
0.0
220
0.0
230
-1.0
  0
SOLID
  5
393
330
219
100
AcDbEntity
  8
1
100
AcDbTrace
 10
-1.0036959095
 20
-1.1147172382
 30
0.0
 11
-0.8816778784
 21
0.0
 31
0.0
 12
-1.0036959095
 22
0.0
 32
0.0
 13
-1.0036959095
 23
0.0
 33
0.0
210
0.0
220
0.0
230
-1.0
  0
SOLID
  5
394
330
219
100
AcDbEntity
  8
1
100
AcDbTrace
 10
-1.0036959095
 20
-1.1147172382
 30
0.0
 11
-1.0036959095
 21
0.0
 31
0.0
 12
-1.1147172382
 22
-1.0036959095
 32
0.0
 13
-1.1147172382
 23
-1.0036959095
 33
0.0
210
0.0
220
0.0
230
-1.0
  0
SOLID
  5
395
330
219
100
AcDbEntity
  8
1
100
AcDbTrace
 10
-1.1147172382
 20
-1.0036959095
 30
0.0
 11
-1.0036959095
 21
0.0
 31
0.0
 12
-1.1147172382
 22
0.0
 32
0.0
 13
-1.1147172382
 23
0.0
 33
0.0
210
0.0
220
0.0
230
-1.0
  0
SOLID
  5
396
330
219
100
AcDbEntity
  8
1
100
AcDbTrace
 10
-1.1147172382
 20
-1.0036959095
 30
0.0
 11
-1.1147172382
 21
0.0
 31
0.0
 12
-1.2135254916
 22
-0.8816778784
 32
0.0
 13
-1.2135254916
 23
-0.8816778784
 33
0.0
210
0.0
220
0.0
230
-1.0
  0
SOLID
  5
397
330
219
100
AcDbEntity
  8
1
100
AcDbTrace
 10
-1.2135254916
 20
-0.8816778784
 30
0.0
 11
-1.1147172382
 21
0.0
 31
0.0
 12
-1.2135254916
 22
0.0
 32
0.0
 13
-1.2135254916
 23
0.0
 33
0.0
210
0.0
220
0.0
230
-1.0
  0
SOLID
  5
398
330
219
100
AcDbEntity
  8
1
100
AcDbTrace
 10
-1.2135254916
 20
-0.8816778784
 30
0.0
 11
-1.2135254916
 21
0.0
 31
0.0
 12
-1.2990381057
 22
-0.75
 32
0.0
 13
-1.2990381057
 23
-0.75
 33
0.0
210
0.0
220
0.0
230
-1.0
  0
SOLID
  5
399
330
219
100
AcDbEntity
  8
1
100
AcDbTrace
 10
-1.2990381057
 20
-0.75
 30
0.0
 11
-1.2135254916
 21
0.0
 31
0.0
 12
-1.2990381057
 22
0.0
 32
0.0
 13
-1.2990381057
 23
0.0
 33
0.0
210
0.0
220
0.0
230
-1.0
  0
SOLID
  5
39A
330
219
100
AcDbEntity
  8
1
100
AcDbTrace
 10
-1.2990381057
 20
-0.75
 30
0.0
 11
-1.2990381057
 21
0.0
 31
0.0
 12
-1.3703181865
 22
-0.6101049646
 32
0.0
 13
-1.3703181865
 23
-0.6101049646
 33
0.0
210
0.0
220
0.0
230
-1.0
  0
SOLID
  5
39B
330
219
100
AcDbEntity
  8
1
100
AcDbTrace
 10
-1.3703181865
 20
-0.6101049646
 30
0.0
 11
-1.2990381057
 21
0.0
 31
0.0
 12
-1.3703181865
 22
0.0
 32
0.0
 13
-1.3703181865
 23
0.0
 33
0.0
210
0.0
220
0.0
230
-1.0
  0
SOLID
  5
39C
330
219
100
AcDbEntity
  8
1
100
AcDbTrace
 10
-1.3703181865
 20
-0.6101049646
 30
0.0
 11
-1.3703181865
 21
0.0
 31
0.0
 12
-1.4265847744
 22
-0.4635254916
 32
0.0
 13
-1.4265847744
 23
-0.4635254916
 33
0.0
210
0.0
220
0.0
230
-1.0
  0
SOLID
  5
39D
330
219
100
AcDbEntity
  8
1
100
AcDbTrace
 10
-1.4265847744
 20
-0.4635254916
 30
0.0
 11
-1.3703181865
 21
0.0
 31
0.0
 12
-1.4265847744
 22
0.0
 32
0.0
 13
-1.4265847744
 23
0.0
 33
0.0
210
0.0
220
0.0
230
-1.0
  0
SOLID
  5
39E
330
219
100
AcDbEntity
  8
1
100
AcDbTrace
 10
-1.4265847744
 20
-0.4635254916
 30
0.0
 11
-1.4265847744
 21
0.0
 31
0.0
 12
-1.4672214011
 22
-0.3118675362
 32
0.0
 13
-1.4672214011
 23
-0.3118675362
 33
0.0
210
0.0
220
0.0
230
-1.0
  0
SOLID
  5
39F
330
219
100
AcDbEntity
  8
1
100
AcDbTrace
 10
-1.4672214011
 20
-0.3118675362
 30
0.0
 11
-1.4265847744
 21
0.0
 31
0.0
 12
-1.4672214011
 22
0.0
 32
0.0
 13
-1.4672214011
 23
0.0
 33
0.0
210
0.0
220
0.0
230
-1.0
  0
SOLID
  5
3A0
330
219
100
AcDbEntity
  8
1
100
AcDbTrace
 10
-1.4672214011
 20
-0.3118675362
 30
0.0
 11
-1.4672214011
 21
0.0
 31
0.0
 12
-1.4917828431
 22
-0.1567926949
 32
0.0
 13
-1.4917828431
 23
-0.1567926949
 33
0.0
210
0.0
220
0.0
230
-1.0
  0
SOLID
  5
3A1
330
219
100
AcDbEntity
  8
1
100
AcDbTrace
 10
-1.4917828431
 20
-0.1567926949
 30
0.0
 11
-1.4672214011
 21
0.0
 31
0.0
 12
-1.4917828431
 22
0.0
 32
0.0
 13
-1.4917828431
 23
0.0
 33
0.0
210
0.0
220
0.0
230
-1.0
  0
SOLID
  5
3A2
330
219
100
AcDbEntity
  8
1
100
AcDbTrace
 10
-1.4917828431
 20
-0.1567926949
 30
0.0
 11
-1.4917828431
 21
0.0
 31
0.0
 12
-1.5
 22
0.0
 32
0.0
 13
-1.5
 23
0.0
 33
0.0
210
0.0
220
0.0
230
-1.0
  0
LWPOLYLINE
  5
4CF
330
219
100
AcDbEntity
  8
NOCUT
100
AcDbPolyline
 90
        9
 70
     0
 43
0.0
 10
0.0
 20
33.0
 42
-0.414213562373095
 10
2.0
 20
35.0
 10
25.6134665205
 20
35.0
 42
-0.1316524975873959
 10
26.6134665205
 20
34.7320508076
 10
47.75
 20
22.52886751349222
 42
-0.2679491924311227
 10
48.0
 20
22.0958548116
 10
48.0
 20
0.0
 10
0.0
 20
0.0
 10
0.0
 20
32.9656006396
  0
LWPOLYLINE
  5
4D0
330
219
100
AcDbEntity
  8
1
100
AcDbPolyline
 90
       16
 70
     0
 43
0.0
 10
0.0
 20
-33.0
 10
0.0
 20
-7.2
 10
0.0
 20
-33.0
 42
0.414213562373095
 10
2.0
 20
-35.0
 10
25.6134665205
 20
-35.0
 42
0.1316524975873959
 10
26.6134665205
 20
-34.73205080756887
 10
47.75
 20
-22.5288675135
 42
0.2679491924311226
 10
48.0
 20
-22.0958548116
 10
48.0
 20
22.0958548116
 42
0.2679491924311227
 10
47.75
 20
22.52886751349222
 10
26.6134665205
 20
34.7320508076
 42
0.1316524975873959
 10
25.6134665205
 20
35.0
 10
2.0
 20
35.0
 42
0.414213562373095
 10
0.0
 20
33.0
 10
0.0
 20
7.2
 10
0.0
 20
33.0
  0
LWPOLYLINE
  5
4D1
330
219
100
AcDbEntity
  8
SK3
 48
0.2
100
AcDbPolyline
 90
        3
 70
     0
 43
0.0
 10
0.0
 20
14.0773584563
 10
1.0
 20
13.5
 10
1.0000135988
 20
6.2
  0
LWPOLYLINE
  5
4D2
330
219
100
AcDbEntity
  8
SK3
 48
0.2
100
AcDbPolyline
 90
       10
 70
     0
 43
0.0
 10
1.0000135988
 20
-6.2
 10
1.0000000002
 20
-13.5
 10
18.0
 20
-13.5
 10
19.492820323
 20
-13.9
 10
21.0
 20
-13.9
 42
0.414213562373095
 10
22.0
 20
-12.9
 10
22.0
 20
12.9
 42
0.414213562373095
 10
21.0
 20
13.9
 10
19.492820323
 20
13.9
 10
19.492820323
 20
-13.9
  0
LWPOLYLINE
  5
4D3
330
219
100
AcDbEntity
  8
1
100
AcDbPolyline
 90
        8
 70
     0
 43
0.0
 10
0.0
 20
7.2
 10
1.0
 20
6.2
 10
6.4
 20
6.199999999999999
 42
-0.414213562373095
 10
7.0
 20
5.6
 10
7.0
 20
-5.6
 42
-0.414213562373095
 10
6.4
 20
-6.199999999999999
 10
1.0
 20
-6.2
 10
0.0
 20
-7.2
  0
LWPOLYLINE
  5
4D4
330
219
100
AcDbEntity
  8
SK3
 48
0.2
100
AcDbPolyline
 90
        6
 70
     0
 43
0.0
 10
41.0
 20
11.0
 42
-0.414213562373095
 10
40.0
 20
10.0
 10
29.0
 20
10.0
 10
29.0
 20
-10.0
 10
40.0
 20
-10.0
 42
-0.414213562373095
 10
41.0
 20
-11.0
  0
LWPOLYLINE
  5
4D5
330
219
100
AcDbEntity
  8
SK3
 48
0.2
100
AcDbPolyline
 90
        3
 70
     0
 43
0.0
 10
19.492820323
 20
13.9
 10
18.0
 20
13.5
 10
18.0
 20
-13.5
  0
LWPOLYLINE
  5
4D6
330
219
100
AcDbEntity
  8
SK3
 48
0.2
100
AcDbPolyline
 90
        8
 70
     0
 43
0.0
 10
21.9999682873
 20
6.9999682786
 10
22.5
 20
6.5
 10
22.5
 20
-6.5
 10
28.5
 20
-6.5
 10
29.0000276461
 20
-6.9999723449
 10
29.0
 20
7.0000000007
 10
28.5000256692
 20
6.4999743181
 10
28.5000590291
 20
-6.4742622844
  0
LWPOLYLINE
  5
4D7
330
219
100
AcDbEntity
  8
SK3
 48
0.2
100
AcDbPolyline
 90
        8
 70
     1
 43
0.0
 10
47.8830222216
 20
-21.6105913123
 10
41.23395555688102
 20
-13.68654222728654
 42
-0.176326980708465
 10
41.0
 20
-13.0437546176
 10
41.0
 20
13.0437546176
 42
-0.176326980708465
 10
41.2339555569
 20
13.6865422273
 10
47.8830222216
 20
21.6105913123
 42
0.176326980669324
 10
48.0
 20
21.93198511709826
 10
48.0
 20
-21.9319851171
 42
0.1763269806787717
  0
LWPOLYLINE
  5
4D8
330
219
100
AcDbEntity
  8
CUT
100
AcDbPolyline
 90
      123
 70
     1
 43
0.0
 10
49.613517
 20
22.72706
 10
49.6337883052
 20
22.7148236309
 10
49.65372
 20
22.702039
 10
49.672950319
 20
22.6889379964
 10
49.691803
 20
22.6753
 10
49.709990535
 20
22.6613310154
 10
49.727766
 20
22.646841
 10
49.7449128771
 20
22.63200617
 10
49.761608
 20
22.616665
 10
49.7777553747
 20
22.6008884565
 10
49.793408
 20
22.584621
 10
49.808554889
 20
22.5678713235
 10
49.823186
 20
22.550669
 10
49.8372310774
 20
22.533125096
 10
49.850753
 20
22.515175
 10
49.8636052001
 20
22.4970289538
 10
49.875914
 20
22.47851
 10
49.8875414848
 20
22.4598212544
 10
49.898592
 20
22.440786
 10
49.9090666835
 20
22.4213770485
 10
49.918942
 20
22.401656
 10
49.9282052266
 20
22.3816812535
 10
49.936868
 20
22.361439
 10
49.9448703211
 20
22.3410826719
 10
49.952257
 20
22.320495
 10
49.9589625992
 20
22.2998549837
 10
49.965035
 20
22.27902
 10
49.9704901486
 20
22.2579067383
 10
49.9753
 20
22.236637
 10
49.9794779642
 20
22.2151813777
 10
49.98301
 20
22.19361
 10
49.9858849922
 20
22.1719931745
 10
49.9881
 20
22.150299
 10
49.989638701
 20
22.1286515127
 10
49.990516
 20
22.106967
 10
49.9907373316
 20
22.0850938873
 10
49.990301
 20
22.063224
 10
49.9892047756
 20
22.0412322888
 10
49.987452
 20
22.019283
 10
49.9850371386
 20
21.9973592046
 10
49.981952
 20
21.97552
 10
49.9781972998
 20
21.9538316505
 10
49.973781
 20
21.932268
 10
49.9686662049
 20
21.9106269194
 10
49.962912
 20
21.889147
 10
49.9564618896
 20
21.8676193044
 10
49.94938
 20
21.846291
 10
49.9416295997
 20
21.8250796885
 10
49.933238
 20
21.804114
 10
49.9242047964
 20
21.7834261098
 10
49.914537
 20
21.763027
 10
49.9042043438
 20
21.7428463735
 10
49.893272
 20
21.722984
 10
49.8816306993
 20
21.7032281383
 10
49.869422
 20
21.683818
 10
49.85647484
 20
21.6644876393
 10
49.842987
 20
21.64553
 10
49.8287313251
 20
21.6266264806
 10
49.813966
 20
21.60812
 10
45.463745
 20
16.385655
 10
43.174155
 20
13.643657
 10
23.111385
 20
25.258622
 10
21.625254
 20
26.119517
 10
21.6049830406
 20
26.1318213644
 10
21.585051
 20
26.14467
 10
21.5658212203
 20
26.1578288878
 10
21.546968
 20
26.171521
 10
21.5287817472
 20
26.185537305
 10
21.511006
 20
26.200071
 10
21.4938595318
 20
26.2149434475
 10
21.477163
 20
26.230319
 10
21.4610167371
 20
26.2461225257
 10
21.445363
 20
26.262414
 10
21.4302172013
 20
26.279179849
 10
21.415585
 20
26.296396
 10
21.4015416894
 20
26.3139459322
 10
21.388019
 20
26.3319
 10
21.3751674657
 20
26.35004181
 10
21.362857
 20
26.368555
 10
21.3512305923
 20
26.3872302466
 10
21.340179
 20
26.406251
 10
21.32970549
 20
26.4256353775
 10
21.319829
 20
26.445331
 10
21.3105666543
 20
26.4652719079
 10
21.301903
 20
26.48548
 10
21.2939015752
 20
26.5057934226
 10
21.286514
 20
26.526338
 10
21.2798091057
 20
26.546925491
 10
21.273736
 20
26.567708
 10
21.2682814039
 20
26.5887601664
 10
21.263471
 20
26.609969
 10
21.2592934823
 20
26.6313535155
 10
21.255761
 20
26.652854
 10
21.252886232
 20
26.674392209
 10
21.250671
 20
26.696008
 10
21.2491324259
 20
26.7175689229
 10
21.248255
 20
26.739167
 10
21.2480336747
 20
26.7609446191
 10
21.24847
 20
26.782719
 10
21.2495661083
 20
26.8046083194
 10
21.251319
 20
26.826455
 10
21.2537336749
 20
26.8482690321
 10
21.256819
 20
26.869998
 10
21.2605734493
 20
26.8915702385
 10
21.26499
 20
26.913017
 10
21.270104619
 20
26.934534584
 10
21.275859
 20
26.95589
 10
21.2823087531
 20
26.9772879343
 10
21.289391
 20
26.998485
 10
21.2971418714
 20
27.0195601135
 10
21.305534
 20
27.040388
 10
21.3145668142
 20
27.0609363455
 10
21.324234
 20
27.081194
 10
21.3345665801
 20
27.1012303191
 10
21.345499
 20
27.120946
 10
21.357140565
 20
27.1405520494
 10
21.369349
 20
27.15981
 10
21.3822966043
 20
27.1789855759
 10
21.395784
 20
27.197786
 10
21.410040372
 20
27.2165302085
 10
21.424805
 20
27.234875
 10
27.377739
 20
34.34283
 10
28.064616
 20
35.164761
  0
LWPOLYLINE
  5
4D9
330
219
100
AcDbEntity
  8
1
100
AcDbPolyline
 90
      123
 70
     1
 43
0.0
 10
49.613517
 20
-22.72706
 10
49.6337883052
 20
-22.7148236309
 10
49.65372
 20
-22.702039
 10
49.672950319
 20
-22.6889379964
 10
49.691803
 20
-22.6753
 10
49.709990535
 20
-22.6613310154
 10
49.727766
 20
-22.646841
 10
49.7449128771
 20
-22.63200617
 10
49.761608
 20
-22.616665
 10
49.7777553747
 20
-22.6008884565
 10
49.793408
 20
-22.584621
 10
49.808554889
 20
-22.5678713235
 10
49.823186
 20
-22.550669
 10
49.8372310774
 20
-22.533125096
 10
49.850753
 20
-22.515175
 10
49.8636052001
 20
-22.4970289538
 10
49.875914
 20
-22.47851
 10
49.8875414848
 20
-22.4598212544
 10
49.898592
 20
-22.440786
 10
49.9090666835
 20
-22.4213770485
 10
49.918942
 20
-22.401656
 10
49.9282052266
 20
-22.3816812535
 10
49.936868
 20
-22.361439
 10
49.9448703211
 20
-22.3410826719
 10
49.952257
 20
-22.320495
 10
49.9589625992
 20
-22.2998549837
 10
49.965035
 20
-22.27902
 10
49.9704901486
 20
-22.2579067383
 10
49.9753
 20
-22.236637
 10
49.9794779642
 20
-22.2151813777
 10
49.98301
 20
-22.19361
 10
49.9858849922
 20
-22.1719931745
 10
49.9881
 20
-22.150299
 10
49.989638701
 20
-22.1286515127
 10
49.990516
 20
-22.106967
 10
49.9907373316
 20
-22.0850938873
 10
49.990301
 20
-22.063224
 10
49.9892047756
 20
-22.0412322888
 10
49.987452
 20
-22.019283
 10
49.9850371386
 20
-21.9973592046
 10
49.981952
 20
-21.97552
 10
49.9781972998
 20
-21.9538316505
 10
49.973781
 20
-21.932268
 10
49.9686662049
 20
-21.9106269194
 10
49.962912
 20
-21.889147
 10
49.9564618896
 20
-21.8676193044
 10
49.94938
 20
-21.846291
 10
49.9416295997
 20
-21.8250796885
 10
49.933238
 20
-21.804114
 10
49.9242047964
 20
-21.7834261098
 10
49.914537
 20
-21.763027
 10
49.9042043438
 20
-21.7428463735
 10
49.893272
 20
-21.722984
 10
49.8816306993
 20
-21.7032281383
 10
49.869422
 20
-21.683818
 10
49.85647484
 20
-21.6644876393
 10
49.842987
 20
-21.64553
 10
49.8287313251
 20
-21.6266264806
 10
49.813966
 20
-21.60812
 10
43.174155
 20
-13.643657
 10
21.625254
 20
-26.119517
 10
21.6049830406
 20
-26.1318213644
 10
21.585051
 20
-26.14467
 10
21.5658212203
 20
-26.1578288878
 10
21.546968
 20
-26.171521
 10
21.5287817472
 20
-26.185537305
 10
21.511006
 20
-26.200071
 10
21.4938595318
 20
-26.2149434475
 10
21.477163
 20
-26.230319
 10
21.4610167371
 20
-26.2461225257
 10
21.445363
 20
-26.262414
 10
21.4302172013
 20
-26.279179849
 10
21.415585
 20
-26.296396
 10
21.4015416894
 20
-26.3139459322
 10
21.388019
 20
-26.3319
 10
21.3751674657
 20
-26.35004181
 10
21.362857
 20
-26.368555
 10
21.3512305923
 20
-26.3872302466
 10
21.340179
 20
-26.406251
 10
21.32970549
 20
-26.4256353775
 10
21.319829
 20
-26.445331
 10
21.3105666543
 20
-26.4652719079
 10
21.301903
 20
-26.48548
 10
21.2939015752
 20
-26.5057934226
 10
21.286514
 20
-26.526338
 10
21.2798091057
 20
-26.546925491
 10
21.273736
 20
-26.567708
 10
21.2682814039
 20
-26.5887601664
 10
21.263471
 20
-26.609969
 10
21.2592934823
 20
-26.6313535155
 10
21.255761
 20
-26.652854
 10
21.252886232
 20
-26.674392209
 10
21.250671
 20
-26.696008
 10
21.2491324259
 20
-26.7175689229
 10
21.248255
 20
-26.739167
 10
21.2480336747
 20
-26.7609446191
 10
21.24847
 20
-26.782719
 10
21.2495661083
 20
-26.8046083194
 10
21.251319
 20
-26.826455
 10
21.2537336749
 20
-26.8482690321
 10
21.256819
 20
-26.869998
 10
21.2605734493
 20
-26.8915702385
 10
21.26499
 20
-26.913017
 10
21.270104619
 20
-26.934534584
 10
21.275859
 20
-26.95589
 10
21.2823087531
 20
-26.9772879343
 10
21.289391
 20
-26.998485
 10
21.2971418714
 20
-27.0195601135
 10
21.305534
 20
-27.040388
 10
21.3145668142
 20
-27.0609363455
 10
21.324234
 20
-27.081194
 10
21.3345665801
 20
-27.1012303191
 10
21.345499
 20
-27.120946
 10
21.357140565
 20
-27.1405520494
 10
21.369349
 20
-27.15981
 10
21.3822966043
 20
-27.1789855759
 10
21.395784
 20
-27.197786
 10
21.410040372
 20
-27.2165302085
 10
21.424805
 20
-27.234875
 10
24.630231
 20
-31.058339
 10
28.064616
 20
-35.164761
 10
39.210599
 20
-28.725658
 10
48.127386
 20
-23.583013
  0
LWPOLYLINE
  5
4DA
330
219
100
AcDbEntity
  8
1
100
AcDbPolyline
 90
       44
 70
     0
 43
0.0
 10
1.5
 20
0.0
 10
1.4917828431
 20
-0.1567926949
 10
1.4672214011
 20
-0.3118675362
 10
1.4265847744
 20
-0.4635254916
 10
1.3703181865
 20
-0.6101049646
 10
1.2990381057
 20
-0.75
 10
1.2135254916
 20
-0.8816778784
 10
1.1147172382
 20
-1.0036959095
 10
1.0036959095
 20
-1.1147172382
 10
0.8816778784
 20
-1.2135254916
 10
0.75
 20
-1.2990381057
 10
0.6101049646
 20
-1.3703181865
 10
0.4635254916
 20
-1.4265847744
 10
0.3118675362
 20
-1.4672214011
 10
0.1567926949
 20
-1.4917828431
 10
-0.0000000000000003
 20
-1.5
 42
0.414213562373095
 10
1.5
 20
0.0
 42
0.414213562373095
 10
0.0000000000000001
 20
1.5
 42
0.414213562373095
 10
-1.5
 20
0.0000000000000002
 42
0.414213562373095
 10
0.0
 20
-1.5
 10
0.0
 20
0.0
 10
1.5
 20
0.0
 42
-0.414213562373095
 10
-0.0000000000000003
 20
-1.5
 10
0.0
 20
0.0
 10
0.0
 20
1.5
 10
-0.1567926949
 20
1.4917828431
 10
-0.3118675362
 20
1.4672214011
 10
-0.4635254916
 20
1.4265847744
 10
-0.6101049646
 20
1.3703181865
 10
-0.75
 20
1.2990381057
 10
-0.8816778784
 20
1.2135254916
 10
-1.0036959095
 20
1.1147172382
 10
-1.1147172382
 20
1.0036959095
 10
-1.2135254916
 20
0.8816778784
 10
-1.2990381057
 20
0.75
 10
-1.3703181865
 20
0.6101049646
 10
-1.4265847744
 20
0.4635254916
 10
-1.4672214011
 20
0.3118675362
 10
-1.4917828431
 20
0.1567926949
 10
-1.5
 20
0.0
 10
0.0
 20
0.0
 10
1.5
 20
0.0
 10
0.0
 20
0.0
 10
-1.5
 20
0.0
  0
LWPOLYLINE
  5
4DB
330
219
100
AcDbEntity
  8
1
100
AcDbPolyline
 90
        3
 70
     0
 43
0.0
 10
0.0
 20
1.5
 10
0.0
 20
0.0
 10
0.0
 20
-1.5
  0
ENDSEC
  0
SECTION
  2
OBJECTS
  0
DICTIONARY
  5
C
330
0
100
AcDbDictionary
281
     1
  3
ACAD_GROUP
350
D
  3
ACAD_LAYOUT
350
1A
  3
ACAD_MLEADERSTYLE
350
310
  3
ACAD_MLINESTYLE
350
17
  3
ACAD_PLOTSETTINGS
350
19
  3
ACAD_PLOTSTYLENAME
350
E
  3
ACAD_TABLESTYLE
350
30F
  0
DICTIONARY
  5
D
102
{ACAD_REACTORS
330
C
102
}
330
C
100
AcDbDictionary
281
     1
  0
DICTIONARY
  5
1A
102
{ACAD_REACTORS
330
C
102
}
330
C
100
AcDbDictionary
281
     1
  3
Layout1
350
2FA
  3
Model
350
2F9
  0
DICTIONARY
  5
310
102
{ACAD_REACTORS
330
C
102
}
330
C
100
AcDbDictionary
281
     1
  0
DICTIONARY
  5
17
102
{ACAD_REACTORS
330
C
102
}
330
C
100
AcDbDictionary
281
     1
  3
Standard
350
18
  0
DICTIONARY
  5
19
102
{ACAD_REACTORS
330
C
102
}
330
C
100
AcDbDictionary
281
     1
  0
ACDBDICTIONARYWDFLT
  5
E
102
{ACAD_REACTORS
330
C
102
}
330
C
100
AcDbDictionary
281
     1
  3
Normal
350
F
100
AcDbDictionaryWithDefault
340
F
  0
DICTIONARY
  5
30F
102
{ACAD_REACTORS
330
C
102
}
330
C
100
AcDbDictionary
281
     1
  0
LAYOUT
  5
2FA
102
{ACAD_REACTORS
330
1A
102
}
330
1A
100
AcDbPlotSettings
  1

  2
none_device
  4
ISO_A2_(594.00_x_420.00_MM)
  6

 40
0.0
 41
0.0
 42
0.0
 43
0.0
 44
594.0
 45
420.0
 46
0.0
 47
0.0
 48
0.0
 49
0.0
140
0.0
141
0.0
142
1.0
143
1.0
 70
     0
 72
     1
 73
     0
 74
     0
  7

 75
     0
147
1.0
148
0.0
149
0.0
100
AcDbLayout
  1
Layout1
 70
     0
 71
     1
 10
0.0
 20
0.0
 11
594.0
 21
420.0
 12
0.0
 22
0.0
 32
0.0
 14
0.0
 24
0.0
 34
0.0
 15
0.0
 25
0.0
 35
0.0
146
0.0
 13
0.0
 23
0.0
 33
0.0
 16
1.0
 26
0.0
 36
0.0
 17
0.0
 27
1.0
 37
0.0
 76
     0
330
21A
  0
LAYOUT
  5
2F9
102
{ACAD_REACTORS
330
1A
102
}
330
1A
100
AcDbPlotSettings
  1

  2
none_device
  4
ISO_A2_(594.00_x_420.00_MM)
  6

 40
0.0
 41
0.0
 42
0.0
 43
0.0
 44
594.0
 45
420.0
 46
0.0
 47
0.0
 48
0.0
 49
0.0
140
0.0
141
0.0
142
1.0
143
1.0
 70
  1024
 72
     1
 73
     0
 74
     0
  7

 75
     0
147
1.0
148
0.0
149
0.0
100
AcDbLayout
  1
Model
 70
     0
 71
     0
 10
0.0
 20
0.0
 11
594.0
 21
420.0
 12
0.0
 22
0.0
 32
0.0
 14
0.0
 24
0.0
 34
0.0
 15
0.0
 25
0.0
 35
0.0
146
0.0
 13
0.0
 23
0.0
 33
0.0
 16
1.0
 26
0.0
 36
0.0
 17
0.0
 27
1.0
 37
0.0
 76
     0
330
219
331
1F4
  0
MLINESTYLE
  5
18
102
{ACAD_REACTORS
330
17
102
}
330
17
100
AcDbMlineStyle
  2
STANDARD
 70
     0
  3

 62
   256
 51
90.0
 52
90.0
 71
     2
 49
0.5
 62
   256
  6
BYLAYER
 49
-0.5
 62
   256
  6
BYLAYER
  0
ACDBPLACEHOLDER
  5
F
102
{ACAD_REACTORS
330
E
102
}
330
E
  0
ENDSEC
  0
EOF
